0
SECTION
2
HEADER
9
$ACADVER
1
AC1015
9
$DWGCODEPAGE
3
ANSI_1252
9
$HANDSEED
5
214
9
$ANGBASE
50
0
9
$ANGDIR
70
0
9
$ATTMODE
70
1
9
$AUNITS
70
0
9
$AUPREC
70
0
9
$CECOLOR
62
256
9
$CELTSCALE
40
1
9
$CELTYPE
6
ByLayer
9
$CELWEIGHT
370
18
9
$CLAYER
8
0
9
$CMLJUST
70
0
9
$CMLSCALE
40
1
9
$CMLSTYLE
2
Standard
9
$DIMSTYLE
2
Standard
9
$TEXTSIZE
40
0.2
9
$TEXTSTYLE
7
Standard
9
$LUNITS
70
2
9
$LUPREC
70
4
9
$EXTNAMES
290
1
9
$INSUNITS
70
4
9
$LTSCALE
40
1
9
$LWDISPLAY
290
1
9
$PDMODE
70
0
9
$PDSIZE
40
0
9
$PLINEGEN
70
0
0
ENDSEC
0
SECTION
2
CLASSES
0
CLASS
1
RASTERVARIABLES
2
AcDbRasterVariables
3
ISM
90
0
280
0
281
0
0
ENDSEC
0
SECTION
2
TABLES
0
TABLE
2
VPORT
5
20a
100
AcDbSymbolTable
0
VPORT
5
1
100
AcDbSymbolTableRecord
100
AcDbViewportTableRecord
2
*Active
70
0
10
0
20
0
11
1
21
1
12
-1
22
1
13
0
23
0
14
0.5
24
0.5
15
10
25
10
16
0
26
0
36
1
17
0
27
0
37
0
0
ENDTAB
0
TABLE
2
LTYPE
5
20b
100
AcDbSymbolTable
0
LTYPE
5
14
100
AcDbSymbolTableRecord
100
AcDbLinetypeTableRecord
70
0
2
ByBlock
3

72
65
73
0
40
0
0
LTYPE
5
15
100
AcDbSymbolTableRecord
100
AcDbLinetypeTableRecord
70
0
2
ByLayer
3

72
65
73
0
40
0
0
LTYPE
5
16
100
AcDbSymbolTableRecord
100
AcDbLinetypeTableRecord
70
0
2
Continuous
3
Solid line
72
65
73
0
40
0
0
LTYPE
5
6E
100
AcDbSymbolTableRecord
100
AcDbLinetypeTableRecord
70
0
2
CENTER
3
____ _ ____ _ ____ _ ____
72
65
73
4
40
47.5
49
22
74
0
49
-8.5
74
0
49
8.5
74
0
49
-8.5
74
0
0
LTYPE
5
6F
100
AcDbSymbolTableRecord
100
AcDbLinetypeTableRecord
70
0
2
DASHED
3
__ __ __ __ __ __ __ __ __
72
65
73
2
40
25.72
49
12.86
74
0
49
-12.86
74
0
0
ENDTAB
0
TABLE
2
LAYER
5
20c
100
AcDbSymbolTable
0
LAYER
5
10
100
AcDbSymbolTableRecord
100
AcDbLayerTableRecord
2
0
70
0
62
7
6
Continuous
290
1
370
-3
390
0
0
LAYER
5
71
100
AcDbSymbolTableRecord
100
AcDbLayerTableRecord
2
81
70
0
62
-3
6
Continuous
290
1
370
-3
390
0
0
LAYER
5
73
100
AcDbSymbolTableRecord
100
AcDbLayerTableRecord
2
80
70
0
62
-6
6
Continuous
290
1
370
-3
390
0
0
LAYER
5
75
100
AcDbSymbolTableRecord
100
AcDbLayerTableRecord
2
1
70
0
62
4
6
Continuous
290
1
370
-3
390
0
0
LAYER
5
11C
100
AcDbSymbolTableRecord
100
AcDbLayerTableRecord
2
Defpoints
70
0
62
7
6
Continuous
290
0
370
-3
390
0
0
LAYER
5
12A
100
AcDbSymbolTableRecord
100
AcDbLayerTableRecord
2
2
70
0
62
7
6
Continuous
290
1
370
-3
390
0
0
LAYER
5
1f7
100
AcDbSymbolTableRecord
100
AcDbLayerTableRecord
2
SK1
70
0
62
4
6
Continuous
290
1
370
-3
390
0
0
LAYER
5
1f8
100
AcDbSymbolTableRecord
100
AcDbLayerTableRecord
2
SK6
70
0
62
5
6
Continuous
290
1
370
-3
390
0
0
LAYER
5
1f9
100
AcDbSymbolTableRecord
100
AcDbLayerTableRecord
2
SK2
70
0
62
7
6
Continuous
290
1
370
-3
390
0
0
ENDTAB
0
TABLE
2
STYLE
5
20d
100
AcDbSymbolTable
0
STYLE
5
11
100
AcDbSymbolTableRecord
100
AcDbTextStyleTableRecord
2
Standard
3
txt
70
0
71
0
40
0
41
1
42
0
50
0
0
STYLE
5
115
100
AcDbSymbolTableRecord
100
AcDbTextStyleTableRecord
2
iso_b_vert
3
simplex.shx
70
0
71
0
40
0
41
1
42
0
50
0
0
STYLE
5
116
100
AcDbSymbolTableRecord
100
AcDbTextStyleTableRecord
2
DWGDirectTextStyle
3
simplex
70
0
71
0
40
0
41
1
42
0
50
0
0
ENDTAB
0
TABLE
2
DIMSTYLE
5
20e
100
AcDbSymbolTable
100
AcDbDimStyleTable
0
DIMSTYLE
105
27
100
AcDbSymbolTableRecord
100
AcDbDimStyleTableRecord
2
Standard
70
0
3
<>
41
0.18
42
0.0625
44
0.18
140
0.18
147
0.09
73
0
74
0
77
1
271
2
275
0
278
52
280
0
340
11
0
ENDTAB
0
TABLE
2
VIEW
5
20f
100
AcDbSymbolTable
0
ENDTAB
0
TABLE
2
UCS
5
210
100
AcDbSymbolTable
0
ENDTAB
0
TABLE
2
APPID
5
211
100
AcDbSymbolTable
0
APPID
5
12
100
AcDbSymbolTableRecord
100
AcDbRegAppTableRecord
2
ACAD
70
0
0
APPID
5
118
100
AcDbSymbolTableRecord
100
AcDbRegAppTableRecord
2
ACAD_DSTYLE_DIMBREAK
70
0
0
APPID
5
1B6
100
AcDbSymbolTableRecord
100
AcDbRegAppTableRecord
2
ACAD_DSTYLE_DIM_LINETYPE
70
0
0
APPID
5
1B7
100
AcDbSymbolTableRecord
100
AcDbRegAppTableRecord
2
ACAD_DSTYLE_DIM_EXT1_LINETYPE
70
0
0
APPID
5
1B8
100
AcDbSymbolTableRecord
100
AcDbRegAppTableRecord
2
ACAD_DSTYLE_DIM_EXT2_LINETYPE
70
0
0
APPID
5
1F3
100
AcDbSymbolTableRecord
100
AcDbRegAppTableRecord
2
ACAD_MLEADERVER
70
0
0
ENDTAB
0
TABLE
2
BLOCK_RECORD
5
212
100
AcDbSymbolTable
0
BLOCK_RECORD
5
1F
100
AcDbSymbolTableRecord
100
AcDbBlockTableRecord
2
*Model_Space
340
0
70
0
0
BLOCK_RECORD
5
1B
100
AcDbSymbolTableRecord
100
AcDbBlockTableRecord
2
*Paper_Space
340
0
70
0
0
BLOCK_RECORD
5
23
100
AcDbSymbolTableRecord
100
AcDbBlockTableRecord
2
*Paper_Space0
340
0
70
0
0
BLOCK_RECORD
5
11D
100
AcDbSymbolTableRecord
100
AcDbBlockTableRecord
2
*D1
340
0
70
0
0
BLOCK_RECORD
5
12B
100
AcDbSymbolTableRecord
100
AcDbBlockTableRecord
2
_U0
340
0
70
0
0
BLOCK_RECORD
5
137
100
AcDbSymbolTableRecord
100
AcDbBlockTableRecord
2
*D3
340
0
70
0
0
BLOCK_RECORD
5
144
100
AcDbSymbolTableRecord
100
AcDbBlockTableRecord
2
_U1
340
0
70
0
0
BLOCK_RECORD
5
150
100
AcDbSymbolTableRecord
100
AcDbBlockTableRecord
2
*D5
340
0
70
0
0
BLOCK_RECORD
5
15E
100
AcDbSymbolTableRecord
100
AcDbBlockTableRecord
2
_U2
340
0
70
0
0
BLOCK_RECORD
5
16A
100
AcDbSymbolTableRecord
100
AcDbBlockTableRecord
2
*D7
340
0
70
0
0
BLOCK_RECORD
5
177
100
AcDbSymbolTableRecord
100
AcDbBlockTableRecord
2
_U3
340
0
70
0
0
BLOCK_RECORD
5
183
100
AcDbSymbolTableRecord
100
AcDbBlockTableRecord
2
*D9
340
0
70
0
0
BLOCK_RECORD
5
18F
100
AcDbSymbolTableRecord
100
AcDbBlockTableRecord
2
_U4
340
0
70
0
0
ENDTAB
0
ENDSEC
0
SECTION
2
BLOCKS
0
BLOCK
5
20
100
AcDbEntity
8
0
100
AcDbBlockBegin
2
*Model_Space
70
0
10
0
20
0
30
0
3
*Model_Space
0
ENDBLK
5
21
100
AcDbEntity
8
0
100
AcDbBlockEnd
0
BLOCK
5
1C
100
AcDbEntity
8
0
100
AcDbBlockBegin
2
*Paper_Space
70
0
10
0
20
0
30
0
3
*Paper_Space
0
ENDBLK
5
1D
100
AcDbEntity
8
0
100
AcDbBlockEnd
0
BLOCK
5
24
100
AcDbEntity
8
0
100
AcDbBlockBegin
2
*Paper_Space0
70
0
10
0
20
0
30
0
3
*Paper_Space0
0
ENDBLK
5
25
100
AcDbEntity
8
0
100
AcDbBlockEnd
0
BLOCK
5
11E
100
AcDbEntity
8
0
100
AcDbBlockBegin
2
*D1
70
1
10
0
20
0
30
0
3
*D1
0
LINE
5
120
100
AcDbEntity
8
0
62
256
6
ByLayer
370
-2
48
1
60
0
100
AcDbLine
10
30.875852
20
7.0625
30
0
11
59.038352
21
7.0625
31
0
39
0
210
0
220
0
230
1
0
LINE
5
121
100
AcDbEntity
8
0
62
256
6
ByLayer
370
-2
48
1
60
0
100
AcDbLine
10
-94.124148
20
-5.9375
30
0
11
59.038352
21
-5.9375
31
0
39
0
210
0
220
0
230
1
0
LINE
5
122
100
AcDbEntity
8
0
62
256
6
ByLayer
370
-2
48
1
60
0
100
AcDbLine
10
57.038352
20
10.5625
30
0
11
57.038352
21
14.0625
31
0
39
0
210
0
220
0
230
1
0
LINE
5
123
100
AcDbEntity
8
0
62
256
6
ByLayer
370
-2
48
1
60
0
100
AcDbLine
10
57.038352
20
-9.4375
30
0
11
57.038352
21
-12.9375
31
0
39
0
210
0
220
0
230
1
0
SOLID
5
124
100
AcDbEntity
8
0
62
256
6
ByLayer
370
-1
48
1
60
0
100
AcDbTrace
10
56.455019
20
10.5625
30
0
11
57.621686
21
10.5625
31
0
12
57.038352
22
7.0625
32
0
13
57.038352
23
7.0625
33
0
39
0
210
0
220
0
230
1
0
SOLID
5
125
100
AcDbEntity
8
0
62
256
6
ByLayer
370
-1
48
1
60
0
100
AcDbTrace
10
57.621686
20
-9.4375
30
0
11
56.455019
21
-9.4375
31
0
12
57.038352
22
-5.9375
32
0
13
57.038352
23
-5.9375
33
0
39
0
210
0
220
0
230
1
0
MTEXT
5
126
100
AcDbEntity
8
0
62
256
6
ByLayer
370
18
48
1
60
0
100
AcDbMText
10
50.038352
20
0.5625
30
0
210
0
220
0
230
1
1
\A1;13
40
3.5
41
0
44
1
50
90
71
5
72
5
7
iso_b_vert
0
POINT
5
127
100
AcDbEntity
8
Defpoints
62
0
6
ByLayer
370
-1
48
1
60
0
100
AcDbPoint
10
29.288352
20
7.0625
30
0
39
0
210
0
220
0
230
1
50
360
0
POINT
5
128
100
AcDbEntity
8
Defpoints
62
0
6
ByLayer
370
-1
48
1
60
0
100
AcDbPoint
10
-95.711648
20
-5.9375
30
0
39
0
210
0
220
0
230
1
50
360
0
POINT
5
129
100
AcDbEntity
8
Defpoints
62
0
6
ByLayer
370
-1
48
1
60
0
100
AcDbPoint
10
57.038352
20
-5.9375
30
0
39
0
210
0
220
0
230
1
50
360
0
ENDBLK
5
11F
100
AcDbEntity
8
0
100
AcDbBlockEnd
0
BLOCK
5
132
100
AcDbEntity
8
0
100
AcDbBlockBegin
2
_U0
70
0
10
0
20
0
30
0
3
_U0
0
MTEXT
5
12C
100
AcDbEntity
8
2
62
256
6
ByLayer
370
18
48
1
60
0
100
AcDbMText
10
56.348719
20
-0.933033
30
0
210
0
220
0
230
1
1
\W0.5321;13
40
3.5
41
0
44
1.084337
50
90
71
7
72
5
7
iso_b_vert
0
LINE
5
12D
100
AcDbEntity
8
2
62
256
6
ByLayer
370
13
48
1
60
0
100
AcDbLine
10
30.875852
20
7.0625
30
0
11
59.038352
21
7.0625
31
0
39
0
210
0
220
0
230
1
0
LINE
5
12E
100
AcDbEntity
8
2
62
256
6
ByLayer
370
13
48
1
60
0
100
AcDbLine
10
-94.124148
20
-5.9375
30
0
11
59.038352
21
-5.9375
31
0
39
0
210
0
220
0
230
1
0
LINE
5
12F
100
AcDbEntity
8
2
62
256
6
ByLayer
370
13
48
1
60
0
100
AcDbLine
10
57.038352
20
7.0625
30
0
11
57.038352
21
-5.9375
31
0
39
0
210
0
220
0
230
1
0
SOLID
5
130
100
AcDbEntity
8
2
62
256
6
ByLayer
370
18
48
1
60
0
100
AcDbTrace
10
57.038352
20
7.0625
30
0
11
57.499136
21
3.562502
31
0
12
56.577569
22
3.562498
32
0
13
56.577569
23
3.562498
33
0
39
0
210
0
220
0
230
1
0
SOLID
5
131
100
AcDbEntity
8
2
62
256
6
ByLayer
370
18
48
1
60
0
100
AcDbTrace
10
57.038352
20
-5.9375
30
0
11
56.577569
21
-2.437502
31
0
12
57.499136
22
-2.437498
32
0
13
57.499136
23
-2.437498
33
0
39
0
210
0
220
0
230
1
0
ENDBLK
5
133
100
AcDbEntity
8
0
100
AcDbBlockEnd
0
BLOCK
5
138
100
AcDbEntity
8
0
100
AcDbBlockBegin
2
*D3
70
1
10
0
20
0
30
0
3
*D3
0
LINE
5
13A
100
AcDbEntity
8
0
62
256
6
ByLayer
370
-2
48
1
60
0
100
AcDbLine
10
30.875852
20
4.0625
30
0
11
51.388352
21
4.0625
31
0
39
0
210
0
220
0
230
1
0
LINE
5
13B
100
AcDbEntity
8
0
62
256
6
ByLayer
370
-2
48
1
60
0
100
AcDbLine
10
30.875852
20
7.0625
30
0
11
51.388352
21
7.0625
31
0
39
0
210
0
220
0
230
1
0
LINE
5
13C
100
AcDbEntity
8
0
62
256
6
ByLayer
370
-2
48
1
60
0
100
AcDbLine
10
49.388352
20
0.5625
30
0
11
49.388352
21
-2.9375
31
0
39
0
210
0
220
0
230
1
0
LINE
5
13D
100
AcDbEntity
8
0
62
256
6
ByLayer
370
-2
48
1
60
0
100
AcDbLine
10
49.388352
20
10.5625
30
0
11
49.388352
21
14.0625
31
0
39
0
210
0
220
0
230
1
0
SOLID
5
13E
100
AcDbEntity
8
0
62
256
6
ByLayer
370
-1
48
1
60
0
100
AcDbTrace
10
49.971686
20
0.5625
30
0
11
48.805019
21
0.5625
31
0
12
49.388352
22
4.0625
32
0
13
49.388352
23
4.0625
33
0
39
0
210
0
220
0
230
1
0
SOLID
5
13F
100
AcDbEntity
8
0
62
256
6
ByLayer
370
-1
48
1
60
0
100
AcDbTrace
10
48.805019
20
10.5625
30
0
11
49.971686
21
10.5625
31
0
12
49.388352
22
7.0625
32
0
13
49.388352
23
7.0625
33
0
39
0
210
0
220
0
230
1
0
MTEXT
5
140
100
AcDbEntity
8
0
62
256
6
ByLayer
370
18
48
1
60
0
100
AcDbMText
10
42.388352
20
5.5625
30
0
210
0
220
0
230
1
1
\A1;3
40
3.5
41
0
44
1
50
90
71
5
72
5
7
iso_b_vert
0
POINT
5
141
100
AcDbEntity
8
Defpoints
62
0
6
ByLayer
370
-1
48
1
60
0
100
AcDbPoint
10
29.288352
20
4.0625
30
0
39
0
210
0
220
0
230
1
50
360
0
POINT
5
142
100
AcDbEntity
8
Defpoints
62
0
6
ByLayer
370
-1
48
1
60
0
100
AcDbPoint
10
29.288352
20
7.0625
30
0
39
0
210
0
220
0
230
1
50
360
0
POINT
5
143
100
AcDbEntity
8
Defpoints
62
0
6
ByLayer
370
-1
48
1
60
0
100
AcDbPoint
10
49.388352
20
7.0625
30
0
39
0
210
0
220
0
230
1
50
360
0
ENDBLK
5
139
100
AcDbEntity
8
0
100
AcDbBlockEnd
0
BLOCK
5
14B
100
AcDbEntity
8
0
100
AcDbBlockBegin
2
_U1
70
0
10
0
20
0
30
0
3
_U1
0
MTEXT
5
145
100
AcDbEntity
8
2
62
256
6
ByLayer
370
18
48
1
60
0
100
AcDbMText
10
48.698719
20
4.937267
30
0
210
0
220
0
230
1
1
\W0.5404;3
40
3.5
41
0
44
1.084337
50
90
71
7
72
5
7
iso_b_vert
0
LINE
5
146
100
AcDbEntity
8
2
62
256
6
ByLayer
370
13
48
1
60
0
100
AcDbLine
10
30.875852
20
4.0625
30
0
11
51.388352
21
4.0625
31
0
39
0
210
0
220
0
230
1
0
LINE
5
147
100
AcDbEntity
8
2
62
256
6
ByLayer
370
13
48
1
60
0
100
AcDbLine
10
30.875852
20
7.0625
30
0
11
51.388352
21
7.0625
31
0
39
0
210
0
220
0
230
1
0
LINE
5
148
100
AcDbEntity
8
2
62
256
6
ByLayer
370
13
48
1
60
0
100
AcDbLine
10
49.388352
20
-4.6875
30
0
11
49.388352
21
15.8125
31
0
39
0
210
0
220
0
230
1
0
SOLID
5
149
100
AcDbEntity
8
2
62
256
6
ByLayer
370
18
48
1
60
0
100
AcDbTrace
10
49.388352
20
4.0625
30
0
11
49.849136
21
0.562502
31
0
12
48.927569
22
0.562498
32
0
13
48.927569
23
0.562498
33
0
39
0
210
0
220
0
230
1
0
SOLID
5
14A
100
AcDbEntity
8
2
62
256
6
ByLayer
370
18
48
1
60
0
100
AcDbTrace
10
49.388352
20
7.0625
30
0
11
48.927569
21
10.562498
31
0
12
49.849136
22
10.562502
32
0
13
49.849136
23
10.562502
33
0
39
0
210
0
220
0
230
1
0
ENDBLK
5
14C
100
AcDbEntity
8
0
100
AcDbBlockEnd
0
BLOCK
5
151
100
AcDbEntity
8
0
100
AcDbBlockBegin
2
*D5
70
1
10
0
20
0
30
0
3
*D5
0
LINE
5
153
100
AcDbEntity
8
0
62
256
6
ByLayer
370
-2
48
1
60
0
100
AcDbLine
10
-97.299148
20
-5.9375
30
0
11
-109.311648
21
-5.9375
31
0
39
0
210
0
220
0
230
1
0
LINE
5
154
100
AcDbEntity
8
0
62
256
6
ByLayer
370
-2
48
1
60
0
100
AcDbLine
10
-97.299148
20
6.0625
30
0
11
-109.311648
21
6.0625
31
0
39
0
210
0
220
0
230
1
0
LINE
5
155
100
AcDbEntity
8
0
62
256
6
ByLayer
370
-2
48
1
60
0
100
AcDbLine
10
-107.311648
20
-9.4375
30
0
11
-107.311648
21
-12.9375
31
0
39
0
210
0
220
0
230
1
0
LINE
5
156
100
AcDbEntity
8
0
62
256
6
ByLayer
370
-2
48
1
60
0
100
AcDbLine
10
-107.311648
20
9.5625
30
0
11
-107.311648
21
13.0625
31
0
39
0
210
0
220
0
230
1
0
SOLID
5
157
100
AcDbEntity
8
0
62
256
6
ByLayer
370
-1
48
1
60
0
100
AcDbTrace
10
-106.728314
20
-9.4375
30
0
11
-107.894981
21
-9.4375
31
0
12
-107.311648
22
-5.9375
32
0
13
-107.311648
23
-5.9375
33
0
39
0
210
0
220
0
230
1
0
SOLID
5
158
100
AcDbEntity
8
0
62
256
6
ByLayer
370
-1
48
1
60
0
100
AcDbTrace
10
-107.894981
20
9.5625
30
0
11
-106.728314
21
9.5625
31
0
12
-107.311648
22
6.0625
32
0
13
-107.311648
23
6.0625
33
0
39
0
210
0
220
0
230
1
0
MTEXT
5
159
100
AcDbEntity
8
0
62
256
6
ByLayer
370
18
48
1
60
0
100
AcDbMText
10
-114.311648
20
0.0625
30
0
210
0
220
0
230
1
1
\A1;12
40
3.5
41
0
44
1
50
90
71
5
72
5
7
iso_b_vert
0
POINT
5
15A
100
AcDbEntity
8
Defpoints
62
0
6
ByLayer
370
-1
48
1
60
0
100
AcDbPoint
10
-95.711648
20
-5.9375
30
0
39
0
210
0
220
0
230
1
50
360
0
POINT
5
15B
100
AcDbEntity
8
Defpoints
62
0
6
ByLayer
370
-1
48
1
60
0
100
AcDbPoint
10
-95.711648
20
6.0625
30
0
39
0
210
0
220
0
230
1
50
360
0
POINT
5
15C
100
AcDbEntity
8
Defpoints
62
0
6
ByLayer
370
-1
48
1
60
0
100
AcDbPoint
10
-107.311648
20
6.0625
30
0
39
0
210
0
220
0
230
1
50
360
0
ENDBLK
5
152
100
AcDbEntity
8
0
100
AcDbBlockEnd
0
BLOCK
5
165
100
AcDbEntity
8
0
100
AcDbBlockBegin
2
_U2
70
0
10
0
20
0
30
0
3
_U2
0
MTEXT
5
15F
100
AcDbEntity
8
SK2
62
256
6
ByLayer
370
18
48
1
60
0
100
AcDbMText
10
-108.001281
20
-1.433033
30
0
210
0
220
0
230
1
1
\W0.5321;12
40
3.5
41
0
44
1.084337
50
90
71
7
72
5
7
iso_b_vert
0
LINE
5
160
100
AcDbEntity
8
SK2
62
256
6
ByLayer
370
13
48
1
60
0
100
AcDbLine
10
-97.299148
20
-5.9375
30
0
11
-109.311648
21
-5.9375
31
0
39
0
210
0
220
0
230
1
0
LINE
5
161
100
AcDbEntity
8
SK2
62
256
6
ByLayer
370
13
48
1
60
0
100
AcDbLine
10
-97.299148
20
6.0625
30
0
11
-109.311648
21
6.0625
31
0
39
0
210
0
220
0
230
1
0
LINE
5
162
100
AcDbEntity
8
SK2
62
256
6
ByLayer
370
13
48
1
60
0
100
AcDbLine
10
-107.311648
20
-5.9375
30
0
11
-107.311648
21
6.0625
31
0
39
0
210
0
220
0
230
1
0
SOLID
5
163
100
AcDbEntity
8
SK2
62
256
6
ByLayer
370
18
48
1
60
0
100
AcDbTrace
10
-107.311648
20
-5.9375
30
0
11
-107.772431
21
-2.437502
31
0
12
-106.850864
22
-2.437498
32
0
13
-106.850864
23
-2.437498
33
0
39
0
210
0
220
0
230
1
0
SOLID
5
164
100
AcDbEntity
8
SK2
62
256
6
ByLayer
370
18
48
1
60
0
100
AcDbTrace
10
-107.311648
20
6.0625
30
0
11
-106.850864
21
2.562502
31
0
12
-107.772431
22
2.562498
32
0
13
-107.772431
23
2.562498
33
0
39
0
210
0
220
0
230
1
0
ENDBLK
5
166
100
AcDbEntity
8
0
100
AcDbBlockEnd
0
BLOCK
5
16B
100
AcDbEntity
8
0
100
AcDbBlockBegin
2
*D7
70
1
10
0
20
0
30
0
3
*D7
0
LINE
5
16D
100
AcDbEntity
8
0
62
256
6
ByLayer
370
-2
48
1
60
0
100
AcDbLine
10
17.288352
20
2.8
30
0
11
17.288352
21
-19.6875
31
0
39
0
210
0
220
0
230
1
0
LINE
5
16E
100
AcDbEntity
8
0
62
256
6
ByLayer
370
-2
48
1
60
0
100
AcDbLine
10
29.288352
20
5.475
30
0
11
29.288352
21
-19.6875
31
0
39
0
210
0
220
0
230
1
0
LINE
5
16F
100
AcDbEntity
8
0
62
256
6
ByLayer
370
-2
48
1
60
0
100
AcDbLine
10
13.788352
20
-17.6875
30
0
11
10.288352
21
-17.6875
31
0
39
0
210
0
220
0
230
1
0
LINE
5
170
100
AcDbEntity
8
0
62
256
6
ByLayer
370
-2
48
1
60
0
100
AcDbLine
10
32.788352
20
-17.6875
30
0
11
36.288352
21
-17.6875
31
0
39
0
210
0
220
0
230
1
0
SOLID
5
171
100
AcDbEntity
8
0
62
256
6
ByLayer
370
-1
48
1
60
0
100
AcDbTrace
10
13.788352
20
-18.270833
30
0
11
13.788352
21
-17.104167
31
0
12
17.288352
22
-17.6875
32
0
13
17.288352
23
-17.6875
33
0
39
0
210
0
220
0
230
1
0
SOLID
5
172
100
AcDbEntity
8
0
62
256
6
ByLayer
370
-1
48
1
60
0
100
AcDbTrace
10
32.788352
20
-17.104167
30
0
11
32.788352
21
-18.270833
31
0
12
29.288352
22
-17.6875
32
0
13
29.288352
23
-17.6875
33
0
39
0
210
0
220
0
230
1
0
MTEXT
5
173
100
AcDbEntity
8
0
62
256
6
ByLayer
370
18
48
1
60
0
100
AcDbMText
10
23.288352
20
-10.6875
30
0
210
0
220
0
230
1
1
\A1;12
40
3.5
41
0
44
1
50
0
71
5
72
5
7
iso_b_vert
0
POINT
5
174
100
AcDbEntity
8
Defpoints
62
0
6
ByLayer
370
-1
48
1
60
0
100
AcDbPoint
10
17.288352
20
4.3875
30
0
39
0
210
0
220
0
230
1
50
360
0
POINT
5
175
100
AcDbEntity
8
Defpoints
62
0
6
ByLayer
370
-1
48
1
60
0
100
AcDbPoint
10
29.288352
20
7.0625
30
0
39
0
210
0
220
0
230
1
50
360
0
POINT
5
176
100
AcDbEntity
8
Defpoints
62
0
6
ByLayer
370
-1
48
1
60
0
100
AcDbPoint
10
29.288352
20
-17.6875
30
0
39
0
210
0
220
0
230
1
50
360
0
ENDBLK
5
16C
100
AcDbEntity
8
0
100
AcDbBlockEnd
0
BLOCK
5
17E
100
AcDbEntity
8
0
100
AcDbBlockBegin
2
_U3
70
0
10
0
20
0
30
0
3
_U3
0
MTEXT
5
178
100
AcDbEntity
8
2
62
256
6
ByLayer
370
18
48
1
60
0
100
AcDbMText
10
21.820819
20
-16.654866
30
0
210
0
220
0
230
1
1
\W0.5321;12
40
3.5
41
0
44
1.084337
50
0
71
7
72
5
7
iso_b_vert
0
LINE
5
179
100
AcDbEntity
8
2
62
256
6
ByLayer
370
13
48
1
60
0
100
AcDbLine
10
17.288352
20
2.8
30
0
11
17.288352
21
-19.6875
31
0
39
0
210
0
220
0
230
1
0
LINE
5
17A
100
AcDbEntity
8
2
62
256
6
ByLayer
370
13
48
1
60
0
100
AcDbLine
10
29.288352
20
5.475
30
0
11
29.288352
21
-19.6875
31
0
39
0
210
0
220
0
230
1
0
LINE
5
17B
100
AcDbEntity
8
2
62
256
6
ByLayer
370
13
48
1
60
0
100
AcDbLine
10
17.288352
20
-17.6875
30
0
11
29.288352
21
-17.6875
31
0
39
0
210
0
220
0
230
1
0
SOLID
5
17C
100
AcDbEntity
8
2
62
256
6
ByLayer
370
18
48
1
60
0
100
AcDbTrace
10
17.288352
20
-17.6875
30
0
11
20.788351
21
-17.226716
31
0
12
20.788354
22
-18.148284
32
0
13
20.788354
23
-18.148284
33
0
39
0
210
0
220
0
230
1
0
SOLID
5
17D
100
AcDbEntity
8
2
62
256
6
ByLayer
370
18
48
1
60
0
100
AcDbTrace
10
29.288352
20
-17.6875
30
0
11
25.788354
21
-18.148284
31
0
12
25.788351
22
-17.226716
32
0
13
25.788351
23
-17.226716
33
0
39
0
210
0
220
0
230
1
0
ENDBLK
5
17F
100
AcDbEntity
8
0
100
AcDbBlockEnd
0
BLOCK
5
184
100
AcDbEntity
8
0
100
AcDbBlockBegin
2
*D9
70
1
10
0
20
0
30
0
3
*D9
0
LINE
5
186
100
AcDbEntity
8
0
62
256
6
ByLayer
370
-2
48
1
60
0
100
AcDbLine
10
-95.711648
20
-7.525
30
0
11
-95.711648
21
-25.6875
31
0
39
0
210
0
220
0
230
1
0
LINE
5
187
100
AcDbEntity
8
0
62
256
6
ByLayer
370
-2
48
1
60
0
100
AcDbLine
10
29.288352
20
5.475
30
0
11
29.288352
21
-25.6875
31
0
39
0
210
0
220
0
230
1
0
LINE
5
188
100
AcDbEntity
8
0
62
256
6
ByLayer
370
-2
48
1
60
0
100
AcDbLine
10
-92.211648
20
-23.6875
30
0
11
25.788352
21
-23.6875
31
0
39
0
210
0
220
0
230
1
0
SOLID
5
189
100
AcDbEntity
8
0
62
256
6
ByLayer
370
-1
48
1
60
0
100
AcDbTrace
10
-92.211648
20
-23.104167
30
0
11
-92.211648
21
-24.270833
31
0
12
-95.711648
22
-23.6875
32
0
13
-95.711648
23
-23.6875
33
0
39
0
210
0
220
0
230
1
0
SOLID
5
18A
100
AcDbEntity
8
0
62
256
6
ByLayer
370
-1
48
1
60
0
100
AcDbTrace
10
25.788352
20
-24.270833
30
0
11
25.788352
21
-23.104167
31
0
12
29.288352
22
-23.6875
32
0
13
29.288352
23
-23.6875
33
0
39
0
210
0
220
0
230
1
0
MTEXT
5
18B
100
AcDbEntity
8
0
62
256
6
ByLayer
370
18
48
1
60
0
100
AcDbMText
10
-33.211648
20
-16.6875
30
0
210
0
220
0
230
1
1
\A1;125
40
3.5
41
0
44
1
50
0
71
5
72
5
7
iso_b_vert
0
POINT
5
18C
100
AcDbEntity
8
Defpoints
62
0
6
ByLayer
370
-1
48
1
60
0
100
AcDbPoint
10
-95.711648
20
-5.9375
30
0
39
0
210
0
220
0
230
1
50
360
0
POINT
5
18D
100
AcDbEntity
8
Defpoints
62
0
6
ByLayer
370
-1
48
1
60
0
100
AcDbPoint
10
29.288352
20
7.0625
30
0
39
0
210
0
220
0
230
1
50
360
0
POINT
5
18E
100
AcDbEntity
8
Defpoints
62
0
6
ByLayer
370
-1
48
1
60
0
100
AcDbPoint
10
29.288352
20
-23.6875
30
0
39
0
210
0
220
0
230
1
50
360
0
ENDBLK
5
185
100
AcDbEntity
8
0
100
AcDbBlockEnd
0
BLOCK
5
196
100
AcDbEntity
8
0
100
AcDbBlockBegin
2
_U4
70
0
10
0
20
0
30
0
3
_U4
0
MTEXT
5
190
100
AcDbEntity
8
SK2
62
256
6
ByLayer
370
18
48
1
60
0
100
AcDbMText
10
-35.986914
20
-22.654866
30
0
210
0
220
0
230
1
1
\W0.6217;125
40
3.5
41
0
44
1.084337
50
0
71
7
72
5
7
iso_b_vert
0
LINE
5
191
100
AcDbEntity
8
SK2
62
256
6
ByLayer
370
13
48
1
60
0
100
AcDbLine
10
-95.711648
20
-7.525
30
0
11
-95.711648
21
-25.6875
31
0
39
0
210
0
220
0
230
1
0
LINE
5
192
100
AcDbEntity
8
SK2
62
256
6
ByLayer
370
13
48
1
60
0
100
AcDbLine
10
29.288352
20
5.475
30
0
11
29.288352
21
-25.6875
31
0
39
0
210
0
220
0
230
1
0
LINE
5
193
100
AcDbEntity
8
SK2
62
256
6
ByLayer
370
13
48
1
60
0
100
AcDbLine
10
-95.711648
20
-23.6875
30
0
11
29.288352
21
-23.6875
31
0
39
0
210
0
220
0
230
1
0
SOLID
5
194
100
AcDbEntity
8
SK2
62
256
6
ByLayer
370
18
48
1
60
0
100
AcDbTrace
10
-95.711648
20
-23.6875
30
0
11
-92.211649
21
-23.226716
31
0
12
-92.211646
22
-24.148284
32
0
13
-92.211646
23
-24.148284
33
0
39
0
210
0
220
0
230
1
0
SOLID
5
195
100
AcDbEntity
8
SK2
62
256
6
ByLayer
370
18
48
1
60
0
100
AcDbTrace
10
29.288352
20
-23.6875
30
0
11
25.788354
21
-24.148284
31
0
12
25.788351
22
-23.226716
32
0
13
25.788351
23
-23.226716
33
0
39
0
210
0
220
0
230
1
0
ENDBLK
5
197
100
AcDbEntity
8
0
100
AcDbBlockEnd
0
ENDSEC
0
SECTION
2
ENTITIES
0
ARC
5
CE
100
AcDbEntity
8
1
62
256
6
ByLayer
370
18
48
1
60
0
100
AcDbCircle
39
0
10
17.288352
20
2.7875
30
0
40
1.6
210
0
220
0
230
1
100
AcDbArc
50
167.306416
51
180
0
ARC
5
D0
100
AcDbEntity
8
1
62
256
6
ByLayer
370
18
48
1
60
0
100
AcDbCircle
39
0
10
10.888352
20
-1.4875
30
0
40
1.416
210
0
220
0
230
1
100
AcDbArc
50
150.190711
51
209.809289
0
ARC
5
D1
100
AcDbEntity
8
1
62
256
6
ByLayer
370
18
48
1
60
0
100
AcDbCircle
39
0
10
10.888352
20
-1.4875
30
0
40
1.416
210
0
220
0
230
1
100
AcDbArc
50
276.192438
51
330.190711
0
ARC
5
D2
100
AcDbEntity
8
1
62
256
6
ByLayer
370
18
48
1
60
0
100
AcDbCircle
39
0
10
10.888352
20
-1.4875
30
0
40
1.416
210
0
220
0
230
1
100
AcDbArc
50
330.190711
51
29.809289
0
ARC
5
D3
100
AcDbEntity
8
1
62
256
6
ByLayer
370
18
48
1
60
0
100
AcDbCircle
39
0
10
10.888352
20
-1.4875
30
0
40
1.416
210
0
220
0
230
1
100
AcDbArc
50
209.809289
51
263.807562
0
ARC
5
D4
100
AcDbEntity
8
1
62
256
6
ByLayer
370
18
48
1
60
0
100
AcDbCircle
39
0
10
10.888352
20
-1.4875
30
0
40
1.416
210
0
220
0
230
1
100
AcDbArc
50
96.192438
51
150.190711
0
ARC
5
D5
100
AcDbEntity
8
1
62
256
6
ByLayer
370
18
48
1
60
0
100
AcDbCircle
39
0
10
10.888352
20
-1.4875
30
0
40
1.416
210
0
220
0
230
1
100
AcDbArc
50
29.809289
51
83.807562
0
ARC
5
D7
100
AcDbEntity
8
1
62
256
6
ByLayer
370
18
48
1
60
0
100
AcDbCircle
39
0
10
10.888352
20
-1.4875
30
0
40
1.416
210
0
220
0
230
1
100
AcDbArc
50
263.807562
51
276.192438
0
ARC
5
D8
100
AcDbEntity
8
1
62
256
6
ByLayer
370
18
48
1
60
0
100
AcDbCircle
39
0
10
10.888352
20
-1.4875
30
0
40
1.416
210
0
220
0
230
1
100
AcDbArc
50
83.807562
51
96.192438
0
ARC
5
DA
100
AcDbEntity
8
1
62
256
6
ByLayer
370
18
48
1
60
0
100
AcDbCircle
39
0
10
10.888352
20
-1.4875
30
0
40
1.9685
210
0
220
0
230
1
100
AcDbArc
50
300.381422
51
0
0
ARC
5
DB
100
AcDbEntity
8
1
62
256
6
ByLayer
370
18
48
1
60
0
100
AcDbCircle
39
0
10
10.888352
20
-1.4875
30
0
40
1.9685
210
0
220
0
230
1
100
AcDbArc
50
239.618578
51
300.381422
0
ARC
5
DC
100
AcDbEntity
8
1
62
256
6
ByLayer
370
18
48
1
60
0
100
AcDbCircle
39
0
10
10.888352
20
-1.4875
30
0
40
1.9685
210
0
220
0
230
1
100
AcDbArc
50
180
51
239.618578
0
ARC
5
DD
100
AcDbEntity
8
1
62
256
6
ByLayer
370
18
48
1
60
0
100
AcDbCircle
39
0
10
10.888352
20
-1.4875
30
0
40
1.9685
210
0
220
0
230
1
100
AcDbArc
50
120.381422
51
180
0
ARC
5
DE
100
AcDbEntity
8
1
62
256
6
ByLayer
370
18
48
1
60
0
100
AcDbCircle
39
0
10
10.888352
20
-1.4875
30
0
40
1.9685
210
0
220
0
230
1
100
AcDbArc
50
59.618578
51
120.381422
0
ARC
5
DF
100
AcDbEntity
8
1
62
256
6
ByLayer
370
18
48
1
60
0
100
AcDbCircle
39
0
10
10.888352
20
-1.4875
30
0
40
1.9685
210
0
220
0
230
1
100
AcDbArc
50
0
51
59.618578
0
CIRCLE
5
CF
100
AcDbEntity
8
1
62
256
6
ByLayer
370
18
48
1
60
0
100
AcDbCircle
10
10.888352
20
-1.4875
30
0
40
3.8
39
0
210
0
220
0
230
1
0
CIRCLE
5
D6
100
AcDbEntity
8
1
62
256
6
ByLayer
370
18
48
1
60
0
100
AcDbCircle
10
10.888352
20
-1.4875
30
0
40
3.5
39
0
210
0
220
0
230
1
0
CIRCLE
5
D9
100
AcDbEntity
8
1
62
256
6
ByLayer
370
18
48
1
60
0
100
AcDbCircle
10
10.888352
20
-1.4875
30
0
40
3
39
0
210
0
220
0
230
1
0
ELLIPSE
5
E0
100
AcDbEntity
8
1
62
256
6
ByLayer
370
18
48
1
60
0
100
AcDbEllipse
10
-2.415859
20
-5.947099
30
0
11
2.99999999973811
21
3.51436609344078E-15
31
0
210
0
220
0
230
1
40
0.004363
41
0.261799387802389
42
0.634637860153872
0
ELLIPSE
5
E1
100
AcDbEntity
8
1
62
256
6
ByLayer
370
18
48
1
60
0
100
AcDbEllipse
10
17.472164
20
4.3875
30
0
11
-2.78951487299376
21
3.41605763755018E-16
31
0
210
0
220
0
230
1
40
0.573576
41
0
42
0.895086259649024
0
ELLIPSE
5
E2
100
AcDbEntity
8
SK1
62
256
6
ByLayer
370
18
48
1
60
0
100
AcDbEllipse
10
-2.415859
20
-5.947099
30
0
11
3.00000000000004
21
3.51436609374761E-15
31
0
210
0
220
0
230
1
40
0.004363
41
0.634637860128768
42
2.31838067646377
0
ELLIPSE
5
E3
100
AcDbEntity
8
1
62
256
6
ByLayer
370
18
48
1
60
0
100
AcDbEllipse
10
25.516413
20
7.5125
30
0
11
0.897993681800907
21
1.05195951590688E-15
31
0
210
0
220
0
230
1
40
0.890875
41
-1.5707963267949
42
-1.29515256584732
0
ELLIPSE
5
E4
100
AcDbEntity
8
1
62
256
6
ByLayer
370
18
48
1
60
0
100
AcDbEllipse
10
25.383359
20
5.996436
30
0
11
1.13425636391745
21
1.32873070232297E-15
31
0
210
0
220
0
230
1
40
0.176327
41
-2.80561677258086
42
-1.98717825108448
0
ELLIPSE
5
E5
100
AcDbEntity
8
1
62
256
6
ByLayer
370
18
48
1
60
0
100
AcDbEllipse
10
29.512151
20
7.642641
30
0
11
11.3425636334661
21
1.32873070165425E-14
31
0
210
0
220
0
230
1
40
0.176327
41
-1.98717825125647
42
-1.91986217732814
0
ELLIPSE
5
E6
100
AcDbEntity
8
1
62
256
6
ByLayer
370
18
48
1
60
0
100
AcDbEllipse
10
25.278723
20
5.5625
30
0
11
1.19096918211109
21
1.39516723743649E-15
31
0
210
0
220
0
230
1
40
0.176327
41
0
42
1.22173047639676
0
ELLIPSE
5
E7
100
AcDbEntity
8
1
62
256
6
ByLayer
370
18
48
1
60
0
100
AcDbEllipse
10
25.278723
20
5.5625
30
0
11
1.19096918211109
21
1.39516723743649E-15
31
0
210
0
220
0
230
1
40
0.176327
41
-1.22173047639676
42
0
0
ELLIPSE
5
E8
100
AcDbEntity
8
1
62
256
6
ByLayer
370
18
48
1
60
0
100
AcDbEllipse
10
29.512151
20
3.482359
30
0
11
11.3425636816093
21
-4.68956239542554E-09
31
0
210
0
220
0
230
1
40
0.176327
41
1.91986217850904
42
1.98717825217807
0
ELLIPSE
5
E9
100
AcDbEntity
8
1
62
256
6
ByLayer
370
18
48
1
60
0
100
AcDbEllipse
10
25.383359
20
5.128564
30
0
11
1.13425636391745
21
1.32873070232297E-15
31
0
210
0
220
0
230
1
40
0.176327
41
1.98717825108447
42
2.80561677258084
0
ELLIPSE
5
EA
100
AcDbEntity
8
1
62
256
6
ByLayer
370
18
48
1
60
0
100
AcDbEllipse
10
23.911532
20
4.537062
30
0
11
0.850692272443324
21
9.96548026162631E-16
31
0
210
0
220
0
230
1
40
0.176327
41
2.80561677248178
42
3.14159265358979
0
ELLIPSE
5
EB
100
AcDbEntity
8
1
62
256
6
ByLayer
370
18
48
1
60
0
100
AcDbEllipse
10
25.516413
20
3.6125
30
0
11
0.897993681744398
21
1.05195951584069E-15
31
0
210
0
220
0
230
1
40
0.890875
41
1.29515256582982
42
1.5707963267949
0
ELLIPSE
5
EC
100
AcDbEntity
8
1
62
256
6
ByLayer
370
18
48
1
60
0
100
AcDbEllipse
10
24.85985
20
6.3125
30
0
11
-2.3287088041805E-17
21
-0.126773189709051
31
0
210
0
220
0
230
1
40
0.984808
41
0
42
6.28318530717959
0
ELLIPSE
5
ED
100
AcDbEntity
8
1
62
256
6
ByLayer
370
18
48
1
60
0
100
AcDbEllipse
10
23.911532
20
6.587938
30
0
11
0.850692272443415
21
9.96548026162737E-16
31
0
210
0
220
0
230
1
40
0.176327
41
3.14159265358979
42
-2.80561677248181
0
POINT
5
70
100
AcDbEntity
8
81
62
256
6
ByLayer
370
18
48
1
60
0
100
AcDbPoint
10
29.288352
20
7.0625
30
0
39
0
210
0
220
0
230
1
50
360
0
POINT
5
72
100
AcDbEntity
8
80
62
256
6
ByLayer
370
18
48
1
60
0
100
AcDbPoint
10
0
20
0
30
0
39
0
210
0
220
0
230
1
50
360
0
POINT
5
74
100
AcDbEntity
8
1
62
256
6
ByLayer
370
18
48
1
60
1
100
AcDbPoint
10
29.288352
20
7.0625
30
0
39
0
210
0
220
0
230
1
50
360
0
POINT
5
76
100
AcDbEntity
8
1
62
256
6
ByLayer
370
18
48
1
60
1
100
AcDbPoint
10
-95.711648
20
-5.9375
30
0
39
0
210
0
220
0
230
1
50
360
0
POINT
5
77
100
AcDbEntity
8
1
62
256
6
ByLayer
370
18
48
1
60
1
100
AcDbPoint
10
29.288352
20
4.0625
30
0
39
0
210
0
220
0
230
1
50
360
0
POINT
5
78
100
AcDbEntity
8
1
62
256
6
ByLayer
370
18
48
1
60
1
100
AcDbPoint
10
29.288352
20
7.0625
30
0
39
0
210
0
220
0
230
1
50
360
0
POINT
5
79
100
AcDbEntity
8
1
62
256
6
ByLayer
370
18
48
1
60
1
100
AcDbPoint
10
-95.711648
20
-5.9375
30
0
39
0
210
0
220
0
230
1
50
360
0
POINT
5
7A
100
AcDbEntity
8
1
62
256
6
ByLayer
370
18
48
1
60
1
100
AcDbPoint
10
-95.711648
20
6.0625
30
0
39
0
210
0
220
0
230
1
50
360
0
POINT
5
7B
100
AcDbEntity
8
1
62
256
6
ByLayer
370
18
48
1
60
1
100
AcDbPoint
10
17.288352
20
4.3875
30
0
39
0
210
0
220
0
230
1
50
360
0
POINT
5
7C
100
AcDbEntity
8
1
62
256
6
ByLayer
370
18
48
1
60
1
100
AcDbPoint
10
29.288352
20
7.0625
30
0
39
0
210
0
220
0
230
1
50
360
0
POINT
5
7D
100
AcDbEntity
8
1
62
256
6
ByLayer
370
18
48
1
60
1
100
AcDbPoint
10
-95.711648
20
-5.9375
30
0
39
0
210
0
220
0
230
1
50
360
0
POINT
5
7E
100
AcDbEntity
8
1
62
256
6
ByLayer
370
18
48
1
60
1
100
AcDbPoint
10
29.288352
20
7.0625
30
0
39
0
210
0
220
0
230
1
50
360
0
SPLINE
5
EE
100
AcDbEntity
8
1
62
256
6
ByLayer
370
18
48
1
60
0
100
AcDbSpline
70
4
71
3
72
10
73
6
40
0
40
0
40
0
40
0
40
0.5
40
0.5
40
1
40
1
40
1
40
1
41
1
10
0.15791746528879
20
6.73750000000001
30
0
41
1
10
0.134466521600757
20
6.69688177404694
30
0
41
1
10
0.10959130657227
20
6.65789990705724
30
0
41
1
10
0.0569722395134988
20
6.5826890036962
30
0
41
1
10
0.0292278500070609
20
6.54646440155824
30
0
41
1
10
0
20
6.51149035510917
30
0
0
SPLINE
5
EF
100
AcDbEntity
8
1
62
256
6
ByLayer
370
18
48
1
60
0
100
AcDbSpline
70
4
71
3
72
16
73
12
40
0
40
0
40
0
40
0
40
0.250000000000001
40
0.250000000000001
40
0.500000000000003
40
0.500000000000003
40
0.750000000000004
40
0.750000000000004
40
0.875000000000002
40
0.875000000000002
40
1
40
1
40
1
40
1
41
1
10
22.8302988860965
20
5.3125
30
0
41
1
10
22.8085100061336
20
5.24089560213912
30
0
41
1
10
22.7864535132019
20
5.1694409314145
30
0
41
1
10
22.7415846039471
20
5.02695452255045
30
0
41
1
10
22.7187756555421
20
4.95592084414088
30
0
41
1
10
22.6720360920902
20
4.81448105008508
30
0
41
1
10
22.6481145216134
20
4.74406987408031
30
0
41
1
10
22.6108793853015
20
4.63920997909105
30
0
41
1
10
22.5982391679036
20
4.60438452749258
30
0
41
1
10
22.5723483519082
20
4.53507512728589
30
0
41
1
10
22.5590926265542
20
4.50057496789228
30
0
41
1
10
22.545460010118
20
4.46642680845841
30
0
0
SPLINE
5
F0
100
AcDbEntity
8
1
62
256
6
ByLayer
370
18
48
1
60
0
100
AcDbSpline
70
4
71
3
72
8
73
4
40
0
40
0
40
0
40
0
40
1
40
1
40
1
40
1
41
1
10
22.960976744181
20
5.37460100910067
30
0
41
1
10
22.9175211462926
20
5.35351763157107
30
0
41
1
10
22.8739798199992
20
5.33275094896905
30
0
41
1
10
22.8302988860965
20
5.3125
30
0
0
SPLINE
5
F1
100
AcDbEntity
8
1
62
256
6
ByLayer
370
18
48
1
60
0
100
AcDbSpline
70
4
71
3
72
18
73
14
40
0
40
0
40
0
40
0
40
0.250000000000045
40
0.250000000000045
40
0.500000000000091
40
0.500000000000091
40
0.625000000000068
40
0.625000000000068
40
0.750000000000045
40
0.750000000000045
40
0.875000000000023
40
0.875000000000023
40
1
40
1
40
1
40
1
41
1
10
23.0383523365871
20
5.5136810389476
30
0
41
1
10
23.0383523365871
20
5.49814969106842
30
0
41
1
10
23.0364272110301
20
5.48306095052149
30
0
41
1
10
23.0288287654431
20
5.45374522015877
30
0
41
1
10
23.0233373138467
20
5.44025914320767
30
0
41
1
10
23.012780160225
20
5.42180621418191
30
0
41
1
10
23.0089216777942
20
5.41605392056718
30
0
41
1
10
23.0006599071029
20
5.40542300937145
30
0
41
1
10
22.996242971381
20
5.40052126228682
30
0
41
1
10
22.9868482250476
20
5.39152894941958
30
0
41
1
10
22.9818982314638
20
5.38747323529444
30
0
41
1
10
22.9716992291492
20
5.38034342376838
30
0
41
1
10
22.9664241263498
20
5.37724391865422
30
0
41
1
10
22.960976744181
20
5.3746010091007
30
0
0
SPLINE
5
F2
100
AcDbEntity
8
1
62
256
6
ByLayer
370
18
48
1
60
0
100
AcDbSpline
70
4
71
3
72
19
73
15
40
0
40
0
40
0
40
0
40
0.25
40
0.25
40
0.375
40
0.375
40
0.5
40
0.5
40
0.625
40
0.625
40
0.75
40
0.875
40
0.875
40
1
40
1
40
1
40
1
41
1
10
22.9609767441807
20
5.75039899089947
30
0
41
1
10
22.9718807655418
20
5.74510868055702
30
0
41
1
10
22.9820474218026
20
5.73804356994359
30
0
41
1
10
22.9961186925058
20
5.72460880016089
30
0
41
1
10
23.0006156705275
20
5.71962891725317
30
0
41
1
10
23.0088875457703
20
5.70899494722758
30
0
41
1
10
23.0127037624905
20
5.70330666175218
30
0
41
1
10
23.0196750121842
20
5.69116224037248
30
0
41
1
10
23.0228526715268
20
5.68464927994981
30
0
41
1
10
23.0283696208999
20
5.67105154414111
30
0
41
1
10
23.033007430288
20
5.65702777259787
30
0
41
1
10
23.0358991056255
20
5.64215781556004
30
0
41
1
10
23.0378590122933
20
5.62683631865787
30
0
41
1
10
23.038352336592
20
5.61909859410051
30
0
41
1
10
23.0383523365921
20
5.61131896105297
30
0
0
SPLINE
5
F3
100
AcDbEntity
8
1
62
256
6
ByLayer
370
18
48
1
60
0
100
AcDbSpline
70
4
71
3
72
8
73
4
40
0
40
0
40
0
40
0
40
1
40
1
40
1
40
1
41
1
10
22.8302988860964
20
5.81250000000009
30
0
41
1
10
22.8739739969422
20
5.79225175066259
30
0
41
1
10
22.9175162073193
20
5.77148476467352
30
0
41
1
10
22.9609767441807
20
5.75039899089947
30
0
0
SPLINE
5
F4
100
AcDbEntity
8
1
62
256
6
ByLayer
370
18
48
1
60
0
100
AcDbSpline
70
4
71
3
72
14
73
10
40
0
40
0
40
0
40
0
40
0.25
40
0.25
40
0.5
40
0.5
40
0.75
40
0.75
40
1
40
1
40
1
40
1
41
1
10
22.5454600101182
20
6.65857319154173
30
0
41
1
10
22.5727674551943
20
6.59017113588709
30
0
41
1
10
22.5984436850225
20
6.52080792900844
30
0
41
1
10
22.6480682430147
20
6.3810633940671
30
0
41
1
10
22.6719870230332
20
6.31066465552701
30
0
41
1
10
22.718729410658
20
6.16922187654328
30
0
41
1
10
22.7415441415196
20
6.09817260570836
30
0
41
1
10
22.7864297835886
20
5.95563578762341
30
0
41
1
10
22.8084972777366
20
5.88414622695993
30
0
41
1
10
22.8302988860967
20
5.81250000000057
30
0
0
SPLINE
5
F5
100
AcDbEntity
8
1
62
256
6
ByLayer
370
18
48
1
60
0
100
AcDbSpline
70
4
71
3
72
34
73
30
40
0
40
0
40
0
40
0
40
0.125000000000007
40
0.125000000000007
40
0.250000000000015
40
0.250000000000015
40
0.281250000000015
40
0.281250000000015
40
0.312500000000016
40
0.312500000000016
40
0.375000000000019
40
0.375000000000019
40
0.500000000000015
40
0.500000000000015
40
0.562500000000013
40
0.562500000000013
40
0.593750000000012
40
0.593750000000012
40
0.62500000000001
40
0.62500000000001
40
0.750000000000001
40
0.750000000000001
40
0.812499999999998
40
0.812499999999998
40
0.843749999999998
40
0.843749999999998
40
0.874999999999998
40
0.874999999999998
40
1
40
1
40
1
40
1
41
1
10
17.288352336587
20
4.38749999999999
30
0
41
1
10
17.1902972694999
20
4.38750000000002
30
0
41
1
10
17.0934731565663
20
4.37854682058745
30
0
41
1
10
16.9027036234162
20
4.34335441161332
30
0
41
1
10
16.8087598625871
20
4.31708643746035
30
0
41
1
10
16.6940998776607
20
4.27325460313395
30
0
41
1
10
16.6713091268346
20
4.26393737367385
30
0
41
1
10
16.6260455630372
20
4.24419467589897
30
0
41
1
10
16.6036294114917
20
4.23379149784796
30
0
41
1
10
16.5374518929541
20
4.20120677558859
30
0
41
1
10
16.49460555403
20
4.17758298434319
30
0
41
1
10
16.3701763847869
20
4.10142981329139
30
0
41
1
10
16.2927008219047
20
4.04359827417287
30
0
41
1
10
16.1860270339379
20
3.94817012126916
30
0
41
1
10
16.1520603246087
20
3.91491814760312
30
0
41
1
10
16.1036620033863
20
3.86317031121467
30
0
41
1
10
16.0880016302261
20
3.84565797710428
30
0
41
1
10
16.0577743153219
20
3.81034791457472
30
0
41
1
10
16.043183369977
20
3.79252473788841
30
0
41
1
10
15.9728114451866
20
3.70274850716643
30
0
41
1
10
15.9248068598014
20
3.62881344608803
30
0
41
1
10
15.8643243204907
20
3.51819169615536
30
0
41
1
10
15.8460786495596
20
3.4813647133391
30
0
41
1
10
15.8214144215859
20
3.42663500976673
30
0
41
1
10
15.8136433265566
20
3.40847700735387
30
0
41
1
10
15.7989687095187
20
3.37240641930802
30
0
41
1
10
15.7920787199935
20
3.35452473140413
30
0
41
1
10
15.7598767321111
20
3.26644763213085
30
0
41
1
10
15.741154229081
20
3.19988724037924
30
0
41
1
10
15.7274576874056
20
3.13907914351813
30
0
0
SPLINE
5
F6
100
AcDbEntity
8
SK1
62
256
6
ByLayer
370
18
48
1
60
0
100
AcDbSpline
70
4
71
3
72
26
73
22
40
0
40
0
40
0
40
0
40
0.125000000000004
40
0.125000000000004
40
0.250000000000009
40
0.250000000000009
40
0.312500000000005
40
0.312500000000005
40
0.375000000000002
40
0.375000000000002
40
0.50000000000001
40
0.50000000000001
40
0.625000000000018
40
0.625000000000018
40
0.687500000000021
40
0.687500000000021
40
0.750000000000025
40
0.750000000000025
40
0.875000000000013
40
0.875000000000013
40
1
40
1
40
1
40
1
41
1
10
0
20
6.51149035510917
30
0
41
1
10
-0.0343769418092279
20
6.47035490521046
30
0
41
1
10
-0.0708043515485883
20
6.43094914648933
30
0
41
1
10
-0.148043732588974
20
6.35546435841081
30
0
41
1
10
-0.188854424159302
20
6.31938654266833
30
0
41
1
10
-0.253687408732787
20
6.26784788745272
30
0
41
1
10
-0.275855693062908
20
6.25114080585075
30
0
41
1
10
-0.3210836510994
20
6.21887326973686
30
0
41
1
10
-0.344179452210596
20
6.2032837031615
30
0
41
1
10
-0.41495405838981
20
6.15817518626329
30
0
41
1
10
-0.464115964693491
20
6.13030928572852
30
0
41
1
10
-0.566707625327865
20
6.07930244060043
30
0
41
1
10
-0.620135538287542
20
6.0561593211543
30
0
41
1
10
-0.703823602958977
20
6.02541122287835
30
0
41
1
10
-0.732312008439123
20
6.01582511958389
30
0
41
1
10
-0.790551744127242
20
5.99808199102944
30
0
41
1
10
-0.820074616825593
20
5.9899958676522
30
0
41
1
10
-0.90975594677991
20
5.96820639988022
30
0
41
1
10
-0.971074506872469
20
5.95694628411101
30
0
41
1
10
-1.09692648091414
20
5.94159561253508
30
0
41
1
10
-1.16145881579911
20
5.9375
30
0
41
1
10
-1.2277231807663
20
5.9375
30
0
0
SPLINE
5
F7
100
AcDbEntity
8
1
62
256
6
ByLayer
370
18
48
1
60
0
100
AcDbSpline
70
4
71
2
72
6
73
3
40
0
40
0
40
0
40
1
40
1
40
1
41
1.03186391735993
10
29.0883423346377
20
7.06565135242588
30
0
41
0.729637973226922
10
29.2883423346377
20
7.06565135242589
30
0
41
1.03186391735993
10
29.2883423346377
20
6.86565135242587
30
0
0
SPLINE
5
F8
100
AcDbEntity
8
1
62
256
6
ByLayer
370
18
48
1
60
0
100
AcDbSpline
70
4
71
2
72
6
73
3
40
0
40
0
40
0
40
1
40
1
40
1
41
1.03186391735993
10
29.2883423346377
20
4.25934864757416
30
0
41
0.729637973226922
10
29.2883423346377
20
4.05934864757417
30
0
41
1.03186391735993
10
29.0883423346377
20
4.05934864757414
30
0
0
SPLINE
5
F9
100
AcDbEntity
8
1
62
256
6
ByLayer
370
18
48
1
60
0
100
AcDbSpline
70
4
71
2
72
6
73
3
40
0
40
0
40
0
40
1
40
1
40
1
41
1.03186391735993
10
28.8441481764983
20
7.05819054611335
30
0
41
1.03138264657361
10
28.9661312814433
20
7.06565135242589
30
0
41
1.03186391735993
10
29.0883423346377
20
7.06565135242588
30
0
0
SPLINE
5
FA
100
AcDbEntity
8
1
62
256
6
ByLayer
370
18
48
1
60
0
100
AcDbSpline
70
4
71
2
72
6
73
3
40
0
40
0
40
0
40
1
40
1
40
1
41
1.03186391735993
10
29.0883423346377
20
4.05934864757414
30
0
41
1.03138264657361
10
28.9661312814433
20
4.05934864757415
30
0
41
1.03186391735993
10
28.8441481764983
20
4.0668094538867
30
0
0
SPLINE
5
FB
100
AcDbEntity
8
1
62
256
6
ByLayer
370
18
48
1
60
0
100
AcDbSpline
70
4
71
2
72
6
73
3
40
0
40
0
40
0
40
1
40
1
40
1
41
1.03186391735993
10
9.73255649667587
20
7.0581905461133
30
0
41
1.03138264657361
10
9.61057339173079
20
7.06565135242586
30
0
41
1.03186391735993
10
9.48836233853648
20
7.06565135242583
30
0
0
SPLINE
5
FC
100
AcDbEntity
8
1
62
256
6
ByLayer
370
18
48
1
60
0
100
AcDbSpline
70
4
71
2
72
6
73
3
40
0
40
0
40
0
40
1
40
1
40
1
41
1.03186391735993
10
9.48836233853642
20
7.06565135242586
30
0
41
0.729637973226922
10
9.2883623385364
20
7.06565135242585
30
0
41
1.03186391735993
10
9.2883623385364
20
6.86565135242584
30
0
0
SPLINE
5
FD
100
AcDbEntity
8
1
62
256
6
ByLayer
370
18
48
1
60
0
100
AcDbSpline
70
4
71
3
72
8
73
4
40
0
40
0
40
0
40
0
40
1
40
1
40
1
40
1
41
1
10
26.7080217529783
20
6.98137497521799
30
0
41
1
10
26.7208172061491
20
6.98459915288927
30
0
41
1
10
26.7339134786689
20
6.98650040238007
30
0
41
1
10
26.7470853473641
20
6.98706146176067
30
0
0
SPLINE
5
FE
100
AcDbEntity
8
1
62
256
6
ByLayer
370
18
48
1
60
0
100
AcDbSpline
70
4
71
3
72
8
73
4
40
0
40
0
40
0
40
0
40
1
40
1
40
1
40
1
41
1
10
26.747085347371
20
4.13793853823904
30
0
41
1
10
26.7339134636189
20
4.13849959826086
30
0
41
1
10
26.7208172209433
20
4.14040084338316
30
0
41
1
10
26.7080217529807
20
4.14362502478144
30
0
0
SPLINE
5
FF
100
AcDbEntity
8
1
62
256
6
ByLayer
370
18
48
1
60
0
100
AcDbSpline
70
4
71
3
72
8
73
4
40
0
40
0
40
0
40
0
40
1
40
1
40
1
40
1
41
1
10
11.8686829201934
20
6.98137497521859
30
0
41
1
10
11.8558875206148
20
6.98459913938558
30
0
41
1
10
11.8427911383819
20
6.98650040477079
30
0
41
1
10
11.8296193258031
20
6.98706146176096
30
0
0
SPLINE
5
100
100
AcDbEntity
8
1
62
256
6
ByLayer
370
18
48
1
60
0
100
AcDbSpline
70
4
71
3
72
26
73
22
40
0
40
0
40
0
40
0
40
0.125000000000057
40
0.125000000000057
40
0.250000000000115
40
0.250000000000115
40
0.312500000000124
40
0.312500000000124
40
0.375000000000132
40
0.375000000000132
40
0.500000000000107
40
0.500000000000107
40
0.562500000000116
40
0.562500000000116
40
0.625000000000125
40
0.625000000000125
40
0.750000000000083
40
0.750000000000083
40
0.875000000000042
40
0.875000000000042
40
1
40
1
40
1
40
1
41
1
10
12.856852336587
20
-1.48749999999998
30
0
41
1
10
12.856852336587
20
-1.46875791612033
30
0
41
1
10
12.8552151320916
20
-1.44970997587899
30
0
41
1
10
12.84883761727
20
-1.41282945414565
30
0
41
1
10
12.8441251282525
20
-1.39485316252063
30
0
41
1
10
12.8348177226902
20
-1.36857276943917
30
0
41
1
10
12.8313198616824
20
-1.35988638943704
30
0
41
1
10
12.8236864668231
20
-1.343017452384
30
0
41
1
10
12.819551435852
20
-1.33482260448414
30
0
41
1
10
12.8062346660027
20
-1.31092674818049
30
0
41
1
10
12.7961468990804
20
-1.29591006307544
30
0
41
1
10
12.7792570436733
20
-1.27472446059159
30
0
41
1
10
12.7733449539715
20
-1.26790808143093
30
0
41
1
10
12.76114970843
20
-1.25494041048927
30
0
41
1
10
12.7548436333725
20
-1.24875961722878
30
0
41
1
10
12.7353286893629
20
-1.23109091779867
30
0
41
1
10
12.7215264642491
20
-1.2204717290289
30
0
41
1
10
12.6923978698269
20
-1.20149861905384
30
0
41
1
10
12.6773296307733
20
-1.19331884119541
30
0
41
1
10
12.646470084287
20
-1.17947798017605
30
0
41
1
10
12.6306472260751
20
-1.17379801634456
30
0
41
1
10
12.6144477767314
20
-1.16933803045313
30
0
0
SPLINE
5
101
100
AcDbEntity
8
1
62
256
6
ByLayer
370
18
48
1
60
0
100
AcDbSpline
70
4
71
3
72
24
73
20
40
0
40
0
40
0
40
0
40
0.0624999999999724
40
0.0624999999999724
40
0.124999999999945
40
0.124999999999945
40
0.249999999999958
40
0.249999999999958
40
0.312499999999965
40
0.312499999999965
40
0.374999999999972
40
0.374999999999972
40
0.499999999999976
40
0.499999999999976
40
0.62499999999998
40
0.62499999999998
40
0.749999999999983
40
0.749999999999983
40
1
40
1
40
1
40
1
41
1
10
11.8839292261822
20
0.210681058339787
30
0
41
1
10
11.8920309464001
20
0.205931337822449
30
0
41
1
10
11.9000021458144
20
0.200789788986498
30
0
41
1
10
11.9154454022879
20
0.189855321586037
30
0
41
1
10
11.9228700317238
20
0.184100827774955
30
0
41
1
10
11.9442850882147
20
0.16600705640505
30
0
41
1
10
11.9574225761121
20
0.152843105335876
30
0
41
1
10
11.9754328145633
20
0.131460372839797
30
0
41
1
10
11.9811576910429
20
0.124043120920561
30
0
41
1
10
11.9918232500856
20
0.108957018840243
30
0
41
1
10
11.9967948711017
20
0.101254168516817
30
0
41
1
10
12.0106675669472
20
0.07768656155028
30
0
41
1
10
12.0185330543155
20
0.0613655560663915
30
0
41
1
10
12.031542664147
20
0.0275376500416087
30
0
41
1
10
12.0365173974889
20
0.0104733948959961
30
0
41
1
10
12.0436763290704
20
-0.0238970022403464
30
0
41
1
10
12.0458616435056
20
-0.0412629412519436
30
0
41
1
10
12.0482915466331
20
-0.0933305558699544
30
0
41
1
10
12.0444916283558
20
-0.126896089291535
30
0
41
1
10
12.0358033701719
20
-0.159347662021418
30
0
0
SPLINE
5
102
100
AcDbEntity
8
1
62
256
6
ByLayer
370
18
48
1
60
0
100
AcDbSpline
70
4
71
3
72
34
73
30
40
0
40
0
40
0
40
0
40
0.124999999999987
40
0.124999999999987
40
0.187499999999981
40
0.187499999999981
40
0.21874999999998
40
0.21874999999998
40
0.249999999999979
40
0.249999999999979
40
0.374999999999975
40
0.374999999999975
40
0.406249999999974
40
0.406249999999974
40
0.437499999999974
40
0.499999999999971
40
0.562499999999969
40
0.562499999999969
40
0.624999999999966
40
0.624999999999966
40
0.687499999999964
40
0.687499999999964
40
0.749999999999961
40
0.749999999999961
40
0.874999999999979
40
0.874999999999979
40
0.93749999999999
40
0.93749999999999
40
1
40
1
40
1
40
1
41
1
10
12.0358033701719
20
-0.159347662021389
30
0
41
1
10
12.0226867983658
20
-0.208339459332308
30
0
41
1
10
12.0140545206964
20
-0.258445098419031
30
0
41
1
10
12.0081443761873
20
-0.33560237246067
30
0
41
1
10
12.0073558129513
20
-0.361657950117404
30
0
41
1
10
12.0080828459469
20
-0.401327894609295
30
0
41
1
10
12.0086465357404
20
-0.414679808530337
30
0
41
1
10
12.0104364596992
20
-0.44145373589933
30
0
41
1
10
12.0116582381142
20
-0.454832189940106
30
0
41
1
10
12.0194190525326
20
-0.521694541905447
30
0
41
1
10
12.0308421848666
20
-0.575089436499809
30
0
41
1
10
12.0525849863232
20
-0.641911375450377
30
0
41
1
10
12.0573214816333
20
-0.655296193223961
30
0
41
1
10
12.0674169850339
20
-0.681647836993392
30
0
41
1
10
12.0835426219176
20
-0.720705992959864
30
0
41
1
10
12.1152769769181
20
-0.783486066620071
30
0
41
1
10
12.1458831402297
20
-0.831224682577272
30
0
41
1
10
12.1792020290362
20
-0.877669731548338
30
0
41
1
10
12.196816656536
20
-0.899686395264354
30
0
41
1
10
12.2337983553617
20
-0.941449217024513
30
0
41
1
10
12.2531718869164
20
-0.961202991331788
30
0
41
1
10
12.2936372416891
20
-0.998560305328738
30
0
41
1
10
12.3148118594785
20
-1.01620685939852
30
0
41
1
10
12.3793365424571
20
-1.06487304287515
30
0
41
1
10
12.424125491418
20
-1.09213984837407
30
0
41
1
10
12.4939215416155
20
-1.12629244272193
30
0
41
1
10
12.5177031818496
20
-1.13656587395226
30
0
41
1
10
12.5657434915903
20
-1.15471938119671
30
0
41
1
10
12.5899815768143
20
-1.1626020665243
30
0
41
1
10
12.6144477767314
20
-1.16933803045313
30
0
0
SPLINE
5
103
100
AcDbEntity
8
1
62
256
6
ByLayer
370
18
48
1
60
0
100
AcDbSpline
70
4
71
3
72
24
73
20
40
0
40
0
40
0
40
0
40
0.0624999999999644
40
0.0624999999999644
40
0.124999999999929
40
0.124999999999929
40
0.249999999999934
40
0.249999999999934
40
0.312499999999934
40
0.312499999999934
40
0.374999999999935
40
0.374999999999935
40
0.499999999999946
40
0.499999999999946
40
0.624999999999957
40
0.624999999999957
40
0.749999999999968
40
0.749999999999968
40
1
40
1
40
1
40
1
41
1
10
9.89277544699186
20
0.210681058339787
30
0
41
1
10
9.88467372677388
20
0.205931337822449
30
0
41
1
10
9.87670252735967
20
0.200789788986498
30
0
41
1
10
9.86125927088608
20
0.189855321586037
30
0
41
1
10
9.85383464145025
20
0.184100827774955
30
0
41
1
10
9.83241958495938
20
0.16600705640505
30
0
41
1
10
9.81928209706194
20
0.152843105335876
30
0
41
1
10
9.80127185861079
20
0.131460372839797
30
0
41
1
10
9.79554698213116
20
0.124043120920561
30
0
41
1
10
9.78488142308851
20
0.108957018840215
30
0
41
1
10
9.77990980207233
20
0.101254168516817
30
0
41
1
10
9.76603710622683
20
0.07768656155028
30
0
41
1
10
9.75817161885854
20
0.0613655560663915
30
0
41
1
10
9.7451620090271
20
0.0275376500416087
30
0
41
1
10
9.74018727568523
20
0.0104733948959961
30
0
41
1
10
9.73302834410373
20
-0.0238970022403464
30
0
41
1
10
9.73084302966845
20
-0.0412629412519436
30
0
41
1
10
9.72841312654097
20
-0.0933305558699544
30
0
41
1
10
9.73221304481822
20
-0.126896089291535
30
0
41
1
10
9.74090130300218
20
-0.159347662021418
30
0
0
SPLINE
5
104
100
AcDbEntity
8
1
62
256
6
ByLayer
370
18
48
1
60
0
100
AcDbSpline
70
4
71
3
72
26
73
22
40
0
40
0
40
0
40
0
40
0.249999999999671
40
0.249999999999671
40
0.312499999999639
40
0.312499999999639
40
0.374999999999608
40
0.374999999999608
40
0.499999999999597
40
0.499999999999597
40
0.56249999999962
40
0.56249999999962
40
0.624999999999644
40
0.624999999999644
40
0.74999999999974
40
0.74999999999974
40
0.812499999999803
40
0.812499999999803
40
0.874999999999866
40
0.874999999999866
40
1
40
1
40
1
40
1
41
1
10
9.16225689644273
20
-1.16933803045313
30
0
41
1
10
9.12977530323803
20
-1.17828076945304
30
0
41
1
10
9.09888864685513
20
-1.19201236774091
30
0
41
1
10
9.06255381926525
20
-1.21566466117096
30
0
41
1
10
9.05537487916288
20
-1.22075049322683
30
0
41
1
10
9.04149294202657
20
-1.23144699082366
30
0
41
1
10
9.03477074214013
20
-1.23706660092884
30
0
41
1
10
9.01526561027796
20
-1.25474049665067
30
0
41
1
10
9.00313952795062
20
-1.26760421588315
30
0
41
1
10
8.98636292983787
20
-1.28861894513204
30
0
41
1
10
8.98100721939383
20
-1.29591168939089
30
0
41
1
10
8.97080077055062
20
-1.31110838655613
30
0
41
1
10
8.96599022368278
20
-1.31895882928873
30
0
41
1
10
8.95262784364851
20
-1.34295622716189
30
0
41
1
10
8.94505543254229
20
-1.35966650035039
30
0
41
1
10
8.93576835673571
20
-1.38582948958663
30
0
41
1
10
8.93301960500435
20
-1.39473432990351
30
0
41
1
10
8.92825064248314
20
-1.41292923025674
30
0
41
1
10
8.92623781108253
20
-1.42221540105007
30
0
41
1
10
8.92144875287363
20
-1.45001872314742
30
0
41
1
10
8.91985233658704
20
-1.46869104670995
30
0
41
1
10
8.91985233658704
20
-1.48749999999998
30
0
0
SPLINE
5
105
100
AcDbEntity
8
1
62
256
6
ByLayer
370
18
48
1
60
0
100
AcDbSpline
70
4
71
3
72
34
73
30
40
0
40
0
40
0
40
0
40
0.124999999999963
40
0.124999999999963
40
0.187499999999958
40
0.187499999999958
40
0.218749999999967
40
0.218749999999967
40
0.249999999999977
40
0.249999999999977
40
0.375000000000034
40
0.375000000000034
40
0.40625000000004
40
0.40625000000004
40
0.437500000000046
40
0.500000000000039
40
0.562500000000033
40
0.562500000000033
40
0.625000000000026
40
0.625000000000026
40
0.68750000000002
40
0.68750000000002
40
0.750000000000013
40
0.750000000000013
40
0.875000000000006
40
0.875000000000006
40
0.937500000000003
40
0.937500000000003
40
1
40
1
40
1
40
1
41
1
10
9.16225689644273
20
-1.16933803045313
30
0
41
1
10
9.21115478400264
20
-1.15587560441574
30
0
41
1
10
9.25874560989132
20
-1.1379813479254
30
0
41
1
10
9.3282965500965
20
-1.10405729250437
30
0
41
1
10
9.35117293569027
20
-1.0915598537764
30
0
41
1
10
9.3850276140173
20
-1.07086942182781
30
0
41
1
10
9.39626092534456
20
-1.06363035353954
30
0
41
1
10
9.41845293286184
20
-1.04854520421665
30
0
41
1
10
9.42937630694101
20
-1.04072499604052
30
0
41
1
10
9.4831319017625
20
-1.00021400950888
30
0
41
1
10
9.52341719173279
20
-0.963354842977481
30
0
41
1
10
9.57006648106724
20
-0.910802342231733
30
0
41
1
10
9.57921776265968
20
-0.899946847799185
30
0
41
1
10
9.59684489517616
20
-0.877910232439802
30
0
41
1
10
9.62238388782151
20
-0.844245185469504
30
0
41
1
10
9.66049307839438
20
-0.785117388146375
30
0
41
1
10
9.68619692766939
20
-0.734570132223496
30
0
41
1
10
9.70941287388439
20
-0.68233689361162
30
0
41
1
10
9.71949748773204
20
-0.656006133694945
30
0
41
1
10
9.73682169826435
20
-0.602981130085908
30
0
41
1
10
9.74406459670291
20
-0.576277464355229
30
0
41
1
10
9.75582640116693
20
-0.522475289899631
30
0
41
1
10
9.76034054074816
20
-0.495283602922967
30
0
41
1
10
9.7696901511224
20
-0.415006479105642
30
0
41
1
10
9.77056042344105
20
-0.362577753293522
30
0
41
1
10
9.76472346863432
20
-0.285093441113844
30
0
41
1
10
9.76155846719314
20
-0.259381719463306
30
0
41
1
10
9.75292251095712
20
-0.208757205277635
30
0
41
1
10
9.747464217518
20
-0.183860849040002
30
0
41
1
10
9.74090130300218
20
-0.159347662021389
30
0
0
SPLINE
5
106
100
AcDbEntity
8
1
62
256
6
ByLayer
370
18
48
1
60
0
100
AcDbSpline
70
4
71
3
72
18
73
14
40
0
40
0
40
0
40
0
40
0.250000000000141
40
0.250000000000141
40
0.375000000000176
40
0.375000000000176
40
0.43750000000016
40
0.43750000000016
40
0.500000000000145
40
0.500000000000145
40
0.750000000000072
40
0.750000000000072
40
1
40
1
40
1
40
1
41
1
10
10.7356110432106
20
-2.89523793629979
30
0
41
1
10
10.6911860537294
20
-2.90359702343514
30
0
41
1
10
10.6488236089038
20
-2.915305923863
30
0
41
1
10
10.5878647386471
20
-2.93728529958466
30
0
41
1
10
10.567979523734
20
-2.94535398223076
30
0
41
1
10
10.5387671903436
20
-2.95854090624681
30
0
41
1
10
10.5291324931299
20
-2.96311747444699
30
0
41
1
10
10.5100644609778
20
-2.97263070900482
30
0
41
1
10
10.5006103067625
20
-2.97757912414386
30
0
41
1
10
10.4541435447094
20
-3.00304985314349
30
0
41
1
10
10.419518992732
20
-3.02571699746727
30
0
41
1
10
10.3546453612773
20
-3.07525052945974
30
0
41
1
10
10.3244031370628
20
-3.10212139656196
30
0
41
1
10
10.2962346324198
20
-3.13108262808873
30
0
0
SPLINE
5
107
100
AcDbEntity
8
1
62
256
6
ByLayer
370
18
48
1
60
0
100
AcDbSpline
70
4
71
3
72
24
73
20
40
0
40
0
40
0
40
0
40
0.124999999999944
40
0.124999999999944
40
0.187499999999959
40
0.187499999999959
40
0.249999999999974
40
0.249999999999974
40
0.375000000000003
40
0.375000000000003
40
0.500000000000033
40
0.500000000000033
40
0.625000000000062
40
0.625000000000062
40
0.687500000000041
40
0.687500000000041
40
0.75000000000002
40
0.75000000000002
40
1
40
1
40
1
40
1
41
1
10
9.89277544699186
20
-3.18568105833975
30
0
41
1
10
9.90940149401314
20
-3.1954282570253
30
0
41
1
10
9.92671408776738
20
-3.20363573668985
30
0
41
1
10
9.95369978037434
20
-3.21366576349766
30
0
41
1
10
9.9628997077055
20
-3.21663594129572
30
0
41
1
10
9.98149687141438
20
-3.22174854955512
30
0
41
1
10
9.99080325715022
20
-3.22386958926606
30
0
41
1
10
10.0187433707052
20
-3.22899634461302
30
0
41
1
10
10.0373979963433
20
-3.23077407382689
30
0
41
1
10
10.0747522785289
20
-3.23118150345832
30
0
41
1
10
10.0935912590134
20
-3.22976047800435
30
0
41
1
10
10.1297674415075
20
-3.22398729490305
30
0
41
1
10
10.14728281014
20
-3.21965862463139
30
0
41
1
10
10.1727412134055
20
-3.2111520963912
30
0
41
1
10
10.1810908344001
20
-3.20797913939873
30
0
41
1
10
10.1975162774382
20
-3.20096298446995
30
0
41
1
10
10.2056190811783
20
-3.19710285142728
30
0
41
1
10
10.2447682081076
20
-3.17648464130707
30
0
41
1
10
10.2722773222641
20
-3.15571415237352
30
0
41
1
10
10.2962346324198
20
-3.13108262808873
30
0
0
SPLINE
5
108
100
AcDbEntity
8
1
62
256
6
ByLayer
370
18
48
1
60
0
100
AcDbSpline
70
4
71
3
72
24
73
20
40
0
40
0
40
0
40
0
40
0.250000000000235
40
0.250000000000235
40
0.31250000000026
40
0.31250000000026
40
0.375000000000284
40
0.375000000000284
40
0.500000000000245
40
0.500000000000245
40
0.625000000000205
40
0.625000000000205
40
0.750000000000165
40
0.750000000000165
40
0.812500000000145
40
0.812500000000145
40
0.875000000000126
40
0.875000000000126
40
1
40
1
40
1
40
1
41
1
10
11.4804700407542
20
-3.13108262808873
30
0
41
1
10
11.50442735091
20
-3.15571415237352
30
0
41
1
10
11.5319364650665
20
-3.17648464130707
30
0
41
1
10
11.5710855919958
20
-3.19710285142728
30
0
41
1
10
11.5791883957359
20
-3.20096298446995
30
0
41
1
10
11.595613838774
20
-3.20797913939873
30
0
41
1
10
11.6039634597686
20
-3.2111520963912
30
0
41
1
10
11.6294218630341
20
-3.21965862463139
30
0
41
1
10
11.6469372316666
20
-3.22398729490305
30
0
41
1
10
11.6831134141606
20
-3.22976047800435
30
0
41
1
10
11.7019523946451
20
-3.23118150345832
30
0
41
1
10
11.7393066768308
20
-3.23077407382686
30
0
41
1
10
11.7579613024689
20
-3.22899634461302
30
0
41
1
10
11.7859014160239
20
-3.22386958926606
30
0
41
1
10
11.7952078017597
20
-3.22174854955512
30
0
41
1
10
11.8138049654686
20
-3.21663594129572
30
0
41
1
10
11.8230048927998
20
-3.21366576349766
30
0
41
1
10
11.8499905854067
20
-3.20363573668985
30
0
41
1
10
11.867303179161
20
-3.1954282570253
30
0
41
1
10
11.8839292261822
20
-3.18568105833975
30
0
0
SPLINE
5
109
100
AcDbEntity
8
1
62
256
6
ByLayer
370
18
48
1
60
0
100
AcDbSpline
70
4
71
3
72
17
73
13
40
0
40
0
40
0
40
0
40
0.250000000000099
40
0.250000000000099
40
0.500000000000198
40
0.500000000000198
40
0.562500000000191
40
0.562500000000191
40
0.625000000000185
40
0.7500000000001
40
0.7500000000001
40
1
40
1
40
1
40
1
41
1
10
11.4804700407542
20
-3.13108262808873
30
0
41
1
10
11.4523046553965
20
-3.10212460363107
30
0
41
1
10
11.4220780944516
20
-3.07526905890359
30
0
41
1
10
11.3572740131999
20
-3.025780261633
30
0
41
1
10
11.3227030317205
20
-3.00314270781305
30
0
41
1
10
11.2763408484433
20
-2.97771052261234
30
0
41
1
10
11.266887046398
20
-2.97275755203685
30
0
41
1
10
11.2477776127003
20
-2.96321635835537
30
0
41
1
10
11.2188143735348
20
-2.94945011152734
30
0
41
1
10
11.18893861333
20
-2.93732303345149
30
0
41
1
10
11.1279017245086
20
-2.91530907632682
30
0
41
1
10
11.0855105338539
20
-2.90359550203559
30
0
41
1
10
11.0410936299635
20
-2.89523793629979
30
0
0
SPLINE
5
10A
100
AcDbEntity
8
1
62
256
6
ByLayer
370
18
48
1
60
0
100
AcDbSpline
70
4
71
3
72
26
73
22
40
0
40
0
40
0
40
0
40
0.249999999999671
40
0.249999999999671
40
0.312499999999639
40
0.312499999999639
40
0.374999999999608
40
0.374999999999608
40
0.499999999999597
40
0.499999999999597
40
0.56249999999962
40
0.56249999999962
40
0.624999999999644
40
0.624999999999644
40
0.74999999999974
40
0.74999999999974
40
0.812499999999803
40
0.812499999999803
40
0.874999999999866
40
0.874999999999866
40
1
40
1
40
1
40
1
41
1
10
12.6144477767314
20
-1.80566196954683
30
0
41
1
10
12.6469293699361
20
-1.7967192305469
30
0
41
1
10
12.6778160263189
20
-1.78298763225905
30
0
41
1
10
12.7141508539088
20
-1.759335338829
30
0
41
1
10
12.7213297940112
20
-1.75424950677313
30
0
41
1
10
12.7352117311476
20
-1.74355300917631
30
0
41
1
10
12.741933931034
20
-1.73793339907112
30
0
41
1
10
12.7614390628961
20
-1.7202595033493
30
0
41
1
10
12.7735651452235
20
-1.70739578411681
30
0
41
1
10
12.7903417433363
20
-1.68638105486792
30
0
41
1
10
12.7956974537803
20
-1.67908831060908
30
0
41
1
10
12.8059039026234
20
-1.66389161344381
30
0
41
1
10
12.8107144494914
20
-1.65604117071123
30
0
41
1
10
12.8240768295256
20
-1.63204377283807
30
0
41
1
10
12.8316492406318
20
-1.61533349964958
30
0
41
1
10
12.8409363164384
20
-1.58917051041334
30
0
41
1
10
12.8436850681697
20
-1.58026567009645
30
0
41
1
10
12.8484540306909
20
-1.56207076974323
30
0
41
1
10
12.8504668620915
20
-1.5527845989499
30
0
41
1
10
12.8552559203004
20
-1.52498127685254
30
0
41
1
10
12.856852336587
20
-1.50630895328999
30
0
41
1
10
12.856852336587
20
-1.48749999999998
30
0
0
SPLINE
5
10B
100
AcDbEntity
8
1
62
256
6
ByLayer
370
18
48
1
60
0
100
AcDbSpline
70
4
71
3
72
34
73
30
40
0
40
0
40
0
40
0
40
0.124999999999965
40
0.124999999999965
40
0.187499999999961
40
0.187499999999961
40
0.218749999999971
40
0.218749999999971
40
0.249999999999981
40
0.249999999999981
40
0.37500000000004
40
0.37500000000004
40
0.406250000000046
40
0.406250000000046
40
0.437500000000051
40
0.500000000000044
40
0.562500000000038
40
0.562500000000038
40
0.625000000000031
40
0.625000000000031
40
0.687500000000024
40
0.687500000000024
40
0.750000000000017
40
0.750000000000017
40
0.87500000000001
40
0.87500000000001
40
0.937500000000005
40
0.937500000000005
40
1
40
1
40
1
40
1
41
1
10
12.6144477767314
20
-1.8056619695468
30
0
41
1
10
12.5655498891714
20
-1.81912439558422
30
0
41
1
10
12.5179590632828
20
-1.83701865207456
30
0
41
1
10
12.4484081230776
20
-1.8709427074956
30
0
41
1
10
12.4255317374838
20
-1.88344014622356
30
0
41
1
10
12.3916770591568
20
-1.90413057817216
30
0
41
1
10
12.3804437478295
20
-1.91136964646043
30
0
41
1
10
12.3582517403123
20
-1.92645479578331
30
0
41
1
10
12.3473283662331
20
-1.93427500395944
30
0
41
1
10
12.2935727714116
20
-1.97478599049108
30
0
41
1
10
12.2532874814413
20
-2.01164515702248
30
0
41
1
10
12.2066381921068
20
-2.06419765776823
30
0
41
1
10
12.1974869105144
20
-2.07505315220078
30
0
41
1
10
12.1798597779979
20
-2.09708976756016
30
0
41
1
10
12.1543207853525
20
-2.13075481453046
30
0
41
1
10
12.1162115947797
20
-2.18988261185359
30
0
41
1
10
12.0905077455047
20
-2.24042986777647
30
0
41
1
10
12.0672917992897
20
-2.29266310638835
30
0
41
1
10
12.057207185442
20
-2.31899386630502
30
0
41
1
10
12.0398829749097
20
-2.37201886991406
30
0
41
1
10
12.0326400764711
20
-2.39872253564474
30
0
41
1
10
12.0208782720071
20
-2.45252471010033
30
0
41
1
10
12.0163641324259
20
-2.479716397077
30
0
41
1
10
12.0070145220517
20
-2.55999352089432
30
0
41
1
10
12.006144249733
20
-2.61242224670642
30
0
41
1
10
12.0119812045398
20
-2.68990655888612
30
0
41
1
10
12.0151462059809
20
-2.71561828053666
30
0
41
1
10
12.023782162217
20
-2.76624279472233
30
0
41
1
10
12.0292404556561
20
-2.79113915095996
30
0
41
1
10
12.0358033701719
20
-2.81565233797855
30
0
0
SPLINE
5
10C
100
AcDbEntity
8
1
62
256
6
ByLayer
370
18
48
1
60
0
100
AcDbSpline
70
4
71
3
72
24
73
20
40
0
40
0
40
0
40
0
40
0.0624999999999732
40
0.0624999999999732
40
0.124999999999947
40
0.124999999999947
40
0.249999999999963
40
0.249999999999963
40
0.312499999999969
40
0.312499999999969
40
0.374999999999975
40
0.374999999999975
40
0.499999999999978
40
0.499999999999978
40
0.624999999999981
40
0.624999999999981
40
0.749999999999984
40
0.749999999999984
40
1
40
1
40
1
40
1
41
1
10
11.8839292261822
20
-3.18568105833975
30
0
41
1
10
11.8920309464002
20
-3.18093133782242
30
0
41
1
10
11.9000021458144
20
-3.17578978898646
30
0
41
1
10
11.915445402288
20
-3.164855321586
30
0
41
1
10
11.9228700317238
20
-3.15910082777492
30
0
41
1
10
11.9442850882147
20
-3.14100705640502
30
0
41
1
10
11.9574225761121
20
-3.12784310533584
30
0
41
1
10
11.9754328145633
20
-3.10646037283976
30
0
41
1
10
11.9811576910429
20
-3.09904312092053
30
0
41
1
10
11.9918232500855
20
-3.08395701884018
30
0
41
1
10
11.9967948711017
20
-3.07625416851678
30
0
41
1
10
12.0106675669472
20
-3.05268656155025
30
0
41
1
10
12.0185330543155
20
-3.03636555606636
30
0
41
1
10
12.031542664147
20
-3.00253765004158
30
0
41
1
10
12.0365173974888
20
-2.98547339489596
30
0
41
1
10
12.0436763290704
20
-2.95110299775962
30
0
41
1
10
12.0458616435057
20
-2.93373705874802
30
0
41
1
10
12.0482915466331
20
-2.88166944413001
30
0
41
1
10
12.0444916283558
20
-2.84810391070843
30
0
41
1
10
12.0358033701719
20
-2.81565233797855
30
0
0
SPLINE
5
10D
100
AcDbEntity
8
1
62
256
6
ByLayer
370
18
48
1
60
0
100
AcDbSpline
70
4
71
3
72
26
73
22
40
0
40
0
40
0
40
0
40
0.125000000000059
40
0.125000000000059
40
0.250000000000119
40
0.250000000000119
40
0.312500000000131
40
0.312500000000131
40
0.375000000000144
40
0.375000000000144
40
0.500000000000126
40
0.500000000000126
40
0.562500000000139
40
0.562500000000139
40
0.625000000000151
40
0.625000000000151
40
0.750000000000101
40
0.750000000000101
40
0.875000000000051
40
0.875000000000051
40
1
40
1
40
1
40
1
41
1
10
8.91985233658704
20
-1.48749999999998
30
0
41
1
10
8.91985233658704
20
-1.50624208387967
30
0
41
1
10
8.92148954108245
20
-1.52529002412098
30
0
41
1
10
8.92786705590413
20
-1.56217054585431
30
0
41
1
10
8.93257954492157
20
-1.58014683747933
30
0
41
1
10
8.94188695048385
20
-1.6064272305608
30
0
41
1
10
8.94538481149169
20
-1.61511361056293
30
0
41
1
10
8.953018206351
20
-1.63198254761596
30
0
41
1
10
8.95715323732216
20
-1.64017739551582
30
0
41
1
10
8.97047000717129
20
-1.66407325181947
30
0
41
1
10
8.98055777409371
20
-1.67908993692453
30
0
41
1
10
8.99744762950087
20
-1.70027553940838
30
0
41
1
10
9.00335971920262
20
-1.70709191856903
30
0
41
1
10
9.01555496474418
20
-1.7200595895107
30
0
41
1
10
9.02186103980165
20
-1.72624038277115
30
0
41
1
10
9.04137598381124
20
-1.7439090822013
30
0
41
1
10
9.05517820892499
20
-1.75452827097104
30
0
41
1
10
9.08430680334709
20
-1.7735013809461
30
0
41
1
10
9.09937504240077
20
-1.78168115880456
30
0
41
1
10
9.13023458888711
20
-1.79552201982392
30
0
41
1
10
9.14605744709891
20
-1.8012019836554
30
0
41
1
10
9.1622568964427
20
-1.8056619695468
30
0
0
SPLINE
5
10E
100
AcDbEntity
8
1
62
256
6
ByLayer
370
18
48
1
60
0
100
AcDbSpline
70
4
71
3
72
34
73
30
40
0
40
0
40
0
40
0
40
0.124999999999989
40
0.124999999999989
40
0.187499999999984
40
0.187499999999984
40
0.218749999999984
40
0.218749999999984
40
0.249999999999983
40
0.249999999999983
40
0.374999999999978
40
0.374999999999978
40
0.406249999999976
40
0.406249999999976
40
0.437499999999974
40
0.499999999999971
40
0.562499999999969
40
0.562499999999969
40
0.624999999999966
40
0.624999999999966
40
0.687499999999964
40
0.687499999999964
40
0.749999999999961
40
0.749999999999961
40
0.87499999999998
40
0.87499999999998
40
0.93749999999999
40
0.93749999999999
40
1
40
1
40
1
40
1
41
1
10
9.74090130300218
20
-2.81565233797855
30
0
41
1
10
9.75401787480831
20
-2.76666054066766
30
0
41
1
10
9.7626501524777
20
-2.71655490158094
30
0
41
1
10
9.76856029698683
20
-2.6393976275393
30
0
41
1
10
9.76934886022275
20
-2.61334204988256
30
0
41
1
10
9.76862182722715
20
-2.57367210539067
30
0
41
1
10
9.76805813743377
20
-2.56032019146963
30
0
41
1
10
9.76626821347497
20
-2.53354626410061
30
0
41
1
10
9.7650464350599
20
-2.52016781005986
30
0
41
1
10
9.75728562064154
20
-2.45330545809452
30
0
41
1
10
9.74586248830749
20
-2.39991056350016
30
0
41
1
10
9.72411968685083
20
-2.33308862454959
30
0
41
1
10
9.71938319154074
20
-2.31970380677601
30
0
41
1
10
9.70928768814022
20
-2.29335216300657
30
0
41
1
10
9.69316205125648
20
-2.2542940070401
30
0
41
1
10
9.66142797322874
20
-2.19151379315974
30
0
41
1
10
9.63082153294445
20
-2.14377531742269
30
0
41
1
10
9.59750264413785
20
-2.09733026845163
30
0
41
1
10
9.57988801663811
20
-2.07531360473561
30
0
41
1
10
9.5429063178124
20
-2.03355078297545
30
0
41
1
10
9.52353278625768
20
-2.01379700866818
30
0
41
1
10
9.48306743148493
20
-1.97643969467123
30
0
41
1
10
9.46189281369556
20
-1.95879314060144
30
0
41
1
10
9.39736813071704
20
-1.91012695712482
30
0
41
1
10
9.35257918175611
20
-1.88286015162589
30
0
41
1
10
9.28278313155857
20
-1.84870755727803
30
0
41
1
10
9.25900149132443
20
-1.8384341260477
30
0
41
1
10
9.21096118158377
20
-1.82028061880325
30
0
41
1
10
9.18672309635974
20
-1.81239793347567
30
0
41
1
10
9.16225689644273
20
-1.8056619695468
30
0
0
SPLINE
5
10F
100
AcDbEntity
8
1
62
256
6
ByLayer
370
18
48
1
60
0
100
AcDbSpline
70
4
71
3
72
24
73
20
40
0
40
0
40
0
40
0
40
0.0624999999999732
40
0.0624999999999732
40
0.124999999999947
40
0.124999999999947
40
0.249999999999963
40
0.249999999999963
40
0.312499999999969
40
0.312499999999969
40
0.374999999999975
40
0.374999999999975
40
0.499999999999978
40
0.499999999999978
40
0.624999999999981
40
0.624999999999981
40
0.749999999999984
40
0.749999999999984
40
1
40
1
40
1
40
1
41
1
10
9.89277544699186
20
-3.18568105833975
30
0
41
1
10
9.88467372677388
20
-3.18093133782242
30
0
41
1
10
9.87670252735964
20
-3.17578978898646
30
0
41
1
10
9.86125927088614
20
-3.164855321586
30
0
41
1
10
9.85383464145025
20
-3.15910082777492
30
0
41
1
10
9.83241958495938
20
-3.14100705640502
30
0
41
1
10
9.81928209706194
20
-3.12784310533584
30
0
41
1
10
9.80127185861079
20
-3.10646037283976
30
0
41
1
10
9.79554698213116
20
-3.09904312092053
30
0
41
1
10
9.78488142308851
20
-3.08395701884018
30
0
41
1
10
9.77990980207233
20
-3.07625416851678
30
0
41
1
10
9.7660371062268
20
-3.05268656155025
30
0
41
1
10
9.75817161885854
20
-3.03636555606636
30
0
41
1
10
9.74516200902707
20
-3.00253765004158
30
0
41
1
10
9.74018727568523
20
-2.98547339489596
30
0
41
1
10
9.73302834410373
20
-2.95110299775962
30
0
41
1
10
9.73084302966845
20
-2.93373705874802
30
0
41
1
10
9.728413126541
20
-2.88166944413001
30
0
41
1
10
9.73221304481825
20
-2.84810391070843
30
0
41
1
10
9.74090130300218
20
-2.81565233797855
30
0
0
SPLINE
5
110
100
AcDbEntity
8
1
62
256
6
ByLayer
370
18
48
1
60
0
100
AcDbSpline
70
4
71
3
72
24
73
20
40
0
40
0
40
0
40
0
40
0.250000000000235
40
0.250000000000235
40
0.31250000000026
40
0.31250000000026
40
0.375000000000284
40
0.375000000000284
40
0.500000000000244
40
0.500000000000244
40
0.625000000000203
40
0.625000000000203
40
0.750000000000162
40
0.750000000000162
40
0.812500000000144
40
0.812500000000144
40
0.875000000000125
40
0.875000000000125
40
1
40
1
40
1
40
1
41
1
10
10.2962346324198
20
0.156082628088768
30
0
41
1
10
10.2722773222641
20
0.180714152373554
30
0
41
1
10
10.2447682081076
20
0.201484641307104
30
0
41
1
10
10.2056190811783
20
0.222102851427309
30
0
41
1
10
10.1975162774382
20
0.225962984469987
30
0
41
1
10
10.1810908344001
20
0.232979139398765
30
0
41
1
10
10.1727412134055
20
0.236152096391237
30
0
41
1
10
10.14728281014
20
0.244658624631427
30
0
41
1
10
10.1297674415076
20
0.248987294903117
30
0
41
1
10
10.0935912590134
20
0.254760478004386
30
0
41
1
10
10.0747522785289
20
0.256181503458379
30
0
41
1
10
10.0373979963432
20
0.255774073826927
30
0
41
1
10
10.0187433707052
20
0.253996344613057
30
0
41
1
10
9.99080325715022
20
0.248869589266093
30
0
41
1
10
9.98149687141438
20
0.24674854955515
30
0
41
1
10
9.9628997077055
20
0.241635941295755
30
0
41
1
10
9.95369978037434
20
0.238665763497693
30
0
41
1
10
9.92671408776744
20
0.228635736689881
30
0
41
1
10
9.90940149401311
20
0.220428257025333
30
0
41
1
10
9.89277544699186
20
0.210681058339787
30
0
0
SPLINE
5
111
100
AcDbEntity
8
1
62
256
6
ByLayer
370
18
48
1
60
0
100
AcDbSpline
70
4
71
3
72
17
73
13
40
0
40
0
40
0
40
0
40
0.249999999999918
40
0.249999999999918
40
0.499999999999836
40
0.499999999999836
40
0.562499999999848
40
0.562499999999848
40
0.62499999999986
40
0.749999999999883
40
0.749999999999883
40
1
40
1
40
1
40
1
41
1
10
10.2962346324198
20
0.156082628088768
30
0
41
1
10
10.3244000177776
20
0.127124603631159
30
0
41
1
10
10.3546265787224
20
0.100269058903706
30
0
41
1
10
10.419430659974
20
0.0507802616331787
30
0
41
1
10
10.4540016414533
20
0.0281427078132594
30
0
41
1
10
10.5003638247304
20
0.0027105226125741
30
0
41
1
10
10.5098176267757
20
-0.0022424479629137
30
0
41
1
10
10.5289270604734
20
-0.0117836416443993
30
0
41
1
10
10.5578902996388
20
-0.0255498884724261
30
0
41
1
10
10.5877660598437
20
-0.0376769665483039
30
0
41
1
10
10.6488029486652
20
-0.0596909236730596
30
0
41
1
10
10.69119413932
20
-0.0714044979643234
30
0
41
1
10
10.7356110432106
20
-0.0797620637001728
30
0
0
SPLINE
5
112
100
AcDbEntity
8
1
62
256
6
ByLayer
370
18
48
1
60
0
100
AcDbSpline
70
4
71
3
72
18
73
14
40
0
40
0
40
0
40
0
40
0.250000000000033
40
0.250000000000033
40
0.375000000000051
40
0.375000000000051
40
0.437500000000059
40
0.437500000000059
40
0.500000000000068
40
0.500000000000068
40
0.750000000000034
40
0.750000000000034
40
1
40
1
40
1
40
1
41
1
10
11.0410936299635
20
-0.0797620637001728
30
0
41
1
10
11.0855186194444
20
-0.0714029765648831
30
0
41
1
10
11.1278810642699
20
-0.0596940761370774
30
0
41
1
10
11.1888399345266
20
-0.037714700415421
30
0
41
1
10
11.2087251494399
20
-0.0296460177692666
30
0
41
1
10
11.2379374828305
20
-0.0164590937531273
30
0
41
1
10
11.2475721800442
20
-0.0118825255529487
30
0
41
1
10
11.2666402121965
20
-0.0023692909950341
30
0
41
1
10
11.2760943664118
20
0.0025791241440629
30
0
41
1
10
11.3225611284647
20
0.0280498531436137
30
0
41
1
10
11.357185680442
20
0.0507169974673047
30
0
41
1
10
11.4220593118967
20
0.100250529459714
30
0
41
1
10
11.4523015361112
20
0.127121396561961
30
0
41
1
10
11.4804700407542
20
0.156082628088768
30
0
0
SPLINE
5
113
100
AcDbEntity
8
1
62
256
6
ByLayer
370
18
48
1
60
0
100
AcDbSpline
70
4
71
3
72
24
73
20
40
0
40
0
40
0
40
0
40
0.124999999999875
40
0.124999999999875
40
0.187499999999856
40
0.187499999999856
40
0.249999999999838
40
0.249999999999838
40
0.374999999999797
40
0.374999999999797
40
0.499999999999756
40
0.499999999999756
40
0.624999999999716
40
0.624999999999716
40
0.68749999999974
40
0.68749999999974
40
0.749999999999765
40
0.749999999999765
40
1
40
1
40
1
40
1
41
1
10
11.8839292261822
20
0.210681058339787
30
0
41
1
10
11.867303179161
20
0.220428257025333
30
0
41
1
10
11.8499905854067
20
0.228635736689881
30
0
41
1
10
11.8230048927998
20
0.238665763497693
30
0
41
1
10
11.8138049654687
20
0.241635941295755
30
0
41
1
10
11.7952078017597
20
0.24674854955515
30
0
41
1
10
11.7859014160238
20
0.248869589266093
30
0
41
1
10
11.7579613024688
20
0.253996344613057
30
0
41
1
10
11.7393066768308
20
0.255774073826927
30
0
41
1
10
11.7019523946452
20
0.256181503458379
30
0
41
1
10
11.6831134141606
20
0.254760478004386
30
0
41
1
10
11.6469372316665
20
0.248987294903117
30
0
41
1
10
11.6294218630341
20
0.244658624631427
30
0
41
1
10
11.6039634597686
20
0.236152096391237
30
0
41
1
10
11.595613838774
20
0.232979139398765
30
0
41
1
10
11.5791883957359
20
0.225962984469987
30
0
41
1
10
11.5710855919958
20
0.222102851427309
30
0
41
1
10
11.5319364650665
20
0.201484641307104
30
0
41
1
10
11.50442735091
20
0.180714152373554
30
0
41
1
10
11.4804700407542
20
0.156082628088768
30
0
0
LINE
5
7F
100
AcDbEntity
8
81
62
256
6
ByLayer
370
18
48
1
60
0
100
AcDbLine
10
29.288352
20
7.0625
30
0
11
34.288352
21
7.0625
31
0
39
0
210
0
220
0
230
1
0
LINE
5
80
100
AcDbEntity
8
80
62
256
6
ByLayer
370
18
48
1
60
0
100
AcDbLine
10
0
20
0
30
0
11
-5
21
0
31
0
39
0
210
0
220
0
230
1
0
LINE
5
81
100
AcDbEntity
8
1
62
256
6
ByLayer
370
18
48
1
60
0
100
AcDbLine
10
0
20
6.51149
30
0
11
0
21
-5.939338
31
0
39
0
210
0
220
0
230
1
0
LINE
5
82
100
AcDbEntity
8
1
62
256
6
ByLayer
370
18
48
1
60
0
100
AcDbLine
10
22.513899
20
4.3875
30
0
11
23.185476
21
4.3875
31
0
39
0
210
0
220
0
230
1
0
LINE
5
83
100
AcDbEntity
8
1
62
256
6
ByLayer
370
18
48
1
60
0
100
AcDbLine
10
22.513899
20
6.7375
30
0
11
23.185476
21
6.7375
31
0
39
0
210
0
220
0
230
1
0
LINE
5
84
100
AcDbEntity
8
1
62
256
6
ByLayer
370
18
48
1
60
0
100
AcDbLine
10
24.103872
20
4.3875
30
0
11
25.739215
21
4.3875
31
0
39
0
210
0
220
0
230
1
0
LINE
5
85
100
AcDbEntity
8
1
62
256
6
ByLayer
370
18
48
1
60
0
100
AcDbLine
10
23.185476
20
4.3875
30
0
11
23.185239
21
4.412504
31
0
39
0
210
0
220
0
230
1
0
LINE
5
86
100
AcDbEntity
8
1
62
256
6
ByLayer
370
18
48
1
60
0
100
AcDbLine
10
23.185476
20
4.3875
30
0
11
24.103872
21
4.3875
31
0
39
0
210
0
220
0
230
1
0
LINE
5
87
100
AcDbEntity
8
1
62
256
6
ByLayer
370
18
48
1
60
0
100
AcDbLine
10
24.103872
20
4.3875
30
0
11
24.103635
21
4.412504
31
0
39
0
210
0
220
0
230
1
0
LINE
5
88
100
AcDbEntity
8
1
62
256
6
ByLayer
370
18
48
1
60
0
100
AcDbLine
10
24.103872
20
6.7375
30
0
11
25.739215
21
6.7375
31
0
39
0
210
0
220
0
230
1
0
LINE
5
89
100
AcDbEntity
8
1
62
256
6
ByLayer
370
18
48
1
60
0
100
AcDbLine
10
23.185476
20
6.7375
30
0
11
24.103872
21
6.7375
31
0
39
0
210
0
220
0
230
1
0
LINE
5
8A
100
AcDbEntity
8
1
62
256
6
ByLayer
370
18
48
1
60
0
100
AcDbLine
10
23.185239
20
6.712496
30
0
11
23.185476
21
6.7375
31
0
39
0
210
0
220
0
230
1
0
LINE
5
8B
100
AcDbEntity
8
1
62
256
6
ByLayer
370
18
48
1
60
0
100
AcDbLine
10
24.103635
20
6.712496
30
0
11
24.103872
21
6.7375
31
0
39
0
210
0
220
0
230
1
0
LINE
5
8C
100
AcDbEntity
8
1
62
256
6
ByLayer
370
18
48
1
60
0
100
AcDbLine
10
0.481918
20
6.7375
30
0
11
0.157917
21
6.7375
31
0
39
0
210
0
220
0
230
1
0
LINE
5
8D
100
AcDbEntity
8
1
62
256
6
ByLayer
370
18
48
1
60
0
100
AcDbLine
10
19.538352
20
6.7375
30
0
11
22.513951
21
6.7375
31
0
39
0
210
0
220
0
230
1
0
LINE
5
8E
100
AcDbEntity
8
1
62
256
6
ByLayer
370
18
48
1
60
0
100
AcDbLine
10
22.513951
20
4.3875
30
0
11
19.538352
21
4.3875
31
0
39
0
210
0
220
0
230
1
0
LINE
5
8F
100
AcDbEntity
8
1
62
256
6
ByLayer
370
18
48
1
60
0
100
AcDbLine
10
23.038352
20
5.611319
30
0
11
23.038352
21
5.513681
31
0
39
0
210
0
220
0
230
1
0
LINE
5
90
100
AcDbEntity
8
1
62
256
6
ByLayer
370
18
48
1
60
0
100
AcDbLine
10
22.513951
20
6.7375
30
0
11
22.54546
21
6.658573
31
0
39
0
210
0
220
0
230
1
0
LINE
5
91
100
AcDbEntity
8
1
62
256
6
ByLayer
370
18
48
1
60
0
100
AcDbLine
10
22.54546
20
4.466427
30
0
11
22.513951
21
4.3875
31
0
39
0
210
0
220
0
230
1
0
LINE
5
92
100
AcDbEntity
8
1
62
256
6
ByLayer
370
18
48
1
60
0
100
AcDbLine
10
19.538352
20
4.3875
30
0
11
17.288352
21
4.3875
31
0
39
0
210
0
220
0
230
1
0
LINE
5
93
100
AcDbEntity
8
1
62
256
6
ByLayer
370
18
48
1
60
0
100
AcDbLine
10
19.538352
20
6.7375
30
0
11
19.538352
21
4.3875
31
0
39
0
210
0
220
0
230
1
0
LINE
5
94
100
AcDbEntity
8
1
62
256
6
ByLayer
370
18
48
1
60
0
100
AcDbLine
10
14.682649
20
6.7375
30
0
11
19.538352
21
6.7375
31
0
39
0
210
0
220
0
230
1
0
LINE
5
95
100
AcDbEntity
8
1
62
256
6
ByLayer
370
18
48
1
60
0
100
AcDbLine
10
15.688352
20
2.7875
30
0
11
15.688352
21
-5.970334
31
0
39
0
210
0
220
0
230
1
0
LINE
5
96
100
AcDbEntity
8
1
62
256
6
ByLayer
370
18
48
1
60
0
100
AcDbLine
10
2.116799
20
-5.970334
30
0
11
15.688352
21
-5.970334
31
0
39
0
210
0
220
0
230
1
0
LINE
5
97
100
AcDbEntity
8
1
62
256
6
ByLayer
370
18
48
1
60
0
100
AcDbLine
10
14.682649
20
4.3875
30
0
11
14.682649
21
6.7375
31
0
39
0
210
0
220
0
230
1
0
LINE
5
98
100
AcDbEntity
8
1
62
256
6
ByLayer
370
18
48
1
60
0
100
AcDbLine
10
14.682649
20
6.7375
30
0
11
2.116799
21
6.7375
31
0
39
0
210
0
220
0
230
1
0
LINE
5
99
100
AcDbEntity
8
1
62
256
6
ByLayer
370
18
48
1
60
0
100
AcDbLine
10
0.481918
20
-5.943711
30
0
11
2.116799
21
-5.970334
31
0
39
0
210
0
220
0
230
1
0
LINE
5
9A
100
AcDbEntity
8
1
62
256
6
ByLayer
370
18
48
1
60
0
100
AcDbLine
10
2.116799
20
6.7375
30
0
11
0.481918
21
6.7375
31
0
39
0
210
0
220
0
230
1
0
LINE
5
9B
100
AcDbEntity
8
1
62
256
6
ByLayer
370
13
48
1
60
0
100
AcDbLine
10
0.481918
20
-5.943711
30
0
11
0.481918
21
6.7375
31
0
39
0
210
0
220
0
230
1
0
LINE
5
9C
100
AcDbEntity
8
1
62
256
6
ByLayer
370
18
48
1
60
0
100
AcDbLine
10
2.116799
20
6.7375
30
0
11
2.116799
21
-5.970334
31
0
39
0
210
0
220
0
230
1
0
LINE
5
9D
100
AcDbEntity
8
1
62
256
6
ByLayer
370
13
48
1
60
0
100
AcDbLine
10
14.682649
20
4.3875
30
0
11
17.288352
21
4.3875
31
0
39
0
210
0
220
0
230
1
0
LINE
5
9E
100
AcDbEntity
8
SK1
62
256
6
ByLayer
370
18
48
1
60
0
100
AcDbLine
10
-95.711648
20
-5.9375
30
0
11
-4.455467
21
-5.9375
31
0
39
0
210
0
220
0
230
1
0
LINE
5
A0
100
AcDbEntity
8
SK1
62
256
6
ByLayer
370
18
48
1
60
0
100
AcDbLine
10
-95.711648
20
5.9375
30
0
11
-4.455467
21
5.9375
31
0
39
0
210
0
220
0
230
1
0
LINE
5
A1
100
AcDbEntity
8
SK1
62
256
6
ByLayer
370
18
48
1
60
0
100
AcDbLine
10
-95.711648
20
-5.9375
30
0
11
-95.711648
21
5.9375
31
0
39
0
210
0
220
0
230
1
0
LINE
5
A2
100
AcDbEntity
8
SK1
62
256
6
ByLayer
370
18
48
1
60
0
100
AcDbLine
10
0
20
6.51149
30
0
11
0
21
-5.939338
31
0
39
0
210
0
220
0
230
1
0
LINE
5
A3
100
AcDbEntity
8
SK1
62
256
6
ByLayer
370
18
48
1
60
0
100
AcDbLine
10
-4.455467
20
5.9375
30
0
11
-1.227723
21
5.9375
31
0
39
0
210
0
220
0
230
1
0
LINE
5
A4
100
AcDbEntity
8
SK1
62
256
6
ByLayer
370
18
48
1
60
0
100
AcDbLine
10
-4.455467
20
5.9375
30
0
11
-4.455467
21
-5.9375
31
0
39
0
210
0
220
0
230
1
0
LINE
5
A5
100
AcDbEntity
8
1
62
256
6
ByLayer
370
18
48
1
60
0
100
AcDbLine
10
27.897363
20
7.000283
30
0
11
28.844148
21
7.058191
31
0
39
0
210
0
220
0
230
1
0
LINE
5
A6
100
AcDbEntity
8
1
62
256
6
ByLayer
370
18
48
1
60
0
100
AcDbLine
10
28.844148
20
4.066809
30
0
11
27.897363
21
4.124717
31
0
39
0
210
0
220
0
230
1
0
LINE
5
A7
100
AcDbEntity
8
1
62
256
6
ByLayer
370
18
48
1
60
0
100
AcDbLine
10
29.288342
20
6.865651
30
0
11
29.288342
21
4.259349
31
0
39
0
210
0
220
0
230
1
0
LINE
5
A8
100
AcDbEntity
8
1
62
256
6
ByLayer
370
18
48
1
60
0
100
AcDbLine
10
10.679341
20
7.000283
30
0
11
9.732556
21
7.058191
31
0
39
0
210
0
220
0
230
1
0
LINE
5
A9
100
AcDbEntity
8
1
62
256
6
ByLayer
370
18
48
1
60
0
100
AcDbLine
10
9.288362
20
6.865651
30
0
11
9.288362
21
6.737495
31
0
39
0
210
0
220
0
230
1
0
LINE
5
AA
100
AcDbEntity
8
1
62
256
6
ByLayer
370
18
48
1
60
0
100
AcDbLine
10
27.139925
20
7.003795
30
0
11
27.897363
21
7.000283
31
0
39
0
210
0
220
0
230
1
0
LINE
5
AB
100
AcDbEntity
8
1
62
256
6
ByLayer
370
18
48
1
60
0
100
AcDbLine
10
27.897363
20
4.124717
30
0
11
27.139925
21
4.121205
31
0
39
0
210
0
220
0
230
1
0
LINE
5
AC
100
AcDbEntity
8
1
62
256
6
ByLayer
370
18
48
1
60
0
100
AcDbLine
10
27.897363
20
4.124717
30
0
11
27.897363
21
7.000283
31
0
39
0
210
0
220
0
230
1
0
LINE
5
AD
100
AcDbEntity
8
1
62
256
6
ByLayer
370
18
48
1
60
0
100
AcDbLine
10
11.436779
20
7.003795
30
0
11
10.679341
21
7.000283
31
0
39
0
210
0
220
0
230
1
0
LINE
5
AE
100
AcDbEntity
8
1
62
256
6
ByLayer
370
18
48
1
60
0
100
AcDbLine
10
10.679341
20
6.737483
30
0
11
10.679341
21
7.000283
31
0
39
0
210
0
220
0
230
1
0
LINE
5
AF
100
AcDbEntity
8
1
62
256
6
ByLayer
370
13
48
1
60
0
100
AcDbLine
10
26.469692
20
5.5625
30
0
11
23.038134
21
5.5625
31
0
39
0
210
0
220
0
230
1
0
LINE
5
B0
100
AcDbEntity
8
1
62
256
6
ByLayer
370
13
48
1
60
0
100
AcDbLine
10
22.941043
20
5.759835
30
0
11
25.686059
21
5.759835
31
0
39
0
210
0
220
0
230
1
0
LINE
5
B1
100
AcDbEntity
8
1
62
256
6
ByLayer
370
13
48
1
60
0
100
AcDbLine
10
25.686059
20
5.365165
30
0
11
22.941043
21
5.365165
31
0
39
0
210
0
220
0
230
1
0
LINE
5
B2
100
AcDbEntity
8
1
62
256
6
ByLayer
370
13
48
1
60
0
100
AcDbLine
10
22.933813
20
5.763256
30
0
11
25.632766
21
5.763256
31
0
39
0
210
0
220
0
230
1
0
LINE
5
B3
100
AcDbEntity
8
1
62
256
6
ByLayer
370
13
48
1
60
0
100
AcDbLine
10
22.933813
20
5.361744
30
0
11
25.632766
21
5.361744
31
0
39
0
210
0
220
0
230
1
0
LINE
5
B4
100
AcDbEntity
8
1
62
256
6
ByLayer
370
13
48
1
60
0
100
AcDbLine
10
22.829856
20
5.813524
30
0
11
24.924604
21
5.813524
31
0
39
0
210
0
220
0
230
1
0
LINE
5
B5
100
AcDbEntity
8
1
62
256
6
ByLayer
370
13
48
1
60
0
100
AcDbLine
10
22.829856
20
5.311476
30
0
11
24.924604
21
5.311476
31
0
39
0
210
0
220
0
230
1
0
LINE
5
B6
100
AcDbEntity
8
1
62
256
6
ByLayer
370
13
48
1
60
0
100
AcDbLine
10
22.790982
20
5.194502
30
0
11
24.31252
21
5.194502
31
0
39
0
210
0
220
0
230
1
0
LINE
5
B7
100
AcDbEntity
8
1
62
256
6
ByLayer
370
13
48
1
60
0
100
AcDbLine
10
22.790511
20
5.930498
30
0
11
24.31252
21
5.930498
31
0
39
0
210
0
220
0
230
1
0
LINE
5
B8
100
AcDbEntity
8
1
62
256
6
ByLayer
370
13
48
1
60
0
100
AcDbLine
10
22.588876
20
4.586516
30
0
11
23.108402
21
4.586516
31
0
39
0
210
0
220
0
230
1
0
LINE
5
B9
100
AcDbEntity
8
1
62
256
6
ByLayer
370
18
48
1
60
0
100
AcDbLine
10
23.060839
20
6.7125
30
0
11
22.523849
21
6.7125
31
0
39
0
210
0
220
0
230
1
0
LINE
5
BA
100
AcDbEntity
8
1
62
256
6
ByLayer
370
18
48
1
60
0
100
AcDbLine
10
23.060839
20
4.4125
30
0
11
25.516413
21
4.4125
31
0
39
0
210
0
220
0
230
1
0
LINE
5
BB
100
AcDbEntity
8
1
62
256
6
ByLayer
370
18
48
1
60
0
100
AcDbLine
10
25.760817
20
6.7427
30
0
11
26.708022
21
6.981375
31
0
39
0
210
0
220
0
230
1
0
LINE
5
BC
100
AcDbEntity
8
1
62
256
6
ByLayer
370
18
48
1
60
0
100
AcDbLine
10
25.516413
20
6.7125
30
0
11
23.060839
21
6.7125
31
0
39
0
210
0
220
0
230
1
0
LINE
5
BD
100
AcDbEntity
8
1
62
256
6
ByLayer
370
18
48
1
60
0
100
AcDbLine
10
23.060839
20
6.587938
30
0
11
23.060839
21
6.7125
31
0
39
0
210
0
220
0
230
1
0
LINE
5
BE
100
AcDbEntity
8
1
62
256
6
ByLayer
370
18
48
1
60
0
100
AcDbLine
10
24.31252
20
5.930498
30
0
11
23.108402
21
6.538484
31
0
39
0
210
0
220
0
230
1
0
LINE
5
BF
100
AcDbEntity
8
1
62
256
6
ByLayer
370
18
48
1
60
0
100
AcDbLine
10
25.686059
20
5.759835
30
0
11
25.632766
21
5.763256
31
0
39
0
210
0
220
0
230
1
0
LINE
5
C0
100
AcDbEntity
8
1
62
256
6
ByLayer
370
18
48
1
60
0
100
AcDbLine
10
25.632766
20
5.361744
30
0
11
25.686059
21
5.365165
31
0
39
0
210
0
220
0
230
1
0
LINE
5
C1
100
AcDbEntity
8
1
62
256
6
ByLayer
370
18
48
1
60
0
100
AcDbLine
10
23.108402
20
4.586516
30
0
11
24.31252
21
5.194502
31
0
39
0
210
0
220
0
230
1
0
LINE
5
C2
100
AcDbEntity
8
1
62
256
6
ByLayer
370
18
48
1
60
0
100
AcDbLine
10
26.708022
20
4.143625
30
0
11
25.760817
21
4.3823
31
0
39
0
210
0
220
0
230
1
0
LINE
5
C3
100
AcDbEntity
8
1
62
256
6
ByLayer
370
18
48
1
60
0
100
AcDbLine
10
27.139925
20
4.121205
30
0
11
26.747085
21
4.137939
31
0
39
0
210
0
220
0
230
1
0
LINE
5
C4
100
AcDbEntity
8
1
62
256
6
ByLayer
370
18
48
1
60
0
100
AcDbLine
10
27.139925
20
4.121205
30
0
11
27.139925
21
7.003795
31
0
39
0
210
0
220
0
230
1
0
LINE
5
C5
100
AcDbEntity
8
1
62
256
6
ByLayer
370
18
48
1
60
0
100
AcDbLine
10
26.747085
20
6.987061
30
0
11
27.139925
21
7.003795
31
0
39
0
210
0
220
0
230
1
0
LINE
5
C6
100
AcDbEntity
8
1
62
256
6
ByLayer
370
18
48
1
60
0
100
AcDbLine
10
22.523849
20
4.4125
30
0
11
23.060839
21
4.4125
31
0
39
0
210
0
220
0
230
1
0
LINE
5
C7
100
AcDbEntity
8
1
62
256
6
ByLayer
370
18
48
1
60
0
100
AcDbLine
10
23.060839
20
4.4125
30
0
11
23.060839
21
4.537062
31
0
39
0
210
0
220
0
230
1
0
LINE
5
C8
100
AcDbEntity
8
1
62
256
6
ByLayer
370
13
48
1
60
0
100
AcDbLine
10
23.060839
20
4.537062
30
0
11
22.57242
21
4.537062
31
0
39
0
210
0
220
0
230
1
0
LINE
5
C9
100
AcDbEntity
8
1
62
256
6
ByLayer
370
18
48
1
60
0
100
AcDbLine
10
11.829619
20
6.987061
30
0
11
11.436779
21
7.003795
31
0
39
0
210
0
220
0
230
1
0
LINE
5
CA
100
AcDbEntity
8
1
62
256
6
ByLayer
370
18
48
1
60
0
100
AcDbLine
10
11.436779
20
6.73747
30
0
11
11.436779
21
7.003795
31
0
39
0
210
0
220
0
230
1
0
LINE
5
CB
100
AcDbEntity
8
1
62
256
6
ByLayer
370
18
48
1
60
0
100
AcDbLine
10
12.815888
20
6.7427
30
0
11
11.868683
21
6.981375
31
0
39
0
210
0
220
0
230
1
0
LINE
5
CC
100
AcDbEntity
8
1
62
256
6
ByLayer
370
13
48
1
60
0
100
AcDbLine
10
23.108402
20
6.538484
30
0
11
22.585772
21
6.538484
31
0
39
0
210
0
220
0
230
1
0
LINE
5
CD
100
AcDbEntity
8
1
62
256
6
ByLayer
370
13
48
1
60
0
100
AcDbLine
10
22.569237
20
6.587938
30
0
11
23.060839
21
6.587938
31
0
39
0
210
0
220
0
230
1
0
MTEXT
5
114
100
AcDbEntity
8
SK6
62
256
6
ByLayer
370
18
48
1
60
0
100
AcDbMText
10
-65.526148
20
-53.664071
30
0
210
0
220
0
230
1
1
\W0.7404;C2R-RS12-RG12DB
40
3.5
41
0
44
1.084337
50
0
71
7
72
5
7
iso_b_vert
0
DIMENSION
5
119
100
AcDbEntity
8
2
62
256
6
ByLayer
370
18
48
1
60
0
100
AcDbDimension
2
_U0
10
57.038352
20
-5.9375
30
0
11
57.038352
21
0.5625
31
0
70
32
71
1
72
1
41
1
210
0
220
0
230
1
3
Standard
100
AcDbAlignedDimension
13
29.288352
23
7.0625
33
0
14
-95.711648
24
-5.9375
34
0
50
90
100
AcDbRotatedDimension
1001
ACAD
1000
DSTYLE
1002
{
1070
   371
1070
    13
1070
   372
1070
    13
1070
   170
1070
     0
1070
   144
1040
1.0
1070
   277
1070
     2
1070
   284
1070
     8
1070
   278
1070
    46
1070
   146
1040
1.0
1070
   345
1005
16
1070
   347
1005
16
1070
   346
1005
16
1070
   344
1005
0
1070
   343
1005
0
1070
   172
1070
     1
1070
    76
1070
     0
1070
    75
1070
     0
1070
   282
1070
     0
1070
   281
1070
     0
1070
    71
1070
     0
1070
    74
1070
     0
1070
   279
1070
     0
1070
   173
1070
     1
1070
   340
1005
115
1070
   271
1070
     2
1070
   272
1070
     2
1070
    77
1070
     1
1070
    73
1070
     0
1070
   171
1070
     3
1070
   274
1070
     4
1070
   177
1070
     2
1070
   176
1070
     2
1070
   178
1070
     2
1070
    78
1070
     8
1070
    48
1040
-0.1
1070
    41
1040
3.5
1070
   147
1040
1.75
1070
    42
1040
1.5875
1070
    44
1040
2.0
1070
   140
1040
3.5
1002
}
1001
ACAD_DSTYLE_DIM_LINETYPE
1070
   380
1005
16
1001
ACAD_DSTYLE_DIM_EXT1_LINETYPE
1070
   381
1005
16
1001
ACAD_DSTYLE_DIM_EXT2_LINETYPE
1070
   382
1005
16
0
DIMENSION
5
134
100
AcDbEntity
8
2
62
256
6
ByLayer
370
18
48
1
60
0
100
AcDbDimension
2
_U1
10
49.388352
20
7.0625
30
0
11
49.388352
21
5.5625
31
0
70
32
71
1
72
1
41
1
210
0
220
0
230
1
3
Standard
100
AcDbAlignedDimension
13
29.288352
23
4.0625
33
0
14
29.288352
24
7.0625
34
0
50
90
100
AcDbRotatedDimension
1001
ACAD
1000
DSTYLE
1002
{
1070
   371
1070
    13
1070
   372
1070
    13
1070
   170
1070
     0
1070
   144
1040
1.0
1070
   277
1070
     2
1070
   284
1070
     8
1070
   278
1070
    46
1070
   146
1040
1.0
1070
   345
1005
16
1070
   347
1005
16
1070
   346
1005
16
1070
   344
1005
0
1070
   343
1005
0
1070
   172
1070
     1
1070
    76
1070
     0
1070
    75
1070
     0
1070
   282
1070
     0
1070
   281
1070
     0
1070
    71
1070
     0
1070
    74
1070
     0
1070
   279
1070
     0
1070
   173
1070
     1
1070
   340
1005
115
1070
   271
1070
     2
1070
   272
1070
     2
1070
    77
1070
     1
1070
    73
1070
     0
1070
   171
1070
     3
1070
   274
1070
     4
1070
   177
1070
     2
1070
   176
1070
     2
1070
   178
1070
     2
1070
    78
1070
     8
1070
    48
1040
-0.1
1070
    41
1040
3.5
1070
   147
1040
1.75
1070
    42
1040
1.5875
1070
    44
1040
2.0
1070
   140
1040
3.5
1002
}
1001
ACAD_DSTYLE_DIM_LINETYPE
1070
   380
1005
16
1001
ACAD_DSTYLE_DIM_EXT1_LINETYPE
1070
   381
1005
16
1001
ACAD_DSTYLE_DIM_EXT2_LINETYPE
1070
   382
1005
16
0
DIMENSION
5
14D
100
AcDbEntity
8
SK2
62
256
6
ByLayer
370
18
48
1
60
0
100
AcDbDimension
2
_U2
10
-107.311648
20
6.0625
30
0
11
-107.311648
21
0.0625
31
0
70
32
71
1
72
1
41
1
210
0
220
0
230
1
3
Standard
100
AcDbAlignedDimension
13
-95.711648
23
-5.9375
33
0
14
-95.711648
24
6.0625
34
0
50
90
100
AcDbRotatedDimension
1001
ACAD
1000
DSTYLE
1002
{
1070
   371
1070
    13
1070
   372
1070
    13
1070
   170
1070
     0
1070
   144
1040
1.0
1070
   277
1070
     2
1070
   284
1070
     8
1070
   278
1070
    46
1070
   146
1040
1.0
1070
   345
1005
16
1070
   347
1005
16
1070
   346
1005
16
1070
   344
1005
0
1070
   343
1005
0
1070
   172
1070
     1
1070
    76
1070
     0
1070
    75
1070
     0
1070
   282
1070
     0
1070
   281
1070
     0
1070
    71
1070
     0
1070
    74
1070
     0
1070
   279
1070
     0
1070
   173
1070
     1
1070
   340
1005
115
1070
   271
1070
     2
1070
   272
1070
     2
1070
    77
1070
     1
1070
    73
1070
     0
1070
   171
1070
     3
1070
   274
1070
     4
1070
   177
1070
     2
1070
   176
1070
     2
1070
   178
1070
     2
1070
    78
1070
     8
1070
    48
1040
-0.1
1070
    41
1040
3.5
1070
   147
1040
1.75
1070
    42
1040
1.5875
1070
    44
1040
2.0
1070
   140
1040
3.5
1002
}
1001
ACAD_DSTYLE_DIM_LINETYPE
1070
   380
1005
16
1001
ACAD_DSTYLE_DIM_EXT1_LINETYPE
1070
   381
1005
16
1001
ACAD_DSTYLE_DIM_EXT2_LINETYPE
1070
   382
1005
16
0
DIMENSION
5
167
100
AcDbEntity
8
2
62
256
6
ByLayer
370
18
48
1
60
0
100
AcDbDimension
2
_U3
10
29.288352
20
-17.6875
30
0
11
23.288352
21
-17.6875
31
0
70
32
71
1
72
1
41
1
210
0
220
0
230
1
3
Standard
100
AcDbAlignedDimension
13
17.288352
23
4.3875
33
0
14
29.288352
24
7.0625
34
0
50
0
100
AcDbRotatedDimension
1001
ACAD
1000
DSTYLE
1002
{
1070
   371
1070
    13
1070
   372
1070
    13
1070
   170
1070
     0
1070
   144
1040
1.0
1070
   277
1070
     2
1070
   284
1070
     8
1070
   278
1070
    46
1070
   146
1040
1.0
1070
   345
1005
16
1070
   347
1005
16
1070
   346
1005
16
1070
   344
1005
0
1070
   343
1005
0
1070
   172
1070
     1
1070
    76
1070
     0
1070
    75
1070
     0
1070
   282
1070
     0
1070
   281
1070
     0
1070
    71
1070
     0
1070
    74
1070
     0
1070
   279
1070
     0
1070
   173
1070
     1
1070
   340
1005
115
1070
   271
1070
     1
1070
   272
1070
     2
1070
    77
1070
     1
1070
    73
1070
     1
1070
   171
1070
     3
1070
   274
1070
     4
1070
   177
1070
     2
1070
   176
1070
     2
1070
   178
1070
     2
1070
    78
1070
     8
1070
    48
1040
-0.1
1070
    41
1040
3.5
1070
   147
1040
1.75
1070
    42
1040
1.5875
1070
    44
1040
2.0
1070
   140
1040
3.5
1002
}
1001
ACAD_DSTYLE_DIM_LINETYPE
1070
   380
1005
16
1001
ACAD_DSTYLE_DIM_EXT1_LINETYPE
1070
   381
1005
16
1001
ACAD_DSTYLE_DIM_EXT2_LINETYPE
1070
   382
1005
16
0
DIMENSION
5
180
100
AcDbEntity
8
SK2
62
256
6
ByLayer
370
18
48
1
60
0
100
AcDbDimension
2
_U4
10
29.288352
20
-23.6875
30
0
11
-33.211648
21
-23.6875
31
0
70
32
71
1
72
1
41
1
210
0
220
0
230
1
3
Standard
100
AcDbAlignedDimension
13
-95.711648
23
-5.9375
33
0
14
29.288352
24
7.0625
34
0
50
0
100
AcDbRotatedDimension
1001
ACAD
1000
DSTYLE
1002
{
1070
   371
1070
    13
1070
   372
1070
    13
1070
   170
1070
     0
1070
   144
1040
1.0
1070
   277
1070
     2
1070
   284
1070
     8
1070
   278
1070
    46
1070
   146
1040
1.0
1070
   345
1005
16
1070
   347
1005
16
1070
   346
1005
16
1070
   344
1005
0
1070
   343
1005
0
1070
   172
1070
     1
1070
    76
1070
     0
1070
    75
1070
     0
1070
   282
1070
     0
1070
   281
1070
     0
1070
    71
1070
     0
1070
    74
1070
     0
1070
   279
1070
     0
1070
   173
1070
     1
1070
   340
1005
115
1070
   271
1070
     1
1070
   272
1070
     2
1070
    77
1070
     1
1070
    73
1070
     1
1070
   171
1070
     3
1070
   274
1070
     4
1070
   177
1070
     2
1070
   176
1070
     2
1070
   178
1070
     2
1070
    78
1070
     8
1070
    48
1040
-0.1
1070
    41
1040
3.5
1070
   147
1040
1.75
1070
    42
1040
1.5875
1070
    44
1040
2.0
1070
   140
1040
3.5
1002
}
1001
ACAD_DSTYLE_DIM_LINETYPE
1070
   380
1005
16
1001
ACAD_DSTYLE_DIM_EXT1_LINETYPE
1070
   381
1005
16
1001
ACAD_DSTYLE_DIM_EXT2_LINETYPE
1070
   382
1005
16
0
ENDSEC
0
SECTION
2
OBJECTS
0
DICTIONARY
5
207
330
0
100
AcDbDictionary
280
0
281
1
3
ACAD_GROUP
350
208
3
ACAD_MLINESTYLE
350
209
0
DICTIONARY
5
208
330
0
100
AcDbDictionary
280
0
281
1
0
DICTIONARY
5
209
330
0
100
AcDbDictionary
280
0
281
1
3
Standard
350
18
0
MLINESTYLE
5
18
330
209
100
AcDbMlineStyle
2
Standard
70
0
3

62
256
51
90
52
90
71
2
49
-0.5
62
256
6
ByLayer
49
0.5
62
256
6
ByLayer
0
RASTERVARIABLES
5
1f6
330

100
AcDbRasterVariables
90
0
70
1
71
1
72
1
0
ENDSEC
0
EOF
