0
SECTION
2
HEADER
9
$ACADVER
1
AC1015
9
$DWGCODEPAGE
3
ANSI_1252
9
$HANDSEED
5
20c
9
$ANGBASE
50
0
9
$ANGDIR
70
0
9
$ATTMODE
70
1
9
$AUNITS
70
0
9
$AUPREC
70
0
9
$CECOLOR
62
256
9
$CELTSCALE
40
1
9
$CELTYPE
6
ByLayer
9
$CELWEIGHT
370
18
9
$CLAYER
8
0
9
$CMLJUST
70
0
9
$CMLSCALE
40
1
9
$CMLSTYLE
2
Standard
9
$DIMSTYLE
2
Standard
9
$TEXTSIZE
40
0.2
9
$TEXTSTYLE
7
Standard
9
$LUNITS
70
2
9
$LUPREC
70
4
9
$EXTNAMES
290
1
9
$INSUNITS
70
4
9
$LTSCALE
40
1
9
$LWDISPLAY
290
1
9
$PDMODE
70
0
9
$PDSIZE
40
0
9
$PLINEGEN
70
0
0
ENDSEC
0
SECTION
2
CLASSES
0
CLASS
1
RASTERVARIABLES
2
AcDbRasterVariables
3
ISM
90
0
280
0
281
0
0
ENDSEC
0
SECTION
2
TABLES
0
TABLE
2
VPORT
5
202
100
AcDbSymbolTable
0
VPORT
5
1
100
AcDbSymbolTableRecord
100
AcDbViewportTableRecord
2
*Active
70
0
10
0
20
0
11
1
21
1
12
-1
22
1
13
0
23
0
14
0.5
24
0.5
15
10
25
10
16
0
26
0
36
1
17
0
27
0
37
0
0
ENDTAB
0
TABLE
2
LTYPE
5
203
100
AcDbSymbolTable
0
LTYPE
5
14
100
AcDbSymbolTableRecord
100
AcDbLinetypeTableRecord
70
0
2
ByBlock
3

72
65
73
0
40
0
0
LTYPE
5
15
100
AcDbSymbolTableRecord
100
AcDbLinetypeTableRecord
70
0
2
ByLayer
3

72
65
73
0
40
0
0
LTYPE
5
16
100
AcDbSymbolTableRecord
100
AcDbLinetypeTableRecord
70
0
2
Continuous
3
Solid line
72
65
73
0
40
0
0
LTYPE
5
6E
100
AcDbSymbolTableRecord
100
AcDbLinetypeTableRecord
70
0
2
CENTER
3
____ _ ____ _ ____ _ ____
72
65
73
4
40
47.5
49
22
74
0
49
-8.5
74
0
49
8.5
74
0
49
-8.5
74
0
0
LTYPE
5
6F
100
AcDbSymbolTableRecord
100
AcDbLinetypeTableRecord
70
0
2
DASHED
3
__ __ __ __ __ __ __ __ __
72
65
73
2
40
25.72
49
12.86
74
0
49
-12.86
74
0
0
ENDTAB
0
TABLE
2
LAYER
5
204
100
AcDbSymbolTable
0
LAYER
5
10
100
AcDbSymbolTableRecord
100
AcDbLayerTableRecord
2
0
70
0
62
7
6
Continuous
290
1
370
-3
390
0
0
LAYER
5
71
100
AcDbSymbolTableRecord
100
AcDbLayerTableRecord
2
81
70
0
62
-3
6
Continuous
290
1
370
-3
390
0
0
LAYER
5
73
100
AcDbSymbolTableRecord
100
AcDbLayerTableRecord
2
80
70
0
62
-6
6
Continuous
290
1
370
-3
390
0
0
LAYER
5
75
100
AcDbSymbolTableRecord
100
AcDbLayerTableRecord
2
1
70
0
62
4
6
Continuous
290
1
370
-3
390
0
0
LAYER
5
114
100
AcDbSymbolTableRecord
100
AcDbLayerTableRecord
2
Defpoints
70
0
62
7
6
Continuous
290
0
370
-3
390
0
0
LAYER
5
122
100
AcDbSymbolTableRecord
100
AcDbLayerTableRecord
2
2
70
0
62
7
6
Continuous
290
1
370
-3
390
0
0
LAYER
5
1ef
100
AcDbSymbolTableRecord
100
AcDbLayerTableRecord
2
SK1
70
0
62
4
6
Continuous
290
1
370
-3
390
0
0
LAYER
5
1f0
100
AcDbSymbolTableRecord
100
AcDbLayerTableRecord
2
SK6
70
0
62
5
6
Continuous
290
1
370
-3
390
0
0
LAYER
5
1f1
100
AcDbSymbolTableRecord
100
AcDbLayerTableRecord
2
SK2
70
0
62
7
6
Continuous
290
1
370
-3
390
0
0
ENDTAB
0
TABLE
2
STYLE
5
205
100
AcDbSymbolTable
0
STYLE
5
11
100
AcDbSymbolTableRecord
100
AcDbTextStyleTableRecord
2
Standard
3
txt
70
0
71
0
40
0
41
1
42
0
50
0
0
STYLE
5
10D
100
AcDbSymbolTableRecord
100
AcDbTextStyleTableRecord
2
iso_b_vert
3
simplex.shx
70
0
71
0
40
0
41
1
42
0
50
0
0
STYLE
5
10E
100
AcDbSymbolTableRecord
100
AcDbTextStyleTableRecord
2
DWGDirectTextStyle
3
simplex
70
0
71
0
40
0
41
1
42
0
50
0
0
ENDTAB
0
TABLE
2
DIMSTYLE
5
206
100
AcDbSymbolTable
100
AcDbDimStyleTable
0
DIMSTYLE
105
27
100
AcDbSymbolTableRecord
100
AcDbDimStyleTableRecord
2
Standard
70
0
3
<>
41
0.18
42
0.0625
44
0.18
140
0.18
147
0.09
73
0
74
0
77
1
271
2
275
0
278
52
280
0
340
11
0
ENDTAB
0
TABLE
2
VIEW
5
207
100
AcDbSymbolTable
0
ENDTAB
0
TABLE
2
UCS
5
208
100
AcDbSymbolTable
0
ENDTAB
0
TABLE
2
APPID
5
209
100
AcDbSymbolTable
0
APPID
5
12
100
AcDbSymbolTableRecord
100
AcDbRegAppTableRecord
2
ACAD
70
0
0
APPID
5
110
100
AcDbSymbolTableRecord
100
AcDbRegAppTableRecord
2
ACAD_DSTYLE_DIMBREAK
70
0
0
APPID
5
1AE
100
AcDbSymbolTableRecord
100
AcDbRegAppTableRecord
2
ACAD_DSTYLE_DIM_LINETYPE
70
0
0
APPID
5
1AF
100
AcDbSymbolTableRecord
100
AcDbRegAppTableRecord
2
ACAD_DSTYLE_DIM_EXT1_LINETYPE
70
0
0
APPID
5
1B0
100
AcDbSymbolTableRecord
100
AcDbRegAppTableRecord
2
ACAD_DSTYLE_DIM_EXT2_LINETYPE
70
0
0
APPID
5
1EB
100
AcDbSymbolTableRecord
100
AcDbRegAppTableRecord
2
ACAD_MLEADERVER
70
0
0
ENDTAB
0
TABLE
2
BLOCK_RECORD
5
20a
100
AcDbSymbolTable
0
BLOCK_RECORD
5
1F
100
AcDbSymbolTableRecord
100
AcDbBlockTableRecord
2
*Model_Space
340
0
70
0
0
BLOCK_RECORD
5
1B
100
AcDbSymbolTableRecord
100
AcDbBlockTableRecord
2
*Paper_Space
340
0
70
0
0
BLOCK_RECORD
5
23
100
AcDbSymbolTableRecord
100
AcDbBlockTableRecord
2
*Paper_Space0
340
0
70
0
0
BLOCK_RECORD
5
115
100
AcDbSymbolTableRecord
100
AcDbBlockTableRecord
2
*D1
340
0
70
0
0
BLOCK_RECORD
5
123
100
AcDbSymbolTableRecord
100
AcDbBlockTableRecord
2
_U0
340
0
70
0
0
BLOCK_RECORD
5
12F
100
AcDbSymbolTableRecord
100
AcDbBlockTableRecord
2
*D3
340
0
70
0
0
BLOCK_RECORD
5
13C
100
AcDbSymbolTableRecord
100
AcDbBlockTableRecord
2
_U1
340
0
70
0
0
BLOCK_RECORD
5
148
100
AcDbSymbolTableRecord
100
AcDbBlockTableRecord
2
*D5
340
0
70
0
0
BLOCK_RECORD
5
156
100
AcDbSymbolTableRecord
100
AcDbBlockTableRecord
2
_U2
340
0
70
0
0
BLOCK_RECORD
5
162
100
AcDbSymbolTableRecord
100
AcDbBlockTableRecord
2
*D7
340
0
70
0
0
BLOCK_RECORD
5
16F
100
AcDbSymbolTableRecord
100
AcDbBlockTableRecord
2
_U3
340
0
70
0
0
BLOCK_RECORD
5
17B
100
AcDbSymbolTableRecord
100
AcDbBlockTableRecord
2
*D9
340
0
70
0
0
BLOCK_RECORD
5
187
100
AcDbSymbolTableRecord
100
AcDbBlockTableRecord
2
_U4
340
0
70
0
0
ENDTAB
0
ENDSEC
0
SECTION
2
BLOCKS
0
BLOCK
5
20
100
AcDbEntity
8
0
100
AcDbBlockBegin
2
*Model_Space
70
0
10
0
20
0
30
0
3
*Model_Space
0
ENDBLK
5
21
100
AcDbEntity
8
0
100
AcDbBlockEnd
0
BLOCK
5
1C
100
AcDbEntity
8
0
100
AcDbBlockBegin
2
*Paper_Space
70
0
10
0
20
0
30
0
3
*Paper_Space
0
ENDBLK
5
1D
100
AcDbEntity
8
0
100
AcDbBlockEnd
0
BLOCK
5
24
100
AcDbEntity
8
0
100
AcDbBlockBegin
2
*Paper_Space0
70
0
10
0
20
0
30
0
3
*Paper_Space0
0
ENDBLK
5
25
100
AcDbEntity
8
0
100
AcDbBlockEnd
0
BLOCK
5
116
100
AcDbEntity
8
0
100
AcDbBlockBegin
2
*D1
70
1
10
0
20
0
30
0
3
*D1
0
LINE
5
118
100
AcDbEntity
8
0
62
256
6
ByLayer
370
-2
48
1
60
0
100
AcDbLine
10
33.875852
20
9.0625
30
0
11
62.038352
21
9.0625
31
0
39
0
210
0
220
0
230
1
0
LINE
5
119
100
AcDbEntity
8
0
62
256
6
ByLayer
370
-2
48
1
60
0
100
AcDbLine
10
-91.124148
20
-7.9375
30
0
11
62.038352
21
-7.9375
31
0
39
0
210
0
220
0
230
1
0
LINE
5
11A
100
AcDbEntity
8
0
62
256
6
ByLayer
370
-2
48
1
60
0
100
AcDbLine
10
60.038352
20
12.5625
30
0
11
60.038352
21
16.0625
31
0
39
0
210
0
220
0
230
1
0
LINE
5
11B
100
AcDbEntity
8
0
62
256
6
ByLayer
370
-2
48
1
60
0
100
AcDbLine
10
60.038352
20
-11.4375
30
0
11
60.038352
21
-14.9375
31
0
39
0
210
0
220
0
230
1
0
SOLID
5
11C
100
AcDbEntity
8
0
62
256
6
ByLayer
370
-1
48
1
60
0
100
AcDbTrace
10
59.455019
20
12.5625
30
0
11
60.621686
21
12.5625
31
0
12
60.038352
22
9.0625
32
0
13
60.038352
23
9.0625
33
0
39
0
210
0
220
0
230
1
0
SOLID
5
11D
100
AcDbEntity
8
0
62
256
6
ByLayer
370
-1
48
1
60
0
100
AcDbTrace
10
60.621686
20
-11.4375
30
0
11
59.455019
21
-11.4375
31
0
12
60.038352
22
-7.9375
32
0
13
60.038352
23
-7.9375
33
0
39
0
210
0
220
0
230
1
0
MTEXT
5
11E
100
AcDbEntity
8
0
62
256
6
ByLayer
370
18
48
1
60
0
100
AcDbMText
10
53.038352
20
0.5625
30
0
210
0
220
0
230
1
1
\A1;17
40
3.5
41
0
44
1
50
90
71
5
72
5
7
iso_b_vert
0
POINT
5
11F
100
AcDbEntity
8
Defpoints
62
0
6
ByLayer
370
-1
48
1
60
0
100
AcDbPoint
10
32.288352
20
9.0625
30
0
39
0
210
0
220
0
230
1
50
360
0
POINT
5
120
100
AcDbEntity
8
Defpoints
62
0
6
ByLayer
370
-1
48
1
60
0
100
AcDbPoint
10
-92.711648
20
-7.9375
30
0
39
0
210
0
220
0
230
1
50
360
0
POINT
5
121
100
AcDbEntity
8
Defpoints
62
0
6
ByLayer
370
-1
48
1
60
0
100
AcDbPoint
10
60.038352
20
-7.9375
30
0
39
0
210
0
220
0
230
1
50
360
0
ENDBLK
5
117
100
AcDbEntity
8
0
100
AcDbBlockEnd
0
BLOCK
5
12A
100
AcDbEntity
8
0
100
AcDbBlockBegin
2
_U0
70
0
10
0
20
0
30
0
3
_U0
0
MTEXT
5
124
100
AcDbEntity
8
2
62
256
6
ByLayer
370
18
48
1
60
0
100
AcDbMText
10
59.348719
20
-0.933033
30
0
210
0
220
0
230
1
1
\W0.5321;17
40
3.5
41
0
44
1.084337
50
90
71
7
72
5
7
iso_b_vert
0
LINE
5
125
100
AcDbEntity
8
2
62
256
6
ByLayer
370
13
48
1
60
0
100
AcDbLine
10
33.875852
20
9.0625
30
0
11
62.038352
21
9.0625
31
0
39
0
210
0
220
0
230
1
0
LINE
5
126
100
AcDbEntity
8
2
62
256
6
ByLayer
370
13
48
1
60
0
100
AcDbLine
10
-91.124148
20
-7.9375
30
0
11
62.038352
21
-7.9375
31
0
39
0
210
0
220
0
230
1
0
LINE
5
127
100
AcDbEntity
8
2
62
256
6
ByLayer
370
13
48
1
60
0
100
AcDbLine
10
60.038352
20
9.0625
30
0
11
60.038352
21
-7.9375
31
0
39
0
210
0
220
0
230
1
0
SOLID
5
128
100
AcDbEntity
8
2
62
256
6
ByLayer
370
18
48
1
60
0
100
AcDbTrace
10
60.038352
20
9.0625
30
0
11
60.499136
21
5.562502
31
0
12
59.577569
22
5.562498
32
0
13
59.577569
23
5.562498
33
0
39
0
210
0
220
0
230
1
0
SOLID
5
129
100
AcDbEntity
8
2
62
256
6
ByLayer
370
18
48
1
60
0
100
AcDbTrace
10
60.038352
20
-7.9375
30
0
11
59.577569
21
-4.437502
31
0
12
60.499136
22
-4.437498
32
0
13
60.499136
23
-4.437498
33
0
39
0
210
0
220
0
230
1
0
ENDBLK
5
12B
100
AcDbEntity
8
0
100
AcDbBlockEnd
0
BLOCK
5
130
100
AcDbEntity
8
0
100
AcDbBlockBegin
2
*D3
70
1
10
0
20
0
30
0
3
*D3
0
LINE
5
132
100
AcDbEntity
8
0
62
256
6
ByLayer
370
-2
48
1
60
0
100
AcDbLine
10
33.875852
20
7.0625
30
0
11
54.388352
21
7.0625
31
0
39
0
210
0
220
0
230
1
0
LINE
5
133
100
AcDbEntity
8
0
62
256
6
ByLayer
370
-2
48
1
60
0
100
AcDbLine
10
33.875852
20
9.0625
30
0
11
54.388352
21
9.0625
31
0
39
0
210
0
220
0
230
1
0
LINE
5
134
100
AcDbEntity
8
0
62
256
6
ByLayer
370
-2
48
1
60
0
100
AcDbLine
10
52.388352
20
3.5625
30
0
11
52.388352
21
0.0625
31
0
39
0
210
0
220
0
230
1
0
LINE
5
135
100
AcDbEntity
8
0
62
256
6
ByLayer
370
-2
48
1
60
0
100
AcDbLine
10
52.388352
20
12.5625
30
0
11
52.388352
21
16.0625
31
0
39
0
210
0
220
0
230
1
0
SOLID
5
136
100
AcDbEntity
8
0
62
256
6
ByLayer
370
-1
48
1
60
0
100
AcDbTrace
10
52.971686
20
3.5625
30
0
11
51.805019
21
3.5625
31
0
12
52.388352
22
7.0625
32
0
13
52.388352
23
7.0625
33
0
39
0
210
0
220
0
230
1
0
SOLID
5
137
100
AcDbEntity
8
0
62
256
6
ByLayer
370
-1
48
1
60
0
100
AcDbTrace
10
51.805019
20
12.5625
30
0
11
52.971686
21
12.5625
31
0
12
52.388352
22
9.0625
32
0
13
52.388352
23
9.0625
33
0
39
0
210
0
220
0
230
1
0
MTEXT
5
138
100
AcDbEntity
8
0
62
256
6
ByLayer
370
18
48
1
60
0
100
AcDbMText
10
45.388352
20
8.0625
30
0
210
0
220
0
230
1
1
\A1;2
40
3.5
41
0
44
1
50
90
71
5
72
5
7
iso_b_vert
0
POINT
5
139
100
AcDbEntity
8
Defpoints
62
0
6
ByLayer
370
-1
48
1
60
0
100
AcDbPoint
10
32.288352
20
7.0625
30
0
39
0
210
0
220
0
230
1
50
360
0
POINT
5
13A
100
AcDbEntity
8
Defpoints
62
0
6
ByLayer
370
-1
48
1
60
0
100
AcDbPoint
10
32.288352
20
9.0625
30
0
39
0
210
0
220
0
230
1
50
360
0
POINT
5
13B
100
AcDbEntity
8
Defpoints
62
0
6
ByLayer
370
-1
48
1
60
0
100
AcDbPoint
10
52.388352
20
9.0625
30
0
39
0
210
0
220
0
230
1
50
360
0
ENDBLK
5
131
100
AcDbEntity
8
0
100
AcDbBlockEnd
0
BLOCK
5
143
100
AcDbEntity
8
0
100
AcDbBlockBegin
2
_U1
70
0
10
0
20
0
30
0
3
_U1
0
MTEXT
5
13D
100
AcDbEntity
8
2
62
256
6
ByLayer
370
18
48
1
60
0
100
AcDbMText
10
51.698719
20
7.437267
30
0
210
0
220
0
230
1
1
\W0.5404;2
40
3.5
41
0
44
1.084337
50
90
71
7
72
5
7
iso_b_vert
0
LINE
5
13E
100
AcDbEntity
8
2
62
256
6
ByLayer
370
13
48
1
60
0
100
AcDbLine
10
33.875852
20
7.0625
30
0
11
54.388352
21
7.0625
31
0
39
0
210
0
220
0
230
1
0
LINE
5
13F
100
AcDbEntity
8
2
62
256
6
ByLayer
370
13
48
1
60
0
100
AcDbLine
10
33.875852
20
9.0625
30
0
11
54.388352
21
9.0625
31
0
39
0
210
0
220
0
230
1
0
LINE
5
140
100
AcDbEntity
8
2
62
256
6
ByLayer
370
13
48
1
60
0
100
AcDbLine
10
52.388352
20
-1.6875
30
0
11
52.388352
21
17.8125
31
0
39
0
210
0
220
0
230
1
0
SOLID
5
141
100
AcDbEntity
8
2
62
256
6
ByLayer
370
18
48
1
60
0
100
AcDbTrace
10
52.388352
20
7.0625
30
0
11
52.849136
21
3.562502
31
0
12
51.927569
22
3.562498
32
0
13
51.927569
23
3.562498
33
0
39
0
210
0
220
0
230
1
0
SOLID
5
142
100
AcDbEntity
8
2
62
256
6
ByLayer
370
18
48
1
60
0
100
AcDbTrace
10
52.388352
20
9.0625
30
0
11
51.927569
21
12.562498
31
0
12
52.849136
22
12.562502
32
0
13
52.849136
23
12.562502
33
0
39
0
210
0
220
0
230
1
0
ENDBLK
5
144
100
AcDbEntity
8
0
100
AcDbBlockEnd
0
BLOCK
5
149
100
AcDbEntity
8
0
100
AcDbBlockBegin
2
*D5
70
1
10
0
20
0
30
0
3
*D5
0
LINE
5
14B
100
AcDbEntity
8
0
62
256
6
ByLayer
370
-2
48
1
60
0
100
AcDbLine
10
-94.299148
20
-7.9375
30
0
11
-106.311648
21
-7.9375
31
0
39
0
210
0
220
0
230
1
0
LINE
5
14C
100
AcDbEntity
8
0
62
256
6
ByLayer
370
-2
48
1
60
0
100
AcDbLine
10
-94.299148
20
8.0625
30
0
11
-106.311648
21
8.0625
31
0
39
0
210
0
220
0
230
1
0
LINE
5
14D
100
AcDbEntity
8
0
62
256
6
ByLayer
370
-2
48
1
60
0
100
AcDbLine
10
-104.311648
20
-11.4375
30
0
11
-104.311648
21
-14.9375
31
0
39
0
210
0
220
0
230
1
0
LINE
5
14E
100
AcDbEntity
8
0
62
256
6
ByLayer
370
-2
48
1
60
0
100
AcDbLine
10
-104.311648
20
11.5625
30
0
11
-104.311648
21
15.0625
31
0
39
0
210
0
220
0
230
1
0
SOLID
5
14F
100
AcDbEntity
8
0
62
256
6
ByLayer
370
-1
48
1
60
0
100
AcDbTrace
10
-103.728314
20
-11.4375
30
0
11
-104.894981
21
-11.4375
31
0
12
-104.311648
22
-7.9375
32
0
13
-104.311648
23
-7.9375
33
0
39
0
210
0
220
0
230
1
0
SOLID
5
150
100
AcDbEntity
8
0
62
256
6
ByLayer
370
-1
48
1
60
0
100
AcDbTrace
10
-104.894981
20
11.5625
30
0
11
-103.728314
21
11.5625
31
0
12
-104.311648
22
8.0625
32
0
13
-104.311648
23
8.0625
33
0
39
0
210
0
220
0
230
1
0
MTEXT
5
151
100
AcDbEntity
8
0
62
256
6
ByLayer
370
18
48
1
60
0
100
AcDbMText
10
-111.311648
20
0.0625
30
0
210
0
220
0
230
1
1
\A1;16
40
3.5
41
0
44
1
50
90
71
5
72
5
7
iso_b_vert
0
POINT
5
152
100
AcDbEntity
8
Defpoints
62
0
6
ByLayer
370
-1
48
1
60
0
100
AcDbPoint
10
-92.711648
20
-7.9375
30
0
39
0
210
0
220
0
230
1
50
360
0
POINT
5
153
100
AcDbEntity
8
Defpoints
62
0
6
ByLayer
370
-1
48
1
60
0
100
AcDbPoint
10
-92.711648
20
8.0625
30
0
39
0
210
0
220
0
230
1
50
360
0
POINT
5
154
100
AcDbEntity
8
Defpoints
62
0
6
ByLayer
370
-1
48
1
60
0
100
AcDbPoint
10
-104.311648
20
8.0625
30
0
39
0
210
0
220
0
230
1
50
360
0
ENDBLK
5
14A
100
AcDbEntity
8
0
100
AcDbBlockEnd
0
BLOCK
5
15D
100
AcDbEntity
8
0
100
AcDbBlockBegin
2
_U2
70
0
10
0
20
0
30
0
3
_U2
0
MTEXT
5
157
100
AcDbEntity
8
SK2
62
256
6
ByLayer
370
18
48
1
60
0
100
AcDbMText
10
-105.001281
20
-1.433033
30
0
210
0
220
0
230
1
1
\W0.5321;16
40
3.5
41
0
44
1.084337
50
90
71
7
72
5
7
iso_b_vert
0
LINE
5
158
100
AcDbEntity
8
SK2
62
256
6
ByLayer
370
13
48
1
60
0
100
AcDbLine
10
-94.299148
20
-7.9375
30
0
11
-106.311648
21
-7.9375
31
0
39
0
210
0
220
0
230
1
0
LINE
5
159
100
AcDbEntity
8
SK2
62
256
6
ByLayer
370
13
48
1
60
0
100
AcDbLine
10
-94.299148
20
8.0625
30
0
11
-106.311648
21
8.0625
31
0
39
0
210
0
220
0
230
1
0
LINE
5
15A
100
AcDbEntity
8
SK2
62
256
6
ByLayer
370
13
48
1
60
0
100
AcDbLine
10
-104.311648
20
-7.9375
30
0
11
-104.311648
21
8.0625
31
0
39
0
210
0
220
0
230
1
0
SOLID
5
15B
100
AcDbEntity
8
SK2
62
256
6
ByLayer
370
18
48
1
60
0
100
AcDbTrace
10
-104.311648
20
-7.9375
30
0
11
-104.772431
21
-4.437502
31
0
12
-103.850864
22
-4.437498
32
0
13
-103.850864
23
-4.437498
33
0
39
0
210
0
220
0
230
1
0
SOLID
5
15C
100
AcDbEntity
8
SK2
62
256
6
ByLayer
370
18
48
1
60
0
100
AcDbTrace
10
-104.311648
20
8.0625
30
0
11
-103.850864
21
4.562502
31
0
12
-104.772431
22
4.562498
32
0
13
-104.772431
23
4.562498
33
0
39
0
210
0
220
0
230
1
0
ENDBLK
5
15E
100
AcDbEntity
8
0
100
AcDbBlockEnd
0
BLOCK
5
163
100
AcDbEntity
8
0
100
AcDbBlockBegin
2
*D7
70
1
10
0
20
0
30
0
3
*D7
0
LINE
5
165
100
AcDbEntity
8
0
62
256
6
ByLayer
370
-2
48
1
60
0
100
AcDbLine
10
17.288352
20
5.725
30
0
11
17.288352
21
-21.6875
31
0
39
0
210
0
220
0
230
1
0
LINE
5
166
100
AcDbEntity
8
0
62
256
6
ByLayer
370
-2
48
1
60
0
100
AcDbLine
10
32.288352
20
7.475
30
0
11
32.288352
21
-21.6875
31
0
39
0
210
0
220
0
230
1
0
LINE
5
167
100
AcDbEntity
8
0
62
256
6
ByLayer
370
-2
48
1
60
0
100
AcDbLine
10
13.788352
20
-19.6875
30
0
11
10.288352
21
-19.6875
31
0
39
0
210
0
220
0
230
1
0
LINE
5
168
100
AcDbEntity
8
0
62
256
6
ByLayer
370
-2
48
1
60
0
100
AcDbLine
10
35.788352
20
-19.6875
30
0
11
39.288352
21
-19.6875
31
0
39
0
210
0
220
0
230
1
0
SOLID
5
169
100
AcDbEntity
8
0
62
256
6
ByLayer
370
-1
48
1
60
0
100
AcDbTrace
10
13.788352
20
-20.270833
30
0
11
13.788352
21
-19.104167
31
0
12
17.288352
22
-19.6875
32
0
13
17.288352
23
-19.6875
33
0
39
0
210
0
220
0
230
1
0
SOLID
5
16A
100
AcDbEntity
8
0
62
256
6
ByLayer
370
-1
48
1
60
0
100
AcDbTrace
10
35.788352
20
-19.104167
30
0
11
35.788352
21
-20.270833
31
0
12
32.288352
22
-19.6875
32
0
13
32.288352
23
-19.6875
33
0
39
0
210
0
220
0
230
1
0
MTEXT
5
16B
100
AcDbEntity
8
0
62
256
6
ByLayer
370
18
48
1
60
0
100
AcDbMText
10
24.788352
20
-12.6875
30
0
210
0
220
0
230
1
1
\A1;15
40
3.5
41
0
44
1
50
0
71
5
72
5
7
iso_b_vert
0
POINT
5
16C
100
AcDbEntity
8
Defpoints
62
0
6
ByLayer
370
-1
48
1
60
0
100
AcDbPoint
10
17.288352
20
7.3125
30
0
39
0
210
0
220
0
230
1
50
360
0
POINT
5
16D
100
AcDbEntity
8
Defpoints
62
0
6
ByLayer
370
-1
48
1
60
0
100
AcDbPoint
10
32.288352
20
9.0625
30
0
39
0
210
0
220
0
230
1
50
360
0
POINT
5
16E
100
AcDbEntity
8
Defpoints
62
0
6
ByLayer
370
-1
48
1
60
0
100
AcDbPoint
10
32.288352
20
-19.6875
30
0
39
0
210
0
220
0
230
1
50
360
0
ENDBLK
5
164
100
AcDbEntity
8
0
100
AcDbBlockEnd
0
BLOCK
5
176
100
AcDbEntity
8
0
100
AcDbBlockBegin
2
_U3
70
0
10
0
20
0
30
0
3
_U3
0
MTEXT
5
170
100
AcDbEntity
8
2
62
256
6
ByLayer
370
18
48
1
60
0
100
AcDbMText
10
23.320819
20
-18.654866
30
0
210
0
220
0
230
1
1
\W0.5321;15
40
3.5
41
0
44
1.084337
50
0
71
7
72
5
7
iso_b_vert
0
LINE
5
171
100
AcDbEntity
8
2
62
256
6
ByLayer
370
13
48
1
60
0
100
AcDbLine
10
17.288352
20
5.725
30
0
11
17.288352
21
-21.6875
31
0
39
0
210
0
220
0
230
1
0
LINE
5
172
100
AcDbEntity
8
2
62
256
6
ByLayer
370
13
48
1
60
0
100
AcDbLine
10
32.288352
20
7.475
30
0
11
32.288352
21
-21.6875
31
0
39
0
210
0
220
0
230
1
0
LINE
5
173
100
AcDbEntity
8
2
62
256
6
ByLayer
370
13
48
1
60
0
100
AcDbLine
10
17.288352
20
-19.6875
30
0
11
32.288352
21
-19.6875
31
0
39
0
210
0
220
0
230
1
0
SOLID
5
174
100
AcDbEntity
8
2
62
256
6
ByLayer
370
18
48
1
60
0
100
AcDbTrace
10
17.288352
20
-19.6875
30
0
11
20.788351
21
-19.226716
31
0
12
20.788354
22
-20.148284
32
0
13
20.788354
23
-20.148284
33
0
39
0
210
0
220
0
230
1
0
SOLID
5
175
100
AcDbEntity
8
2
62
256
6
ByLayer
370
18
48
1
60
0
100
AcDbTrace
10
32.288352
20
-19.6875
30
0
11
28.788354
21
-20.148284
31
0
12
28.788351
22
-19.226716
32
0
13
28.788351
23
-19.226716
33
0
39
0
210
0
220
0
230
1
0
ENDBLK
5
177
100
AcDbEntity
8
0
100
AcDbBlockEnd
0
BLOCK
5
17C
100
AcDbEntity
8
0
100
AcDbBlockBegin
2
*D9
70
1
10
0
20
0
30
0
3
*D9
0
LINE
5
17E
100
AcDbEntity
8
0
62
256
6
ByLayer
370
-2
48
1
60
0
100
AcDbLine
10
-92.711648
20
-9.525
30
0
11
-92.711648
21
-27.6875
31
0
39
0
210
0
220
0
230
1
0
LINE
5
17F
100
AcDbEntity
8
0
62
256
6
ByLayer
370
-2
48
1
60
0
100
AcDbLine
10
32.288352
20
7.475
30
0
11
32.288352
21
-27.6875
31
0
39
0
210
0
220
0
230
1
0
LINE
5
180
100
AcDbEntity
8
0
62
256
6
ByLayer
370
-2
48
1
60
0
100
AcDbLine
10
-89.211648
20
-25.6875
30
0
11
28.788352
21
-25.6875
31
0
39
0
210
0
220
0
230
1
0
SOLID
5
181
100
AcDbEntity
8
0
62
256
6
ByLayer
370
-1
48
1
60
0
100
AcDbTrace
10
-89.211648
20
-25.104167
30
0
11
-89.211648
21
-26.270833
31
0
12
-92.711648
22
-25.6875
32
0
13
-92.711648
23
-25.6875
33
0
39
0
210
0
220
0
230
1
0
SOLID
5
182
100
AcDbEntity
8
0
62
256
6
ByLayer
370
-1
48
1
60
0
100
AcDbTrace
10
28.788352
20
-26.270833
30
0
11
28.788352
21
-25.104167
31
0
12
32.288352
22
-25.6875
32
0
13
32.288352
23
-25.6875
33
0
39
0
210
0
220
0
230
1
0
MTEXT
5
183
100
AcDbEntity
8
0
62
256
6
ByLayer
370
18
48
1
60
0
100
AcDbMText
10
-30.211648
20
-18.6875
30
0
210
0
220
0
230
1
1
\A1;125
40
3.5
41
0
44
1
50
0
71
5
72
5
7
iso_b_vert
0
POINT
5
184
100
AcDbEntity
8
Defpoints
62
0
6
ByLayer
370
-1
48
1
60
0
100
AcDbPoint
10
-92.711648
20
-7.9375
30
0
39
0
210
0
220
0
230
1
50
360
0
POINT
5
185
100
AcDbEntity
8
Defpoints
62
0
6
ByLayer
370
-1
48
1
60
0
100
AcDbPoint
10
32.288352
20
9.0625
30
0
39
0
210
0
220
0
230
1
50
360
0
POINT
5
186
100
AcDbEntity
8
Defpoints
62
0
6
ByLayer
370
-1
48
1
60
0
100
AcDbPoint
10
32.288352
20
-25.6875
30
0
39
0
210
0
220
0
230
1
50
360
0
ENDBLK
5
17D
100
AcDbEntity
8
0
100
AcDbBlockEnd
0
BLOCK
5
18E
100
AcDbEntity
8
0
100
AcDbBlockBegin
2
_U4
70
0
10
0
20
0
30
0
3
_U4
0
MTEXT
5
188
100
AcDbEntity
8
SK2
62
256
6
ByLayer
370
18
48
1
60
0
100
AcDbMText
10
-32.986914
20
-24.654866
30
0
210
0
220
0
230
1
1
\W0.6217;125
40
3.5
41
0
44
1.084337
50
0
71
7
72
5
7
iso_b_vert
0
LINE
5
189
100
AcDbEntity
8
SK2
62
256
6
ByLayer
370
13
48
1
60
0
100
AcDbLine
10
-92.711648
20
-9.525
30
0
11
-92.711648
21
-27.6875
31
0
39
0
210
0
220
0
230
1
0
LINE
5
18A
100
AcDbEntity
8
SK2
62
256
6
ByLayer
370
13
48
1
60
0
100
AcDbLine
10
32.288352
20
7.475
30
0
11
32.288352
21
-27.6875
31
0
39
0
210
0
220
0
230
1
0
LINE
5
18B
100
AcDbEntity
8
SK2
62
256
6
ByLayer
370
13
48
1
60
0
100
AcDbLine
10
-92.711648
20
-25.6875
30
0
11
32.288352
21
-25.6875
31
0
39
0
210
0
220
0
230
1
0
SOLID
5
18C
100
AcDbEntity
8
SK2
62
256
6
ByLayer
370
18
48
1
60
0
100
AcDbTrace
10
-92.711648
20
-25.6875
30
0
11
-89.211649
21
-25.226716
31
0
12
-89.211646
22
-26.148284
32
0
13
-89.211646
23
-26.148284
33
0
39
0
210
0
220
0
230
1
0
SOLID
5
18D
100
AcDbEntity
8
SK2
62
256
6
ByLayer
370
18
48
1
60
0
100
AcDbTrace
10
32.288352
20
-25.6875
30
0
11
28.788354
21
-26.148284
31
0
12
28.788351
22
-25.226716
32
0
13
28.788351
23
-25.226716
33
0
39
0
210
0
220
0
230
1
0
ENDBLK
5
18F
100
AcDbEntity
8
0
100
AcDbBlockEnd
0
ENDSEC
0
SECTION
2
ENTITIES
0
ARC
5
C7
100
AcDbEntity
8
1
62
256
6
ByLayer
370
18
48
1
60
0
100
AcDbCircle
39
0
10
17.288352
20
5.7125
30
0
40
1.6
210
0
220
0
230
1
100
AcDbArc
50
90
51
180
0
ARC
5
C9
100
AcDbEntity
8
1
62
256
6
ByLayer
370
18
48
1
60
0
100
AcDbCircle
39
0
10
10.888352
20
1.2625
30
0
40
1.416
210
0
220
0
230
1
100
AcDbArc
50
96.192438
51
150.190711
0
ARC
5
CA
100
AcDbEntity
8
1
62
256
6
ByLayer
370
18
48
1
60
0
100
AcDbCircle
39
0
10
10.888352
20
1.2625
30
0
40
1.416
210
0
220
0
230
1
100
AcDbArc
50
150.190711
51
209.809289
0
ARC
5
CB
100
AcDbEntity
8
1
62
256
6
ByLayer
370
18
48
1
60
0
100
AcDbCircle
39
0
10
10.888352
20
1.2625
30
0
40
1.416
210
0
220
0
230
1
100
AcDbArc
50
209.809289
51
263.807562
0
ARC
5
CC
100
AcDbEntity
8
1
62
256
6
ByLayer
370
18
48
1
60
0
100
AcDbCircle
39
0
10
10.888352
20
1.2625
30
0
40
1.416
210
0
220
0
230
1
100
AcDbArc
50
276.192438
51
330.190711
0
ARC
5
CD
100
AcDbEntity
8
1
62
256
6
ByLayer
370
18
48
1
60
0
100
AcDbCircle
39
0
10
10.888352
20
1.2625
30
0
40
1.416
210
0
220
0
230
1
100
AcDbArc
50
330.190711
51
29.809289
0
ARC
5
CE
100
AcDbEntity
8
1
62
256
6
ByLayer
370
18
48
1
60
0
100
AcDbCircle
39
0
10
10.888352
20
1.2625
30
0
40
1.416
210
0
220
0
230
1
100
AcDbArc
50
29.809289
51
83.807562
0
ARC
5
CF
100
AcDbEntity
8
1
62
256
6
ByLayer
370
18
48
1
60
0
100
AcDbCircle
39
0
10
10.888352
20
1.2625
30
0
40
1.9685
210
0
220
0
230
1
100
AcDbArc
50
300.381422
51
0
0
ARC
5
D0
100
AcDbEntity
8
1
62
256
6
ByLayer
370
18
48
1
60
0
100
AcDbCircle
39
0
10
10.888352
20
1.2625
30
0
40
1.9685
210
0
220
0
230
1
100
AcDbArc
50
0
51
59.618578
0
ARC
5
D1
100
AcDbEntity
8
1
62
256
6
ByLayer
370
18
48
1
60
0
100
AcDbCircle
39
0
10
10.888352
20
1.2625
30
0
40
1.9685
210
0
220
0
230
1
100
AcDbArc
50
239.618578
51
300.381422
0
ARC
5
D2
100
AcDbEntity
8
1
62
256
6
ByLayer
370
18
48
1
60
0
100
AcDbCircle
39
0
10
10.888352
20
1.2625
30
0
40
1.416
210
0
220
0
230
1
100
AcDbArc
50
263.807562
51
276.192438
0
ARC
5
D5
100
AcDbEntity
8
1
62
256
6
ByLayer
370
18
48
1
60
0
100
AcDbCircle
39
0
10
10.888352
20
1.2625
30
0
40
1.9685
210
0
220
0
230
1
100
AcDbArc
50
180
51
239.618578
0
ARC
5
D6
100
AcDbEntity
8
1
62
256
6
ByLayer
370
18
48
1
60
0
100
AcDbCircle
39
0
10
10.888352
20
1.2625
30
0
40
1.9685
210
0
220
0
230
1
100
AcDbArc
50
120.381422
51
180
0
ARC
5
D7
100
AcDbEntity
8
1
62
256
6
ByLayer
370
18
48
1
60
0
100
AcDbCircle
39
0
10
10.888352
20
1.2625
30
0
40
1.416
210
0
220
0
230
1
100
AcDbArc
50
83.807562
51
96.192438
0
ARC
5
D8
100
AcDbEntity
8
1
62
256
6
ByLayer
370
18
48
1
60
0
100
AcDbCircle
39
0
10
10.888352
20
1.2625
30
0
40
1.9685
210
0
220
0
230
1
100
AcDbArc
50
59.618578
51
120.381422
0
CIRCLE
5
C8
100
AcDbEntity
8
1
62
256
6
ByLayer
370
18
48
1
60
0
100
AcDbCircle
10
10.888352
20
1.2625
30
0
40
3.8
39
0
210
0
220
0
230
1
0
CIRCLE
5
D3
100
AcDbEntity
8
1
62
256
6
ByLayer
370
18
48
1
60
0
100
AcDbCircle
10
10.888352
20
1.2625
30
0
40
3.5
39
0
210
0
220
0
230
1
0
CIRCLE
5
D4
100
AcDbEntity
8
1
62
256
6
ByLayer
370
18
48
1
60
0
100
AcDbCircle
10
10.888352
20
1.2625
30
0
40
3
39
0
210
0
220
0
230
1
0
ELLIPSE
5
D9
100
AcDbEntity
8
1
62
256
6
ByLayer
370
18
48
1
60
0
100
AcDbEllipse
10
-2.415859
20
-7.947099
30
0
11
3.0000000001451
21
3.51436609391755E-15
31
0
210
0
220
0
230
1
40
0.004363
41
0.261799387797229
42
0.63463786011491
0
ELLIPSE
5
DA
100
AcDbEntity
8
SK1
62
256
6
ByLayer
370
18
48
1
60
0
100
AcDbEllipse
10
-2.415859
20
-7.947099
30
0
11
2.99999999999998
21
3.51436609374755E-15
31
0
210
0
220
0
230
1
40
0.004363
41
0.634637860128703
42
2.31838067646379
0
ELLIPSE
5
DB
100
AcDbEntity
8
1
62
256
6
ByLayer
370
18
48
1
60
0
100
AcDbEllipse
10
29.628245
20
9.6625
30
0
11
0.909842477953741
21
1.06583985172397E-15
31
0
210
0
220
0
230
1
40
0.879273
41
-1.5707963267949
42
-1.29515256583191
0
ELLIPSE
5
DC
100
AcDbEntity
8
1
62
256
6
ByLayer
370
18
48
1
60
0
100
AcDbEllipse
10
27.657261
20
8.737938
30
0
11
0.705694516628473
21
8.26689627260896E-16
31
0
210
0
220
0
230
1
40
0.212557
41
3.14159265358979
42
-2.80561677263086
0
ELLIPSE
5
DD
100
AcDbEntity
8
1
62
256
6
ByLayer
370
18
48
1
60
0
100
AcDbEllipse
10
28.303194
20
8.496436
30
0
11
0.940926021890543
21
1.10225283601897E-15
31
0
210
0
220
0
230
1
40
0.212557
41
-2.80561677258286
42
-1.98717825108183
0
ELLIPSE
5
DE
100
AcDbEntity
8
1
62
256
6
ByLayer
370
18
48
1
60
0
100
AcDbEllipse
10
31.728247
20
10.142641
30
0
11
9.40925998216215
21
-3.20383137314759E-08
31
0
210
0
220
0
230
1
40
0.212557
41
-1.98717824347226
42
-1.9198621680941
0
ELLIPSE
5
DF
100
AcDbEntity
8
1
62
256
6
ByLayer
370
18
48
1
60
0
100
AcDbEllipse
10
28.216393
20
8.0625
30
0
11
0.987972322991946
21
1.15736547782797E-15
31
0
210
0
220
0
230
1
40
0.212557
41
0
42
1.22173047639514
0
ELLIPSE
5
E0
100
AcDbEntity
8
1
62
256
6
ByLayer
370
18
48
1
60
0
100
AcDbEllipse
10
28.216393
20
8.0625
30
0
11
0.987972322990785
21
1.15736547782661E-15
31
0
210
0
220
0
230
1
40
0.212557
41
-1.22173047639584
42
0
0
ELLIPSE
5
E1
100
AcDbEntity
8
1
62
256
6
ByLayer
370
18
48
1
60
0
100
AcDbEllipse
10
31.728247
20
5.982359
30
0
11
9.40926023456509
21
-2.15489773995517E-09
31
0
210
0
220
0
230
1
40
0.212557
41
1.91986217782503
42
1.98717825161814
0
ELLIPSE
5
E2
100
AcDbEntity
8
1
62
256
6
ByLayer
370
18
48
1
60
0
100
AcDbEllipse
10
28.303194
20
7.628564
30
0
11
0.940926021891866
21
1.10225283602052E-15
31
0
210
0
220
0
230
1
40
0.212557
41
1.98717825108239
42
2.8056167725823
0
ELLIPSE
5
E3
100
AcDbEntity
8
1
62
256
6
ByLayer
370
18
48
1
60
0
100
AcDbEllipse
10
27.657261
20
7.387062
30
0
11
0.705694516717696
21
8.26689627365417E-16
31
0
210
0
220
0
230
1
40
0.212557
41
2.80561677265241
42
3.14159265358979
0
ELLIPSE
5
E4
100
AcDbEntity
8
1
62
256
6
ByLayer
370
18
48
1
60
0
100
AcDbEllipse
10
29.628245
20
6.4625
30
0
11
0.909842477983001
21
1.06583985175824E-15
31
0
210
0
220
0
230
1
40
0.879273
41
1.29515256584071
42
1.5707963267949
0
ELLIPSE
5
E5
100
AcDbEntity
8
1
62
256
6
ByLayer
370
18
48
1
60
0
100
AcDbEllipse
10
28.65378
20
8.6125
30
0
11
7.85307604188964E-18
21
0.128254700253314
31
0
210
0
220
0
230
1
40
0.978148
41
0
42
6.28318530717959
0
ELLIPSE
5
E6
100
AcDbEntity
8
1
62
256
6
ByLayer
370
18
48
1
60
0
100
AcDbEllipse
10
14.948459
20
9.6625
30
0
11
0.909842478070061
21
1.06583985186023E-15
31
0
210
0
220
0
230
1
40
0.879273
41
-1.84644008772261
42
-1.5707963267949
0
POINT
5
70
100
AcDbEntity
8
81
62
256
6
ByLayer
370
18
48
1
60
0
100
AcDbPoint
10
32.288352
20
9.0625
30
0
39
0
210
0
220
0
230
1
50
360
0
POINT
5
72
100
AcDbEntity
8
80
62
256
6
ByLayer
370
18
48
1
60
0
100
AcDbPoint
10
0
20
0
30
0
39
0
210
0
220
0
230
1
50
360
0
POINT
5
74
100
AcDbEntity
8
1
62
256
6
ByLayer
370
18
48
1
60
1
100
AcDbPoint
10
32.288352
20
9.0625
30
0
39
0
210
0
220
0
230
1
50
360
0
POINT
5
76
100
AcDbEntity
8
1
62
256
6
ByLayer
370
18
48
1
60
1
100
AcDbPoint
10
-92.711648
20
-7.9375
30
0
39
0
210
0
220
0
230
1
50
360
0
POINT
5
77
100
AcDbEntity
8
1
62
256
6
ByLayer
370
18
48
1
60
1
100
AcDbPoint
10
32.288352
20
7.0625
30
0
39
0
210
0
220
0
230
1
50
360
0
POINT
5
78
100
AcDbEntity
8
1
62
256
6
ByLayer
370
18
48
1
60
1
100
AcDbPoint
10
32.288352
20
9.0625
30
0
39
0
210
0
220
0
230
1
50
360
0
POINT
5
79
100
AcDbEntity
8
1
62
256
6
ByLayer
370
18
48
1
60
1
100
AcDbPoint
10
-92.711648
20
-7.9375
30
0
39
0
210
0
220
0
230
1
50
360
0
POINT
5
7A
100
AcDbEntity
8
1
62
256
6
ByLayer
370
18
48
1
60
1
100
AcDbPoint
10
-92.711648
20
8.0625
30
0
39
0
210
0
220
0
230
1
50
360
0
POINT
5
7B
100
AcDbEntity
8
1
62
256
6
ByLayer
370
18
48
1
60
1
100
AcDbPoint
10
17.288352
20
7.3125
30
0
39
0
210
0
220
0
230
1
50
360
0
POINT
5
7C
100
AcDbEntity
8
1
62
256
6
ByLayer
370
18
48
1
60
1
100
AcDbPoint
10
32.288352
20
9.0625
30
0
39
0
210
0
220
0
230
1
50
360
0
POINT
5
7D
100
AcDbEntity
8
1
62
256
6
ByLayer
370
18
48
1
60
1
100
AcDbPoint
10
-92.711648
20
-7.9375
30
0
39
0
210
0
220
0
230
1
50
360
0
POINT
5
7E
100
AcDbEntity
8
1
62
256
6
ByLayer
370
18
48
1
60
1
100
AcDbPoint
10
32.288352
20
9.0625
30
0
39
0
210
0
220
0
230
1
50
360
0
SPLINE
5
E7
100
AcDbEntity
8
1
62
256
6
ByLayer
370
18
48
1
60
0
100
AcDbSpline
70
4
71
3
72
10
73
6
40
0
40
0
40
0
40
0
40
0.5
40
0.5
40
1
40
1
40
1
40
1
41
1
10
0.198592001793173
20
8.81249999999983
30
0
41
1
10
0.170447736219387
20
8.75713090580692
30
0
41
1
10
0.139832818438464
20
8.7048021984983
30
0
41
1
10
0.0736754785036169
20
8.60478537631434
30
0
41
1
10
0.0381302599312505
20
8.55711702561791
30
0
41
1
10
0
20
8.51149035510917
30
0
0
SPLINE
5
E8
100
AcDbEntity
8
1
62
256
6
ByLayer
370
18
48
1
60
0
100
AcDbSpline
70
4
71
3
72
8
73
4
40
0
40
0
40
0
40
0
40
1
40
1
40
1
40
1
41
1
10
25.9609767441807
20
7.87460100910056
30
0
41
1
10
25.9175211462924
20
7.85351763157098
30
0
41
1
10
25.8739798199992
20
7.83275094896902
30
0
41
1
10
25.8302988860965
20
7.8125
30
0
0
SPLINE
5
E9
100
AcDbEntity
8
1
62
256
6
ByLayer
370
18
48
1
60
0
100
AcDbSpline
70
4
71
3
72
18
73
14
40
0
40
0
40
0
40
0
40
0.24999999999996
40
0.24999999999996
40
0.49999999999992
40
0.49999999999992
40
0.62499999999994
40
0.62499999999994
40
0.74999999999996
40
0.74999999999996
40
0.87499999999998
40
0.87499999999998
40
1
40
1
40
1
40
1
41
1
10
26.0383523365871
20
8.0136810389476
30
0
41
1
10
26.0383523365871
20
7.99814969106839
30
0
41
1
10
26.0364272110301
20
7.98306095052141
30
0
41
1
10
26.028828765443
20
7.95374522015862
30
0
41
1
10
26.0233373138467
20
7.94025914320753
30
0
41
1
10
26.0127801602249
20
7.92180621418174
30
0
41
1
10
26.0089216777941
20
7.91605392056701
30
0
41
1
10
26.0006599071027
20
7.90542300937128
30
0
41
1
10
25.9962429713808
20
7.90052126228665
30
0
41
1
10
25.9868482250474
20
7.89152894941941
30
0
41
1
10
25.9818982314636
20
7.88747323529427
30
0
41
1
10
25.971699229149
20
7.88034342376824
30
0
41
1
10
25.9664241263495
20
7.87724391865407
30
0
41
1
10
25.9609767441807
20
7.87460100910056
30
0
0
SPLINE
5
EA
100
AcDbEntity
8
1
62
256
6
ByLayer
370
18
48
1
60
0
100
AcDbSpline
70
4
71
3
72
19
73
15
40
0
40
0
40
0
40
0
40
0.250000000000002
40
0.250000000000002
40
0.375000000000001
40
0.375000000000001
40
0.500000000000001
40
0.500000000000001
40
0.625000000000001
40
0.625000000000001
40
0.750000000000001
40
0.875
40
0.875
40
1
40
1
40
1
40
1
41
1
10
25.960976744181
20
8.25039899089933
30
0
41
1
10
25.971880765542
20
8.24510868055688
30
0
41
1
10
25.9820474218029
20
8.23804356994341
30
0
41
1
10
25.9961186925059
20
8.22460880016072
30
0
41
1
10
26.0006156705276
20
8.21962891725298
30
0
41
1
10
26.0088875457704
20
8.20899494722741
30
0
41
1
10
26.0127037624906
20
8.20330666175201
30
0
41
1
10
26.0196750121843
20
8.19116224037231
30
0
41
1
10
26.0228526715269
20
8.18464927994967
30
0
41
1
10
26.0283696208999
20
8.17105154414099
30
0
41
1
10
26.0330077693055
20
8.15702793688735
30
0
41
1
10
26.0358991056254
20
8.14215781555995
30
0
41
1
10
26.0378590122933
20
8.12683631865781
30
0
41
1
10
26.038352336592
20
8.11909859410045
30
0
41
1
10
26.038352336592
20
8.11131896105294
30
0
0
SPLINE
5
EB
100
AcDbEntity
8
1
62
256
6
ByLayer
370
18
48
1
60
0
100
AcDbSpline
70
4
71
3
72
8
73
4
40
0
40
0
40
0
40
0
40
1
40
1
40
1
40
1
41
1
10
25.8302988860965
20
8.3125
30
0
41
1
10
25.8739739969424
20
8.2922517506625
30
0
41
1
10
25.9175162073195
20
8.27148476467337
30
0
41
1
10
25.960976744181
20
8.25039899089933
30
0
0
SPLINE
5
EC
100
AcDbEntity
8
1
62
256
6
ByLayer
370
18
48
1
60
0
100
AcDbSpline
70
4
71
3
72
10
73
6
40
0
40
0
40
0
40
0
40
0.5
40
0.5
40
1
40
1
40
1
40
1
41
1
10
25.671130044091
20
8.8125
30
0
41
1
10
25.699002262164
20
8.72993186960727
30
0
41
1
10
25.7259859755483
20
8.6468579006154
30
0
41
1
10
25.7788734267135
20
8.48009511686513
30
0
41
1
10
25.804768155508
20
8.3964011731602
30
0
41
1
10
25.8302988860965
20
8.3125
30
0
0
SPLINE
5
ED
100
AcDbEntity
8
1
62
256
6
ByLayer
370
18
48
1
60
0
100
AcDbSpline
70
4
71
3
72
10
73
6
40
0
40
0
40
0
40
0
40
0.5
40
0.5
40
1
40
1
40
1
40
1
41
1
10
25.8302988860965
20
7.8125
30
0
41
1
10
25.804768155508
20
7.72859882683983
30
0
41
1
10
25.7788734267135
20
7.6449048831349
30
0
41
1
10
25.7259859755483
20
7.47814209938463
30
0
41
1
10
25.699002262164
20
7.39506813039276
30
0
41
1
10
25.671130044091
20
7.31250000000003
30
0
0
SPLINE
5
EE
100
AcDbEntity
8
SK1
62
256
6
ByLayer
370
18
48
1
60
0
100
AcDbSpline
70
4
71
3
72
27
73
23
40
0
40
0
40
0
40
0
40
0.125000000000032
40
0.125000000000032
40
0.187500000000049
40
0.187500000000049
40
0.250000000000067
40
0.250000000000067
40
0.375000000000106
40
0.375000000000106
40
0.500000000000145
40
0.500000000000145
40
0.625000000000183
40
0.625000000000183
40
0.656250000000179
40
0.656250000000179
40
0.687500000000175
40
0.750000000000148
40
0.750000000000148
40
0.875000000000074
40
0.875000000000074
40
1
40
1
40
1
40
1
41
1
10
0
20
8.51149035510917
30
0
41
1
10
-0.0344005072730909
20
8.47032670677544
30
0
41
1
10
-0.0709061208810624
20
8.43083272000848
30
0
41
1
10
-0.129068616178927
20
8.37401699953432
30
0
41
1
10
-0.149024625889524
20
8.3554846738638
30
0
41
1
10
-0.190130495468708
20
8.31924213610949
30
0
41
1
10
-0.211224801395133
20
8.30158407786666
30
0
41
1
10
-0.275871210640787
20
8.2502524269382
30
0
41
1
10
-0.32090116090535
20
8.21810976028951
30
0
41
1
10
-0.415068476571776
20
8.15811277659296
30
0
41
1
10
-0.464204603830808
20
8.13025778150376
30
0
41
1
10
-0.566952024347984
20
8.07918838800157
30
0
41
1
10
-0.620560972348557
20
8.0559713115471
30
0
41
1
10
-0.690710090343515
20
8.03023749272324
30
0
41
1
10
-0.704918535021193
20
8.02524911479188
30
0
41
1
10
-0.733516762754505
20
8.01566313166575
30
0
41
1
10
-0.776704821432531
20
8.00186151489879
30
0
41
1
10
-0.820771191289623
20
7.98981500854629
30
0
41
1
10
-0.910098018081072
20
7.96814686126106
30
0
41
1
10
-0.971238367871138
20
7.95692385776101
30
0
41
1
10
-1.09688422084002
20
7.94160320909327
30
0
41
1
10
-1.16138838892812
20
7.9375
30
0
41
1
10
-1.22772318076636
20
7.9375
30
0
0
SPLINE
5
EF
100
AcDbEntity
8
1
62
256
6
ByLayer
370
18
48
1
60
0
100
AcDbSpline
70
4
71
2
72
6
73
3
40
0
40
0
40
0
40
1
40
1
40
1
41
1.03186391735993
10
12.4883523365871
20
9.06520327716593
30
0
41
1.03138264657361
10
12.6105633897814
20
9.06520327716597
30
0
41
1.03186391735993
10
12.7325464947265
20
9.0577424708534
30
0
0
SPLINE
5
F0
100
AcDbEntity
8
1
62
256
6
ByLayer
370
18
48
1
60
0
100
AcDbSpline
70
4
71
2
72
6
73
3
40
0
40
0
40
0
40
1
40
1
40
1
41
1.03186391735993
10
12.288352336587
20
8.86520327716594
30
0
41
0.729637973226922
10
12.2883523365871
20
9.06520327716593
30
0
41
1.03186391735993
10
12.4883523365871
20
9.06520327716593
30
0
0
SPLINE
5
F1
100
AcDbEntity
8
1
62
256
6
ByLayer
370
18
48
1
60
0
100
AcDbSpline
70
4
71
2
72
6
73
3
40
0
40
0
40
0
40
1
40
1
40
1
41
1.03186391735993
10
32.288352336587
20
8.86520327716594
30
0
41
0.729637973226922
10
32.288352336587
20
9.06520327716598
30
0
41
1.03186391735993
10
32.088352336587
20
9.06520327716596
30
0
0
SPLINE
5
F2
100
AcDbEntity
8
1
62
256
6
ByLayer
370
18
48
1
60
0
100
AcDbSpline
70
4
71
2
72
6
73
3
40
0
40
0
40
0
40
1
40
1
40
1
41
1.03186391735993
10
31.8441581784476
20
7.06725752914658
30
0
41
1.03138264657361
10
31.9661412833927
20
7.05979672283406
30
0
41
1.03186391735993
10
32.088352336587
20
7.05979672283405
30
0
0
SPLINE
5
F3
100
AcDbEntity
8
1
62
256
6
ByLayer
370
18
48
1
60
0
100
AcDbSpline
70
4
71
2
72
6
73
3
40
0
40
0
40
0
40
1
40
1
40
1
41
1.03186391735993
10
32.0883523365871
20
7.05979672283405
30
0
41
0.729637973226922
10
32.288352336587
20
7.05979672283405
30
0
41
1.03186391735993
10
32.288352336587
20
7.25979672283404
30
0
0
SPLINE
5
F4
100
AcDbEntity
8
1
62
256
6
ByLayer
370
18
48
1
60
0
100
AcDbSpline
70
4
71
2
72
6
73
3
40
0
40
0
40
0
40
1
40
1
40
1
41
1.03186391735993
10
32.088352336587
20
9.06520327716596
30
0
41
1.03138264657361
10
31.9661412833927
20
9.065203277166
30
0
41
1.03186391735993
10
31.8441581784476
20
9.05774247085342
30
0
0
SPLINE
5
F5
100
AcDbEntity
8
1
62
256
6
ByLayer
370
18
48
1
60
0
100
AcDbSpline
70
4
71
3
72
8
73
4
40
0
40
0
40
0
40
0
40
1
40
1
40
1
40
1
41
1
10
30.3038800204408
20
8.9918982963666
30
0
41
1
10
30.2905027743852
20
8.99181279601305
30
0
41
1
10
30.2771412591459
20
8.99040370886823
30
0
41
1
10
30.2639734617606
20
8.98762067257186
30
0
0
SPLINE
5
F6
100
AcDbEntity
8
1
62
256
6
ByLayer
370
18
48
1
60
0
100
AcDbSpline
70
4
71
3
72
8
73
4
40
0
40
0
40
0
40
0
40
1
40
1
40
1
40
1
41
1
10
30.2639734617716
20
7.13737932742586
30
0
41
1
10
30.2771413956058
20
7.13459626229115
30
0
41
1
10
30.290502667154
20
7.13318720467186
30
0
41
1
10
30.3038800204544
20
7.13310170363334
30
0
0
SPLINE
5
F7
100
AcDbEntity
8
1
62
256
6
ByLayer
370
18
48
1
60
0
100
AcDbSpline
70
4
71
3
72
8
73
4
40
0
40
0
40
0
40
0
40
1
40
1
40
1
40
1
41
1
10
14.2728246527197
20
8.99189829636668
30
0
41
1
10
14.2862018987761
20
8.99181279601362
30
0
41
1
10
14.2995634140165
20
8.9904037088703
30
0
41
1
10
14.3127312114025
20
8.98762067257414
30
0
0
SPLINE
5
F8
100
AcDbEntity
8
1
62
256
6
ByLayer
370
18
48
1
60
0
100
AcDbSpline
70
4
71
3
72
26
73
22
40
0
40
0
40
0
40
0
40
0.124999999999952
40
0.124999999999952
40
0.249999999999903
40
0.249999999999903
40
0.312499999999877
40
0.312499999999877
40
0.374999999999851
40
0.374999999999851
40
0.499999999999848
40
0.499999999999848
40
0.562499999999843
40
0.562499999999843
40
0.624999999999839
40
0.624999999999839
40
0.749999999999892
40
0.749999999999892
40
0.874999999999946
40
0.874999999999946
40
1
40
1
40
1
40
1
41
1
10
12.856852336587
20
1.26250000000002
30
0
41
1
10
12.856852336587
20
1.28124208387967
30
0
41
1
10
12.8552151320916
20
1.30029002412101
30
0
41
1
10
12.8488376172699
20
1.33717054585435
30
0
41
1
10
12.8441251282525
20
1.35514683747934
30
0
41
1
10
12.8348177226902
20
1.38142723056083
30
0
41
1
10
12.8313198616824
20
1.39011361056296
30
0
41
1
10
12.8236864668231
20
1.406982547616
30
0
41
1
10
12.8195514358519
20
1.41517739551586
30
0
41
1
10
12.8062346660027
20
1.43907325181951
30
0
41
1
10
12.7961468990804
20
1.45408993692456
30
0
41
1
10
12.7792570436733
20
1.47527553940841
30
0
41
1
10
12.7733449539715
20
1.48209191856907
30
0
41
1
10
12.7611497084299
20
1.49505958951073
30
0
41
1
10
12.7548436333724
20
1.50124038277119
30
0
41
1
10
12.7353286893628
20
1.51890908220133
30
0
41
1
10
12.7215264642491
20
1.52952827097107
30
0
41
1
10
12.6923978698269
20
1.54850138094613
30
0
41
1
10
12.6773296307733
20
1.55668115880459
30
0
41
1
10
12.646470084287
20
1.57052201982395
30
0
41
1
10
12.6306472260751
20
1.57620198365544
30
0
41
1
10
12.6144477767314
20
1.58066196954684
30
0
0
SPLINE
5
F9
100
AcDbEntity
8
1
62
256
6
ByLayer
370
18
48
1
60
0
100
AcDbSpline
70
4
71
3
72
24
73
20
40
0
40
0
40
0
40
0
40
0.0625000000000071
40
0.0625000000000071
40
0.125000000000014
40
0.125000000000014
40
0.249999999999949
40
0.249999999999949
40
0.312499999999951
40
0.312499999999951
40
0.374999999999954
40
0.374999999999954
40
0.499999999999963
40
0.499999999999963
40
0.624999999999973
40
0.624999999999973
40
0.749999999999982
40
0.749999999999982
40
1
40
1
40
1
40
1
41
1
10
11.8839292261822
20
2.96068105833979
30
0
41
1
10
11.8920309464001
20
2.95593133782242
30
0
41
1
10
11.9000021458144
20
2.95078978898647
30
0
41
1
10
11.9154454022879
20
2.93985532158604
30
0
41
1
10
11.9228700317238
20
2.93410082777496
30
0
41
1
10
11.9442850882147
20
2.91600705640505
30
0
41
1
10
11.9574225761121
20
2.90284310533588
30
0
41
1
10
11.9754328145633
20
2.8814603728398
30
0
41
1
10
11.9811576910429
20
2.87404312092056
30
0
41
1
10
11.9918232500856
20
2.85895701884021
30
0
41
1
10
11.9967948711017
20
2.85125416851679
30
0
41
1
10
12.0106675669473
20
2.82768656155028
30
0
41
1
10
12.0185330543156
20
2.81136555606639
30
0
41
1
10
12.031542664147
20
2.77753765004161
30
0
41
1
10
12.0365173974888
20
2.76047339489597
30
0
41
1
10
12.0436763290703
20
2.72610299775965
30
0
41
1
10
12.0458616435056
20
2.70873705874803
30
0
41
1
10
12.0482915466331
20
2.65666944413002
30
0
41
1
10
12.0444916283559
20
2.62310391070847
30
0
41
1
10
12.0358033701719
20
2.59065233797858
30
0
0
SPLINE
5
FA
100
AcDbEntity
8
1
62
256
6
ByLayer
370
18
48
1
60
0
100
AcDbSpline
70
4
71
3
72
34
73
30
40
0
40
0
40
0
40
0
40
0.125000000000017
40
0.125000000000017
40
0.187500000000022
40
0.187500000000022
40
0.218750000000024
40
0.218750000000024
40
0.250000000000026
40
0.250000000000026
40
0.375000000000025
40
0.375000000000025
40
0.406250000000025
40
0.406250000000025
40
0.437500000000025
40
0.500000000000022
40
0.562500000000019
40
0.562500000000019
40
0.625000000000016
40
0.625000000000016
40
0.687500000000013
40
0.687500000000013
40
0.75000000000001
40
0.75000000000001
40
0.875000000000004
40
0.875000000000004
40
0.937500000000002
40
0.937500000000002
40
1
40
1
40
1
40
1
41
1
10
12.0358033701719
20
2.59065233797858
30
0
41
1
10
12.0226867983658
20
2.54166054066769
30
0
41
1
10
12.0140545206964
20
2.49155490158097
30
0
41
1
10
12.0081443761873
20
2.41439762753933
30
0
41
1
10
12.0073558129513
20
2.3883420498826
30
0
41
1
10
12.0080828459469
20
2.34867210539071
30
0
41
1
10
12.0086465357403
20
2.33532019146966
30
0
41
1
10
12.0104364596992
20
2.30854626410064
30
0
41
1
10
12.0116582381141
20
2.29516781005989
30
0
41
1
10
12.0194190525325
20
2.22830545809455
30
0
41
1
10
12.0308421848666
20
2.17491056350019
30
0
41
1
10
12.0525849863232
20
2.10808862454962
30
0
41
1
10
12.0573214816333
20
2.09470380677604
30
0
41
1
10
12.0674169850338
20
2.06835216300661
30
0
41
1
10
12.0835426219176
20
2.02929400704014
30
0
41
1
10
12.1152766999453
20
1.96651379315975
30
0
41
1
10
12.1458831402297
20
1.91877531742273
30
0
41
1
10
12.1792020290362
20
1.87233026845166
30
0
41
1
10
12.196816656536
20
1.85031360473565
30
0
41
1
10
12.2337983553617
20
1.80855078297549
30
0
41
1
10
12.2531718869164
20
1.78879700866821
30
0
41
1
10
12.2936372416891
20
1.75143969467126
30
0
41
1
10
12.3148118594785
20
1.73379314060148
30
0
41
1
10
12.379336542457
20
1.68512695712485
30
0
41
1
10
12.424125491418
20
1.65786015162593
30
0
41
1
10
12.4939215416155
20
1.62370755727807
30
0
41
1
10
12.5177031818497
20
1.61343412604774
30
0
41
1
10
12.5657434915903
20
1.59528061880329
30
0
41
1
10
12.5899815768143
20
1.5873979334757
30
0
41
1
10
12.6144477767313
20
1.58066196954684
30
0
0
SPLINE
5
FB
100
AcDbEntity
8
1
62
256
6
ByLayer
370
18
48
1
60
0
100
AcDbSpline
70
4
71
3
72
26
73
22
40
0
40
0
40
0
40
0
40
0.250000000000261
40
0.250000000000261
40
0.312500000000304
40
0.312500000000304
40
0.375000000000347
40
0.375000000000347
40
0.50000000000036
40
0.50000000000036
40
0.562500000000339
40
0.562500000000339
40
0.625000000000317
40
0.625000000000317
40
0.750000000000235
40
0.750000000000235
40
0.812500000000173
40
0.812500000000173
40
0.875000000000111
40
0.875000000000111
40
1
40
1
40
1
40
1
41
1
10
12.6144477767313
20
0.944338030453167
30
0
41
1
10
12.6469293699361
20
0.953280769453073
30
0
41
1
10
12.6778160263189
20
0.967012367740949
30
0
41
1
10
12.7141508539088
20
0.990664661170968
30
0
41
1
10
12.7213297940112
20
0.995750493226865
30
0
41
1
10
12.7352117311476
20
1.00644699082369
30
0
41
1
10
12.7419339310339
20
1.01206660092888
30
0
41
1
10
12.7614390628961
20
1.0297404966507
30
0
41
1
10
12.7735651452235
20
1.04260421588319
30
0
41
1
10
12.7903417433362
20
1.06361894513208
30
0
41
1
10
12.7956974537802
20
1.07091168939092
30
0
41
1
10
12.8059039026234
20
1.08610838655616
30
0
41
1
10
12.8107144494913
20
1.09395882928874
30
0
41
1
10
12.8240768295256
20
1.1179562271619
30
0
41
1
10
12.8316492406317
20
1.13466650035042
30
0
41
1
10
12.8409363164384
20
1.16082948958663
30
0
41
1
10
12.8436850681697
20
1.16973432990355
30
0
41
1
10
12.8484540306909
20
1.18792923025674
30
0
41
1
10
12.8504668620916
20
1.1972154010501
30
0
41
1
10
12.8552559203004
20
1.22501872314746
30
0
41
1
10
12.856852336587
20
1.24369104670998
30
0
41
1
10
12.856852336587
20
1.26250000000002
30
0
0
SPLINE
5
FC
100
AcDbEntity
8
1
62
256
6
ByLayer
370
18
48
1
60
0
100
AcDbSpline
70
4
71
3
72
34
73
30
40
0
40
0
40
0
40
0
40
0.125000000000008
40
0.125000000000008
40
0.187499999999999
40
0.187499999999999
40
0.218749999999983
40
0.218749999999983
40
0.249999999999966
40
0.249999999999966
40
0.374999999999912
40
0.374999999999912
40
0.406249999999909
40
0.406249999999909
40
0.437499999999905
40
0.499999999999916
40
0.562499999999926
40
0.562499999999926
40
0.624999999999937
40
0.624999999999937
40
0.687499999999947
40
0.687499999999947
40
0.749999999999958
40
0.749999999999958
40
0.874999999999982
40
0.874999999999982
40
0.937499999999991
40
0.937499999999991
40
1
40
1
40
1
40
1
41
1
10
12.6144477767313
20
0.944338030453167
30
0
41
1
10
12.5655498891714
20
0.930875604415775
30
0
41
1
10
12.5179590632828
20
0.912981347925438
30
0
41
1
10
12.4484081230776
20
0.879057292504399
30
0
41
1
10
12.4255317374838
20
0.866559853776437
30
0
41
1
10
12.3916770591567
20
0.845869421827814
30
0
41
1
10
12.3804437478295
20
0.838630353539571
30
0
41
1
10
12.3582517403122
20
0.823545204216686
30
0
41
1
10
12.3473283662331
20
0.815724996040558
30
0
41
1
10
12.2935727714116
20
0.775214009508915
30
0
41
1
10
12.2532874814413
20
0.738354842977515
30
0
41
1
10
12.2066381921068
20
0.685802342231767
30
0
41
1
10
12.1974869105144
20
0.67494684779922
30
0
41
1
10
12.1798597779979
20
0.652910232439837
30
0
41
1
10
12.1543207853525
20
0.619245185469538
30
0
41
1
10
12.116211333733
20
0.560117556169018
30
0
41
1
10
12.0905077455046
20
0.50957013222353
30
0
41
1
10
12.0672917992897
20
0.457336893611654
30
0
41
1
10
12.057207185442
20
0.43100613369495
30
0
41
1
10
12.0398829749097
20
0.377981130085914
30
0
41
1
10
12.0326400764711
20
0.351277464355263
30
0
41
1
10
12.0208782720071
20
0.297475289899665
30
0
41
1
10
12.0163641324258
20
0.270283602922973
30
0
41
1
10
12.0070145220517
20
0.190006479105676
30
0
41
1
10
12.006144249733
20
0.137577753293556
30
0
41
1
10
12.0119812045397
20
0.0600934411138496
30
0
41
1
10
12.0151462059809
20
0.0343817194633402
30
0
41
1
10
12.023782162217
20
-0.0162427947223307
30
0
41
1
10
12.0292404556561
20
-0.0411391509599639
30
0
41
1
10
12.0358033701719
20
-0.0656523379785767
30
0
0
SPLINE
5
FD
100
AcDbEntity
8
1
62
256
6
ByLayer
370
18
48
1
60
0
100
AcDbSpline
70
4
71
3
72
24
73
20
40
0
40
0
40
0
40
0
40
0.0625000000000089
40
0.0625000000000089
40
0.125000000000018
40
0.125000000000018
40
0.249999999999967
40
0.249999999999967
40
0.312499999999971
40
0.312499999999971
40
0.374999999999976
40
0.374999999999976
40
0.499999999999979
40
0.499999999999979
40
0.624999999999982
40
0.624999999999982
40
0.749999999999985
40
0.749999999999985
40
1
40
1
40
1
40
1
41
1
10
11.8839292261822
20
-0.435681058339753
30
0
41
1
10
11.8920309464002
20
-0.430931337822415
30
0
41
1
10
11.9000021458144
20
-0.425789788986464
30
0
41
1
10
11.9154454022879
20
-0.414855321586003
30
0
41
1
10
11.9228700317238
20
-0.409100827774921
30
0
41
1
10
11.9442850882147
20
-0.391007056405016
30
0
41
1
10
11.9574225761121
20
-0.37784310533587
30
0
41
1
10
11.9754328145633
20
-0.356460372839763
30
0
41
1
10
11.9811576910429
20
-0.349043120920527
30
0
41
1
10
11.9918232500856
20
-0.333957018840209
30
0
41
1
10
11.9967948711017
20
-0.326254168516783
30
0
41
1
10
12.0106675669473
20
-0.302686561550274
30
0
41
1
10
12.0185330543155
20
-0.286365556066357
30
0
41
1
10
12.031542664147
20
-0.252537650041575
30
0
41
1
10
12.0365173974888
20
-0.235473394895962
30
0
41
1
10
12.0436763290703
20
-0.20110299775962
30
0
41
1
10
12.0458616435056
20
-0.183737058748022
30
0
41
1
10
12.0482915466331
20
-0.131669444130011
30
0
41
1
10
12.0444916283559
20
-0.0981039107084314
30
0
41
1
10
12.0358033701719
20
-0.0656523379785767
30
0
0
SPLINE
5
FE
100
AcDbEntity
8
1
62
256
6
ByLayer
370
18
48
1
60
0
100
AcDbSpline
70
4
71
3
72
24
73
20
40
0
40
0
40
0
40
0
40
0.124999999999998
40
0.124999999999998
40
0.187499999999957
40
0.187499999999957
40
0.249999999999917
40
0.249999999999917
40
0.374999999999923
40
0.374999999999923
40
0.49999999999993
40
0.49999999999993
40
0.624999999999937
40
0.624999999999937
40
0.687499999999985
40
0.687499999999985
40
0.750000000000034
40
0.750000000000034
40
1
40
1
40
1
40
1
41
1
10
9.89277544699183
20
-0.435681058339753
30
0
41
1
10
9.90940149401308
20
-0.445428257025298
30
0
41
1
10
9.92671408776738
20
-0.453635736689847
30
0
41
1
10
9.95369978037431
20
-0.463665763497659
30
0
41
1
10
9.96289970770545
20
-0.466635941295721
30
0
41
1
10
9.98149687141438
20
-0.471748549555144
30
0
41
1
10
9.99080325715025
20
-0.473869589266059
30
0
41
1
10
10.0187433707052
20
-0.478996344613023
30
0
41
1
10
10.0373979963433
20
-0.480774073826893
30
0
41
1
10
10.0747522785289
20
-0.481181503458345
30
0
41
1
10
10.0935912590134
20
-0.479760478004351
30
0
41
1
10
10.1297674415075
20
-0.473987294903083
30
0
41
1
10
10.14728281014
20
-0.469658624631393
30
0
41
1
10
10.1727412134055
20
-0.461152096391203
30
0
41
1
10
10.1810908344001
20
-0.457979139398731
30
0
41
1
10
10.1975162774382
20
-0.450962984469953
30
0
41
1
10
10.2056190811783
20
-0.447102851427275
30
0
41
1
10
10.2447682081076
20
-0.42648464130707
30
0
41
1
10
10.2722773222641
20
-0.405714152373548
30
0
41
1
10
10.2962346324198
20
-0.381082628088734
30
0
0
SPLINE
5
FF
100
AcDbEntity
8
1
62
256
6
ByLayer
370
18
48
1
60
0
100
AcDbSpline
70
4
71
3
72
18
73
14
40
0
40
0
40
0
40
0
40
0.25000000000004
40
0.25000000000004
40
0.375000000000093
40
0.375000000000093
40
0.437500000000087
40
0.437500000000087
40
0.500000000000081
40
0.500000000000081
40
0.750000000000041
40
0.750000000000041
40
1
40
1
40
1
40
1
41
1
10
10.7356110432106
20
-0.145237936299822
30
0
41
1
10
10.6911860537294
20
-0.15359702343514
30
0
41
1
10
10.6488236089038
20
-0.165305923863031
30
0
41
1
10
10.5878647386471
20
-0.187285299584659
30
0
41
1
10
10.567979523734
20
-0.195353982230756
30
0
41
1
10
10.5387671903436
20
-0.208540906246839
30
0
41
1
10
10.5291324931299
20
-0.213117474446989
30
0
41
1
10
10.5100644609778
20
-0.222630709004818
30
0
41
1
10
10.5006103067625
20
-0.227579124143858
30
0
41
1
10
10.4541435447094
20
-0.253049853143523
30
0
41
1
10
10.419518992732
20
-0.275716997467271
30
0
41
1
10
10.3546453612773
20
-0.325250529459737
30
0
41
1
10
10.3244031370628
20
-0.352121396561955
30
0
41
1
10
10.2962346324198
20
-0.381082628088762
30
0
0
SPLINE
5
100
100
AcDbEntity
8
1
62
256
6
ByLayer
370
18
48
1
60
0
100
AcDbSpline
70
4
71
3
72
24
73
20
40
0
40
0
40
0
40
0
40
0.250000000000021
40
0.250000000000021
40
0.312500000000065
40
0.312500000000065
40
0.375000000000109
40
0.375000000000109
40
0.500000000000106
40
0.500000000000106
40
0.625000000000104
40
0.625000000000104
40
0.750000000000102
40
0.750000000000102
40
0.812500000000056
40
0.812500000000056
40
0.875000000000011
40
0.875000000000011
40
1
40
1
40
1
40
1
41
1
10
11.4804700407542
20
-0.381082628088734
30
0
41
1
10
11.50442735091
20
-0.405714152373548
30
0
41
1
10
11.5319364650664
20
-0.42648464130707
30
0
41
1
10
11.5710855919958
20
-0.447102851427303
30
0
41
1
10
11.5791883957359
20
-0.450962984469982
30
0
41
1
10
11.595613838774
20
-0.457979139398759
30
0
41
1
10
11.6039634597686
20
-0.461152096391203
30
0
41
1
10
11.6294218630341
20
-0.469658624631393
30
0
41
1
10
11.6469372316665
20
-0.473987294903083
30
0
41
1
10
11.6831134141607
20
-0.479760478004351
30
0
41
1
10
11.7019523946452
20
-0.481181503458345
30
0
41
1
10
11.7393066768308
20
-0.480774073826893
30
0
41
1
10
11.7579613024688
20
-0.478996344613023
30
0
41
1
10
11.7859014160238
20
-0.473869589266059
30
0
41
1
10
11.7952078017597
20
-0.471748549555144
30
0
41
1
10
11.8138049654686
20
-0.466635941295721
30
0
41
1
10
11.8230048927998
20
-0.463665763497659
30
0
41
1
10
11.8499905854067
20
-0.453635736689847
30
0
41
1
10
11.867303179161
20
-0.445428257025298
30
0
41
1
10
11.8839292261822
20
-0.435681058339753
30
0
0
SPLINE
5
101
100
AcDbEntity
8
1
62
256
6
ByLayer
370
18
48
1
60
0
100
AcDbSpline
70
4
71
3
72
17
73
13
40
0
40
0
40
0
40
0
40
0.249999999999943
40
0.249999999999943
40
0.499999999999886
40
0.499999999999886
40
0.562499999999888
40
0.562499999999888
40
0.624999999999889
40
0.749999999999949
40
0.749999999999949
40
1
40
1
40
1
40
1
41
1
10
11.4804700407542
20
-0.381082628088734
30
0
41
1
10
11.4523046553965
20
-0.352124603631069
30
0
41
1
10
11.4220780944516
20
-0.325269058903615
30
0
41
1
10
11.3572740131998
20
-0.275780261633003
30
0
41
1
10
11.3227030317205
20
-0.253142707813055
30
0
41
1
10
11.2763408484433
20
-0.227710522612341
30
0
41
1
10
11.266887046398
20
-0.222757552036853
30
0
41
1
10
11.2477776127003
20
-0.213216358355396
30
0
41
1
10
11.2188143735348
20
-0.199450111527341
30
0
41
1
10
11.18893861333
20
-0.187323033451492
30
0
41
1
10
11.1279017245085
20
-0.165309076326821
30
0
41
1
10
11.0855105338538
20
-0.153595502035586
30
0
41
1
10
11.0410936299635
20
-0.145237936299822
30
0
0
SPLINE
5
102
100
AcDbEntity
8
1
62
256
6
ByLayer
370
18
48
1
60
0
100
AcDbSpline
70
4
71
3
72
34
73
30
40
0
40
0
40
0
40
0
40
0.124999999999993
40
0.124999999999993
40
0.18749999999999
40
0.18749999999999
40
0.21874999999999
40
0.21874999999999
40
0.24999999999999
40
0.24999999999999
40
0.374999999999984
40
0.374999999999984
40
0.406249999999983
40
0.406249999999983
40
0.437499999999982
40
0.499999999999984
40
0.562499999999986
40
0.562499999999986
40
0.624999999999987
40
0.624999999999987
40
0.687499999999989
40
0.687499999999989
40
0.749999999999991
40
0.749999999999991
40
0.874999999999995
40
0.874999999999995
40
0.937499999999997
40
0.937499999999997
40
1
40
1
40
1
40
1
41
1
10
9.74090130300215
20
-0.0656523379785767
30
0
41
1
10
9.75401787480828
20
-0.0166605406676865
30
0
41
1
10
9.76265015247768
20
0.0334450984190653
30
0
41
1
10
9.76856029698678
20
0.110602372460704
30
0
41
1
10
9.76934886022275
20
0.136657950117439
30
0
41
1
10
9.76862182722709
20
0.176327894609329
30
0
41
1
10
9.76805813743374
20
0.189679808530372
30
0
41
1
10
9.76626821347497
20
0.216453735899364
30
0
41
1
10
9.7650464350599
20
0.229832189940112
30
0
41
1
10
9.75728562064154
20
0.296694541905481
30
0
41
1
10
9.74586248830747
20
0.350089436499843
30
0
41
1
10
9.72411968685083
20
0.416911375450411
30
0
41
1
10
9.71938319154074
20
0.430296193223967
30
0
41
1
10
9.70928768814019
20
0.456647836993426
30
0
41
1
10
9.69316205125648
20
0.49570599295987
30
0
41
1
10
9.66142769625594
20
0.558486066620105
30
0
41
1
10
9.6308215329444
20
0.606224682577306
30
0
41
1
10
9.59750264413788
20
0.652669731548343
30
0
41
1
10
9.57988801663808
20
0.674686395264388
30
0
41
1
10
9.54290631781231
20
0.716449217024547
30
0
41
1
10
9.52353278625759
20
0.736202991331794
30
0
41
1
10
9.48306743148493
20
0.773560305328743
30
0
41
1
10
9.46189281369556
20
0.791206859398557
30
0
41
1
10
9.39736813071704
20
0.839873042875183
30
0
41
1
10
9.35257918175608
20
0.867139848374109
30
0
41
1
10
9.28278313155857
20
0.901292442721967
30
0
41
1
10
9.2590014913244
20
0.91156587395227
30
0
41
1
10
9.21096118158374
20
0.929719381196747
30
0
41
1
10
9.18672309635974
20
0.937602066524335
30
0
41
1
10
9.1622568964427
20
0.944338030453167
30
0
0
SPLINE
5
103
100
AcDbEntity
8
1
62
256
6
ByLayer
370
18
48
1
60
0
100
AcDbSpline
70
4
71
3
72
26
73
22
40
0
40
0
40
0
40
0
40
0.124999999999941
40
0.124999999999941
40
0.249999999999883
40
0.249999999999883
40
0.312499999999851
40
0.312499999999851
40
0.37499999999982
40
0.37499999999982
40
0.499999999999807
40
0.499999999999807
40
0.562499999999801
40
0.562499999999801
40
0.624999999999795
40
0.624999999999795
40
0.749999999999863
40
0.749999999999863
40
0.874999999999932
40
0.874999999999932
40
1
40
1
40
1
40
1
41
1
10
8.91985233658704
20
1.26250000000002
30
0
41
1
10
8.91985233658704
20
1.24375791612033
30
0
41
1
10
8.92148954108242
20
1.22470997587902
30
0
41
1
10
8.92786705590407
20
1.18782945414566
30
0
41
1
10
8.93257954492151
20
1.16985316252067
30
0
41
1
10
8.94188695048388
20
1.1435727694392
30
0
41
1
10
8.94538481149169
20
1.13488638943707
30
0
41
1
10
8.95301820635098
20
1.11801745238404
30
0
41
1
10
8.95715323732216
20
1.10982260448418
30
0
41
1
10
8.97047000717129
20
1.08592674818053
30
0
41
1
10
8.98055777409371
20
1.07091006307547
30
0
41
1
10
8.99744762950081
20
1.04972446059162
30
0
41
1
10
9.00335971920256
20
1.04290808143094
30
0
41
1
10
9.01555496474413
20
1.0299404104893
30
0
41
1
10
9.02186103980165
20
1.02375961722882
30
0
41
1
10
9.04137598381124
20
1.0060909177987
30
0
41
1
10
9.05517820892496
20
0.995471729028935
30
0
41
1
10
9.08430680334709
20
0.976498619053871
30
0
41
1
10
9.09937504240079
20
0.96831884119544
30
0
41
1
10
9.13023458888711
20
0.95447798017608
30
0
41
1
10
9.14605744709888
20
0.948798016344597
30
0
41
1
10
9.16225689644267
20
0.944338030453167
30
0
0
SPLINE
5
104
100
AcDbEntity
8
1
62
256
6
ByLayer
370
18
48
1
60
0
100
AcDbSpline
70
4
71
3
72
24
73
20
40
0
40
0
40
0
40
0
40
0.0625000000000121
40
0.0625000000000121
40
0.125000000000024
40
0.125000000000024
40
0.249999999999976
40
0.249999999999976
40
0.312499999999982
40
0.312499999999982
40
0.374999999999987
40
0.374999999999987
40
0.499999999999988
40
0.499999999999988
40
0.624999999999989
40
0.624999999999989
40
0.749999999999989
40
0.749999999999989
40
1
40
1
40
1
40
1
41
1
10
9.89277544699183
20
-0.435681058339753
30
0
41
1
10
9.88467372677388
20
-0.430931337822415
30
0
41
1
10
9.87670252735967
20
-0.425789788986464
30
0
41
1
10
9.86125927088614
20
-0.414855321586003
30
0
41
1
10
9.85383464145028
20
-0.409100827774921
30
0
41
1
10
9.83241958495938
20
-0.391007056405016
30
0
41
1
10
9.81928209706194
20
-0.37784310533587
30
0
41
1
10
9.80127185861079
20
-0.356460372839763
30
0
41
1
10
9.79554698213119
20
-0.349043120920527
30
0
41
1
10
9.78488142308851
20
-0.333957018840209
30
0
41
1
10
9.7799098020723
20
-0.326254168516783
30
0
41
1
10
9.7660371062268
20
-0.302686561550274
30
0
41
1
10
9.75817161885851
20
-0.286365556066357
30
0
41
1
10
9.74516200902707
20
-0.252537650041575
30
0
41
1
10
9.74018727568517
20
-0.235473394895962
30
0
41
1
10
9.73302834410373
20
-0.20110299775962
30
0
41
1
10
9.73084302966845
20
-0.183737058748022
30
0
41
1
10
9.72841312654094
20
-0.131669444130011
30
0
41
1
10
9.7322130448182
20
-0.0981039107084598
30
0
41
1
10
9.74090130300215
20
-0.0656523379785767
30
0
0
SPLINE
5
105
100
AcDbEntity
8
1
62
256
6
ByLayer
370
18
48
1
60
0
100
AcDbSpline
70
4
71
3
72
34
73
30
40
0
40
0
40
0
40
0
40
0.125000000000008
40
0.125000000000008
40
0.187499999999999
40
0.187499999999999
40
0.218749999999983
40
0.218749999999983
40
0.249999999999966
40
0.249999999999966
40
0.374999999999912
40
0.374999999999912
40
0.406249999999909
40
0.406249999999909
40
0.437499999999905
40
0.499999999999916
40
0.562499999999926
40
0.562499999999926
40
0.624999999999937
40
0.624999999999937
40
0.687499999999947
40
0.687499999999947
40
0.749999999999958
40
0.749999999999958
40
0.874999999999982
40
0.874999999999982
40
0.937499999999991
40
0.937499999999991
40
1
40
1
40
1
40
1
41
1
10
9.1622568964427
20
1.58066196954684
30
0
41
1
10
9.21115478400267
20
1.59412439558426
30
0
41
1
10
9.25874560989132
20
1.6120186520746
30
0
41
1
10
9.32829655009644
20
1.64594270749563
30
0
41
1
10
9.35117293569027
20
1.6584401462236
30
0
41
1
10
9.3850276140173
20
1.67913057817219
30
0
41
1
10
9.39626092534451
20
1.68636964646046
30
0
41
1
10
9.41845293286181
20
1.70145479578335
30
0
41
1
10
9.42937630694098
20
1.70927500395948
30
0
41
1
10
9.4831319017625
20
1.74978599049112
30
0
41
1
10
9.52341719173273
20
1.78664515702249
30
0
41
1
10
9.57006648106722
20
1.83919765776827
30
0
41
1
10
9.57921776265965
20
1.85005315220082
30
0
41
1
10
9.59684489517619
20
1.8720897675602
30
0
41
1
10
9.62238388782151
20
1.9057548145305
30
0
41
1
10
9.66049333944108
20
1.96488244383099
30
0
41
1
10
9.68619692766936
20
2.0154298677765
30
0
41
1
10
9.70941287388439
20
2.06766310638835
30
0
41
1
10
9.71949748773199
20
2.09399386630506
30
0
41
1
10
9.73682169826435
20
2.14701886991409
30
0
41
1
10
9.74406459670286
20
2.17372253564474
30
0
41
1
10
9.75582640116698
20
2.22752471010037
30
0
41
1
10
9.76034054074819
20
2.25471639707703
30
0
41
1
10
9.76969015112238
20
2.33499352089436
30
0
41
1
10
9.77056042344105
20
2.38742224670645
30
0
41
1
10
9.76472346863429
20
2.46490655888616
30
0
41
1
10
9.76155846719308
20
2.49061828053669
30
0
41
1
10
9.75292251095709
20
2.54124279472236
30
0
41
1
10
9.74746421751792
20
2.56613915096
30
0
41
1
10
9.74090130300215
20
2.59065233797858
30
0
0
SPLINE
5
106
100
AcDbEntity
8
1
62
256
6
ByLayer
370
18
48
1
60
0
100
AcDbSpline
70
4
71
3
72
24
73
20
40
0
40
0
40
0
40
0
40
0.0625000000000076
40
0.0625000000000076
40
0.125000000000015
40
0.125000000000015
40
0.249999999999969
40
0.249999999999969
40
0.312499999999974
40
0.312499999999974
40
0.374999999999978
40
0.374999999999978
40
0.499999999999983
40
0.499999999999983
40
0.624999999999988
40
0.624999999999988
40
0.749999999999992
40
0.749999999999992
40
1
40
1
40
1
40
1
41
1
10
9.89277544699183
20
2.96068105833979
30
0
41
1
10
9.88467372677391
20
2.95593133782242
30
0
41
1
10
9.87670252735967
20
2.95078978898647
30
0
41
1
10
9.86125927088614
20
2.93985532158604
30
0
41
1
10
9.85383464145028
20
2.93410082777496
30
0
41
1
10
9.83241958495938
20
2.91600705640505
30
0
41
1
10
9.81928209706194
20
2.90284310533588
30
0
41
1
10
9.80127185861082
20
2.8814603728398
30
0
41
1
10
9.79554698213121
20
2.87404312092056
30
0
41
1
10
9.78488142308851
20
2.85895701884021
30
0
41
1
10
9.7799098020723
20
2.85125416851679
30
0
41
1
10
9.76603710622678
20
2.82768656155028
30
0
41
1
10
9.75817161885851
20
2.81136555606636
30
0
41
1
10
9.7451620090271
20
2.77753765004161
30
0
41
1
10
9.74018727568523
20
2.760473394896
30
0
41
1
10
9.73302834410373
20
2.72610299775965
30
0
41
1
10
9.73084302966839
20
2.70873705874803
30
0
41
1
10
9.72841312654097
20
2.65666944413005
30
0
41
1
10
9.7322130448182
20
2.62310391070847
30
0
41
1
10
9.74090130300215
20
2.59065233797858
30
0
0
SPLINE
5
107
100
AcDbEntity
8
1
62
256
6
ByLayer
370
18
48
1
60
0
100
AcDbSpline
70
4
71
3
72
26
73
22
40
0
40
0
40
0
40
0
40
0.250000000000275
40
0.250000000000275
40
0.312500000000322
40
0.312500000000322
40
0.375000000000369
40
0.375000000000369
40
0.50000000000039
40
0.50000000000039
40
0.562500000000372
40
0.562500000000372
40
0.625000000000354
40
0.625000000000354
40
0.750000000000259
40
0.750000000000259
40
0.812500000000191
40
0.812500000000191
40
0.875000000000123
40
0.875000000000123
40
1
40
1
40
1
40
1
41
1
10
9.1622568964427
20
1.58066196954684
30
0
41
1
10
9.12977530323798
20
1.57171923054693
30
0
41
1
10
9.09888864685513
20
1.55798763225906
30
0
41
1
10
9.06255381926525
20
1.53433533882904
30
0
41
1
10
9.05537487916286
20
1.52924950677314
30
0
41
1
10
9.04149294202648
20
1.51855300917634
30
0
41
1
10
9.0347707421401
20
1.51293339907116
30
0
41
1
10
9.01526561027799
20
1.49525950334933
30
0
41
1
10
9.00313952795057
20
1.48239578411682
30
0
41
1
10
8.98636292983787
20
1.46138105486796
30
0
41
1
10
8.9810072193938
20
1.45408831060908
30
0
41
1
10
8.97080077055062
20
1.43889161344384
30
0
41
1
10
8.96599022368275
20
1.43104117071127
30
0
41
1
10
8.95262784364849
20
1.40704377283811
30
0
41
1
10
8.94505543254229
20
1.39033349964961
30
0
41
1
10
8.93576835673568
20
1.36417051041337
30
0
41
1
10
8.93301960500429
20
1.35526567009646
30
0
41
1
10
8.92825064248311
20
1.33707076974326
30
0
41
1
10
8.92623781108244
20
1.32778459894993
30
0
41
1
10
8.92144875287363
20
1.29998127685258
30
0
41
1
10
8.91985233658704
20
1.28130895329002
30
0
41
1
10
8.91985233658704
20
1.26250000000002
30
0
0
SPLINE
5
108
100
AcDbEntity
8
1
62
256
6
ByLayer
370
18
48
1
60
0
100
AcDbSpline
70
4
71
3
72
17
73
13
40
0
40
0
40
0
40
0
40
0.25000000000004
40
0.25000000000004
40
0.50000000000008
40
0.50000000000008
40
0.562500000000077
40
0.562500000000077
40
0.625000000000075
40
0.750000000000073
40
0.750000000000073
40
1
40
1
40
1
40
1
41
1
10
10.2962346324198
20
2.90608262808877
30
0
41
1
10
10.3244000177776
20
2.87712460363116
30
0
41
1
10
10.3546265787224
20
2.85026905890371
30
0
41
1
10
10.419430659974
20
2.80078026163318
30
0
41
1
10
10.4540016414533
20
2.77814270781326
30
0
41
1
10
10.5003638247304
20
2.75271052261257
30
0
41
1
10
10.5098176267757
20
2.74775755203706
30
0
41
1
10
10.5289270604734
20
2.7382163583556
30
0
41
1
10
10.5578902996388
20
2.72445011152757
30
0
41
1
10
10.5877660598436
20
2.7123230334517
30
0
41
1
10
10.6488029486652
20
2.69030907632694
30
0
41
1
10
10.69119413932
20
2.67859550203565
30
0
41
1
10
10.7356110432106
20
2.67023793629983
30
0
0
SPLINE
5
109
100
AcDbEntity
8
1
62
256
6
ByLayer
370
18
48
1
60
0
100
AcDbSpline
70
4
71
3
72
18
73
14
40
0
40
0
40
0
40
0
40
0.250000000000032
40
0.250000000000032
40
0.375000000000049
40
0.375000000000049
40
0.437500000000057
40
0.437500000000057
40
0.500000000000065
40
0.500000000000065
40
0.750000000000032
40
0.750000000000032
40
1
40
1
40
1
40
1
41
1
10
11.0410936299635
20
2.67023793629983
30
0
41
1
10
11.0855186194444
20
2.67859702343509
30
0
41
1
10
11.1278810642698
20
2.69030592386292
30
0
41
1
10
11.1888399345267
20
2.71228529958458
30
0
41
1
10
11.2087251494399
20
2.72035398223071
30
0
41
1
10
11.2379374828305
20
2.73354090624687
30
0
41
1
10
11.2475721800442
20
2.73811747444705
30
0
41
1
10
11.2666402121965
20
2.74763070900497
30
0
41
1
10
11.2760943664118
20
2.75257912414406
30
0
41
1
10
11.3225611284647
20
2.77804985314361
30
0
41
1
10
11.3571856804421
20
2.80071699746731
30
0
41
1
10
11.4220593118967
20
2.85025052945971
30
0
41
1
10
11.4523015361112
20
2.87712139656193
30
0
41
1
10
11.4804700407542
20
2.90608262808877
30
0
0
SPLINE
5
10A
100
AcDbEntity
8
1
62
256
6
ByLayer
370
18
48
1
60
0
100
AcDbSpline
70
4
71
3
72
24
73
20
40
0
40
0
40
0
40
0
40
0.125000000000053
40
0.125000000000053
40
0.187500000000037
40
0.187500000000037
40
0.25000000000002
40
0.25000000000002
40
0.375000000000079
40
0.375000000000079
40
0.500000000000137
40
0.500000000000137
40
0.625000000000196
40
0.625000000000196
40
0.687500000000189
40
0.687500000000189
40
0.750000000000182
40
0.750000000000182
40
1
40
1
40
1
40
1
41
1
10
11.8839292261822
20
2.96068105833979
30
0
41
1
10
11.867303179161
20
2.97042825702533
30
0
41
1
10
11.8499905854067
20
2.97863573668985
30
0
41
1
10
11.8230048927997
20
2.98866576349769
30
0
41
1
10
11.8138049654686
20
2.99163594129573
30
0
41
1
10
11.7952078017597
20
2.99674854955515
30
0
41
1
10
11.7859014160238
20
2.99886958926609
30
0
41
1
10
11.7579613024689
20
3.00399634461306
30
0
41
1
10
11.7393066768308
20
3.0057740738269
30
0
41
1
10
11.7019523946451
20
3.00618150345835
30
0
41
1
10
11.6831134141606
20
3.00476047800439
30
0
41
1
10
11.6469372316665
20
2.99898729490309
30
0
41
1
10
11.6294218630341
20
2.99465862463143
30
0
41
1
10
11.6039634597686
20
2.98615209639124
30
0
41
1
10
11.595613838774
20
2.98297913939876
30
0
41
1
10
11.5791883957359
20
2.97596298446999
30
0
41
1
10
11.5710855919958
20
2.97210285142731
30
0
41
1
10
11.5319364650664
20
2.95148464130708
30
0
41
1
10
11.50442735091
20
2.93071415237355
30
0
41
1
10
11.4804700407542
20
2.90608262808877
30
0
0
SPLINE
5
10B
100
AcDbEntity
8
1
62
256
6
ByLayer
370
18
48
1
60
0
100
AcDbSpline
70
4
71
3
72
24
73
20
40
0
40
0
40
0
40
0
40
0.249999999999805
40
0.249999999999805
40
0.312499999999795
40
0.312499999999795
40
0.374999999999785
40
0.374999999999785
40
0.499999999999845
40
0.499999999999845
40
0.624999999999905
40
0.624999999999905
40
0.749999999999965
40
0.749999999999965
40
0.812499999999954
40
0.812499999999954
40
0.874999999999942
40
0.874999999999942
40
1
40
1
40
1
40
1
41
1
10
10.2962346324198
20
2.90608262808877
30
0
41
1
10
10.2722773222641
20
2.93071415237355
30
0
41
1
10
10.2447682081076
20
2.95148464130708
30
0
41
1
10
10.2056190811783
20
2.97210285142731
30
0
41
1
10
10.1975162774381
20
2.97596298446999
30
0
41
1
10
10.1810908344
20
2.98297913939876
30
0
41
1
10
10.1727412134055
20
2.98615209639124
30
0
41
1
10
10.14728281014
20
2.99465862463143
30
0
41
1
10
10.1297674415076
20
2.99898729490309
30
0
41
1
10
10.0935912590134
20
3.00476047800439
30
0
41
1
10
10.0747522785289
20
3.00618150345835
30
0
41
1
10
10.0373979963432
20
3.0057740738269
30
0
41
1
10
10.0187433707052
20
3.00399634461306
30
0
41
1
10
9.99080325715028
20
2.99886958926609
30
0
41
1
10
9.98149687141438
20
2.99674854955515
30
0
41
1
10
9.96289970770545
20
2.99163594129573
30
0
41
1
10
9.95369978037428
20
2.98866576349769
30
0
41
1
10
9.92671408776732
20
2.97863573668985
30
0
41
1
10
9.90940149401303
20
2.97042825702533
30
0
41
1
10
9.89277544699183
20
2.96068105833979
30
0
0
LINE
5
7F
100
AcDbEntity
8
81
62
256
6
ByLayer
370
18
48
1
60
0
100
AcDbLine
10
32.288352
20
9.0625
30
0
11
37.288352
21
9.0625
31
0
39
0
210
0
220
0
230
1
0
LINE
5
80
100
AcDbEntity
8
80
62
256
6
ByLayer
370
18
48
1
60
0
100
AcDbLine
10
0
20
0
30
0
11
-5
21
0
31
0
39
0
210
0
220
0
230
1
0
LINE
5
81
100
AcDbEntity
8
1
62
256
6
ByLayer
370
18
48
1
60
0
100
AcDbLine
10
0
20
8.51149
30
0
11
0
21
-7.939338
31
0
39
0
210
0
220
0
230
1
0
LINE
5
82
100
AcDbEntity
8
1
62
256
6
ByLayer
370
18
48
1
60
0
100
AcDbLine
10
0.481918
20
8.8125
30
0
11
0.198592
21
8.8125
31
0
39
0
210
0
220
0
230
1
0
LINE
5
83
100
AcDbEntity
8
1
62
256
6
ByLayer
370
18
48
1
60
0
100
AcDbLine
10
25.67113
20
7.3125
30
0
11
22.538352
21
7.3125
31
0
39
0
210
0
220
0
230
1
0
LINE
5
84
100
AcDbEntity
8
1
62
256
6
ByLayer
370
18
48
1
60
0
100
AcDbLine
10
22.538352
20
8.8125
30
0
11
25.67113
21
8.8125
31
0
39
0
210
0
220
0
230
1
0
LINE
5
85
100
AcDbEntity
8
1
62
256
6
ByLayer
370
18
48
1
60
0
100
AcDbLine
10
26.038352
20
8.111319
30
0
11
26.038352
21
8.013681
31
0
39
0
210
0
220
0
230
1
0
LINE
5
86
100
AcDbEntity
8
1
62
256
6
ByLayer
370
18
48
1
60
0
100
AcDbLine
10
15.688352
20
5.7125
30
0
11
15.688352
21
-1.802643
31
0
39
0
210
0
220
0
230
1
0
LINE
5
87
100
AcDbEntity
8
1
62
256
6
ByLayer
370
18
48
1
60
0
100
AcDbLine
10
2.116799
20
-7.970334
30
0
11
8.047677
21
-7.970334
31
0
39
0
210
0
220
0
230
1
0
LINE
5
88
100
AcDbEntity
8
1
62
256
6
ByLayer
370
18
48
1
60
0
100
AcDbLine
10
15.688352
20
-1.802643
30
0
11
8.047677
21
-7.970334
31
0
39
0
210
0
220
0
230
1
0
LINE
5
89
100
AcDbEntity
8
1
62
256
6
ByLayer
370
18
48
1
60
0
100
AcDbLine
10
17.682649
20
7.3125
30
0
11
17.288352
21
7.3125
31
0
39
0
210
0
220
0
230
1
0
LINE
5
8A
100
AcDbEntity
8
1
62
256
6
ByLayer
370
18
48
1
60
0
100
AcDbLine
10
17.682649
20
8.8125
30
0
11
2.116799
21
8.8125
31
0
39
0
210
0
220
0
230
1
0
LINE
5
8B
100
AcDbEntity
8
1
62
256
6
ByLayer
370
18
48
1
60
0
100
AcDbLine
10
0.481918
20
-7.943711
30
0
11
2.116799
21
-7.970334
31
0
39
0
210
0
220
0
230
1
0
LINE
5
8C
100
AcDbEntity
8
1
62
256
6
ByLayer
370
18
48
1
60
0
100
AcDbLine
10
2.116799
20
8.8125
30
0
11
0.481918
21
8.8125
31
0
39
0
210
0
220
0
230
1
0
LINE
5
8D
100
AcDbEntity
8
1
62
256
6
ByLayer
370
13
48
1
60
0
100
AcDbLine
10
0.481918
20
-7.943711
30
0
11
0.481918
21
8.8125
31
0
39
0
210
0
220
0
230
1
0
LINE
5
8E
100
AcDbEntity
8
1
62
256
6
ByLayer
370
18
48
1
60
0
100
AcDbLine
10
2.116799
20
8.8125
30
0
11
2.116799
21
-7.970334
31
0
39
0
210
0
220
0
230
1
0
LINE
5
8F
100
AcDbEntity
8
1
62
256
6
ByLayer
370
18
48
1
60
0
100
AcDbLine
10
22.538352
20
7.3125
30
0
11
17.682649
21
7.3125
31
0
39
0
210
0
220
0
230
1
0
LINE
5
90
100
AcDbEntity
8
1
62
256
6
ByLayer
370
18
48
1
60
0
100
AcDbLine
10
22.538352
20
8.8125
30
0
11
22.538352
21
7.3125
31
0
39
0
210
0
220
0
230
1
0
LINE
5
91
100
AcDbEntity
8
1
62
256
6
ByLayer
370
18
48
1
60
0
100
AcDbLine
10
17.682649
20
8.8125
30
0
11
22.538352
21
8.8125
31
0
39
0
210
0
220
0
230
1
0
LINE
5
92
100
AcDbEntity
8
1
62
256
6
ByLayer
370
18
48
1
60
0
100
AcDbLine
10
17.682649
20
7.3125
30
0
11
17.682649
21
8.8125
31
0
39
0
210
0
220
0
230
1
0
LINE
5
93
100
AcDbEntity
8
SK1
62
256
6
ByLayer
370
18
48
1
60
0
100
AcDbLine
10
-92.711648
20
-7.9375
30
0
11
-4.455467
21
-7.9375
31
0
39
0
210
0
220
0
230
1
0
LINE
5
95
100
AcDbEntity
8
SK1
62
256
6
ByLayer
370
18
48
1
60
0
100
AcDbLine
10
-92.711648
20
7.9375
30
0
11
-4.455467
21
7.9375
31
0
39
0
210
0
220
0
230
1
0
LINE
5
96
100
AcDbEntity
8
SK1
62
256
6
ByLayer
370
18
48
1
60
0
100
AcDbLine
10
-92.711648
20
-7.9375
30
0
11
-92.711648
21
7.9375
31
0
39
0
210
0
220
0
230
1
0
LINE
5
97
100
AcDbEntity
8
SK1
62
256
6
ByLayer
370
18
48
1
60
0
100
AcDbLine
10
0
20
8.51149
30
0
11
0
21
-7.939338
31
0
39
0
210
0
220
0
230
1
0
LINE
5
98
100
AcDbEntity
8
SK1
62
256
6
ByLayer
370
18
48
1
60
0
100
AcDbLine
10
-4.455467
20
7.9375
30
0
11
-1.227723
21
7.9375
31
0
39
0
210
0
220
0
230
1
0
LINE
5
99
100
AcDbEntity
8
SK1
62
256
6
ByLayer
370
18
48
1
60
0
100
AcDbLine
10
-4.455467
20
7.9375
30
0
11
-4.455467
21
-7.9375
31
0
39
0
210
0
220
0
230
1
0
LINE
5
9A
100
AcDbEntity
8
1
62
256
6
ByLayer
370
18
48
1
60
0
100
AcDbLine
10
12.732546
20
9.057742
30
0
11
13.754974
21
8.995208
31
0
39
0
210
0
220
0
230
1
0
LINE
5
9B
100
AcDbEntity
8
1
62
256
6
ByLayer
370
18
48
1
60
0
100
AcDbLine
10
12.288352
20
8.812476
30
0
11
12.288352
21
8.865203
31
0
39
0
210
0
220
0
230
1
0
LINE
5
9C
100
AcDbEntity
8
1
62
256
6
ByLayer
370
18
48
1
60
0
100
AcDbLine
10
31.844158
20
9.057742
30
0
11
30.821731
21
8.995208
31
0
39
0
210
0
220
0
230
1
0
LINE
5
9D
100
AcDbEntity
8
1
62
256
6
ByLayer
370
18
48
1
60
0
100
AcDbLine
10
30.821731
20
7.129792
30
0
11
31.844158
21
7.067258
31
0
39
0
210
0
220
0
230
1
0
LINE
5
9E
100
AcDbEntity
8
1
62
256
6
ByLayer
370
18
48
1
60
0
100
AcDbLine
10
32.288352
20
7.259797
30
0
11
32.288352
21
8.865203
31
0
39
0
210
0
220
0
230
1
0
LINE
5
9F
100
AcDbEntity
8
1
62
256
6
ByLayer
370
18
48
1
60
0
100
AcDbLine
10
30.263973
20
8.987621
30
0
11
30.221174
21
8.978575
31
0
39
0
210
0
220
0
230
1
0
LINE
5
A0
100
AcDbEntity
8
1
62
256
6
ByLayer
370
18
48
1
60
0
100
AcDbLine
10
30.221174
20
7.146425
30
0
11
30.263973
21
7.137379
31
0
39
0
210
0
220
0
230
1
0
LINE
5
A1
100
AcDbEntity
8
1
62
256
6
ByLayer
370
18
48
1
60
0
100
AcDbLine
10
30.30388
20
7.133102
30
0
11
30.821731
21
7.129792
31
0
39
0
210
0
220
0
230
1
0
LINE
5
A2
100
AcDbEntity
8
1
62
256
6
ByLayer
370
18
48
1
60
0
100
AcDbLine
10
30.821731
20
7.129792
30
0
11
30.821731
21
8.995208
31
0
39
0
210
0
220
0
230
1
0
LINE
5
A3
100
AcDbEntity
8
1
62
256
6
ByLayer
370
18
48
1
60
0
100
AcDbLine
10
30.821731
20
8.995208
30
0
11
30.30388
21
8.991898
31
0
39
0
210
0
220
0
230
1
0
LINE
5
A4
100
AcDbEntity
8
1
62
256
6
ByLayer
370
18
48
1
60
0
100
AcDbLine
10
14.312731
20
8.987621
30
0
11
14.35553
21
8.978575
31
0
39
0
210
0
220
0
230
1
0
LINE
5
A5
100
AcDbEntity
8
1
62
256
6
ByLayer
370
18
48
1
60
0
100
AcDbLine
10
13.754974
20
8.812485
30
0
11
13.754974
21
8.995208
31
0
39
0
210
0
220
0
230
1
0
LINE
5
A6
100
AcDbEntity
8
1
62
256
6
ByLayer
370
18
48
1
60
0
100
AcDbLine
10
13.754974
20
8.995208
30
0
11
14.272825
21
8.991898
31
0
39
0
210
0
220
0
230
1
0
LINE
5
A7
100
AcDbEntity
8
1
62
256
6
ByLayer
370
13
48
1
60
0
100
AcDbLine
10
29.204366
20
8.0625
30
0
11
26.038345
21
8.0625
31
0
39
0
210
0
220
0
230
1
0
LINE
5
A8
100
AcDbEntity
8
1
62
256
6
ByLayer
370
13
48
1
60
0
100
AcDbLine
10
25.941008
20
8.259835
30
0
11
28.5543
21
8.259835
31
0
39
0
210
0
220
0
230
1
0
LINE
5
A9
100
AcDbEntity
8
1
62
256
6
ByLayer
370
13
48
1
60
0
100
AcDbLine
10
28.5543
20
7.865165
30
0
11
25.941008
21
7.865165
31
0
39
0
210
0
220
0
230
1
0
LINE
5
AA
100
AcDbEntity
8
1
62
256
6
ByLayer
370
13
48
1
60
0
100
AcDbLine
10
25.933902
20
8.263256
30
0
11
28.510091
21
8.263256
31
0
39
0
210
0
220
0
230
1
0
LINE
5
AB
100
AcDbEntity
8
1
62
256
6
ByLayer
370
13
48
1
60
0
100
AcDbLine
10
25.933902
20
7.861744
30
0
11
28.510091
21
7.861744
31
0
39
0
210
0
220
0
230
1
0
LINE
5
AC
100
AcDbEntity
8
1
62
256
6
ByLayer
370
13
48
1
60
0
100
AcDbLine
10
25.82985
20
7.811476
30
0
11
27.922633
21
7.811476
31
0
39
0
210
0
220
0
230
1
0
LINE
5
AD
100
AcDbEntity
8
1
62
256
6
ByLayer
370
13
48
1
60
0
100
AcDbLine
10
25.82985
20
8.313524
30
0
11
27.922633
21
8.313524
31
0
39
0
210
0
220
0
230
1
0
LINE
5
AE
100
AcDbEntity
8
1
62
256
6
ByLayer
370
13
48
1
60
0
100
AcDbLine
10
25.792652
20
8.430498
30
0
11
27.414876
21
8.430498
31
0
39
0
210
0
220
0
230
1
0
LINE
5
AF
100
AcDbEntity
8
1
62
256
6
ByLayer
370
13
48
1
60
0
100
AcDbLine
10
25.792652
20
7.694502
30
0
11
27.414876
21
7.694502
31
0
39
0
210
0
220
0
230
1
0
LINE
5
B0
100
AcDbEntity
8
1
62
256
6
ByLayer
370
13
48
1
60
0
100
AcDbLine
10
26.991023
20
8.688484
30
0
11
25.710574
21
8.688484
31
0
39
0
210
0
220
0
230
1
0
LINE
5
B1
100
AcDbEntity
8
1
62
256
6
ByLayer
370
18
48
1
60
0
100
AcDbLine
10
17.625138
20
7.2625
30
0
11
26.951567
21
7.2625
31
0
39
0
210
0
220
0
230
1
0
LINE
5
B2
100
AcDbEntity
8
1
62
256
6
ByLayer
370
18
48
1
60
0
100
AcDbLine
10
26.951567
20
8.8625
30
0
11
17.625138
21
8.8625
31
0
39
0
210
0
220
0
230
1
0
LINE
5
B3
100
AcDbEntity
8
1
62
256
6
ByLayer
370
13
48
1
60
0
100
AcDbLine
10
25.69483
20
8.737938
30
0
11
26.951567
21
8.737938
31
0
39
0
210
0
220
0
230
1
0
LINE
5
B4
100
AcDbEntity
8
1
62
256
6
ByLayer
370
13
48
1
60
0
100
AcDbLine
10
25.710574
20
7.436516
30
0
11
26.991023
21
7.436516
31
0
39
0
210
0
220
0
230
1
0
LINE
5
B5
100
AcDbEntity
8
1
62
256
6
ByLayer
370
13
48
1
60
0
100
AcDbLine
10
26.951567
20
7.387062
30
0
11
25.69483
21
7.387062
31
0
39
0
210
0
220
0
230
1
0
LINE
5
B6
100
AcDbEntity
8
1
62
256
6
ByLayer
370
18
48
1
60
0
100
AcDbLine
10
30.221174
20
8.978575
30
0
11
29.875874
21
8.8927
31
0
39
0
210
0
220
0
230
1
0
LINE
5
B7
100
AcDbEntity
8
1
62
256
6
ByLayer
370
18
48
1
60
0
100
AcDbLine
10
26.951567
20
8.8625
30
0
11
29.628245
21
8.8625
31
0
39
0
210
0
220
0
230
1
0
LINE
5
B8
100
AcDbEntity
8
1
62
256
6
ByLayer
370
18
48
1
60
0
100
AcDbLine
10
26.951567
20
8.8625
30
0
11
26.951567
21
8.737938
31
0
39
0
210
0
220
0
230
1
0
LINE
5
B9
100
AcDbEntity
8
1
62
256
6
ByLayer
370
18
48
1
60
0
100
AcDbLine
10
26.991023
20
8.688484
30
0
11
27.414876
21
8.430498
31
0
39
0
210
0
220
0
230
1
0
LINE
5
BA
100
AcDbEntity
8
1
62
256
6
ByLayer
370
18
48
1
60
0
100
AcDbLine
10
28.510091
20
8.263256
30
0
11
28.5543
21
8.259835
31
0
39
0
210
0
220
0
230
1
0
LINE
5
BB
100
AcDbEntity
8
1
62
256
6
ByLayer
370
18
48
1
60
0
100
AcDbLine
10
28.5543
20
7.865165
30
0
11
28.510091
21
7.861744
31
0
39
0
210
0
220
0
230
1
0
LINE
5
BC
100
AcDbEntity
8
1
62
256
6
ByLayer
370
18
48
1
60
0
100
AcDbLine
10
27.414876
20
7.694502
30
0
11
26.991023
21
7.436516
31
0
39
0
210
0
220
0
230
1
0
LINE
5
BD
100
AcDbEntity
8
1
62
256
6
ByLayer
370
18
48
1
60
0
100
AcDbLine
10
26.951567
20
7.387062
30
0
11
26.951567
21
7.2625
31
0
39
0
210
0
220
0
230
1
0
LINE
5
BE
100
AcDbEntity
8
1
62
256
6
ByLayer
370
18
48
1
60
0
100
AcDbLine
10
29.628245
20
7.2625
30
0
11
26.951567
21
7.2625
31
0
39
0
210
0
220
0
230
1
0
LINE
5
BF
100
AcDbEntity
8
1
62
256
6
ByLayer
370
18
48
1
60
0
100
AcDbLine
10
29.875874
20
7.2323
30
0
11
30.221174
21
7.146425
31
0
39
0
210
0
220
0
230
1
0
LINE
5
C0
100
AcDbEntity
8
1
62
256
6
ByLayer
370
18
48
1
60
0
100
AcDbLine
10
30.221174
20
7.146425
30
0
11
30.221174
21
8.978575
31
0
39
0
210
0
220
0
230
1
0
LINE
5
C1
100
AcDbEntity
8
1
62
256
6
ByLayer
370
18
48
1
60
0
100
AcDbLine
10
14.35553
20
8.812479
30
0
11
14.35553
21
8.978575
31
0
39
0
210
0
220
0
230
1
0
LINE
5
C2
100
AcDbEntity
8
1
62
256
6
ByLayer
370
18
48
1
60
0
100
AcDbLine
10
16.891477
20
7.2625
30
0
11
17.625138
21
7.2625
31
0
39
0
210
0
220
0
230
1
0
LINE
5
C3
100
AcDbEntity
8
1
62
256
6
ByLayer
370
18
48
1
60
0
100
AcDbLine
10
17.625138
20
7.312502
30
0
11
17.625138
21
7.2625
31
0
39
0
210
0
220
0
230
1
0
LINE
5
C4
100
AcDbEntity
8
1
62
256
6
ByLayer
370
18
48
1
60
0
100
AcDbLine
10
17.625138
20
8.8625
30
0
11
17.625138
21
8.812498
31
0
39
0
210
0
220
0
230
1
0
LINE
5
C5
100
AcDbEntity
8
1
62
256
6
ByLayer
370
18
48
1
60
0
100
AcDbLine
10
17.625138
20
8.8625
30
0
11
14.948459
21
8.8625
31
0
39
0
210
0
220
0
230
1
0
LINE
5
C6
100
AcDbEntity
8
1
62
256
6
ByLayer
370
18
48
1
60
0
100
AcDbLine
10
14.35553
20
8.978575
30
0
11
14.700831
21
8.8927
31
0
39
0
210
0
220
0
230
1
0
MTEXT
5
10C
100
AcDbEntity
8
SK6
62
256
6
ByLayer
370
18
48
1
60
0
100
AcDbMText
10
-62.526148
20
-53.664295
30
0
210
0
220
0
230
1
1
\W0.7378;C2R-RS16-RE15DB
40
3.5
41
0
44
1.084337
50
0
71
7
72
5
7
iso_b_vert
0
DIMENSION
5
111
100
AcDbEntity
8
2
62
256
6
ByLayer
370
18
48
1
60
0
100
AcDbDimension
2
_U0
10
60.038352
20
-7.9375
30
0
11
60.038352
21
0.5625
31
0
70
32
71
1
72
1
41
1
210
0
220
0
230
1
3
Standard
100
AcDbAlignedDimension
13
32.288352
23
9.0625
33
0
14
-92.711648
24
-7.9375
34
0
50
90
100
AcDbRotatedDimension
1001
ACAD
1000
DSTYLE
1002
{
1070
   371
1070
    13
1070
   372
1070
    13
1070
   170
1070
     0
1070
   144
1040
1.0
1070
   277
1070
     2
1070
   284
1070
     8
1070
   278
1070
    46
1070
   146
1040
1.0
1070
   345
1005
16
1070
   347
1005
16
1070
   346
1005
16
1070
   344
1005
0
1070
   343
1005
0
1070
   172
1070
     1
1070
    76
1070
     0
1070
    75
1070
     0
1070
   282
1070
     0
1070
   281
1070
     0
1070
    71
1070
     0
1070
    74
1070
     0
1070
   279
1070
     0
1070
   173
1070
     1
1070
   340
1005
10D
1070
   271
1070
     2
1070
   272
1070
     2
1070
    77
1070
     1
1070
    73
1070
     0
1070
   171
1070
     3
1070
   274
1070
     4
1070
   177
1070
     2
1070
   176
1070
     2
1070
   178
1070
     2
1070
    78
1070
     8
1070
    48
1040
-0.1
1070
    41
1040
3.5
1070
   147
1040
1.75
1070
    42
1040
1.5875
1070
    44
1040
2.0
1070
   140
1040
3.5
1002
}
1001
ACAD_DSTYLE_DIM_LINETYPE
1070
   380
1005
16
1001
ACAD_DSTYLE_DIM_EXT1_LINETYPE
1070
   381
1005
16
1001
ACAD_DSTYLE_DIM_EXT2_LINETYPE
1070
   382
1005
16
0
DIMENSION
5
12C
100
AcDbEntity
8
2
62
256
6
ByLayer
370
18
48
1
60
0
100
AcDbDimension
2
_U1
10
52.388352
20
9.0625
30
0
11
52.388352
21
8.0625
31
0
70
32
71
1
72
1
41
1
210
0
220
0
230
1
3
Standard
100
AcDbAlignedDimension
13
32.288352
23
7.0625
33
0
14
32.288352
24
9.0625
34
0
50
90
100
AcDbRotatedDimension
1001
ACAD
1000
DSTYLE
1002
{
1070
   371
1070
    13
1070
   372
1070
    13
1070
   170
1070
     0
1070
   144
1040
1.0
1070
   277
1070
     2
1070
   284
1070
     8
1070
   278
1070
    46
1070
   146
1040
1.0
1070
   345
1005
16
1070
   347
1005
16
1070
   346
1005
16
1070
   344
1005
0
1070
   343
1005
0
1070
   172
1070
     1
1070
    76
1070
     0
1070
    75
1070
     0
1070
   282
1070
     0
1070
   281
1070
     0
1070
    71
1070
     0
1070
    74
1070
     0
1070
   279
1070
     0
1070
   173
1070
     1
1070
   340
1005
10D
1070
   271
1070
     2
1070
   272
1070
     2
1070
    77
1070
     1
1070
    73
1070
     0
1070
   171
1070
     3
1070
   274
1070
     4
1070
   177
1070
     2
1070
   176
1070
     2
1070
   178
1070
     2
1070
    78
1070
     8
1070
    48
1040
-0.1
1070
    41
1040
3.5
1070
   147
1040
1.75
1070
    42
1040
1.5875
1070
    44
1040
2.0
1070
   140
1040
3.5
1002
}
1001
ACAD_DSTYLE_DIM_LINETYPE
1070
   380
1005
16
1001
ACAD_DSTYLE_DIM_EXT1_LINETYPE
1070
   381
1005
16
1001
ACAD_DSTYLE_DIM_EXT2_LINETYPE
1070
   382
1005
16
0
DIMENSION
5
145
100
AcDbEntity
8
SK2
62
256
6
ByLayer
370
18
48
1
60
0
100
AcDbDimension
2
_U2
10
-104.311648
20
8.0625
30
0
11
-104.311648
21
0.0625
31
0
70
32
71
1
72
1
41
1
210
0
220
0
230
1
3
Standard
100
AcDbAlignedDimension
13
-92.711648
23
-7.9375
33
0
14
-92.711648
24
8.0625
34
0
50
90
100
AcDbRotatedDimension
1001
ACAD
1000
DSTYLE
1002
{
1070
   371
1070
    13
1070
   372
1070
    13
1070
   170
1070
     0
1070
   144
1040
1.0
1070
   277
1070
     2
1070
   284
1070
     8
1070
   278
1070
    46
1070
   146
1040
1.0
1070
   345
1005
16
1070
   347
1005
16
1070
   346
1005
16
1070
   344
1005
0
1070
   343
1005
0
1070
   172
1070
     1
1070
    76
1070
     0
1070
    75
1070
     0
1070
   282
1070
     0
1070
   281
1070
     0
1070
    71
1070
     0
1070
    74
1070
     0
1070
   279
1070
     0
1070
   173
1070
     1
1070
   340
1005
10D
1070
   271
1070
     2
1070
   272
1070
     2
1070
    77
1070
     1
1070
    73
1070
     0
1070
   171
1070
     3
1070
   274
1070
     4
1070
   177
1070
     2
1070
   176
1070
     2
1070
   178
1070
     2
1070
    78
1070
     8
1070
    48
1040
-0.1
1070
    41
1040
3.5
1070
   147
1040
1.75
1070
    42
1040
1.5875
1070
    44
1040
2.0
1070
   140
1040
3.5
1002
}
1001
ACAD_DSTYLE_DIM_LINETYPE
1070
   380
1005
16
1001
ACAD_DSTYLE_DIM_EXT1_LINETYPE
1070
   381
1005
16
1001
ACAD_DSTYLE_DIM_EXT2_LINETYPE
1070
   382
1005
16
0
DIMENSION
5
15F
100
AcDbEntity
8
2
62
256
6
ByLayer
370
18
48
1
60
0
100
AcDbDimension
2
_U3
10
32.288352
20
-19.6875
30
0
11
24.788352
21
-19.6875
31
0
70
32
71
1
72
1
41
1
210
0
220
0
230
1
3
Standard
100
AcDbAlignedDimension
13
17.288352
23
7.3125
33
0
14
32.288352
24
9.0625
34
0
50
0
100
AcDbRotatedDimension
1001
ACAD
1000
DSTYLE
1002
{
1070
   371
1070
    13
1070
   372
1070
    13
1070
   170
1070
     0
1070
   144
1040
1.0
1070
   277
1070
     2
1070
   284
1070
     8
1070
   278
1070
    46
1070
   146
1040
1.0
1070
   345
1005
16
1070
   347
1005
16
1070
   346
1005
16
1070
   344
1005
0
1070
   343
1005
0
1070
   172
1070
     1
1070
    76
1070
     0
1070
    75
1070
     0
1070
   282
1070
     0
1070
   281
1070
     0
1070
    71
1070
     0
1070
    74
1070
     0
1070
   279
1070
     0
1070
   173
1070
     1
1070
   340
1005
10D
1070
   271
1070
     1
1070
   272
1070
     2
1070
    77
1070
     1
1070
    73
1070
     1
1070
   171
1070
     3
1070
   274
1070
     4
1070
   177
1070
     2
1070
   176
1070
     2
1070
   178
1070
     2
1070
    78
1070
     8
1070
    48
1040
-0.1
1070
    41
1040
3.5
1070
   147
1040
1.75
1070
    42
1040
1.5875
1070
    44
1040
2.0
1070
   140
1040
3.5
1002
}
1001
ACAD_DSTYLE_DIM_LINETYPE
1070
   380
1005
16
1001
ACAD_DSTYLE_DIM_EXT1_LINETYPE
1070
   381
1005
16
1001
ACAD_DSTYLE_DIM_EXT2_LINETYPE
1070
   382
1005
16
0
DIMENSION
5
178
100
AcDbEntity
8
SK2
62
256
6
ByLayer
370
18
48
1
60
0
100
AcDbDimension
2
_U4
10
32.288352
20
-25.6875
30
0
11
-30.211648
21
-25.6875
31
0
70
32
71
1
72
1
41
1
210
0
220
0
230
1
3
Standard
100
AcDbAlignedDimension
13
-92.711648
23
-7.9375
33
0
14
32.288352
24
9.0625
34
0
50
0
100
AcDbRotatedDimension
1001
ACAD
1000
DSTYLE
1002
{
1070
   371
1070
    13
1070
   372
1070
    13
1070
   170
1070
     0
1070
   144
1040
1.0
1070
   277
1070
     2
1070
   284
1070
     8
1070
   278
1070
    46
1070
   146
1040
1.0
1070
   345
1005
16
1070
   347
1005
16
1070
   346
1005
16
1070
   344
1005
0
1070
   343
1005
0
1070
   172
1070
     1
1070
    76
1070
     0
1070
    75
1070
     0
1070
   282
1070
     0
1070
   281
1070
     0
1070
    71
1070
     0
1070
    74
1070
     0
1070
   279
1070
     0
1070
   173
1070
     1
1070
   340
1005
10D
1070
   271
1070
     1
1070
   272
1070
     2
1070
    77
1070
     1
1070
    73
1070
     1
1070
   171
1070
     3
1070
   274
1070
     4
1070
   177
1070
     2
1070
   176
1070
     2
1070
   178
1070
     2
1070
    78
1070
     8
1070
    48
1040
-0.1
1070
    41
1040
3.5
1070
   147
1040
1.75
1070
    42
1040
1.5875
1070
    44
1040
2.0
1070
   140
1040
3.5
1002
}
1001
ACAD_DSTYLE_DIM_LINETYPE
1070
   380
1005
16
1001
ACAD_DSTYLE_DIM_EXT1_LINETYPE
1070
   381
1005
16
1001
ACAD_DSTYLE_DIM_EXT2_LINETYPE
1070
   382
1005
16
0
ENDSEC
0
SECTION
2
OBJECTS
0
DICTIONARY
5
1ff
330
0
100
AcDbDictionary
280
0
281
1
3
ACAD_GROUP
350
200
3
ACAD_MLINESTYLE
350
201
0
DICTIONARY
5
200
330
0
100
AcDbDictionary
280
0
281
1
0
DICTIONARY
5
201
330
0
100
AcDbDictionary
280
0
281
1
3
Standard
350
18
0
MLINESTYLE
5
18
330
201
100
AcDbMlineStyle
2
Standard
70
0
3

62
256
51
90
52
90
71
2
49
-0.5
62
256
6
ByLayer
49
0.5
62
256
6
ByLayer
0
RASTERVARIABLES
5
1ee
330

100
AcDbRasterVariables
90
0
70
1
71
1
72
1
0
ENDSEC
0
EOF
