0
SECTION
2
HEADER
9
$ACADVER
1
AC1015
9
$DWGCODEPAGE
3
ANSI_1252
9
$HANDSEED
5
25a
9
$ANGBASE
50
0
9
$ANGDIR
70
0
9
$ATTMODE
70
1
9
$AUNITS
70
0
9
$AUPREC
70
0
9
$CECOLOR
62
256
9
$CELTSCALE
40
1
9
$CELTYPE
6
ByLayer
9
$CELWEIGHT
370
18
9
$CLAYER
8
0
9
$CMLJUST
70
0
9
$CMLSCALE
40
1
9
$CMLSTYLE
2
Standard
9
$DIMSTYLE
2
Standard
9
$TEXTSIZE
40
0.2
9
$TEXTSTYLE
7
Standard
9
$LUNITS
70
2
9
$LUPREC
70
4
9
$EXTNAMES
290
1
9
$INSUNITS
70
4
9
$LTSCALE
40
1
9
$LWDISPLAY
290
1
9
$PDMODE
70
0
9
$PDSIZE
40
0
9
$PLINEGEN
70
0
0
ENDSEC
0
SECTION
2
CLASSES
0
CLASS
1
RASTERVARIABLES
2
AcDbRasterVariables
3
ISM
90
0
280
0
281
0
0
ENDSEC
0
SECTION
2
TABLES
0
TABLE
2
VPORT
5
250
100
AcDbSymbolTable
0
VPORT
5
1
100
AcDbSymbolTableRecord
100
AcDbViewportTableRecord
2
*Active
70
0
10
0
20
0
11
1
21
1
12
-1
22
1
13
0
23
0
14
0.5
24
0.5
15
10
25
10
16
0
26
0
36
1
17
0
27
0
37
0
0
ENDTAB
0
TABLE
2
LTYPE
5
251
100
AcDbSymbolTable
0
LTYPE
5
14
100
AcDbSymbolTableRecord
100
AcDbLinetypeTableRecord
70
0
2
ByBlock
3

72
65
73
0
40
0
0
LTYPE
5
15
100
AcDbSymbolTableRecord
100
AcDbLinetypeTableRecord
70
0
2
ByLayer
3

72
65
73
0
40
0
0
LTYPE
5
16
100
AcDbSymbolTableRecord
100
AcDbLinetypeTableRecord
70
0
2
Continuous
3
Solid line
72
65
73
0
40
0
0
LTYPE
5
6E
100
AcDbSymbolTableRecord
100
AcDbLinetypeTableRecord
70
0
2
CENTER
3
____ _ ____ _ ____ _ ____
72
65
73
4
40
47.5
49
22
74
0
49
-8.5
74
0
49
8.5
74
0
49
-8.5
74
0
0
LTYPE
5
6F
100
AcDbSymbolTableRecord
100
AcDbLinetypeTableRecord
70
0
2
DASHED
3
__ __ __ __ __ __ __ __ __
72
65
73
2
40
25.72
49
12.86
74
0
49
-12.86
74
0
0
ENDTAB
0
TABLE
2
LAYER
5
252
100
AcDbSymbolTable
0
LAYER
5
10
100
AcDbSymbolTableRecord
100
AcDbLayerTableRecord
2
0
70
0
62
7
6
Continuous
290
1
370
-3
390
0
0
LAYER
5
71
100
AcDbSymbolTableRecord
100
AcDbLayerTableRecord
2
81
70
0
62
-3
6
Continuous
290
1
370
-3
390
0
0
LAYER
5
73
100
AcDbSymbolTableRecord
100
AcDbLayerTableRecord
2
80
70
0
62
-6
6
Continuous
290
1
370
-3
390
0
0
LAYER
5
75
100
AcDbSymbolTableRecord
100
AcDbLayerTableRecord
2
1
70
0
62
4
6
Continuous
290
1
370
-3
390
0
0
LAYER
5
134
100
AcDbSymbolTableRecord
100
AcDbLayerTableRecord
2
Defpoints
70
0
62
7
6
Continuous
290
0
370
-3
390
0
0
LAYER
5
141
100
AcDbSymbolTableRecord
100
AcDbLayerTableRecord
2
2
70
0
62
7
6
Continuous
290
1
370
-3
390
0
0
LAYER
5
23d
100
AcDbSymbolTableRecord
100
AcDbLayerTableRecord
2
SK1
70
0
62
4
6
Continuous
290
1
370
-3
390
0
0
LAYER
5
23e
100
AcDbSymbolTableRecord
100
AcDbLayerTableRecord
2
SK6
70
0
62
5
6
Continuous
290
1
370
-3
390
0
0
LAYER
5
23f
100
AcDbSymbolTableRecord
100
AcDbLayerTableRecord
2
SK2
70
0
62
7
6
Continuous
290
1
370
-3
390
0
0
ENDTAB
0
TABLE
2
STYLE
5
253
100
AcDbSymbolTable
0
STYLE
5
11
100
AcDbSymbolTableRecord
100
AcDbTextStyleTableRecord
2
Standard
3
txt
70
0
71
0
40
0
41
1
42
0
50
0
0
STYLE
5
12D
100
AcDbSymbolTableRecord
100
AcDbTextStyleTableRecord
2
iso_b_vert
3
simplex.shx
70
0
71
0
40
0
41
1
42
0
50
0
0
STYLE
5
12E
100
AcDbSymbolTableRecord
100
AcDbTextStyleTableRecord
2
DWGDirectTextStyle
3
simplex
70
0
71
0
40
0
41
1
42
0
50
0
0
ENDTAB
0
TABLE
2
DIMSTYLE
5
254
100
AcDbSymbolTable
100
AcDbDimStyleTable
0
DIMSTYLE
105
27
100
AcDbSymbolTableRecord
100
AcDbDimStyleTableRecord
2
Standard
70
0
3
<>
41
0.18
42
0.0625
44
0.18
140
0.18
147
0.09
73
0
74
0
77
1
271
2
275
0
278
52
280
0
340
11
0
ENDTAB
0
TABLE
2
VIEW
5
255
100
AcDbSymbolTable
0
ENDTAB
0
TABLE
2
UCS
5
256
100
AcDbSymbolTable
0
ENDTAB
0
TABLE
2
APPID
5
257
100
AcDbSymbolTable
0
APPID
5
12
100
AcDbSymbolTableRecord
100
AcDbRegAppTableRecord
2
ACAD
70
0
0
APPID
5
130
100
AcDbSymbolTableRecord
100
AcDbRegAppTableRecord
2
ACAD_DSTYLE_DIMBREAK
70
0
0
APPID
5
1FC
100
AcDbSymbolTableRecord
100
AcDbRegAppTableRecord
2
ACAD_DSTYLE_DIM_LINETYPE
70
0
0
APPID
5
1FD
100
AcDbSymbolTableRecord
100
AcDbRegAppTableRecord
2
ACAD_DSTYLE_DIM_EXT1_LINETYPE
70
0
0
APPID
5
1FE
100
AcDbSymbolTableRecord
100
AcDbRegAppTableRecord
2
ACAD_DSTYLE_DIM_EXT2_LINETYPE
70
0
0
APPID
5
239
100
AcDbSymbolTableRecord
100
AcDbRegAppTableRecord
2
ACAD_MLEADERVER
70
0
0
ENDTAB
0
TABLE
2
BLOCK_RECORD
5
258
100
AcDbSymbolTable
0
BLOCK_RECORD
5
1F
100
AcDbSymbolTableRecord
100
AcDbBlockTableRecord
2
*Model_Space
340
0
70
0
0
BLOCK_RECORD
5
1B
100
AcDbSymbolTableRecord
100
AcDbBlockTableRecord
2
*Paper_Space
340
0
70
0
0
BLOCK_RECORD
5
23
100
AcDbSymbolTableRecord
100
AcDbBlockTableRecord
2
*Paper_Space0
340
0
70
0
0
BLOCK_RECORD
5
135
100
AcDbSymbolTableRecord
100
AcDbBlockTableRecord
2
*D1
340
0
70
0
0
BLOCK_RECORD
5
142
100
AcDbSymbolTableRecord
100
AcDbBlockTableRecord
2
_U0
340
0
70
0
0
BLOCK_RECORD
5
14E
100
AcDbSymbolTableRecord
100
AcDbBlockTableRecord
2
*D3
340
0
70
0
0
BLOCK_RECORD
5
15B
100
AcDbSymbolTableRecord
100
AcDbBlockTableRecord
2
_U1
340
0
70
0
0
BLOCK_RECORD
5
167
100
AcDbSymbolTableRecord
100
AcDbBlockTableRecord
2
*D5
340
0
70
0
0
BLOCK_RECORD
5
174
100
AcDbSymbolTableRecord
100
AcDbBlockTableRecord
2
_U2
340
0
70
0
0
BLOCK_RECORD
5
180
100
AcDbSymbolTableRecord
100
AcDbBlockTableRecord
2
*D7
340
0
70
0
0
BLOCK_RECORD
5
18C
100
AcDbSymbolTableRecord
100
AcDbBlockTableRecord
2
_U3
340
0
70
0
0
BLOCK_RECORD
5
198
100
AcDbSymbolTableRecord
100
AcDbBlockTableRecord
2
*D9
340
0
70
0
0
BLOCK_RECORD
5
1A4
100
AcDbSymbolTableRecord
100
AcDbBlockTableRecord
2
_U4
340
0
70
0
0
BLOCK_RECORD
5
1B0
100
AcDbSymbolTableRecord
100
AcDbBlockTableRecord
2
*D11
340
0
70
0
0
BLOCK_RECORD
5
1BC
100
AcDbSymbolTableRecord
100
AcDbBlockTableRecord
2
_U5
340
0
70
0
0
BLOCK_RECORD
5
1C8
100
AcDbSymbolTableRecord
100
AcDbBlockTableRecord
2
*D13
340
0
70
0
0
BLOCK_RECORD
5
1D5
100
AcDbSymbolTableRecord
100
AcDbBlockTableRecord
2
_U6
340
0
70
0
0
ENDTAB
0
ENDSEC
0
SECTION
2
BLOCKS
0
BLOCK
5
20
100
AcDbEntity
8
0
100
AcDbBlockBegin
2
*Model_Space
70
0
10
0
20
0
30
0
3
*Model_Space
0
ENDBLK
5
21
100
AcDbEntity
8
0
100
AcDbBlockEnd
0
BLOCK
5
1C
100
AcDbEntity
8
0
100
AcDbBlockBegin
2
*Paper_Space
70
0
10
0
20
0
30
0
3
*Paper_Space
0
ENDBLK
5
1D
100
AcDbEntity
8
0
100
AcDbBlockEnd
0
BLOCK
5
24
100
AcDbEntity
8
0
100
AcDbBlockBegin
2
*Paper_Space0
70
0
10
0
20
0
30
0
3
*Paper_Space0
0
ENDBLK
5
25
100
AcDbEntity
8
0
100
AcDbBlockEnd
0
BLOCK
5
136
100
AcDbEntity
8
0
100
AcDbBlockBegin
2
*D1
70
1
10
0
20
0
30
0
3
*D1
0
LINE
5
138
100
AcDbEntity
8
0
62
256
6
ByLayer
370
-2
48
1
60
0
100
AcDbLine
10
39.695468
20
-13.0375
30
0
11
73.207968
21
-13.0375
31
0
39
0
210
0
220
0
230
1
0
LINE
5
139
100
AcDbEntity
8
0
62
256
6
ByLayer
370
-2
48
1
60
0
100
AcDbLine
10
1.5875
20
12.4625
30
0
11
73.207968
21
12.4625
31
0
39
0
210
0
220
0
230
1
0
LINE
5
13A
100
AcDbEntity
8
0
62
256
6
ByLayer
370
-2
48
1
60
0
100
AcDbLine
10
71.207968
20
-9.5375
30
0
11
71.207968
21
8.9625
31
0
39
0
210
0
220
0
230
1
0
SOLID
5
13B
100
AcDbEntity
8
0
62
256
6
ByLayer
370
-1
48
1
60
0
100
AcDbTrace
10
70.624634
20
-9.5375
30
0
11
71.791301
21
-9.5375
31
0
12
71.207968
22
-13.0375
32
0
13
71.207968
23
-13.0375
33
0
39
0
210
0
220
0
230
1
0
SOLID
5
13C
100
AcDbEntity
8
0
62
256
6
ByLayer
370
-1
48
1
60
0
100
AcDbTrace
10
71.791301
20
8.9625
30
0
11
70.624634
21
8.9625
31
0
12
71.207968
22
12.4625
32
0
13
71.207968
23
12.4625
33
0
39
0
210
0
220
0
230
1
0
MTEXT
5
13D
100
AcDbEntity
8
0
62
256
6
ByLayer
370
18
48
1
60
0
100
AcDbMText
10
64.207968
20
-0.2875
30
0
210
0
220
0
230
1
1
\A1;25.5
40
3.5
41
0
44
1
50
90
71
5
72
5
7
iso_b_vert
0
POINT
5
13E
100
AcDbEntity
8
Defpoints
62
0
6
ByLayer
370
-1
48
1
60
0
100
AcDbPoint
10
38.107968
20
-13.0375
30
0
39
0
210
0
220
0
230
1
50
360
0
POINT
5
13F
100
AcDbEntity
8
Defpoints
62
0
6
ByLayer
370
-1
48
1
60
0
100
AcDbPoint
10
0
20
12.4625
30
0
39
0
210
0
220
0
230
1
50
360
0
POINT
5
140
100
AcDbEntity
8
Defpoints
62
0
6
ByLayer
370
-1
48
1
60
0
100
AcDbPoint
10
71.207968
20
12.4625
30
0
39
0
210
0
220
0
230
1
50
360
0
ENDBLK
5
137
100
AcDbEntity
8
0
100
AcDbBlockEnd
0
BLOCK
5
149
100
AcDbEntity
8
0
100
AcDbBlockBegin
2
_U0
70
0
10
0
20
0
30
0
3
_U0
0
MTEXT
5
143
100
AcDbEntity
8
2
62
256
6
ByLayer
370
18
48
1
60
0
100
AcDbMText
10
70.518334
20
-4.237199
30
0
210
0
220
0
230
1
1
\W0.7346;25.5
40
3.5
41
0
44
1.084337
50
90
71
7
72
5
7
iso_b_vert
0
LINE
5
144
100
AcDbEntity
8
2
62
256
6
ByLayer
370
13
48
1
60
0
100
AcDbLine
10
39.695468
20
-13.0375
30
0
11
73.207968
21
-13.0375
31
0
39
0
210
0
220
0
230
1
0
LINE
5
145
100
AcDbEntity
8
2
62
256
6
ByLayer
370
13
48
1
60
0
100
AcDbLine
10
1.5875
20
12.4625
30
0
11
73.207968
21
12.4625
31
0
39
0
210
0
220
0
230
1
0
LINE
5
146
100
AcDbEntity
8
2
62
256
6
ByLayer
370
13
48
1
60
0
100
AcDbLine
10
71.207968
20
-13.0375
30
0
11
71.207968
21
12.4625
31
0
39
0
210
0
220
0
230
1
0
SOLID
5
147
100
AcDbEntity
8
2
62
256
6
ByLayer
370
18
48
1
60
0
100
AcDbTrace
10
71.207968
20
-13.0375
30
0
11
70.747184
21
-9.537502
31
0
12
71.668751
22
-9.537498
32
0
13
71.668751
23
-9.537498
33
0
39
0
210
0
220
0
230
1
0
SOLID
5
148
100
AcDbEntity
8
2
62
256
6
ByLayer
370
18
48
1
60
0
100
AcDbTrace
10
71.207968
20
12.4625
30
0
11
71.668751
21
8.962502
31
0
12
70.747184
22
8.962498
32
0
13
70.747184
23
8.962498
33
0
39
0
210
0
220
0
230
1
0
ENDBLK
5
14A
100
AcDbEntity
8
0
100
AcDbBlockEnd
0
BLOCK
5
14F
100
AcDbEntity
8
0
100
AcDbBlockBegin
2
*D3
70
1
10
0
20
0
30
0
3
*D3
0
LINE
5
151
100
AcDbEntity
8
0
62
256
6
ByLayer
370
-2
48
1
60
0
100
AcDbLine
10
39.695468
20
-7.0375
30
0
11
61.207968
21
-7.0375
31
0
39
0
210
0
220
0
230
1
0
LINE
5
152
100
AcDbEntity
8
0
62
256
6
ByLayer
370
-2
48
1
60
0
100
AcDbLine
10
39.695468
20
-13.0375
30
0
11
61.207968
21
-13.0375
31
0
39
0
210
0
220
0
230
1
0
LINE
5
153
100
AcDbEntity
8
0
62
256
6
ByLayer
370
-2
48
1
60
0
100
AcDbLine
10
59.207968
20
-3.5375
30
0
11
59.207968
21
-0.0375
31
0
39
0
210
0
220
0
230
1
0
LINE
5
154
100
AcDbEntity
8
0
62
256
6
ByLayer
370
-2
48
1
60
0
100
AcDbLine
10
59.207968
20
-16.5375
30
0
11
59.207968
21
-20.0375
31
0
39
0
210
0
220
0
230
1
0
SOLID
5
155
100
AcDbEntity
8
0
62
256
6
ByLayer
370
-1
48
1
60
0
100
AcDbTrace
10
58.624634
20
-3.5375
30
0
11
59.791301
21
-3.5375
31
0
12
59.207968
22
-7.0375
32
0
13
59.207968
23
-7.0375
33
0
39
0
210
0
220
0
230
1
0
SOLID
5
156
100
AcDbEntity
8
0
62
256
6
ByLayer
370
-1
48
1
60
0
100
AcDbTrace
10
59.791301
20
-16.5375
30
0
11
58.624634
21
-16.5375
31
0
12
59.207968
22
-13.0375
32
0
13
59.207968
23
-13.0375
33
0
39
0
210
0
220
0
230
1
0
MTEXT
5
157
100
AcDbEntity
8
0
62
256
6
ByLayer
370
18
48
1
60
0
100
AcDbMText
10
52.207968
20
-10.0375
30
0
210
0
220
0
230
1
1
\A1;6
40
3.5
41
0
44
1
50
90
71
5
72
5
7
iso_b_vert
0
POINT
5
158
100
AcDbEntity
8
Defpoints
62
0
6
ByLayer
370
-1
48
1
60
0
100
AcDbPoint
10
38.107968
20
-7.0375
30
0
39
0
210
0
220
0
230
1
50
360
0
POINT
5
159
100
AcDbEntity
8
Defpoints
62
0
6
ByLayer
370
-1
48
1
60
0
100
AcDbPoint
10
38.107968
20
-13.0375
30
0
39
0
210
0
220
0
230
1
50
360
0
POINT
5
15A
100
AcDbEntity
8
Defpoints
62
0
6
ByLayer
370
-1
48
1
60
0
100
AcDbPoint
10
59.207968
20
-13.0375
30
0
39
0
210
0
220
0
230
1
50
360
0
ENDBLK
5
150
100
AcDbEntity
8
0
100
AcDbBlockEnd
0
BLOCK
5
162
100
AcDbEntity
8
0
100
AcDbBlockBegin
2
_U1
70
0
10
0
20
0
30
0
3
_U1
0
MTEXT
5
15C
100
AcDbEntity
8
2
62
256
6
ByLayer
370
18
48
1
60
0
100
AcDbMText
10
58.518334
20
-10.662733
30
0
210
0
220
0
230
1
1
\W0.5404;6
40
3.5
41
0
44
1.084337
50
90
71
7
72
5
7
iso_b_vert
0
LINE
5
15D
100
AcDbEntity
8
2
62
256
6
ByLayer
370
13
48
1
60
0
100
AcDbLine
10
39.695468
20
-7.0375
30
0
11
61.207968
21
-7.0375
31
0
39
0
210
0
220
0
230
1
0
LINE
5
15E
100
AcDbEntity
8
2
62
256
6
ByLayer
370
13
48
1
60
0
100
AcDbLine
10
39.695468
20
-13.0375
30
0
11
61.207968
21
-13.0375
31
0
39
0
210
0
220
0
230
1
0
LINE
5
15F
100
AcDbEntity
8
2
62
256
6
ByLayer
370
13
48
1
60
0
100
AcDbLine
10
59.207968
20
1.7125
30
0
11
59.207968
21
-21.7875
31
0
39
0
210
0
220
0
230
1
0
SOLID
5
160
100
AcDbEntity
8
2
62
256
6
ByLayer
370
18
48
1
60
0
100
AcDbTrace
10
59.207968
20
-7.0375
30
0
11
58.747184
21
-3.537502
31
0
12
59.668751
22
-3.537498
32
0
13
59.668751
23
-3.537498
33
0
39
0
210
0
220
0
230
1
0
SOLID
5
161
100
AcDbEntity
8
2
62
256
6
ByLayer
370
18
48
1
60
0
100
AcDbTrace
10
59.207968
20
-13.0375
30
0
11
59.668751
21
-16.537498
31
0
12
58.747184
22
-16.537502
32
0
13
58.747184
23
-16.537502
33
0
39
0
210
0
220
0
230
1
0
ENDBLK
5
163
100
AcDbEntity
8
0
100
AcDbBlockEnd
0
BLOCK
5
168
100
AcDbEntity
8
0
100
AcDbBlockBegin
2
*D5
70
1
10
0
20
0
30
0
3
*D5
0
LINE
5
16A
100
AcDbEntity
8
0
62
256
6
ByLayer
370
-2
48
1
60
0
100
AcDbLine
10
-1.5875
20
12.4625
30
0
11
-97.6
21
12.4625
31
0
39
0
210
0
220
0
230
1
0
LINE
5
16B
100
AcDbEntity
8
0
62
256
6
ByLayer
370
-2
48
1
60
0
100
AcDbLine
10
-1.5875
20
-12.5375
30
0
11
-97.6
21
-12.5375
31
0
39
0
210
0
220
0
230
1
0
LINE
5
16C
100
AcDbEntity
8
0
62
256
6
ByLayer
370
-2
48
1
60
0
100
AcDbLine
10
-95.6
20
8.9625
30
0
11
-95.6
21
-9.0375
31
0
39
0
210
0
220
0
230
1
0
SOLID
5
16D
100
AcDbEntity
8
0
62
256
6
ByLayer
370
-1
48
1
60
0
100
AcDbTrace
10
-95.016667
20
8.9625
30
0
11
-96.183333
21
8.9625
31
0
12
-95.6
22
12.4625
32
0
13
-95.6
23
12.4625
33
0
39
0
210
0
220
0
230
1
0
SOLID
5
16E
100
AcDbEntity
8
0
62
256
6
ByLayer
370
-1
48
1
60
0
100
AcDbTrace
10
-96.183333
20
-9.0375
30
0
11
-95.016667
21
-9.0375
31
0
12
-95.6
22
-12.5375
32
0
13
-95.6
23
-12.5375
33
0
39
0
210
0
220
0
230
1
0
MTEXT
5
16F
100
AcDbEntity
8
0
62
256
6
ByLayer
370
18
48
1
60
0
100
AcDbMText
10
-102.6
20
-0.0375
30
0
210
0
220
0
230
1
1
\A1;25
40
3.5
41
0
44
1
50
90
71
5
72
5
7
iso_b_vert
0
POINT
5
170
100
AcDbEntity
8
Defpoints
62
0
6
ByLayer
370
-1
48
1
60
0
100
AcDbPoint
10
0
20
12.4625
30
0
39
0
210
0
220
0
230
1
50
360
0
POINT
5
171
100
AcDbEntity
8
Defpoints
62
0
6
ByLayer
370
-1
48
1
60
0
100
AcDbPoint
10
0
20
-12.5375
30
0
39
0
210
0
220
0
230
1
50
360
0
POINT
5
172
100
AcDbEntity
8
Defpoints
62
0
6
ByLayer
370
-1
48
1
60
0
100
AcDbPoint
10
-95.6
20
-12.5375
30
0
39
0
210
0
220
0
230
1
50
360
0
ENDBLK
5
169
100
AcDbEntity
8
0
100
AcDbBlockEnd
0
BLOCK
5
17B
100
AcDbEntity
8
0
100
AcDbBlockBegin
2
_U2
70
0
10
0
20
0
30
0
3
_U2
0
MTEXT
5
175
100
AcDbEntity
8
SK2
62
256
6
ByLayer
370
18
48
1
60
0
100
AcDbMText
10
-96.289634
20
-1.970466
30
0
210
0
220
0
230
1
1
\W0.6740;25
40
3.5
41
0
44
1.084337
50
90
71
7
72
5
7
iso_b_vert
0
LINE
5
176
100
AcDbEntity
8
SK2
62
256
6
ByLayer
370
13
48
1
60
0
100
AcDbLine
10
-1.5875
20
12.4625
30
0
11
-97.6
21
12.4625
31
0
39
0
210
0
220
0
230
1
0
LINE
5
177
100
AcDbEntity
8
SK2
62
256
6
ByLayer
370
13
48
1
60
0
100
AcDbLine
10
-1.5875
20
-12.5375
30
0
11
-97.6
21
-12.5375
31
0
39
0
210
0
220
0
230
1
0
LINE
5
178
100
AcDbEntity
8
SK2
62
256
6
ByLayer
370
13
48
1
60
0
100
AcDbLine
10
-95.6
20
12.4625
30
0
11
-95.6
21
-12.5375
31
0
39
0
210
0
220
0
230
1
0
SOLID
5
179
100
AcDbEntity
8
SK2
62
256
6
ByLayer
370
18
48
1
60
0
100
AcDbTrace
10
-95.6
20
12.4625
30
0
11
-95.139216
21
8.962502
31
0
12
-96.060784
22
8.962498
32
0
13
-96.060784
23
8.962498
33
0
39
0
210
0
220
0
230
1
0
SOLID
5
17A
100
AcDbEntity
8
SK2
62
256
6
ByLayer
370
18
48
1
60
0
100
AcDbTrace
10
-95.6
20
-12.5375
30
0
11
-96.060784
21
-9.037502
31
0
12
-95.139216
22
-9.037498
32
0
13
-95.139216
23
-9.037498
33
0
39
0
210
0
220
0
230
1
0
ENDBLK
5
17C
100
AcDbEntity
8
0
100
AcDbBlockEnd
0
BLOCK
5
181
100
AcDbEntity
8
0
100
AcDbBlockBegin
2
*D7
70
1
10
0
20
0
30
0
3
*D7
0
LINE
5
183
100
AcDbEntity
8
0
62
256
6
ByLayer
370
-2
48
1
60
0
100
AcDbLine
10
20.107968
20
-5.775
30
0
11
20.107968
21
20.7125
31
0
39
0
210
0
220
0
230
1
0
LINE
5
184
100
AcDbEntity
8
0
62
256
6
ByLayer
370
-2
48
1
60
0
100
AcDbLine
10
38.107968
20
-11.45
30
0
11
38.107968
21
20.7125
31
0
39
0
210
0
220
0
230
1
0
LINE
5
185
100
AcDbEntity
8
0
62
256
6
ByLayer
370
-2
48
1
60
0
100
AcDbLine
10
23.607968
20
18.7125
30
0
11
34.607968
21
18.7125
31
0
39
0
210
0
220
0
230
1
0
SOLID
5
186
100
AcDbEntity
8
0
62
256
6
ByLayer
370
-1
48
1
60
0
100
AcDbTrace
10
23.607968
20
19.295833
30
0
11
23.607968
21
18.129167
31
0
12
20.107968
22
18.7125
32
0
13
20.107968
23
18.7125
33
0
39
0
210
0
220
0
230
1
0
SOLID
5
187
100
AcDbEntity
8
0
62
256
6
ByLayer
370
-1
48
1
60
0
100
AcDbTrace
10
34.607968
20
18.129167
30
0
11
34.607968
21
19.295833
31
0
12
38.107968
22
18.7125
32
0
13
38.107968
23
18.7125
33
0
39
0
210
0
220
0
230
1
0
MTEXT
5
188
100
AcDbEntity
8
0
62
256
6
ByLayer
370
18
48
1
60
0
100
AcDbMText
10
29.107968
20
25.7125
30
0
210
0
220
0
230
1
1
\A1;18
40
3.5
41
0
44
1
50
0
71
5
72
5
7
iso_b_vert
0
POINT
5
189
100
AcDbEntity
8
Defpoints
62
0
6
ByLayer
370
-1
48
1
60
0
100
AcDbPoint
10
20.107968
20
-7.3625
30
0
39
0
210
0
220
0
230
1
50
360
0
POINT
5
18A
100
AcDbEntity
8
Defpoints
62
0
6
ByLayer
370
-1
48
1
60
0
100
AcDbPoint
10
38.107968
20
-13.0375
30
0
39
0
210
0
220
0
230
1
50
360
0
POINT
5
18B
100
AcDbEntity
8
Defpoints
62
0
6
ByLayer
370
-1
48
1
60
0
100
AcDbPoint
10
38.107968
20
18.7125
30
0
39
0
210
0
220
0
230
1
50
360
0
ENDBLK
5
182
100
AcDbEntity
8
0
100
AcDbBlockEnd
0
BLOCK
5
193
100
AcDbEntity
8
0
100
AcDbBlockBegin
2
_U3
70
0
10
0
20
0
30
0
3
_U3
0
MTEXT
5
18D
100
AcDbEntity
8
2
62
256
6
ByLayer
370
18
48
1
60
0
100
AcDbMText
10
27.640435
20
19.745134
30
0
210
0
220
0
230
1
1
\W0.5321;18
40
3.5
41
0
44
1.084337
50
0
71
7
72
5
7
iso_b_vert
0
LINE
5
18E
100
AcDbEntity
8
2
62
256
6
ByLayer
370
13
48
1
60
0
100
AcDbLine
10
20.107968
20
-5.775
30
0
11
20.107968
21
20.7125
31
0
39
0
210
0
220
0
230
1
0
LINE
5
18F
100
AcDbEntity
8
2
62
256
6
ByLayer
370
13
48
1
60
0
100
AcDbLine
10
38.107968
20
-11.45
30
0
11
38.107968
21
20.7125
31
0
39
0
210
0
220
0
230
1
0
LINE
5
190
100
AcDbEntity
8
2
62
256
6
ByLayer
370
13
48
1
60
0
100
AcDbLine
10
20.107968
20
18.7125
30
0
11
38.107968
21
18.7125
31
0
39
0
210
0
220
0
230
1
0
SOLID
5
191
100
AcDbEntity
8
2
62
256
6
ByLayer
370
18
48
1
60
0
100
AcDbTrace
10
20.107968
20
18.7125
30
0
11
23.607966
21
19.173284
31
0
12
23.607969
22
18.251716
32
0
13
23.607969
23
18.251716
33
0
39
0
210
0
220
0
230
1
0
SOLID
5
192
100
AcDbEntity
8
2
62
256
6
ByLayer
370
18
48
1
60
0
100
AcDbTrace
10
38.107968
20
18.7125
30
0
11
34.607969
21
18.251716
31
0
12
34.607966
22
19.173284
32
0
13
34.607966
23
19.173284
33
0
39
0
210
0
220
0
230
1
0
ENDBLK
5
194
100
AcDbEntity
8
0
100
AcDbBlockEnd
0
BLOCK
5
199
100
AcDbEntity
8
0
100
AcDbBlockBegin
2
*D9
70
1
10
0
20
0
30
0
3
*D9
0
LINE
5
19B
100
AcDbEntity
8
0
62
256
6
ByLayer
370
-2
48
1
60
0
100
AcDbLine
10
-84
20
14.05
30
0
11
-84
21
36.7125
31
0
39
0
210
0
220
0
230
1
0
LINE
5
19C
100
AcDbEntity
8
0
62
256
6
ByLayer
370
-2
48
1
60
0
100
AcDbLine
10
38.107968
20
-11.45
30
0
11
38.107968
21
36.7125
31
0
39
0
210
0
220
0
230
1
0
LINE
5
19D
100
AcDbEntity
8
0
62
256
6
ByLayer
370
-2
48
1
60
0
100
AcDbLine
10
-80.5
20
34.7125
30
0
11
34.607968
21
34.7125
31
0
39
0
210
0
220
0
230
1
0
SOLID
5
19E
100
AcDbEntity
8
0
62
256
6
ByLayer
370
-1
48
1
60
0
100
AcDbTrace
10
-80.5
20
35.295833
30
0
11
-80.5
21
34.129167
31
0
12
-84
22
34.7125
32
0
13
-84
23
34.7125
33
0
39
0
210
0
220
0
230
1
0
SOLID
5
19F
100
AcDbEntity
8
0
62
256
6
ByLayer
370
-1
48
1
60
0
100
AcDbTrace
10
34.607968
20
34.129167
30
0
11
34.607968
21
35.295833
31
0
12
38.107968
22
34.7125
32
0
13
38.107968
23
34.7125
33
0
39
0
210
0
220
0
230
1
0
MTEXT
5
1A0
100
AcDbEntity
8
0
62
256
6
ByLayer
370
18
48
1
60
0
100
AcDbMText
10
-22.946016
20
41.7125
30
0
210
0
220
0
230
1
1
\A1;122.1
40
3.5
41
0
44
1
50
0
71
5
72
5
7
iso_b_vert
0
POINT
5
1A1
100
AcDbEntity
8
Defpoints
62
0
6
ByLayer
370
-1
48
1
60
0
100
AcDbPoint
10
-84
20
12.4625
30
0
39
0
210
0
220
0
230
1
50
360
0
POINT
5
1A2
100
AcDbEntity
8
Defpoints
62
0
6
ByLayer
370
-1
48
1
60
0
100
AcDbPoint
10
38.107968
20
-13.0375
30
0
39
0
210
0
220
0
230
1
50
360
0
POINT
5
1A3
100
AcDbEntity
8
Defpoints
62
0
6
ByLayer
370
-1
48
1
60
0
100
AcDbPoint
10
38.107968
20
34.7125
30
0
39
0
210
0
220
0
230
1
50
360
0
ENDBLK
5
19A
100
AcDbEntity
8
0
100
AcDbBlockEnd
0
BLOCK
5
1AB
100
AcDbEntity
8
0
100
AcDbBlockBegin
2
_U4
70
0
10
0
20
0
30
0
3
_U4
0
MTEXT
5
1A5
100
AcDbEntity
8
SK2
62
256
6
ByLayer
370
18
48
1
60
0
100
AcDbMText
10
-27.300582
20
35.745134
30
0
210
0
220
0
230
1
1
\W0.6725;122.1
40
3.5
41
0
44
1.084337
50
0
71
7
72
5
7
iso_b_vert
0
LINE
5
1A6
100
AcDbEntity
8
SK2
62
256
6
ByLayer
370
13
48
1
60
0
100
AcDbLine
10
-84
20
14.05
30
0
11
-84
21
36.7125
31
0
39
0
210
0
220
0
230
1
0
LINE
5
1A7
100
AcDbEntity
8
SK2
62
256
6
ByLayer
370
13
48
1
60
0
100
AcDbLine
10
38.107968
20
-11.45
30
0
11
38.107968
21
36.7125
31
0
39
0
210
0
220
0
230
1
0
LINE
5
1A8
100
AcDbEntity
8
SK2
62
256
6
ByLayer
370
13
48
1
60
0
100
AcDbLine
10
-84
20
34.7125
30
0
11
38.107968
21
34.7125
31
0
39
0
210
0
220
0
230
1
0
SOLID
5
1A9
100
AcDbEntity
8
SK2
62
256
6
ByLayer
370
18
48
1
60
0
100
AcDbTrace
10
-84
20
34.7125
30
0
11
-80.500002
21
35.173284
31
0
12
-80.499998
22
34.251716
32
0
13
-80.499998
23
34.251716
33
0
39
0
210
0
220
0
230
1
0
SOLID
5
1AA
100
AcDbEntity
8
SK2
62
256
6
ByLayer
370
18
48
1
60
0
100
AcDbTrace
10
38.107968
20
34.7125
30
0
11
34.607969
21
34.251716
31
0
12
34.607966
22
35.173284
32
0
13
34.607966
23
35.173284
33
0
39
0
210
0
220
0
230
1
0
ENDBLK
5
1AC
100
AcDbEntity
8
0
100
AcDbBlockEnd
0
BLOCK
5
1B1
100
AcDbEntity
8
0
100
AcDbBlockBegin
2
*D11
70
1
10
0
20
0
30
0
3
*D11
0
LINE
5
1B3
100
AcDbEntity
8
0
62
256
6
ByLayer
370
-2
48
1
60
0
100
AcDbLine
10
0
20
14.05
30
0
11
0
21
28.7125
31
0
39
0
210
0
220
0
230
1
0
LINE
5
1B4
100
AcDbEntity
8
0
62
256
6
ByLayer
370
-2
48
1
60
0
100
AcDbLine
10
38.107968
20
-11.45
30
0
11
38.107968
21
28.7125
31
0
39
0
210
0
220
0
230
1
0
LINE
5
1B5
100
AcDbEntity
8
0
62
256
6
ByLayer
370
-2
48
1
60
0
100
AcDbLine
10
3.5
20
26.7125
30
0
11
34.607968
21
26.7125
31
0
39
0
210
0
220
0
230
1
0
SOLID
5
1B6
100
AcDbEntity
8
0
62
256
6
ByLayer
370
-1
48
1
60
0
100
AcDbTrace
10
3.5
20
27.295833
30
0
11
3.5
21
26.129167
31
0
12
0
22
26.7125
32
0
13
0
23
26.7125
33
0
39
0
210
0
220
0
230
1
0
SOLID
5
1B7
100
AcDbEntity
8
0
62
256
6
ByLayer
370
-1
48
1
60
0
100
AcDbTrace
10
34.607968
20
26.129167
30
0
11
34.607968
21
27.295833
31
0
12
38.107968
22
26.7125
32
0
13
38.107968
23
26.7125
33
0
39
0
210
0
220
0
230
1
0
MTEXT
5
1B8
100
AcDbEntity
8
0
62
256
6
ByLayer
370
18
48
1
60
0
100
AcDbMText
10
19.053984
20
33.7125
30
0
210
0
220
0
230
1
1
\A1;38.1
40
3.5
41
0
44
1
50
0
71
5
72
5
7
iso_b_vert
0
POINT
5
1B9
100
AcDbEntity
8
Defpoints
62
0
6
ByLayer
370
-1
48
1
60
0
100
AcDbPoint
10
0
20
12.4625
30
0
39
0
210
0
220
0
230
1
50
360
0
POINT
5
1BA
100
AcDbEntity
8
Defpoints
62
0
6
ByLayer
370
-1
48
1
60
0
100
AcDbPoint
10
38.107968
20
-13.0375
30
0
39
0
210
0
220
0
230
1
50
360
0
POINT
5
1BB
100
AcDbEntity
8
Defpoints
62
0
6
ByLayer
370
-1
48
1
60
0
100
AcDbPoint
10
38.107968
20
26.7125
30
0
39
0
210
0
220
0
230
1
50
360
0
ENDBLK
5
1B2
100
AcDbEntity
8
0
100
AcDbBlockEnd
0
BLOCK
5
1C3
100
AcDbEntity
8
0
100
AcDbBlockBegin
2
_U5
70
0
10
0
20
0
30
0
3
_U5
0
MTEXT
5
1BD
100
AcDbEntity
8
2
62
256
6
ByLayer
370
18
48
1
60
0
100
AcDbMText
10
15.569718
20
27.745134
30
0
210
0
220
0
230
1
1
\W0.7208;38.1
40
3.5
41
0
44
1.084337
50
0
71
7
72
5
7
iso_b_vert
0
LINE
5
1BE
100
AcDbEntity
8
2
62
256
6
ByLayer
370
13
48
1
60
0
100
AcDbLine
10
0
20
14.05
30
0
11
0
21
28.7125
31
0
39
0
210
0
220
0
230
1
0
LINE
5
1BF
100
AcDbEntity
8
2
62
256
6
ByLayer
370
13
48
1
60
0
100
AcDbLine
10
38.107968
20
-11.45
30
0
11
38.107968
21
28.7125
31
0
39
0
210
0
220
0
230
1
0
LINE
5
1C0
100
AcDbEntity
8
2
62
256
6
ByLayer
370
13
48
1
60
0
100
AcDbLine
10
0
20
26.7125
30
0
11
38.107968
21
26.7125
31
0
39
0
210
0
220
0
230
1
0
SOLID
5
1C1
100
AcDbEntity
8
2
62
256
6
ByLayer
370
18
48
1
60
0
100
AcDbTrace
10
0
20
26.7125
30
0
11
3.499998
21
27.173284
31
0
12
3.500002
22
26.251716
32
0
13
3.500002
23
26.251716
33
0
39
0
210
0
220
0
230
1
0
SOLID
5
1C2
100
AcDbEntity
8
2
62
256
6
ByLayer
370
18
48
1
60
0
100
AcDbTrace
10
38.107968
20
26.7125
30
0
11
34.607969
21
26.251716
31
0
12
34.607966
22
27.173284
32
0
13
34.607966
23
27.173284
33
0
39
0
210
0
220
0
230
1
0
ENDBLK
5
1C4
100
AcDbEntity
8
0
100
AcDbBlockEnd
0
BLOCK
5
1C9
100
AcDbEntity
8
0
100
AcDbBlockBegin
2
*D13
70
1
10
0
20
0
30
0
3
*D13
0
LINE
5
1CB
100
AcDbEntity
8
0
62
256
6
ByLayer
370
-2
48
1
60
0
100
AcDbLine
10
-84
20
14.05
30
0
11
-84
21
20.7125
31
0
39
0
210
0
220
0
230
1
0
LINE
5
1CC
100
AcDbEntity
8
0
62
256
6
ByLayer
370
-2
48
1
60
0
100
AcDbLine
10
-81
20
14.05
30
0
11
-81
21
20.7125
31
0
39
0
210
0
220
0
230
1
0
LINE
5
1CD
100
AcDbEntity
8
0
62
256
6
ByLayer
370
-2
48
1
60
0
100
AcDbLine
10
-87.5
20
18.7125
30
0
11
-91
21
18.7125
31
0
39
0
210
0
220
0
230
1
0
LINE
5
1CE
100
AcDbEntity
8
0
62
256
6
ByLayer
370
-2
48
1
60
0
100
AcDbLine
10
-77.5
20
18.7125
30
0
11
-74
21
18.7125
31
0
39
0
210
0
220
0
230
1
0
SOLID
5
1CF
100
AcDbEntity
8
0
62
256
6
ByLayer
370
-1
48
1
60
0
100
AcDbTrace
10
-87.5
20
18.129167
30
0
11
-87.5
21
19.295833
31
0
12
-84
22
18.7125
32
0
13
-84
23
18.7125
33
0
39
0
210
0
220
0
230
1
0
SOLID
5
1D0
100
AcDbEntity
8
0
62
256
6
ByLayer
370
-1
48
1
60
0
100
AcDbTrace
10
-77.5
20
19.295833
30
0
11
-77.5
21
18.129167
31
0
12
-81
22
18.7125
32
0
13
-81
23
18.7125
33
0
39
0
210
0
220
0
230
1
0
MTEXT
5
1D1
100
AcDbEntity
8
0
62
256
6
ByLayer
370
18
48
1
60
0
100
AcDbMText
10
-82.5
20
25.7125
30
0
210
0
220
0
230
1
1
\A1;3
40
3.5
41
0
44
1
50
0
71
5
72
5
7
iso_b_vert
0
POINT
5
1D2
100
AcDbEntity
8
Defpoints
62
0
6
ByLayer
370
-1
48
1
60
0
100
AcDbPoint
10
-84
20
12.4625
30
0
39
0
210
0
220
0
230
1
50
360
0
POINT
5
1D3
100
AcDbEntity
8
Defpoints
62
0
6
ByLayer
370
-1
48
1
60
0
100
AcDbPoint
10
-81
20
12.4625
30
0
39
0
210
0
220
0
230
1
50
360
0
POINT
5
1D4
100
AcDbEntity
8
Defpoints
62
0
6
ByLayer
370
-1
48
1
60
0
100
AcDbPoint
10
-81
20
18.7125
30
0
39
0
210
0
220
0
230
1
50
360
0
ENDBLK
5
1CA
100
AcDbEntity
8
0
100
AcDbBlockEnd
0
BLOCK
5
1DC
100
AcDbEntity
8
0
100
AcDbBlockBegin
2
_U6
70
0
10
0
20
0
30
0
3
_U6
0
MTEXT
5
1D6
100
AcDbEntity
8
SK2
62
256
6
ByLayer
370
18
48
1
60
0
100
AcDbMText
10
-83.097233
20
19.745134
30
0
210
0
220
0
230
1
1
\W0.5404;3
40
3.5
41
0
44
1.084337
50
0
71
7
72
5
7
iso_b_vert
0
LINE
5
1D7
100
AcDbEntity
8
SK2
62
256
6
ByLayer
370
13
48
1
60
0
100
AcDbLine
10
-84
20
14.05
30
0
11
-84
21
20.7125
31
0
39
0
210
0
220
0
230
1
0
LINE
5
1D8
100
AcDbEntity
8
SK2
62
256
6
ByLayer
370
13
48
1
60
0
100
AcDbLine
10
-81
20
14.05
30
0
11
-81
21
20.7125
31
0
39
0
210
0
220
0
230
1
0
LINE
5
1D9
100
AcDbEntity
8
SK2
62
256
6
ByLayer
370
13
48
1
60
0
100
AcDbLine
10
-92.75
20
18.7125
30
0
11
-72.25
21
18.7125
31
0
39
0
210
0
220
0
230
1
0
SOLID
5
1DA
100
AcDbEntity
8
SK2
62
256
6
ByLayer
370
18
48
1
60
0
100
AcDbTrace
10
-84
20
18.7125
30
0
11
-87.499998
21
18.251716
31
0
12
-87.500002
22
19.173284
32
0
13
-87.500002
23
19.173284
33
0
39
0
210
0
220
0
230
1
0
SOLID
5
1DB
100
AcDbEntity
8
SK2
62
256
6
ByLayer
370
18
48
1
60
0
100
AcDbTrace
10
-81
20
18.7125
30
0
11
-77.500002
21
19.173284
31
0
12
-77.499998
22
18.251716
32
0
13
-77.499998
23
18.251716
33
0
39
0
210
0
220
0
230
1
0
ENDBLK
5
1DD
100
AcDbEntity
8
0
100
AcDbBlockEnd
0
ENDSEC
0
SECTION
2
ENTITIES
0
ARC
5
D9
100
AcDbEntity
8
1
62
256
6
ByLayer
370
18
48
1
60
0
100
AcDbCircle
39
0
10
20.107968
20
-5.7625
30
0
40
1.6
210
0
220
0
230
1
100
AcDbArc
50
180
51
184.449102
0
ARC
5
DB
100
AcDbEntity
8
SK1
62
256
6
ByLayer
370
18
48
1
60
0
100
AcDbCircle
39
0
10
-1.227723
20
-14.0625
30
0
40
1.6
210
0
220
0
230
1
100
AcDbArc
50
49.706393
51
90
0
ARC
5
DC
100
AcDbEntity
8
1
62
256
6
ByLayer
370
18
48
1
60
0
100
AcDbCircle
39
0
10
11.757968
20
0.8625
30
0
40
2.1768
210
0
220
0
230
1
100
AcDbArc
50
210
51
270
0
ARC
5
DD
100
AcDbEntity
8
1
62
256
6
ByLayer
370
18
48
1
60
0
100
AcDbCircle
39
0
10
11.757968
20
0.8625
30
0
40
2.1768
210
0
220
0
230
1
100
AcDbArc
50
30
51
90
0
ARC
5
DE
100
AcDbEntity
8
1
62
256
6
ByLayer
370
18
48
1
60
0
100
AcDbCircle
39
0
10
11.757968
20
0.8625
30
0
40
2.1768
210
0
220
0
230
1
100
AcDbArc
50
330
51
30
0
ARC
5
DF
100
AcDbEntity
8
1
62
256
6
ByLayer
370
18
48
1
60
0
100
AcDbCircle
39
0
10
11.757968
20
0.8625
30
0
40
2.1768
210
0
220
0
230
1
100
AcDbArc
50
150
51
210
0
ARC
5
E0
100
AcDbEntity
8
1
62
256
6
ByLayer
370
18
48
1
60
0
100
AcDbCircle
39
0
10
11.757968
20
0.8625
30
0
40
2.1768
210
0
220
0
230
1
100
AcDbArc
50
90
51
150
0
ARC
5
E1
100
AcDbEntity
8
1
62
256
6
ByLayer
370
18
48
1
60
0
100
AcDbCircle
39
0
10
11.757968
20
0.8625
30
0
40
2.1768
210
0
220
0
230
1
100
AcDbArc
50
270
51
330
0
ARC
5
E4
100
AcDbEntity
8
1
62
256
6
ByLayer
370
18
48
1
60
0
100
AcDbCircle
39
0
10
11.757968
20
0.8625
30
0
40
2.8067
210
0
220
0
230
1
100
AcDbArc
50
180
51
240
0
ARC
5
E5
100
AcDbEntity
8
1
62
256
6
ByLayer
370
18
48
1
60
0
100
AcDbCircle
39
0
10
11.757968
20
0.8625
30
0
40
2.8067
210
0
220
0
230
1
100
AcDbArc
50
300
51
360
0
ARC
5
E6
100
AcDbEntity
8
1
62
256
6
ByLayer
370
18
48
1
60
0
100
AcDbCircle
39
0
10
11.757968
20
0.8625
30
0
40
2.8067
210
0
220
0
230
1
100
AcDbArc
50
360
51
60
0
ARC
5
E7
100
AcDbEntity
8
1
62
256
6
ByLayer
370
18
48
1
60
0
100
AcDbCircle
39
0
10
11.757968
20
0.8625
30
0
40
2.8067
210
0
220
0
230
1
100
AcDbArc
50
60
51
120
0
ARC
5
E8
100
AcDbEntity
8
1
62
256
6
ByLayer
370
18
48
1
60
0
100
AcDbCircle
39
0
10
11.757968
20
0.8625
30
0
40
2.8067
210
0
220
0
230
1
100
AcDbArc
50
240
51
300
0
ARC
5
E9
100
AcDbEntity
8
1
62
256
6
ByLayer
370
18
48
1
60
0
100
AcDbCircle
39
0
10
11.757968
20
0.8625
30
0
40
2.8067
210
0
220
0
230
1
100
AcDbArc
50
120
51
180
0
ARC
5
EA
100
AcDbEntity
8
1
62
256
6
ByLayer
370
18
48
1
60
0
100
AcDbCircle
39
0
10
13.507968
20
-12.654374
30
0
40
0.4
210
0
220
0
230
1
100
AcDbArc
50
207.992605
51
273.332999
0
ARC
5
EB
100
AcDbEntity
8
1
62
256
6
ByLayer
370
18
48
1
60
0
100
AcDbCircle
39
0
10
37.707968
20
-7.420626
30
0
40
0.4
210
0
220
0
230
1
100
AcDbArc
50
0
51
93.332999
0
ARC
5
EC
100
AcDbEntity
8
1
62
256
6
ByLayer
370
18
48
1
60
0
100
AcDbCircle
39
0
10
37.707968
20
-12.654374
30
0
40
0.4
210
0
220
0
230
1
100
AcDbArc
50
266.667001
51
0
0
CIRCLE
5
DA
100
AcDbEntity
8
1
62
256
6
ByLayer
370
18
48
1
60
0
100
AcDbCircle
10
11.757968
20
0.8625
30
0
40
5.75
39
0
210
0
220
0
230
1
0
CIRCLE
5
E2
100
AcDbEntity
8
1
62
256
6
ByLayer
370
13
48
1
60
0
100
AcDbCircle
10
11.757968
20
0.8625
30
0
40
4.55
39
0
210
0
220
0
230
1
0
CIRCLE
5
E3
100
AcDbEntity
8
1
62
256
6
ByLayer
370
18
48
1
60
0
100
AcDbCircle
10
11.757968
20
0.8625
30
0
40
5.35
39
0
210
0
220
0
230
1
0
ELLIPSE
5
ED
100
AcDbEntity
8
1
62
256
6
ByLayer
370
18
48
1
60
0
100
AcDbEllipse
10
42.619246
20
-207.2375
30
0
11
1.19108275458046E-14
21
194.52499995002
31
0
210
0
220
0
230
1
40
0.601504
41
0.0526745232963801
42
0.143599929570732
0
ELLIPSE
5
EE
100
AcDbEntity
8
1
62
256
6
ByLayer
370
18
48
1
60
0
100
AcDbEllipse
10
27.945712
20
-10.078719
30
0
11
1.32558212655868
21
0.00802643763149852
31
0
210
0
220
0
230
1
40
0.754368
41
0
42
6.28318530717959
0
ELLIPSE
5
EF
100
AcDbEntity
8
1
62
256
6
ByLayer
370
18
48
1
60
0
100
AcDbEllipse
10
31.352975
20
-207.236628
30
0
11
230.755863563882
21
4.35655883917315E-05
31
0
210
0
220
0
230
1
40
0.842987
41
1.57920720661666
42
1.59136050796591
0
ELLIPSE
5
F0
100
AcDbEntity
8
1
62
256
6
ByLayer
370
18
48
1
60
0
100
AcDbEllipse
10
31.35299
20
-97.037487
30
0
11
106.37746778331
21
1.24616455305463E-13
31
0
210
0
220
0
230
1
40
0.842989
41
1.58899921078785
42
1.6154166548769
0
ELLIPSE
5
F1
100
AcDbEntity
8
1
62
256
6
ByLayer
370
18
48
1
60
0
100
AcDbEllipse
10
-1047.301121
20
-96.506057
30
0
11
6934.82948319486
21
15.4484800443674
31
0
210
0
220
0
230
1
40
0.01266
41
1.41487511815681
42
1.41623377018987
0
ELLIPSE
5
F2
100
AcDbEntity
8
1
62
256
6
ByLayer
370
18
48
1
60
0
100
AcDbEllipse
10
32.32056
20
-207.237504
30
0
11
277.810493785983
21
3.2544259328291E-13
31
0
210
0
220
0
230
1
40
0.700208
41
1.59136068563096
42
1.60730359988867
0
ELLIPSE
5
F3
100
AcDbEntity
8
1
62
256
6
ByLayer
370
18
48
1
60
0
100
AcDbEllipse
10
32.32056
20
-97.037499
30
0
11
128.069171997736
21
1.5002731857439E-13
31
0
210
0
220
0
230
1
40
0.700208
41
1.61541665174126
42
1.66630078734302
0
ELLIPSE
5
F4
100
AcDbEntity
8
1
62
256
6
ByLayer
370
18
48
1
60
0
100
AcDbEllipse
10
32.444454
20
-9.370201
30
0
11
0.433147587424989
21
5.07413064944981E-16
31
0
210
0
220
0
230
1
40
0.230868
41
-2.9670597283967
42
-2.47750918246845
0
ELLIPSE
5
F5
100
AcDbEntity
8
1
62
256
6
ByLayer
370
18
48
1
60
0
100
AcDbEllipse
10
32.444454
20
-10.704799
30
0
11
0.433147587424989
21
5.07413064944981E-16
31
0
210
0
220
0
230
1
40
0.230868
41
2.47750918246845
42
2.96705972839669
0
ELLIPSE
5
F6
100
AcDbEntity
8
1
62
256
6
ByLayer
370
18
48
1
60
0
100
AcDbEllipse
10
31.152599
20
-12.396249
30
0
11
0.433147587465513
21
5.07413064992453E-16
31
0
210
0
220
0
230
1
40
0.230868
41
2.96704007729756
42
3.14159265358979
0
ELLIPSE
5
F7
100
AcDbEntity
8
1
62
256
6
ByLayer
370
18
48
1
60
0
100
AcDbEllipse
10
31.152599
20
-7.678751
30
0
11
0.433147587465513
21
5.07413064992453E-16
31
0
210
0
220
0
230
1
40
0.230868
41
3.14159265358979
42
-2.96704007729757
0
POINT
5
70
100
AcDbEntity
8
81
62
256
6
ByLayer
370
18
48
1
60
0
100
AcDbPoint
10
38.107968
20
-13.0375
30
0
39
0
210
0
220
0
230
1
50
360
0
POINT
5
72
100
AcDbEntity
8
80
62
256
6
ByLayer
370
18
48
1
60
0
100
AcDbPoint
10
0
20
0
30
0
39
0
210
0
220
0
230
1
50
360
0
POINT
5
74
100
AcDbEntity
8
1
62
256
6
ByLayer
370
18
48
1
60
1
100
AcDbPoint
10
38.107968
20
-13.0375
30
0
39
0
210
0
220
0
230
1
50
360
0
POINT
5
76
100
AcDbEntity
8
1
62
256
6
ByLayer
370
18
48
1
60
1
100
AcDbPoint
10
0
20
12.4625
30
0
39
0
210
0
220
0
230
1
50
360
0
POINT
5
77
100
AcDbEntity
8
1
62
256
6
ByLayer
370
18
48
1
60
1
100
AcDbPoint
10
38.107968
20
-7.0375
30
0
39
0
210
0
220
0
230
1
50
360
0
POINT
5
78
100
AcDbEntity
8
1
62
256
6
ByLayer
370
18
48
1
60
1
100
AcDbPoint
10
38.107968
20
-13.0375
30
0
39
0
210
0
220
0
230
1
50
360
0
POINT
5
79
100
AcDbEntity
8
1
62
256
6
ByLayer
370
18
48
1
60
1
100
AcDbPoint
10
0
20
12.4625
30
0
39
0
210
0
220
0
230
1
50
360
0
POINT
5
7A
100
AcDbEntity
8
1
62
256
6
ByLayer
370
18
48
1
60
1
100
AcDbPoint
10
0
20
-12.5375
30
0
39
0
210
0
220
0
230
1
50
360
0
POINT
5
7B
100
AcDbEntity
8
1
62
256
6
ByLayer
370
18
48
1
60
1
100
AcDbPoint
10
20.107968
20
-7.3625
30
0
39
0
210
0
220
0
230
1
50
360
0
POINT
5
7C
100
AcDbEntity
8
1
62
256
6
ByLayer
370
18
48
1
60
1
100
AcDbPoint
10
38.107968
20
-13.0375
30
0
39
0
210
0
220
0
230
1
50
360
0
POINT
5
7D
100
AcDbEntity
8
1
62
256
6
ByLayer
370
18
48
1
60
1
100
AcDbPoint
10
-84
20
12.4625
30
0
39
0
210
0
220
0
230
1
50
360
0
POINT
5
7E
100
AcDbEntity
8
1
62
256
6
ByLayer
370
18
48
1
60
1
100
AcDbPoint
10
38.107968
20
-13.0375
30
0
39
0
210
0
220
0
230
1
50
360
0
POINT
5
7F
100
AcDbEntity
8
1
62
256
6
ByLayer
370
18
48
1
60
1
100
AcDbPoint
10
0
20
12.4625
30
0
39
0
210
0
220
0
230
1
50
360
0
POINT
5
80
100
AcDbEntity
8
1
62
256
6
ByLayer
370
18
48
1
60
1
100
AcDbPoint
10
38.107968
20
-13.0375
30
0
39
0
210
0
220
0
230
1
50
360
0
POINT
5
81
100
AcDbEntity
8
1
62
256
6
ByLayer
370
18
48
1
60
1
100
AcDbPoint
10
-84
20
12.4625
30
0
39
0
210
0
220
0
230
1
50
360
0
POINT
5
82
100
AcDbEntity
8
1
62
256
6
ByLayer
370
18
48
1
60
1
100
AcDbPoint
10
-81
20
12.4625
30
0
39
0
210
0
220
0
230
1
50
360
0
SPLINE
5
F8
100
AcDbEntity
8
1
62
256
6
ByLayer
370
18
48
1
60
0
100
AcDbSpline
70
4
71
2
72
6
73
3
40
0
40
0
40
0
40
1
40
1
40
1
41
0.500001585417034
10
30.915289672078
20
-12.7702411691177
30
0
41
0.499998414582966
10
29.680441484641
20
-12.7708530802635
30
0
41
0.500001585417034
10
28.4456576260034
20
-12.7714714751437
30
0
0
SPLINE
5
F9
100
AcDbEntity
8
1
62
256
6
ByLayer
370
18
48
1
60
0
100
AcDbSpline
70
4
71
3
72
12
73
8
40
0
40
0
40
0
40
0
40
0.25
40
0.25
40
0.5
40
0.5
40
1
40
1
40
1
40
1
41
1
10
-2.84E-14
20
-13.0364903551091
30
0
41
1
10
0.0315694196437732
20
-13.0742663238762
30
0
41
1
10
0.062935709632967
20
-13.115351780434
30
0
41
1
10
0.123601212817249
20
-13.2041221668171
30
0
41
1
10
0.152904537512541
20
-13.2518067899196
30
0
41
1
10
0.235428924244303
20
-13.404767967175
30
0
41
1
10
0.283342687259335
20
-13.5199493048049
30
0
41
1
10
0.317758141296167
20
-13.648389527836
30
0
0
SPLINE
5
FA
100
AcDbEntity
8
1
62
256
6
ByLayer
370
18
48
1
60
0
100
AcDbSpline
70
4
71
3
72
14
73
10
40
0
40
0
40
0
40
0
40
0.25
40
0.25
40
0.5
40
0.5
40
0.75
40
0.75
40
1
40
1
40
1
40
1
41
1
10
29.6151139307407
20
-11.7639678332876
30
0
41
1
10
29.6365700442772
20
-11.6629914667992
30
0
41
1
10
29.6562934377787
20
-11.5613371906364
30
0
41
1
10
29.6941252747799
20
-11.3573968050039
30
0
41
1
10
29.7121704941185
20
-11.2551841946519
30
0
41
1
10
29.7472600219088
20
-11.0504979529501
30
0
41
1
10
29.7642931568909
20
-10.9480172442728
30
0
41
1
10
29.7977019225046
20
-10.742879010104
30
0
41
1
10
29.8140735287371
20
-10.6402204023665
30
0
41
1
10
29.8302153477876
20
-10.5375
30
0
0
SPLINE
5
FB
100
AcDbEntity
8
1
62
256
6
ByLayer
370
18
48
1
60
0
100
AcDbSpline
70
4
71
3
72
8
73
4
40
0
40
0
40
0
40
0
40
1
40
1
40
1
40
1
41
1
10
30.0271257792797
20
-10.4534227623865
30
0
41
1
10
29.9616597633983
20
-10.482271147779
30
0
41
1
10
29.8960855537288
20
-10.5105984131964
30
0
41
1
10
29.8302153477876
20
-10.5375
30
0
0
SPLINE
5
FC
100
AcDbEntity
8
1
62
256
6
ByLayer
370
18
48
1
60
0
100
AcDbSpline
70
4
71
3
72
20
73
16
40
0
40
0
40
0
40
0
40
0.124999999999995
40
0.124999999999995
40
0.249999999999991
40
0.249999999999991
40
0.374999999999986
40
0.374999999999986
40
0.499999999999982
40
0.499999999999982
40
0.624999999999977
40
0.624999999999977
40
0.749999999999972
40
0.749999999999972
40
1
40
1
40
1
40
1
41
1
10
30.1079675788694
20
-10.3124688692701
30
0
41
1
10
30.1079675788693
20
-10.3203893156453
30
0
41
1
10
30.1074607871041
20
-10.3282425880657
30
0
41
1
10
30.105446487266
20
-10.343816490514
30
0
41
1
10
30.1039382341002
20
-10.3514820096556
30
0
41
1
10
30.1000349899854
20
-10.3662308118808
30
0
41
1
10
30.0976335769424
20
-10.3733683739999
30
0
41
1
10
30.0919343358607
20
-10.3871714878333
30
0
41
1
10
30.0886149272941
20
-10.3938528991704
30
0
41
1
10
30.0813341354952
20
-10.4062546142989
30
0
41
1
10
30.0773490077083
20
-10.4120431644952
30
0
41
1
10
30.0687115475182
20
-10.4228222726242
30
0
41
1
10
30.0640159096366
20
-10.4278494779288
30
0
41
1
10
30.0492453454355
20
-10.4413877198729
30
0
41
1
10
30.0385771767405
20
-10.4483765666957
30
0
41
1
10
30.0271257792797
20
-10.4534227623865
30
0
0
SPLINE
5
FD
100
AcDbEntity
8
1
62
256
6
ByLayer
370
18
48
1
60
0
100
AcDbSpline
70
4
71
3
72
18
73
14
40
0
40
0
40
0
40
0
40
0.125
40
0.125
40
0.25
40
0.25
40
0.375
40
0.375
40
0.5
40
0.5
40
0.75
40
0.75
40
1
40
1
40
1
40
1
41
1
10
30.02712577928
20
-9.62157723761371
30
0
41
1
10
30.0328489567551
20
-9.62409922443771
30
0
41
1
10
30.0383871450721
20
-9.62712031649281
30
0
41
1
10
30.0490910285896
20
-9.63416749605605
30
0
41
1
10
30.0542858359855
20
-9.63822089784648
30
0
41
1
10
30.0641365664651
20
-9.64727272904156
30
0
41
1
10
30.0687590323546
20
-9.6522311583368
30
0
41
1
10
30.0773940441612
20
-9.66301892913685
30
0
41
1
10
30.0814223162421
20
-9.66887466601713
30
0
41
1
10
30.0924216759352
20
-9.68767415121167
30
0
41
1
10
30.0981161574225
20
-9.70143489466346
30
0
41
1
10
30.1059820634279
20
-9.7313259354211
30
0
41
1
10
30.1079675788577
20
-9.74670667076052
30
0
41
1
10
30.1079675788577
20
-9.76253113073147
30
0
0
SPLINE
5
FE
100
AcDbEntity
8
1
62
256
6
ByLayer
370
18
48
1
60
0
100
AcDbSpline
70
4
71
3
72
8
73
4
40
0
40
0
40
0
40
0
40
1
40
1
40
1
40
1
41
1
10
29.8302153477876
20
-9.53750000000002
30
0
41
1
10
29.8961025793964
20
-9.56440854013658
30
0
41
1
10
29.9616721404867
20
-9.59273430633351
30
0
41
1
10
30.02712577928
20
-9.62157723761371
30
0
0
SPLINE
5
FF
100
AcDbEntity
8
1
62
256
6
ByLayer
370
18
48
1
60
0
100
AcDbSpline
70
4
71
3
72
14
73
10
40
0
40
0
40
0
40
0
40
0.25
40
0.25
40
0.5
40
0.5
40
0.75
40
0.75
40
1
40
1
40
1
40
1
41
1
10
29.6151139307407
20
-8.31103216671247
30
0
41
1
10
29.6365925563259
20
-8.41211447899002
30
0
41
1
10
29.6563235795906
20
-8.51382157716358
30
0
41
1
10
29.6941366100052
20
-8.71766802186949
30
0
41
1
10
29.7121756106924
20
-8.81984544872219
30
0
41
1
10
29.747258259073
20
-9.02449196695201
30
0
41
1
10
29.7642901415522
20
-9.12696450584531
30
0
41
1
10
29.7976987992372
20
-9.33210154723929
30
0
41
1
10
29.8140715835461
20
-9.43476721917742
30
0
41
1
10
29.8302153477876
20
-9.53749999999999
30
0
0
SPLINE
5
100
100
AcDbEntity
8
1
62
256
6
ByLayer
370
18
48
1
60
0
100
AcDbSpline
70
4
71
3
72
16
73
12
40
0
40
0
40
0
40
0
40
0.124999999999995
40
0.124999999999995
40
0.249999999999991
40
0.249999999999991
40
0.499999999999994
40
0.499999999999994
40
0.749999999999997
40
0.749999999999997
40
1
40
1
40
1
40
1
41
1
10
20.1079675788577
20
-7.77115664872218
30
0
41
1
10
20.0744422630905
20
-7.77340542652229
30
0
41
1
10
20.0408776218767
20
-7.77460873796133
30
0
41
1
10
19.9736686346985
20
-7.7748964113371
30
0
41
1
10
19.9400508185205
20
-7.7739753816241
30
0
41
1
10
19.8399043660629
20
-7.76804309881683
30
0
41
1
10
19.7738095679699
20
-7.75988050281245
30
0
41
1
10
19.6429758643833
20
-7.73503370602691
30
0
41
1
10
19.5782365472857
20
-7.7183520921229
30
0
41
1
10
19.4501998805367
20
-7.67592629056637
30
0
41
1
10
19.3869013056534
20
-7.65018980333369
30
0
41
1
10
19.3244127444819
20
-7.61936248758155
30
0
0
SPLINE
5
101
100
AcDbEntity
8
1
62
256
6
ByLayer
370
18
48
1
60
0
100
AcDbSpline
70
4
71
3
72
36
73
32
40
0
40
0
40
0
40
0
40
0.0625000000000014
40
0.0625000000000014
40
0.125000000000003
40
0.125000000000003
40
0.250000000000005
40
0.250000000000005
40
0.312500000000007
40
0.312500000000007
40
0.343750000000006
40
0.343750000000006
40
0.375000000000005
40
0.375000000000005
40
0.500000000000014
40
0.500000000000014
40
0.531250000000015
40
0.531250000000015
40
0.562500000000016
40
0.562500000000016
40
0.625000000000013
40
0.625000000000013
40
0.750000000000006
40
0.750000000000006
40
0.781250000000004
40
0.781250000000004
40
0.812500000000002
40
0.812500000000002
40
0.875000000000001
40
0.875000000000001
40
1
40
1
40
1
40
1
41
1
10
20.1079675788577
20
-7.37964961267929
30
0
41
1
10
20.0569598129392
20
-7.37966262854587
30
0
41
1
10
20.0061382953369
20
-7.37724989583049
30
0
41
1
10
19.9048647031167
20
-7.36761270476998
30
0
41
1
10
19.8542546154902
20
-7.36034463954351
30
0
41
1
10
19.7051529427578
20
-7.33167960161609
30
0
41
1
10
19.6088038223638
20
-7.30348947819789
30
0
41
1
10
19.4687595718542
20
-7.2478773813599
30
0
41
1
10
19.4228296763736
20
-7.22710413783958
30
0
41
1
10
19.3550957938939
20
-7.19249025697701
30
0
41
1
10
19.3327699102016
20
-7.18040174964537
30
0
41
1
10
19.2889713123315
20
-7.15533180201126
30
0
41
1
10
19.2674452910809
20
-7.14232356250778
30
0
41
1
10
19.1616496253411
20
-7.0749565421925
30
0
41
1
10
19.0828351967271
20
-7.01368128447118
30
0
41
1
10
18.9915793439515
20
-6.92787974516799
30
0
41
1
10
18.9736942851392
20
-6.91025525706701
30
0
41
1
10
18.9386683277108
20
-6.874062786248
30
0
41
1
10
18.9215038573919
20
-6.85546356000592
30
0
41
1
10
18.8716658282881
20
-6.79882761718701
30
0
41
1
10
18.8404703334111
20
-6.75978638345066
30
0
41
1
10
18.7527910753801
20
-6.63892620593234
30
0
41
1
10
18.7021636351335
20
-6.55340298376666
30
0
41
1
10
18.6488461606632
20
-6.44019467637938
30
0
41
1
10
18.6386609539233
20
-6.41717504646709
30
0
41
1
10
18.6194484180359
20
-6.37081033357646
30
0
41
1
10
18.6104275869686
20
-6.34749079338499
30
0
41
1
10
18.5850875625855
20
-6.27712855162676
30
0
41
1
10
18.5704871065864
20
-6.2296831032682
30
0
41
1
10
18.5334366885964
20
-6.08576482741708
30
0
41
1
10
18.5176768555469
20
-5.98772432117499
30
0
41
1
10
18.5112365361352
20
-5.88750000000002
30
0
0
SPLINE
5
102
100
AcDbEntity
8
1
62
256
6
ByLayer
370
18
48
1
60
0
100
AcDbSpline
70
4
71
3
72
9
73
5
40
0
40
0
40
0
40
0
40
0.5
40
1
40
1
40
1
40
1
41
1
10
18.5125159067596
20
-5.88750000000002
30
0
41
1
10
18.5128811924526
20
-5.88750000000002
30
0
41
1
10
18.5130303815319
20
-5.88750000000002
30
0
41
1
10
18.5119371405566
20
-5.88750000000002
30
0
41
1
10
18.5112365361353
20
-5.88750000000002
30
0
0
SPLINE
5
103
100
AcDbEntity
8
1
62
256
6
ByLayer
370
18
48
1
60
0
100
AcDbSpline
70
4
71
3
72
32
73
28
40
0
40
0
40
0
40
0
40
0.062500000000002
40
0.062500000000002
40
0.125000000000004
40
0.125000000000004
40
0.250000000000008
40
0.250000000000008
40
0.31250000000001
40
0.31250000000001
40
0.375000000000012
40
0.375000000000012
40
0.500000000000016
40
0.62500000000002
40
0.62500000000002
40
0.656250000000021
40
0.656250000000021
40
0.687500000000022
40
0.687500000000022
40
0.750000000000016
40
0.750000000000016
40
0.875000000000004
40
0.875000000000004
40
0.937499999999998
40
0.968749999999999
40
0.968749999999999
40
1
40
1
40
1
40
1
41
1
10
18.5079675788577
20
-6.21726202960048
30
0
41
1
10
18.5079675788577
20
-6.25292105947426
30
0
41
1
10
18.5091571275084
20
-6.28873041615975
30
0
41
1
10
18.5138633897892
20
-6.35968939105157
30
0
41
1
10
18.5173758778853
20
-6.3949360701493
30
0
41
1
10
18.5313243939163
20
-6.49999114038576
30
0
41
1
10
18.5451569858175
20
-6.5691174737315
30
0
41
1
10
18.5727092370045
20
-6.67144080281182
30
0
41
1
10
18.5830308346967
20
-6.70532015707511
30
0
41
1
10
18.6059948076541
20
-6.77261283450525
30
0
41
1
10
18.6186895387619
20
-6.80613919126438
30
0
41
1
10
18.6598012237396
20
-6.90470061277665
30
0
41
1
10
18.722768569526
20
-7.03127613695136
30
0
41
1
10
18.8015882338498
20
-7.14844013738704
30
0
41
1
10
18.8559270398834
20
-7.21865370949831
30
0
41
1
10
18.8670496754314
20
-7.23254510498842
30
0
41
1
10
18.8898121343381
20
-7.26002084149283
30
0
41
1
10
18.9014604615223
20
-7.2736129002312
30
0
41
1
10
18.9369208726232
20
-7.31362183514281
30
0
41
1
10
18.9613300035537
20
-7.33937489688785
30
0
41
1
10
19.0368133357322
20
-7.41393595302773
30
0
41
1
10
19.0901338891876
20
-7.46005728470286
30
0
41
1
10
19.1745912671356
20
-7.52388528031258
30
0
41
1
10
19.2179427072202
20
-7.55445645505421
30
0
41
1
10
19.2630079939283
20
-7.58297784979436
30
0
41
1
10
19.2934381556752
20
-7.60152969038836
30
0
41
1
10
19.3088759612302
20
-7.61059062475167
30
0
41
1
10
19.3244127444816
20
-7.61936248758224
30
0
0
SPLINE
5
104
100
AcDbEntity
8
SK1
62
256
6
ByLayer
370
18
48
1
60
0
100
AcDbSpline
70
4
71
3
72
10
73
6
40
0
40
0
40
0
40
0
40
0.437806894606562
40
0.437806894606562
40
1
40
1
40
1
40
1
41
1
10
-0.19386281168363
20
-12.841382244328
30
0
41
1
10
-0.167848600551906
20
-12.8634101452636
30
0
41
1
10
-0.140188173238954
20
-12.8882591759818
30
0
41
1
10
-0.0752518996801825
20
-12.9514620943909
30
0
41
1
10
-0.0374755534590179
20
-12.9916471063904
30
0
41
1
10
-2.84E-14
20
-13.0364903551091
30
0
0
SPLINE
5
105
100
AcDbEntity
8
SK1
62
256
6
ByLayer
370
18
48
1
60
0
100
AcDbSpline
70
4
71
3
72
26
73
22
40
0
40
0
40
0
40
0
40
0.125
40
0.125
40
0.25
40
0.25
40
0.312500000000002
40
0.312500000000002
40
0.375000000000004
40
0.375000000000004
40
0.500000000000006
40
0.500000000000006
40
0.562500000000005
40
0.562500000000005
40
0.625000000000005
40
0.625000000000005
40
0.750000000000003
40
0.750000000000003
40
0.875000000000002
40
0.875000000000002
40
1
40
1
40
1
40
1
41
1
10
-7.16189500386224
20
12.4625
30
0
41
1
10
-7.10921215962
20
12.4068527877143
30
0
41
1
10
-7.05463208656749
20
12.3571656382884
30
0
41
1
10
-6.94328374837295
20
12.268167920665
30
0
41
1
10
-6.88650825648315
20
12.2288676713168
30
0
41
1
10
-6.80072441251545
20
12.1768743527075
30
0
41
1
10
-6.77196865458387
20
12.1606840953904
30
0
41
1
10
-6.71531692963697
20
12.1309466044708
30
0
41
1
10
-6.68731011156768
20
12.117326970533
30
0
41
1
10
-6.60439717362573
20
12.0798047667303
30
0
41
1
10
-6.55060091039087
20
12.0592271426089
30
0
41
1
10
-6.47265602100794
20
12.0336625503743
30
0
41
1
10
-6.4471318994147
20
12.0260280126151
30
0
41
1
10
-6.3970816855263
20
12.012338963684
30
0
41
1
10
-6.3725145897416
20
12.0062781962711
30
0
41
1
10
-6.3011908983876
20
11.9903493295442
30
0
41
1
10
-6.25655504467207
20
11.982641858504
30
0
41
1
10
-6.17312158274524
20
11.9713365402054
30
0
41
1
10
-6.13432357705489
20
11.9677442524973
30
0
41
1
10
-6.0626623160795
20
11.9633245400553
30
0
41
1
10
-6.02979849161389
20
11.9625
30
0
41
1
10
-6
20
11.9625
30
0
0
SPLINE
5
106
100
AcDbEntity
8
1
62
256
6
ByLayer
370
18
48
1
60
0
100
AcDbSpline
70
4
71
3
72
37
73
33
40
0
40
0
40
0
40
0
40
0.125000000000007
40
0.125000000000007
40
0.250000000000014
40
0.250000000000014
40
0.375000000000022
40
0.375000000000022
40
0.437500000000026
40
0.437500000000026
40
0.500000000000031
40
0.500000000000031
40
0.562500000000036
40
0.562500000000036
40
0.62500000000004
40
0.62500000000004
40
0.687500000000045
40
0.687500000000045
40
0.718750000000043
40
0.718750000000043
40
0.750000000000041
40
0.750000000000041
40
0.812500000000034
40
0.812500000000034
40
0.84375000000003
40
0.84375000000003
40
0.875000000000027
40
0.906250000000023
40
0.906250000000023
40
0.937500000000019
40
0.937500000000019
40
1
40
1
40
1
40
1
41
1
10
8.95126757885768
20
0.862499999999983
30
0
41
1
10
8.95126757885768
20
0.826059151259585
30
0
41
1
10
8.9526927924336
20
0.789581555599568
30
0
41
1
10
8.9584673030061
20
0.716952899775009
30
0
41
1
10
8.96282190846358
20
0.680721266721719
30
0
41
1
10
8.97470234576855
20
0.608920447836312
30
0
41
1
10
8.98224192061792
20
0.573250351438077
30
0
41
1
10
8.99628816746844
20
0.520648567493453
30
0
41
1
10
9.00142877585296
20
0.503260043354715
30
0
41
1
10
9.01274379177528
20
0.468813600050566
30
0
41
1
10
9.01891910820581
20
0.451758780178068
30
0
41
1
10
9.03237426168693
20
0.418269794811494
30
0
41
1
10
9.03966121685491
20
0.401807676454212
30
0
41
1
10
9.05556400327293
20
0.369561744142828
30
0
41
1
10
9.06420510963881
20
0.353743865403175
30
0
41
1
10
9.08283297774162
20
0.32344133532527
30
0
41
1
10
9.09283961007966
20
0.308900605444364
30
0
41
1
10
9.10914375738497
20
0.288246765159954
30
0
41
1
10
9.11479542403455
20
0.281556194632202
30
0
41
1
10
9.12659795603429
20
0.268624621881827
30
0
41
1
10
9.132779955872
20
0.262356558701583
30
0
41
1
10
9.15188510188059
20
0.244640178797965
30
0
41
1
10
9.16538763655825
20
0.234214971163254
30
0
41
1
10
9.18706896529335
20
0.221211438798633
30
0
41
1
10
9.19459404531793
20
0.217296632124317
30
0
41
1
10
9.20984460958607
20
0.210640608080496
30
0
41
1
10
9.22529093754301
20
0.20513837314158
30
0
41
1
10
9.24113636422018
20
0.202037210180009
30
0
41
1
10
9.25718954329207
20
0.200206392034403
30
0
41
1
10
9.26524798154534
20
0.199944969701761
30
0
41
1
10
9.28893281084399
20
0.201040491577345
30
0
41
1
10
9.30430824868969
20
0.204233217033874
30
0
41
1
10
9.31931093655891
20
0.209629241423613
30
0
0
SPLINE
5
107
100
AcDbEntity
8
1
62
256
6
ByLayer
370
18
48
1
60
0
100
AcDbSpline
70
4
71
3
72
35
73
31
40
0
40
0
40
0
40
0
40
0.124999999999985
40
0.124999999999985
40
0.249999999999971
40
0.249999999999971
40
0.374999999999957
40
0.374999999999957
40
0.437499999999953
40
0.437499999999953
40
0.499999999999948
40
0.499999999999948
40
0.62499999999994
40
0.62499999999994
40
0.687499999999937
40
0.687499999999937
40
0.71874999999994
40
0.71874999999994
40
0.749999999999944
40
0.749999999999944
40
0.812499999999947
40
0.812499999999947
40
0.843749999999956
40
0.843749999999956
40
0.874999999999964
40
0.906249999999973
40
0.906249999999973
40
0.937499999999982
40
0.937499999999982
40
1
40
1
40
1
40
1
41
1
10
10.3546175788577
20
-1.56817350080178
30
0
41
1
10
10.3230772295705
20
-1.54996367165052
30
0
41
1
10
10.2921831527375
20
-1.53048128927966
30
0
41
1
10
10.2321791955767
20
-1.48917139612126
30
0
41
1
10
10.2030591854605
20
-1.46734802469629
30
0
41
1
10
10.1467682215716
20
-1.42112435383052
30
0
41
1
10
10.119684517697
20
-1.39679407393174
30
0
41
1
10
10.0811899883867
20
-1.35837634152119
30
0
41
1
10
10.0687042516215
20
-1.34523842442599
30
0
41
1
10
10.0445178023306
20
-1.31821216698262
30
0
41
1
10
10.0328186258134
20
-1.30432264752466
30
0
41
1
10
9.99933932579981
20
-1.26165343228132
30
0
41
1
10
9.97898358292801
20
-1.23169133952021
30
0
41
1
10
9.95350739861857
20
-1.18460060677228
30
0
41
1
10
9.9458246934893
20
-1.16845389028407
30
0
41
1
10
9.93605075868527
20
-1.14382323323707
30
0
41
1
10
9.93308303524552
20
-1.13554309568207
30
0
41
1
10
9.92780727465404
20
-1.11882656710568
30
0
41
1
10
9.925493745561
20
-1.11036069269423
30
0
41
1
10
9.91976797675051
20
-1.08502347895444
30
0
41
1
10
9.91752871135196
20
-1.0681617337967
30
0
41
1
10
9.91715590833698
20
-1.0429499092366
30
0
41
1
10
9.91754286562647
20
-1.03449830494148
30
0
41
1
10
9.91942734595452
20
-1.01801610260475
30
0
41
1
10
9.9224036977526
20
-1.00193937891726
30
0
41
1
10
9.92764833851663
20
-0.986713646017563
30
0
41
1
10
9.93409140361931
20
-0.971941071257305
30
0
41
1
10
9.937890380678
20
-0.964856649743751
30
0
41
1
10
9.95066350315989
20
-0.944956639869957
30
0
41
1
10
9.96109358299884
20
-0.933271347089629
30
0
41
1
10
9.97323659539313
20
-0.923003224050234
30
0
0
SPLINE
5
108
100
AcDbEntity
8
1
62
256
6
ByLayer
370
18
48
1
60
0
100
AcDbSpline
70
4
71
3
72
50
73
46
40
0
40
0
40
0
40
0
40
0.0312500000000009
40
0.0312500000000009
40
0.0625000000000017
40
0.0625000000000017
40
0.0937500000000026
40
0.0937500000000026
40
0.125000000000003
40
0.125000000000003
40
0.156250000000004
40
0.156250000000004
40
0.187500000000005
40
0.187500000000005
40
0.218750000000006
40
0.218750000000006
40
0.250000000000007
40
0.250000000000007
40
0.312500000000008
40
0.312500000000008
40
0.37500000000001
40
0.37500000000001
40
0.437500000000012
40
0.437500000000012
40
0.500000000000014
40
0.500000000000014
40
0.625000000000015
40
0.625000000000015
40
0.687500000000015
40
0.687500000000015
40
0.750000000000014
40
0.750000000000014
40
0.812500000000014
40
0.812500000000014
40
0.843750000000011
40
0.843750000000011
40
0.875000000000009
40
0.875000000000009
40
0.906250000000007
40
0.906250000000007
40
0.937500000000005
40
0.937500000000005
40
0.968750000000002
40
0.968750000000002
40
1
40
1
40
1
40
1
41
1
10
9.33931093655889
20
0.211001038234485
30
0
41
1
10
9.35297888738089
20
0.211938520801908
30
0
41
1
10
9.36667358464146
20
0.211414880640774
30
0
41
1
10
9.39411490162124
20
0.208033410938242
30
0
41
1
10
9.40784785809865
20
0.20516243987916
30
0
41
1
10
9.4349312099281
20
0.19758980234252
30
0
41
1
10
9.44837834956917
20
0.192862681261659
30
0
41
1
10
9.47481286201989
20
0.181964209874764
30
0
41
1
10
9.48782276447881
20
0.175789315637275
30
0
41
1
10
9.51350429819078
20
0.162208630899102
30
0
41
1
10
9.52615081473343
20
0.154812145122634
30
0
41
1
10
9.55096116712085
20
0.139068752645244
30
0
41
1
10
9.56315067744515
20
0.130707511568772
30
0
41
1
10
9.58715798539171
20
0.113114794411075
30
0
41
1
10
9.59897941483825
20
0.10387748804709
30
0
41
1
10
9.62213861090268
20
0.0847376432455462
30
0
41
1
10
9.63349762307931
20
0.0748198428484557
30
0
41
1
10
9.66698129111049
20
0.0441101364103815
30
0
41
1
10
9.68856957949592
20
0.0223050686391844
30
0
41
1
10
9.72998561638553
20
-0.0231296924707749
30
0
41
1
10
9.74984883849493
20
-0.0467863280206871
30
0
41
1
10
9.78804759947175
20
-0.0958339546323543
30
0
41
1
10
9.80633976394989
20
-0.121181441158086
30
0
41
1
10
9.84111269780354
20
-0.173029898889126
30
0
41
1
10
9.8576420422001
20
-0.199594586104212
30
0
41
1
10
9.90464942684073
20
-0.281151088369768
30
0
41
1
10
9.93205601194114
20
-0.337016127078783
30
0
41
1
10
9.96692360478554
20
-0.423219524775135
30
0
41
1
10
9.97751214734001
20
-0.452454909571657
30
0
41
1
10
9.99600139671048
20
-0.510828429316575
30
0
41
1
10
10.0039542923882
20
-0.540068920242362
30
0
41
1
10
10.0169393902508
20
-0.598723230669833
30
0
41
1
10
10.0219807715168
20
-0.62813598294963
30
0
41
1
10
10.026816349157
20
-0.672466842202113
30
0
41
1
10
10.0279690577685
20
-0.68732441271672
30
0
41
1
10
10.0291879990698
20
-0.716705227622242
30
0
41
1
10
10.0292618764623
20
-0.731267377064228
30
0
41
1
10
10.0281858887306
20
-0.760113199249901
30
0
41
1
10
10.0270375256737
20
-0.774397165406612
30
0
41
1
10
10.0232815435844
20
-0.802648053509955
30
0
41
1
10
10.0206636874186
20
-0.816666621088103
30
0
41
1
10
10.0136414869944
20
-0.844093215687622
30
0
41
1
10
10.0092830999658
20
-0.85734430281056
30
0
41
1
10
9.99852547271755
20
-0.882750678430938
30
0
41
1
10
9.99213199650049
20
-0.894909077096116
30
0
41
1
10
9.98442460628058
20
-0.906368614379375
30
0
0
SPLINE
5
109
100
AcDbEntity
8
1
62
256
6
ByLayer
370
18
48
1
60
0
100
AcDbSpline
70
4
71
3
72
8
73
4
40
0
40
0
40
0
40
0
40
1
40
1
40
1
40
1
41
1
10
9.31931093655891
20
0.209629241423613
30
0
41
1
10
9.32597735995452
20
0.210086490341325
30
0
41
1
10
9.33264402472074
20
0.210543755814569
30
0
41
1
10
9.33931093655889
20
0.211001038234485
30
0
0
SPLINE
5
10A
100
AcDbEntity
8
1
62
256
6
ByLayer
370
18
48
1
60
0
100
AcDbSpline
70
4
71
3
72
8
73
4
40
0
40
0
40
0
40
0
40
1
40
1
40
1
40
1
41
1
10
9.97323659539313
20
-0.923003224050234
30
0
41
1
10
9.97696579626952
20
-0.917458556496086
30
0
41
1
10
9.98069513216876
20
-0.911913688186644
30
0
41
1
10
9.98442460628016
20
-0.906368614379971
30
0
0
SPLINE
5
10B
100
AcDbEntity
8
1
62
256
6
ByLayer
370
18
48
1
60
0
100
AcDbSpline
70
4
71
3
72
35
73
31
40
0
40
0
40
0
40
0
40
0.125000000000001
40
0.125000000000001
40
0.250000000000002
40
0.250000000000002
40
0.375000000000003
40
0.375000000000003
40
0.437500000000005
40
0.437500000000005
40
0.500000000000006
40
0.500000000000006
40
0.625000000000009
40
0.625000000000009
40
0.687500000000011
40
0.687500000000011
40
0.71875000000001
40
0.71875000000001
40
0.750000000000008
40
0.750000000000008
40
0.812499999999997
40
0.812499999999997
40
0.843749999999998
40
0.843749999999998
40
0.874999999999998
40
0.906249999999999
40
0.906249999999999
40
0.937499999999999
40
0.937499999999999
40
1
40
1
40
1
40
1
41
1
10
14.5646675788577
20
0.862499999999983
30
0
41
1
10
14.5646675788577
20
0.826080341697434
30
0
41
1
10
14.5632423792148
20
0.7895840951482
30
0
41
1
10
14.5574689408924
20
0.716964197340104
30
0
41
1
10
14.5531293519002
20
0.680833843108559
30
0
41
1
10
14.5412439606187
20
0.608972602944363
30
0
41
1
10
14.5337151720825
20
0.573352287411012
30
0
41
1
10
14.5196917045144
20
0.520806180916253
30
0
41
1
10
14.5145568029397
20
0.503424257145042
30
0
41
1
10
14.50324460207
20
0.468965048910093
30
0
41
1
10
14.4970655136316
20
0.451888505113857
30
0
41
1
10
14.4768525392781
20
0.401559973179502
30
0
41
1
10
14.4610824772324
20
0.368950336359035
30
0
41
1
10
14.4330387985445
20
0.323341947181603
30
0
41
1
10
14.4228966844427
20
0.30861517112578
30
0
41
1
10
14.4064528771301
20
0.287835366767069
30
0
41
1
10
14.4007659293805
20
0.281125174099316
30
0
41
1
10
14.388926871266
20
0.268197967114645
30
0
41
1
10
14.382751973507
20
0.261961454941911
30
0
41
1
10
14.3636721871524
20
0.244334186825938
30
0
41
1
10
14.350189120193
20
0.233964053526137
30
0
41
1
10
14.3285414411556
20
0.22103528436449
30
0
41
1
10
14.3210286584886
20
0.217144597059814
30
0
41
1
10
14.3058124123906
20
0.210535503728465
30
0
41
1
10
14.2904014170264
20
0.205074555700264
30
0
41
1
10
14.2745931935042
20
0.202003863838002
30
0
41
1
10
14.2585782359312
20
0.200197434515019
30
0
41
1
10
14.2505434584
20
0.199945234399451
30
0
41
1
10
14.2269229830728
20
0.201057078017527
30
0
41
1
10
14.2115881827549
20
0.204247145731415
30
0
41
1
10
14.1966242211564
20
0.209629241423613
30
0
0
SPLINE
5
10C
100
AcDbEntity
8
1
62
256
6
ByLayer
370
18
48
1
60
0
100
AcDbSpline
70
4
71
3
72
35
73
31
40
0
40
0
40
0
40
0
40
0.124999999999996
40
0.124999999999996
40
0.249999999999991
40
0.249999999999991
40
0.374999999999987
40
0.374999999999987
40
0.499999999999982
40
0.499999999999982
40
0.56249999999998
40
0.56249999999998
40
0.624999999999978
40
0.624999999999978
40
0.687499999999977
40
0.687499999999977
40
0.71874999999998
40
0.71874999999998
40
0.749999999999983
40
0.749999999999983
40
0.812499999999994
40
0.812499999999994
40
0.843749999999996
40
0.843749999999996
40
0.874999999999999
40
0.906250000000001
40
0.906250000000001
40
0.937500000000004
40
0.937500000000004
40
1
40
1
40
1
40
1
41
1
10
13.1613175788577
20
-1.56817350080178
30
0
41
1
10
13.1928572195396
20
-1.54996408076391
30
0
41
1
10
13.2237138791351
20
-1.53050689168629
30
0
41
1
10
13.2837616798357
20
-1.48916810484548
30
0
41
1
10
13.3128793619931
20
-1.46734419145145
30
0
41
1
10
13.369121444351
20
-1.42116275865047
30
0
41
1
10
13.396256077019
20
-1.39679398606327
30
0
41
1
10
13.4477221040022
20
-1.34541994198324
30
0
41
1
10
13.4720766397591
20
-1.31840729895447
30
0
41
1
10
13.5055529064194
20
-1.27572035386706
30
0
41
1
10
13.5161825894863
20
-1.2611498155313
30
0
41
1
10
13.5361798096338
20
-1.23120204398063
30
0
41
1
10
13.5455192921813
20
-1.21585899541444
30
0
41
1
10
13.5624102323327
20
-1.1846285774933
30
0
41
1
10
13.5699935131868
20
-1.16870195120751
30
0
41
1
10
13.5797306468847
20
-1.14423326821779
30
0
41
1
10
13.5827017032106
20
-1.13598002412505
30
0
41
1
10
13.5880059540245
20
-1.11925059729893
30
0
41
1
10
13.590337511013
20
-1.11076441519714
30
0
41
1
10
13.5961067741711
20
-1.08539905828849
30
0
41
1
10
13.5983873828219
20
-1.06847009944102
30
0
41
1
10
13.5987846854013
20
-1.04306495634978
30
0
41
1
10
13.5983981965081
20
-1.03461074162061
30
0
41
1
10
13.5965361246757
20
-1.01820404363662
30
0
41
1
10
13.5935906975273
20
-1.00217786470995
30
0
41
1
10
13.5883777401493
20
-0.986956604946556
30
0
41
1
10
13.5819571090136
20
-0.972167551708878
30
0
41
1
10
13.5781455180672
20
-0.965030061840025
30
0
41
1
10
13.5653403919118
20
-0.945031321811513
30
0
41
1
10
13.5548776192146
20
-0.933301826292791
30
0
41
1
10
13.5426985623222
20
-0.923003224050234
30
0
0
SPLINE
5
10D
100
AcDbEntity
8
1
62
256
6
ByLayer
370
18
48
1
60
0
100
AcDbSpline
70
4
71
3
72
52
73
48
40
0
40
0
40
0
40
0
40
0.0156249999999953
40
0.0156249999999953
40
0.0312499999999908
40
0.0312499999999908
40
0.062499999999991
40
0.062499999999991
40
0.0937499999999913
40
0.0937499999999913
40
0.124999999999992
40
0.124999999999992
40
0.187499999999995
40
0.187499999999995
40
0.218749999999997
40
0.218749999999997
40
0.249999999999998
40
0.249999999999998
40
0.312499999999999
40
0.312499999999999
40
0.374999999999999
40
0.374999999999999
40
0.437499999999999
40
0.437499999999999
40
0.499999999999999
40
0.499999999999999
40
0.562499999999999
40
0.562499999999999
40
0.624999999999999
40
0.624999999999999
40
0.687499999999999
40
0.687499999999999
40
0.75
40
0.75
40
0.8125
40
0.8125
40
0.84375
40
0.84375
40
0.875
40
0.875
40
0.90625
40
0.90625
40
0.9375
40
0.9375
40
0.96875
40
0.96875
40
1
40
1
40
1
40
1
41
1
10
14.1766242211557
20
0.211001038234542
30
0
41
1
10
14.1697820799384
20
0.211470339609576
30
0
41
1
10
14.1629181354411
20
0.21157171622059
30
0
41
1
10
14.1491500919923
20
0.211114932074082
30
0
41
1
10
14.1422324594327
20
0.210553399834168
30
0
41
1
10
14.1216597719405
20
0.208004092636799
30
0
41
1
10
14.1081092100163
20
0.20516204168527
30
0
41
1
10
14.0812570752998
20
0.197667035998791
30
0
41
1
10
14.0679561041062
20
0.193009980088533
30
0
41
1
10
14.0415519921649
20
0.18215815423153
30
0
41
1
10
14.0284963910947
20
0.17597679501398
30
0
41
1
10
13.9900733827919
20
0.155704274912097
30
0
41
1
10
13.9651994305902
20
0.139775591203232
30
0
41
1
10
13.9292647479874
20
0.113486507683774
30
0
41
1
10
13.9174983626334
20
0.104308933102516
30
0
41
1
10
13.8943392099274
20
0.0852023483212179
30
0
41
1
10
13.882936645888
20
0.0752624722821054
30
0
41
1
10
13.8494374004476
20
0.0445828950920202
30
0
41
1
10
13.8279761003182
20
0.0229381048056325
30
0
41
1
10
13.7865361412063
20
-0.0224504923250493
30
0
41
1
10
13.7666011510583
20
-0.0461616817833601
30
0
41
1
10
13.7284809424784
20
-0.0950366827728146
30
0
41
1
10
13.7102311513177
20
-0.120277319290153
30
0
41
1
10
13.6753514036279
20
-0.172198823931012
30
0
41
1
10
13.6588023008877
20
-0.198757446884173
30
0
41
1
10
13.6274557714934
20
-0.253051704013757
30
0
41
1
10
13.6127382265811
20
-0.2806490085608
30
0
41
1
10
13.5852397539945
20
-0.33675744632464
30
0
41
1
10
13.5724683231515
20
-0.365259838260897
30
0
41
1
10
13.5491716434915
20
-0.422791595750169
30
0
41
1
10
13.5386004526273
20
-0.451935859452362
30
0
41
1
10
13.5200276282418
20
-0.510491509352249
30
0
41
1
10
13.5119982363229
20
-0.539963819939942
30
0
41
1
10
13.4989019729065
20
-0.599173695670686
30
0
41
1
10
13.4938668082986
20
-0.628725196217999
30
0
41
1
10
13.489071100166
20
-0.673014125337545
30
0
41
1
10
13.4879356559198
20
-0.687795083580767
30
0
41
1
10
13.4867398973379
20
-0.717151738409399
30
0
41
1
10
13.4866754672734
20
-0.73174313835068
30
0
41
1
10
13.4877887102666
20
-0.760737288623972
30
0
41
1
10
13.4889674961138
20
-0.775111326458756
30
0
41
1
10
13.49277642403
20
-0.80337325123665
30
0
41
1
10
13.4954158414153
20
-0.817331121655513
30
0
41
1
10
13.5024364962358
20
-0.844546203316014
30
0
41
1
10
13.5067844857862
20
-0.857696901059597
30
0
41
1
10
13.5174968012917
20
-0.882915753934782
30
0
41
1
10
13.5238555246169
20
-0.894986932289726
30
0
41
1
10
13.5315105514352
20
-0.906368614379971
30
0
0
SPLINE
5
10E
100
AcDbEntity
8
1
62
256
6
ByLayer
370
18
48
1
60
0
100
AcDbSpline
70
4
71
3
72
8
73
4
40
0
40
0
40
0
40
0
40
1
40
1
40
1
40
1
41
1
10
13.5315105514352
20
-0.906368614379971
30
0
41
1
10
13.5352400255466
20
-0.911913688186644
30
0
41
1
10
13.5389693614458
20
-0.917458556496086
30
0
41
1
10
13.5426985623222
20
-0.923003224050234
30
0
0
SPLINE
5
10F
100
AcDbEntity
8
1
62
256
6
ByLayer
370
18
48
1
60
0
100
AcDbSpline
70
4
71
3
72
8
73
4
40
0
40
0
40
0
40
0
40
1
40
1
40
1
40
1
41
1
10
14.1966242211564
20
0.209629241423613
30
0
41
1
10
14.1899577977608
20
0.210086490341297
30
0
41
1
10
14.1832911329946
20
0.210543755814569
30
0
41
1
10
14.1766242211564
20
0.211001038234485
30
0
0
SPLINE
5
110
100
AcDbEntity
8
1
62
256
6
ByLayer
370
18
48
1
60
0
100
AcDbSpline
70
4
71
3
72
35
73
31
40
0
40
0
40
0
40
0
40
0.124999999999995
40
0.124999999999995
40
0.24999999999999
40
0.24999999999999
40
0.374999999999985
40
0.374999999999985
40
0.437499999999986
40
0.437499999999986
40
0.499999999999987
40
0.499999999999987
40
0.624999999999991
40
0.624999999999991
40
0.687499999999994
40
0.687499999999994
40
0.718749999999995
40
0.718749999999995
40
0.749999999999996
40
0.749999999999996
40
0.812499999999985
40
0.812499999999985
40
0.843749999999986
40
0.843749999999986
40
0.874999999999988
40
0.90624999999999
40
0.90624999999999
40
0.937499999999992
40
0.937499999999992
40
1
40
1
40
1
40
1
41
1
10
13.1613175788577
20
3.2931735008018
30
0
41
1
10
13.1928579281448
20
3.27496367165051
30
0
41
1
10
13.2237520049778
20
3.25548128927969
30
0
41
1
10
13.2837559621386
20
3.21417139612123
30
0
41
1
10
13.3128759722548
20
3.19234802469629
30
0
41
1
10
13.3691669361437
20
3.14612435383052
30
0
41
1
10
13.3962506400183
20
3.12179407393174
30
0
41
1
10
13.4347451693287
20
3.08337634152119
30
0
41
1
10
13.4472309060938
20
3.07023842442598
30
0
41
1
10
13.4714173553847
20
3.04321216698264
30
0
41
1
10
13.4831165319019
20
3.02932264752465
30
0
41
1
10
13.5165958319155
20
2.98665343228132
30
0
41
1
10
13.5369515747873
20
2.95669133952021
30
0
41
1
10
13.5624277590968
20
2.90960060677227
30
0
41
1
10
13.570110464226
20
2.89345389028406
30
0
41
1
10
13.57988439903
20
2.86882323323704
30
0
41
1
10
13.5828521224698
20
2.86054309568206
30
0
41
1
10
13.5881278830613
20
2.84382656710568
30
0
41
1
10
13.5904414121544
20
2.83536069269422
30
0
41
1
10
13.5961671809648
20
2.81002347895441
30
0
41
1
10
13.5984064463634
20
2.79316173379667
30
0
41
1
10
13.5987792493784
20
2.76794990923656
30
0
41
1
10
13.5983922920889
20
2.75949830494147
30
0
41
1
10
13.5965078117608
20
2.74301610260474
30
0
41
1
10
13.5935316337999
20
2.72693931510761
30
0
41
1
10
13.5882868191987
20
2.71171364601753
30
0
41
1
10
13.581843754096
20
2.6969410712573
30
0
41
1
10
13.5780447770374
20
2.68985664974372
30
0
41
1
10
13.5652716545555
20
2.66995663986992
30
0
41
1
10
13.5548415747165
20
2.65827134708959
30
0
41
1
10
13.5426985623222
20
2.6480032240502
30
0
0
SPLINE
5
111
100
AcDbEntity
8
1
62
256
6
ByLayer
370
18
48
1
60
0
100
AcDbSpline
70
4
71
3
72
52
73
48
40
0
40
0
40
0
40
0
40
0.0156250000000007
40
0.0156250000000007
40
0.0312500000000014
40
0.0312500000000014
40
0.0625000000000017
40
0.0625000000000017
40
0.0937500000000018
40
0.0937500000000018
40
0.125000000000002
40
0.125000000000002
40
0.187499999999999
40
0.187499999999999
40
0.218749999999998
40
0.218749999999998
40
0.249999999999996
40
0.249999999999996
40
0.312499999999997
40
0.312499999999997
40
0.374999999999998
40
0.374999999999998
40
0.437499999999999
40
0.437499999999999
40
0.499999999999999
40
0.499999999999999
40
0.5625
40
0.5625
40
0.625000000000001
40
0.625000000000001
40
0.687500000000002
40
0.687500000000002
40
0.750000000000003
40
0.750000000000003
40
0.812500000000003
40
0.812500000000003
40
0.843750000000003
40
0.843750000000003
40
0.875000000000002
40
0.875000000000002
40
0.906250000000002
40
0.906250000000002
40
0.937500000000001
40
0.937500000000001
40
0.968750000000001
40
0.968750000000001
40
1
40
1
40
1
40
1
41
1
10
13.5315105514348
20
2.63136861437934
30
0
41
1
10
13.5276830539133
20
2.62567779695644
30
0
41
1
10
13.5241632869442
20
2.61978413495711
30
0
41
1
10
13.5176748518947
20
2.60763226749677
30
0
41
1
10
13.5147023367997
20
2.60136065584612
30
0
41
1
10
13.5066237578486
20
2.58226953225508
30
0
41
1
10
13.5023097652093
20
2.56911337591737
30
0
41
1
10
13.495374563177
20
2.54211124226379
30
0
41
1
10
13.4927572063054
20
2.52826373536004
30
0
41
1
10
13.4889531072043
20
2.49997119072597
30
0
41
1
10
13.4877785207816
20
2.48557402892877
30
0
41
1
10
13.4861235340371
20
2.44216246759777
30
0
41
1
10
13.487481202677
20
2.41265665124413
30
0
41
1
10
13.4922808755457
20
2.36839176147353
30
0
41
1
10
13.4943456956012
20
2.35361298555554
30
0
41
1
10
13.4993129070483
20
2.32400327859133
30
0
41
1
10
13.502219810189
20
2.30915843044542
30
0
41
1
10
13.5120394806928
20
2.26480744429142
30
0
41
1
10
13.5200537688756
20
2.23539901803787
30
0
41
1
10
13.538641467477
20
2.17681666214989
30
0
41
1
10
13.5492084648278
20
2.14769685952837
30
0
41
1
10
13.5724753530048
20
2.09024629000584
30
0
41
1
10
13.5852094898561
20
2.06182118898826
30
0
41
1
10
13.6127349580329
20
2.00565368909085
30
0
41
1
10
13.6274608488298
20
1.97804243423144
30
0
41
1
10
13.6588077900864
20
1.92374841489067
30
0
41
1
10
13.675348984444
20
1.89720399484182
30
0
41
1
10
13.7101910806209
20
1.84533540013462
30
0
41
1
10
13.7284891606848
20
1.82002382061378
30
0
41
1
10
13.7666647843649
20
1.77108242545978
30
0
41
1
10
13.7866188616735
20
1.74735537377205
30
0
41
1
10
13.8280431298291
20
1.7019930110842
30
0
41
1
10
13.8495522035468
20
1.68030319841159
30
0
41
1
10
13.8942813283763
20
1.63935656373295
30
0
41
1
10
13.9173560962663
20
1.62022023299662
30
0
41
1
10
13.953313579924
20
1.59392256336489
30
0
41
1
10
13.9655465431317
20
1.58554876068149
30
0
41
1
10
13.9903722726926
20
1.56983487595849
30
0
41
1
10
14.0029765806862
20
1.56248337791519
30
0
41
1
10
14.0286428728806
20
1.54895039949128
30
0
41
1
10
14.0416805477242
20
1.54278423906322
30
0
41
1
10
14.0680605564997
20
1.53195190501083
30
0
41
1
10
14.0814681355579
20
1.52725877230827
30
0
41
1
10
14.1085474150522
20
1.51973129690381
30
0
41
1
10
14.1221102481508
20
1.51692141743806
30
0
41
1
10
14.1493065731478
20
1.5135891283615
30
0
41
1
10
14.1629398819194
20
1.51306035511928
30
0
41
1
10
14.1766242211565
20
1.51399896176551
30
0
0
SPLINE
5
112
100
AcDbEntity
8
1
62
256
6
ByLayer
370
18
48
1
60
0
100
AcDbSpline
70
4
71
3
72
8
73
4
40
0
40
0
40
0
40
0
40
1
40
1
40
1
40
1
41
1
10
14.1766242211565
20
1.51399896176551
30
0
41
1
10
14.1832911329946
20
1.5144562441854
30
0
41
1
10
14.1899577977608
20
1.51491350965867
30
0
41
1
10
14.1966242211564
20
1.51537075857635
30
0
0
SPLINE
5
113
100
AcDbEntity
8
1
62
256
6
ByLayer
370
18
48
1
60
0
100
AcDbSpline
70
4
71
3
72
35
73
31
40
0
40
0
40
0
40
0
40
0.125000000000001
40
0.125000000000001
40
0.250000000000001
40
0.250000000000001
40
0.375000000000002
40
0.375000000000002
40
0.500000000000003
40
0.500000000000003
40
0.562500000000006
40
0.562500000000006
40
0.625000000000009
40
0.625000000000009
40
0.687500000000012
40
0.687500000000012
40
0.718750000000016
40
0.718750000000016
40
0.75000000000002
40
0.75000000000002
40
0.81250000000002
40
0.81250000000002
40
0.843750000000019
40
0.843750000000019
40
0.875000000000017
40
0.906250000000016
40
0.906250000000016
40
0.937500000000015
40
0.937500000000015
40
1
40
1
40
1
40
1
41
1
10
14.5646675788577
20
0.862499999999983
30
0
41
1
10
14.5646675788577
20
0.89891884007568
30
0
41
1
10
14.5632454886279
20
0.935370085700129
30
0
41
1
10
14.5574689494125
20
1.00804239996867
30
0
41
1
10
14.5531277270819
20
1.04417100911328
30
0
41
1
10
14.5412544742721
20
1.11596879759748
30
0
41
1
10
14.5337178144865
20
1.15165246510389
30
0
41
1
10
14.5149596007097
20
1.22191037394322
30
0
41
1
10
14.5037432335018
20
1.25650834212047
30
0
41
1
10
14.4835133879763
20
1.30684311201583
30
0
41
1
10
14.4762097731642
20
1.32333395675383
30
0
41
1
10
14.4602728522884
20
1.35562594318199
30
0
41
1
10
14.4516551237322
20
1.37138569660939
30
0
41
1
10
14.4330542585175
20
1.40162888883495
30
0
41
1
10
14.4230530359845
20
1.41615951584149
30
0
41
1
10
14.4067311017671
20
1.43682646247873
30
0
41
1
10
14.4010691108822
20
1.44352609477946
30
0
41
1
10
14.3892331276669
20
1.45648442414537
30
0
41
1
10
14.3830496568799
20
1.46274670277873
30
0
41
1
10
14.363967245
20
1.48042570968909
30
0
41
1
10
14.3504466409039
20
1.49086525414049
30
0
41
1
10
14.3286437928898
20
1.50391189981289
30
0
41
1
10
14.3211289837186
20
1.50780429797763
30
0
41
1
10
14.3059893305561
20
1.51439504545914
30
0
41
1
10
14.2906375389058
20
1.51985732018693
30
0
41
1
10
14.2748490625841
20
1.52295339655041
30
0
41
1
10
14.2588310512145
20
1.52478749349746
30
0
41
1
10
14.2507440081956
20
1.52505530384349
30
0
41
1
10
14.2270220282096
20
1.52396510930842
30
0
41
1
10
14.2116326007682
20
1.52076883011804
30
0
41
1
10
14.1966242211564
20
1.51537075857635
30
0
0
SPLINE
5
114
100
AcDbEntity
8
1
62
256
6
ByLayer
370
18
48
1
60
0
100
AcDbSpline
70
4
71
3
72
8
73
4
40
0
40
0
40
0
40
0
40
1
40
1
40
1
40
1
41
1
10
13.5426985623222
20
2.6480032240502
30
0
41
1
10
13.5389693614458
20
2.64245855649605
30
0
41
1
10
13.5352400255466
20
2.63691368818664
30
0
41
1
10
13.5315105514352
20
2.63136861437994
30
0
0
SPLINE
5
115
100
AcDbEntity
8
1
62
256
6
ByLayer
370
18
48
1
60
0
100
AcDbSpline
70
4
71
3
72
35
73
31
40
0
40
0
40
0
40
0
40
0.125000000000003
40
0.125000000000003
40
0.250000000000007
40
0.250000000000007
40
0.37500000000001
40
0.37500000000001
40
0.437500000000011
40
0.437500000000011
40
0.500000000000012
40
0.500000000000012
40
0.625000000000007
40
0.625000000000007
40
0.687500000000004
40
0.687500000000004
40
0.71875
40
0.71875
40
0.749999999999995
40
0.749999999999995
40
0.812499999999985
40
0.812499999999985
40
0.843749999999989
40
0.843749999999989
40
0.874999999999993
40
0.906249999999996
40
0.906249999999996
40
0.9375
40
0.9375
40
1
40
1
40
1
40
1
41
1
10
10.3546175788577
20
3.29317350080177
30
0
41
1
10
10.3861579281448
20
3.31138332995303
30
0
41
1
10
10.4184772046207
20
3.32839719413144
30
0
41
1
10
10.484254600104
20
3.35970719878111
30
0
41
1
10
10.5177141992123
20
3.37401418158768
30
0
41
1
10
10.5858905543826
20
3.39965175088614
30
0
41
1
10
10.6205030467935
20
3.41094178652068
30
0
41
1
10
10.6730210436719
20
3.42507016060492
30
0
41
1
10
10.6906416820118
20
3.42931416728092
30
0
41
1
10
10.7261403321724
20
3.4367471180725
30
0
41
1
10
10.744018597128
20
3.43993414241075
30
0
41
1
10
10.7977108714951
20
3.4475934591018
30
0
41
1
10
10.8338366764126
20
3.45024100316115
30
0
41
1
10
10.8873565394099
20
3.44875865959062
30
0
41
1
10
10.905181358641
20
3.44733871915824
30
0
41
1
10
10.9313991007576
20
3.44348786646998
30
0
41
1
10
10.940053771947
20
3.4419179215827
30
0
41
1
10
10.9571685906529
20
3.43812859999102
30
0
41
1
10
10.965657017505
20
3.43589923775227
30
0
41
1
10
10.9904625726701
20
3.42818929212845
30
0
41
1
10
11.0061849050281
20
3.42169768027054
30
0
41
1
10
11.0282053870804
20
3.40941462487206
30
0
41
1
10
11.0353312124579
20
3.40485370788164
30
0
41
1
10
11.0486629782278
20
3.39498059887626
30
0
41
1
10
11.0610977956311
20
3.38436475940731
30
0
41
1
10
11.0716612045522
20
3.37220978217954
30
0
41
1
10
11.0812330970225
20
3.35924363674226
30
0
41
1
10
11.085468897495
20
3.35241141534425
30
0
41
1
10
11.0963162503403
20
3.33139956185238
30
0
41
1
10
11.1012209708193
20
3.31652420135819
30
0
41
1
10
11.1040419200234
20
3.30087398262657
30
0
0
SPLINE
5
116
100
AcDbEntity
8
1
62
256
6
ByLayer
370
18
48
1
60
0
100
AcDbSpline
70
4
71
3
72
35
73
31
40
0
40
0
40
0
40
0
40
0.125000000000005
40
0.125000000000005
40
0.25000000000001
40
0.25000000000001
40
0.375000000000015
40
0.375000000000015
40
0.500000000000021
40
0.500000000000021
40
0.56250000000002
40
0.56250000000002
40
0.62500000000002
40
0.62500000000002
40
0.68750000000002
40
0.68750000000002
40
0.718750000000022
40
0.718750000000022
40
0.750000000000025
40
0.750000000000025
40
0.812500000000025
40
0.812500000000025
40
0.843750000000023
40
0.843750000000023
40
0.875000000000021
40
0.906250000000019
40
0.906250000000019
40
0.937500000000016
40
0.937500000000016
40
1
40
1
40
1
40
1
41
1
10
13.1613175788577
20
3.2931735008018
30
0
41
1
10
13.1297779381757
20
3.31138292083963
30
0
41
1
10
13.0974991883505
20
3.32837697738643
30
0
41
1
10
13.0316748484344
20
3.35971050481413
30
0
41
1
10
12.9982159439465
20
3.37401520056474
30
0
41
1
10
12.9301006087787
20
3.39963155624798
30
0
41
1
10
12.8954293163252
20
3.41094645116718
30
0
41
1
10
12.8252050755651
20
3.42983031592647
30
0
41
1
10
12.7896341726004
20
3.43741564107495
30
0
41
1
10
12.7359280604146
20
3.4450634658829
30
0
41
1
10
12.7179947625356
20
3.44698377228514
30
0
41
1
10
12.6820606215122
20
3.44932798716263
30
0
41
1
10
12.6641034104087
20
3.44974469202381
30
0
41
1
10
12.6286116050424
20
3.44875746632823
30
0
41
1
10
12.6110271016553
20
3.44736146704898
30
0
41
1
10
12.5849680337401
20
3.44355973069651
30
0
41
1
10
12.5763349865292
20
3.44200611890449
30
0
41
1
10
12.5591947525001
20
3.43823502144429
30
0
41
1
10
12.5506797247245
20
3.43601111797585
30
0
41
1
10
12.5258280496865
20
3.42832476797759
30
0
41
1
10
12.5100268369396
20
3.42183535358151
30
0
41
1
10
12.4878266863461
20
3.40947685616266
30
0
41
1
10
12.4806983660682
20
3.40491503959819
30
0
41
1
10
12.4674207847381
20
3.39509908909574
30
0
41
1
10
12.4550144202362
20
3.38453518489686
30
0
41
1
10
12.4444389012925
20
3.37241000149695
30
0
41
1
10
12.4348415210586
20
3.35945504520632
30
0
41
1
10
12.4305660689861
20
3.35258536568347
30
0
41
1
10
12.4196492151555
20
3.33149643111992
30
0
41
1
10
12.4147225604112
20
3.31657065641082
30
0
41
1
10
12.4118932376919
20
3.30087398262657
30
0
0
SPLINE
5
117
100
AcDbEntity
8
1
62
256
6
ByLayer
370
18
48
1
60
0
100
AcDbSpline
70
4
71
3
72
52
73
48
40
0
40
0
40
0
40
0
40
0.0156250000000002
40
0.0156250000000002
40
0.0312500000000007
40
0.0312500000000007
40
0.0625000000000018
40
0.0625000000000018
40
0.093750000000003
40
0.093750000000003
40
0.125000000000004
40
0.125000000000004
40
0.187500000000007
40
0.187500000000007
40
0.218750000000008
40
0.218750000000008
40
0.250000000000009
40
0.250000000000009
40
0.312500000000008
40
0.312500000000008
40
0.375000000000007
40
0.375000000000007
40
0.437500000000007
40
0.437500000000007
40
0.500000000000006
40
0.500000000000006
40
0.562500000000005
40
0.562500000000005
40
0.625000000000004
40
0.625000000000004
40
0.687500000000004
40
0.687500000000004
40
0.750000000000003
40
0.750000000000003
40
0.812500000000002
40
0.812500000000002
40
0.843750000000002
40
0.843750000000002
40
0.875000000000002
40
0.875000000000002
40
0.906250000000001
40
0.906250000000001
40
0.937500000000001
40
0.937500000000001
40
0.96875
40
0.96875
40
1
40
1
40
1
40
1
41
1
10
11.1128539091367
20
3.28286757614478
30
0
41
1
10
11.1158685528325
20
3.27670745734684
30
0
41
1
10
11.1192127303607
20
3.27071241873651
30
0
41
1
10
11.12649233876
20
3.25901733542267
30
0
41
1
10
11.1304374562247
20
3.25330725601196
30
0
41
1
10
11.1429315647657
20
3.23676543961827
30
0
41
1
10
11.1521681340507
20
3.22645133423208
30
0
41
1
10
11.172085066735
20
3.20694420626501
30
0
41
1
10
11.1827686810569
20
3.19775375527152
30
0
41
1
10
11.2053686938972
20
3.18031303649443
30
0
41
1
10
11.2172497085445
20
3.17209723391477
30
0
41
1
10
11.2540177301029
20
3.14895819268565
30
0
41
1
10
11.2802493509445
20
3.13538106004088
30
0
41
1
10
11.3209837064159
20
3.11740525378974
30
0
41
1
10
11.3348149118255
20
3.11180405245301
30
0
41
1
10
11.3629412759786
20
3.1013009302701
30
0
41
1
10
11.3772507431586
20
3.09639595816327
30
0
41
1
10
11.4205696591028
20
3.08272454919938
30
0
41
1
10
11.4500452474152
20
3.07496091323225
30
0
41
1
10
11.5100729051284
20
3.06176715447495
30
0
41
1
10
11.5405748926272
20
3.05635854131168
30
0
41
1
10
11.601961989384
20
3.04778297277863
30
0
41
1
10
11.6329459173961
20
3.0445985082784
30
0
41
1
10
11.6953511332627
20
3.04035251302187
30
0
41
1
10
11.7266261267998
20
3.0392998811156
30
0
41
1
10
11.7893195974507
20
3.03930011890444
30
0
41
1
10
11.8205783367206
20
3.0403530034026
30
0
41
1
10
11.882918905484
20
3.04459284645924
30
0
41
1
10
11.9139884163909
20
3.04778365887464
30
0
41
1
10
11.975460719731
20
3.05637402120993
30
0
41
1
10
12.0059859879038
20
3.0617912332244
30
0
41
1
10
12.065983080445
20
3.0749845204364
30
0
41
1
10
12.0955215460816
20
3.08276701835155
30
0
41
1
10
12.1533469343276
20
3.10103025940362
30
0
41
1
10
12.1814568668254
20
3.1114454292146
30
0
41
1
10
12.2222100586157
20
3.12943668870244
30
0
41
1
10
12.2355784660697
20
3.13584384426224
30
0
41
1
10
12.2615999542123
20
3.14948661436787
30
0
41
1
10
12.2742686922705
20
3.15672651626588
30
0
41
1
10
12.2988217414717
20
3.17218768811523
30
0
41
1
10
12.310680630468
20
3.18039556552196
30
0
41
1
10
12.3332517113274
20
3.19782515624746
30
0
41
1
10
12.3440198730002
20
3.20708989396377
30
0
41
1
10
12.364078497674
20
3.22677750021984
30
0
41
1
10
12.3732933412223
20
3.23711831849764
30
0
41
1
10
12.3897773507138
20
3.2590048822963
30
0
41
1
10
12.3970519361602
20
3.27054728740902
30
0
41
1
10
12.4030812485789
20
3.28286757614546
30
0
0
SPLINE
5
118
100
AcDbEntity
8
1
62
256
6
ByLayer
370
18
48
1
60
0
100
AcDbSpline
70
4
71
3
72
8
73
4
40
0
40
0
40
0
40
0
40
1
40
1
40
1
40
1
41
1
10
12.4030812485789
20
3.28286757614546
30
0
41
1
10
12.4060186863057
20
3.28886993237205
30
0
41
1
10
12.4089560151727
20
3.29487206615474
30
0
41
1
10
12.4118932376919
20
3.30087398262657
30
0
0
SPLINE
5
119
100
AcDbEntity
8
1
62
256
6
ByLayer
370
18
48
1
60
0
100
AcDbSpline
70
4
71
3
72
8
73
4
40
0
40
0
40
0
40
0
40
1
40
1
40
1
40
1
41
1
10
11.1040419200234
20
3.30087398262657
30
0
41
1
10
11.1069791425427
20
3.29487206615474
30
0
41
1
10
11.1099164714097
20
3.28886993237205
30
0
41
1
10
11.1128539091364
20
3.28286757614546
30
0
0
SPLINE
5
11A
100
AcDbEntity
8
1
62
256
6
ByLayer
370
18
48
1
60
0
100
AcDbSpline
70
4
71
3
72
52
73
48
40
0
40
0
40
0
40
0
40
0.0156249999999974
40
0.0156249999999974
40
0.0312499999999951
40
0.0312499999999951
40
0.0624999999999949
40
0.0624999999999949
40
0.0937499999999948
40
0.0937499999999948
40
0.124999999999995
40
0.124999999999995
40
0.187499999999997
40
0.187499999999997
40
0.218749999999998
40
0.218749999999998
40
0.249999999999998
40
0.249999999999998
40
0.312499999999998
40
0.312499999999998
40
0.374999999999999
40
0.374999999999999
40
0.437499999999999
40
0.437499999999999
40
0.499999999999999
40
0.499999999999999
40
0.562499999999999
40
0.562499999999999
40
0.624999999999999
40
0.624999999999999
40
0.687499999999999
40
0.687499999999999
40
0.749999999999999
40
0.749999999999999
40
0.8125
40
0.8125
40
0.84375
40
0.84375
40
0.875
40
0.875
40
0.90625
40
0.90625
40
0.9375
40
0.9375
40
0.96875
40
0.96875
40
1
40
1
40
1
40
1
41
1
10
12.4030812485786
20
-1.55786757614482
30
0
41
1
10
12.4000666048828
20
-1.55170745734688
30
0
41
1
10
12.3967224273546
20
-1.54571241873651
30
0
41
1
10
12.3894428189553
20
-1.53401733542267
30
0
41
1
10
12.3854977014907
20
-1.52830725601197
30
0
41
1
10
12.3730035929496
20
-1.51176543961827
30
0
41
1
10
12.3637670236647
20
-1.50145133423211
30
0
41
1
10
12.3438500909804
20
-1.48194420626501
30
0
41
1
10
12.3331664766585
20
-1.47275375527153
30
0
41
1
10
12.3105664638182
20
-1.45531303649446
30
0
41
1
10
12.2986854491708
20
-1.4470972339148
30
0
41
1
10
12.2619174276124
20
-1.42395819268566
30
0
41
1
10
12.2356858067708
20
-1.41038106004092
30
0
41
1
10
12.1949514512994
20
-1.39240525378975
30
0
41
1
10
12.1811202458899
20
-1.38680405245304
30
0
41
1
10
12.1529938817367
20
-1.37630093027013
30
0
41
1
10
12.1386844145567
20
-1.37139595816331
30
0
41
1
10
12.0953654986125
20
-1.35772454919942
30
0
41
1
10
12.0658899103002
20
-1.34996091323225
30
0
41
1
10
12.005862252587
20
-1.33676715447496
30
0
41
1
10
11.9753602650881
20
-1.33135854131172
30
0
41
1
10
11.9139731683313
20
-1.32278297277867
30
0
41
1
10
11.8829892403192
20
-1.31959850827843
30
0
41
1
10
11.8205840244526
20
-1.31535251302188
30
0
41
1
10
11.7893090309156
20
-1.3142998811156
30
0
41
1
10
11.7266155602646
20
-1.31430011890444
30
0
41
1
10
11.6953568209948
20
-1.31535300340261
30
0
41
1
10
11.6330162522313
20
-1.31959284645927
30
0
41
1
10
11.6019467413244
20
-1.32278365887467
30
0
41
1
10
11.5404744379843
20
-1.33137402120997
30
0
41
1
10
11.5099491698116
20
-1.3367912332244
30
0
41
1
10
11.4499520772703
20
-1.34998452043644
30
0
41
1
10
11.4204136116337
20
-1.35776701835158
30
0
41
1
10
11.3625882233878
20
-1.37603025940365
30
0
41
1
10
11.3344782908899
20
-1.38644542921463
30
0
41
1
10
11.2937250990997
20
-1.40443668870245
30
0
41
1
10
11.2803566916457
20
-1.41084384426225
30
0
41
1
10
11.254335203503
20
-1.42448661436788
30
0
41
1
10
11.2416664654448
20
-1.43172651626588
30
0
41
1
10
11.2171134162436
20
-1.44718768811526
30
0
41
1
10
11.2052545272473
20
-1.455395565522
30
0
41
1
10
11.1826834463879
20
-1.47282515624749
30
0
41
1
10
11.1719152847151
20
-1.4820898939638
30
0
41
1
10
11.1518566600413
20
-1.50177750021985
30
0
41
1
10
11.1426418164931
20
-1.51211831849767
30
0
41
1
10
11.1261578070016
20
-1.53400488229633
30
0
41
1
10
11.1188832215552
20
-1.54554728740905
30
0
41
1
10
11.1128539091364
20
-1.55786757614547
30
0
0
SPLINE
5
11B
100
AcDbEntity
8
1
62
256
6
ByLayer
370
18
48
1
60
0
100
AcDbSpline
70
4
71
3
72
8
73
4
40
0
40
0
40
0
40
0
40
1
40
1
40
1
40
1
41
1
10
11.1128539091364
20
-1.55786757614547
30
0
41
1
10
11.1099164714097
20
-1.56386993237206
30
0
41
1
10
11.1069791425427
20
-1.56987206615474
30
0
41
1
10
11.1040419200234
20
-1.5758739826266
30
0
0
SPLINE
5
11C
100
AcDbEntity
8
1
62
256
6
ByLayer
370
18
48
1
60
0
100
AcDbSpline
70
4
71
3
72
35
73
31
40
0
40
0
40
0
40
0
40
0.125000000000002
40
0.125000000000002
40
0.250000000000004
40
0.250000000000004
40
0.375000000000007
40
0.375000000000007
40
0.500000000000009
40
0.500000000000009
40
0.56250000000001
40
0.56250000000001
40
0.62500000000001
40
0.62500000000001
40
0.687500000000011
40
0.687500000000011
40
0.718750000000012
40
0.718750000000012
40
0.750000000000013
40
0.750000000000013
40
0.812500000000014
40
0.812500000000014
40
0.843750000000014
40
0.843750000000014
40
0.875000000000014
40
0.906250000000013
40
0.906250000000013
40
0.937500000000013
40
0.937500000000013
40
1
40
1
40
1
40
1
41
1
10
10.3546175788577
20
-1.56817350080178
30
0
41
1
10
10.3861572195396
20
-1.58638292083964
30
0
41
1
10
10.4184359693648
20
-1.60337697738643
30
0
41
1
10
10.4842603092809
20
-1.63471050481417
30
0
41
1
10
10.5177192137688
20
-1.64901520056478
30
0
41
1
10
10.5858345489366
20
-1.67463155624799
30
0
41
1
10
10.6205058413901
20
-1.68594645116721
30
0
41
1
10
10.6907300821502
20
-1.70483031592647
30
0
41
1
10
10.7263009851149
20
-1.71241564107495
30
0
41
1
10
10.7800070973007
20
-1.7200634658829
30
0
41
1
10
10.7979403951797
20
-1.72198377228517
30
0
41
1
10
10.8338745362031
20
-1.72432798716267
30
0
41
1
10
10.8518317473066
20
-1.72474469202385
30
0
41
1
10
10.8873235526729
20
-1.72375746632827
30
0
41
1
10
10.90490805606
20
-1.72236146704901
30
0
41
1
10
10.9309671239752
20
-1.71855973069654
30
0
41
1
10
10.9396001711861
20
-1.71700611890452
30
0
41
1
10
10.9567404052152
20
-1.71323502144432
30
0
41
1
10
10.9652554329908
20
-1.71101111797589
30
0
41
1
10
10.9901071080288
20
-1.70332476797762
30
0
41
1
10
11.0059083207757
20
-1.69683535358155
30
0
41
1
10
11.0281084713692
20
-1.68447685616269
30
0
41
1
10
11.0352367916471
20
-1.67991503959823
30
0
41
1
10
11.0485143729773
20
-1.67009908909577
30
0
41
1
10
11.0609207374792
20
-1.6595351848969
30
0
41
1
10
11.0714962564229
20
-1.64741000149698
30
0
41
1
10
11.0810936366568
20
-1.63445504520632
30
0
41
1
10
11.0853690887293
20
-1.6275853656835
30
0
41
1
10
11.0962859425599
20
-1.60649643111992
30
0
41
1
10
11.1012125973041
20
-1.59157065641085
30
0
41
1
10
11.1040419200234
20
-1.5758739826266
30
0
0
SPLINE
5
11D
100
AcDbEntity
8
1
62
256
6
ByLayer
370
18
48
1
60
0
100
AcDbSpline
70
4
71
3
72
35
73
31
40
0
40
0
40
0
40
0
40
0.125
40
0.125
40
0.250000000000001
40
0.250000000000001
40
0.375000000000001
40
0.375000000000001
40
0.437500000000002
40
0.437500000000002
40
0.500000000000004
40
0.500000000000004
40
0.624999999999999
40
0.624999999999999
40
0.687499999999997
40
0.687499999999997
40
0.718749999999999
40
0.718749999999999
40
0.750000000000002
40
0.750000000000002
40
0.812499999999999
40
0.812499999999999
40
0.843749999999998
40
0.843749999999998
40
0.874999999999998
40
0.906249999999997
40
0.906249999999997
40
0.937499999999997
40
0.937499999999997
40
1
40
1
40
1
40
1
41
1
10
13.1613175788577
20
-1.56817350080178
30
0
41
1
10
13.1297772295705
20
-1.58638332995306
30
0
41
1
10
13.0974579530947
20
-1.60339719413148
30
0
41
1
10
13.0316805576114
20
-1.63470719878114
30
0
41
1
10
12.9982209585031
20
-1.64901418158772
30
0
41
1
10
12.9300446033327
20
-1.67465175088614
30
0
41
1
10
12.8954321109219
20
-1.68594178652071
30
0
41
1
10
12.8429141140434
20
-1.70007016060495
30
0
41
1
10
12.8252934757035
20
-1.70431416728095
30
0
41
1
10
12.7897948255429
20
-1.71174711807254
30
0
41
1
10
12.7719165605874
20
-1.71493414241078
30
0
41
1
10
12.7182242862203
20
-1.72259345910183
30
0
41
1
10
12.6820984813027
20
-1.72524100316116
30
0
41
1
10
12.6285786183055
20
-1.72375865959066
30
0
41
1
10
12.6107537990743
20
-1.72233871915827
30
0
41
1
10
12.5845360569577
20
-1.71848786646998
30
0
41
1
10
12.5758813857683
20
-1.71691792158273
30
0
41
1
10
12.5587665670624
20
-1.71312859999105
30
0
41
1
10
12.5502781402103
20
-1.7108992377523
30
0
41
1
10
12.5254725850453
20
-1.70318929212849
30
0
41
1
10
12.5097502526873
20
-1.69669768027057
30
0
41
1
10
12.487729770635
20
-1.68441462487209
30
0
41
1
10
12.4806039452574
20
-1.67985370788168
30
0
41
1
10
12.4672721794875
20
-1.66998059887629
30
0
41
1
10
12.4548373620843
20
-1.65936475940734
30
0
41
1
10
12.4442739531632
20
-1.64720978217954
30
0
41
1
10
12.4347020606928
20
-1.6342436367423
30
0
41
1
10
12.4304662602203
20
-1.62741141534428
30
0
41
1
10
12.419618907375
20
-1.60639956185241
30
0
41
1
10
12.4147141868961
20
-1.59152420135823
30
0
41
1
10
12.4118932376919
20
-1.5758739826266
30
0
0
SPLINE
5
11E
100
AcDbEntity
8
1
62
256
6
ByLayer
370
18
48
1
60
0
100
AcDbSpline
70
4
71
3
72
8
73
4
40
0
40
0
40
0
40
0
40
1
40
1
40
1
40
1
41
1
10
12.4118932376919
20
-1.5758739826266
30
0
41
1
10
12.4089560151727
20
-1.56987206615474
30
0
41
1
10
12.4060186863057
20
-1.56386993237206
30
0
41
1
10
12.4030812485789
20
-1.55786757614547
30
0
0
SPLINE
5
11F
100
AcDbEntity
8
1
62
256
6
ByLayer
370
18
48
1
60
0
100
AcDbSpline
70
4
71
3
72
39
73
35
40
0
40
0
40
0
40
0
40
0.125
40
0.125
40
0.25
40
0.25
40
0.375
40
0.375
40
0.437500000000003
40
0.437500000000003
40
0.500000000000006
40
0.500000000000006
40
0.562500000000009
40
0.562500000000009
40
0.625000000000013
40
0.625000000000013
40
0.687500000000016
40
0.687500000000016
40
0.718750000000018
40
0.718750000000018
40
0.75000000000002
40
0.75000000000002
40
0.812500000000017
40
0.812500000000017
40
0.843750000000014
40
0.843750000000014
40
0.875000000000012
40
0.875000000000012
40
0.906250000000009
40
0.906250000000009
40
0.937500000000006
40
0.968750000000003
40
0.968750000000003
40
1
40
1
40
1
40
1
41
1
10
8.95126757885768
20
0.862499999999983
30
0
41
1
10
8.95126757885768
20
0.898924872285903
30
0
41
1
10
8.9526914338976
20
0.935385094698574
30
0
41
1
10
8.95846109795633
20
1.00798529795452
30
0
41
1
10
8.96281115483615
20
1.04419641599421
30
0
41
1
10
8.97468212369483
20
1.11597461901542
30
0
41
1
10
8.98221214838861
20
1.15161874246371
30
0
41
1
10
8.99624848681083
20
1.20421248199574
30
0
41
1
10
9.00138368545691
20
1.22159147396195
30
0
41
1
10
9.01268029387904
20
1.25600419869798
30
0
41
1
10
9.01885101873162
20
1.2730607524457
30
0
41
1
10
9.03231148558132
20
1.3065848504292
30
0
41
1
10
9.03960295543104
20
1.32306693333032
30
0
41
1
10
9.05552077573503
20
1.35535781174883
30
0
41
1
10
9.06410938929963
20
1.37108402379437
30
0
41
1
10
9.08266872230871
20
1.40130763675575
30
0
41
1
10
9.09265101047674
20
1.41583823488835
30
0
41
1
10
9.10895173495157
20
1.43652081568635
30
0
41
1
10
9.1146078797633
20
1.44322827372224
30
0
41
1
10
9.12643592130468
20
1.45620759716257
30
0
41
1
10
9.1326026628056
20
1.46246783306759
30
0
41
1
10
9.15164181260087
20
1.48015610276951
30
0
41
1
10
9.16514111491907
20
1.49061835172162
30
0
41
1
10
9.18693497527232
20
1.50371744606747
30
0
41
1
10
9.19442689874523
20
1.50761868685746
30
0
41
1
10
9.20958267639946
20
1.51425647600482
30
0
41
1
10
9.21728794451195
20
1.51701927561137
30
0
41
1
10
9.23296620558025
20
1.52135809607842
30
0
41
1
10
9.24100445920499
20
1.52293951792635
30
0
41
1
10
9.25701787343345
20
1.52478210350668
30
0
41
1
10
9.27291130542326
20
1.52532304564122
30
0
41
1
10
9.28857144066163
20
1.52338363920575
30
0
41
1
10
9.3041173891927
20
1.52024189284373
30
0
41
1
10
9.31180912636819
20
1.51806893846981
30
0
41
1
10
9.31931093655891
20
1.51537075857635
30
0
0
SPLINE
5
120
100
AcDbEntity
8
1
62
256
6
ByLayer
370
18
48
1
60
0
100
AcDbSpline
70
4
71
3
72
8
73
4
40
0
40
0
40
0
40
0
40
1
40
1
40
1
40
1
41
1
10
9.98442460628016
20
2.63136861437994
30
0
41
1
10
9.98069513216876
20
2.63691368818664
30
0
41
1
10
9.97696579626952
20
2.64245855649605
30
0
41
1
10
9.97323659539313
20
2.6480032240502
30
0
0
SPLINE
5
121
100
AcDbEntity
8
1
62
256
6
ByLayer
370
18
48
1
60
0
100
AcDbSpline
70
4
71
3
72
35
73
31
40
0
40
0
40
0
40
0
40
0.125
40
0.125
40
0.250000000000001
40
0.250000000000001
40
0.375000000000001
40
0.375000000000001
40
0.500000000000002
40
0.500000000000002
40
0.562500000000001
40
0.562500000000001
40
0.625000000000001
40
0.625000000000001
40
0.6875
40
0.6875
40
0.718749999999999
40
0.718749999999999
40
0.749999999999998
40
0.749999999999998
40
0.812500000000005
40
0.812500000000005
40
0.843750000000006
40
0.843750000000006
40
0.875000000000006
40
0.906250000000007
40
0.906250000000007
40
0.937500000000008
40
0.937500000000008
40
1
40
1
40
1
40
1
41
1
10
10.3546175788577
20
3.29317350080177
30
0
41
1
10
10.3230779381757
20
3.27496408076391
30
0
41
1
10
10.2922212785803
20
3.25550689168625
30
0
41
1
10
10.2321734778796
20
3.21416810484544
30
0
41
1
10
10.2030557957223
20
3.19234419145144
30
0
41
1
10
10.1468137133643
20
3.14616275865046
30
0
41
1
10
10.1196790806964
20
3.12179398606327
30
0
41
1
10
10.0682130537131
20
3.0704199419832
30
0
41
1
10
10.0438585179562
20
3.04340729895444
30
0
41
1
10
10.010382251296
20
3.00072035386702
30
0
41
1
10
9.99975256822907
20
2.98614981553129
30
0
41
1
10
9.97975534808154
20
2.95620204398063
30
0
41
1
10
9.97041586553408
20
2.9408589954144
30
0
41
1
10
9.95352492538262
20
2.90962857749326
30
0
41
1
10
9.94594164452855
20
2.89370195120748
30
0
41
1
10
9.93620451083069
20
2.86923326821776
30
0
41
1
10
9.93323345450474
20
2.86098002412501
30
0
41
1
10
9.92792920369087
20
2.84425059729892
30
0
41
1
10
9.92559764670233
20
2.8357644151971
30
0
41
1
10
9.9198283835442
20
2.81039905828848
30
0
41
1
10
9.91754777489342
20
2.79347009944101
30
0
41
1
10
9.91715047231401
20
2.76806495634975
30
0
41
1
10
9.91753696120728
20
2.75961074162058
30
0
41
1
10
9.91939903303961
20
2.74320404363658
30
0
41
1
10
9.92234446018804
20
2.72717786470992
30
0
41
1
10
9.92755741756608
20
2.71195660494652
30
0
41
1
10
9.93397804870173
20
2.69716755170884
30
0
41
1
10
9.93778963964812
20
2.69003006183999
30
0
41
1
10
9.9505947658036
20
2.67003132181148
30
0
41
1
10
9.96105753850071
20
2.65830182629276
30
0
41
1
10
9.97323659539313
20
2.6480032240502
30
0
0
SPLINE
5
122
100
AcDbEntity
8
1
62
256
6
ByLayer
370
18
48
1
60
0
100
AcDbSpline
70
4
71
3
72
8
73
4
40
0
40
0
40
0
40
0
40
1
40
1
40
1
40
1
41
1
10
9.33931093655889
20
1.51399896176551
30
0
41
1
10
9.33264402472074
20
1.5144562441854
30
0
41
1
10
9.32597735995452
20
1.51491350965867
30
0
41
1
10
9.31931093655891
20
1.51537075857635
30
0
0
SPLINE
5
123
100
AcDbEntity
8
1
62
256
6
ByLayer
370
18
48
1
60
0
100
AcDbSpline
70
4
71
3
72
50
73
46
40
0
40
0
40
0
40
0
40
0.0312500000000033
40
0.0312500000000033
40
0.0468750000000042
40
0.0468750000000042
40
0.0625000000000051
40
0.0625000000000051
40
0.125000000000005
40
0.125000000000005
40
0.156250000000005
40
0.156250000000005
40
0.187500000000005
40
0.187500000000005
40
0.250000000000004
40
0.250000000000004
40
0.281250000000004
40
0.281250000000004
40
0.312500000000003
40
0.312500000000003
40
0.375000000000001
40
0.375000000000001
40
0.499999999999995
40
0.499999999999995
40
0.562499999999994
40
0.562499999999994
40
0.624999999999992
40
0.624999999999992
40
0.687499999999991
40
0.687499999999991
40
0.74999999999999
40
0.74999999999999
40
0.812499999999989
40
0.812499999999989
40
0.843749999999991
40
0.843749999999991
40
0.874999999999993
40
0.874999999999993
40
0.906249999999995
40
0.906249999999995
40
0.937499999999996
40
0.937499999999996
40
0.968749999999998
40
0.968749999999998
40
1
40
1
40
1
40
1
41
1
10
9.98442460628016
20
2.63136861437994
30
0
41
1
10
9.99212275093154
20
2.61992282363539
30
0
41
1
10
9.99852618866933
20
2.60775405452205
30
0
41
1
10
10.0066138770056
20
2.58864568520565
30
0
41
1
10
10.0090542187987
20
2.58213218716099
30
0
41
1
10
10.0134704196557
20
2.5688415482212
30
0
41
1
10
10.0154503578249
20
2.56204493715646
30
0
41
1
10
10.0241950899266
20
2.52780640596652
30
0
41
1
10
10.0276646064672
20
2.49947052693048
30
0
41
1
10
10.029267335373
20
2.45592734754877
30
0
41
1
10
10.0291792981549
20
2.44118949864148
30
0
41
1
10
10.0279329323937
20
2.41177099963647
30
0
41
1
10
10.0267788556846
20
2.397054512425
30
0
41
1
10
10.0219367556457
20
2.35287223400849
30
0
41
1
10
10.0168819282326
20
2.32337341384164
30
0
41
1
10
10.0070329087388
20
2.27902167291467
30
0
41
1
10
10.0033590575834
20
2.26418796128922
30
0
41
1
10
9.99533233329632
20
2.23463480876603
30
0
41
1
10
9.99099401722265
20
2.21996210736009
30
0
41
1
10
9.97708415654765
20
2.17622586506465
30
0
41
1
10
9.96662319238789
20
2.14744221932202
30
0
41
1
10
9.93204945340148
20
2.06207002010385
30
0
41
1
10
9.90480085265926
20
2.0064403133911
30
0
41
1
10
9.85778572333092
20
1.92483070867067
30
0
41
1
10
9.8412337213783
20
1.89821612064918
30
0
41
1
10
9.80637407962556
20
1.84622686486136
30
0
41
1
10
9.7880619945995
20
1.82085308614444
30
0
41
1
10
9.74985438803634
20
1.77179280601996
30
0
41
1
10
9.7298814914412
20
1.7480075676134
30
0
41
1
10
9.68841207750199
20
1.70253009279827
30
0
41
1
10
9.66688072463307
20
1.68078734689337
30
0
41
1
10
9.62209361681852
20
1.63973127900971
30
0
41
1
10
9.59898826413368
20
1.62054371366594
30
0
41
1
10
9.56298226442846
20
1.59417453180967
30
0
41
1
10
9.55073219096656
20
1.58577740056754
30
0
41
1
10
9.52586982564364
20
1.57001828074632
30
0
41
1
10
9.51324679772034
20
1.5626453785716
30
0
41
1
10
9.48754210368639
20
1.54907229692762
30
0
41
1
10
9.47448317511137
20
1.54288670539589
30
0
41
1
10
9.44806080958679
20
1.53201988985756
30
0
41
1
10
9.43463244588563
20
1.52731156771949
30
0
41
1
10
9.40750618270044
20
1.51975748061361
30
0
41
1
10
9.39391981563298
20
1.51693710516696
30
0
41
1
10
9.36667622406679
20
1.51359092752375
30
0
41
1
10
9.35301918406074
20
1.51305871525523
30
0
41
1
10
9.33931093655889
20
1.51399896176551
30
0
0
SPLINE
5
124
100
AcDbEntity
8
1
62
256
6
ByLayer
370
18
48
1
60
0
100
AcDbSpline
70
4
71
3
72
19
73
15
40
0
40
0
40
0
40
0
40
0.105598795309662
40
0.207133056768164
40
0.304606247524396
40
0.398022283830898
40
0.487385615464967
40
0.572701326119388
40
0.653975258965674
40
0.731214174678406
40
0.80442595212549
40
0.873619846082976
40
0.938806822394126
40
1
40
1
40
1
40
1
41
1
10
32.5903344094777
20
-9.5544146481781
30
0
41
1
10
32.5840761970285
20
-9.55379505091469
30
0
41
1
10
32.5718006528737
20
-9.55257970489905
30
0
41
1
10
32.5537803793112
20
-9.55049178787633
30
0
41
1
10
32.5365066980787
20
-9.54826928590521
30
0
41
1
10
32.5199815978415
20
-9.545906487872
30
0
41
1
10
32.5042045496441
20
-9.54342261253689
30
0
41
1
10
32.4891756699279
20
-9.54083010670064
30
0
41
1
10
32.4748948450178
20
-9.53814283665295
30
0
41
1
10
32.461362220515
20
-9.53537303985141
30
0
41
1
10
32.4485771361835
20
-9.53253532382485
30
0
41
1
10
32.4365416220808
20
-9.52963436811746
30
0
41
1
10
32.4252484391685
20
-9.52670658036644
30
0
41
1
10
32.4180023208297
20
-9.5246218545511
30
0
41
1
10
32.4144937556577
20
-9.52361243184413
30
0
0
SPLINE
5
125
100
AcDbEntity
8
1
62
256
6
ByLayer
370
18
48
1
60
0
100
AcDbSpline
70
4
71
3
72
16
73
12
40
0
40
0
40
0
40
0
40
0.118227901208892
40
0.234676362797894
40
0.3493454812189
40
0.462235357483962
40
0.573346097457497
40
0.682677812172248
40
0.790230618171219
40
0.896004637878218
40
1
40
1
40
1
40
1
41
1
10
33.2782562832493
20
-9.60976532614512
30
0
41
1
10
33.2511197056845
20
-9.60794331624095
30
0
41
1
10
33.1972549812278
20
-9.60432671937232
30
0
41
1
10
33.1170922922537
20
-9.59861213906794
30
0
41
1
10
33.0381709830422
20
-9.59274729253343
30
0
41
1
10
32.9604925316279
20
-9.58671804705037
30
0
41
1
10
32.8840565884171
20
-9.58053902452082
30
0
41
1
10
32.8088631066358
20
-9.57421907769256
30
0
41
1
10
32.7349125996956
20
-9.56776142088233
30
0
41
1
10
32.6622031062714
20
-9.56119601064685
30
0
41
1
10
32.6141548395486
20
-9.55666228835284
30
0
41
1
10
32.5903344094477
20
-9.55441464817
30
0
0
SPLINE
5
126
100
AcDbEntity
8
1
62
256
6
ByLayer
370
18
48
1
60
0
100
AcDbSpline
70
4
71
2
72
10
73
7
40
0
40
0
40
0
40
0.5
40
0.5
40
0.75
40
0.75
40
1
40
1
40
1
41
1
10
33.2782887623582
20
-9.60976747626199
30
0
41
1
10
33.5084766281546
20
-9.6250343736815
30
0
41
1
10
33.68936707471
20
-9.66124164326294
30
0
41
1
10
33.805684398832
20
-9.68452387177018
30
0
41
1
10
33.8895082914303
20
-9.71448105149176
30
0
41
1
10
34.03260931112
20
-9.76562283019354
30
0
41
1
10
34.0579578053784
20
-9.826764413028
30
0
0
SPLINE
5
127
100
AcDbEntity
8
1
62
256
6
ByLayer
370
18
48
1
60
0
100
AcDbSpline
70
4
71
2
72
6
73
3
40
0
40
0
40
0
40
1
40
1
40
1
41
1
10
34.0579578055285
20
-9.826764412942
30
0
41
1
10
34.096459487415
20
-9.92190873490858
30
0
41
1
10
34.0965718838384
20
-10.0174999993024
30
0
0
SPLINE
5
128
100
AcDbEntity
8
1
62
256
6
ByLayer
370
18
48
1
60
0
100
AcDbSpline
70
4
71
3
72
24
73
20
40
0
40
0
40
0
40
0
40
0.0615883759049187
40
0.122688254024679
40
0.183326299851658
40
0.243529792547999
40
0.303326606004205
40
0.362745186445292
40
0.42181452653919
40
0.480564136000274
40
0.539024008730882
40
0.597224586585078
40
0.655196719894215
40
0.712971624940741
40
0.770580838619304
40
0.828056170570642
40
0.885429653119892
40
0.942733489390627
40
1
40
1
40
1
40
1
41
1
10
34.0579578055277
20
-10.248235587058
30
0
41
1
10
34.0594436198264
20
-10.2445098201942
30
0
41
1
10
34.0624034634565
20
-10.2370878379662
30
0
41
1
10
34.0665335510313
20
-10.2258783496833
30
0
41
1
10
34.0704126002711
20
-10.2146714868724
30
0
41
1
10
34.0740202244668
20
-10.20345887988
30
0
41
1
10
34.0773618148128
20
-10.1922431796984
30
0
41
1
10
34.0804359314506
20
-10.1810241178479
30
0
41
1
10
34.0832429457918
20
-10.1698022009938
30
0
41
1
10
34.085782749732
20
-10.1585777311409
30
0
41
1
10
34.0880553599418
20
-10.1473510656213
30
0
41
1
10
34.0900607713689
20
-10.1361225480182
30
0
41
1
10
34.0917989449761
20
-10.1248925264579
30
0
41
1
10
34.0932700015628
20
-10.1136613486895
30
0
41
1
10
34.0944734630585
20
-10.102429363221
30
0
41
1
10
34.095411083372
20
-10.0911969191887
30
0
41
1
10
34.0960763156915
20
-10.0799643651982
30
0
41
1
10
34.0964935260098
20
-10.068732053448
30
0
41
1
10
34.0965457702353
20
-10.0612432050217
30
0
41
1
10
34.0965718838377
20
-10.0575000006976
30
0
0
SPLINE
5
129
100
AcDbEntity
8
1
62
256
6
ByLayer
370
18
48
1
60
0
100
AcDbSpline
70
4
71
3
72
43
73
39
40
0
40
0
40
0
40
0
40
0.0409973406366486
40
0.0809092982715804
40
0.119736159842841
40
0.157478237047533
40
0.194135869264798
40
0.229709426921876
40
0.264199315386281
40
0.29760597948529
40
0.329929908777825
40
0.361171643733669
40
0.391331783012884
40
0.420410992088531
40
0.448410013519412
40
0.475329679265275
40
0.501170925548107
40
0.572592867093683
40
0.638080914696125
40
0.697670982799362
40
0.751410812475228
40
0.772779913618548
40
0.793234602755289
40
0.812782181749361
40
0.83143101801919
40
0.849190749344524
40
0.866072536338497
40
0.882089374987173
40
0.897256484840496
40
0.911591792130989
40
0.925116531009029
40
0.93785598943994
40
0.94984042740295
40
0.961106190504016
40
0.971697025976506
40
0.981665570834277
40
0.991074911407356
40
1
40
1
40
1
40
1
41
1
10
33.2782887623577
20
-10.465232523738
30
0
41
1
10
33.2895631222299
20
-10.4644594666407
30
0
41
1
10
33.3118133592344
20
-10.4629338187256
30
0
41
1
10
33.3447150641193
20
-10.4603310595286
30
0
41
1
10
33.3767019659087
20
-10.4575519476306
30
0
41
1
10
33.407772359178
20
-10.4545870102301
30
0
41
1
10
33.4379266866725
20
-10.4514564894663
30
0
41
1
10
33.4671648399147
20
-10.4481726572971
30
0
41
1
10
33.4954868525875
20
-10.4447494639607
30
0
41
1
10
33.5228927230565
20
-10.4412000360555
30
0
41
1
10
33.5493824591062
20
-10.4375372922654
30
0
41
1
10
33.5749560699526
20
-10.4337737711221
30
0
41
1
10
33.5996135570683
20
-10.4299216377357
30
0
41
1
10
33.6233549575164
20
-10.4259927389845
30
0
41
1
10
33.6461801897487
20
-10.4219983270722
30
0
41
1
10
33.668089599515
20
-10.4179500062245
30
0
41
1
10
33.7017162773129
20
-10.4113926336811
30
0
41
1
10
33.7456278445158
20
-10.4019624374581
30
0
41
1
10
33.7982823644367
20
-10.3889098214847
30
0
41
1
10
33.845773612152
20
-10.3753403912217
30
0
41
1
10
33.8811320206566
20
-10.36367796038
30
0
41
1
10
33.9059166189131
20
-10.354527896295
30
0
41
1
10
33.9217060220041
20
-10.3483006967103
30
0
41
1
10
33.9366569560853
20
-10.3419920122776
30
0
41
1
10
33.9507695474202
20
-10.3356078739192
30
0
41
1
10
33.9640439541748
20
-10.3291544837686
30
0
41
1
10
33.9764803619269
20
-10.322637929982
30
0
41
1
10
33.9880789876319
20
-10.3160642357987
30
0
41
1
10
33.9988400883374
20
-10.3094393232201
30
0
41
1
10
34.0087639371235
20
-10.3027689783529
30
0
41
1
10
34.0178508966875
20
-10.296058848725
30
0
41
1
10
34.0261011242259
20
-10.289314278393
30
0
41
1
10
34.0335154735876
20
-10.2825406620661
30
0
41
1
10
34.0400922106458
20
-10.275741999332
30
0
41
1
10
34.0458378226847
20
-10.268925587599
30
0
41
1
10
34.0507295801995
20
-10.2620859033483
30
0
41
1
10
34.0548425446086
20
-10.2552598166444
30
0
41
1
10
34.0569378321485
20
-10.250535402863
30
0
41
1
10
34.0579578053777
20
-10.248235586972
30
0
0
SPLINE
5
12A
100
AcDbEntity
8
1
62
256
6
ByLayer
370
18
48
1
60
0
100
AcDbSpline
70
4
71
2
72
6
73
3
40
0
40
0
40
0
40
1
40
1
40
1
41
1
10
33.2782562832498
20
-10.4652346738575
30
0
41
1
10
32.9275203628027
20
-10.4884625305676
30
0
41
1
10
32.5903344094485
20
-10.52058535183
30
0
0
SPLINE
5
12B
100
AcDbEntity
8
1
62
256
6
ByLayer
370
18
48
1
60
0
100
AcDbSpline
70
4
71
2
72
6
73
3
40
0
40
0
40
0
40
1
40
1
40
1
41
1
10
32.590334409478
20
-10.520585351822
30
0
41
1
10
32.484958330586
20
-10.5306766319907
30
0
41
1
10
32.4144937556582
20
-10.551387568156
30
0
0
LINE
5
83
100
AcDbEntity
8
80
62
256
6
ByLayer
370
18
48
1
60
0
100
AcDbLine
10
0
20
0
30
0
11
-5
21
0
31
0
39
0
210
0
220
0
230
1
0
LINE
5
84
100
AcDbEntity
8
81
62
256
6
ByLayer
370
18
48
1
60
0
100
AcDbLine
10
38.107968
20
-13.0375
30
0
11
43.107968
21
-13.0375
31
0
39
0
210
0
220
0
230
1
0
LINE
5
85
100
AcDbEntity
8
1
62
256
6
ByLayer
370
18
48
1
60
0
100
AcDbLine
10
0
20
-13.03649
30
0
11
0
21
-12.842112
31
0
39
0
210
0
220
0
230
1
0
LINE
5
86
100
AcDbEntity
8
1
62
256
6
ByLayer
370
18
48
1
60
0
100
AcDbLine
10
28.445658
20
-12.771471
30
0
11
28.44558
21
-12.727909
31
0
39
0
210
0
220
0
230
1
0
LINE
5
87
100
AcDbEntity
8
1
62
256
6
ByLayer
370
18
48
1
60
0
100
AcDbLine
10
30.91529
20
-12.770241
30
0
11
30.915053
21
-12.637498
31
0
39
0
210
0
220
0
230
1
0
LINE
5
88
100
AcDbEntity
8
1
62
256
6
ByLayer
370
18
48
1
60
0
100
AcDbLine
10
32.391566
20
-12.770241
30
0
11
30.91529
21
-12.770241
31
0
39
0
210
0
220
0
230
1
0
LINE
5
89
100
AcDbEntity
8
1
62
256
6
ByLayer
370
18
48
1
60
0
100
AcDbLine
10
28.445658
20
-12.771471
30
0
11
25.480471
21
-12.771471
31
0
39
0
210
0
220
0
230
1
0
LINE
5
8A
100
AcDbEntity
8
1
62
256
6
ByLayer
370
18
48
1
60
0
100
AcDbLine
10
0.317758
20
-13.64839
30
0
11
0.603475
21
-14.7147
31
0
39
0
210
0
220
0
230
1
0
LINE
5
8B
100
AcDbEntity
8
1
62
256
6
ByLayer
370
18
48
1
60
0
100
AcDbLine
10
0.603475
20
-14.7147
30
0
11
25.874661
21
-14.7147
31
0
39
0
210
0
220
0
230
1
0
LINE
5
8C
100
AcDbEntity
8
1
62
256
6
ByLayer
370
18
48
1
60
0
100
AcDbLine
10
0
20
11.9625
30
0
11
0
21
-12.842115
31
0
39
0
210
0
220
0
230
1
0
LINE
5
8D
100
AcDbEntity
8
1
62
256
6
ByLayer
370
18
48
1
60
0
100
AcDbLine
10
0
20
11.9625
30
0
11
8.358004
21
11.9625
31
0
39
0
210
0
220
0
230
1
0
LINE
5
8E
100
AcDbEntity
8
1
62
256
6
ByLayer
370
18
48
1
60
0
100
AcDbLine
10
29.41672
20
-7.377356
30
0
11
29.615114
21
-8.311032
31
0
39
0
210
0
220
0
230
1
0
LINE
5
8F
100
AcDbEntity
8
1
62
256
6
ByLayer
370
18
48
1
60
0
100
AcDbLine
10
29.615114
20
-11.763968
30
0
11
29.412102
21
-12.719381
31
0
39
0
210
0
220
0
230
1
0
LINE
5
90
100
AcDbEntity
8
1
62
256
6
ByLayer
370
18
48
1
60
0
100
AcDbLine
10
30.107968
20
-9.762531
30
0
11
30.107968
21
-10.312469
31
0
39
0
210
0
220
0
230
1
0
LINE
5
91
100
AcDbEntity
8
1
62
256
6
ByLayer
370
18
48
1
60
0
100
AcDbLine
10
19.324413
20
-12.842115
30
0
11
22.180709
21
-12.842115
31
0
39
0
210
0
220
0
230
1
0
LINE
5
92
100
AcDbEntity
8
1
62
256
6
ByLayer
370
18
48
1
60
0
100
AcDbLine
10
26.607968
20
-7.451755
30
0
11
26.607968
21
-12.75363
31
0
39
0
210
0
220
0
230
1
0
LINE
5
93
100
AcDbEntity
8
1
62
256
6
ByLayer
370
13
48
1
60
0
100
AcDbLine
10
20.107968
20
-7.37965
30
0
11
20.107968
21
-7.771157
31
0
39
0
210
0
220
0
230
1
0
LINE
5
94
100
AcDbEntity
8
1
62
256
6
ByLayer
370
18
48
1
60
0
100
AcDbLine
10
8.358004
20
11.9625
30
0
11
18.507968
21
5.196187
31
0
39
0
210
0
220
0
230
1
0
LINE
5
95
100
AcDbEntity
8
1
62
256
6
ByLayer
370
18
48
1
60
0
100
AcDbLine
10
19.324413
20
-12.842115
30
0
11
0
21
-12.842115
31
0
39
0
210
0
220
0
230
1
0
LINE
5
96
100
AcDbEntity
8
1
62
256
6
ByLayer
370
18
48
1
60
0
100
AcDbLine
10
19.324413
20
-12.842115
30
0
11
19.324413
21
-7.619362
31
0
39
0
210
0
220
0
230
1
0
LINE
5
97
100
AcDbEntity
8
1
62
256
6
ByLayer
370
18
48
1
60
0
100
AcDbLine
10
18.507968
20
-6.217262
30
0
11
18.507968
21
5.196187
31
0
39
0
210
0
220
0
230
1
0
LINE
5
98
100
AcDbEntity
8
SK1
62
256
6
ByLayer
370
18
48
1
60
0
100
AcDbLine
10
0
20
-13.03649
30
0
11
0
21
-12.842112
31
0
39
0
210
0
220
0
230
1
0
LINE
5
9A
100
AcDbEntity
8
SK1
62
256
6
ByLayer
370
18
48
1
60
0
100
AcDbLine
10
-10.84207
20
-12.4625
30
0
11
-81
21
-12.4625
31
0
39
0
210
0
220
0
230
1
0
LINE
5
9B
100
AcDbEntity
8
SK1
62
256
6
ByLayer
370
18
48
1
60
0
100
AcDbLine
10
-10.84207
20
12.4625
30
0
11
-81
21
12.4625
31
0
39
0
210
0
220
0
230
1
0
LINE
5
9C
100
AcDbEntity
8
SK1
62
256
6
ByLayer
370
18
48
1
60
0
100
AcDbLine
10
-84
20
9.4625
30
0
11
-81
21
12.4625
31
0
39
0
210
0
220
0
230
1
0
LINE
5
9D
100
AcDbEntity
8
SK1
62
256
6
ByLayer
370
18
48
1
60
0
100
AcDbLine
10
-84
20
9.4625
30
0
11
-84
21
-9.4625
31
0
39
0
210
0
220
0
230
1
0
LINE
5
9E
100
AcDbEntity
8
SK1
62
256
6
ByLayer
370
18
48
1
60
0
100
AcDbLine
10
-84
20
-9.4625
30
0
11
-81
21
-12.4625
31
0
39
0
210
0
220
0
230
1
0
LINE
5
9F
100
AcDbEntity
8
SK1
62
256
6
ByLayer
370
18
48
1
60
0
100
AcDbLine
10
-6
20
11.9625
30
0
11
-5.904684
21
11.9625
31
0
39
0
210
0
220
0
230
1
0
LINE
5
A0
100
AcDbEntity
8
SK1
62
256
6
ByLayer
370
18
48
1
60
0
100
AcDbLine
10
-5.904684
20
-12.4625
30
0
11
-10.84207
21
-12.4625
31
0
39
0
210
0
220
0
230
1
0
LINE
5
A1
100
AcDbEntity
8
SK1
62
256
6
ByLayer
370
18
48
1
60
0
100
AcDbLine
10
-7.161895
20
12.4625
30
0
11
-10.84207
21
12.4625
31
0
39
0
210
0
220
0
230
1
0
LINE
5
A2
100
AcDbEntity
8
SK1
62
256
6
ByLayer
370
18
48
1
60
0
100
AcDbLine
10
-10.84207
20
12.4625
30
0
11
-10.84207
21
-12.4625
31
0
39
0
210
0
220
0
230
1
0
LINE
5
A3
100
AcDbEntity
8
SK1
62
256
6
ByLayer
370
18
48
1
60
0
100
AcDbLine
10
-5.904684
20
11.9625
30
0
11
-3.827688
21
11.9625
31
0
39
0
210
0
220
0
230
1
0
LINE
5
A4
100
AcDbEntity
8
SK1
62
256
6
ByLayer
370
13
48
1
60
0
100
AcDbLine
10
-5.904684
20
-12.4625
30
0
11
-5.904684
21
11.9625
31
0
39
0
210
0
220
0
230
1
0
LINE
5
A5
100
AcDbEntity
8
SK1
62
256
6
ByLayer
370
18
48
1
60
0
100
AcDbLine
10
-3.827688
20
-12.4625
30
0
11
-5.904684
21
-12.4625
31
0
39
0
210
0
220
0
230
1
0
LINE
5
A6
100
AcDbEntity
8
SK1
62
256
6
ByLayer
370
18
48
1
60
0
100
AcDbLine
10
0
20
11.9625
30
0
11
0
21
-12.842115
31
0
39
0
210
0
220
0
230
1
0
LINE
5
A7
100
AcDbEntity
8
SK1
62
256
6
ByLayer
370
18
48
1
60
0
100
AcDbLine
10
-3.827688
20
11.9625
30
0
11
0
21
11.9625
31
0
39
0
210
0
220
0
230
1
0
LINE
5
A8
100
AcDbEntity
8
SK1
62
256
6
ByLayer
370
18
48
1
60
0
100
AcDbLine
10
-3.827688
20
11.9625
30
0
11
-3.827688
21
-12.4625
31
0
39
0
210
0
220
0
230
1
0
LINE
5
A9
100
AcDbEntity
8
SK1
62
256
6
ByLayer
370
18
48
1
60
0
100
AcDbLine
10
-1.227723
20
-12.4625
30
0
11
-3.827688
21
-12.4625
31
0
39
0
210
0
220
0
230
1
0
LINE
5
AA
100
AcDbEntity
8
SK1
62
256
6
ByLayer
370
18
48
1
60
0
100
AcDbLine
10
0
20
-12.842115
30
0
11
-0.192996
21
-12.842115
31
0
39
0
210
0
220
0
230
1
0
LINE
5
AB
100
AcDbEntity
8
1
62
256
6
ByLayer
370
18
48
1
60
0
100
AcDbLine
10
13.531223
20
-13.053697
30
0
11
15.539285
21
-12.936753
31
0
39
0
210
0
220
0
230
1
0
LINE
5
AC
100
AcDbEntity
8
1
62
256
6
ByLayer
370
18
48
1
60
0
100
AcDbLine
10
37.684712
20
-7.021303
30
0
11
35.67665
21
-7.138247
31
0
39
0
210
0
220
0
230
1
0
LINE
5
AD
100
AcDbEntity
8
1
62
256
6
ByLayer
370
18
48
1
60
0
100
AcDbLine
10
37.684712
20
-13.053697
30
0
11
35.67665
21
-12.936753
31
0
39
0
210
0
220
0
230
1
0
LINE
5
AE
100
AcDbEntity
8
1
62
256
6
ByLayer
370
18
48
1
60
0
100
AcDbLine
10
38.107968
20
-7.420626
30
0
11
38.107968
21
-12.654374
31
0
39
0
210
0
220
0
230
1
0
LINE
5
AF
100
AcDbEntity
8
1
62
256
6
ByLayer
370
18
48
1
60
0
100
AcDbLine
10
15.539285
20
-12.936753
30
0
11
15.964894
21
-12.958578
31
0
39
0
210
0
220
0
230
1
0
LINE
5
B0
100
AcDbEntity
8
1
62
256
6
ByLayer
370
18
48
1
60
0
100
AcDbLine
10
15.539285
20
-12.842074
30
0
11
15.539285
21
-12.936753
31
0
39
0
210
0
220
0
230
1
0
LINE
5
B1
100
AcDbEntity
8
1
62
256
6
ByLayer
370
18
48
1
60
0
100
AcDbLine
10
35.67665
20
-7.138247
30
0
11
35.251041
21
-7.116422
31
0
39
0
210
0
220
0
230
1
0
LINE
5
B2
100
AcDbEntity
8
1
62
256
6
ByLayer
370
18
48
1
60
0
100
AcDbLine
10
35.67665
20
-12.936753
30
0
11
35.251041
21
-12.958578
31
0
39
0
210
0
220
0
230
1
0
LINE
5
B3
100
AcDbEntity
8
1
62
256
6
ByLayer
370
18
48
1
60
0
100
AcDbLine
10
35.67665
20
-7.138247
30
0
11
35.67665
21
-12.936753
31
0
39
0
210
0
220
0
230
1
0
LINE
5
B4
100
AcDbEntity
8
1
62
256
6
ByLayer
370
13
48
1
60
0
100
AcDbLine
10
30.107856
20
-10.0575
30
0
11
34.096572
21
-10.0575
31
0
39
0
210
0
220
0
230
1
0
LINE
5
B5
100
AcDbEntity
8
1
62
256
6
ByLayer
370
13
48
1
60
0
100
AcDbLine
10
30.107856
20
-10.0175
30
0
11
34.096572
21
-10.0175
31
0
39
0
210
0
220
0
230
1
0
LINE
5
B6
100
AcDbEntity
8
1
62
256
6
ByLayer
370
13
48
1
60
0
100
AcDbLine
10
30.107851
20
-10.248236
30
0
11
34.057958
21
-10.248236
31
0
39
0
210
0
220
0
230
1
0
LINE
5
B7
100
AcDbEntity
8
1
62
256
6
ByLayer
370
13
48
1
60
0
100
AcDbLine
10
30.107851
20
-9.826764
30
0
11
34.057958
21
-9.826764
31
0
39
0
210
0
220
0
230
1
0
LINE
5
B8
100
AcDbEntity
8
1
62
256
6
ByLayer
370
13
48
1
60
0
100
AcDbLine
10
33.278254
20
-10.465233
30
0
11
29.999446
21
-10.465233
31
0
39
0
210
0
220
0
230
1
0
LINE
5
B9
100
AcDbEntity
8
1
62
256
6
ByLayer
370
13
48
1
60
0
100
AcDbLine
10
33.278254
20
-9.609767
30
0
11
29.999446
21
-9.609767
31
0
39
0
210
0
220
0
230
1
0
LINE
5
BA
100
AcDbEntity
8
1
62
256
6
ByLayer
370
13
48
1
60
0
100
AcDbLine
10
32.590334
20
-9.554415
30
0
11
29.86983
21
-9.554415
31
0
39
0
210
0
220
0
230
1
0
LINE
5
BB
100
AcDbEntity
8
1
62
256
6
ByLayer
370
13
48
1
60
0
100
AcDbLine
10
32.590334
20
-10.520585
30
0
11
29.86983
21
-10.520585
31
0
39
0
210
0
220
0
230
1
0
LINE
5
BC
100
AcDbEntity
8
1
62
256
6
ByLayer
370
13
48
1
60
0
100
AcDbLine
10
29.827801
20
-9.523612
30
0
11
32.414494
21
-9.523612
31
0
39
0
210
0
220
0
230
1
0
LINE
5
BD
100
AcDbEntity
8
1
62
256
6
ByLayer
370
13
48
1
60
0
100
AcDbLine
10
29.827801
20
-10.551388
30
0
11
32.414494
21
-10.551388
31
0
39
0
210
0
220
0
230
1
0
LINE
5
BE
100
AcDbEntity
8
1
62
256
6
ByLayer
370
13
48
1
60
0
100
AcDbLine
10
32.103358
20
-9.431835
30
0
11
29.812109
21
-9.431835
31
0
39
0
210
0
220
0
230
1
0
LINE
5
BF
100
AcDbEntity
8
1
62
256
6
ByLayer
370
13
48
1
60
0
100
AcDbLine
10
32.103358
20
-10.643165
30
0
11
29.812312
21
-10.643165
31
0
39
0
210
0
220
0
230
1
0
LINE
5
C0
100
AcDbEntity
8
1
62
256
6
ByLayer
370
13
48
1
60
0
100
AcDbLine
10
32.017887
20
-9.387566
30
0
11
29.804462
21
-9.387566
31
0
39
0
210
0
220
0
230
1
0
LINE
5
C1
100
AcDbEntity
8
1
62
256
6
ByLayer
370
13
48
1
60
0
100
AcDbLine
10
32.017887
20
-10.687434
30
0
11
29.804862
21
-10.687434
31
0
39
0
210
0
220
0
230
1
0
LINE
5
C2
100
AcDbEntity
8
1
62
256
6
ByLayer
370
18
48
1
60
0
100
AcDbLine
10
30.719451
20
-12.6375
30
0
11
29.429441
21
-12.6375
31
0
39
0
210
0
220
0
230
1
0
LINE
5
C3
100
AcDbEntity
8
1
62
256
6
ByLayer
370
18
48
1
60
0
100
AcDbLine
10
30.719451
20
-7.4375
30
0
11
29.429441
21
-7.4375
31
0
39
0
210
0
220
0
230
1
0
LINE
5
C4
100
AcDbEntity
8
1
62
256
6
ByLayer
370
13
48
1
60
0
100
AcDbLine
10
30.719451
20
-12.396249
30
0
11
29.480715
21
-12.396249
31
0
39
0
210
0
220
0
230
1
0
LINE
5
C5
100
AcDbEntity
8
1
62
256
6
ByLayer
370
13
48
1
60
0
100
AcDbLine
10
30.726036
20
-12.378884
30
0
11
29.484425
21
-12.378884
31
0
39
0
210
0
220
0
230
1
0
LINE
5
C6
100
AcDbEntity
8
1
62
256
6
ByLayer
370
18
48
1
60
0
100
AcDbLine
10
32.017887
20
-9.387566
30
0
11
30.726033
21
-7.696118
31
0
39
0
210
0
220
0
230
1
0
LINE
5
C7
100
AcDbEntity
8
1
62
256
6
ByLayer
370
18
48
1
60
0
100
AcDbLine
10
32.414494
20
-9.523612
30
0
11
32.103358
21
-9.431835
31
0
39
0
210
0
220
0
230
1
0
LINE
5
C8
100
AcDbEntity
8
1
62
256
6
ByLayer
370
18
48
1
60
0
100
AcDbLine
10
34.096572
20
-10.0175
30
0
11
34.096572
21
-10.0575
31
0
39
0
210
0
220
0
230
1
0
LINE
5
C9
100
AcDbEntity
8
1
62
256
6
ByLayer
370
18
48
1
60
0
100
AcDbLine
10
32.414494
20
-10.551388
30
0
11
32.103358
21
-10.643165
31
0
39
0
210
0
220
0
230
1
0
LINE
5
CA
100
AcDbEntity
8
1
62
256
6
ByLayer
370
18
48
1
60
0
100
AcDbLine
10
32.017887
20
-10.687434
30
0
11
30.726033
21
-12.378882
31
0
39
0
210
0
220
0
230
1
0
LINE
5
CB
100
AcDbEntity
8
1
62
256
6
ByLayer
370
18
48
1
60
0
100
AcDbLine
10
30.719451
20
-12.396249
30
0
11
30.719451
21
-12.6375
31
0
39
0
210
0
220
0
230
1
0
LINE
5
CC
100
AcDbEntity
8
1
62
256
6
ByLayer
370
18
48
1
60
0
100
AcDbLine
10
32.147823
20
-12.6375
30
0
11
30.719451
21
-12.6375
31
0
39
0
210
0
220
0
230
1
0
LINE
5
CD
100
AcDbEntity
8
1
62
256
6
ByLayer
370
18
48
1
60
0
100
AcDbLine
10
32.575479
20
-12.870409
30
0
11
32.147823
21
-12.6375
31
0
39
0
210
0
220
0
230
1
0
LINE
5
CE
100
AcDbEntity
8
1
62
256
6
ByLayer
370
18
48
1
60
0
100
AcDbLine
10
32.575479
20
-12.870409
30
0
11
35.251041
21
-12.958578
31
0
39
0
210
0
220
0
230
1
0
LINE
5
CF
100
AcDbEntity
8
1
62
256
6
ByLayer
370
18
48
1
60
0
100
AcDbLine
10
35.251041
20
-12.958578
30
0
11
35.251041
21
-7.116422
31
0
39
0
210
0
220
0
230
1
0
LINE
5
D0
100
AcDbEntity
8
1
62
256
6
ByLayer
370
18
48
1
60
0
100
AcDbLine
10
32.575479
20
-7.204591
30
0
11
35.251041
21
-7.116422
31
0
39
0
210
0
220
0
230
1
0
LINE
5
D1
100
AcDbEntity
8
1
62
256
6
ByLayer
370
18
48
1
60
0
100
AcDbLine
10
32.575479
20
-7.204591
30
0
11
32.147823
21
-7.4375
31
0
39
0
210
0
220
0
230
1
0
LINE
5
D2
100
AcDbEntity
8
1
62
256
6
ByLayer
370
18
48
1
60
0
100
AcDbLine
10
32.147823
20
-7.4375
30
0
11
30.719451
21
-7.4375
31
0
39
0
210
0
220
0
230
1
0
LINE
5
D3
100
AcDbEntity
8
1
62
256
6
ByLayer
370
18
48
1
60
0
100
AcDbLine
10
30.719451
20
-7.678751
30
0
11
30.719451
21
-7.4375
31
0
39
0
210
0
220
0
230
1
0
LINE
5
D4
100
AcDbEntity
8
1
62
256
6
ByLayer
370
13
48
1
60
0
100
AcDbLine
10
30.726036
20
-7.696116
30
0
11
29.484425
21
-7.696116
31
0
39
0
210
0
220
0
230
1
0
LINE
5
D5
100
AcDbEntity
8
1
62
256
6
ByLayer
370
13
48
1
60
0
100
AcDbLine
10
30.719451
20
-7.678751
30
0
11
29.480715
21
-7.678751
31
0
39
0
210
0
220
0
230
1
0
LINE
5
D6
100
AcDbEntity
8
1
62
256
6
ByLayer
370
18
48
1
60
0
100
AcDbLine
10
15.964894
20
-12.958578
30
0
11
15.964894
21
-12.8421
31
0
39
0
210
0
220
0
230
1
0
LINE
5
D7
100
AcDbEntity
8
1
62
256
6
ByLayer
370
18
48
1
60
0
100
AcDbLine
10
18.640456
20
-12.870409
30
0
11
15.964894
21
-12.958578
31
0
39
0
210
0
220
0
230
1
0
LINE
5
D8
100
AcDbEntity
8
1
62
256
6
ByLayer
370
18
48
1
60
0
100
AcDbLine
10
18.640456
20
-12.870409
30
0
11
18.69241
21
-12.842114
31
0
39
0
210
0
220
0
230
1
0
MTEXT
5
12C
100
AcDbEntity
8
SK6
62
256
6
ByLayer
370
18
48
1
60
0
100
AcDbMText
10
-55.260516
20
-55.278851
30
0
210
0
220
0
230
1
1
\W0.7596;C2A-QS25-LFK18B-168CB
40
3.5
41
0
44
1.084337
50
0
71
7
72
5
7
iso_b_vert
0
DIMENSION
5
131
100
AcDbEntity
8
2
62
256
6
ByLayer
370
18
48
1
60
0
100
AcDbDimension
2
_U0
10
71.207968
20
12.4625
30
0
11
71.207968
21
-0.2875
31
0
70
32
71
1
72
1
41
1
210
0
220
0
230
1
3
Standard
100
AcDbAlignedDimension
13
38.107968
23
-13.0375
33
0
14
0
24
12.4625
34
0
50
90
100
AcDbRotatedDimension
1001
ACAD
1000
DSTYLE
1002
{
1070
   371
1070
    13
1070
   372
1070
    13
1070
   170
1070
     0
1070
   144
1040
1.0
1070
   277
1070
     2
1070
   284
1070
     8
1070
   278
1070
    46
1070
   146
1040
1.0
1070
   345
1005
16
1070
   347
1005
16
1070
   346
1005
16
1070
   344
1005
0
1070
   343
1005
0
1070
   172
1070
     1
1070
    76
1070
     0
1070
    75
1070
     0
1070
   282
1070
     0
1070
   281
1070
     0
1070
    71
1070
     0
1070
    74
1070
     0
1070
   279
1070
     0
1070
   173
1070
     1
1070
   340
1005
12D
1070
   271
1070
     2
1070
   272
1070
     2
1070
    77
1070
     1
1070
    73
1070
     0
1070
   171
1070
     3
1070
   274
1070
     4
1070
   177
1070
     2
1070
   176
1070
     2
1070
   178
1070
     2
1070
    78
1070
     8
1070
    48
1040
-0.1
1070
    41
1040
3.5
1070
   147
1040
1.75
1070
    42
1040
1.5875
1070
    44
1040
2.0
1070
   140
1040
3.5
1002
}
1001
ACAD_DSTYLE_DIM_LINETYPE
1070
   380
1005
16
1001
ACAD_DSTYLE_DIM_EXT1_LINETYPE
1070
   381
1005
16
1001
ACAD_DSTYLE_DIM_EXT2_LINETYPE
1070
   382
1005
16
0
DIMENSION
5
14B
100
AcDbEntity
8
2
62
256
6
ByLayer
370
18
48
1
60
0
100
AcDbDimension
2
_U1
10
59.207968
20
-13.0375
30
0
11
59.207968
21
-10.0375
31
0
70
32
71
1
72
1
41
1
210
0
220
0
230
1
3
Standard
100
AcDbAlignedDimension
13
38.107968
23
-7.0375
33
0
14
38.107968
24
-13.0375
34
0
50
90
100
AcDbRotatedDimension
1001
ACAD
1000
DSTYLE
1002
{
1070
   371
1070
    13
1070
   372
1070
    13
1070
   170
1070
     0
1070
   144
1040
1.0
1070
   277
1070
     2
1070
   284
1070
     8
1070
   278
1070
    46
1070
   146
1040
1.0
1070
   345
1005
16
1070
   347
1005
16
1070
   346
1005
16
1070
   344
1005
0
1070
   343
1005
0
1070
   172
1070
     1
1070
    76
1070
     0
1070
    75
1070
     0
1070
   282
1070
     0
1070
   281
1070
     0
1070
    71
1070
     0
1070
    74
1070
     0
1070
   279
1070
     0
1070
   173
1070
     1
1070
   340
1005
12D
1070
   271
1070
     2
1070
   272
1070
     2
1070
    77
1070
     1
1070
    73
1070
     0
1070
   171
1070
     3
1070
   274
1070
     4
1070
   177
1070
     2
1070
   176
1070
     2
1070
   178
1070
     2
1070
    78
1070
     8
1070
    48
1040
-0.1
1070
    41
1040
3.5
1070
   147
1040
1.75
1070
    42
1040
1.5875
1070
    44
1040
2.0
1070
   140
1040
3.5
1002
}
1001
ACAD_DSTYLE_DIM_LINETYPE
1070
   380
1005
16
1001
ACAD_DSTYLE_DIM_EXT1_LINETYPE
1070
   381
1005
16
1001
ACAD_DSTYLE_DIM_EXT2_LINETYPE
1070
   382
1005
16
0
DIMENSION
5
164
100
AcDbEntity
8
SK2
62
256
6
ByLayer
370
18
48
1
60
0
100
AcDbDimension
2
_U2
10
-95.6
20
-12.5375
30
0
11
-95.6
21
-0.0375
31
0
70
32
71
1
72
1
41
1
210
0
220
0
230
1
3
Standard
100
AcDbAlignedDimension
13
0
23
12.4625
33
0
14
0
24
-12.5375
34
0
50
90
100
AcDbRotatedDimension
1001
ACAD
1000
DSTYLE
1002
{
1070
   371
1070
    13
1070
   372
1070
    13
1070
   170
1070
     0
1070
   144
1040
1.0
1070
   277
1070
     2
1070
   284
1070
     8
1070
   278
1070
    46
1070
   146
1040
1.0
1070
   345
1005
16
1070
   347
1005
16
1070
   346
1005
16
1070
   344
1005
0
1070
   343
1005
0
1070
   172
1070
     1
1070
    76
1070
     0
1070
    75
1070
     0
1070
   282
1070
     0
1070
   281
1070
     0
1070
    71
1070
     0
1070
    74
1070
     0
1070
   279
1070
     0
1070
   173
1070
     1
1070
   340
1005
12D
1070
   271
1070
     2
1070
   272
1070
     2
1070
    77
1070
     1
1070
    73
1070
     0
1070
   171
1070
     3
1070
   274
1070
     4
1070
   177
1070
     2
1070
   176
1070
     2
1070
   178
1070
     2
1070
    78
1070
     8
1070
    48
1040
-0.1
1070
    41
1040
3.5
1070
   147
1040
1.75
1070
    42
1040
1.5875
1070
    44
1040
2.0
1070
   140
1040
3.5
1002
}
1001
ACAD_DSTYLE_DIM_LINETYPE
1070
   380
1005
16
1001
ACAD_DSTYLE_DIM_EXT1_LINETYPE
1070
   381
1005
16
1001
ACAD_DSTYLE_DIM_EXT2_LINETYPE
1070
   382
1005
16
0
DIMENSION
5
17D
100
AcDbEntity
8
2
62
256
6
ByLayer
370
18
48
1
60
0
100
AcDbDimension
2
_U3
10
38.107968
20
18.7125
30
0
11
29.107968
21
18.7125
31
0
70
32
71
1
72
1
41
1
210
0
220
0
230
1
3
Standard
100
AcDbAlignedDimension
13
20.107968
23
-7.3625
33
0
14
38.107968
24
-13.0375
34
0
50
0
100
AcDbRotatedDimension
1001
ACAD
1000
DSTYLE
1002
{
1070
   371
1070
    13
1070
   372
1070
    13
1070
   170
1070
     0
1070
   144
1040
1.0
1070
   277
1070
     2
1070
   284
1070
     8
1070
   278
1070
    46
1070
   146
1040
1.0
1070
   345
1005
16
1070
   347
1005
16
1070
   346
1005
16
1070
   344
1005
0
1070
   343
1005
0
1070
   172
1070
     1
1070
    76
1070
     0
1070
    75
1070
     0
1070
   282
1070
     0
1070
   281
1070
     0
1070
    71
1070
     0
1070
    74
1070
     0
1070
   279
1070
     0
1070
   173
1070
     1
1070
   340
1005
12D
1070
   271
1070
     1
1070
   272
1070
     2
1070
    77
1070
     1
1070
    73
1070
     1
1070
   171
1070
     3
1070
   274
1070
     4
1070
   177
1070
     2
1070
   176
1070
     2
1070
   178
1070
     2
1070
    78
1070
     8
1070
    48
1040
-0.1
1070
    41
1040
3.5
1070
   147
1040
1.75
1070
    42
1040
1.5875
1070
    44
1040
2.0
1070
   140
1040
3.5
1002
}
1001
ACAD_DSTYLE_DIM_LINETYPE
1070
   380
1005
16
1001
ACAD_DSTYLE_DIM_EXT1_LINETYPE
1070
   381
1005
16
1001
ACAD_DSTYLE_DIM_EXT2_LINETYPE
1070
   382
1005
16
0
DIMENSION
5
195
100
AcDbEntity
8
SK2
62
256
6
ByLayer
370
18
48
1
60
0
100
AcDbDimension
2
_U4
10
38.107968
20
34.7125
30
0
11
-22.946016
21
34.7125
31
0
70
32
71
1
72
1
41
1
210
0
220
0
230
1
3
Standard
100
AcDbAlignedDimension
13
-84
23
12.4625
33
0
14
38.107968
24
-13.0375
34
0
50
0
100
AcDbRotatedDimension
1001
ACAD
1000
DSTYLE
1002
{
1070
   371
1070
    13
1070
   372
1070
    13
1070
   170
1070
     0
1070
   144
1040
1.0
1070
   277
1070
     2
1070
   284
1070
     8
1070
   278
1070
    46
1070
   146
1040
1.0
1070
   345
1005
16
1070
   347
1005
16
1070
   346
1005
16
1070
   344
1005
0
1070
   343
1005
0
1070
   172
1070
     1
1070
    76
1070
     0
1070
    75
1070
     0
1070
   282
1070
     0
1070
   281
1070
     0
1070
    71
1070
     0
1070
    74
1070
     0
1070
   279
1070
     0
1070
   173
1070
     1
1070
   340
1005
12D
1070
   271
1070
     1
1070
   272
1070
     2
1070
    77
1070
     1
1070
    73
1070
     1
1070
   171
1070
     3
1070
   274
1070
     4
1070
   177
1070
     2
1070
   176
1070
     2
1070
   178
1070
     2
1070
    78
1070
     8
1070
    48
1040
-0.1
1070
    41
1040
3.5
1070
   147
1040
1.75
1070
    42
1040
1.5875
1070
    44
1040
2.0
1070
   140
1040
3.5
1002
}
1001
ACAD_DSTYLE_DIM_LINETYPE
1070
   380
1005
16
1001
ACAD_DSTYLE_DIM_EXT1_LINETYPE
1070
   381
1005
16
1001
ACAD_DSTYLE_DIM_EXT2_LINETYPE
1070
   382
1005
16
0
DIMENSION
5
1AD
100
AcDbEntity
8
2
62
256
6
ByLayer
370
18
48
1
60
0
100
AcDbDimension
2
_U5
10
38.107968
20
26.7125
30
0
11
19.053984
21
26.7125
31
0
70
32
71
1
72
1
41
1
210
0
220
0
230
1
3
Standard
100
AcDbAlignedDimension
13
0
23
12.4625
33
0
14
38.107968
24
-13.0375
34
0
50
0
100
AcDbRotatedDimension
1001
ACAD
1000
DSTYLE
1002
{
1070
   371
1070
    13
1070
   372
1070
    13
1070
   170
1070
     0
1070
   144
1040
1.0
1070
   277
1070
     2
1070
   284
1070
     8
1070
   278
1070
    46
1070
   146
1040
1.0
1070
   345
1005
16
1070
   347
1005
16
1070
   346
1005
16
1070
   344
1005
0
1070
   343
1005
0
1070
   172
1070
     1
1070
    76
1070
     0
1070
    75
1070
     0
1070
   282
1070
     0
1070
   281
1070
     0
1070
    71
1070
     0
1070
    74
1070
     0
1070
   279
1070
     0
1070
   173
1070
     1
1070
   340
1005
12D
1070
   271
1070
     1
1070
   272
1070
     2
1070
    77
1070
     1
1070
    73
1070
     1
1070
   171
1070
     3
1070
   274
1070
     4
1070
   177
1070
     2
1070
   176
1070
     2
1070
   178
1070
     2
1070
    78
1070
     8
1070
    48
1040
-0.1
1070
    41
1040
3.5
1070
   147
1040
1.75
1070
    42
1040
1.5875
1070
    44
1040
2.0
1070
   140
1040
3.5
1002
}
1001
ACAD_DSTYLE_DIM_LINETYPE
1070
   380
1005
16
1001
ACAD_DSTYLE_DIM_EXT1_LINETYPE
1070
   381
1005
16
1001
ACAD_DSTYLE_DIM_EXT2_LINETYPE
1070
   382
1005
16
0
DIMENSION
5
1C5
100
AcDbEntity
8
SK2
62
256
6
ByLayer
370
18
48
1
60
0
100
AcDbDimension
2
_U6
10
-81
20
18.7125
30
0
11
-82.5
21
18.7125
31
0
70
32
71
1
72
1
41
1
210
0
220
0
230
1
3
Standard
100
AcDbAlignedDimension
13
-84
23
12.4625
33
0
14
-81
24
12.4625
34
0
50
0
100
AcDbRotatedDimension
1001
ACAD
1000
DSTYLE
1002
{
1070
   371
1070
    13
1070
   372
1070
    13
1070
   170
1070
     0
1070
   144
1040
1.0
1070
   277
1070
     2
1070
   284
1070
     8
1070
   278
1070
    46
1070
   146
1040
1.0
1070
   345
1005
16
1070
   347
1005
16
1070
   346
1005
16
1070
   344
1005
0
1070
   343
1005
0
1070
   172
1070
     1
1070
    76
1070
     0
1070
    75
1070
     0
1070
   282
1070
     0
1070
   281
1070
     0
1070
    71
1070
     0
1070
    74
1070
     0
1070
   279
1070
     0
1070
   173
1070
     1
1070
   340
1005
12D
1070
   271
1070
     2
1070
   272
1070
     2
1070
    77
1070
     1
1070
    73
1070
     1
1070
   171
1070
     3
1070
   274
1070
     4
1070
   177
1070
     2
1070
   176
1070
     2
1070
   178
1070
     2
1070
    78
1070
     8
1070
    48
1040
-0.1
1070
    41
1040
3.5
1070
   147
1040
1.75
1070
    42
1040
1.5875
1070
    44
1040
2.0
1070
   140
1040
3.5
1002
}
1001
ACAD_DSTYLE_DIM_LINETYPE
1070
   380
1005
16
1001
ACAD_DSTYLE_DIM_EXT1_LINETYPE
1070
   381
1005
16
1001
ACAD_DSTYLE_DIM_EXT2_LINETYPE
1070
   382
1005
16
0
ENDSEC
0
SECTION
2
OBJECTS
0
DICTIONARY
5
24d
330
0
100
AcDbDictionary
280
0
281
1
3
ACAD_GROUP
350
24e
3
ACAD_MLINESTYLE
350
24f
0
DICTIONARY
5
24e
330
0
100
AcDbDictionary
280
0
281
1
0
DICTIONARY
5
24f
330
0
100
AcDbDictionary
280
0
281
1
3
Standard
350
18
0
MLINESTYLE
5
18
330
24f
100
AcDbMlineStyle
2
Standard
70
0
3

62
256
51
90
52
90
71
2
49
-0.5
62
256
6
ByLayer
49
0.5
62
256
6
ByLayer
0
RASTERVARIABLES
5
23c
330

100
AcDbRasterVariables
90
0
70
1
71
1
72
1
0
ENDSEC
0
EOF
