0
SECTION
2
HEADER
9
$ACADVER
1
AC1015
9
$DWGCODEPAGE
3
ANSI_1252
9
$HANDSEED
5
250
9
$ANGBASE
50
0
9
$ANGDIR
70
0
9
$ATTMODE
70
1
9
$AUNITS
70
0
9
$AUPREC
70
0
9
$CECOLOR
62
256
9
$CELTSCALE
40
1
9
$CELTYPE
6
ByLayer
9
$CELWEIGHT
370
18
9
$CLAYER
8
0
9
$CMLJUST
70
0
9
$CMLSCALE
40
1
9
$CMLSTYLE
2
Standard
9
$DIMSTYLE
2
Standard
9
$TEXTSIZE
40
0.2
9
$TEXTSTYLE
7
Standard
9
$LUNITS
70
2
9
$LUPREC
70
4
9
$EXTNAMES
290
1
9
$INSUNITS
70
4
9
$LTSCALE
40
1
9
$LWDISPLAY
290
1
9
$PDMODE
70
0
9
$PDSIZE
40
0
9
$PLINEGEN
70
0
0
ENDSEC
0
SECTION
2
CLASSES
0
CLASS
1
RASTERVARIABLES
2
AcDbRasterVariables
3
ISM
90
0
280
0
281
0
0
ENDSEC
0
SECTION
2
TABLES
0
TABLE
2
VPORT
5
246
100
AcDbSymbolTable
0
VPORT
5
1
100
AcDbSymbolTableRecord
100
AcDbViewportTableRecord
2
*Active
70
0
10
0
20
0
11
1
21
1
12
-1
22
1
13
0
23
0
14
0.5
24
0.5
15
10
25
10
16
0
26
0
36
1
17
0
27
0
37
0
0
ENDTAB
0
TABLE
2
LTYPE
5
247
100
AcDbSymbolTable
0
LTYPE
5
14
100
AcDbSymbolTableRecord
100
AcDbLinetypeTableRecord
70
0
2
ByBlock
3

72
65
73
0
40
0
0
LTYPE
5
15
100
AcDbSymbolTableRecord
100
AcDbLinetypeTableRecord
70
0
2
ByLayer
3

72
65
73
0
40
0
0
LTYPE
5
16
100
AcDbSymbolTableRecord
100
AcDbLinetypeTableRecord
70
0
2
Continuous
3
Solid line
72
65
73
0
40
0
0
LTYPE
5
6E
100
AcDbSymbolTableRecord
100
AcDbLinetypeTableRecord
70
0
2
CENTER
3
____ _ ____ _ ____ _ ____
72
65
73
4
40
47.5
49
22
74
0
49
-8.5
74
0
49
8.5
74
0
49
-8.5
74
0
0
LTYPE
5
6F
100
AcDbSymbolTableRecord
100
AcDbLinetypeTableRecord
70
0
2
DASHED
3
__ __ __ __ __ __ __ __ __
72
65
73
2
40
25.72
49
12.86
74
0
49
-12.86
74
0
0
ENDTAB
0
TABLE
2
LAYER
5
248
100
AcDbSymbolTable
0
LAYER
5
10
100
AcDbSymbolTableRecord
100
AcDbLayerTableRecord
2
0
70
0
62
7
6
Continuous
290
1
370
-3
390
0
0
LAYER
5
71
100
AcDbSymbolTableRecord
100
AcDbLayerTableRecord
2
81
70
0
62
-3
6
Continuous
290
1
370
-3
390
0
0
LAYER
5
73
100
AcDbSymbolTableRecord
100
AcDbLayerTableRecord
2
80
70
0
62
-6
6
Continuous
290
1
370
-3
390
0
0
LAYER
5
75
100
AcDbSymbolTableRecord
100
AcDbLayerTableRecord
2
1
70
0
62
4
6
Continuous
290
1
370
-3
390
0
0
LAYER
5
12A
100
AcDbSymbolTableRecord
100
AcDbLayerTableRecord
2
Defpoints
70
0
62
7
6
Continuous
290
0
370
-3
390
0
0
LAYER
5
137
100
AcDbSymbolTableRecord
100
AcDbLayerTableRecord
2
2
70
0
62
7
6
Continuous
290
1
370
-3
390
0
0
LAYER
5
233
100
AcDbSymbolTableRecord
100
AcDbLayerTableRecord
2
SK1
70
0
62
4
6
Continuous
290
1
370
-3
390
0
0
LAYER
5
234
100
AcDbSymbolTableRecord
100
AcDbLayerTableRecord
2
SK6
70
0
62
5
6
Continuous
290
1
370
-3
390
0
0
LAYER
5
235
100
AcDbSymbolTableRecord
100
AcDbLayerTableRecord
2
SK2
70
0
62
7
6
Continuous
290
1
370
-3
390
0
0
ENDTAB
0
TABLE
2
STYLE
5
249
100
AcDbSymbolTable
0
STYLE
5
11
100
AcDbSymbolTableRecord
100
AcDbTextStyleTableRecord
2
Standard
3
txt
70
0
71
0
40
0
41
1
42
0
50
0
0
STYLE
5
123
100
AcDbSymbolTableRecord
100
AcDbTextStyleTableRecord
2
iso_b_vert
3
simplex.shx
70
0
71
0
40
0
41
1
42
0
50
0
0
STYLE
5
124
100
AcDbSymbolTableRecord
100
AcDbTextStyleTableRecord
2
DWGDirectTextStyle
3
simplex
70
0
71
0
40
0
41
1
42
0
50
0
0
ENDTAB
0
TABLE
2
DIMSTYLE
5
24a
100
AcDbSymbolTable
100
AcDbDimStyleTable
0
DIMSTYLE
105
27
100
AcDbSymbolTableRecord
100
AcDbDimStyleTableRecord
2
Standard
70
0
3
<>
41
0.18
42
0.0625
44
0.18
140
0.18
147
0.09
73
0
74
0
77
1
271
2
275
0
278
52
280
0
340
11
0
ENDTAB
0
TABLE
2
VIEW
5
24b
100
AcDbSymbolTable
0
ENDTAB
0
TABLE
2
UCS
5
24c
100
AcDbSymbolTable
0
ENDTAB
0
TABLE
2
APPID
5
24d
100
AcDbSymbolTable
0
APPID
5
12
100
AcDbSymbolTableRecord
100
AcDbRegAppTableRecord
2
ACAD
70
0
0
APPID
5
126
100
AcDbSymbolTableRecord
100
AcDbRegAppTableRecord
2
ACAD_DSTYLE_DIMBREAK
70
0
0
APPID
5
1F2
100
AcDbSymbolTableRecord
100
AcDbRegAppTableRecord
2
ACAD_DSTYLE_DIM_LINETYPE
70
0
0
APPID
5
1F3
100
AcDbSymbolTableRecord
100
AcDbRegAppTableRecord
2
ACAD_DSTYLE_DIM_EXT1_LINETYPE
70
0
0
APPID
5
1F4
100
AcDbSymbolTableRecord
100
AcDbRegAppTableRecord
2
ACAD_DSTYLE_DIM_EXT2_LINETYPE
70
0
0
APPID
5
22F
100
AcDbSymbolTableRecord
100
AcDbRegAppTableRecord
2
ACAD_MLEADERVER
70
0
0
ENDTAB
0
TABLE
2
BLOCK_RECORD
5
24e
100
AcDbSymbolTable
0
BLOCK_RECORD
5
1F
100
AcDbSymbolTableRecord
100
AcDbBlockTableRecord
2
*Model_Space
340
0
70
0
0
BLOCK_RECORD
5
1B
100
AcDbSymbolTableRecord
100
AcDbBlockTableRecord
2
*Paper_Space
340
0
70
0
0
BLOCK_RECORD
5
23
100
AcDbSymbolTableRecord
100
AcDbBlockTableRecord
2
*Paper_Space0
340
0
70
0
0
BLOCK_RECORD
5
12B
100
AcDbSymbolTableRecord
100
AcDbBlockTableRecord
2
*D1
340
0
70
0
0
BLOCK_RECORD
5
138
100
AcDbSymbolTableRecord
100
AcDbBlockTableRecord
2
_U0
340
0
70
0
0
BLOCK_RECORD
5
144
100
AcDbSymbolTableRecord
100
AcDbBlockTableRecord
2
*D3
340
0
70
0
0
BLOCK_RECORD
5
151
100
AcDbSymbolTableRecord
100
AcDbBlockTableRecord
2
_U1
340
0
70
0
0
BLOCK_RECORD
5
15D
100
AcDbSymbolTableRecord
100
AcDbBlockTableRecord
2
*D5
340
0
70
0
0
BLOCK_RECORD
5
16A
100
AcDbSymbolTableRecord
100
AcDbBlockTableRecord
2
_U2
340
0
70
0
0
BLOCK_RECORD
5
176
100
AcDbSymbolTableRecord
100
AcDbBlockTableRecord
2
*D7
340
0
70
0
0
BLOCK_RECORD
5
182
100
AcDbSymbolTableRecord
100
AcDbBlockTableRecord
2
_U3
340
0
70
0
0
BLOCK_RECORD
5
18E
100
AcDbSymbolTableRecord
100
AcDbBlockTableRecord
2
*D9
340
0
70
0
0
BLOCK_RECORD
5
19A
100
AcDbSymbolTableRecord
100
AcDbBlockTableRecord
2
_U4
340
0
70
0
0
BLOCK_RECORD
5
1A6
100
AcDbSymbolTableRecord
100
AcDbBlockTableRecord
2
*D11
340
0
70
0
0
BLOCK_RECORD
5
1B2
100
AcDbSymbolTableRecord
100
AcDbBlockTableRecord
2
_U5
340
0
70
0
0
BLOCK_RECORD
5
1BE
100
AcDbSymbolTableRecord
100
AcDbBlockTableRecord
2
*D13
340
0
70
0
0
BLOCK_RECORD
5
1CB
100
AcDbSymbolTableRecord
100
AcDbBlockTableRecord
2
_U6
340
0
70
0
0
ENDTAB
0
ENDSEC
0
SECTION
2
BLOCKS
0
BLOCK
5
20
100
AcDbEntity
8
0
100
AcDbBlockBegin
2
*Model_Space
70
0
10
0
20
0
30
0
3
*Model_Space
0
ENDBLK
5
21
100
AcDbEntity
8
0
100
AcDbBlockEnd
0
BLOCK
5
1C
100
AcDbEntity
8
0
100
AcDbBlockBegin
2
*Paper_Space
70
0
10
0
20
0
30
0
3
*Paper_Space
0
ENDBLK
5
1D
100
AcDbEntity
8
0
100
AcDbBlockEnd
0
BLOCK
5
24
100
AcDbEntity
8
0
100
AcDbBlockBegin
2
*Paper_Space0
70
0
10
0
20
0
30
0
3
*Paper_Space0
0
ENDBLK
5
25
100
AcDbEntity
8
0
100
AcDbBlockEnd
0
BLOCK
5
12C
100
AcDbEntity
8
0
100
AcDbBlockBegin
2
*D1
70
1
10
0
20
0
30
0
3
*D1
0
LINE
5
12E
100
AcDbEntity
8
0
62
256
6
ByLayer
370
-2
48
1
60
0
100
AcDbLine
10
39.695468
20
10.5375
30
0
11
73.207968
21
10.5375
31
0
39
0
210
0
220
0
230
1
0
LINE
5
12F
100
AcDbEntity
8
0
62
256
6
ByLayer
370
-2
48
1
60
0
100
AcDbLine
10
1.5875
20
-9.9625
30
0
11
73.207968
21
-9.9625
31
0
39
0
210
0
220
0
230
1
0
LINE
5
130
100
AcDbEntity
8
0
62
256
6
ByLayer
370
-2
48
1
60
0
100
AcDbLine
10
71.207968
20
7.0375
30
0
11
71.207968
21
-6.4625
31
0
39
0
210
0
220
0
230
1
0
SOLID
5
131
100
AcDbEntity
8
0
62
256
6
ByLayer
370
-1
48
1
60
0
100
AcDbTrace
10
71.791301
20
7.0375
30
0
11
70.624634
21
7.0375
31
0
12
71.207968
22
10.5375
32
0
13
71.207968
23
10.5375
33
0
39
0
210
0
220
0
230
1
0
SOLID
5
132
100
AcDbEntity
8
0
62
256
6
ByLayer
370
-1
48
1
60
0
100
AcDbTrace
10
70.624634
20
-6.4625
30
0
11
71.791301
21
-6.4625
31
0
12
71.207968
22
-9.9625
32
0
13
71.207968
23
-9.9625
33
0
39
0
210
0
220
0
230
1
0
MTEXT
5
133
100
AcDbEntity
8
0
62
256
6
ByLayer
370
18
48
1
60
0
100
AcDbMText
10
64.207968
20
0.2875
30
0
210
0
220
0
230
1
1
\A1;20.5
40
3.5
41
0
44
1
50
90
71
5
72
5
7
iso_b_vert
0
POINT
5
134
100
AcDbEntity
8
Defpoints
62
0
6
ByLayer
370
-1
48
1
60
0
100
AcDbPoint
10
38.107968
20
10.5375
30
0
39
0
210
0
220
0
230
1
50
360
0
POINT
5
135
100
AcDbEntity
8
Defpoints
62
0
6
ByLayer
370
-1
48
1
60
0
100
AcDbPoint
10
0
20
-9.9625
30
0
39
0
210
0
220
0
230
1
50
360
0
POINT
5
136
100
AcDbEntity
8
Defpoints
62
0
6
ByLayer
370
-1
48
1
60
0
100
AcDbPoint
10
71.207968
20
-9.9625
30
0
39
0
210
0
220
0
230
1
50
360
0
ENDBLK
5
12D
100
AcDbEntity
8
0
100
AcDbBlockEnd
0
BLOCK
5
13F
100
AcDbEntity
8
0
100
AcDbBlockBegin
2
_U0
70
0
10
0
20
0
30
0
3
_U0
0
MTEXT
5
139
100
AcDbEntity
8
2
62
256
6
ByLayer
370
18
48
1
60
0
100
AcDbMText
10
70.518334
20
-3.662199
30
0
210
0
220
0
230
1
1
\W0.7346;20.5
40
3.5
41
0
44
1.084337
50
90
71
7
72
5
7
iso_b_vert
0
LINE
5
13A
100
AcDbEntity
8
2
62
256
6
ByLayer
370
13
48
1
60
0
100
AcDbLine
10
39.695468
20
10.5375
30
0
11
73.207968
21
10.5375
31
0
39
0
210
0
220
0
230
1
0
LINE
5
13B
100
AcDbEntity
8
2
62
256
6
ByLayer
370
13
48
1
60
0
100
AcDbLine
10
1.5875
20
-9.9625
30
0
11
73.207968
21
-9.9625
31
0
39
0
210
0
220
0
230
1
0
LINE
5
13C
100
AcDbEntity
8
2
62
256
6
ByLayer
370
13
48
1
60
0
100
AcDbLine
10
71.207968
20
10.5375
30
0
11
71.207968
21
-9.9625
31
0
39
0
210
0
220
0
230
1
0
SOLID
5
13D
100
AcDbEntity
8
2
62
256
6
ByLayer
370
18
48
1
60
0
100
AcDbTrace
10
71.207968
20
10.5375
30
0
11
71.668751
21
7.037502
31
0
12
70.747184
22
7.037498
32
0
13
70.747184
23
7.037498
33
0
39
0
210
0
220
0
230
1
0
SOLID
5
13E
100
AcDbEntity
8
2
62
256
6
ByLayer
370
18
48
1
60
0
100
AcDbTrace
10
71.207968
20
-9.9625
30
0
11
70.747184
21
-6.462502
31
0
12
71.668751
22
-6.462498
32
0
13
71.668751
23
-6.462498
33
0
39
0
210
0
220
0
230
1
0
ENDBLK
5
140
100
AcDbEntity
8
0
100
AcDbBlockEnd
0
BLOCK
5
145
100
AcDbEntity
8
0
100
AcDbBlockBegin
2
*D3
70
1
10
0
20
0
30
0
3
*D3
0
LINE
5
147
100
AcDbEntity
8
0
62
256
6
ByLayer
370
-2
48
1
60
0
100
AcDbLine
10
39.695468
20
6.5375
30
0
11
61.207968
21
6.5375
31
0
39
0
210
0
220
0
230
1
0
LINE
5
148
100
AcDbEntity
8
0
62
256
6
ByLayer
370
-2
48
1
60
0
100
AcDbLine
10
39.695468
20
10.5375
30
0
11
61.207968
21
10.5375
31
0
39
0
210
0
220
0
230
1
0
LINE
5
149
100
AcDbEntity
8
0
62
256
6
ByLayer
370
-2
48
1
60
0
100
AcDbLine
10
59.207968
20
3.0375
30
0
11
59.207968
21
-0.4625
31
0
39
0
210
0
220
0
230
1
0
LINE
5
14A
100
AcDbEntity
8
0
62
256
6
ByLayer
370
-2
48
1
60
0
100
AcDbLine
10
59.207968
20
14.0375
30
0
11
59.207968
21
17.5375
31
0
39
0
210
0
220
0
230
1
0
SOLID
5
14B
100
AcDbEntity
8
0
62
256
6
ByLayer
370
-1
48
1
60
0
100
AcDbTrace
10
59.791301
20
3.0375
30
0
11
58.624634
21
3.0375
31
0
12
59.207968
22
6.5375
32
0
13
59.207968
23
6.5375
33
0
39
0
210
0
220
0
230
1
0
SOLID
5
14C
100
AcDbEntity
8
0
62
256
6
ByLayer
370
-1
48
1
60
0
100
AcDbTrace
10
58.624634
20
14.0375
30
0
11
59.791301
21
14.0375
31
0
12
59.207968
22
10.5375
32
0
13
59.207968
23
10.5375
33
0
39
0
210
0
220
0
230
1
0
MTEXT
5
14D
100
AcDbEntity
8
0
62
256
6
ByLayer
370
18
48
1
60
0
100
AcDbMText
10
52.207968
20
8.5375
30
0
210
0
220
0
230
1
1
\A1;4
40
3.5
41
0
44
1
50
90
71
5
72
5
7
iso_b_vert
0
POINT
5
14E
100
AcDbEntity
8
Defpoints
62
0
6
ByLayer
370
-1
48
1
60
0
100
AcDbPoint
10
38.107968
20
6.5375
30
0
39
0
210
0
220
0
230
1
50
360
0
POINT
5
14F
100
AcDbEntity
8
Defpoints
62
0
6
ByLayer
370
-1
48
1
60
0
100
AcDbPoint
10
38.107968
20
10.5375
30
0
39
0
210
0
220
0
230
1
50
360
0
POINT
5
150
100
AcDbEntity
8
Defpoints
62
0
6
ByLayer
370
-1
48
1
60
0
100
AcDbPoint
10
59.207968
20
10.5375
30
0
39
0
210
0
220
0
230
1
50
360
0
ENDBLK
5
146
100
AcDbEntity
8
0
100
AcDbBlockEnd
0
BLOCK
5
158
100
AcDbEntity
8
0
100
AcDbBlockBegin
2
_U1
70
0
10
0
20
0
30
0
3
_U1
0
MTEXT
5
152
100
AcDbEntity
8
2
62
256
6
ByLayer
370
18
48
1
60
0
100
AcDbMText
10
58.518334
20
7.728
30
0
210
0
220
0
230
1
1
\W0.6380;4
40
3.5
41
0
44
1.084337
50
90
71
7
72
5
7
iso_b_vert
0
LINE
5
153
100
AcDbEntity
8
2
62
256
6
ByLayer
370
13
48
1
60
0
100
AcDbLine
10
39.695468
20
6.5375
30
0
11
61.207968
21
6.5375
31
0
39
0
210
0
220
0
230
1
0
LINE
5
154
100
AcDbEntity
8
2
62
256
6
ByLayer
370
13
48
1
60
0
100
AcDbLine
10
39.695468
20
10.5375
30
0
11
61.207968
21
10.5375
31
0
39
0
210
0
220
0
230
1
0
LINE
5
155
100
AcDbEntity
8
2
62
256
6
ByLayer
370
13
48
1
60
0
100
AcDbLine
10
59.207968
20
-2.2125
30
0
11
59.207968
21
19.2875
31
0
39
0
210
0
220
0
230
1
0
SOLID
5
156
100
AcDbEntity
8
2
62
256
6
ByLayer
370
18
48
1
60
0
100
AcDbTrace
10
59.207968
20
6.5375
30
0
11
59.668751
21
3.037502
31
0
12
58.747184
22
3.037498
32
0
13
58.747184
23
3.037498
33
0
39
0
210
0
220
0
230
1
0
SOLID
5
157
100
AcDbEntity
8
2
62
256
6
ByLayer
370
18
48
1
60
0
100
AcDbTrace
10
59.207968
20
10.5375
30
0
11
58.747184
21
14.037498
31
0
12
59.668751
22
14.037502
32
0
13
59.668751
23
14.037502
33
0
39
0
210
0
220
0
230
1
0
ENDBLK
5
159
100
AcDbEntity
8
0
100
AcDbBlockEnd
0
BLOCK
5
15E
100
AcDbEntity
8
0
100
AcDbBlockBegin
2
*D5
70
1
10
0
20
0
30
0
3
*D5
0
LINE
5
160
100
AcDbEntity
8
0
62
256
6
ByLayer
370
-2
48
1
60
0
100
AcDbLine
10
-1.5875
20
-9.9625
30
0
11
-82.6
21
-9.9625
31
0
39
0
210
0
220
0
230
1
0
LINE
5
161
100
AcDbEntity
8
0
62
256
6
ByLayer
370
-2
48
1
60
0
100
AcDbLine
10
-1.5875
20
10.0375
30
0
11
-82.6
21
10.0375
31
0
39
0
210
0
220
0
230
1
0
LINE
5
162
100
AcDbEntity
8
0
62
256
6
ByLayer
370
-2
48
1
60
0
100
AcDbLine
10
-80.6
20
-6.4625
30
0
11
-80.6
21
6.5375
31
0
39
0
210
0
220
0
230
1
0
SOLID
5
163
100
AcDbEntity
8
0
62
256
6
ByLayer
370
-1
48
1
60
0
100
AcDbTrace
10
-81.183333
20
-6.4625
30
0
11
-80.016667
21
-6.4625
31
0
12
-80.6
22
-9.9625
32
0
13
-80.6
23
-9.9625
33
0
39
0
210
0
220
0
230
1
0
SOLID
5
164
100
AcDbEntity
8
0
62
256
6
ByLayer
370
-1
48
1
60
0
100
AcDbTrace
10
-80.016667
20
6.5375
30
0
11
-81.183333
21
6.5375
31
0
12
-80.6
22
10.0375
32
0
13
-80.6
23
10.0375
33
0
39
0
210
0
220
0
230
1
0
MTEXT
5
165
100
AcDbEntity
8
0
62
256
6
ByLayer
370
18
48
1
60
0
100
AcDbMText
10
-87.6
20
0.0375
30
0
210
0
220
0
230
1
1
\A1;20
40
3.5
41
0
44
1
50
90
71
5
72
5
7
iso_b_vert
0
POINT
5
166
100
AcDbEntity
8
Defpoints
62
0
6
ByLayer
370
-1
48
1
60
0
100
AcDbPoint
10
0
20
-9.9625
30
0
39
0
210
0
220
0
230
1
50
360
0
POINT
5
167
100
AcDbEntity
8
Defpoints
62
0
6
ByLayer
370
-1
48
1
60
0
100
AcDbPoint
10
0
20
10.0375
30
0
39
0
210
0
220
0
230
1
50
360
0
POINT
5
168
100
AcDbEntity
8
Defpoints
62
0
6
ByLayer
370
-1
48
1
60
0
100
AcDbPoint
10
-80.6
20
10.0375
30
0
39
0
210
0
220
0
230
1
50
360
0
ENDBLK
5
15F
100
AcDbEntity
8
0
100
AcDbBlockEnd
0
BLOCK
5
171
100
AcDbEntity
8
0
100
AcDbBlockBegin
2
_U2
70
0
10
0
20
0
30
0
3
_U2
0
MTEXT
5
16B
100
AcDbEntity
8
SK2
62
256
6
ByLayer
370
18
48
1
60
0
100
AcDbMText
10
-81.289634
20
-1.895466
30
0
210
0
220
0
230
1
1
\W0.6740;20
40
3.5
41
0
44
1.084337
50
90
71
7
72
5
7
iso_b_vert
0
LINE
5
16C
100
AcDbEntity
8
SK2
62
256
6
ByLayer
370
13
48
1
60
0
100
AcDbLine
10
-1.5875
20
-9.9625
30
0
11
-82.6
21
-9.9625
31
0
39
0
210
0
220
0
230
1
0
LINE
5
16D
100
AcDbEntity
8
SK2
62
256
6
ByLayer
370
13
48
1
60
0
100
AcDbLine
10
-1.5875
20
10.0375
30
0
11
-82.6
21
10.0375
31
0
39
0
210
0
220
0
230
1
0
LINE
5
16E
100
AcDbEntity
8
SK2
62
256
6
ByLayer
370
13
48
1
60
0
100
AcDbLine
10
-80.6
20
-9.9625
30
0
11
-80.6
21
10.0375
31
0
39
0
210
0
220
0
230
1
0
SOLID
5
16F
100
AcDbEntity
8
SK2
62
256
6
ByLayer
370
18
48
1
60
0
100
AcDbTrace
10
-80.6
20
-9.9625
30
0
11
-81.060784
21
-6.462502
31
0
12
-80.139216
22
-6.462498
32
0
13
-80.139216
23
-6.462498
33
0
39
0
210
0
220
0
230
1
0
SOLID
5
170
100
AcDbEntity
8
SK2
62
256
6
ByLayer
370
18
48
1
60
0
100
AcDbTrace
10
-80.6
20
10.0375
30
0
11
-80.139216
21
6.537502
31
0
12
-81.060784
22
6.537498
32
0
13
-81.060784
23
6.537498
33
0
39
0
210
0
220
0
230
1
0
ENDBLK
5
172
100
AcDbEntity
8
0
100
AcDbBlockEnd
0
BLOCK
5
177
100
AcDbEntity
8
0
100
AcDbBlockBegin
2
*D7
70
1
10
0
20
0
30
0
3
*D7
0
LINE
5
179
100
AcDbEntity
8
0
62
256
6
ByLayer
370
-2
48
1
60
0
100
AcDbLine
10
20.107968
20
5.275
30
0
11
20.107968
21
-21.7125
31
0
39
0
210
0
220
0
230
1
0
LINE
5
17A
100
AcDbEntity
8
0
62
256
6
ByLayer
370
-2
48
1
60
0
100
AcDbLine
10
38.107968
20
8.95
30
0
11
38.107968
21
-21.7125
31
0
39
0
210
0
220
0
230
1
0
LINE
5
17B
100
AcDbEntity
8
0
62
256
6
ByLayer
370
-2
48
1
60
0
100
AcDbLine
10
23.607968
20
-19.7125
30
0
11
34.607968
21
-19.7125
31
0
39
0
210
0
220
0
230
1
0
SOLID
5
17C
100
AcDbEntity
8
0
62
256
6
ByLayer
370
-1
48
1
60
0
100
AcDbTrace
10
23.607968
20
-19.129167
30
0
11
23.607968
21
-20.295833
31
0
12
20.107968
22
-19.7125
32
0
13
20.107968
23
-19.7125
33
0
39
0
210
0
220
0
230
1
0
SOLID
5
17D
100
AcDbEntity
8
0
62
256
6
ByLayer
370
-1
48
1
60
0
100
AcDbTrace
10
34.607968
20
-20.295833
30
0
11
34.607968
21
-19.129167
31
0
12
38.107968
22
-19.7125
32
0
13
38.107968
23
-19.7125
33
0
39
0
210
0
220
0
230
1
0
MTEXT
5
17E
100
AcDbEntity
8
0
62
256
6
ByLayer
370
18
48
1
60
0
100
AcDbMText
10
29.107968
20
-12.7125
30
0
210
0
220
0
230
1
1
\A1;18
40
3.5
41
0
44
1
50
0
71
5
72
5
7
iso_b_vert
0
POINT
5
17F
100
AcDbEntity
8
Defpoints
62
0
6
ByLayer
370
-1
48
1
60
0
100
AcDbPoint
10
20.107968
20
6.8625
30
0
39
0
210
0
220
0
230
1
50
360
0
POINT
5
180
100
AcDbEntity
8
Defpoints
62
0
6
ByLayer
370
-1
48
1
60
0
100
AcDbPoint
10
38.107968
20
10.5375
30
0
39
0
210
0
220
0
230
1
50
360
0
POINT
5
181
100
AcDbEntity
8
Defpoints
62
0
6
ByLayer
370
-1
48
1
60
0
100
AcDbPoint
10
38.107968
20
-19.7125
30
0
39
0
210
0
220
0
230
1
50
360
0
ENDBLK
5
178
100
AcDbEntity
8
0
100
AcDbBlockEnd
0
BLOCK
5
189
100
AcDbEntity
8
0
100
AcDbBlockBegin
2
_U3
70
0
10
0
20
0
30
0
3
_U3
0
MTEXT
5
183
100
AcDbEntity
8
2
62
256
6
ByLayer
370
18
48
1
60
0
100
AcDbMText
10
27.640435
20
-18.679866
30
0
210
0
220
0
230
1
1
\W0.5321;18
40
3.5
41
0
44
1.084337
50
0
71
7
72
5
7
iso_b_vert
0
LINE
5
184
100
AcDbEntity
8
2
62
256
6
ByLayer
370
13
48
1
60
0
100
AcDbLine
10
20.107968
20
5.275
30
0
11
20.107968
21
-21.7125
31
0
39
0
210
0
220
0
230
1
0
LINE
5
185
100
AcDbEntity
8
2
62
256
6
ByLayer
370
13
48
1
60
0
100
AcDbLine
10
38.107968
20
8.95
30
0
11
38.107968
21
-21.7125
31
0
39
0
210
0
220
0
230
1
0
LINE
5
186
100
AcDbEntity
8
2
62
256
6
ByLayer
370
13
48
1
60
0
100
AcDbLine
10
20.107968
20
-19.7125
30
0
11
38.107968
21
-19.7125
31
0
39
0
210
0
220
0
230
1
0
SOLID
5
187
100
AcDbEntity
8
2
62
256
6
ByLayer
370
18
48
1
60
0
100
AcDbTrace
10
20.107968
20
-19.7125
30
0
11
23.607966
21
-19.251716
31
0
12
23.607969
22
-20.173284
32
0
13
23.607969
23
-20.173284
33
0
39
0
210
0
220
0
230
1
0
SOLID
5
188
100
AcDbEntity
8
2
62
256
6
ByLayer
370
18
48
1
60
0
100
AcDbTrace
10
38.107968
20
-19.7125
30
0
11
34.607969
21
-20.173284
31
0
12
34.607966
22
-19.251716
32
0
13
34.607966
23
-19.251716
33
0
39
0
210
0
220
0
230
1
0
ENDBLK
5
18A
100
AcDbEntity
8
0
100
AcDbBlockEnd
0
BLOCK
5
18F
100
AcDbEntity
8
0
100
AcDbBlockBegin
2
*D9
70
1
10
0
20
0
30
0
3
*D9
0
LINE
5
191
100
AcDbEntity
8
0
62
256
6
ByLayer
370
-2
48
1
60
0
100
AcDbLine
10
-69
20
-11.55
30
0
11
-69
21
-37.7125
31
0
39
0
210
0
220
0
230
1
0
LINE
5
192
100
AcDbEntity
8
0
62
256
6
ByLayer
370
-2
48
1
60
0
100
AcDbLine
10
38.107968
20
8.95
30
0
11
38.107968
21
-37.7125
31
0
39
0
210
0
220
0
230
1
0
LINE
5
193
100
AcDbEntity
8
0
62
256
6
ByLayer
370
-2
48
1
60
0
100
AcDbLine
10
-65.5
20
-35.7125
30
0
11
34.607968
21
-35.7125
31
0
39
0
210
0
220
0
230
1
0
SOLID
5
194
100
AcDbEntity
8
0
62
256
6
ByLayer
370
-1
48
1
60
0
100
AcDbTrace
10
-65.5
20
-35.129167
30
0
11
-65.5
21
-36.295833
31
0
12
-69
22
-35.7125
32
0
13
-69
23
-35.7125
33
0
39
0
210
0
220
0
230
1
0
SOLID
5
195
100
AcDbEntity
8
0
62
256
6
ByLayer
370
-1
48
1
60
0
100
AcDbTrace
10
34.607968
20
-36.295833
30
0
11
34.607968
21
-35.129167
31
0
12
38.107968
22
-35.7125
32
0
13
38.107968
23
-35.7125
33
0
39
0
210
0
220
0
230
1
0
MTEXT
5
196
100
AcDbEntity
8
0
62
256
6
ByLayer
370
18
48
1
60
0
100
AcDbMText
10
-15.446016
20
-28.7125
30
0
210
0
220
0
230
1
1
\A1;107.1
40
3.5
41
0
44
1
50
0
71
5
72
5
7
iso_b_vert
0
POINT
5
197
100
AcDbEntity
8
Defpoints
62
0
6
ByLayer
370
-1
48
1
60
0
100
AcDbPoint
10
-69
20
-9.9625
30
0
39
0
210
0
220
0
230
1
50
360
0
POINT
5
198
100
AcDbEntity
8
Defpoints
62
0
6
ByLayer
370
-1
48
1
60
0
100
AcDbPoint
10
38.107968
20
10.5375
30
0
39
0
210
0
220
0
230
1
50
360
0
POINT
5
199
100
AcDbEntity
8
Defpoints
62
0
6
ByLayer
370
-1
48
1
60
0
100
AcDbPoint
10
38.107968
20
-35.7125
30
0
39
0
210
0
220
0
230
1
50
360
0
ENDBLK
5
190
100
AcDbEntity
8
0
100
AcDbBlockEnd
0
BLOCK
5
1A1
100
AcDbEntity
8
0
100
AcDbBlockBegin
2
_U4
70
0
10
0
20
0
30
0
3
_U4
0
MTEXT
5
19B
100
AcDbEntity
8
SK2
62
256
6
ByLayer
370
18
48
1
60
0
100
AcDbMText
10
-19.800582
20
-34.679866
30
0
210
0
220
0
230
1
1
\W0.6725;107.1
40
3.5
41
0
44
1.084337
50
0
71
7
72
5
7
iso_b_vert
0
LINE
5
19C
100
AcDbEntity
8
SK2
62
256
6
ByLayer
370
13
48
1
60
0
100
AcDbLine
10
-69
20
-11.55
30
0
11
-69
21
-37.7125
31
0
39
0
210
0
220
0
230
1
0
LINE
5
19D
100
AcDbEntity
8
SK2
62
256
6
ByLayer
370
13
48
1
60
0
100
AcDbLine
10
38.107968
20
8.95
30
0
11
38.107968
21
-37.7125
31
0
39
0
210
0
220
0
230
1
0
LINE
5
19E
100
AcDbEntity
8
SK2
62
256
6
ByLayer
370
13
48
1
60
0
100
AcDbLine
10
-69
20
-35.7125
30
0
11
38.107968
21
-35.7125
31
0
39
0
210
0
220
0
230
1
0
SOLID
5
19F
100
AcDbEntity
8
SK2
62
256
6
ByLayer
370
18
48
1
60
0
100
AcDbTrace
10
-69
20
-35.7125
30
0
11
-65.500002
21
-35.251716
31
0
12
-65.499998
22
-36.173284
32
0
13
-65.499998
23
-36.173284
33
0
39
0
210
0
220
0
230
1
0
SOLID
5
1A0
100
AcDbEntity
8
SK2
62
256
6
ByLayer
370
18
48
1
60
0
100
AcDbTrace
10
38.107968
20
-35.7125
30
0
11
34.607969
21
-36.173284
31
0
12
34.607966
22
-35.251716
32
0
13
34.607966
23
-35.251716
33
0
39
0
210
0
220
0
230
1
0
ENDBLK
5
1A2
100
AcDbEntity
8
0
100
AcDbBlockEnd
0
BLOCK
5
1A7
100
AcDbEntity
8
0
100
AcDbBlockBegin
2
*D11
70
1
10
0
20
0
30
0
3
*D11
0
LINE
5
1A9
100
AcDbEntity
8
0
62
256
6
ByLayer
370
-2
48
1
60
0
100
AcDbLine
10
0
20
-11.55
30
0
11
0
21
-29.7125
31
0
39
0
210
0
220
0
230
1
0
LINE
5
1AA
100
AcDbEntity
8
0
62
256
6
ByLayer
370
-2
48
1
60
0
100
AcDbLine
10
38.107968
20
8.95
30
0
11
38.107968
21
-29.7125
31
0
39
0
210
0
220
0
230
1
0
LINE
5
1AB
100
AcDbEntity
8
0
62
256
6
ByLayer
370
-2
48
1
60
0
100
AcDbLine
10
3.5
20
-27.7125
30
0
11
34.607968
21
-27.7125
31
0
39
0
210
0
220
0
230
1
0
SOLID
5
1AC
100
AcDbEntity
8
0
62
256
6
ByLayer
370
-1
48
1
60
0
100
AcDbTrace
10
3.5
20
-27.129167
30
0
11
3.5
21
-28.295833
31
0
12
0
22
-27.7125
32
0
13
0
23
-27.7125
33
0
39
0
210
0
220
0
230
1
0
SOLID
5
1AD
100
AcDbEntity
8
0
62
256
6
ByLayer
370
-1
48
1
60
0
100
AcDbTrace
10
34.607968
20
-28.295833
30
0
11
34.607968
21
-27.129167
31
0
12
38.107968
22
-27.7125
32
0
13
38.107968
23
-27.7125
33
0
39
0
210
0
220
0
230
1
0
MTEXT
5
1AE
100
AcDbEntity
8
0
62
256
6
ByLayer
370
18
48
1
60
0
100
AcDbMText
10
19.053984
20
-20.7125
30
0
210
0
220
0
230
1
1
\A1;38.1
40
3.5
41
0
44
1
50
0
71
5
72
5
7
iso_b_vert
0
POINT
5
1AF
100
AcDbEntity
8
Defpoints
62
0
6
ByLayer
370
-1
48
1
60
0
100
AcDbPoint
10
0
20
-9.9625
30
0
39
0
210
0
220
0
230
1
50
360
0
POINT
5
1B0
100
AcDbEntity
8
Defpoints
62
0
6
ByLayer
370
-1
48
1
60
0
100
AcDbPoint
10
38.107968
20
10.5375
30
0
39
0
210
0
220
0
230
1
50
360
0
POINT
5
1B1
100
AcDbEntity
8
Defpoints
62
0
6
ByLayer
370
-1
48
1
60
0
100
AcDbPoint
10
38.107968
20
-27.7125
30
0
39
0
210
0
220
0
230
1
50
360
0
ENDBLK
5
1A8
100
AcDbEntity
8
0
100
AcDbBlockEnd
0
BLOCK
5
1B9
100
AcDbEntity
8
0
100
AcDbBlockBegin
2
_U5
70
0
10
0
20
0
30
0
3
_U5
0
MTEXT
5
1B3
100
AcDbEntity
8
2
62
256
6
ByLayer
370
18
48
1
60
0
100
AcDbMText
10
15.569718
20
-26.679866
30
0
210
0
220
0
230
1
1
\W0.7208;38.1
40
3.5
41
0
44
1.084337
50
0
71
7
72
5
7
iso_b_vert
0
LINE
5
1B4
100
AcDbEntity
8
2
62
256
6
ByLayer
370
13
48
1
60
0
100
AcDbLine
10
0
20
-11.55
30
0
11
0
21
-29.7125
31
0
39
0
210
0
220
0
230
1
0
LINE
5
1B5
100
AcDbEntity
8
2
62
256
6
ByLayer
370
13
48
1
60
0
100
AcDbLine
10
38.107968
20
8.95
30
0
11
38.107968
21
-29.7125
31
0
39
0
210
0
220
0
230
1
0
LINE
5
1B6
100
AcDbEntity
8
2
62
256
6
ByLayer
370
13
48
1
60
0
100
AcDbLine
10
0
20
-27.7125
30
0
11
38.107968
21
-27.7125
31
0
39
0
210
0
220
0
230
1
0
SOLID
5
1B7
100
AcDbEntity
8
2
62
256
6
ByLayer
370
18
48
1
60
0
100
AcDbTrace
10
0
20
-27.7125
30
0
11
3.499998
21
-27.251716
31
0
12
3.500002
22
-28.173284
32
0
13
3.500002
23
-28.173284
33
0
39
0
210
0
220
0
230
1
0
SOLID
5
1B8
100
AcDbEntity
8
2
62
256
6
ByLayer
370
18
48
1
60
0
100
AcDbTrace
10
38.107968
20
-27.7125
30
0
11
34.607969
21
-28.173284
31
0
12
34.607966
22
-27.251716
32
0
13
34.607966
23
-27.251716
33
0
39
0
210
0
220
0
230
1
0
ENDBLK
5
1BA
100
AcDbEntity
8
0
100
AcDbBlockEnd
0
BLOCK
5
1BF
100
AcDbEntity
8
0
100
AcDbBlockBegin
2
*D13
70
1
10
0
20
0
30
0
3
*D13
0
LINE
5
1C1
100
AcDbEntity
8
0
62
256
6
ByLayer
370
-2
48
1
60
0
100
AcDbLine
10
-69
20
-11.55
30
0
11
-69
21
-21.7125
31
0
39
0
210
0
220
0
230
1
0
LINE
5
1C2
100
AcDbEntity
8
0
62
256
6
ByLayer
370
-2
48
1
60
0
100
AcDbLine
10
-66
20
-11.55
30
0
11
-66
21
-21.7125
31
0
39
0
210
0
220
0
230
1
0
LINE
5
1C3
100
AcDbEntity
8
0
62
256
6
ByLayer
370
-2
48
1
60
0
100
AcDbLine
10
-72.5
20
-19.7125
30
0
11
-76
21
-19.7125
31
0
39
0
210
0
220
0
230
1
0
LINE
5
1C4
100
AcDbEntity
8
0
62
256
6
ByLayer
370
-2
48
1
60
0
100
AcDbLine
10
-62.5
20
-19.7125
30
0
11
-59
21
-19.7125
31
0
39
0
210
0
220
0
230
1
0
SOLID
5
1C5
100
AcDbEntity
8
0
62
256
6
ByLayer
370
-1
48
1
60
0
100
AcDbTrace
10
-72.5
20
-20.295833
30
0
11
-72.5
21
-19.129167
31
0
12
-69
22
-19.7125
32
0
13
-69
23
-19.7125
33
0
39
0
210
0
220
0
230
1
0
SOLID
5
1C6
100
AcDbEntity
8
0
62
256
6
ByLayer
370
-1
48
1
60
0
100
AcDbTrace
10
-62.5
20
-19.129167
30
0
11
-62.5
21
-20.295833
31
0
12
-66
22
-19.7125
32
0
13
-66
23
-19.7125
33
0
39
0
210
0
220
0
230
1
0
MTEXT
5
1C7
100
AcDbEntity
8
0
62
256
6
ByLayer
370
18
48
1
60
0
100
AcDbMText
10
-67.5
20
-12.7125
30
0
210
0
220
0
230
1
1
\A1;3
40
3.5
41
0
44
1
50
0
71
5
72
5
7
iso_b_vert
0
POINT
5
1C8
100
AcDbEntity
8
Defpoints
62
0
6
ByLayer
370
-1
48
1
60
0
100
AcDbPoint
10
-69
20
-9.9625
30
0
39
0
210
0
220
0
230
1
50
360
0
POINT
5
1C9
100
AcDbEntity
8
Defpoints
62
0
6
ByLayer
370
-1
48
1
60
0
100
AcDbPoint
10
-66
20
-9.9625
30
0
39
0
210
0
220
0
230
1
50
360
0
POINT
5
1CA
100
AcDbEntity
8
Defpoints
62
0
6
ByLayer
370
-1
48
1
60
0
100
AcDbPoint
10
-66
20
-19.7125
30
0
39
0
210
0
220
0
230
1
50
360
0
ENDBLK
5
1C0
100
AcDbEntity
8
0
100
AcDbBlockEnd
0
BLOCK
5
1D2
100
AcDbEntity
8
0
100
AcDbBlockBegin
2
_U6
70
0
10
0
20
0
30
0
3
_U6
0
MTEXT
5
1CC
100
AcDbEntity
8
SK2
62
256
6
ByLayer
370
18
48
1
60
0
100
AcDbMText
10
-68.097233
20
-18.679866
30
0
210
0
220
0
230
1
1
\W0.5404;3
40
3.5
41
0
44
1.084337
50
0
71
7
72
5
7
iso_b_vert
0
LINE
5
1CD
100
AcDbEntity
8
SK2
62
256
6
ByLayer
370
13
48
1
60
0
100
AcDbLine
10
-69
20
-11.55
30
0
11
-69
21
-21.7125
31
0
39
0
210
0
220
0
230
1
0
LINE
5
1CE
100
AcDbEntity
8
SK2
62
256
6
ByLayer
370
13
48
1
60
0
100
AcDbLine
10
-66
20
-11.55
30
0
11
-66
21
-21.7125
31
0
39
0
210
0
220
0
230
1
0
LINE
5
1CF
100
AcDbEntity
8
SK2
62
256
6
ByLayer
370
13
48
1
60
0
100
AcDbLine
10
-77.75
20
-19.7125
30
0
11
-57.25
21
-19.7125
31
0
39
0
210
0
220
0
230
1
0
SOLID
5
1D0
100
AcDbEntity
8
SK2
62
256
6
ByLayer
370
18
48
1
60
0
100
AcDbTrace
10
-69
20
-19.7125
30
0
11
-72.499998
21
-20.173284
31
0
12
-72.500002
22
-19.251716
32
0
13
-72.500002
23
-19.251716
33
0
39
0
210
0
220
0
230
1
0
SOLID
5
1D1
100
AcDbEntity
8
SK2
62
256
6
ByLayer
370
18
48
1
60
0
100
AcDbTrace
10
-66
20
-19.7125
30
0
11
-62.500002
21
-19.251716
31
0
12
-62.499998
22
-20.173284
32
0
13
-62.499998
23
-20.173284
33
0
39
0
210
0
220
0
230
1
0
ENDBLK
5
1D3
100
AcDbEntity
8
0
100
AcDbBlockEnd
0
ENDSEC
0
SECTION
2
ENTITIES
0
ARC
5
D1
100
AcDbEntity
8
SK1
62
256
6
ByLayer
370
18
48
1
60
0
100
AcDbCircle
39
0
10
-1.227723
20
11.5625
30
0
40
1.6
210
0
220
0
230
1
100
AcDbArc
50
270
51
315.383777
0
ARC
5
D2
100
AcDbEntity
8
1
62
256
6
ByLayer
370
18
48
1
60
0
100
AcDbCircle
39
0
10
13.407968
20
10.2375
30
0
40
0.3
210
0
220
0
230
1
100
AcDbArc
50
87.5
51
137.871967
0
ARC
5
D3
100
AcDbEntity
8
1
62
256
6
ByLayer
370
18
48
1
60
0
100
AcDbCircle
39
0
10
37.807968
20
6.8375
30
0
40
0.3
210
0
220
0
230
1
100
AcDbArc
50
267.5
51
0
0
ARC
5
D4
100
AcDbEntity
8
1
62
256
6
ByLayer
370
18
48
1
60
0
100
AcDbCircle
39
0
10
37.807968
20
10.2375
30
0
40
0.3
210
0
220
0
230
1
100
AcDbArc
50
0
51
92.5
0
ARC
5
D5
100
AcDbEntity
8
1
62
256
6
ByLayer
370
18
48
1
60
0
100
AcDbCircle
39
0
10
30.664407
20
9.204799
30
0
40
0.0999999999979182
210
0
220
0
230
1
100
AcDbArc
50
190.000001
51
218.049181
0
ARC
5
D6
100
AcDbEntity
8
1
62
256
6
ByLayer
370
18
48
1
60
0
100
AcDbCircle
39
0
10
30.664407
20
7.870201
30
0
40
0.0999999999979182
210
0
220
0
230
1
100
AcDbArc
50
141.950819
51
169.999999
0
ARC
5
D7
100
AcDbEntity
8
1
62
256
6
ByLayer
370
18
48
1
60
0
100
AcDbCircle
39
0
10
11.757968
20
-1.6125
30
0
40
2.1768
210
0
220
0
230
1
100
AcDbArc
50
270
51
330
0
ARC
5
D8
100
AcDbEntity
8
1
62
256
6
ByLayer
370
18
48
1
60
0
100
AcDbCircle
39
0
10
11.757968
20
-1.6125
30
0
40
2.1768
210
0
220
0
230
1
100
AcDbArc
50
90
51
150
0
ARC
5
D9
100
AcDbEntity
8
1
62
256
6
ByLayer
370
18
48
1
60
0
100
AcDbCircle
39
0
10
11.757968
20
-1.6125
30
0
40
2.1768
210
0
220
0
230
1
100
AcDbArc
50
30
51
90
0
ARC
5
DA
100
AcDbEntity
8
1
62
256
6
ByLayer
370
18
48
1
60
0
100
AcDbCircle
39
0
10
11.757968
20
-1.6125
30
0
40
2.1768
210
0
220
0
230
1
100
AcDbArc
50
210
51
270
0
ARC
5
DB
100
AcDbEntity
8
1
62
256
6
ByLayer
370
18
48
1
60
0
100
AcDbCircle
39
0
10
11.757968
20
-1.6125
30
0
40
2.1768
210
0
220
0
230
1
100
AcDbArc
50
330
51
30
0
ARC
5
DC
100
AcDbEntity
8
1
62
256
6
ByLayer
370
18
48
1
60
0
100
AcDbCircle
39
0
10
11.757968
20
-1.6125
30
0
40
2.1768
210
0
220
0
230
1
100
AcDbArc
50
150
51
210
0
ARC
5
DF
100
AcDbEntity
8
1
62
256
6
ByLayer
370
18
48
1
60
0
100
AcDbCircle
39
0
10
11.757968
20
-1.6125
30
0
40
2.8067
210
0
220
0
230
1
100
AcDbArc
50
180
51
240
0
ARC
5
E0
100
AcDbEntity
8
1
62
256
6
ByLayer
370
18
48
1
60
0
100
AcDbCircle
39
0
10
11.757968
20
-1.6125
30
0
40
2.8067
210
0
220
0
230
1
100
AcDbArc
50
240
51
300
0
ARC
5
E1
100
AcDbEntity
8
1
62
256
6
ByLayer
370
18
48
1
60
0
100
AcDbCircle
39
0
10
11.757968
20
-1.6125
30
0
40
2.8067
210
0
220
0
230
1
100
AcDbArc
50
360
51
60
0
ARC
5
E2
100
AcDbEntity
8
1
62
256
6
ByLayer
370
18
48
1
60
0
100
AcDbCircle
39
0
10
11.757968
20
-1.6125
30
0
40
2.8067
210
0
220
0
230
1
100
AcDbArc
50
60
51
120
0
ARC
5
E3
100
AcDbEntity
8
1
62
256
6
ByLayer
370
18
48
1
60
0
100
AcDbCircle
39
0
10
11.757968
20
-1.6125
30
0
40
2.8067
210
0
220
0
230
1
100
AcDbArc
50
300
51
360
0
ARC
5
E4
100
AcDbEntity
8
1
62
256
6
ByLayer
370
18
48
1
60
0
100
AcDbCircle
39
0
10
11.757968
20
-1.6125
30
0
40
2.8067
210
0
220
0
230
1
100
AcDbArc
50
120
51
180
0
CIRCLE
5
D0
100
AcDbEntity
8
1
62
256
6
ByLayer
370
18
48
1
60
0
100
AcDbCircle
10
11.757968
20
-1.6125
30
0
40
5.75
39
0
210
0
220
0
230
1
0
CIRCLE
5
DD
100
AcDbEntity
8
1
62
256
6
ByLayer
370
13
48
1
60
0
100
AcDbCircle
10
11.757968
20
-1.6125
30
0
40
4.55
39
0
210
0
220
0
230
1
0
CIRCLE
5
DE
100
AcDbEntity
8
1
62
256
6
ByLayer
370
18
48
1
60
0
100
AcDbCircle
10
11.757968
20
-1.6125
30
0
40
5.35
39
0
210
0
220
0
230
1
0
ELLIPSE
5
E5
100
AcDbEntity
8
1
62
256
6
ByLayer
370
18
48
1
60
0
100
AcDbEllipse
10
43.524216
20
121.7375
30
0
11
6.82871118109756E-15
21
111.525000009726
31
0
210
0
220
0
230
1
40
0.722166
41
2.92889565498135
42
3.06184239873131
0
ELLIPSE
5
E6
100
AcDbEntity
8
1
62
256
6
ByLayer
370
18
48
1
60
0
100
AcDbEllipse
10
28.423089
20
8.587431
30
0
11
1.08230262284465
21
-0.00973406800302157
31
0
210
0
220
0
230
1
40
0.739127
41
0
42
6.28318530717959
0
ELLIPSE
5
E7
100
AcDbEntity
8
1
62
256
6
ByLayer
370
18
48
1
60
0
100
AcDbEllipse
10
31.35299
20
121.737513
30
0
11
132.297169379967
21
1.54980228789246E-13
31
0
210
0
220
0
230
1
40
0.842989
41
-1.60667041658253
42
-1.58386631714288
0
ELLIPSE
5
E8
100
AcDbEntity
8
1
62
256
6
ByLayer
370
18
48
1
60
0
100
AcDbEllipse
10
31.35299
20
76.5375
30
0
11
82.6523626517341
21
9.68235536237941E-14
31
0
210
0
220
0
230
1
40
0.842989
41
-1.62823730978471
42
-1.591656151737
0
ELLIPSE
5
E9
100
AcDbEntity
8
1
62
256
6
ByLayer
370
18
48
1
60
0
100
AcDbEllipse
10
-795.76543
20
76.370067
30
0
11
5397.94616096893
21
-12.0622190054179
31
0
210
0
220
0
230
1
40
0.012681
41
-1.41904135709944
42
-1.4172594205199
0
ELLIPSE
5
EA
100
AcDbEntity
8
1
62
256
6
ByLayer
370
18
48
1
60
0
100
AcDbEllipse
10
32.32056
20
121.737505
30
0
11
159.274210286282
21
1.8658262807951E-13
31
0
210
0
220
0
230
1
40
0.700208
41
-1.6345022635742
42
-1.60667041780623
0
ELLIPSE
5
EB
100
AcDbEntity
8
1
62
256
6
ByLayer
370
18
48
1
60
0
100
AcDbEllipse
10
32.32056
20
76.5375
30
0
11
99.5062125509104
21
1.16567086502053E-13
31
0
210
0
220
0
230
1
40
0.700208
41
-1.69383851084229
42
-1.62823730970502
0
ELLIPSE
5
EC
100
AcDbEntity
8
1
62
256
6
ByLayer
370
18
48
1
60
0
100
AcDbEllipse
10
30.542486
20
9.896249
30
0
11
0.0095549250146218
21
-0.0995424699534842
31
0
210
0
220
0
230
1
40
1
41
-1.66649156699814
42
-1.49195864113054
0
ELLIPSE
5
ED
100
AcDbEntity
8
1
62
256
6
ByLayer
370
18
48
1
60
0
100
AcDbEllipse
10
30.542486
20
7.178751
30
0
11
0.00955492501462178
21
0.0995424699534842
31
0
210
0
220
0
230
1
40
1
41
1.49195864113054
42
1.66649156699814
0
POINT
5
70
100
AcDbEntity
8
81
62
256
6
ByLayer
370
18
48
1
60
0
100
AcDbPoint
10
38.107968
20
10.5375
30
0
39
0
210
0
220
0
230
1
50
360
0
POINT
5
72
100
AcDbEntity
8
80
62
256
6
ByLayer
370
18
48
1
60
0
100
AcDbPoint
10
0
20
0
30
0
39
0
210
0
220
0
230
1
50
360
0
POINT
5
74
100
AcDbEntity
8
1
62
256
6
ByLayer
370
18
48
1
60
1
100
AcDbPoint
10
38.107968
20
10.5375
30
0
39
0
210
0
220
0
230
1
50
360
0
POINT
5
76
100
AcDbEntity
8
1
62
256
6
ByLayer
370
18
48
1
60
1
100
AcDbPoint
10
0
20
-9.9625
30
0
39
0
210
0
220
0
230
1
50
360
0
POINT
5
77
100
AcDbEntity
8
1
62
256
6
ByLayer
370
18
48
1
60
1
100
AcDbPoint
10
38.107968
20
6.5375
30
0
39
0
210
0
220
0
230
1
50
360
0
POINT
5
78
100
AcDbEntity
8
1
62
256
6
ByLayer
370
18
48
1
60
1
100
AcDbPoint
10
38.107968
20
10.5375
30
0
39
0
210
0
220
0
230
1
50
360
0
POINT
5
79
100
AcDbEntity
8
1
62
256
6
ByLayer
370
18
48
1
60
1
100
AcDbPoint
10
0
20
-9.9625
30
0
39
0
210
0
220
0
230
1
50
360
0
POINT
5
7A
100
AcDbEntity
8
1
62
256
6
ByLayer
370
18
48
1
60
1
100
AcDbPoint
10
0
20
10.0375
30
0
39
0
210
0
220
0
230
1
50
360
0
POINT
5
7B
100
AcDbEntity
8
1
62
256
6
ByLayer
370
18
48
1
60
1
100
AcDbPoint
10
20.107968
20
6.8625
30
0
39
0
210
0
220
0
230
1
50
360
0
POINT
5
7C
100
AcDbEntity
8
1
62
256
6
ByLayer
370
18
48
1
60
1
100
AcDbPoint
10
38.107968
20
10.5375
30
0
39
0
210
0
220
0
230
1
50
360
0
POINT
5
7D
100
AcDbEntity
8
1
62
256
6
ByLayer
370
18
48
1
60
1
100
AcDbPoint
10
-69
20
-9.9625
30
0
39
0
210
0
220
0
230
1
50
360
0
POINT
5
7E
100
AcDbEntity
8
1
62
256
6
ByLayer
370
18
48
1
60
1
100
AcDbPoint
10
38.107968
20
10.5375
30
0
39
0
210
0
220
0
230
1
50
360
0
POINT
5
7F
100
AcDbEntity
8
1
62
256
6
ByLayer
370
18
48
1
60
1
100
AcDbPoint
10
0
20
-9.9625
30
0
39
0
210
0
220
0
230
1
50
360
0
POINT
5
80
100
AcDbEntity
8
1
62
256
6
ByLayer
370
18
48
1
60
1
100
AcDbPoint
10
38.107968
20
10.5375
30
0
39
0
210
0
220
0
230
1
50
360
0
POINT
5
81
100
AcDbEntity
8
1
62
256
6
ByLayer
370
18
48
1
60
1
100
AcDbPoint
10
-69
20
-9.9625
30
0
39
0
210
0
220
0
230
1
50
360
0
POINT
5
82
100
AcDbEntity
8
1
62
256
6
ByLayer
370
18
48
1
60
1
100
AcDbPoint
10
-66
20
-9.9625
30
0
39
0
210
0
220
0
230
1
50
360
0
SPLINE
5
EE
100
AcDbEntity
8
1
62
256
6
ByLayer
370
18
48
1
60
0
100
AcDbSpline
70
4
71
3
72
10
73
6
40
0
40
0
40
0
40
0
40
0.5
40
0.5
40
1
40
1
40
1
40
1
41
1
10
0
20
10.5364903551091
30
0
41
1
10
0.0631094604663645
20
10.6120071379445
30
0
41
1
10
0.125324018545115
20
10.7007087506688
30
0
41
1
10
0.235356939478578
20
10.9046113751306
30
0
41
1
10
0.283305782798777
20
11.0198115754831
30
0
41
1
10
0.317758141296196
20
11.148389527836
30
0
0
SPLINE
5
EF
100
AcDbEntity
8
1
62
256
6
ByLayer
370
18
48
1
60
0
100
AcDbSpline
70
4
71
2
72
6
73
3
40
0
40
0
40
0
40
1
40
1
40
1
41
0.49999957474312
10
28.4439384466534
20
10.3082203178528
30
0
41
0.50000042525688
10
29.6786925469462
20
10.3071762815744
30
0
41
0.49999957474312
10
30.9135689821396
20
10.3061436279792
30
0
0
SPLINE
5
F0
100
AcDbEntity
8
1
62
256
6
ByLayer
370
18
48
1
60
0
100
AcDbSpline
70
4
71
3
72
12
73
8
40
0
40
0
40
0
40
0
40
0.500000000000001
40
0.500000000000001
40
0.75
40
0.75
40
1
40
1
40
1
40
1
41
1
10
29.8302153477896
20
8.03749999999948
30
0
41
1
10
29.7997011014091
20
7.84331893178648
30
0
41
1
10
29.7684191890732
20
7.64932787741776
30
0
41
1
10
29.7189891997359
20
7.35906084176472
30
0
41
1
10
29.7020882787072
20
7.26243771725575
30
0
41
1
10
29.6668810093504
20
7.06963057629477
30
0
41
1
10
29.6486021494252
20
6.97343797143756
30
0
41
1
10
29.629001408255
20
6.87765837172503
30
0
0
SPLINE
5
F1
100
AcDbEntity
8
1
62
256
6
ByLayer
370
18
48
1
60
0
100
AcDbSpline
70
4
71
3
72
8
73
4
40
0
40
0
40
0
40
0
40
1
40
1
40
1
40
1
41
1
10
30.0271257792797
20
8.12157723761356
30
0
41
1
10
29.9616721404865
20
8.09273430633343
30
0
41
1
10
29.8961025793963
20
8.06440854013653
30
0
41
1
10
29.8302153477876
20
8.03749999999999
30
0
0
SPLINE
5
F2
100
AcDbEntity
8
1
62
256
6
ByLayer
370
18
48
1
60
0
100
AcDbSpline
70
4
71
3
72
18
73
14
40
0
40
0
40
0
40
0
40
0.249999999999987
40
0.249999999999987
40
0.499999999999975
40
0.499999999999975
40
0.624999999999981
40
0.624999999999981
40
0.749999999999987
40
0.749999999999987
40
0.874999999999994
40
0.874999999999994
40
1
40
1
40
1
40
1
41
1
10
30.1079675788577
20
8.26253113073145
30
0
41
1
10
30.1079675788577
20
8.24670667076049
30
0
41
1
10
30.1059820634279
20
8.23132593542104
30
0
41
1
10
30.0981161574225
20
8.20143489466332
30
0
41
1
10
30.0924216759352
20
8.18767415121152
30
0
41
1
10
30.081422316242
20
8.16887466601699
30
0
41
1
10
30.0773940441611
20
8.16301892913668
30
0
41
1
10
30.0687590323545
20
8.1522311583366
30
0
41
1
10
30.0641365664649
20
8.14727272904136
30
0
41
1
10
30.0542858359853
20
8.13822089784631
30
0
41
1
10
30.0490910285894
20
8.13416749605588
30
0
41
1
10
30.0383871450718
20
8.12712031649266
30
0
41
1
10
30.0328489567549
20
8.12409922443757
30
0
41
1
10
30.0271257792797
20
8.12157723761356
30
0
0
SPLINE
5
F3
100
AcDbEntity
8
1
62
256
6
ByLayer
370
18
48
1
60
0
100
AcDbSpline
70
4
71
3
72
20
73
16
40
0
40
0
40
0
40
0
40
0.250000000000024
40
0.250000000000024
40
0.37500000000002
40
0.37500000000002
40
0.500000000000016
40
0.500000000000016
40
0.625000000000012
40
0.625000000000012
40
0.750000000000008
40
0.750000000000008
40
0.875000000000004
40
0.875000000000004
40
1
40
1
40
1
40
1
41
1
10
30.02712577928
20
8.95342276238631
30
0
41
1
10
30.0385771767408
20
8.94837656669552
30
0
41
1
10
30.0492453454358
20
8.94138771987278
30
0
41
1
10
30.0640159096368
20
8.92784947792862
30
0
41
1
10
30.0687115475184
20
8.92282227262402
30
0
41
1
10
30.0773490077084
20
8.91204316449503
30
0
41
1
10
30.0813341354954
20
8.90625461429877
30
0
41
1
10
30.0886149272942
20
8.89385289917024
30
0
41
1
10
30.0919343358607
20
8.88717148783311
30
0
41
1
10
30.0976335769425
20
8.87336837399982
30
0
41
1
10
30.1000349899855
20
8.86623081188068
30
0
41
1
10
30.1039382341003
20
8.85148200965548
30
0
41
1
10
30.1054464872661
20
8.84381649051397
30
0
41
1
10
30.1074607871041
20
8.82824258806562
30
0
41
1
10
30.1079675788693
20
8.82038931564531
30
0
41
1
10
30.1079675788694
20
8.81246886927011
30
0
0
SPLINE
5
F4
100
AcDbEntity
8
1
62
256
6
ByLayer
370
18
48
1
60
0
100
AcDbSpline
70
4
71
3
72
8
73
4
40
0
40
0
40
0
40
0
40
1
40
1
40
1
40
1
41
1
10
29.8302153477877
20
9.03749999999999
30
0
41
1
10
29.896085553729
20
9.01059841319636
30
0
41
1
10
29.9616597633985
20
8.9822711477789
30
0
41
1
10
30.02712577928
20
8.95342276238631
30
0
0
SPLINE
5
F5
100
AcDbEntity
8
1
62
256
6
ByLayer
370
18
48
1
60
0
100
AcDbSpline
70
4
71
3
72
12
73
8
40
0
40
0
40
0
40
0
40
0.249999999999997
40
0.249999999999997
40
0.499999999999994
40
0.499999999999994
40
1
40
1
40
1
40
1
41
1
10
29.6239166931336
20
10.2220254749212
30
0
41
1
10
29.6441712088434
20
10.1243543669957
30
0
41
1
10
29.6629700369357
20
10.0261701308071
30
0
41
1
10
29.6991262757027
20
9.82929356039665
30
0
41
1
10
29.7164524512608
20
9.73057780090963
30
0
41
1
10
29.767073011496
20
9.43404696157407
30
0
41
1
10
29.7990411967295
20
9.23588045081019
30
0
41
1
10
29.8302153477876
20
9.03750000000002
30
0
0
SPLINE
5
F6
100
AcDbEntity
8
1
62
256
6
ByLayer
370
18
48
1
60
0
100
AcDbSpline
70
4
71
3
72
8
73
4
40
0
40
0
40
0
40
0
40
1
40
1
40
1
40
1
41
1
10
29.6290014082554
20
6.87765837172535
30
0
41
1
10
29.6243210484873
20
6.87765654364253
30
0
41
1
10
29.6196406311061
20
6.87765626659854
30
0
41
1
10
29.6149601561231
20
6.87765754016118
30
0
0
SPLINE
5
F7
100
AcDbEntity
8
1
62
256
6
ByLayer
370
18
48
1
60
0
100
AcDbSpline
70
4
71
3
72
29
73
25
40
0
40
0
40
0
40
0
40
0.124999999999985
40
0.24999999999997
40
0.24999999999997
40
0.281249999999964
40
0.281249999999964
40
0.312499999999958
40
0.374999999999954
40
0.374999999999954
40
0.499999999999953
40
0.499999999999953
40
0.562499999999955
40
0.562499999999955
40
0.624999999999956
40
0.624999999999956
40
0.749999999999967
40
0.874999999999978
40
0.874999999999978
40
0.906249999999982
40
0.906249999999982
40
0.937499999999986
40
0.937499999999986
40
1
40
1
40
1
40
1
41
1
10
18.5079675788577
20
5.84580582734631
30
0
41
1
10
18.5079675788577
20
5.91697152447867
30
0
41
1
10
18.5172683854635
20
6.05821612704125
30
0
41
1
10
18.544804323681
20
6.19732996927715
30
0
41
1
10
18.5679013961782
20
6.28358821652
30
0
41
1
10
18.5728263583179
20
6.30083711607972
30
0
41
1
10
18.583222111853
20
6.33508667436843
30
0
41
1
10
18.5996239453997
20
6.38606663385292
30
0
41
1
10
18.6184141400765
20
6.43588114767826
30
0
41
1
10
18.6591236909157
20
6.53398324222633
30
0
41
1
10
18.6904222268857
20
6.59735525676351
30
0
41
1
10
18.7436362206902
20
6.68935557357312
30
0
41
1
10
18.762421911799
20
6.7195111042864
30
0
41
1
10
18.8021353320114
20
6.77877691805276
30
0
41
1
10
18.8231305163449
20
6.80796359808122
30
0
41
1
10
18.8884710572497
20
6.89270242955376
30
0
41
1
10
18.9822679402359
20
6.99890609663075
30
0
41
1
10
19.0890916473536
20
7.09187751299504
30
0
41
1
10
19.1600432962679
20
7.1457317919853
30
0
41
1
10
19.174443845185
20
7.15628911359718
30
0
41
1
10
19.2036719441106
20
7.17697002213328
30
0
41
1
10
19.2184850964835
20
7.18708181120499
30
0
41
1
10
19.2632293765841
20
7.2165389754164
30
0
41
1
10
19.293570532087
20
7.23508292386194
30
0
41
1
10
19.3244127444803
20
7.25255533409106
30
0
0
SPLINE
5
F8
100
AcDbEntity
8
1
62
256
6
ByLayer
370
18
48
1
60
0
100
AcDbSpline
70
4
71
3
72
37
73
33
40
0
40
0
40
0
40
0
40
0.125
40
0.125
40
0.187499999999999
40
0.187499999999999
40
0.218749999999999
40
0.218749999999999
40
0.25
40
0.25
40
0.374999999999999
40
0.374999999999999
40
0.40625
40
0.40625
40
0.4375
40
0.4375
40
0.499999999999998
40
0.499999999999998
40
0.624999999999994
40
0.624999999999994
40
0.656249999999993
40
0.656249999999993
40
0.687499999999993
40
0.687499999999993
40
0.749999999999994
40
0.812499999999995
40
0.812499999999995
40
0.843749999999995
40
0.843749999999995
40
0.874999999999995
40
0.874999999999995
40
1
40
1
40
1
40
1
41
1
10
18.5079675788577
20
5.2872750203297
30
0
41
1
10
18.5079675788577
20
5.39171626498816
30
0
41
1
10
18.5181827301735
20
5.49458325460529
30
0
41
1
10
18.5483303269958
20
5.6465990811366
30
0
41
1
10
18.5608681666162
20
5.69688749936824
30
0
41
1
10
18.5835080349048
20
5.77172940703306
30
0
41
1
10
18.5917202865401
20
5.79664614275765
30
0
41
1
10
18.6093033273997
20
5.8458638137605
30
0
41
1
10
18.6186703670376
20
5.87016853440966
30
0
41
1
10
18.6683318729455
20
5.9901986650799
30
0
41
1
10
18.7170253370542
20
6.08148589136951
30
0
41
1
10
18.7891002832697
20
6.18967235115798
30
0
41
1
10
18.8040806745631
20
6.21101087435429
30
0
41
1
10
18.8351929322494
20
6.25307946029093
30
0
41
1
10
18.8513725595037
20
6.27386567714447
30
0
41
1
10
18.9012347041825
20
6.33475319847076
30
0
41
1
10
18.9362477758264
20
6.37343155191462
30
0
41
1
10
19.0464585788895
20
6.48388143066049
30
0
41
1
10
19.1267781193486
20
6.55012153450974
30
0
41
1
10
19.2360145189921
20
6.62337796060925
30
0
41
1
10
19.258370844512
20
6.63758359977786
30
0
41
1
10
19.3035590720799
20
6.66474959529333
30
0
41
1
10
19.3264116648679
20
6.67772864526268
30
0
41
1
10
19.3957316958243
20
6.7148847577931
30
0
41
1
10
19.4901874840137
20
6.7596852041433
30
0
41
1
10
19.5886518936131
20
6.79511932673989
30
0
41
1
10
19.6640287471038
20
6.81812340170697
30
0
41
1
10
19.6894095782234
20
6.82519510939636
30
0
41
1
10
19.7406916919816
20
6.83812246645317
30
0
41
1
10
19.7666378827747
20
6.84398456759311
30
0
41
1
10
19.8965113547097
20
6.86995815155026
30
0
41
1
10
20.0016254708365
20
6.88038577249907
30
0
41
1
10
20.1079675788575
20
6.88035437678272
30
0
0
SPLINE
5
F9
100
AcDbEntity
8
1
62
256
6
ByLayer
370
18
48
1
60
0
100
AcDbSpline
70
4
71
3
72
16
73
12
40
0
40
0
40
0
40
0
40
0.250000000000002
40
0.250000000000002
40
0.500000000000004
40
0.500000000000004
40
0.750000000000006
40
0.750000000000006
40
0.875000000000003
40
0.875000000000003
40
1
40
1
40
1
40
1
41
1
10
19.3244127444806
20
7.2525553340904
30
0
41
1
10
19.3871151894994
20
7.28231035316617
30
0
41
1
10
19.4505725129636
20
7.30688418421494
30
0
41
1
10
19.5788203320341
20
7.34688147835354
30
0
41
1
10
19.6436120523835
20
7.36229653528997
30
0
41
1
10
19.7744438151978
20
7.3845586583306
30
0
41
1
10
19.8404842911459
20
7.39140274917841
30
0
41
1
10
19.9404654651863
20
7.39535121010414
30
0
41
1
10
19.9740124358788
20
7.39560876944574
30
0
41
1
10
20.0410705066896
20
7.39400378776719
30
0
41
1
10
20.0745455911281
20
7.39214715007921
30
0
41
1
10
20.1079675788577
20
7.38925305686914
30
0
0
SPLINE
5
FA
100
AcDbEntity
8
SK1
62
256
6
ByLayer
370
18
48
1
60
0
100
AcDbSpline
70
4
71
3
72
8
73
4
40
0
40
0
40
0
40
0
40
1
40
1
40
1
40
1
41
1
10
-0.0931303061707638
20
10.4343608637077
30
0
41
1
10
-0.0624724711696274
20
10.4651963817469
30
0
41
1
10
-0.0311311625415271
20
10.4992388048077
30
0
41
1
10
0
20
10.5364903551091
30
0
0
SPLINE
5
FB
100
AcDbEntity
8
SK1
62
256
6
ByLayer
370
18
48
1
60
0
100
AcDbSpline
70
4
71
3
72
26
73
22
40
0
40
0
40
0
40
0
40
0.125000000000002
40
0.125000000000002
40
0.250000000000005
40
0.250000000000005
40
0.375000000000007
40
0.375000000000007
40
0.437500000000006
40
0.437500000000006
40
0.500000000000005
40
0.500000000000005
40
0.625000000000004
40
0.625000000000004
40
0.687500000000003
40
0.687500000000003
40
0.750000000000002
40
0.750000000000002
40
0.875000000000001
40
0.875000000000001
40
1
40
1
40
1
40
1
41
1
10
-6
20
-9.46250000000001
30
0
41
1
10
-6.02979849161389
20
-9.46250000000001
30
0
41
1
10
-6.0626623160795
20
-9.46332454005534
30
0
41
1
10
-6.13432357705489
20
-9.46774425249731
30
0
41
1
10
-6.17312158274521
20
-9.47133654020539
30
0
41
1
10
-6.25655504467207
20
-9.48264185850405
30
0
41
1
10
-6.3011908983876
20
-9.49034932954424
30
0
41
1
10
-6.3725145897416
20
-9.50627819627113
30
0
41
1
10
-6.3970816855263
20
-9.51233896368399
30
0
41
1
10
-6.4471318994147
20
-9.52602801261509
30
0
41
1
10
-6.47265602100791
20
-9.53366255037432
30
0
41
1
10
-6.55060091039087
20
-9.5592271426089
30
0
41
1
10
-6.6043971736257
20
-9.57980476673035
30
0
41
1
10
-6.68731011156765
20
-9.61732697053304
30
0
41
1
10
-6.71531692963697
20
-9.63094660447081
30
0
41
1
10
-6.77196865458387
20
-9.66068409539042
30
0
41
1
10
-6.80072441251542
20
-9.67687435270747
30
0
41
1
10
-6.88650825648312
20
-9.72886767131683
30
0
41
1
10
-6.94328374837292
20
-9.76816792066498
30
0
41
1
10
-7.05463208656747
20
-9.85716563828845
30
0
41
1
10
-7.10921215962
20
-9.90685278771426
30
0
41
1
10
-7.16189500386224
20
-9.96250000000001
30
0
0
SPLINE
5
FC
100
AcDbEntity
8
1
62
256
6
ByLayer
370
18
48
1
60
0
100
AcDbSpline
70
4
71
3
72
18
73
14
40
0
40
0
40
0
40
0
40
0.106502320877573
40
0.209819720888421
40
0.30997005066468
40
0.406972922400335
40
0.500849920826057
40
0.591624858696214
40
0.679324076625782
40
0.763976789997986
40
0.845615488386059
40
0.924276395492298
40
1
40
1
40
1
40
1
41
1
10
30.6980862172677
20
9.02058535182297
30
0
41
1
10
30.6965091061934
20
9.02126430365055
30
0
41
1
10
30.693402047092
20
9.02260190344919
30
0
41
1
10
30.6888919111762
20
9.02490496238863
30
0
41
1
10
30.68458290232
20
9.0273663474787
30
0
41
1
10
30.6804802013748
20
9.02999015794032
30
0
41
1
10
30.676582489068
20
9.03275246583723
30
0
41
1
10
30.6728900240872
20
9.03563703917564
30
0
41
1
10
30.6694029509026
20
9.03862685284039
30
0
41
1
10
30.6661204155716
20
9.04170435447008
30
0
41
1
10
30.6630454487202
20
9.04485841525067
30
0
41
1
10
30.6601672624499
20
9.04805799258213
30
0
41
1
10
30.6583711657764
20
9.05029187683832
30
0
41
1
10
30.6574902036077
20
9.05138756814932
30
0
0
SPLINE
5
FD
100
AcDbEntity
8
1
62
256
6
ByLayer
370
18
48
1
60
0
100
AcDbSpline
70
4
71
3
72
16
73
12
40
0
40
0
40
0
40
0
40
0.117319552192529
40
0.233085853411091
40
0.347299362420275
40
0.459960556948121
40
0.571069934744736
40
0.680628014712979
40
0.788635338118826
40
0.895092469888315
40
1
40
1
40
1
40
1
41
1
10
30.8569129943077
20
8.96523252370201
30
0
41
1
10
30.8506453455703
20
8.96705532687011
30
0
41
1
10
30.8381930285647
20
8.97067680022298
30
0
41
1
10
30.8196868348826
20
8.97639140876416
30
0
41
1
10
30.8014648755764
20
8.98225688981358
30
0
41
1
10
30.7835304222354
20
8.98828667338753
30
0
41
1
10
30.7658826942356
20
8.99446626906831
30
0
41
1
10
30.7485216077425
20
9.00078692017738
30
0
41
1
10
30.7314482369927
20
9.00724494494935
30
0
41
1
10
30.7146584541165
20
9.01381205605551
30
0
41
1
10
30.7035832305375
20
9.01833864867871
30
0
41
1
10
30.6980862172677
20
9.02058535182999
30
0
0
SPLINE
5
FE
100
AcDbEntity
8
1
62
256
6
ByLayer
370
18
48
1
60
0
100
AcDbSpline
70
4
71
2
72
10
73
7
40
0
40
0
40
0
40
0.5
40
0.5
40
0.75
40
0.75
40
1
40
1
40
1
41
1
10
30.8569129943012
20
8.965232523738
30
0
41
1
10
30.9245068205236
20
8.94573783648494
30
0
41
1
10
30.9722030616267
20
8.89401428899015
30
0
41
1
10
30.9981900515785
20
8.86583304707403
30
0
41
1
10
31.0148269535881
20
8.82997764610374
30
0
41
1
10
31.0327928150101
20
8.7912581077733
30
0
41
1
10
31.0369137759407
20
8.74823558697202
30
0
0
SPLINE
5
FF
100
AcDbEntity
8
1
62
256
6
ByLayer
370
18
48
1
60
0
100
AcDbSpline
70
4
71
2
72
6
73
3
40
0
40
0
40
0
40
1
40
1
40
1
41
1
10
31.0369137759782
20
8.74823558705802
30
0
41
1
10
31.0458050681508
20
8.65301655403991
30
0
41
1
10
31.0458285383892
20
8.55750000069762
30
0
0
SPLINE
5
100
100
AcDbEntity
8
1
62
256
6
ByLayer
370
18
48
1
60
0
100
AcDbSpline
70
4
71
3
72
17
73
13
40
0
40
0
40
0
40
0
40
0.100317411817062
40
0.200541310293549
40
0.300680278273627
40
0.400742920447668
40
0.500737861201951
40
0.600673742442856
40
0.700559221399285
40
0.80040296840497
40
0.900213664663583
40
1
40
1
40
1
40
1
41
1
10
31.0369137759777
20
8.326764412942
30
0
41
1
10
31.0374907017394
20
8.33310877017544
30
0
41
1
10
31.0386440154674
20
8.3457915705938
30
0
41
1
10
31.040149403979
20
8.36484605278775
30
0
41
1
10
31.0414892051089
20
8.38390852097953
30
0
41
1
10
31.042647382609
20
8.40298030428306
30
0
41
1
10
31.043628305849
20
8.4220589293337
30
0
41
1
10
31.0444305147006
20
8.44114294124881
30
0
41
1
10
31.0450554832194
20
8.46023061351954
30
0
41
1
10
31.0454987763667
20
8.47932029366908
30
0
41
1
10
31.0457766520422
20
8.49841031034353
30
0
41
1
10
31.0458112443465
20
8.51113728742752
30
0
41
1
10
31.0458285383877
20
8.5174999993024
30
0
0
SPLINE
5
101
100
AcDbEntity
8
1
62
256
6
ByLayer
370
18
48
1
60
0
100
AcDbSpline
70
4
71
3
72
38
73
34
40
0
40
0
40
0
40
0
40
0.032016180320228
40
0.0634137556517162
40
0.0941938978135298
40
0.124357850632111
40
0.153906935795999
40
0.182842559298687
40
0.211166218540727
40
0.238879510169552
40
0.265984138747577
40
0.29248192635147
40
0.318374823219167
40
0.343664919578665
40
0.368354458810696
40
0.392445852120287
40
0.415941694916228
40
0.438844785127719
40
0.461158143719605
40
0.482885037706422
40
0.504029006008684
40
0.551366811163471
40
0.597409666800775
40
0.642207857911432
40
0.685815975457813
40
0.728293199080106
40
0.769703557232107
40
0.810116149643945
40
0.849605314211504
40
0.888250718111314
40
0.926137351649964
40
0.963355403684966
40
1
40
1
40
1
40
1
41
1
10
30.8569129942977
20
8.10976747626199
30
0
41
1
10
30.8595412022225
20
8.11054856071476
30
0
41
1
10
30.8647468367947
20
8.11209563779062
30
0
41
1
10
30.87241836926
20
8.11473171586198
30
0
41
1
10
30.8798924884199
20
8.11755589994283
30
0
41
1
10
30.8871650942035
20
8.12057891014504
30
0
41
1
10
30.8942372552931
20
8.12378163409176
30
0
41
1
10
30.9011086967219
20
8.12715294017332
30
0
41
1
10
30.9077794928938
20
8.13067987870346
30
0
41
1
10
30.9142496277211
20
8.13435025625483
30
0
41
1
10
30.9205191088601
20
8.13815199273498
30
0
41
1
10
30.9265879381035
20
8.14207331105951
30
0
41
1
10
30.9324561190212
20
8.14610270817269
30
0
41
1
10
30.9381236552255
20
8.15022898018444
30
0
41
1
10
30.9435905500458
20
8.15444123132275
30
0
41
1
10
30.9488568095157
20
8.15872888389228
30
0
41
1
10
30.9539224312742
20
8.16308168899761
30
0
41
1
10
30.9587874446604
20
8.16748972348219
30
0
41
1
10
30.9634517667685
20
8.1719434298673
30
0
41
1
10
30.9679157190758
20
8.17643349481119
30
0
41
1
10
30.9739771356576
20
8.18285803049298
30
0
41
1
10
30.9814263980609
20
8.19144681680962
30
0
41
1
10
30.9899703211373
20
8.20252008363215
30
0
41
1
10
30.9978165015012
20
8.21396944130743
30
0
41
1
10
31.0049651843956
20
8.22574938082832
30
0
41
1
10
31.0114161979484
20
8.23781538138277
30
0
41
1
10
31.0171693145935
20
8.25012334744378
30
0
41
1
10
31.0222247334685
20
8.26262983462905
30
0
41
1
10
31.0265808749648
20
8.27529254717047
30
0
41
1
10
31.0302424590416
20
8.28806897651162
30
0
41
1
10
31.0331912788524
20
8.30092191163561
30
0
41
1
10
31.0354922122895
20
8.31379994166358
30
0
41
1
10
31.0364423803637
20
8.32246534810218
30
0
41
1
10
31.0369137759377
20
8.326764413028
30
0
0
SPLINE
5
102
100
AcDbEntity
8
1
62
256
6
ByLayer
370
18
48
1
60
0
100
AcDbSpline
70
4
71
2
72
6
73
3
40
0
40
0
40
0
40
1
40
1
40
1
41
1
10
30.8569129943097
20
8.109767476298
30
0
41
1
10
30.7759142978734
20
8.08651524332802
30
0
41
1
10
30.6980862172702
20
8.05441464817
30
0
0
SPLINE
5
103
100
AcDbEntity
8
1
62
256
6
ByLayer
370
18
48
1
60
0
100
AcDbSpline
70
4
71
2
72
6
73
3
40
0
40
0
40
0
40
1
40
1
40
1
41
1
10
30.6980862172692
20
8.05441464817702
30
0
41
1
10
30.6737873382768
20
8.04424532913677
30
0
41
1
10
30.6574902036082
20
8.02361243185101
30
0
0
SPLINE
5
104
100
AcDbEntity
8
1
62
256
6
ByLayer
370
18
48
1
60
0
100
AcDbSpline
70
4
71
3
72
37
73
33
40
0
40
0
40
0
40
0
40
0.124999999999998
40
0.124999999999998
40
0.249999999999995
40
0.249999999999995
40
0.374999999999993
40
0.374999999999993
40
0.437499999999992
40
0.437499999999992
40
0.499999999999991
40
0.499999999999991
40
0.56249999999999
40
0.56249999999999
40
0.624999999999989
40
0.624999999999989
40
0.687499999999989
40
0.687499999999989
40
0.718749999999989
40
0.718749999999989
40
0.749999999999989
40
0.749999999999989
40
0.812499999999987
40
0.812499999999987
40
0.843749999999988
40
0.843749999999988
40
0.874999999999989
40
0.90624999999999
40
0.90624999999999
40
0.937499999999992
40
0.937499999999992
40
1
40
1
40
1
40
1
41
1
10
8.95126757885768
20
-1.61249999999998
30
0
41
1
10
8.95126757885768
20
-1.64894084874038
30
0
41
1
10
8.95269279243362
20
-1.68541844440043
30
0
41
1
10
8.95846730300613
20
-1.75804710022496
30
0
41
1
10
8.96282190846361
20
-1.79427873327828
30
0
41
1
10
8.97470234576858
20
-1.86607955216365
30
0
41
1
10
8.98224192061792
20
-1.90174964856189
30
0
41
1
10
8.99628816746844
20
-1.95435143250651
30
0
41
1
10
9.00142877585299
20
-1.97173995664528
30
0
41
1
10
9.01274379177531
20
-2.00618639994943
30
0
41
1
10
9.01891910820584
20
-2.0232412198219
30
0
41
1
10
9.03237426168693
20
-2.0567302051885
30
0
41
1
10
9.03966121685491
20
-2.07319232354578
30
0
41
1
10
9.05556400327296
20
-2.10543825585714
30
0
41
1
10
9.06420510963881
20
-2.12125613459682
30
0
41
1
10
9.08283297774165
20
-2.15155866467472
30
0
41
1
10
9.09283961007966
20
-2.16609939455563
30
0
41
1
10
9.10914375738497
20
-2.18675323484004
30
0
41
1
10
9.11479542403455
20
-2.19344380536776
30
0
41
1
10
9.12659795603429
20
-2.20637537811814
30
0
41
1
10
9.132779955872
20
-2.21264344129838
30
0
41
1
10
9.15188510188062
20
-2.23035982120203
30
0
41
1
10
9.16538763655828
20
-2.24078502883671
30
0
41
1
10
9.18706896529338
20
-2.25378856120136
30
0
41
1
10
9.19459404531793
20
-2.25770336787568
30
0
41
1
10
9.20984460958607
20
-2.2643593919195
30
0
41
1
10
9.2252909056516
20
-2.26986181074611
30
0
41
1
10
9.24113636422018
20
-2.27296278981996
30
0
41
1
10
9.25718954329207
20
-2.27479360796559
30
0
41
1
10
9.26524798154534
20
-2.27505503029823
30
0
41
1
10
9.28893281084402
20
-2.27395950842262
30
0
41
1
10
9.30430824868969
20
-2.27076678296612
30
0
41
1
10
9.31931093655891
20
-2.26537075857638
30
0
0
SPLINE
5
105
100
AcDbEntity
8
1
62
256
6
ByLayer
370
18
48
1
60
0
100
AcDbSpline
70
4
71
3
72
35
73
31
40
0
40
0
40
0
40
0
40
0.125000000000002
40
0.125000000000002
40
0.250000000000004
40
0.250000000000004
40
0.375000000000006
40
0.375000000000006
40
0.437500000000008
40
0.437500000000008
40
0.50000000000001
40
0.50000000000001
40
0.62500000000001
40
0.62500000000001
40
0.68750000000001
40
0.68750000000001
40
0.718750000000011
40
0.718750000000011
40
0.750000000000011
40
0.750000000000011
40
0.812500000000008
40
0.812500000000008
40
0.843750000000006
40
0.843750000000006
40
0.875000000000003
40
0.906250000000001
40
0.906250000000001
40
0.937499999999999
40
0.937499999999999
40
1
40
1
40
1
40
1
41
1
10
10.3546175788577
20
-4.04317350080177
30
0
41
1
10
10.3230772295705
20
-4.02496367165051
30
0
41
1
10
10.2921831527376
20
-4.00548128927966
30
0
41
1
10
10.2321791955767
20
-3.96417139612123
30
0
41
1
10
10.2030591854605
20
-3.94234802469626
30
0
41
1
10
10.1467682215716
20
-3.89612435383052
30
0
41
1
10
10.1196845176971
20
-3.87179407393171
30
0
41
1
10
10.0811899883867
20
-3.83337634152119
30
0
41
1
10
10.0687042516215
20
-3.82023842442598
30
0
41
1
10
10.0445178023306
20
-3.79321216698261
30
0
41
1
10
10.0328186258134
20
-3.77932264752465
30
0
41
1
10
9.99933932579981
20
-3.73665343228132
30
0
41
1
10
9.97898358292801
20
-3.70669133952021
30
0
41
1
10
9.9535073986186
20
-3.65960060677227
30
0
41
1
10
9.94582469348933
20
-3.64345389028406
30
0
41
1
10
9.9360507586853
20
-3.61882323323704
30
0
41
1
10
9.93308303524555
20
-3.61054309568206
30
0
41
1
10
9.92780727465407
20
-3.59382656710568
30
0
41
1
10
9.925493745561
20
-3.58536069269422
30
0
41
1
10
9.91976797675053
20
-3.56002347895441
30
0
41
1
10
9.91752871135199
20
-3.54316173379667
30
0
41
1
10
9.91715590833698
20
-3.51794990923659
30
0
41
1
10
9.91754286562647
20
-3.50949830494147
30
0
41
1
10
9.91942734595452
20
-3.49301610260474
30
0
41
1
10
9.92240352391548
20
-3.47693931510761
30
0
41
1
10
9.92764833851666
20
-3.46171364601753
30
0
41
1
10
9.93409140361931
20
-3.4469410712573
30
0
41
1
10
9.937890380678
20
-3.43985664974372
30
0
41
1
10
9.95066350315992
20
-3.41995663986995
30
0
41
1
10
9.96109358299887
20
-3.40827134708962
30
0
41
1
10
9.97323659539313
20
-3.3980032240502
30
0
0
SPLINE
5
106
100
AcDbEntity
8
1
62
256
6
ByLayer
370
18
48
1
60
0
100
AcDbSpline
70
4
71
3
72
50
73
46
40
0
40
0
40
0
40
0
40
0.0312499999999993
40
0.0312499999999993
40
0.0624999999999986
40
0.0624999999999986
40
0.0937499999999979
40
0.0937499999999979
40
0.124999999999997
40
0.124999999999997
40
0.156249999999996
40
0.156249999999996
40
0.187499999999996
40
0.187499999999996
40
0.218749999999995
40
0.218749999999995
40
0.249999999999994
40
0.249999999999994
40
0.312499999999995
40
0.312499999999995
40
0.374999999999995
40
0.374999999999995
40
0.437499999999995
40
0.437499999999995
40
0.499999999999996
40
0.499999999999996
40
0.624999999999996
40
0.624999999999996
40
0.687499999999997
40
0.687499999999997
40
0.749999999999997
40
0.749999999999997
40
0.812499999999998
40
0.812499999999998
40
0.843749999999998
40
0.843749999999998
40
0.874999999999998
40
0.874999999999998
40
0.906249999999999
40
0.906249999999999
40
0.937499999999999
40
0.937499999999999
40
0.96875
40
0.96875
40
1
40
1
40
1
40
1
41
1
10
9.33931093655892
20
-2.26399896176551
30
0
41
1
10
9.35297888738089
20
-2.26306147919809
30
0
41
1
10
9.36667358464146
20
-2.26358511935922
30
0
41
1
10
9.39411490162124
20
-2.26696658906172
30
0
41
1
10
9.40784785809868
20
-2.26983756012081
30
0
41
1
10
9.43493120992812
20
-2.27741019765747
30
0
41
1
10
9.44837834956917
20
-2.28213731873834
30
0
41
1
10
9.47481286201989
20
-2.2930357901252
30
0
41
1
10
9.48782276447884
20
-2.29921068436272
30
0
41
1
10
9.51350429819081
20
-2.31279136910086
30
0
41
1
10
9.52615081473346
20
-2.32018785487736
30
0
41
1
10
9.55096116712085
20
-2.33593124735475
30
0
41
1
10
9.56315067744518
20
-2.34429248843122
30
0
41
1
10
9.58715798539171
20
-2.36188520558889
30
0
41
1
10
9.59897941483828
20
-2.37112251195291
30
0
41
1
10
9.62213861090268
20
-2.39026235675445
30
0
41
1
10
9.63349762307931
20
-2.40018015715154
30
0
41
1
10
9.66698129111049
20
-2.43088986358961
30
0
41
1
10
9.68856957949592
20
-2.45269493136081
30
0
41
1
10
9.72998561638553
20
-2.49812969247077
30
0
41
1
10
9.74984883849496
20
-2.52178632802068
30
0
41
1
10
9.78804759947175
20
-2.57083395463232
30
0
41
1
10
9.80633976394992
20
-2.59618144115808
30
0
41
1
10
9.84111269780354
20
-2.64802989888909
30
0
41
1
10
9.85764204220013
20
-2.67459458610421
30
0
41
1
10
9.90464942684073
20
-2.75615108836976
30
0
41
1
10
9.93205601194114
20
-2.81201612707878
30
0
41
1
10
9.96692360478556
20
-2.8982195247751
30
0
41
1
10
9.97751214734004
20
-2.92745490957162
30
0
41
1
10
9.99600139671048
20
-2.98582842931654
30
0
41
1
10
10.0039542923882
20
-3.01506892024236
30
0
41
1
10
10.0169393902508
20
-3.07372323066983
30
0
41
1
10
10.0219807715168
20
-3.10313598294962
30
0
41
1
10
10.026816349157
20
-3.14746684220208
30
0
41
1
10
10.0279690577685
20
-3.16232441271669
30
0
41
1
10
10.0291879990698
20
-3.19170522762224
30
0
41
1
10
10.0292618764623
20
-3.20626737706419
30
0
41
1
10
10.0281858887306
20
-3.23511319924989
30
0
41
1
10
10.0270375256737
20
-3.24939716540661
30
0
41
1
10
10.0232815435844
20
-3.27764805350995
30
0
41
1
10
10.0206636874186
20
-3.29166662108807
30
0
41
1
10
10.0136414869944
20
-3.31909321568759
30
0
41
1
10
10.0092830999658
20
-3.33234430281055
30
0
41
1
10
9.99852547271757
20
-3.35775067843093
30
0
41
1
10
9.99213199650049
20
-3.36990907709608
30
0
41
1
10
9.98442460628058
20
-3.38136861437934
30
0
0
SPLINE
5
107
100
AcDbEntity
8
1
62
256
6
ByLayer
370
18
48
1
60
0
100
AcDbSpline
70
4
71
3
72
8
73
4
40
0
40
0
40
0
40
0
40
1
40
1
40
1
40
1
41
1
10
9.31931093655891
20
-2.26537075857638
30
0
41
1
10
9.32597735995455
20
-2.26491350965867
30
0
41
1
10
9.33264402472074
20
-2.2644562441854
30
0
41
1
10
9.33931093655892
20
-2.26399896176551
30
0
0
SPLINE
5
108
100
AcDbEntity
8
1
62
256
6
ByLayer
370
18
48
1
60
0
100
AcDbSpline
70
4
71
3
72
8
73
4
40
0
40
0
40
0
40
0
40
1
40
1
40
1
40
1
41
1
10
9.97323659539313
20
-3.3980032240502
30
0
41
1
10
9.97696579626952
20
-3.39245855649605
30
0
41
1
10
9.98069513216876
20
-3.38691368818664
30
0
41
1
10
9.98442460628019
20
-3.38136861437997
30
0
0
SPLINE
5
109
100
AcDbEntity
8
1
62
256
6
ByLayer
370
18
48
1
60
0
100
AcDbSpline
70
4
71
3
72
35
73
31
40
0
40
0
40
0
40
0
40
0.125000000000006
40
0.125000000000006
40
0.250000000000012
40
0.250000000000012
40
0.375000000000018
40
0.375000000000018
40
0.437500000000021
40
0.437500000000021
40
0.500000000000024
40
0.500000000000024
40
0.625000000000026
40
0.625000000000026
40
0.687500000000025
40
0.687500000000025
40
0.718750000000027
40
0.718750000000027
40
0.750000000000028
40
0.750000000000028
40
0.812500000000021
40
0.812500000000021
40
0.843750000000018
40
0.843750000000018
40
0.875000000000015
40
0.906250000000012
40
0.906250000000012
40
0.937500000000009
40
0.937500000000009
40
1
40
1
40
1
40
1
41
1
10
13.1613175788577
20
-4.04317350080177
30
0
41
1
10
13.1297772295705
20
-4.06138332995303
30
0
41
1
10
13.0974579530947
20
-4.07839719413144
30
0
41
1
10
13.0316805576114
20
-4.10970719878111
30
0
41
1
10
12.9982209585031
20
-4.12401418158768
30
0
41
1
10
12.9300446033327
20
-4.14965175088614
30
0
41
1
10
12.8954321109219
20
-4.16094178652071
30
0
41
1
10
12.8429141140434
20
-4.17507016060495
30
0
41
1
10
12.8252934757035
20
-4.17931416728092
30
0
41
1
10
12.7897948255429
20
-4.1867471180725
30
0
41
1
10
12.7719165605874
20
-4.18993414241075
30
0
41
1
10
12.7182242862203
20
-4.19759345910182
30
0
41
1
10
12.6820984813027
20
-4.20024100316115
30
0
41
1
10
12.6285786183055
20
-4.19875865959065
30
0
41
1
10
12.6107537990743
20
-4.19733871915827
30
0
41
1
10
12.5845360569577
20
-4.19348786646998
30
0
41
1
10
12.5758813857684
20
-4.19191792158273
30
0
41
1
10
12.5587665670624
20
-4.18812859999105
30
0
41
1
10
12.5502781402103
20
-4.1858992377523
30
0
41
1
10
12.5254725850453
20
-4.17818929212845
30
0
41
1
10
12.5097502526873
20
-4.17169768027054
30
0
41
1
10
12.487729770635
20
-4.15941462487208
30
0
41
1
10
12.4806039452574
20
-4.15485370788167
30
0
41
1
10
12.4672721794875
20
-4.14498059887626
30
0
41
1
10
12.4548373620843
20
-4.13436475940733
30
0
41
1
10
12.4442739531632
20
-4.12220978217954
30
0
41
1
10
12.4347020606929
20
-4.10924363674229
30
0
41
1
10
12.4304662602203
20
-4.10241141534425
30
0
41
1
10
12.419618907375
20
-4.08139956185241
30
0
41
1
10
12.4147141868961
20
-4.06652420135819
30
0
41
1
10
12.4118932376919
20
-4.0508739826266
30
0
0
SPLINE
5
10A
100
AcDbEntity
8
1
62
256
6
ByLayer
370
18
48
1
60
0
100
AcDbSpline
70
4
71
3
72
52
73
48
40
0
40
0
40
0
40
0
40
0.0156250000000004
40
0.0156250000000004
40
0.0312500000000009
40
0.0312500000000009
40
0.0624999999999981
40
0.0624999999999981
40
0.0937499999999952
40
0.0937499999999952
40
0.124999999999993
40
0.124999999999993
40
0.187499999999991
40
0.187499999999991
40
0.21874999999999
40
0.21874999999999
40
0.249999999999989
40
0.249999999999989
40
0.31249999999999
40
0.31249999999999
40
0.37499999999999
40
0.37499999999999
40
0.43749999999999
40
0.43749999999999
40
0.499999999999991
40
0.499999999999991
40
0.562499999999991
40
0.562499999999991
40
0.624999999999991
40
0.624999999999991
40
0.687499999999992
40
0.687499999999992
40
0.749999999999992
40
0.749999999999992
40
0.812499999999992
40
0.812499999999992
40
0.843749999999994
40
0.843749999999994
40
0.874999999999995
40
0.874999999999995
40
0.906249999999996
40
0.906249999999996
40
0.937499999999997
40
0.937499999999997
40
0.968749999999999
40
0.968749999999999
40
1
40
1
40
1
40
1
41
1
10
12.4030812485786
20
-4.03286757614481
30
0
41
1
10
12.4000666048828
20
-4.02670745734684
30
0
41
1
10
12.3967224273547
20
-4.02071241873651
30
0
41
1
10
12.3894428189553
20
-4.00901733542267
30
0
41
1
10
12.3854977014907
20
-4.00330725601196
30
0
41
1
10
12.3730035929496
20
-3.98676543961827
30
0
41
1
10
12.3637670236647
20
-3.97645133423208
30
0
41
1
10
12.3438500909804
20
-3.95694420626501
30
0
41
1
10
12.3331664766585
20
-3.94775375527152
30
0
41
1
10
12.3105664638182
20
-3.93031303649445
30
0
41
1
10
12.2986854491708
20
-3.92209723391477
30
0
41
1
10
12.2619174276125
20
-3.89895819268565
30
0
41
1
10
12.2356858067709
20
-3.88538106004088
30
0
41
1
10
12.1949514512995
20
-3.86740525378974
30
0
41
1
10
12.1811202458899
20
-3.86180405245301
30
0
41
1
10
12.1529938817367
20
-3.8513009302701
30
0
41
1
10
12.1386844145567
20
-3.8463959581633
30
0
41
1
10
12.0953654986125
20
-3.83272454919938
30
0
41
1
10
12.0658899103002
20
-3.82496091323225
30
0
41
1
10
12.005862252587
20
-3.81176715447495
30
0
41
1
10
11.9753602650881
20
-3.80635854131171
30
0
41
1
10
11.9139731683313
20
-3.79778297277863
30
0
41
1
10
11.8829892403193
20
-3.79459850827843
30
0
41
1
10
11.8205840244527
20
-3.79035251302187
30
0
41
1
10
11.7893090309156
20
-3.7892998811156
30
0
41
1
10
11.7266155602646
20
-3.78930011890444
30
0
41
1
10
11.6953568209948
20
-3.7903530034026
30
0
41
1
10
11.6330162522313
20
-3.79459284645924
30
0
41
1
10
11.6019467413244
20
-3.79778365887466
30
0
41
1
10
11.5404744379843
20
-3.80637402120993
30
0
41
1
10
11.5099491698116
20
-3.8117912332244
30
0
41
1
10
11.4499520772704
20
-3.82498452043643
30
0
41
1
10
11.4204136116337
20
-3.83276701835155
30
0
41
1
10
11.3625882233878
20
-3.85103025940364
30
0
41
1
10
11.3344782908899
20
-3.8614454292146
30
0
41
1
10
11.2937250990997
20
-3.87943668870244
30
0
41
1
10
11.2803566916457
20
-3.88584384426224
30
0
41
1
10
11.254335203503
20
-3.89948661436787
30
0
41
1
10
11.2416664654448
20
-3.90672651626588
30
0
41
1
10
11.2171134162436
20
-3.92218768811526
30
0
41
1
10
11.2052545272474
20
-3.93039556552196
30
0
41
1
10
11.1826834463879
20
-3.94782515624749
30
0
41
1
10
11.1719152847151
20
-3.9570898939638
30
0
41
1
10
11.1518566600414
20
-3.97677750021984
30
0
41
1
10
11.1426418164931
20
-3.98711831849764
30
0
41
1
10
11.1261578070016
20
-4.0090048822963
30
0
41
1
10
11.1188832215552
20
-4.02054728740902
30
0
41
1
10
11.1128539091364
20
-4.03286757614546
30
0
0
SPLINE
5
10B
100
AcDbEntity
8
1
62
256
6
ByLayer
370
18
48
1
60
0
100
AcDbSpline
70
4
71
3
72
8
73
4
40
0
40
0
40
0
40
0
40
1
40
1
40
1
40
1
41
1
10
11.1128539091364
20
-4.03286757614546
30
0
41
1
10
11.1099164714097
20
-4.03886993237205
30
0
41
1
10
11.1069791425427
20
-4.04487206615474
30
0
41
1
10
11.1040419200235
20
-4.05087398262657
30
0
0
SPLINE
5
10C
100
AcDbEntity
8
1
62
256
6
ByLayer
370
18
48
1
60
0
100
AcDbSpline
70
4
71
3
72
35
73
31
40
0
40
0
40
0
40
0
40
0.124999999999997
40
0.124999999999997
40
0.249999999999995
40
0.249999999999995
40
0.374999999999992
40
0.374999999999992
40
0.49999999999999
40
0.49999999999999
40
0.562499999999988
40
0.562499999999988
40
0.624999999999987
40
0.624999999999987
40
0.687499999999986
40
0.687499999999986
40
0.718749999999988
40
0.718749999999988
40
0.74999999999999
40
0.74999999999999
40
0.812499999999999
40
0.812499999999999
40
0.84375
40
0.84375
40
0.875000000000001
40
0.906250000000002
40
0.906250000000002
40
0.937500000000003
40
0.937500000000003
40
1
40
1
40
1
40
1
41
1
10
10.3546175788577
20
-4.04317350080177
30
0
41
1
10
10.3861572195396
20
-4.06138292083963
30
0
41
1
10
10.4184359693648
20
-4.07837697738643
30
0
41
1
10
10.4842603092809
20
-4.10971050481413
30
0
41
1
10
10.5177192137688
20
-4.12401520056474
30
0
41
1
10
10.5858345489366
20
-4.14963155624798
30
0
41
1
10
10.6205058413901
20
-4.16094645116718
30
0
41
1
10
10.6907300821502
20
-4.17983031592647
30
0
41
1
10
10.7263009851149
20
-4.18741564107495
30
0
41
1
10
10.7800070973007
20
-4.1950634658829
30
0
41
1
10
10.7979403951797
20
-4.19698377228514
30
0
41
1
10
10.8338745362031
20
-4.19932798716263
30
0
41
1
10
10.8518317473067
20
-4.19974469202384
30
0
41
1
10
10.8873235526729
20
-4.19875746632823
30
0
41
1
10
10.90490805606
20
-4.19736146704901
30
0
41
1
10
10.9309671239752
20
-4.19355973069653
30
0
41
1
10
10.9396001711861
20
-4.19200611890452
30
0
41
1
10
10.9567404052152
20
-4.18823502144431
30
0
41
1
10
10.9652554329908
20
-4.18601111797585
30
0
41
1
10
10.9901071080288
20
-4.17832476797758
30
0
41
1
10
11.0059083207757
20
-4.17183535358151
30
0
41
1
10
11.0281084713692
20
-4.15947685616266
30
0
41
1
10
11.0352367916471
20
-4.15491503959822
30
0
41
1
10
11.0485143729773
20
-4.14509908909574
30
0
41
1
10
11.0609207374792
20
-4.13453518489689
30
0
41
1
10
11.0714962564229
20
-4.12241000149695
30
0
41
1
10
11.0810936366568
20
-4.10945504520632
30
0
41
1
10
11.0853690887293
20
-4.1025853656835
30
0
41
1
10
11.0962859425599
20
-4.08149643111992
30
0
41
1
10
11.1012125973041
20
-4.06657065641082
30
0
41
1
10
11.1040419200235
20
-4.0508739826266
30
0
0
SPLINE
5
10D
100
AcDbEntity
8
1
62
256
6
ByLayer
370
18
48
1
60
0
100
AcDbSpline
70
4
71
3
72
8
73
4
40
0
40
0
40
0
40
0
40
1
40
1
40
1
40
1
41
1
10
12.4118932376919
20
-4.05087398262657
30
0
41
1
10
12.4089560151727
20
-4.04487206615474
30
0
41
1
10
12.4060186863057
20
-4.03886993237205
30
0
41
1
10
12.403081248579
20
-4.03286757614546
30
0
0
SPLINE
5
10E
100
AcDbEntity
8
1
62
256
6
ByLayer
370
18
48
1
60
0
100
AcDbSpline
70
4
71
3
72
35
73
31
40
0
40
0
40
0
40
0
40
0.124999999999999
40
0.124999999999999
40
0.249999999999998
40
0.249999999999998
40
0.374999999999997
40
0.374999999999997
40
0.437499999999994
40
0.437499999999994
40
0.499999999999992
40
0.499999999999992
40
0.624999999999992
40
0.624999999999992
40
0.687499999999991
40
0.687499999999991
40
0.718749999999989
40
0.718749999999989
40
0.749999999999987
40
0.749999999999987
40
0.812499999999985
40
0.812499999999985
40
0.843749999999989
40
0.843749999999989
40
0.874999999999994
40
0.906249999999998
40
0.906249999999998
40
0.937500000000002
40
0.937500000000002
40
1
40
1
40
1
40
1
41
1
10
13.1613175788577
20
0.818173500801805
30
0
41
1
10
13.1928579281448
20
0.799963671650517
30
0
41
1
10
13.2237520049778
20
0.780481289279692
30
0
41
1
10
13.2837559621386
20
0.739171396121264
30
0
41
1
10
13.3128759722548
20
0.717348024696292
30
0
41
1
10
13.3691669361437
20
0.671124353830521
30
0
41
1
10
13.3962506400183
20
0.646794073931744
30
0
41
1
10
13.4347451693287
20
0.608376341521222
30
0
41
1
10
13.4472309060938
20
0.595238424426014
30
0
41
1
10
13.4714173553847
20
0.568212166982647
30
0
41
1
10
13.4831165319019
20
0.554322647524657
30
0
41
1
10
13.5165958319155
20
0.511653432281349
30
0
41
1
10
13.5369515747873
20
0.481691339520239
30
0
41
1
10
13.5624277590968
20
0.434600606772278
30
0
41
1
10
13.570110464226
20
0.41845389028407
30
0
41
1
10
13.5798843990301
20
0.393823233237072
30
0
41
1
10
13.5828521224698
20
0.385543095682067
30
0
41
1
10
13.5881278830613
20
0.368826567105714
30
0
41
1
10
13.5904414121544
20
0.360360692694229
30
0
41
1
10
13.5961671809648
20
0.33502347895444
30
0
41
1
10
13.5984064463634
20
0.3181617337967
30
0
41
1
10
13.5987792493784
20
0.292949909236597
30
0
41
1
10
13.5983922920889
20
0.284498304941479
30
0
41
1
10
13.5965078117609
20
0.268016102604747
30
0
41
1
10
13.5935316337999
20
0.25193931510762
30
0
41
1
10
13.5882868191987
20
0.236713646017535
30
0
41
1
10
13.5818437540961
20
0.221941071257305
30
0
41
1
10
13.5780447770374
20
0.214856649743723
30
0
41
1
10
13.5652716545555
20
0.194956639869957
30
0
41
1
10
13.5548415747165
20
0.183271347089629
30
0
41
1
10
13.5426985623222
20
0.173003224050205
30
0
0
SPLINE
5
10F
100
AcDbEntity
8
1
62
256
6
ByLayer
370
18
48
1
60
0
100
AcDbSpline
70
4
71
3
72
52
73
48
40
0
40
0
40
0
40
0
40
0.0156249999999973
40
0.0156249999999973
40
0.0312499999999948
40
0.0312499999999948
40
0.0624999999999917
40
0.0624999999999917
40
0.0937499999999887
40
0.0937499999999887
40
0.124999999999986
40
0.124999999999986
40
0.187499999999985
40
0.187499999999985
40
0.218749999999985
40
0.218749999999985
40
0.249999999999985
40
0.249999999999985
40
0.312499999999985
40
0.312499999999985
40
0.374999999999985
40
0.374999999999985
40
0.437499999999986
40
0.437499999999986
40
0.499999999999986
40
0.499999999999986
40
0.562499999999986
40
0.562499999999986
40
0.624999999999986
40
0.624999999999986
40
0.687499999999986
40
0.687499999999986
40
0.749999999999987
40
0.749999999999987
40
0.812499999999987
40
0.812499999999987
40
0.843749999999989
40
0.843749999999989
40
0.874999999999991
40
0.874999999999991
40
0.906249999999993
40
0.906249999999993
40
0.937499999999996
40
0.937499999999996
40
0.968749999999998
40
0.968749999999998
40
1
40
1
40
1
40
1
41
1
10
13.5315105514348
20
0.156368614379346
30
0
41
1
10
13.5276830539133
20
0.150677796956444
30
0
41
1
10
13.5241632869442
20
0.144784134957121
30
0
41
1
10
13.5176748518947
20
0.132632267496774
30
0
41
1
10
13.5147023367997
20
0.126360655846128
30
0
41
1
10
13.5066237578486
20
0.107269532255089
30
0
41
1
10
13.5023097652093
20
0.0941133759174022
30
0
41
1
10
13.4953745631771
20
0.0671112422638203
30
0
41
1
10
13.4927572063054
20
0.0532637353600762
30
0
41
1
10
13.4889531072044
20
0.0249711907260064
30
0
41
1
10
13.4877785207816
20
0.0105740289288008
30
0
41
1
10
13.4861235340371
20
-0.0328375324022261
30
0
41
1
10
13.487481202677
20
-0.06234334875586
30
0
41
1
10
13.4922808755457
20
-0.106608238526462
30
0
41
1
10
13.4943456956012
20
-0.121387014444423
30
0
41
1
10
13.4993129070483
20
-0.15099672140866
30
0
41
1
10
13.502219810189
20
-0.165841569554573
30
0
41
1
10
13.5120394806928
20
-0.210192555708574
30
0
41
1
10
13.5200537688757
20
-0.239600981962127
30
0
41
1
10
13.538641467477
20
-0.298183337850077
30
0
41
1
10
13.5492084648279
20
-0.327303140471628
30
0
41
1
10
13.5724753530048
20
-0.384753709994158
30
0
41
1
10
13.5852094898561
20
-0.413178811011733
30
0
41
1
10
13.6127349580329
20
-0.469346310909117
30
0
41
1
10
13.6274608488298
20
-0.496957565768554
30
0
41
1
10
13.6588077900865
20
-0.551251585109299
30
0
41
1
10
13.675348984444
20
-0.577796005158177
30
0
41
1
10
13.7101910806209
20
-0.62966459986535
30
0
41
1
10
13.7284891606848
20
-0.65497617938621
30
0
41
1
10
13.7666647843649
20
-0.703917574540213
30
0
41
1
10
13.7866188616735
20
-0.727644626227942
30
0
41
1
10
13.8280431298291
20
-0.773006988915796
30
0
41
1
10
13.8495522035468
20
-0.794696801588373
30
0
41
1
10
13.8942813283763
20
-0.83564343626702
30
0
41
1
10
13.9173560962663
20
-0.85477976700335
30
0
41
1
10
13.953313579924
20
-0.881077436635081
30
0
41
1
10
13.9655465431318
20
-0.889451239318504
30
0
41
1
10
13.9903722726926
20
-0.905165124041474
30
0
41
1
10
14.0029765806862
20
-0.91251662208478
30
0
41
1
10
14.0286428728807
20
-0.926049600508691
30
0
41
1
10
14.0416805477242
20
-0.932215760936771
30
0
41
1
10
14.0680605564997
20
-0.943048094989166
30
0
41
1
10
14.0814681355579
20
-0.947741227691694
30
0
41
1
10
14.1085474150522
20
-0.955268703096152
30
0
41
1
10
14.1221102481508
20
-0.958078582561939
30
0
41
1
10
14.1493065731478
20
-0.961410871638464
30
0
41
1
10
14.1629398819194
20
-0.961939644880687
30
0
41
1
10
14.1766242211565
20
-0.961001038234485
30
0
0
SPLINE
5
110
100
AcDbEntity
8
1
62
256
6
ByLayer
370
18
48
1
60
0
100
AcDbSpline
70
4
71
3
72
8
73
4
40
0
40
0
40
0
40
0
40
1
40
1
40
1
40
1
41
1
10
14.1766242211565
20
-0.961001038234485
30
0
41
1
10
14.1832911329946
20
-0.960543755814598
30
0
41
1
10
14.1899577977608
20
-0.960086490341325
30
0
41
1
10
14.1966242211565
20
-0.959629241423613
30
0
0
SPLINE
5
111
100
AcDbEntity
8
1
62
256
6
ByLayer
370
18
48
1
60
0
100
AcDbSpline
70
4
71
3
72
35
73
31
40
0
40
0
40
0
40
0
40
0.125000000000005
40
0.125000000000005
40
0.25000000000001
40
0.25000000000001
40
0.375000000000015
40
0.375000000000015
40
0.500000000000021
40
0.500000000000021
40
0.562500000000024
40
0.562500000000024
40
0.625000000000028
40
0.625000000000028
40
0.687500000000032
40
0.687500000000032
40
0.718750000000029
40
0.718750000000029
40
0.750000000000027
40
0.750000000000027
40
0.812500000000018
40
0.812500000000018
40
0.843750000000015
40
0.843750000000015
40
0.875000000000012
40
0.906250000000009
40
0.906250000000009
40
0.937500000000006
40
0.937500000000006
40
1
40
1
40
1
40
1
41
1
10
14.5646675788577
20
-1.61249999999998
30
0
41
1
10
14.5646675788577
20
-1.57608115992429
30
0
41
1
10
14.5632454886279
20
-1.53962991429984
30
0
41
1
10
14.5574689494125
20
-1.46695760003132
30
0
41
1
10
14.553127727082
20
-1.43082899088668
30
0
41
1
10
14.5412544742721
20
-1.35903120240249
30
0
41
1
10
14.5337178144866
20
-1.32334753489607
30
0
41
1
10
14.5149596007097
20
-1.25308962605675
30
0
41
1
10
14.5037432335019
20
-1.2184916578795
30
0
41
1
10
14.4835133879764
20
-1.16815688798414
30
0
41
1
10
14.4762097731642
20
-1.15166604324617
30
0
41
1
10
14.4602728522884
20
-1.119374056818
30
0
41
1
10
14.4516551237323
20
-1.10361430339057
30
0
41
1
10
14.4330542585175
20
-1.07337111116505
30
0
41
1
10
14.4230530359845
20
-1.05884048415848
30
0
41
1
10
14.4067311017672
20
-1.03817353752123
30
0
41
1
10
14.4010691108822
20
-1.03147390522051
30
0
41
1
10
14.389233127667
20
-1.01851557585462
30
0
41
1
10
14.3830496568799
20
-1.01225329722126
30
0
41
1
10
14.363967245
20
-0.994574290310908
30
0
41
1
10
14.3504466409039
20
-0.984134745859478
30
0
41
1
10
14.3286437928898
20
-0.971088100187103
30
0
41
1
10
14.3211289837186
20
-0.967195702022366
30
0
41
1
10
14.3059893305561
20
-0.960604954540855
30
0
41
1
10
14.2906375389058
20
-0.955142679813036
30
0
41
1
10
14.2748490625841
20
-0.952046603449588
30
0
41
1
10
14.2588310512145
20
-0.950212506502538
30
0
41
1
10
14.2507440081956
20
-0.949944696156507
30
0
41
1
10
14.2270220282096
20
-0.951034890691574
30
0
41
1
10
14.2116326007682
20
-0.95423116988195
30
0
41
1
10
14.1966242211565
20
-0.959629241423613
30
0
0
SPLINE
5
112
100
AcDbEntity
8
1
62
256
6
ByLayer
370
18
48
1
60
0
100
AcDbSpline
70
4
71
3
72
8
73
4
40
0
40
0
40
0
40
0
40
1
40
1
40
1
40
1
41
1
10
13.5426985623222
20
0.173003224050205
30
0
41
1
10
13.5389693614459
20
0.167458556496058
30
0
41
1
10
13.5352400255466
20
0.161913688186644
30
0
41
1
10
13.5315105514352
20
0.156368614379971
30
0
0
SPLINE
5
113
100
AcDbEntity
8
1
62
256
6
ByLayer
370
18
48
1
60
0
100
AcDbSpline
70
4
71
3
72
35
73
31
40
0
40
0
40
0
40
0
40
0.125
40
0.125
40
0.25
40
0.25
40
0.375
40
0.375
40
0.499999999999999
40
0.499999999999999
40
0.562500000000002
40
0.562500000000002
40
0.625000000000005
40
0.625000000000005
40
0.687500000000008
40
0.687500000000008
40
0.718750000000009
40
0.718750000000009
40
0.750000000000011
40
0.750000000000011
40
0.812500000000004
40
0.812500000000004
40
0.843750000000004
40
0.843750000000004
40
0.875000000000003
40
0.906250000000002
40
0.906250000000002
40
0.937500000000001
40
0.937500000000001
40
1
40
1
40
1
40
1
41
1
10
13.1613175788577
20
0.818173500801805
30
0
41
1
10
13.1297779381757
20
0.836382920839668
30
0
41
1
10
13.0974991883505
20
0.853376977386461
30
0
41
1
10
13.0316748484344
20
0.884710504814166
30
0
41
1
10
12.9982159439465
20
0.899015200564776
30
0
41
1
10
12.9301006087788
20
0.924631556247988
30
0
41
1
10
12.8954293163252
20
0.935946451167212
30
0
41
1
10
12.8252050755651
20
0.954830315926472
30
0
41
1
10
12.7896341726004
20
0.962415641074955
30
0
41
1
10
12.7359280604146
20
0.970063465882902
30
0
41
1
10
12.7179947625356
20
0.971983772285142
30
0
41
1
10
12.6820606215122
20
0.974327987162638
30
0
41
1
10
12.6641034104087
20
0.974744692023847
30
0
41
1
10
12.6286116050424
20
0.973757466328237
30
0
41
1
10
12.6110271016553
20
0.972361467049012
30
0
41
1
10
12.5849680337402
20
0.968559730696541
30
0
41
1
10
12.5763349865293
20
0.967006118904521
30
0
41
1
10
12.5591947525001
20
0.963235021444319
30
0
41
1
10
12.5506797247245
20
0.961011117975858
30
0
41
1
10
12.5258280496866
20
0.953324767977591
30
0
41
1
10
12.5100268369396
20
0.94683535358152
30
0
41
1
10
12.4878266863461
20
0.934476856162661
30
0
41
1
10
12.4806983660682
20
0.929915039598228
30
0
41
1
10
12.4674207847381
20
0.920099089095771
30
0
41
1
10
12.4550142567407
20
0.909535326389658
30
0
41
1
10
12.4444389012925
20
0.897410001496979
30
0
41
1
10
12.4348415210586
20
0.884455045206323
30
0
41
1
10
12.4305660689861
20
0.877585365683501
30
0
41
1
10
12.4196492151555
20
0.856496431119922
30
0
41
1
10
12.4147225604112
20
0.841570656410852
30
0
41
1
10
12.4118932376919
20
0.825873982626604
30
0
0
SPLINE
5
114
100
AcDbEntity
8
1
62
256
6
ByLayer
370
18
48
1
60
0
100
AcDbSpline
70
4
71
3
72
52
73
48
40
0
40
0
40
0
40
0
40
0.0156249999999986
40
0.0156249999999986
40
0.0312499999999973
40
0.0312499999999973
40
0.0624999999999961
40
0.0624999999999961
40
0.0937499999999949
40
0.0937499999999949
40
0.124999999999994
40
0.124999999999994
40
0.187499999999992
40
0.187499999999992
40
0.218749999999992
40
0.218749999999992
40
0.249999999999991
40
0.249999999999991
40
0.312499999999991
40
0.312499999999991
40
0.374999999999991
40
0.374999999999991
40
0.437499999999991
40
0.437499999999991
40
0.499999999999992
40
0.499999999999992
40
0.562499999999992
40
0.562499999999992
40
0.624999999999992
40
0.624999999999992
40
0.687499999999992
40
0.687499999999992
40
0.749999999999992
40
0.749999999999992
40
0.812499999999993
40
0.812499999999993
40
0.843749999999994
40
0.843749999999994
40
0.874999999999995
40
0.874999999999995
40
0.906249999999996
40
0.906249999999996
40
0.937499999999998
40
0.937499999999998
40
0.968749999999999
40
0.968749999999999
40
1
40
1
40
1
40
1
41
1
10
11.1128539091367
20
0.807867576144815
30
0
41
1
10
11.1158685528326
20
0.801707457346851
30
0
41
1
10
11.1192127303607
20
0.795712418736514
30
0
41
1
10
11.12649233876
20
0.784017335422675
30
0
41
1
10
11.1304374562247
20
0.778307256011971
30
0
41
1
10
11.1429315647657
20
0.761765439618273
30
0
41
1
10
11.1521681340507
20
0.751451334232087
30
0
41
1
10
11.172085066735
20
0.731944206265013
30
0
41
1
10
11.1827686810569
20
0.722753755271526
30
0
41
1
10
11.2053686938972
20
0.705313036494459
30
0
41
1
10
11.2172497085446
20
0.697097233914803
30
0
41
1
10
11.2540177301029
20
0.67395819268566
30
0
41
1
10
11.2802493509445
20
0.660381060040919
30
0
41
1
10
11.3209837064159
20
0.642405253789747
30
0
41
1
10
11.3348149118255
20
0.636804052453044
30
0
41
1
10
11.3629412759786
20
0.626300930270105
30
0
41
1
10
11.3772507431587
20
0.621395958163305
30
0
41
1
10
11.4205696591028
20
0.607724549199389
30
0
41
1
10
11.4500452474152
20
0.599960913232252
30
0
41
1
10
11.5100729051284
20
0.586767154474956
30
0
41
1
10
11.5405748926272
20
0.581358541311715
30
0
41
1
10
11.601961989384
20
0.57278297277864
30
0
41
1
10
11.6329459173961
20
0.569598508278432
30
0
41
1
10
11.6953511332627
20
0.565352513021878
30
0
41
1
10
11.7266261267998
20
0.564299881115602
30
0
41
1
10
11.7893195974508
20
0.564300118904441
30
0
41
1
10
11.8205783367206
20
0.565353003402635
30
0
41
1
10
11.8829189054841
20
0.569592846459273
30
0
41
1
10
11.913988416391
20
0.57278365887467
30
0
41
1
10
11.975460719731
20
0.581374021209939
30
0
41
1
10
12.0059859879038
20
0.586791233224403
30
0
41
1
10
12.065983080445
20
0.599984520436436
30
0
41
1
10
12.0955215460816
20
0.607767018351552
30
0
41
1
10
12.1533469343276
20
0.626030259403649
30
0
41
1
10
12.1814568668254
20
0.636445429214632
30
0
41
1
10
12.2222100586157
20
0.654436688702447
30
0
41
1
10
12.2355784660697
20
0.660843844262246
30
0
41
1
10
12.2615999542124
20
0.674486614367879
30
0
41
1
10
12.2742686922705
20
0.681726516265883
30
0
41
1
10
12.2988217414718
20
0.697187688115264
30
0
41
1
10
12.310680630468
20
0.705395565521997
30
0
41
1
10
12.3332517113274
20
0.722825156247495
30
0
41
1
10
12.3440198730002
20
0.732089893963803
30
0
41
1
10
12.364078497674
20
0.751777500219845
30
0
41
1
10
12.3732933412223
20
0.76211831849767
30
0
41
1
10
12.3897773507138
20
0.78400488229633
30
0
41
1
10
12.3970519361602
20
0.795547287409022
30
0
41
1
10
12.403081248579
20
0.807867576145469
30
0
0
SPLINE
5
115
100
AcDbEntity
8
1
62
256
6
ByLayer
370
18
48
1
60
0
100
AcDbSpline
70
4
71
3
72
8
73
4
40
0
40
0
40
0
40
0
40
1
40
1
40
1
40
1
41
1
10
12.403081248579
20
0.807867576145469
30
0
41
1
10
12.4060186863057
20
0.813869932372057
30
0
41
1
10
12.4089560151727
20
0.819872066154744
30
0
41
1
10
12.4118932376919
20
0.825873982626604
30
0
0
SPLINE
5
116
100
AcDbEntity
8
1
62
256
6
ByLayer
370
18
48
1
60
0
100
AcDbSpline
70
4
71
3
72
35
73
31
40
0
40
0
40
0
40
0
40
0.124999999999998
40
0.124999999999998
40
0.249999999999995
40
0.249999999999995
40
0.374999999999993
40
0.374999999999993
40
0.437499999999994
40
0.437499999999994
40
0.499999999999996
40
0.499999999999996
40
0.624999999999996
40
0.624999999999996
40
0.687499999999997
40
0.687499999999997
40
0.718749999999999
40
0.718749999999999
40
0.75
40
0.75
40
0.812499999999994
40
0.812499999999994
40
0.843749999999995
40
0.843749999999995
40
0.874999999999995
40
0.906249999999995
40
0.906249999999995
40
0.937499999999996
40
0.937499999999996
40
1
40
1
40
1
40
1
41
1
10
10.3546175788577
20
0.818173500801777
30
0
41
1
10
10.3861579281448
20
0.836383329953065
30
0
41
1
10
10.4184772046207
20
0.853397194131475
30
0
41
1
10
10.484254600104
20
0.884707198781143
30
0
41
1
10
10.5177141992123
20
0.899014181587717
30
0
41
1
10
10.5858905543826
20
0.924651750886142
30
0
41
1
10
10.6205030467935
20
0.935941786520715
30
0
41
1
10
10.673021043672
20
0.950070160604952
30
0
41
1
10
10.6906416820118
20
0.954314167280955
30
0
41
1
10
10.7261403321724
20
0.961747118072537
30
0
41
1
10
10.744018597128
20
0.964934142410783
30
0
41
1
10
10.7977108714951
20
0.97259345910183
30
0
41
1
10
10.8338366764127
20
0.975241003161159
30
0
41
1
10
10.8873565394099
20
0.973758659590658
30
0
41
1
10
10.905181358641
20
0.972338719158273
30
0
41
1
10
10.9313991007577
20
0.968487866469985
30
0
41
1
10
10.940053771947
20
0.966917921582734
30
0
41
1
10
10.957168590653
20
0.963128599991052
30
0
41
1
10
10.965657017505
20
0.960899237752301
30
0
41
1
10
10.9904625726701
20
0.953189292128457
30
0
41
1
10
11.0061849050281
20
0.946697680270546
30
0
41
1
10
11.0282053870804
20
0.93441462487209
30
0
41
1
10
11.0353312124579
20
0.929853707881676
30
0
41
1
10
11.0486629782278
20
0.919980598876265
30
0
41
1
10
11.0610977956311
20
0.909364759407339
30
0
41
1
10
11.0716612045522
20
0.897209782179544
30
0
41
1
10
11.0812330970225
20
0.884243636742298
30
0
41
1
10
11.085468897495
20
0.877411415344255
30
0
41
1
10
11.0963162503403
20
0.856399561852413
30
0
41
1
10
11.1012209708193
20
0.841524201358226
30
0
41
1
10
11.1040419200235
20
0.825873982626604
30
0
0
SPLINE
5
117
100
AcDbEntity
8
1
62
256
6
ByLayer
370
18
48
1
60
0
100
AcDbSpline
70
4
71
3
72
8
73
4
40
0
40
0
40
0
40
0
40
1
40
1
40
1
40
1
41
1
10
11.1040419200235
20
0.825873982626604
30
0
41
1
10
11.1069791425427
20
0.819872066154744
30
0
41
1
10
11.1099164714097
20
0.813869932372057
30
0
41
1
10
11.1128539091364
20
0.807867576145469
30
0
0
SPLINE
5
118
100
AcDbEntity
8
1
62
256
6
ByLayer
370
18
48
1
60
0
100
AcDbSpline
70
4
71
3
72
52
73
48
40
0
40
0
40
0
40
0
40
0.0156249999999971
40
0.0156249999999971
40
0.0312499999999942
40
0.0312499999999942
40
0.0624999999999916
40
0.0624999999999916
40
0.0937499999999888
40
0.0937499999999888
40
0.124999999999986
40
0.124999999999986
40
0.187499999999984
40
0.187499999999984
40
0.218749999999984
40
0.218749999999984
40
0.249999999999983
40
0.249999999999983
40
0.312499999999985
40
0.312499999999985
40
0.374999999999987
40
0.374999999999987
40
0.43749999999999
40
0.43749999999999
40
0.499999999999992
40
0.499999999999992
40
0.562499999999994
40
0.562499999999994
40
0.624999999999997
40
0.624999999999997
40
0.687499999999999
40
0.687499999999999
40
0.750000000000002
40
0.750000000000002
40
0.812500000000004
40
0.812500000000004
40
0.843750000000003
40
0.843750000000003
40
0.875000000000003
40
0.875000000000003
40
0.906250000000002
40
0.906250000000002
40
0.937500000000001
40
0.937500000000001
40
0.968750000000001
40
0.968750000000001
40
1
40
1
40
1
40
1
41
1
10
14.1766242211557
20
-2.26399896176545
30
0
41
1
10
14.1697820799385
20
-2.26352966039042
30
0
41
1
10
14.1629181354412
20
-2.26342828377941
30
0
41
1
10
14.1491500919923
20
-2.26388506792591
30
0
41
1
10
14.1422324594327
20
-2.26444660016583
30
0
41
1
10
14.1216597719405
20
-2.26699590736317
30
0
41
1
10
14.1081092100163
20
-2.2698379583147
30
0
41
1
10
14.0812570752998
20
-2.2773329640012
30
0
41
1
10
14.0679561041062
20
-2.28199001991146
30
0
41
1
10
14.0415519921649
20
-2.29284184576844
30
0
41
1
10
14.0284963910947
20
-2.29902320498599
30
0
41
1
10
13.9900733827919
20
-2.31929572508787
30
0
41
1
10
13.9651994305902
20
-2.33522440879676
30
0
41
1
10
13.9292647479875
20
-2.36151349231619
30
0
41
1
10
13.9174983626334
20
-2.37069106689745
30
0
41
1
10
13.8943392099274
20
-2.38979765167875
30
0
41
1
10
13.882936645888
20
-2.39973752771786
30
0
41
1
10
13.8494374004476
20
-2.43041710490795
30
0
41
1
10
13.8279761003182
20
-2.45206189519436
30
0
41
1
10
13.7865361412064
20
-2.49745049232504
30
0
41
1
10
13.7666011510583
20
-2.52116168178333
30
0
41
1
10
13.7284809424784
20
-2.57003668277281
30
0
41
1
10
13.7102311513177
20
-2.59527731929015
30
0
41
1
10
13.6753514036279
20
-2.64719882393101
30
0
41
1
10
13.6588023008877
20
-2.67375744688417
30
0
41
1
10
13.6274557714934
20
-2.72805170401375
30
0
41
1
10
13.6127382265811
20
-2.75564900856077
30
0
41
1
10
13.5852397539945
20
-2.81175744632461
30
0
41
1
10
13.5724683231515
20
-2.84025983826086
30
0
41
1
10
13.5491716434915
20
-2.89779159575016
30
0
41
1
10
13.5386004526274
20
-2.92693585945233
30
0
41
1
10
13.5200276282418
20
-2.98549150935222
30
0
41
1
10
13.5119982363229
20
-3.01496381993994
30
0
41
1
10
13.4989019729065
20
-3.07417369567065
30
0
41
1
10
13.4938668082986
20
-3.10372519621796
30
0
41
1
10
13.489071100166
20
-3.14801412533754
30
0
41
1
10
13.4879356559198
20
-3.16279508358073
30
0
41
1
10
13.4867398973379
20
-3.19215173840937
30
0
41
1
10
13.4866754672734
20
-3.20674313835067
30
0
41
1
10
13.4877887102666
20
-3.23573728862397
30
0
41
1
10
13.4889674961139
20
-3.25011132645872
30
0
41
1
10
13.49277642403
20
-3.27837325123664
30
0
41
1
10
13.4954158414153
20
-3.29233112165551
30
0
41
1
10
13.5024364962359
20
-3.31954620331601
30
0
41
1
10
13.5067844857863
20
-3.33269690105959
30
0
41
1
10
13.5174968012917
20
-3.35791575393478
30
0
41
1
10
13.5238555246169
20
-3.36998693228972
30
0
41
1
10
13.5315105514352
20
-3.38136861437997
30
0
0
SPLINE
5
119
100
AcDbEntity
8
1
62
256
6
ByLayer
370
18
48
1
60
0
100
AcDbSpline
70
4
71
3
72
8
73
4
40
0
40
0
40
0
40
0
40
1
40
1
40
1
40
1
41
1
10
13.5315105514352
20
-3.38136861437994
30
0
41
1
10
13.5352400255466
20
-3.38691368818664
30
0
41
1
10
13.5389693614458
20
-3.39245855649605
30
0
41
1
10
13.5426985623222
20
-3.3980032240502
30
0
0
SPLINE
5
11A
100
AcDbEntity
8
1
62
256
6
ByLayer
370
18
48
1
60
0
100
AcDbSpline
70
4
71
3
72
35
73
31
40
0
40
0
40
0
40
0
40
0.124999999999999
40
0.124999999999999
40
0.249999999999998
40
0.249999999999998
40
0.374999999999996
40
0.374999999999996
40
0.499999999999995
40
0.499999999999995
40
0.562499999999998
40
0.562499999999998
40
0.625000000000001
40
0.625000000000001
40
0.687500000000004
40
0.687500000000004
40
0.718750000000004
40
0.718750000000004
40
0.750000000000003
40
0.750000000000003
40
0.812499999999999
40
0.812499999999999
40
0.843749999999998
40
0.843749999999998
40
0.874999999999998
40
0.906249999999997
40
0.906249999999997
40
0.937499999999996
40
0.937499999999996
40
1
40
1
40
1
40
1
41
1
10
13.1613175788577
20
-4.04317350080177
30
0
41
1
10
13.1928572195396
20
-4.02496408076391
30
0
41
1
10
13.2237138791351
20
-4.00550689168625
30
0
41
1
10
13.2837616798357
20
-3.96416810484544
30
0
41
1
10
13.3128793619931
20
-3.94234419145144
30
0
41
1
10
13.369121444351
20
-3.89616275865046
30
0
41
1
10
13.396256077019
20
-3.87179398606327
30
0
41
1
10
13.4477221040022
20
-3.8204199419832
30
0
41
1
10
13.4720766397591
20
-3.79340729895444
30
0
41
1
10
13.5055529064194
20
-3.75072035386702
30
0
41
1
10
13.5161825894863
20
-3.73614981553129
30
0
41
1
10
13.5361798096338
20
-3.70620204398063
30
0
41
1
10
13.5455192921813
20
-3.6908589954144
30
0
41
1
10
13.5624102323328
20
-3.65962857749326
30
0
41
1
10
13.5699935131868
20
-3.64370195120748
30
0
41
1
10
13.5797306468847
20
-3.61923326821776
30
0
41
1
10
13.5827017032106
20
-3.61098002412504
30
0
41
1
10
13.5880059540245
20
-3.59425059729892
30
0
41
1
10
13.590337511013
20
-3.5857644151971
30
0
41
1
10
13.5961067741711
20
-3.56039905828848
30
0
41
1
10
13.5983873828219
20
-3.54347009944101
30
0
41
1
10
13.5987846854013
20
-3.51806495634975
30
0
41
1
10
13.5983981965081
20
-3.50961074162058
30
0
41
1
10
13.5965361246757
20
-3.49320404363661
30
0
41
1
10
13.5935906975273
20
-3.47717786470992
30
0
41
1
10
13.5883777401493
20
-3.46195660494655
30
0
41
1
10
13.5819571090136
20
-3.44716755170884
30
0
41
1
10
13.5781455180673
20
-3.44003006183999
30
0
41
1
10
13.5653403919118
20
-3.42003132181151
30
0
41
1
10
13.5548776192146
20
-3.40830182629279
30
0
41
1
10
13.5426985623222
20
-3.3980032240502
30
0
0
SPLINE
5
11B
100
AcDbEntity
8
1
62
256
6
ByLayer
370
18
48
1
60
0
100
AcDbSpline
70
4
71
3
72
35
73
31
40
0
40
0
40
0
40
0
40
0.124999999999994
40
0.124999999999994
40
0.249999999999987
40
0.249999999999987
40
0.374999999999981
40
0.374999999999981
40
0.437499999999978
40
0.437499999999978
40
0.499999999999975
40
0.499999999999975
40
0.624999999999977
40
0.624999999999977
40
0.687499999999977
40
0.687499999999977
40
0.718749999999979
40
0.718749999999979
40
0.74999999999998
40
0.74999999999998
40
0.812499999999982
40
0.812499999999982
40
0.843749999999985
40
0.843749999999985
40
0.874999999999988
40
0.90624999999999
40
0.90624999999999
40
0.937499999999993
40
0.937499999999993
40
1
40
1
40
1
40
1
41
1
10
14.5646675788577
20
-1.61249999999998
30
0
41
1
10
14.5646675788577
20
-1.64891965830253
30
0
41
1
10
14.5632423792148
20
-1.68541590485179
30
0
41
1
10
14.5574689408924
20
-1.75803580265989
30
0
41
1
10
14.5531293519002
20
-1.79416615689141
30
0
41
1
10
14.5412439606188
20
-1.8660273970556
30
0
41
1
10
14.5337151720825
20
-1.90164771258898
30
0
41
1
10
14.5196917045144
20
-1.95419381908374
30
0
41
1
10
14.5145568029397
20
-1.97157574285495
30
0
41
1
10
14.50324460207
20
-2.0060349510899
30
0
41
1
10
14.4970655136316
20
-2.02311149488611
30
0
41
1
10
14.4768525392782
20
-2.07344002682049
30
0
41
1
10
14.4610824772324
20
-2.10604966364093
30
0
41
1
10
14.4330387985446
20
-2.15165805281836
30
0
41
1
10
14.4228966844427
20
-2.16638482887419
30
0
41
1
10
14.4064528771301
20
-2.18716463323292
30
0
41
1
10
14.4007659293805
20
-2.19387482590065
30
0
41
1
10
14.388926871266
20
-2.20680203288535
30
0
41
1
10
14.382751973507
20
-2.21303854505806
30
0
41
1
10
14.3636721871524
20
-2.23066581317403
30
0
41
1
10
14.350189120193
20
-2.24103594647386
30
0
41
1
10
14.3285414411557
20
-2.2539647156355
30
0
41
1
10
14.3210286584886
20
-2.25785540294018
30
0
41
1
10
14.3058124123907
20
-2.26446449627153
30
0
41
1
10
14.2904014170264
20
-2.2699254442997
30
0
41
1
10
14.2745931935042
20
-2.27299613616199
30
0
41
1
10
14.2585782359312
20
-2.27480256548498
30
0
41
1
10
14.2505434584
20
-2.27505476560054
30
0
41
1
10
14.2269229830728
20
-2.27394292198247
30
0
41
1
10
14.2115881827549
20
-2.27075285426858
30
0
41
1
10
14.1966242211565
20
-2.26537075857638
30
0
0
SPLINE
5
11C
100
AcDbEntity
8
1
62
256
6
ByLayer
370
18
48
1
60
0
100
AcDbSpline
70
4
71
3
72
8
73
4
40
0
40
0
40
0
40
0
40
1
40
1
40
1
40
1
41
1
10
14.1966242211565
20
-2.26537075857638
30
0
41
1
10
14.1899577977608
20
-2.26491350965867
30
0
41
1
10
14.1832911329946
20
-2.2644562441854
30
0
41
1
10
14.1766242211565
20
-2.26399896176551
30
0
0
SPLINE
5
11D
100
AcDbEntity
8
1
62
256
6
ByLayer
370
18
48
1
60
0
100
AcDbSpline
70
4
71
3
72
8
73
4
40
0
40
0
40
0
40
0
40
1
40
1
40
1
40
1
41
1
10
9.98442460628019
20
0.156368614379971
30
0
41
1
10
9.98069513216876
20
0.161913688186644
30
0
41
1
10
9.97696579626952
20
0.167458556496058
30
0
41
1
10
9.97323659539313
20
0.173003224050205
30
0
0
SPLINE
5
11E
100
AcDbEntity
8
1
62
256
6
ByLayer
370
18
48
1
60
0
100
AcDbSpline
70
4
71
3
72
35
73
31
40
0
40
0
40
0
40
0
40
0.125
40
0.125
40
0.249999999999999
40
0.249999999999999
40
0.374999999999999
40
0.374999999999999
40
0.499999999999999
40
0.499999999999999
40
0.562499999999999
40
0.562499999999999
40
0.624999999999999
40
0.624999999999999
40
0.687499999999999
40
0.687499999999999
40
0.718750000000001
40
0.718750000000001
40
0.750000000000004
40
0.750000000000004
40
0.812500000000007
40
0.812500000000007
40
0.843750000000006
40
0.843750000000006
40
0.875000000000005
40
0.906250000000004
40
0.906250000000004
40
0.937500000000003
40
0.937500000000003
40
1
40
1
40
1
40
1
41
1
10
10.3546175788577
20
0.818173500801777
30
0
41
1
10
10.3230779381757
20
0.799964080763942
30
0
41
1
10
10.2922212785803
20
0.780506891686287
30
0
41
1
10
10.2321734778797
20
0.739168104845476
30
0
41
1
10
10.2030557957223
20
0.717344191451446
30
0
41
1
10
10.1468137133643
20
0.671162758650468
30
0
41
1
10
10.1196790806964
20
0.646793986063273
30
0
41
1
10
10.0682130537132
20
0.595419941983238
30
0
41
1
10
10.0438585179563
20
0.568407298954469
30
0
41
1
10
10.010382251296
20
0.525720353867058
30
0
41
1
10
9.9997525682291
20
0.511149815531297
30
0
41
1
10
9.97975534808157
20
0.48120204398063
30
0
41
1
10
9.97041586553411
20
0.465858995414436
30
0
41
1
10
9.95352492538262
20
0.434628577493271
30
0
41
1
10
9.94594164452857
20
0.41870195120751
30
0
41
1
10
9.93620451083069
20
0.394233268217761
30
0
41
1
10
9.93323345450474
20
0.385980024125047
30
0
41
1
10
9.92792920369089
20
0.36925059729893
30
0
41
1
10
9.92559764670233
20
0.36076441519711
30
0
41
1
10
9.91982838354423
20
0.335399058288488
30
0
41
1
10
9.91754777489345
20
0.318470099441015
30
0
41
1
10
9.91715047231403
20
0.293064956349752
30
0
41
1
10
9.91753696120728
20
0.284610741620582
30
0
41
1
10
9.91939903303964
20
0.268204043636615
30
0
41
1
10
9.92234446018804
20
0.252177864709921
30
0
41
1
10
9.92755741756611
20
0.236956604946556
30
0
41
1
10
9.93397804870176
20
0.222167551708878
30
0
41
1
10
9.93778963964812
20
0.215030061839997
30
0
41
1
10
9.9505947658036
20
0.195031321811513
30
0
41
1
10
9.96105753850074
20
0.183301826292791
30
0
41
1
10
9.97323659539313
20
0.173003224050205
30
0
0
SPLINE
5
11F
100
AcDbEntity
8
1
62
256
6
ByLayer
370
18
48
1
60
0
100
AcDbSpline
70
4
71
3
72
39
73
35
40
0
40
0
40
0
40
0
40
0.125000000000006
40
0.125000000000006
40
0.250000000000013
40
0.250000000000013
40
0.375000000000019
40
0.375000000000019
40
0.437500000000018
40
0.437500000000018
40
0.500000000000018
40
0.500000000000018
40
0.562500000000018
40
0.562500000000018
40
0.625000000000017
40
0.625000000000017
40
0.687500000000017
40
0.687500000000017
40
0.718750000000014
40
0.718750000000014
40
0.750000000000012
40
0.750000000000012
40
0.812500000000006
40
0.812500000000006
40
0.843750000000005
40
0.843750000000005
40
0.875000000000004
40
0.875000000000004
40
0.906250000000003
40
0.906250000000003
40
0.937500000000002
40
0.968750000000001
40
0.968750000000001
40
1
40
1
40
1
40
1
41
1
10
8.95126757885768
20
-1.61249999999998
30
0
41
1
10
8.95126757885768
20
-1.57607512771409
30
0
41
1
10
8.9526914338976
20
-1.53961490530139
30
0
41
1
10
8.95846109795633
20
-1.46701470204547
30
0
41
1
10
8.96281115483615
20
-1.43080358400579
30
0
41
1
10
8.97468212369486
20
-1.35902538098458
30
0
41
1
10
8.98221214838864
20
-1.32338125753625
30
0
41
1
10
8.99624848681083
20
-1.27078751800423
30
0
41
1
10
9.00138368545691
20
-1.25340852603802
30
0
41
1
10
9.01268029387904
20
-1.21899580130199
30
0
41
1
10
9.01885101873165
20
-1.20193924755429
30
0
41
1
10
9.03231148558135
20
-1.16841514957079
30
0
41
1
10
9.03960295543106
20
-1.15193306666964
30
0
41
1
10
9.05552077573503
20
-1.11964218825116
30
0
41
1
10
9.06410938929966
20
-1.10391597620563
30
0
41
1
10
9.08266872230871
20
-1.07369236324425
30
0
41
1
10
9.09265101047677
20
-1.05916176511161
30
0
41
1
10
9.1089517349516
20
-1.03847918431364
30
0
41
1
10
9.11460787976333
20
-1.03177172627773
30
0
41
1
10
9.12643592130468
20
-1.01879240283742
30
0
41
1
10
9.1326026628056
20
-1.0125321669324
30
0
41
1
10
9.15164181260087
20
-0.994843897230481
30
0
41
1
10
9.16514111491909
20
-0.984381648278344
30
0
41
1
10
9.18693497527235
20
-0.971282553932497
30
0
41
1
10
9.19442689874523
20
-0.967381313142511
30
0
41
1
10
9.20958267639949
20
-0.960743523995149
30
0
41
1
10
9.21728794451198
20
-0.957980724388619
30
0
41
1
10
9.23296620558025
20
-0.953641903921579
30
0
41
1
10
9.24100445920502
20
-0.952060482073648
30
0
41
1
10
9.25701787343345
20
-0.950217896493285
30
0
41
1
10
9.27291130542329
20
-0.949676954358779
30
0
41
1
10
9.28857144066163
20
-0.951616360794247
30
0
41
1
10
9.30411738919273
20
-0.954758107156266
30
0
41
1
10
9.31180912636819
20
-0.956931061530184
30
0
41
1
10
9.31931093655891
20
-0.959629241423613
30
0
0
SPLINE
5
120
100
AcDbEntity
8
1
62
256
6
ByLayer
370
18
48
1
60
0
100
AcDbSpline
70
4
71
3
72
8
73
4
40
0
40
0
40
0
40
0
40
1
40
1
40
1
40
1
41
1
10
9.33931093655892
20
-0.961001038234485
30
0
41
1
10
9.33264402472076
20
-0.960543755814598
30
0
41
1
10
9.32597735995455
20
-0.960086490341325
30
0
41
1
10
9.31931093655891
20
-0.959629241423613
30
0
0
SPLINE
5
121
100
AcDbEntity
8
1
62
256
6
ByLayer
370
18
48
1
60
0
100
AcDbSpline
70
4
71
3
72
50
73
46
40
0
40
0
40
0
40
0
40
0.0312500000000037
40
0.0312500000000037
40
0.0468750000000031
40
0.0468750000000031
40
0.0625000000000026
40
0.0625000000000026
40
0.125000000000005
40
0.125000000000005
40
0.156250000000008
40
0.156250000000008
40
0.187500000000011
40
0.187500000000011
40
0.250000000000013
40
0.250000000000013
40
0.281250000000014
40
0.281250000000014
40
0.312500000000015
40
0.312500000000015
40
0.375000000000014
40
0.375000000000014
40
0.500000000000012
40
0.500000000000012
40
0.56250000000001
40
0.56250000000001
40
0.625000000000009
40
0.625000000000009
40
0.687500000000007
40
0.687500000000007
40
0.750000000000006
40
0.750000000000006
40
0.812500000000004
40
0.812500000000004
40
0.843750000000003
40
0.843750000000003
40
0.875000000000003
40
0.875000000000003
40
0.906250000000002
40
0.906250000000002
40
0.937500000000001
40
0.937500000000001
40
0.968750000000001
40
0.968750000000001
40
1
40
1
40
1
40
1
41
1
10
9.98442460628019
20
0.156368614379971
30
0
41
1
10
9.99212275093154
20
0.144922823635397
30
0
41
1
10
9.99852618866933
20
0.132754054522053
30
0
41
1
10
10.0066138770056
20
0.113645685205654
30
0
41
1
10
10.0090542187987
20
0.107132187161028
30
0
41
1
10
10.0134704196557
20
0.0938415482212065
30
0
41
1
10
10.0154503578249
20
0.0870449371564632
30
0
41
1
10
10.0241950899266
20
0.0528064059665496
30
0
41
1
10
10.0276646064672
20
0.0244705269304859
30
0
41
1
10
10.0292673353731
20
-0.0190726524512286
30
0
41
1
10
10.0291792981549
20
-0.0338105013585164
30
0
41
1
10
10.0279329323938
20
-0.0632290003634921
30
0
41
1
10
10.0267788556846
20
-0.0779454875749934
30
0
41
1
10
10.0219367556457
20
-0.122127765991479
30
0
41
1
10
10.0168819282326
20
-0.151626586158358
30
0
41
1
10
10.0070329087388
20
-0.195978327085328
30
0
41
1
10
10.0033590575834
20
-0.21081203871077
30
0
41
1
10
9.99533233329635
20
-0.240365191233963
30
0
41
1
10
9.99099401722268
20
-0.255037892639876
30
0
41
1
10
9.97708415654768
20
-0.298774134935343
30
0
41
1
10
9.96662319238791
20
-0.327557780677978
30
0
41
1
10
9.9320494534015
20
-0.41292997989612
30
0
41
1
10
9.90480085265926
20
-0.46855968660887
30
0
41
1
10
9.85778572333095
20
-0.550169291329325
30
0
41
1
10
9.8412337213783
20
-0.576783879350785
30
0
41
1
10
9.80637407962556
20
-0.62877313513863
30
0
41
1
10
9.78806199459953
20
-0.654146913855527
30
0
41
1
10
9.74985438803637
20
-0.703207193980035
30
0
41
1
10
9.72988149144123
20
-0.726992432386595
30
0
41
1
10
9.68841207750199
20
-0.772469907201696
30
0
41
1
10
9.66688072463307
20
-0.794212653106598
30
0
41
1
10
9.62209361681852
20
-0.835268720990285
30
0
41
1
10
9.59898826413371
20
-0.854456286334027
30
0
41
1
10
9.56298226442848
20
-0.880825468190295
30
0
41
1
10
9.55073219096656
20
-0.889222599432458
30
0
41
1
10
9.52586982564364
20
-0.904981719253669
30
0
41
1
10
9.51324679772037
20
-0.912354621428364
30
0
41
1
10
9.48754210368639
20
-0.925927703072347
30
0
41
1
10
9.4744831751114
20
-0.932113294604108
30
0
41
1
10
9.44806080958679
20
-0.942980110142429
30
0
41
1
10
9.43463244588563
20
-0.947688432280501
30
0
41
1
10
9.40750618270047
20
-0.955242519386388
30
0
41
1
10
9.39391981563298
20
-0.958062894833006
30
0
41
1
10
9.36667622406682
20
-0.961409072476243
30
0
41
1
10
9.35301918406074
20
-0.961941284744768
30
0
41
1
10
9.33931093655892
20
-0.961001038234485
30
0
0
LINE
5
83
100
AcDbEntity
8
80
62
256
6
ByLayer
370
18
48
1
60
0
100
AcDbLine
10
0
20
0
30
0
11
-5
21
0
31
0
39
0
210
0
220
0
230
1
0
LINE
5
84
100
AcDbEntity
8
81
62
256
6
ByLayer
370
18
48
1
60
0
100
AcDbLine
10
38.107968
20
10.5375
30
0
11
43.107968
21
10.5375
31
0
39
0
210
0
220
0
230
1
0
LINE
5
85
100
AcDbEntity
8
1
62
256
6
ByLayer
370
18
48
1
60
0
100
AcDbLine
10
0
20
10.438728
30
0
11
0
21
10.53649
31
0
39
0
210
0
220
0
230
1
0
LINE
5
86
100
AcDbEntity
8
1
62
256
6
ByLayer
370
18
48
1
60
0
100
AcDbLine
10
28.443816
20
10.239462
30
0
11
28.443938
21
10.30822
31
0
39
0
210
0
220
0
230
1
0
LINE
5
87
100
AcDbEntity
8
1
62
256
6
ByLayer
370
18
48
1
60
0
100
AcDbLine
10
30.913268
20
10.137493
30
0
11
30.913569
21
10.306144
31
0
39
0
210
0
220
0
230
1
0
LINE
5
88
100
AcDbEntity
8
1
62
256
6
ByLayer
370
18
48
1
60
0
100
AcDbLine
10
37.107968
20
10.566967
30
0
11
37.107968
21
10.507219
31
0
39
0
210
0
220
0
230
1
0
LINE
5
89
100
AcDbEntity
8
1
62
256
6
ByLayer
370
18
48
1
60
0
100
AcDbLine
10
26.522554
20
12.7257
30
0
11
0.740397
21
12.7257
31
0
39
0
210
0
220
0
230
1
0
LINE
5
8A
100
AcDbEntity
8
1
62
256
6
ByLayer
370
18
48
1
60
0
100
AcDbLine
10
0.740397
20
12.7257
30
0
11
0.317758
21
11.14839
31
0
39
0
210
0
220
0
230
1
0
LINE
5
8B
100
AcDbEntity
8
1
62
256
6
ByLayer
370
18
48
1
60
0
100
AcDbLine
10
25.723024
20
10.30822
30
0
11
28.443938
21
10.30822
31
0
39
0
210
0
220
0
230
1
0
LINE
5
8C
100
AcDbEntity
8
1
62
256
6
ByLayer
370
18
48
1
60
0
100
AcDbLine
10
30.913569
20
10.306144
30
0
11
33.986571
21
10.306144
31
0
39
0
210
0
220
0
230
1
0
LINE
5
8D
100
AcDbEntity
8
1
62
256
6
ByLayer
370
18
48
1
60
0
100
AcDbLine
10
0
20
10.438733
30
0
11
19.324413
21
10.438733
31
0
39
0
210
0
220
0
230
1
0
LINE
5
8E
100
AcDbEntity
8
1
62
256
6
ByLayer
370
18
48
1
60
0
100
AcDbLine
10
0
20
10.438733
30
0
11
0
21
-9.4625
31
0
39
0
210
0
220
0
230
1
0
LINE
5
8F
100
AcDbEntity
8
1
62
256
6
ByLayer
370
18
48
1
60
0
100
AcDbLine
10
30.107968
20
8.812469
30
0
11
30.107968
21
8.262531
31
0
39
0
210
0
220
0
230
1
0
LINE
5
90
100
AcDbEntity
8
1
62
256
6
ByLayer
370
18
48
1
60
0
100
AcDbLine
10
18.507968
20
-5.354125
30
0
11
14.139608
21
-9.4625
31
0
39
0
210
0
220
0
230
1
0
LINE
5
91
100
AcDbEntity
8
1
62
256
6
ByLayer
370
18
48
1
60
0
100
AcDbLine
10
18.507968
20
-5.354125
30
0
11
18.507968
21
5.845806
31
0
39
0
210
0
220
0
230
1
0
LINE
5
92
100
AcDbEntity
8
1
62
256
6
ByLayer
370
18
48
1
60
0
100
AcDbLine
10
14.139608
20
-9.4625
30
0
11
0
21
-9.4625
31
0
39
0
210
0
220
0
230
1
0
LINE
5
93
100
AcDbEntity
8
1
62
256
6
ByLayer
370
13
48
1
60
0
100
AcDbLine
10
20.107968
20
7.389253
30
0
11
20.107968
21
6.880354
31
0
39
0
210
0
220
0
230
1
0
LINE
5
94
100
AcDbEntity
8
1
62
256
6
ByLayer
370
18
48
1
60
0
100
AcDbLine
10
22.180709
20
10.438733
30
0
11
19.324413
21
10.438733
31
0
39
0
210
0
220
0
230
1
0
LINE
5
95
100
AcDbEntity
8
1
62
256
6
ByLayer
370
18
48
1
60
0
100
AcDbLine
10
19.324413
20
7.252555
30
0
11
19.324413
21
10.438733
31
0
39
0
210
0
220
0
230
1
0
LINE
5
96
100
AcDbEntity
8
1
62
256
6
ByLayer
370
18
48
1
60
0
100
AcDbLine
10
26.607968
20
10.284256
30
0
11
26.607968
21
6.977414
31
0
39
0
210
0
220
0
230
1
0
LINE
5
97
100
AcDbEntity
8
SK1
62
256
6
ByLayer
370
18
48
1
60
0
100
AcDbLine
10
0
20
10.438728
30
0
11
0
21
10.53649
31
0
39
0
210
0
220
0
230
1
0
LINE
5
99
100
AcDbEntity
8
SK1
62
256
6
ByLayer
370
18
48
1
60
0
100
AcDbLine
10
-66
20
9.9625
30
0
11
-10.84207
21
9.9625
31
0
39
0
210
0
220
0
230
1
0
LINE
5
9A
100
AcDbEntity
8
SK1
62
256
6
ByLayer
370
18
48
1
60
0
100
AcDbLine
10
-66
20
9.9625
30
0
11
-69
21
6.9625
31
0
39
0
210
0
220
0
230
1
0
LINE
5
9B
100
AcDbEntity
8
SK1
62
256
6
ByLayer
370
18
48
1
60
0
100
AcDbLine
10
-66
20
-9.9625
30
0
11
-69
21
-6.9625
31
0
39
0
210
0
220
0
230
1
0
LINE
5
9C
100
AcDbEntity
8
SK1
62
256
6
ByLayer
370
18
48
1
60
0
100
AcDbLine
10
-66
20
-9.9625
30
0
11
-10.84207
21
-9.9625
31
0
39
0
210
0
220
0
230
1
0
LINE
5
9D
100
AcDbEntity
8
SK1
62
256
6
ByLayer
370
18
48
1
60
0
100
AcDbLine
10
-69
20
6.9625
30
0
11
-69
21
-6.9625
31
0
39
0
210
0
220
0
230
1
0
LINE
5
9E
100
AcDbEntity
8
SK1
62
256
6
ByLayer
370
18
48
1
60
0
100
AcDbLine
10
-10.84207
20
9.9625
30
0
11
-5.904684
21
9.9625
31
0
39
0
210
0
220
0
230
1
0
LINE
5
9F
100
AcDbEntity
8
SK1
62
256
6
ByLayer
370
18
48
1
60
0
100
AcDbLine
10
-5.904684
20
-9.4625
30
0
11
-6
21
-9.4625
31
0
39
0
210
0
220
0
230
1
0
LINE
5
A0
100
AcDbEntity
8
SK1
62
256
6
ByLayer
370
18
48
1
60
0
100
AcDbLine
10
-10.84207
20
9.9625
30
0
11
-10.84207
21
-9.9625
31
0
39
0
210
0
220
0
230
1
0
LINE
5
A1
100
AcDbEntity
8
SK1
62
256
6
ByLayer
370
18
48
1
60
0
100
AcDbLine
10
-10.84207
20
-9.9625
30
0
11
-7.161895
21
-9.9625
31
0
39
0
210
0
220
0
230
1
0
LINE
5
A2
100
AcDbEntity
8
SK1
62
256
6
ByLayer
370
18
48
1
60
0
100
AcDbLine
10
-5.904684
20
9.9625
30
0
11
-3.827688
21
9.9625
31
0
39
0
210
0
220
0
230
1
0
LINE
5
A3
100
AcDbEntity
8
SK1
62
256
6
ByLayer
370
18
48
1
60
0
100
AcDbLine
10
-3.827688
20
-9.4625
30
0
11
-5.904684
21
-9.4625
31
0
39
0
210
0
220
0
230
1
0
LINE
5
A4
100
AcDbEntity
8
SK1
62
256
6
ByLayer
370
13
48
1
60
0
100
AcDbLine
10
-5.904684
20
-9.4625
30
0
11
-5.904684
21
9.9625
31
0
39
0
210
0
220
0
230
1
0
LINE
5
A5
100
AcDbEntity
8
SK1
62
256
6
ByLayer
370
18
48
1
60
0
100
AcDbLine
10
-0.0888
20
10.438733
30
0
11
0
21
10.438733
31
0
39
0
210
0
220
0
230
1
0
LINE
5
A6
100
AcDbEntity
8
SK1
62
256
6
ByLayer
370
18
48
1
60
0
100
AcDbLine
10
-3.827688
20
9.9625
30
0
11
-1.227723
21
9.9625
31
0
39
0
210
0
220
0
230
1
0
LINE
5
A7
100
AcDbEntity
8
SK1
62
256
6
ByLayer
370
18
48
1
60
0
100
AcDbLine
10
0
20
10.438733
30
0
11
0
21
-9.4625
31
0
39
0
210
0
220
0
230
1
0
LINE
5
A8
100
AcDbEntity
8
SK1
62
256
6
ByLayer
370
18
48
1
60
0
100
AcDbLine
10
-3.827688
20
9.9625
30
0
11
-3.827688
21
-9.4625
31
0
39
0
210
0
220
0
230
1
0
LINE
5
A9
100
AcDbEntity
8
SK1
62
256
6
ByLayer
370
18
48
1
60
0
100
AcDbLine
10
0
20
-9.4625
30
0
11
-3.827688
21
-9.4625
31
0
39
0
210
0
220
0
230
1
0
LINE
5
AA
100
AcDbEntity
8
1
62
256
6
ByLayer
370
18
48
1
60
0
100
AcDbLine
10
13.421053
20
10.537214
30
0
11
15.676638
21
10.438733
31
0
39
0
210
0
220
0
230
1
0
LINE
5
AB
100
AcDbEntity
8
1
62
256
6
ByLayer
370
18
48
1
60
0
100
AcDbLine
10
31.737968
20
6.9375
30
0
11
33.694457
21
6.9375
31
0
39
0
210
0
220
0
230
1
0
LINE
5
AC
100
AcDbEntity
8
1
62
256
6
ByLayer
370
18
48
1
60
0
100
AcDbLine
10
31.737968
20
10.1375
30
0
11
33.694457
21
10.1375
31
0
39
0
210
0
220
0
230
1
0
LINE
5
AD
100
AcDbEntity
8
1
62
256
6
ByLayer
370
18
48
1
60
0
100
AcDbLine
10
37.794882
20
10.537214
30
0
11
34.107968
21
10.37624
31
0
39
0
210
0
220
0
230
1
0
LINE
5
AE
100
AcDbEntity
8
1
62
256
6
ByLayer
370
18
48
1
60
0
100
AcDbLine
10
34.107968
20
6.69876
30
0
11
33.694457
21
6.9375
31
0
39
0
210
0
220
0
230
1
0
LINE
5
AF
100
AcDbEntity
8
1
62
256
6
ByLayer
370
18
48
1
60
0
100
AcDbLine
10
37.794882
20
6.537786
30
0
11
34.107968
21
6.69876
31
0
39
0
210
0
220
0
230
1
0
LINE
5
B0
100
AcDbEntity
8
1
62
256
6
ByLayer
370
18
48
1
60
0
100
AcDbLine
10
38.107968
20
6.8375
30
0
11
38.107968
21
10.2375
31
0
39
0
210
0
220
0
230
1
0
LINE
5
B1
100
AcDbEntity
8
1
62
256
6
ByLayer
370
18
48
1
60
0
100
AcDbLine
10
34.107968
20
10.37624
30
0
11
33.694457
21
10.1375
31
0
39
0
210
0
220
0
230
1
0
LINE
5
B2
100
AcDbEntity
8
1
62
256
6
ByLayer
370
13
48
1
60
0
100
AcDbLine
10
30.107967
20
8.5175
30
0
11
31.045829
21
8.5175
31
0
39
0
210
0
220
0
230
1
0
LINE
5
B3
100
AcDbEntity
8
1
62
256
6
ByLayer
370
13
48
1
60
0
100
AcDbLine
10
30.107967
20
8.5575
30
0
11
31.045829
21
8.5575
31
0
39
0
210
0
220
0
230
1
0
LINE
5
B4
100
AcDbEntity
8
1
62
256
6
ByLayer
370
13
48
1
60
0
100
AcDbLine
10
30.107885
20
8.748236
30
0
11
31.036914
21
8.748236
31
0
39
0
210
0
220
0
230
1
0
LINE
5
B5
100
AcDbEntity
8
1
62
256
6
ByLayer
370
13
48
1
60
0
100
AcDbLine
10
30.107885
20
8.326764
30
0
11
31.036914
21
8.326764
31
0
39
0
210
0
220
0
230
1
0
LINE
5
B6
100
AcDbEntity
8
1
62
256
6
ByLayer
370
13
48
1
60
0
100
AcDbLine
10
29.999449
20
8.109767
30
0
11
30.856913
21
8.109767
31
0
39
0
210
0
220
0
230
1
0
LINE
5
B7
100
AcDbEntity
8
1
62
256
6
ByLayer
370
13
48
1
60
0
100
AcDbLine
10
29.999449
20
8.965233
30
0
11
30.856913
21
8.965233
31
0
39
0
210
0
220
0
230
1
0
LINE
5
B8
100
AcDbEntity
8
1
62
256
6
ByLayer
370
13
48
1
60
0
100
AcDbLine
10
30.698086
20
8.054415
30
0
11
29.869828
21
8.054415
31
0
39
0
210
0
220
0
230
1
0
LINE
5
B9
100
AcDbEntity
8
1
62
256
6
ByLayer
370
13
48
1
60
0
100
AcDbLine
10
30.698086
20
9.020585
30
0
11
29.869828
21
9.020585
31
0
39
0
210
0
220
0
230
1
0
LINE
5
BA
100
AcDbEntity
8
1
62
256
6
ByLayer
370
13
48
1
60
0
100
AcDbLine
10
29.827948
20
8.023612
30
0
11
30.65749
21
8.023612
31
0
39
0
210
0
220
0
230
1
0
LINE
5
BB
100
AcDbEntity
8
1
62
256
6
ByLayer
370
13
48
1
60
0
100
AcDbLine
10
29.827869
20
9.051388
30
0
11
30.65749
21
9.051388
31
0
39
0
210
0
220
0
230
1
0
LINE
5
BC
100
AcDbEntity
8
1
62
256
6
ByLayer
370
13
48
1
60
0
100
AcDbLine
10
29.813028
20
7.931835
30
0
11
30.585659
21
7.931835
31
0
39
0
210
0
220
0
230
1
0
LINE
5
BD
100
AcDbEntity
8
1
62
256
6
ByLayer
370
13
48
1
60
0
100
AcDbLine
10
29.812872
20
9.143165
30
0
11
30.585659
21
9.143165
31
0
39
0
210
0
220
0
230
1
0
LINE
5
BE
100
AcDbEntity
8
1
62
256
6
ByLayer
370
13
48
1
60
0
100
AcDbLine
10
29.805499
20
9.187434
30
0
11
30.565926
21
9.187434
31
0
39
0
210
0
220
0
230
1
0
LINE
5
BF
100
AcDbEntity
8
1
62
256
6
ByLayer
370
13
48
1
60
0
100
AcDbLine
10
29.805809
20
7.887566
30
0
11
30.565926
21
7.887566
31
0
39
0
210
0
220
0
230
1
0
LINE
5
C0
100
AcDbEntity
8
1
62
256
6
ByLayer
370
18
48
1
60
0
100
AcDbLine
10
29.639654
20
10.1375
30
0
11
30.442486
21
10.1375
31
0
39
0
210
0
220
0
230
1
0
LINE
5
C1
100
AcDbEntity
8
1
62
256
6
ByLayer
370
13
48
1
60
0
100
AcDbLine
10
29.684826
20
9.896249
30
0
11
30.442486
21
9.896249
31
0
39
0
210
0
220
0
230
1
0
LINE
5
C2
100
AcDbEntity
8
1
62
256
6
ByLayer
370
13
48
1
60
0
100
AcDbLine
10
29.688072
20
9.878884
30
0
11
30.444005
21
9.878884
31
0
39
0
210
0
220
0
230
1
0
LINE
5
C3
100
AcDbEntity
8
1
62
256
6
ByLayer
370
13
48
1
60
0
100
AcDbLine
10
29.687014
20
7.196116
30
0
11
30.444005
21
7.196116
31
0
39
0
210
0
220
0
230
1
0
LINE
5
C4
100
AcDbEntity
8
1
62
256
6
ByLayer
370
18
48
1
60
0
100
AcDbLine
10
31.737968
20
10.1375
30
0
11
30.442486
21
10.1375
31
0
39
0
210
0
220
0
230
1
0
LINE
5
C5
100
AcDbEntity
8
1
62
256
6
ByLayer
370
18
48
1
60
0
100
AcDbLine
10
30.442486
20
10.1375
30
0
11
30.442486
21
9.896249
31
0
39
0
210
0
220
0
230
1
0
LINE
5
C6
100
AcDbEntity
8
1
62
256
6
ByLayer
370
18
48
1
60
0
100
AcDbLine
10
30.444005
20
9.878884
30
0
11
30.565926
21
9.187434
31
0
39
0
210
0
220
0
230
1
0
LINE
5
C7
100
AcDbEntity
8
1
62
256
6
ByLayer
370
18
48
1
60
0
100
AcDbLine
10
30.585659
20
9.143165
30
0
11
30.65749
21
9.051388
31
0
39
0
210
0
220
0
230
1
0
LINE
5
C8
100
AcDbEntity
8
1
62
256
6
ByLayer
370
18
48
1
60
0
100
AcDbLine
10
31.045829
20
8.5175
30
0
11
31.045829
21
8.5575
31
0
39
0
210
0
220
0
230
1
0
LINE
5
C9
100
AcDbEntity
8
1
62
256
6
ByLayer
370
18
48
1
60
0
100
AcDbLine
10
30.585659
20
7.931835
30
0
11
30.65749
21
8.023612
31
0
39
0
210
0
220
0
230
1
0
LINE
5
CA
100
AcDbEntity
8
1
62
256
6
ByLayer
370
18
48
1
60
0
100
AcDbLine
10
30.444005
20
7.196116
30
0
11
30.565926
21
7.887566
31
0
39
0
210
0
220
0
230
1
0
LINE
5
CB
100
AcDbEntity
8
1
62
256
6
ByLayer
370
18
48
1
60
0
100
AcDbLine
10
31.737968
20
6.9375
30
0
11
30.442486
21
6.9375
31
0
39
0
210
0
220
0
230
1
0
LINE
5
CC
100
AcDbEntity
8
1
62
256
6
ByLayer
370
18
48
1
60
0
100
AcDbLine
10
31.737968
20
6.9375
30
0
11
31.737968
21
10.1375
31
0
39
0
210
0
220
0
230
1
0
LINE
5
CD
100
AcDbEntity
8
1
62
256
6
ByLayer
370
13
48
1
60
0
100
AcDbLine
10
29.68392
20
7.178751
30
0
11
30.442486
21
7.178751
31
0
39
0
210
0
220
0
230
1
0
LINE
5
CE
100
AcDbEntity
8
1
62
256
6
ByLayer
370
18
48
1
60
0
100
AcDbLine
10
29.639805
20
6.9375
30
0
11
30.442486
21
6.9375
31
0
39
0
210
0
220
0
230
1
0
LINE
5
CF
100
AcDbEntity
8
1
62
256
6
ByLayer
370
18
48
1
60
0
100
AcDbLine
10
30.442486
20
6.9375
30
0
11
30.442486
21
7.178751
31
0
39
0
210
0
220
0
230
1
0
MTEXT
5
122
100
AcDbEntity
8
SK6
62
256
6
ByLayer
370
18
48
1
60
0
100
AcDbMText
10
-47.760516
20
-52.900382
30
0
210
0
220
0
230
1
1
\W0.7562;C2A-QS20-RFH18B-132CB
40
3.5
41
0
44
1.084337
50
0
71
7
72
5
7
iso_b_vert
0
DIMENSION
5
127
100
AcDbEntity
8
2
62
256
6
ByLayer
370
18
48
1
60
0
100
AcDbDimension
2
_U0
10
71.207968
20
-9.9625
30
0
11
71.207968
21
0.2875
31
0
70
32
71
1
72
1
41
1
210
0
220
0
230
1
3
Standard
100
AcDbAlignedDimension
13
38.107968
23
10.5375
33
0
14
0
24
-9.9625
34
0
50
90
100
AcDbRotatedDimension
1001
ACAD
1000
DSTYLE
1002
{
1070
   371
1070
    13
1070
   372
1070
    13
1070
   170
1070
     0
1070
   144
1040
1.0
1070
   277
1070
     2
1070
   284
1070
     8
1070
   278
1070
    46
1070
   146
1040
1.0
1070
   345
1005
16
1070
   347
1005
16
1070
   346
1005
16
1070
   344
1005
0
1070
   343
1005
0
1070
   172
1070
     1
1070
    76
1070
     0
1070
    75
1070
     0
1070
   282
1070
     0
1070
   281
1070
     0
1070
    71
1070
     0
1070
    74
1070
     0
1070
   279
1070
     0
1070
   173
1070
     1
1070
   340
1005
123
1070
   271
1070
     2
1070
   272
1070
     2
1070
    77
1070
     1
1070
    73
1070
     0
1070
   171
1070
     3
1070
   274
1070
     4
1070
   177
1070
     2
1070
   176
1070
     2
1070
   178
1070
     2
1070
    78
1070
     8
1070
    48
1040
-0.1
1070
    41
1040
3.5
1070
   147
1040
1.75
1070
    42
1040
1.5875
1070
    44
1040
2.0
1070
   140
1040
3.5
1002
}
1001
ACAD_DSTYLE_DIM_LINETYPE
1070
   380
1005
16
1001
ACAD_DSTYLE_DIM_EXT1_LINETYPE
1070
   381
1005
16
1001
ACAD_DSTYLE_DIM_EXT2_LINETYPE
1070
   382
1005
16
0
DIMENSION
5
141
100
AcDbEntity
8
2
62
256
6
ByLayer
370
18
48
1
60
0
100
AcDbDimension
2
_U1
10
59.207968
20
10.5375
30
0
11
59.207968
21
8.5375
31
0
70
32
71
1
72
1
41
1
210
0
220
0
230
1
3
Standard
100
AcDbAlignedDimension
13
38.107968
23
6.5375
33
0
14
38.107968
24
10.5375
34
0
50
90
100
AcDbRotatedDimension
1001
ACAD
1000
DSTYLE
1002
{
1070
   371
1070
    13
1070
   372
1070
    13
1070
   170
1070
     0
1070
   144
1040
1.0
1070
   277
1070
     2
1070
   284
1070
     8
1070
   278
1070
    46
1070
   146
1040
1.0
1070
   345
1005
16
1070
   347
1005
16
1070
   346
1005
16
1070
   344
1005
0
1070
   343
1005
0
1070
   172
1070
     1
1070
    76
1070
     0
1070
    75
1070
     0
1070
   282
1070
     0
1070
   281
1070
     0
1070
    71
1070
     0
1070
    74
1070
     0
1070
   279
1070
     0
1070
   173
1070
     1
1070
   340
1005
123
1070
   271
1070
     2
1070
   272
1070
     2
1070
    77
1070
     1
1070
    73
1070
     0
1070
   171
1070
     3
1070
   274
1070
     4
1070
   177
1070
     2
1070
   176
1070
     2
1070
   178
1070
     2
1070
    78
1070
     8
1070
    48
1040
-0.1
1070
    41
1040
3.5
1070
   147
1040
1.75
1070
    42
1040
1.5875
1070
    44
1040
2.0
1070
   140
1040
3.5
1002
}
1001
ACAD_DSTYLE_DIM_LINETYPE
1070
   380
1005
16
1001
ACAD_DSTYLE_DIM_EXT1_LINETYPE
1070
   381
1005
16
1001
ACAD_DSTYLE_DIM_EXT2_LINETYPE
1070
   382
1005
16
0
DIMENSION
5
15A
100
AcDbEntity
8
SK2
62
256
6
ByLayer
370
18
48
1
60
0
100
AcDbDimension
2
_U2
10
-80.6
20
10.0375
30
0
11
-80.6
21
0.0375
31
0
70
32
71
1
72
1
41
1
210
0
220
0
230
1
3
Standard
100
AcDbAlignedDimension
13
0
23
-9.9625
33
0
14
0
24
10.0375
34
0
50
90
100
AcDbRotatedDimension
1001
ACAD
1000
DSTYLE
1002
{
1070
   371
1070
    13
1070
   372
1070
    13
1070
   170
1070
     0
1070
   144
1040
1.0
1070
   277
1070
     2
1070
   284
1070
     8
1070
   278
1070
    46
1070
   146
1040
1.0
1070
   345
1005
16
1070
   347
1005
16
1070
   346
1005
16
1070
   344
1005
0
1070
   343
1005
0
1070
   172
1070
     1
1070
    76
1070
     0
1070
    75
1070
     0
1070
   282
1070
     0
1070
   281
1070
     0
1070
    71
1070
     0
1070
    74
1070
     0
1070
   279
1070
     0
1070
   173
1070
     1
1070
   340
1005
123
1070
   271
1070
     2
1070
   272
1070
     2
1070
    77
1070
     1
1070
    73
1070
     0
1070
   171
1070
     3
1070
   274
1070
     4
1070
   177
1070
     2
1070
   176
1070
     2
1070
   178
1070
     2
1070
    78
1070
     8
1070
    48
1040
-0.1
1070
    41
1040
3.5
1070
   147
1040
1.75
1070
    42
1040
1.5875
1070
    44
1040
2.0
1070
   140
1040
3.5
1002
}
1001
ACAD_DSTYLE_DIM_LINETYPE
1070
   380
1005
16
1001
ACAD_DSTYLE_DIM_EXT1_LINETYPE
1070
   381
1005
16
1001
ACAD_DSTYLE_DIM_EXT2_LINETYPE
1070
   382
1005
16
0
DIMENSION
5
173
100
AcDbEntity
8
2
62
256
6
ByLayer
370
18
48
1
60
0
100
AcDbDimension
2
_U3
10
38.107968
20
-19.7125
30
0
11
29.107968
21
-19.7125
31
0
70
32
71
1
72
1
41
1
210
0
220
0
230
1
3
Standard
100
AcDbAlignedDimension
13
20.107968
23
6.8625
33
0
14
38.107968
24
10.5375
34
0
50
0
100
AcDbRotatedDimension
1001
ACAD
1000
DSTYLE
1002
{
1070
   371
1070
    13
1070
   372
1070
    13
1070
   170
1070
     0
1070
   144
1040
1.0
1070
   277
1070
     2
1070
   284
1070
     8
1070
   278
1070
    46
1070
   146
1040
1.0
1070
   345
1005
16
1070
   347
1005
16
1070
   346
1005
16
1070
   344
1005
0
1070
   343
1005
0
1070
   172
1070
     1
1070
    76
1070
     0
1070
    75
1070
     0
1070
   282
1070
     0
1070
   281
1070
     0
1070
    71
1070
     0
1070
    74
1070
     0
1070
   279
1070
     0
1070
   173
1070
     1
1070
   340
1005
123
1070
   271
1070
     1
1070
   272
1070
     2
1070
    77
1070
     1
1070
    73
1070
     1
1070
   171
1070
     3
1070
   274
1070
     4
1070
   177
1070
     2
1070
   176
1070
     2
1070
   178
1070
     2
1070
    78
1070
     8
1070
    48
1040
-0.1
1070
    41
1040
3.5
1070
   147
1040
1.75
1070
    42
1040
1.5875
1070
    44
1040
2.0
1070
   140
1040
3.5
1002
}
1001
ACAD_DSTYLE_DIM_LINETYPE
1070
   380
1005
16
1001
ACAD_DSTYLE_DIM_EXT1_LINETYPE
1070
   381
1005
16
1001
ACAD_DSTYLE_DIM_EXT2_LINETYPE
1070
   382
1005
16
0
DIMENSION
5
18B
100
AcDbEntity
8
SK2
62
256
6
ByLayer
370
18
48
1
60
0
100
AcDbDimension
2
_U4
10
38.107968
20
-35.7125
30
0
11
-15.446016
21
-35.7125
31
0
70
32
71
1
72
1
41
1
210
0
220
0
230
1
3
Standard
100
AcDbAlignedDimension
13
-69
23
-9.9625
33
0
14
38.107968
24
10.5375
34
0
50
0
100
AcDbRotatedDimension
1001
ACAD
1000
DSTYLE
1002
{
1070
   371
1070
    13
1070
   372
1070
    13
1070
   170
1070
     0
1070
   144
1040
1.0
1070
   277
1070
     2
1070
   284
1070
     8
1070
   278
1070
    46
1070
   146
1040
1.0
1070
   345
1005
16
1070
   347
1005
16
1070
   346
1005
16
1070
   344
1005
0
1070
   343
1005
0
1070
   172
1070
     1
1070
    76
1070
     0
1070
    75
1070
     0
1070
   282
1070
     0
1070
   281
1070
     0
1070
    71
1070
     0
1070
    74
1070
     0
1070
   279
1070
     0
1070
   173
1070
     1
1070
   340
1005
123
1070
   271
1070
     1
1070
   272
1070
     2
1070
    77
1070
     1
1070
    73
1070
     1
1070
   171
1070
     3
1070
   274
1070
     4
1070
   177
1070
     2
1070
   176
1070
     2
1070
   178
1070
     2
1070
    78
1070
     8
1070
    48
1040
-0.1
1070
    41
1040
3.5
1070
   147
1040
1.75
1070
    42
1040
1.5875
1070
    44
1040
2.0
1070
   140
1040
3.5
1002
}
1001
ACAD_DSTYLE_DIM_LINETYPE
1070
   380
1005
16
1001
ACAD_DSTYLE_DIM_EXT1_LINETYPE
1070
   381
1005
16
1001
ACAD_DSTYLE_DIM_EXT2_LINETYPE
1070
   382
1005
16
0
DIMENSION
5
1A3
100
AcDbEntity
8
2
62
256
6
ByLayer
370
18
48
1
60
0
100
AcDbDimension
2
_U5
10
38.107968
20
-27.7125
30
0
11
19.053984
21
-27.7125
31
0
70
32
71
1
72
1
41
1
210
0
220
0
230
1
3
Standard
100
AcDbAlignedDimension
13
0
23
-9.9625
33
0
14
38.107968
24
10.5375
34
0
50
0
100
AcDbRotatedDimension
1001
ACAD
1000
DSTYLE
1002
{
1070
   371
1070
    13
1070
   372
1070
    13
1070
   170
1070
     0
1070
   144
1040
1.0
1070
   277
1070
     2
1070
   284
1070
     8
1070
   278
1070
    46
1070
   146
1040
1.0
1070
   345
1005
16
1070
   347
1005
16
1070
   346
1005
16
1070
   344
1005
0
1070
   343
1005
0
1070
   172
1070
     1
1070
    76
1070
     0
1070
    75
1070
     0
1070
   282
1070
     0
1070
   281
1070
     0
1070
    71
1070
     0
1070
    74
1070
     0
1070
   279
1070
     0
1070
   173
1070
     1
1070
   340
1005
123
1070
   271
1070
     1
1070
   272
1070
     2
1070
    77
1070
     1
1070
    73
1070
     1
1070
   171
1070
     3
1070
   274
1070
     4
1070
   177
1070
     2
1070
   176
1070
     2
1070
   178
1070
     2
1070
    78
1070
     8
1070
    48
1040
-0.1
1070
    41
1040
3.5
1070
   147
1040
1.75
1070
    42
1040
1.5875
1070
    44
1040
2.0
1070
   140
1040
3.5
1002
}
1001
ACAD_DSTYLE_DIM_LINETYPE
1070
   380
1005
16
1001
ACAD_DSTYLE_DIM_EXT1_LINETYPE
1070
   381
1005
16
1001
ACAD_DSTYLE_DIM_EXT2_LINETYPE
1070
   382
1005
16
0
DIMENSION
5
1BB
100
AcDbEntity
8
SK2
62
256
6
ByLayer
370
18
48
1
60
0
100
AcDbDimension
2
_U6
10
-66
20
-19.7125
30
0
11
-67.5
21
-19.7125
31
0
70
32
71
1
72
1
41
1
210
0
220
0
230
1
3
Standard
100
AcDbAlignedDimension
13
-69
23
-9.9625
33
0
14
-66
24
-9.9625
34
0
50
0
100
AcDbRotatedDimension
1001
ACAD
1000
DSTYLE
1002
{
1070
   371
1070
    13
1070
   372
1070
    13
1070
   170
1070
     0
1070
   144
1040
1.0
1070
   277
1070
     2
1070
   284
1070
     8
1070
   278
1070
    46
1070
   146
1040
1.0
1070
   345
1005
16
1070
   347
1005
16
1070
   346
1005
16
1070
   344
1005
0
1070
   343
1005
0
1070
   172
1070
     1
1070
    76
1070
     0
1070
    75
1070
     0
1070
   282
1070
     0
1070
   281
1070
     0
1070
    71
1070
     0
1070
    74
1070
     0
1070
   279
1070
     0
1070
   173
1070
     1
1070
   340
1005
123
1070
   271
1070
     2
1070
   272
1070
     2
1070
    77
1070
     1
1070
    73
1070
     1
1070
   171
1070
     3
1070
   274
1070
     4
1070
   177
1070
     2
1070
   176
1070
     2
1070
   178
1070
     2
1070
    78
1070
     8
1070
    48
1040
-0.1
1070
    41
1040
3.5
1070
   147
1040
1.75
1070
    42
1040
1.5875
1070
    44
1040
2.0
1070
   140
1040
3.5
1002
}
1001
ACAD_DSTYLE_DIM_LINETYPE
1070
   380
1005
16
1001
ACAD_DSTYLE_DIM_EXT1_LINETYPE
1070
   381
1005
16
1001
ACAD_DSTYLE_DIM_EXT2_LINETYPE
1070
   382
1005
16
0
ENDSEC
0
SECTION
2
OBJECTS
0
DICTIONARY
5
243
330
0
100
AcDbDictionary
280
0
281
1
3
ACAD_GROUP
350
244
3
ACAD_MLINESTYLE
350
245
0
DICTIONARY
5
244
330
0
100
AcDbDictionary
280
0
281
1
0
DICTIONARY
5
245
330
0
100
AcDbDictionary
280
0
281
1
3
Standard
350
18
0
MLINESTYLE
5
18
330
245
100
AcDbMlineStyle
2
Standard
70
0
3

62
256
51
90
52
90
71
2
49
-0.5
62
256
6
ByLayer
49
0.5
62
256
6
ByLayer
0
RASTERVARIABLES
5
232
330

100
AcDbRasterVariables
90
0
70
1
71
1
72
1
0
ENDSEC
0
EOF
