0
SECTION
2
HEADER
9
$ACADVER
1
AC1015
9
$DWGCODEPAGE
3
ANSI_1252
9
$HANDSEED
5
24a
9
$ANGBASE
50
0
9
$ANGDIR
70
0
9
$ATTMODE
70
1
9
$AUNITS
70
0
9
$AUPREC
70
0
9
$CECOLOR
62
256
9
$CELTSCALE
40
1
9
$CELTYPE
6
ByLayer
9
$CELWEIGHT
370
18
9
$CLAYER
8
0
9
$CMLJUST
70
0
9
$CMLSCALE
40
1
9
$CMLSTYLE
2
Standard
9
$DIMSTYLE
2
Standard
9
$TEXTSIZE
40
0.2
9
$TEXTSTYLE
7
Standard
9
$LUNITS
70
2
9
$LUPREC
70
4
9
$EXTNAMES
290
1
9
$INSUNITS
70
4
9
$LTSCALE
40
1
9
$LWDISPLAY
290
1
9
$PDMODE
70
0
9
$PDSIZE
40
0
9
$PLINEGEN
70
0
0
ENDSEC
0
SECTION
2
CLASSES
0
CLASS
1
RASTERVARIABLES
2
AcDbRasterVariables
3
ISM
90
0
280
0
281
0
0
ENDSEC
0
SECTION
2
TABLES
0
TABLE
2
VPORT
5
240
100
AcDbSymbolTable
0
VPORT
5
1
100
AcDbSymbolTableRecord
100
AcDbViewportTableRecord
2
*Active
70
0
10
0
20
0
11
1
21
1
12
-1
22
1
13
0
23
0
14
0.5
24
0.5
15
10
25
10
16
0
26
0
36
1
17
0
27
0
37
0
0
ENDTAB
0
TABLE
2
LTYPE
5
241
100
AcDbSymbolTable
0
LTYPE
5
14
100
AcDbSymbolTableRecord
100
AcDbLinetypeTableRecord
70
0
2
ByBlock
3

72
65
73
0
40
0
0
LTYPE
5
15
100
AcDbSymbolTableRecord
100
AcDbLinetypeTableRecord
70
0
2
ByLayer
3

72
65
73
0
40
0
0
LTYPE
5
16
100
AcDbSymbolTableRecord
100
AcDbLinetypeTableRecord
70
0
2
Continuous
3
Solid line
72
65
73
0
40
0
0
LTYPE
5
6E
100
AcDbSymbolTableRecord
100
AcDbLinetypeTableRecord
70
0
2
CENTER
3
____ _ ____ _ ____ _ ____
72
65
73
4
40
47.5
49
22
74
0
49
-8.5
74
0
49
8.5
74
0
49
-8.5
74
0
0
LTYPE
5
6F
100
AcDbSymbolTableRecord
100
AcDbLinetypeTableRecord
70
0
2
DASHED
3
__ __ __ __ __ __ __ __ __
72
65
73
2
40
25.72
49
12.86
74
0
49
-12.86
74
0
0
ENDTAB
0
TABLE
2
LAYER
5
242
100
AcDbSymbolTable
0
LAYER
5
10
100
AcDbSymbolTableRecord
100
AcDbLayerTableRecord
2
0
70
0
62
7
6
Continuous
290
1
370
-3
390
0
0
LAYER
5
71
100
AcDbSymbolTableRecord
100
AcDbLayerTableRecord
2
81
70
0
62
-3
6
Continuous
290
1
370
-3
390
0
0
LAYER
5
73
100
AcDbSymbolTableRecord
100
AcDbLayerTableRecord
2
80
70
0
62
-6
6
Continuous
290
1
370
-3
390
0
0
LAYER
5
75
100
AcDbSymbolTableRecord
100
AcDbLayerTableRecord
2
1
70
0
62
4
6
Continuous
290
1
370
-3
390
0
0
LAYER
5
123
100
AcDbSymbolTableRecord
100
AcDbLayerTableRecord
2
Defpoints
70
0
62
7
6
Continuous
290
0
370
-3
390
0
0
LAYER
5
130
100
AcDbSymbolTableRecord
100
AcDbLayerTableRecord
2
2
70
0
62
7
6
Continuous
290
1
370
-3
390
0
0
LAYER
5
22d
100
AcDbSymbolTableRecord
100
AcDbLayerTableRecord
2
SK1
70
0
62
4
6
Continuous
290
1
370
-3
390
0
0
LAYER
5
22e
100
AcDbSymbolTableRecord
100
AcDbLayerTableRecord
2
SK6
70
0
62
5
6
Continuous
290
1
370
-3
390
0
0
LAYER
5
22f
100
AcDbSymbolTableRecord
100
AcDbLayerTableRecord
2
SK2
70
0
62
7
6
Continuous
290
1
370
-3
390
0
0
ENDTAB
0
TABLE
2
STYLE
5
243
100
AcDbSymbolTable
0
STYLE
5
11
100
AcDbSymbolTableRecord
100
AcDbTextStyleTableRecord
2
Standard
3
txt
70
0
71
0
40
0
41
1
42
0
50
0
0
STYLE
5
11C
100
AcDbSymbolTableRecord
100
AcDbTextStyleTableRecord
2
iso_b_vert
3
simplex.shx
70
0
71
0
40
0
41
1
42
0
50
0
0
STYLE
5
11D
100
AcDbSymbolTableRecord
100
AcDbTextStyleTableRecord
2
DWGDirectTextStyle
3
simplex
70
0
71
0
40
0
41
1
42
0
50
0
0
ENDTAB
0
TABLE
2
DIMSTYLE
5
244
100
AcDbSymbolTable
100
AcDbDimStyleTable
0
DIMSTYLE
105
27
100
AcDbSymbolTableRecord
100
AcDbDimStyleTableRecord
2
Standard
70
0
3
<>
41
0.18
42
0.0625
44
0.18
140
0.18
147
0.09
73
0
74
0
77
1
271
2
275
0
278
52
280
0
340
11
0
ENDTAB
0
TABLE
2
VIEW
5
245
100
AcDbSymbolTable
0
ENDTAB
0
TABLE
2
UCS
5
246
100
AcDbSymbolTable
0
ENDTAB
0
TABLE
2
APPID
5
247
100
AcDbSymbolTable
0
APPID
5
12
100
AcDbSymbolTableRecord
100
AcDbRegAppTableRecord
2
ACAD
70
0
0
APPID
5
11F
100
AcDbSymbolTableRecord
100
AcDbRegAppTableRecord
2
ACAD_DSTYLE_DIMBREAK
70
0
0
APPID
5
1EC
100
AcDbSymbolTableRecord
100
AcDbRegAppTableRecord
2
ACAD_DSTYLE_DIM_LINETYPE
70
0
0
APPID
5
1ED
100
AcDbSymbolTableRecord
100
AcDbRegAppTableRecord
2
ACAD_DSTYLE_DIM_EXT1_LINETYPE
70
0
0
APPID
5
1EE
100
AcDbSymbolTableRecord
100
AcDbRegAppTableRecord
2
ACAD_DSTYLE_DIM_EXT2_LINETYPE
70
0
0
APPID
5
229
100
AcDbSymbolTableRecord
100
AcDbRegAppTableRecord
2
ACAD_MLEADERVER
70
0
0
ENDTAB
0
TABLE
2
BLOCK_RECORD
5
248
100
AcDbSymbolTable
0
BLOCK_RECORD
5
1F
100
AcDbSymbolTableRecord
100
AcDbBlockTableRecord
2
*Model_Space
340
0
70
0
0
BLOCK_RECORD
5
1B
100
AcDbSymbolTableRecord
100
AcDbBlockTableRecord
2
*Paper_Space
340
0
70
0
0
BLOCK_RECORD
5
23
100
AcDbSymbolTableRecord
100
AcDbBlockTableRecord
2
*Paper_Space0
340
0
70
0
0
BLOCK_RECORD
5
124
100
AcDbSymbolTableRecord
100
AcDbBlockTableRecord
2
*D1
340
0
70
0
0
BLOCK_RECORD
5
131
100
AcDbSymbolTableRecord
100
AcDbBlockTableRecord
2
_U0
340
0
70
0
0
BLOCK_RECORD
5
13D
100
AcDbSymbolTableRecord
100
AcDbBlockTableRecord
2
*D3
340
0
70
0
0
BLOCK_RECORD
5
14A
100
AcDbSymbolTableRecord
100
AcDbBlockTableRecord
2
_U1
340
0
70
0
0
BLOCK_RECORD
5
156
100
AcDbSymbolTableRecord
100
AcDbBlockTableRecord
2
*D5
340
0
70
0
0
BLOCK_RECORD
5
163
100
AcDbSymbolTableRecord
100
AcDbBlockTableRecord
2
_U2
340
0
70
0
0
BLOCK_RECORD
5
16F
100
AcDbSymbolTableRecord
100
AcDbBlockTableRecord
2
*D7
340
0
70
0
0
BLOCK_RECORD
5
17C
100
AcDbSymbolTableRecord
100
AcDbBlockTableRecord
2
_U3
340
0
70
0
0
BLOCK_RECORD
5
188
100
AcDbSymbolTableRecord
100
AcDbBlockTableRecord
2
*D9
340
0
70
0
0
BLOCK_RECORD
5
194
100
AcDbSymbolTableRecord
100
AcDbBlockTableRecord
2
_U4
340
0
70
0
0
BLOCK_RECORD
5
1A0
100
AcDbSymbolTableRecord
100
AcDbBlockTableRecord
2
*D11
340
0
70
0
0
BLOCK_RECORD
5
1AC
100
AcDbSymbolTableRecord
100
AcDbBlockTableRecord
2
_U5
340
0
70
0
0
BLOCK_RECORD
5
1B8
100
AcDbSymbolTableRecord
100
AcDbBlockTableRecord
2
*D13
340
0
70
0
0
BLOCK_RECORD
5
1C5
100
AcDbSymbolTableRecord
100
AcDbBlockTableRecord
2
_U6
340
0
70
0
0
ENDTAB
0
ENDSEC
0
SECTION
2
BLOCKS
0
BLOCK
5
20
100
AcDbEntity
8
0
100
AcDbBlockBegin
2
*Model_Space
70
0
10
0
20
0
30
0
3
*Model_Space
0
ENDBLK
5
21
100
AcDbEntity
8
0
100
AcDbBlockEnd
0
BLOCK
5
1C
100
AcDbEntity
8
0
100
AcDbBlockBegin
2
*Paper_Space
70
0
10
0
20
0
30
0
3
*Paper_Space
0
ENDBLK
5
1D
100
AcDbEntity
8
0
100
AcDbBlockEnd
0
BLOCK
5
24
100
AcDbEntity
8
0
100
AcDbBlockBegin
2
*Paper_Space0
70
0
10
0
20
0
30
0
3
*Paper_Space0
0
ENDBLK
5
25
100
AcDbEntity
8
0
100
AcDbBlockEnd
0
BLOCK
5
125
100
AcDbEntity
8
0
100
AcDbBlockBegin
2
*D1
70
1
10
0
20
0
30
0
3
*D1
0
LINE
5
127
100
AcDbEntity
8
0
62
256
6
ByLayer
370
-2
48
1
60
0
100
AcDbLine
10
34.375852
20
-13.0375
30
0
11
67.888352
21
-13.0375
31
0
39
0
210
0
220
0
230
1
0
LINE
5
128
100
AcDbEntity
8
0
62
256
6
ByLayer
370
-2
48
1
60
0
100
AcDbLine
10
1.5875
20
12.4625
30
0
11
67.888352
21
12.4625
31
0
39
0
210
0
220
0
230
1
0
LINE
5
129
100
AcDbEntity
8
0
62
256
6
ByLayer
370
-2
48
1
60
0
100
AcDbLine
10
65.888352
20
-9.5375
30
0
11
65.888352
21
8.9625
31
0
39
0
210
0
220
0
230
1
0
SOLID
5
12A
100
AcDbEntity
8
0
62
256
6
ByLayer
370
-1
48
1
60
0
100
AcDbTrace
10
65.305019
20
-9.5375
30
0
11
66.471686
21
-9.5375
31
0
12
65.888352
22
-13.0375
32
0
13
65.888352
23
-13.0375
33
0
39
0
210
0
220
0
230
1
0
SOLID
5
12B
100
AcDbEntity
8
0
62
256
6
ByLayer
370
-1
48
1
60
0
100
AcDbTrace
10
66.471686
20
8.9625
30
0
11
65.305019
21
8.9625
31
0
12
65.888352
22
12.4625
32
0
13
65.888352
23
12.4625
33
0
39
0
210
0
220
0
230
1
0
MTEXT
5
12C
100
AcDbEntity
8
0
62
256
6
ByLayer
370
18
48
1
60
0
100
AcDbMText
10
58.888352
20
-0.2875
30
0
210
0
220
0
230
1
1
\A1;25.5
40
3.5
41
0
44
1
50
90
71
5
72
5
7
iso_b_vert
0
POINT
5
12D
100
AcDbEntity
8
Defpoints
62
0
6
ByLayer
370
-1
48
1
60
0
100
AcDbPoint
10
32.788352
20
-13.0375
30
0
39
0
210
0
220
0
230
1
50
360
0
POINT
5
12E
100
AcDbEntity
8
Defpoints
62
0
6
ByLayer
370
-1
48
1
60
0
100
AcDbPoint
10
0
20
12.4625
30
0
39
0
210
0
220
0
230
1
50
360
0
POINT
5
12F
100
AcDbEntity
8
Defpoints
62
0
6
ByLayer
370
-1
48
1
60
0
100
AcDbPoint
10
65.888352
20
12.4625
30
0
39
0
210
0
220
0
230
1
50
360
0
ENDBLK
5
126
100
AcDbEntity
8
0
100
AcDbBlockEnd
0
BLOCK
5
138
100
AcDbEntity
8
0
100
AcDbBlockBegin
2
_U0
70
0
10
0
20
0
30
0
3
_U0
0
MTEXT
5
132
100
AcDbEntity
8
2
62
256
6
ByLayer
370
18
48
1
60
0
100
AcDbMText
10
65.198719
20
-4.237199
30
0
210
0
220
0
230
1
1
\W0.7346;25.5
40
3.5
41
0
44
1.084337
50
90
71
7
72
5
7
iso_b_vert
0
LINE
5
133
100
AcDbEntity
8
2
62
256
6
ByLayer
370
13
48
1
60
0
100
AcDbLine
10
34.375852
20
-13.0375
30
0
11
67.888352
21
-13.0375
31
0
39
0
210
0
220
0
230
1
0
LINE
5
134
100
AcDbEntity
8
2
62
256
6
ByLayer
370
13
48
1
60
0
100
AcDbLine
10
1.5875
20
12.4625
30
0
11
67.888352
21
12.4625
31
0
39
0
210
0
220
0
230
1
0
LINE
5
135
100
AcDbEntity
8
2
62
256
6
ByLayer
370
13
48
1
60
0
100
AcDbLine
10
65.888352
20
-13.0375
30
0
11
65.888352
21
12.4625
31
0
39
0
210
0
220
0
230
1
0
SOLID
5
136
100
AcDbEntity
8
2
62
256
6
ByLayer
370
18
48
1
60
0
100
AcDbTrace
10
65.888352
20
-13.0375
30
0
11
65.427569
21
-9.537502
31
0
12
66.349136
22
-9.537498
32
0
13
66.349136
23
-9.537498
33
0
39
0
210
0
220
0
230
1
0
SOLID
5
137
100
AcDbEntity
8
2
62
256
6
ByLayer
370
18
48
1
60
0
100
AcDbTrace
10
65.888352
20
12.4625
30
0
11
66.349136
21
8.962502
31
0
12
65.427569
22
8.962498
32
0
13
65.427569
23
8.962498
33
0
39
0
210
0
220
0
230
1
0
ENDBLK
5
139
100
AcDbEntity
8
0
100
AcDbBlockEnd
0
BLOCK
5
13E
100
AcDbEntity
8
0
100
AcDbBlockBegin
2
*D3
70
1
10
0
20
0
30
0
3
*D3
0
LINE
5
140
100
AcDbEntity
8
0
62
256
6
ByLayer
370
-2
48
1
60
0
100
AcDbLine
10
34.375852
20
-10.0375
30
0
11
55.888352
21
-10.0375
31
0
39
0
210
0
220
0
230
1
0
LINE
5
141
100
AcDbEntity
8
0
62
256
6
ByLayer
370
-2
48
1
60
0
100
AcDbLine
10
34.375852
20
-13.0375
30
0
11
55.888352
21
-13.0375
31
0
39
0
210
0
220
0
230
1
0
LINE
5
142
100
AcDbEntity
8
0
62
256
6
ByLayer
370
-2
48
1
60
0
100
AcDbLine
10
53.888352
20
-6.5375
30
0
11
53.888352
21
-3.0375
31
0
39
0
210
0
220
0
230
1
0
LINE
5
143
100
AcDbEntity
8
0
62
256
6
ByLayer
370
-2
48
1
60
0
100
AcDbLine
10
53.888352
20
-16.5375
30
0
11
53.888352
21
-20.0375
31
0
39
0
210
0
220
0
230
1
0
SOLID
5
144
100
AcDbEntity
8
0
62
256
6
ByLayer
370
-1
48
1
60
0
100
AcDbTrace
10
53.305019
20
-6.5375
30
0
11
54.471686
21
-6.5375
31
0
12
53.888352
22
-10.0375
32
0
13
53.888352
23
-10.0375
33
0
39
0
210
0
220
0
230
1
0
SOLID
5
145
100
AcDbEntity
8
0
62
256
6
ByLayer
370
-1
48
1
60
0
100
AcDbTrace
10
54.471686
20
-16.5375
30
0
11
53.305019
21
-16.5375
31
0
12
53.888352
22
-13.0375
32
0
13
53.888352
23
-13.0375
33
0
39
0
210
0
220
0
230
1
0
MTEXT
5
146
100
AcDbEntity
8
0
62
256
6
ByLayer
370
18
48
1
60
0
100
AcDbMText
10
46.888352
20
-11.5375
30
0
210
0
220
0
230
1
1
\A1;3
40
3.5
41
0
44
1
50
90
71
5
72
5
7
iso_b_vert
0
POINT
5
147
100
AcDbEntity
8
Defpoints
62
0
6
ByLayer
370
-1
48
1
60
0
100
AcDbPoint
10
32.788352
20
-10.0375
30
0
39
0
210
0
220
0
230
1
50
360
0
POINT
5
148
100
AcDbEntity
8
Defpoints
62
0
6
ByLayer
370
-1
48
1
60
0
100
AcDbPoint
10
32.788352
20
-13.0375
30
0
39
0
210
0
220
0
230
1
50
360
0
POINT
5
149
100
AcDbEntity
8
Defpoints
62
0
6
ByLayer
370
-1
48
1
60
0
100
AcDbPoint
10
53.888352
20
-13.0375
30
0
39
0
210
0
220
0
230
1
50
360
0
ENDBLK
5
13F
100
AcDbEntity
8
0
100
AcDbBlockEnd
0
BLOCK
5
151
100
AcDbEntity
8
0
100
AcDbBlockBegin
2
_U1
70
0
10
0
20
0
30
0
3
_U1
0
MTEXT
5
14B
100
AcDbEntity
8
2
62
256
6
ByLayer
370
18
48
1
60
0
100
AcDbMText
10
53.198719
20
-12.162733
30
0
210
0
220
0
230
1
1
\W0.5404;3
40
3.5
41
0
44
1.084337
50
90
71
7
72
5
7
iso_b_vert
0
LINE
5
14C
100
AcDbEntity
8
2
62
256
6
ByLayer
370
13
48
1
60
0
100
AcDbLine
10
34.375852
20
-10.0375
30
0
11
55.888352
21
-10.0375
31
0
39
0
210
0
220
0
230
1
0
LINE
5
14D
100
AcDbEntity
8
2
62
256
6
ByLayer
370
13
48
1
60
0
100
AcDbLine
10
34.375852
20
-13.0375
30
0
11
55.888352
21
-13.0375
31
0
39
0
210
0
220
0
230
1
0
LINE
5
14E
100
AcDbEntity
8
2
62
256
6
ByLayer
370
13
48
1
60
0
100
AcDbLine
10
53.888352
20
-1.2875
30
0
11
53.888352
21
-21.7875
31
0
39
0
210
0
220
0
230
1
0
SOLID
5
14F
100
AcDbEntity
8
2
62
256
6
ByLayer
370
18
48
1
60
0
100
AcDbTrace
10
53.888352
20
-10.0375
30
0
11
53.427569
21
-6.537502
31
0
12
54.349136
22
-6.537498
32
0
13
54.349136
23
-6.537498
33
0
39
0
210
0
220
0
230
1
0
SOLID
5
150
100
AcDbEntity
8
2
62
256
6
ByLayer
370
18
48
1
60
0
100
AcDbTrace
10
53.888352
20
-13.0375
30
0
11
54.349136
21
-16.537498
31
0
12
53.427569
22
-16.537502
32
0
13
53.427569
23
-16.537502
33
0
39
0
210
0
220
0
230
1
0
ENDBLK
5
152
100
AcDbEntity
8
0
100
AcDbBlockEnd
0
BLOCK
5
157
100
AcDbEntity
8
0
100
AcDbBlockBegin
2
*D5
70
1
10
0
20
0
30
0
3
*D5
0
LINE
5
159
100
AcDbEntity
8
0
62
256
6
ByLayer
370
-2
48
1
60
0
100
AcDbLine
10
-1.5875
20
12.4625
30
0
11
-97.6
21
12.4625
31
0
39
0
210
0
220
0
230
1
0
LINE
5
15A
100
AcDbEntity
8
0
62
256
6
ByLayer
370
-2
48
1
60
0
100
AcDbLine
10
-1.5875
20
-12.5375
30
0
11
-97.6
21
-12.5375
31
0
39
0
210
0
220
0
230
1
0
LINE
5
15B
100
AcDbEntity
8
0
62
256
6
ByLayer
370
-2
48
1
60
0
100
AcDbLine
10
-95.6
20
8.9625
30
0
11
-95.6
21
-9.0375
31
0
39
0
210
0
220
0
230
1
0
SOLID
5
15C
100
AcDbEntity
8
0
62
256
6
ByLayer
370
-1
48
1
60
0
100
AcDbTrace
10
-95.016667
20
8.9625
30
0
11
-96.183333
21
8.9625
31
0
12
-95.6
22
12.4625
32
0
13
-95.6
23
12.4625
33
0
39
0
210
0
220
0
230
1
0
SOLID
5
15D
100
AcDbEntity
8
0
62
256
6
ByLayer
370
-1
48
1
60
0
100
AcDbTrace
10
-96.183333
20
-9.0375
30
0
11
-95.016667
21
-9.0375
31
0
12
-95.6
22
-12.5375
32
0
13
-95.6
23
-12.5375
33
0
39
0
210
0
220
0
230
1
0
MTEXT
5
15E
100
AcDbEntity
8
0
62
256
6
ByLayer
370
18
48
1
60
0
100
AcDbMText
10
-102.6
20
-0.0375
30
0
210
0
220
0
230
1
1
\A1;25
40
3.5
41
0
44
1
50
90
71
5
72
5
7
iso_b_vert
0
POINT
5
15F
100
AcDbEntity
8
Defpoints
62
0
6
ByLayer
370
-1
48
1
60
0
100
AcDbPoint
10
0
20
12.4625
30
0
39
0
210
0
220
0
230
1
50
360
0
POINT
5
160
100
AcDbEntity
8
Defpoints
62
0
6
ByLayer
370
-1
48
1
60
0
100
AcDbPoint
10
0
20
-12.5375
30
0
39
0
210
0
220
0
230
1
50
360
0
POINT
5
161
100
AcDbEntity
8
Defpoints
62
0
6
ByLayer
370
-1
48
1
60
0
100
AcDbPoint
10
-95.6
20
-12.5375
30
0
39
0
210
0
220
0
230
1
50
360
0
ENDBLK
5
158
100
AcDbEntity
8
0
100
AcDbBlockEnd
0
BLOCK
5
16A
100
AcDbEntity
8
0
100
AcDbBlockBegin
2
_U2
70
0
10
0
20
0
30
0
3
_U2
0
MTEXT
5
164
100
AcDbEntity
8
SK2
62
256
6
ByLayer
370
18
48
1
60
0
100
AcDbMText
10
-96.289634
20
-1.970466
30
0
210
0
220
0
230
1
1
\W0.6740;25
40
3.5
41
0
44
1.084337
50
90
71
7
72
5
7
iso_b_vert
0
LINE
5
165
100
AcDbEntity
8
SK2
62
256
6
ByLayer
370
13
48
1
60
0
100
AcDbLine
10
-1.5875
20
12.4625
30
0
11
-97.6
21
12.4625
31
0
39
0
210
0
220
0
230
1
0
LINE
5
166
100
AcDbEntity
8
SK2
62
256
6
ByLayer
370
13
48
1
60
0
100
AcDbLine
10
-1.5875
20
-12.5375
30
0
11
-97.6
21
-12.5375
31
0
39
0
210
0
220
0
230
1
0
LINE
5
167
100
AcDbEntity
8
SK2
62
256
6
ByLayer
370
13
48
1
60
0
100
AcDbLine
10
-95.6
20
12.4625
30
0
11
-95.6
21
-12.5375
31
0
39
0
210
0
220
0
230
1
0
SOLID
5
168
100
AcDbEntity
8
SK2
62
256
6
ByLayer
370
18
48
1
60
0
100
AcDbTrace
10
-95.6
20
12.4625
30
0
11
-95.139216
21
8.962502
31
0
12
-96.060784
22
8.962498
32
0
13
-96.060784
23
8.962498
33
0
39
0
210
0
220
0
230
1
0
SOLID
5
169
100
AcDbEntity
8
SK2
62
256
6
ByLayer
370
18
48
1
60
0
100
AcDbTrace
10
-95.6
20
-12.5375
30
0
11
-96.060784
21
-9.037502
31
0
12
-95.139216
22
-9.037498
32
0
13
-95.139216
23
-9.037498
33
0
39
0
210
0
220
0
230
1
0
ENDBLK
5
16B
100
AcDbEntity
8
0
100
AcDbBlockEnd
0
BLOCK
5
170
100
AcDbEntity
8
0
100
AcDbBlockBegin
2
*D7
70
1
10
0
20
0
30
0
3
*D7
0
LINE
5
172
100
AcDbEntity
8
0
62
256
6
ByLayer
370
-2
48
1
60
0
100
AcDbLine
10
17.788352
20
-8.775
30
0
11
17.788352
21
20.7125
31
0
39
0
210
0
220
0
230
1
0
LINE
5
173
100
AcDbEntity
8
0
62
256
6
ByLayer
370
-2
48
1
60
0
100
AcDbLine
10
32.788352
20
-11.45
30
0
11
32.788352
21
20.7125
31
0
39
0
210
0
220
0
230
1
0
LINE
5
174
100
AcDbEntity
8
0
62
256
6
ByLayer
370
-2
48
1
60
0
100
AcDbLine
10
14.288352
20
18.7125
30
0
11
10.788352
21
18.7125
31
0
39
0
210
0
220
0
230
1
0
LINE
5
175
100
AcDbEntity
8
0
62
256
6
ByLayer
370
-2
48
1
60
0
100
AcDbLine
10
36.288352
20
18.7125
30
0
11
39.788352
21
18.7125
31
0
39
0
210
0
220
0
230
1
0
SOLID
5
176
100
AcDbEntity
8
0
62
256
6
ByLayer
370
-1
48
1
60
0
100
AcDbTrace
10
14.288352
20
18.129167
30
0
11
14.288352
21
19.295833
31
0
12
17.788352
22
18.7125
32
0
13
17.788352
23
18.7125
33
0
39
0
210
0
220
0
230
1
0
SOLID
5
177
100
AcDbEntity
8
0
62
256
6
ByLayer
370
-1
48
1
60
0
100
AcDbTrace
10
36.288352
20
19.295833
30
0
11
36.288352
21
18.129167
31
0
12
32.788352
22
18.7125
32
0
13
32.788352
23
18.7125
33
0
39
0
210
0
220
0
230
1
0
MTEXT
5
178
100
AcDbEntity
8
0
62
256
6
ByLayer
370
18
48
1
60
0
100
AcDbMText
10
25.288352
20
25.7125
30
0
210
0
220
0
230
1
1
\A1;15
40
3.5
41
0
44
1
50
0
71
5
72
5
7
iso_b_vert
0
POINT
5
179
100
AcDbEntity
8
Defpoints
62
0
6
ByLayer
370
-1
48
1
60
0
100
AcDbPoint
10
17.788352
20
-10.3625
30
0
39
0
210
0
220
0
230
1
50
360
0
POINT
5
17A
100
AcDbEntity
8
Defpoints
62
0
6
ByLayer
370
-1
48
1
60
0
100
AcDbPoint
10
32.788352
20
-13.0375
30
0
39
0
210
0
220
0
230
1
50
360
0
POINT
5
17B
100
AcDbEntity
8
Defpoints
62
0
6
ByLayer
370
-1
48
1
60
0
100
AcDbPoint
10
32.788352
20
18.7125
30
0
39
0
210
0
220
0
230
1
50
360
0
ENDBLK
5
171
100
AcDbEntity
8
0
100
AcDbBlockEnd
0
BLOCK
5
183
100
AcDbEntity
8
0
100
AcDbBlockBegin
2
_U3
70
0
10
0
20
0
30
0
3
_U3
0
MTEXT
5
17D
100
AcDbEntity
8
2
62
256
6
ByLayer
370
18
48
1
60
0
100
AcDbMText
10
23.820819
20
19.745134
30
0
210
0
220
0
230
1
1
\W0.5321;15
40
3.5
41
0
44
1.084337
50
0
71
7
72
5
7
iso_b_vert
0
LINE
5
17E
100
AcDbEntity
8
2
62
256
6
ByLayer
370
13
48
1
60
0
100
AcDbLine
10
17.788352
20
-8.775
30
0
11
17.788352
21
20.7125
31
0
39
0
210
0
220
0
230
1
0
LINE
5
17F
100
AcDbEntity
8
2
62
256
6
ByLayer
370
13
48
1
60
0
100
AcDbLine
10
32.788352
20
-11.45
30
0
11
32.788352
21
20.7125
31
0
39
0
210
0
220
0
230
1
0
LINE
5
180
100
AcDbEntity
8
2
62
256
6
ByLayer
370
13
48
1
60
0
100
AcDbLine
10
17.788352
20
18.7125
30
0
11
32.788352
21
18.7125
31
0
39
0
210
0
220
0
230
1
0
SOLID
5
181
100
AcDbEntity
8
2
62
256
6
ByLayer
370
18
48
1
60
0
100
AcDbTrace
10
17.788352
20
18.7125
30
0
11
21.288351
21
19.173284
31
0
12
21.288354
22
18.251716
32
0
13
21.288354
23
18.251716
33
0
39
0
210
0
220
0
230
1
0
SOLID
5
182
100
AcDbEntity
8
2
62
256
6
ByLayer
370
18
48
1
60
0
100
AcDbTrace
10
32.788352
20
18.7125
30
0
11
29.288354
21
18.251716
31
0
12
29.288351
22
19.173284
32
0
13
29.288351
23
19.173284
33
0
39
0
210
0
220
0
230
1
0
ENDBLK
5
184
100
AcDbEntity
8
0
100
AcDbBlockEnd
0
BLOCK
5
189
100
AcDbEntity
8
0
100
AcDbBlockBegin
2
*D9
70
1
10
0
20
0
30
0
3
*D9
0
LINE
5
18B
100
AcDbEntity
8
0
62
256
6
ByLayer
370
-2
48
1
60
0
100
AcDbLine
10
-84
20
14.05
30
0
11
-84
21
36.7125
31
0
39
0
210
0
220
0
230
1
0
LINE
5
18C
100
AcDbEntity
8
0
62
256
6
ByLayer
370
-2
48
1
60
0
100
AcDbLine
10
32.788352
20
-11.45
30
0
11
32.788352
21
36.7125
31
0
39
0
210
0
220
0
230
1
0
LINE
5
18D
100
AcDbEntity
8
0
62
256
6
ByLayer
370
-2
48
1
60
0
100
AcDbLine
10
-80.5
20
34.7125
30
0
11
29.288352
21
34.7125
31
0
39
0
210
0
220
0
230
1
0
SOLID
5
18E
100
AcDbEntity
8
0
62
256
6
ByLayer
370
-1
48
1
60
0
100
AcDbTrace
10
-80.5
20
35.295833
30
0
11
-80.5
21
34.129167
31
0
12
-84
22
34.7125
32
0
13
-84
23
34.7125
33
0
39
0
210
0
220
0
230
1
0
SOLID
5
18F
100
AcDbEntity
8
0
62
256
6
ByLayer
370
-1
48
1
60
0
100
AcDbTrace
10
29.288352
20
34.129167
30
0
11
29.288352
21
35.295833
31
0
12
32.788352
22
34.7125
32
0
13
32.788352
23
34.7125
33
0
39
0
210
0
220
0
230
1
0
MTEXT
5
190
100
AcDbEntity
8
0
62
256
6
ByLayer
370
18
48
1
60
0
100
AcDbMText
10
-25.605824
20
41.7125
30
0
210
0
220
0
230
1
1
\A1;116.8
40
3.5
41
0
44
1
50
0
71
5
72
5
7
iso_b_vert
0
POINT
5
191
100
AcDbEntity
8
Defpoints
62
0
6
ByLayer
370
-1
48
1
60
0
100
AcDbPoint
10
-84
20
12.4625
30
0
39
0
210
0
220
0
230
1
50
360
0
POINT
5
192
100
AcDbEntity
8
Defpoints
62
0
6
ByLayer
370
-1
48
1
60
0
100
AcDbPoint
10
32.788352
20
-13.0375
30
0
39
0
210
0
220
0
230
1
50
360
0
POINT
5
193
100
AcDbEntity
8
Defpoints
62
0
6
ByLayer
370
-1
48
1
60
0
100
AcDbPoint
10
32.788352
20
34.7125
30
0
39
0
210
0
220
0
230
1
50
360
0
ENDBLK
5
18A
100
AcDbEntity
8
0
100
AcDbBlockEnd
0
BLOCK
5
19B
100
AcDbEntity
8
0
100
AcDbBlockBegin
2
_U4
70
0
10
0
20
0
30
0
3
_U4
0
MTEXT
5
195
100
AcDbEntity
8
SK2
62
256
6
ByLayer
370
18
48
1
60
0
100
AcDbMText
10
-29.960389
20
35.745134
30
0
210
0
220
0
230
1
1
\W0.6261;116.8
40
3.5
41
0
44
1.084337
50
0
71
7
72
5
7
iso_b_vert
0
LINE
5
196
100
AcDbEntity
8
SK2
62
256
6
ByLayer
370
13
48
1
60
0
100
AcDbLine
10
-84
20
14.05
30
0
11
-84
21
36.7125
31
0
39
0
210
0
220
0
230
1
0
LINE
5
197
100
AcDbEntity
8
SK2
62
256
6
ByLayer
370
13
48
1
60
0
100
AcDbLine
10
32.788352
20
-11.45
30
0
11
32.788352
21
36.7125
31
0
39
0
210
0
220
0
230
1
0
LINE
5
198
100
AcDbEntity
8
SK2
62
256
6
ByLayer
370
13
48
1
60
0
100
AcDbLine
10
-84
20
34.7125
30
0
11
32.788352
21
34.7125
31
0
39
0
210
0
220
0
230
1
0
SOLID
5
199
100
AcDbEntity
8
SK2
62
256
6
ByLayer
370
18
48
1
60
0
100
AcDbTrace
10
-84
20
34.7125
30
0
11
-80.500002
21
35.173284
31
0
12
-80.499998
22
34.251716
32
0
13
-80.499998
23
34.251716
33
0
39
0
210
0
220
0
230
1
0
SOLID
5
19A
100
AcDbEntity
8
SK2
62
256
6
ByLayer
370
18
48
1
60
0
100
AcDbTrace
10
32.788352
20
34.7125
30
0
11
29.288354
21
34.251716
31
0
12
29.288351
22
35.173284
32
0
13
29.288351
23
35.173284
33
0
39
0
210
0
220
0
230
1
0
ENDBLK
5
19C
100
AcDbEntity
8
0
100
AcDbBlockEnd
0
BLOCK
5
1A1
100
AcDbEntity
8
0
100
AcDbBlockBegin
2
*D11
70
1
10
0
20
0
30
0
3
*D11
0
LINE
5
1A3
100
AcDbEntity
8
0
62
256
6
ByLayer
370
-2
48
1
60
0
100
AcDbLine
10
0
20
14.05
30
0
11
0
21
28.7125
31
0
39
0
210
0
220
0
230
1
0
LINE
5
1A4
100
AcDbEntity
8
0
62
256
6
ByLayer
370
-2
48
1
60
0
100
AcDbLine
10
32.788352
20
-11.45
30
0
11
32.788352
21
28.7125
31
0
39
0
210
0
220
0
230
1
0
LINE
5
1A5
100
AcDbEntity
8
0
62
256
6
ByLayer
370
-2
48
1
60
0
100
AcDbLine
10
3.5
20
26.7125
30
0
11
29.288352
21
26.7125
31
0
39
0
210
0
220
0
230
1
0
SOLID
5
1A6
100
AcDbEntity
8
0
62
256
6
ByLayer
370
-1
48
1
60
0
100
AcDbTrace
10
3.5
20
27.295833
30
0
11
3.5
21
26.129167
31
0
12
0
22
26.7125
32
0
13
0
23
26.7125
33
0
39
0
210
0
220
0
230
1
0
SOLID
5
1A7
100
AcDbEntity
8
0
62
256
6
ByLayer
370
-1
48
1
60
0
100
AcDbTrace
10
29.288352
20
26.129167
30
0
11
29.288352
21
27.295833
31
0
12
32.788352
22
26.7125
32
0
13
32.788352
23
26.7125
33
0
39
0
210
0
220
0
230
1
0
MTEXT
5
1A8
100
AcDbEntity
8
0
62
256
6
ByLayer
370
18
48
1
60
0
100
AcDbMText
10
16.394176
20
33.7125
30
0
210
0
220
0
230
1
1
\A1;32.8
40
3.5
41
0
44
1
50
0
71
5
72
5
7
iso_b_vert
0
POINT
5
1A9
100
AcDbEntity
8
Defpoints
62
0
6
ByLayer
370
-1
48
1
60
0
100
AcDbPoint
10
0
20
12.4625
30
0
39
0
210
0
220
0
230
1
50
360
0
POINT
5
1AA
100
AcDbEntity
8
Defpoints
62
0
6
ByLayer
370
-1
48
1
60
0
100
AcDbPoint
10
32.788352
20
-13.0375
30
0
39
0
210
0
220
0
230
1
50
360
0
POINT
5
1AB
100
AcDbEntity
8
Defpoints
62
0
6
ByLayer
370
-1
48
1
60
0
100
AcDbPoint
10
32.788352
20
26.7125
30
0
39
0
210
0
220
0
230
1
50
360
0
ENDBLK
5
1A2
100
AcDbEntity
8
0
100
AcDbBlockEnd
0
BLOCK
5
1B3
100
AcDbEntity
8
0
100
AcDbBlockBegin
2
_U5
70
0
10
0
20
0
30
0
3
_U5
0
MTEXT
5
1AD
100
AcDbEntity
8
2
62
256
6
ByLayer
370
18
48
1
60
0
100
AcDbMText
10
12.472477
20
27.745134
30
0
210
0
220
0
230
1
1
\W0.7346;32.8
40
3.5
41
0
44
1.084337
50
0
71
7
72
5
7
iso_b_vert
0
LINE
5
1AE
100
AcDbEntity
8
2
62
256
6
ByLayer
370
13
48
1
60
0
100
AcDbLine
10
0
20
14.05
30
0
11
0
21
28.7125
31
0
39
0
210
0
220
0
230
1
0
LINE
5
1AF
100
AcDbEntity
8
2
62
256
6
ByLayer
370
13
48
1
60
0
100
AcDbLine
10
32.788352
20
-11.45
30
0
11
32.788352
21
28.7125
31
0
39
0
210
0
220
0
230
1
0
LINE
5
1B0
100
AcDbEntity
8
2
62
256
6
ByLayer
370
13
48
1
60
0
100
AcDbLine
10
0
20
26.7125
30
0
11
32.788352
21
26.7125
31
0
39
0
210
0
220
0
230
1
0
SOLID
5
1B1
100
AcDbEntity
8
2
62
256
6
ByLayer
370
18
48
1
60
0
100
AcDbTrace
10
0
20
26.7125
30
0
11
3.499998
21
27.173284
31
0
12
3.500002
22
26.251716
32
0
13
3.500002
23
26.251716
33
0
39
0
210
0
220
0
230
1
0
SOLID
5
1B2
100
AcDbEntity
8
2
62
256
6
ByLayer
370
18
48
1
60
0
100
AcDbTrace
10
32.788352
20
26.7125
30
0
11
29.288354
21
26.251716
31
0
12
29.288351
22
27.173284
32
0
13
29.288351
23
27.173284
33
0
39
0
210
0
220
0
230
1
0
ENDBLK
5
1B4
100
AcDbEntity
8
0
100
AcDbBlockEnd
0
BLOCK
5
1B9
100
AcDbEntity
8
0
100
AcDbBlockBegin
2
*D13
70
1
10
0
20
0
30
0
3
*D13
0
LINE
5
1BB
100
AcDbEntity
8
0
62
256
6
ByLayer
370
-2
48
1
60
0
100
AcDbLine
10
-84
20
14.05
30
0
11
-84
21
20.7125
31
0
39
0
210
0
220
0
230
1
0
LINE
5
1BC
100
AcDbEntity
8
0
62
256
6
ByLayer
370
-2
48
1
60
0
100
AcDbLine
10
-81
20
14.05
30
0
11
-81
21
20.7125
31
0
39
0
210
0
220
0
230
1
0
LINE
5
1BD
100
AcDbEntity
8
0
62
256
6
ByLayer
370
-2
48
1
60
0
100
AcDbLine
10
-87.5
20
18.7125
30
0
11
-91
21
18.7125
31
0
39
0
210
0
220
0
230
1
0
LINE
5
1BE
100
AcDbEntity
8
0
62
256
6
ByLayer
370
-2
48
1
60
0
100
AcDbLine
10
-77.5
20
18.7125
30
0
11
-74
21
18.7125
31
0
39
0
210
0
220
0
230
1
0
SOLID
5
1BF
100
AcDbEntity
8
0
62
256
6
ByLayer
370
-1
48
1
60
0
100
AcDbTrace
10
-87.5
20
18.129167
30
0
11
-87.5
21
19.295833
31
0
12
-84
22
18.7125
32
0
13
-84
23
18.7125
33
0
39
0
210
0
220
0
230
1
0
SOLID
5
1C0
100
AcDbEntity
8
0
62
256
6
ByLayer
370
-1
48
1
60
0
100
AcDbTrace
10
-77.5
20
19.295833
30
0
11
-77.5
21
18.129167
31
0
12
-81
22
18.7125
32
0
13
-81
23
18.7125
33
0
39
0
210
0
220
0
230
1
0
MTEXT
5
1C1
100
AcDbEntity
8
0
62
256
6
ByLayer
370
18
48
1
60
0
100
AcDbMText
10
-82.5
20
25.7125
30
0
210
0
220
0
230
1
1
\A1;3
40
3.5
41
0
44
1
50
0
71
5
72
5
7
iso_b_vert
0
POINT
5
1C2
100
AcDbEntity
8
Defpoints
62
0
6
ByLayer
370
-1
48
1
60
0
100
AcDbPoint
10
-84
20
12.4625
30
0
39
0
210
0
220
0
230
1
50
360
0
POINT
5
1C3
100
AcDbEntity
8
Defpoints
62
0
6
ByLayer
370
-1
48
1
60
0
100
AcDbPoint
10
-81
20
12.4625
30
0
39
0
210
0
220
0
230
1
50
360
0
POINT
5
1C4
100
AcDbEntity
8
Defpoints
62
0
6
ByLayer
370
-1
48
1
60
0
100
AcDbPoint
10
-81
20
18.7125
30
0
39
0
210
0
220
0
230
1
50
360
0
ENDBLK
5
1BA
100
AcDbEntity
8
0
100
AcDbBlockEnd
0
BLOCK
5
1CC
100
AcDbEntity
8
0
100
AcDbBlockBegin
2
_U6
70
0
10
0
20
0
30
0
3
_U6
0
MTEXT
5
1C6
100
AcDbEntity
8
SK2
62
256
6
ByLayer
370
18
48
1
60
0
100
AcDbMText
10
-83.097233
20
19.745134
30
0
210
0
220
0
230
1
1
\W0.5404;3
40
3.5
41
0
44
1.084337
50
0
71
7
72
5
7
iso_b_vert
0
LINE
5
1C7
100
AcDbEntity
8
SK2
62
256
6
ByLayer
370
13
48
1
60
0
100
AcDbLine
10
-84
20
14.05
30
0
11
-84
21
20.7125
31
0
39
0
210
0
220
0
230
1
0
LINE
5
1C8
100
AcDbEntity
8
SK2
62
256
6
ByLayer
370
13
48
1
60
0
100
AcDbLine
10
-81
20
14.05
30
0
11
-81
21
20.7125
31
0
39
0
210
0
220
0
230
1
0
LINE
5
1C9
100
AcDbEntity
8
SK2
62
256
6
ByLayer
370
13
48
1
60
0
100
AcDbLine
10
-92.75
20
18.7125
30
0
11
-72.25
21
18.7125
31
0
39
0
210
0
220
0
230
1
0
SOLID
5
1CA
100
AcDbEntity
8
SK2
62
256
6
ByLayer
370
18
48
1
60
0
100
AcDbTrace
10
-84
20
18.7125
30
0
11
-87.499998
21
18.251716
31
0
12
-87.500002
22
19.173284
32
0
13
-87.500002
23
19.173284
33
0
39
0
210
0
220
0
230
1
0
SOLID
5
1CB
100
AcDbEntity
8
SK2
62
256
6
ByLayer
370
18
48
1
60
0
100
AcDbTrace
10
-81
20
18.7125
30
0
11
-77.500002
21
19.173284
31
0
12
-77.499998
22
18.251716
32
0
13
-77.499998
23
18.251716
33
0
39
0
210
0
220
0
230
1
0
ENDBLK
5
1CD
100
AcDbEntity
8
0
100
AcDbBlockEnd
0
ENDSEC
0
SECTION
2
ENTITIES
0
ARC
5
CD
100
AcDbEntity
8
1
62
256
6
ByLayer
370
18
48
1
60
0
100
AcDbCircle
39
0
10
17.788352
20
-8.7625
30
0
40
1.6
210
0
220
0
230
1
100
AcDbArc
50
180
51
199.161319
0
ARC
5
CE
100
AcDbEntity
8
1
62
256
6
ByLayer
370
18
48
1
60
0
100
AcDbCircle
39
0
10
-1.227723
20
-14.0625
30
0
40
1.6
210
0
220
0
230
1
100
AcDbArc
50
38.499635
51
39.885542
0
ARC
5
D0
100
AcDbEntity
8
SK1
62
256
6
ByLayer
370
18
48
1
60
0
100
AcDbCircle
39
0
10
-1.227723
20
-14.0625
30
0
40
1.6
210
0
220
0
230
1
100
AcDbArc
50
39.885542
51
90
0
ARC
5
D1
100
AcDbEntity
8
1
62
256
6
ByLayer
370
18
48
1
60
0
100
AcDbCircle
39
0
10
10.638352
20
-3.7375
30
0
40
1.416
210
0
220
0
230
1
100
AcDbArc
50
96.192438
51
150.190711
0
ARC
5
D2
100
AcDbEntity
8
1
62
256
6
ByLayer
370
18
48
1
60
0
100
AcDbCircle
39
0
10
10.638352
20
-3.7375
30
0
40
1.416
210
0
220
0
230
1
100
AcDbArc
50
209.809289
51
263.807562
0
ARC
5
D3
100
AcDbEntity
8
1
62
256
6
ByLayer
370
18
48
1
60
0
100
AcDbCircle
39
0
10
10.638352
20
-3.7375
30
0
40
1.416
210
0
220
0
230
1
100
AcDbArc
50
276.192438
51
330.190711
0
ARC
5
D4
100
AcDbEntity
8
1
62
256
6
ByLayer
370
18
48
1
60
0
100
AcDbCircle
39
0
10
10.638352
20
-3.7375
30
0
40
1.416
210
0
220
0
230
1
100
AcDbArc
50
330.190711
51
29.809289
0
ARC
5
D5
100
AcDbEntity
8
1
62
256
6
ByLayer
370
18
48
1
60
0
100
AcDbCircle
39
0
10
10.638352
20
-3.7375
30
0
40
1.416
210
0
220
0
230
1
100
AcDbArc
50
29.809289
51
83.807562
0
ARC
5
D6
100
AcDbEntity
8
1
62
256
6
ByLayer
370
18
48
1
60
0
100
AcDbCircle
39
0
10
10.638352
20
-3.7375
30
0
40
1.416
210
0
220
0
230
1
100
AcDbArc
50
150.190711
51
209.809289
0
ARC
5
D7
100
AcDbEntity
8
1
62
256
6
ByLayer
370
18
48
1
60
0
100
AcDbCircle
39
0
10
10.638352
20
-3.7375
30
0
40
1.416
210
0
220
0
230
1
100
AcDbArc
50
263.807562
51
276.192438
0
ARC
5
D8
100
AcDbEntity
8
1
62
256
6
ByLayer
370
18
48
1
60
0
100
AcDbCircle
39
0
10
10.638352
20
-3.7375
30
0
40
1.9685
210
0
220
0
230
1
100
AcDbArc
50
239.618578
51
300.381422
0
ARC
5
DB
100
AcDbEntity
8
1
62
256
6
ByLayer
370
18
48
1
60
0
100
AcDbCircle
39
0
10
10.638352
20
-3.7375
30
0
40
1.9685
210
0
220
0
230
1
100
AcDbArc
50
180
51
239.618578
0
ARC
5
DC
100
AcDbEntity
8
1
62
256
6
ByLayer
370
18
48
1
60
0
100
AcDbCircle
39
0
10
10.638352
20
-3.7375
30
0
40
1.9685
210
0
220
0
230
1
100
AcDbArc
50
0
51
59.618578
0
ARC
5
DD
100
AcDbEntity
8
1
62
256
6
ByLayer
370
18
48
1
60
0
100
AcDbCircle
39
0
10
10.638352
20
-3.7375
30
0
40
1.9685
210
0
220
0
230
1
100
AcDbArc
50
300.381422
51
0
0
ARC
5
DE
100
AcDbEntity
8
1
62
256
6
ByLayer
370
18
48
1
60
0
100
AcDbCircle
39
0
10
10.638352
20
-3.7375
30
0
40
1.9685
210
0
220
0
230
1
100
AcDbArc
50
120.381422
51
180
0
ARC
5
DF
100
AcDbEntity
8
1
62
256
6
ByLayer
370
18
48
1
60
0
100
AcDbCircle
39
0
10
10.638352
20
-3.7375
30
0
40
1.416
210
0
220
0
230
1
100
AcDbArc
50
83.807562
51
96.192438
0
ARC
5
E0
100
AcDbEntity
8
1
62
256
6
ByLayer
370
18
48
1
60
0
100
AcDbCircle
39
0
10
10.638352
20
-3.7375
30
0
40
1.9685
210
0
220
0
230
1
100
AcDbArc
50
59.618578
51
120.381422
0
CIRCLE
5
CF
100
AcDbEntity
8
1
62
256
6
ByLayer
370
18
48
1
60
0
100
AcDbCircle
10
10.638352
20
-3.7375
30
0
40
4.55
39
0
210
0
220
0
230
1
0
CIRCLE
5
D9
100
AcDbEntity
8
1
62
256
6
ByLayer
370
18
48
1
60
0
100
AcDbCircle
10
10.638352
20
-3.7375
30
0
40
4.25
39
0
210
0
220
0
230
1
0
CIRCLE
5
DA
100
AcDbEntity
8
1
62
256
6
ByLayer
370
18
48
1
60
0
100
AcDbCircle
10
10.638352
20
-3.7375
30
0
40
3.75
39
0
210
0
220
0
230
1
0
ELLIPSE
5
E1
100
AcDbEntity
8
1
62
256
6
ByLayer
370
18
48
1
60
0
100
AcDbEllipse
10
24.786544
20
-11.595755
30
0
11
0.785165355129512
21
0.0109691216297119
31
0
210
0
220
0
230
1
40
0.764075
41
0
42
6.28318530717959
0
ELLIPSE
5
E2
100
AcDbEntity
8
1
62
256
6
ByLayer
370
18
48
1
60
0
100
AcDbEllipse
10
27.543307
20
-90.237499
30
0
11
87.31165325126
21
1.02281704591758E-13
31
0
210
0
220
0
230
1
40
0.887911
41
1.58836801387971
42
1.62241550674158
0
ELLIPSE
5
E3
100
AcDbEntity
8
1
62
256
6
ByLayer
370
18
48
1
60
0
100
AcDbEllipse
10
27.543307
20
-78.037499
30
0
11
76.2182019170503
21
8.92862215145626E-14
31
0
210
0
220
0
230
1
40
0.887911
41
1.59079229385363
42
1.62993681762826
0
ELLIPSE
5
E4
100
AcDbEntity
8
1
62
256
6
ByLayer
370
18
48
1
60
0
100
AcDbEllipse
10
-1674.593667
20
-77.991435
30
0
11
5473.86274766208
21
22.2954443826415
31
0
210
0
220
0
230
1
40
0.011664
41
1.25484174713774
42
1.25642331438732
0
ELLIPSE
5
E5
100
AcDbEntity
8
1
62
256
6
ByLayer
370
18
48
1
60
0
100
AcDbEllipse
10
28.750944
20
-90.237499
30
0
11
110.717173249093
21
1.29700226554063E-13
31
0
210
0
220
0
230
1
40
0.700208
41
1.62241550701892
42
1.66639495495511
0
ELLIPSE
5
E6
100
AcDbEntity
8
1
62
256
6
ByLayer
370
18
48
1
60
0
100
AcDbEllipse
10
28.750944
20
-78.037499
30
0
11
96.6499159631921
21
1.13221062541531E-13
31
0
210
0
220
0
230
1
40
0.700208
41
1.62993681736743
42
1.6844667363927
0
ELLIPSE
5
E7
100
AcDbEntity
8
1
62
256
6
ByLayer
370
18
48
1
60
0
100
AcDbEllipse
10
18.115868
20
-10.3625
30
0
11
-2.78951487299375
21
3.41605763755017E-16
31
0
210
0
220
0
230
1
40
0.573576
41
-0.807944194197958
42
0
0
ELLIPSE
5
E8
100
AcDbEntity
8
1
62
256
6
ByLayer
370
18
48
1
60
0
100
AcDbEllipse
10
36.547751
20
-90.2375
30
0
11
4.74688037903925E-15
21
77.5250000005758
31
0
210
0
220
0
230
1
40
0.501253
41
0.117600774855058
42
0.386369768036718
0
ELLIPSE
5
E9
100
AcDbEntity
8
1
62
256
6
ByLayer
370
18
48
1
60
0
100
AcDbEllipse
10
29.016413
20
-9.5875
30
0
11
0.897993681837129
21
1.05195951594932E-15
31
0
210
0
220
0
230
1
40
0.890875
41
-1.5707963267949
42
-1.29515256585838
0
ELLIPSE
5
EA
100
AcDbEntity
8
1
62
256
6
ByLayer
370
18
48
1
60
0
100
AcDbEllipse
10
27.411532
20
-10.512062
30
0
11
0.850692272933257
21
9.96548026736564E-16
31
0
210
0
220
0
230
1
40
0.176327
41
3.14159265358979
42
-2.80561677258003
0
ELLIPSE
5
EB
100
AcDbEntity
8
1
62
256
6
ByLayer
370
18
48
1
60
0
100
AcDbEllipse
10
28.883359
20
-11.103564
30
0
11
1.13425636391714
21
1.3287307023226E-15
31
0
210
0
220
0
230
1
40
0.176327
41
-2.80561677258041
42
-1.98717825108414
0
ELLIPSE
5
EC
100
AcDbEntity
8
1
62
256
6
ByLayer
370
18
48
1
60
0
100
AcDbEllipse
10
33.012151
20
-9.457359
30
0
11
11.3425635765498
21
-7.04177187635794E-09
31
0
210
0
220
0
230
1
40
0.176327
41
-1.98717824938034
42
-1.91986217516586
0
ELLIPSE
5
ED
100
AcDbEntity
8
1
62
256
6
ByLayer
370
18
48
1
60
0
100
AcDbEllipse
10
28.778723
20
-11.5375
30
0
11
1.19096918211278
21
1.39516723743848E-15
31
0
210
0
220
0
230
1
40
0.176327
41
0
42
1.22173047639586
0
ELLIPSE
5
EE
100
AcDbEntity
8
1
62
256
6
ByLayer
370
18
48
1
60
0
100
AcDbEllipse
10
28.778723
20
-11.5375
30
0
11
1.19096918211278
21
1.39516723743847E-15
31
0
210
0
220
0
230
1
40
0.176327
41
-1.22173047639587
42
0
0
ELLIPSE
5
EF
100
AcDbEntity
8
1
62
256
6
ByLayer
370
18
48
1
60
0
100
AcDbEllipse
10
33.012151
20
-13.617641
30
0
11
11.3425635455121
21
1.04861884635035E-08
31
0
210
0
220
0
230
1
40
0.176327
41
1.91986217419339
42
1.98717824856942
0
ELLIPSE
5
F0
100
AcDbEntity
8
1
62
256
6
ByLayer
370
18
48
1
60
0
100
AcDbEllipse
10
28.883359
20
-11.971436
30
0
11
1.13425636391329
21
1.32873070231809E-15
31
0
210
0
220
0
230
1
40
0.176327
41
1.9871782510828
42
2.80561677258174
0
ELLIPSE
5
F1
100
AcDbEntity
8
1
62
256
6
ByLayer
370
18
48
1
60
0
100
AcDbEllipse
10
27.411532
20
-12.562938
30
0
11
0.850692272999573
21
9.9654802681425E-16
31
0
210
0
220
0
230
1
40
0.176327
41
2.80561677259332
42
3.14159265358979
0
ELLIPSE
5
F2
100
AcDbEntity
8
1
62
256
6
ByLayer
370
18
48
1
60
0
100
AcDbEllipse
10
29.016413
20
-13.4875
30
0
11
0.897993681837079
21
1.05195951594926E-15
31
0
210
0
220
0
230
1
40
0.890875
41
1.29515256585839
42
1.5707963267949
0
ELLIPSE
5
F3
100
AcDbEntity
8
1
62
256
6
ByLayer
370
18
48
1
60
0
100
AcDbEllipse
10
28.35985
20
-10.7875
30
0
11
-2.3287088041805E-17
21
-0.126773189709051
31
0
210
0
220
0
230
1
40
0.984808
41
0
42
6.28318530717959
0
POINT
5
70
100
AcDbEntity
8
81
62
256
6
ByLayer
370
18
48
1
60
0
100
AcDbPoint
10
32.788352
20
-13.0375
30
0
39
0
210
0
220
0
230
1
50
360
0
POINT
5
72
100
AcDbEntity
8
80
62
256
6
ByLayer
370
18
48
1
60
0
100
AcDbPoint
10
0
20
0
30
0
39
0
210
0
220
0
230
1
50
360
0
POINT
5
74
100
AcDbEntity
8
1
62
256
6
ByLayer
370
18
48
1
60
1
100
AcDbPoint
10
32.788352
20
-13.0375
30
0
39
0
210
0
220
0
230
1
50
360
0
POINT
5
76
100
AcDbEntity
8
1
62
256
6
ByLayer
370
18
48
1
60
1
100
AcDbPoint
10
0
20
12.4625
30
0
39
0
210
0
220
0
230
1
50
360
0
POINT
5
77
100
AcDbEntity
8
1
62
256
6
ByLayer
370
18
48
1
60
1
100
AcDbPoint
10
32.788352
20
-10.0375
30
0
39
0
210
0
220
0
230
1
50
360
0
POINT
5
78
100
AcDbEntity
8
1
62
256
6
ByLayer
370
18
48
1
60
1
100
AcDbPoint
10
32.788352
20
-13.0375
30
0
39
0
210
0
220
0
230
1
50
360
0
POINT
5
79
100
AcDbEntity
8
1
62
256
6
ByLayer
370
18
48
1
60
1
100
AcDbPoint
10
0
20
12.4625
30
0
39
0
210
0
220
0
230
1
50
360
0
POINT
5
7A
100
AcDbEntity
8
1
62
256
6
ByLayer
370
18
48
1
60
1
100
AcDbPoint
10
0
20
-12.5375
30
0
39
0
210
0
220
0
230
1
50
360
0
POINT
5
7B
100
AcDbEntity
8
1
62
256
6
ByLayer
370
18
48
1
60
1
100
AcDbPoint
10
17.788352
20
-10.3625
30
0
39
0
210
0
220
0
230
1
50
360
0
POINT
5
7C
100
AcDbEntity
8
1
62
256
6
ByLayer
370
18
48
1
60
1
100
AcDbPoint
10
32.788352
20
-13.0375
30
0
39
0
210
0
220
0
230
1
50
360
0
POINT
5
7D
100
AcDbEntity
8
1
62
256
6
ByLayer
370
18
48
1
60
1
100
AcDbPoint
10
-84
20
12.4625
30
0
39
0
210
0
220
0
230
1
50
360
0
POINT
5
7E
100
AcDbEntity
8
1
62
256
6
ByLayer
370
18
48
1
60
1
100
AcDbPoint
10
32.788352
20
-13.0375
30
0
39
0
210
0
220
0
230
1
50
360
0
POINT
5
7F
100
AcDbEntity
8
1
62
256
6
ByLayer
370
18
48
1
60
1
100
AcDbPoint
10
0
20
12.4625
30
0
39
0
210
0
220
0
230
1
50
360
0
POINT
5
80
100
AcDbEntity
8
1
62
256
6
ByLayer
370
18
48
1
60
1
100
AcDbPoint
10
32.788352
20
-13.0375
30
0
39
0
210
0
220
0
230
1
50
360
0
POINT
5
81
100
AcDbEntity
8
1
62
256
6
ByLayer
370
18
48
1
60
1
100
AcDbPoint
10
-84
20
12.4625
30
0
39
0
210
0
220
0
230
1
50
360
0
POINT
5
82
100
AcDbEntity
8
1
62
256
6
ByLayer
370
18
48
1
60
1
100
AcDbPoint
10
-81
20
12.4625
30
0
39
0
210
0
220
0
230
1
50
360
0
SPLINE
5
F4
100
AcDbEntity
8
1
62
256
6
ByLayer
370
18
48
1
60
0
100
AcDbSpline
70
4
71
3
72
16
73
12
40
0
40
0
40
0
40
0
40
0.124999999999996
40
0.124999999999996
40
0.249999999999992
40
0.249999999999992
40
0.499999999999995
40
0.499999999999995
40
0.749999999999997
40
0.749999999999997
40
1
40
1
40
1
40
1
41
1
10
26.0454600101179
20
-12.6335731915413
30
0
41
1
10
26.0591167423712
20
-12.5993646247184
30
0
41
1
10
26.0723725399685
20
-12.5648612389006
30
0
41
1
10
26.0982585519517
20
-12.4955624624329
30
0
41
1
10
26.1108967568561
20
-12.4607417535062
30
0
41
1
10
26.1481266202246
20
-12.3558947459639
30
0
41
1
10
26.1720456742493
20
-12.2854903940427
30
0
41
1
10
26.2187811941253
20
-12.1440619543212
30
0
41
1
10
26.2415886356545
20
-12.0730327941862
30
0
41
1
10
26.2864551273491
20
-11.9305538227691
30
0
41
1
10
26.3085107157866
20
-11.8591020657407
30
0
41
1
10
26.3302988860964
20
-11.7875
30
0
0
SPLINE
5
F5
100
AcDbEntity
8
1
62
256
6
ByLayer
370
18
48
1
60
0
100
AcDbSpline
70
4
71
3
72
8
73
4
40
0
40
0
40
0
40
0
40
1
40
1
40
1
40
1
41
1
10
26.3302988860964
20
-11.7875
30
0
41
1
10
26.3739739969422
20
-11.7672517506626
30
0
41
1
10
26.4175162073193
20
-11.7464847646735
30
0
41
1
10
26.4609767441806
20
-11.7253989908995
30
0
0
SPLINE
5
F6
100
AcDbEntity
8
1
62
256
6
ByLayer
370
18
48
1
60
0
100
AcDbSpline
70
4
71
3
72
19
73
15
40
0
40
0
40
0
40
0
40
0.125000000000005
40
0.125000000000005
40
0.250000000000009
40
0.375000000000013
40
0.375000000000013
40
0.500000000000018
40
0.500000000000018
40
0.625000000000023
40
0.625000000000023
40
0.750000000000027
40
0.750000000000027
40
1
40
1
40
1
40
1
41
1
10
26.538352336592
20
-11.586318961053
30
0
41
1
10
26.538352336592
20
-11.5940985941005
30
0
41
1
10
26.5378590122932
20
-11.6018363186579
30
0
41
1
10
26.5358991056254
20
-11.61715781556
30
0
41
1
10
26.533007430288
20
-11.6320277725979
30
0
41
1
10
26.5283696208998
20
-11.6460515441411
30
0
41
1
10
26.5228526715267
20
-11.6596492799498
30
0
41
1
10
26.5196750121841
20
-11.6661622403725
30
0
41
1
10
26.5127037624904
20
-11.6783066617522
30
0
41
1
10
26.5088875457702
20
-11.6839949472276
30
0
41
1
10
26.5006156705274
20
-11.6946289172532
30
0
41
1
10
26.4961186925057
20
-11.6996088001609
30
0
41
1
10
26.4820474218026
20
-11.7130435699436
30
0
41
1
10
26.4718807655417
20
-11.7201086805571
30
0
41
1
10
26.4609767441806
20
-11.7253989908995
30
0
0
SPLINE
5
F7
100
AcDbEntity
8
1
62
256
6
ByLayer
370
18
48
1
60
0
100
AcDbSpline
70
4
71
3
72
18
73
14
40
0
40
0
40
0
40
0
40
0.124999999999989
40
0.124999999999989
40
0.249999999999978
40
0.249999999999978
40
0.374999999999967
40
0.374999999999967
40
0.499999999999956
40
0.499999999999956
40
0.749999999999978
40
0.749999999999978
40
1
40
1
40
1
40
1
41
1
10
26.4609767441809
20
-11.3496010091007
30
0
41
1
10
26.4664241263497
20
-11.3522439186542
30
0
41
1
10
26.4716992291491
20
-11.3553434237684
30
0
41
1
10
26.4818982314637
20
-11.3624732352944
30
0
41
1
10
26.4868482250475
20
-11.3665289494196
30
0
41
1
10
26.4962429713809
20
-11.3755212622868
30
0
41
1
10
26.5006599071028
20
-11.3804230093714
30
0
41
1
10
26.5089216777941
20
-11.3910539205672
30
0
41
1
10
26.5127801602249
20
-11.3968062141819
30
0
41
1
10
26.5233373138467
20
-11.4152591432077
30
0
41
1
10
26.5288287654431
20
-11.4287452201588
30
0
41
1
10
26.53642721103
20
-11.4580609505215
30
0
41
1
10
26.538352336587
20
-11.4731496910684
30
0
41
1
10
26.538352336587
20
-11.4886810389476
30
0
0
SPLINE
5
F8
100
AcDbEntity
8
1
62
256
6
ByLayer
370
18
48
1
60
0
100
AcDbSpline
70
4
71
3
72
8
73
4
40
0
40
0
40
0
40
0
40
1
40
1
40
1
40
1
41
1
10
26.3302988860964
20
-11.2875
30
0
41
1
10
26.3739798199992
20
-11.3077509489691
30
0
41
1
10
26.4175211462926
20
-11.3285176315711
30
0
41
1
10
26.4609767441809
20
-11.3496010091007
30
0
0
SPLINE
5
F9
100
AcDbEntity
8
1
62
256
6
ByLayer
370
18
48
1
60
0
100
AcDbSpline
70
4
71
3
72
16
73
12
40
0
40
0
40
0
40
0
40
0.124999999999996
40
0.124999999999996
40
0.249999999999992
40
0.249999999999992
40
0.499999999999995
40
0.499999999999995
40
0.749999999999997
40
0.749999999999997
40
1
40
1
40
1
40
1
41
1
10
26.045460010118
20
-10.4414268084585
30
0
41
1
10
26.0590911576715
20
-10.4755712885076
30
0
41
1
10
26.0723392938854
20
-10.5100512864805
30
0
41
1
10
26.0982323618161
20
-10.5793659005176
30
0
41
1
10
26.1108734920579
20
-10.6141935973554
30
0
41
1
10
26.1481109483037
20
-10.7190593821291
30
0
41
1
10
26.1720335184625
20
-10.7894733696624
30
0
41
1
10
26.2187745372901
20
-10.930917352481
30
0
41
1
10
26.2415839303078
20
-11.0019524000647
30
0
41
1
10
26.2864533989535
20
-11.1444405518726
30
0
41
1
10
26.3085100032883
20
-11.215895592789
30
0
41
1
10
26.3302988860964
20
-11.2875
30
0
0
SPLINE
5
FA
100
AcDbEntity
8
1
62
256
6
ByLayer
370
18
48
1
60
0
100
AcDbSpline
70
4
71
3
72
30
73
26
40
0
40
0
40
0
40
0
40
0.125000000000003
40
0.125000000000003
40
0.156250000000003
40
0.156250000000003
40
0.187500000000003
40
0.187500000000003
40
0.250000000000004
40
0.250000000000004
40
0.375000000000004
40
0.375000000000004
40
0.437500000000005
40
0.437500000000005
40
0.500000000000006
40
0.500000000000006
40
0.625000000000006
40
0.625000000000006
40
0.687500000000006
40
0.687500000000006
40
0.750000000000005
40
0.750000000000005
40
0.875000000000002
40
0.875000000000002
40
1
40
1
40
1
40
1
41
1
10
17.7883523365868
20
-10.3782530034277
30
0
41
1
10
17.7022389883285
20
-10.3782771486583
30
0
41
1
10
17.616975035867
20
-10.3714441234156
30
0
41
1
10
17.5114353327306
20
-10.3545050072049
30
0
41
1
10
17.4903797215829
20
-10.3506947281848
30
0
41
1
10
17.4483738897389
20
-10.3422233532523
30
0
41
1
10
17.4274235929038
20
-10.3375598634385
30
0
41
1
10
17.3652401063265
20
-10.3224158573361
30
0
41
1
10
17.3244996640371
20
-10.3107511834226
30
0
41
1
10
17.2043504581326
20
-10.2712124139874
30
0
41
1
10
17.1270014503427
20
-10.2388206910187
30
0
41
1
10
17.0150521447849
20
-10.1812972195066
30
0
41
1
10
16.9784178798504
20
-10.1606265365834
30
0
41
1
10
16.9065438513462
20
-10.116226634592
30
0
41
1
10
16.8717987735949
20
-10.0928022023777
30
0
41
1
10
16.7710785618387
20
-10.0190749588706
30
0
41
1
10
16.7085547398366
20
-9.96531153705953
30
0
41
1
10
16.6214820101321
20
-9.87796946074567
30
0
41
1
10
16.5935818491466
20
-9.8477340422312
30
0
41
1
10
16.5400546560798
20
-9.78499551436644
30
0
41
1
10
16.5143521694608
20
-9.7523715551651
30
0
41
1
10
16.4418981219613
20
-9.65267222291715
30
0
41
1
10
16.3993956651317
20
-9.58340635749079
30
0
41
1
10
16.3254989761394
20
-9.4395129406258
30
0
41
1
10
16.2941057956974
20
-9.36488488154569
30
0
41
1
10
16.2684241401832
20
-9.28749999999999
30
0
0
SPLINE
5
FB
100
AcDbEntity
8
1
62
256
6
ByLayer
370
18
48
1
60
0
100
AcDbSpline
70
4
71
3
72
9
73
5
40
0
40
0
40
0
40
0
40
0.5
40
1
40
1
40
1
40
1
41
1
10
16.2760305507393
20
-9.28750000000002
30
0
41
1
10
16.2772669775758
20
-9.28750000000002
30
0
41
1
10
16.2772026064936
20
-9.28750000000002
30
0
41
1
10
16.2720736254556
20
-9.28750000000002
30
0
41
1
10
16.2684241401832
20
-9.28750000000002
30
0
0
SPLINE
5
FC
100
AcDbEntity
8
1
62
256
6
ByLayer
370
18
48
1
60
0
100
AcDbSpline
70
4
71
3
72
21
73
17
40
0
40
0
40
0
40
0
40
0.0625000000000048
40
0.0625000000000048
40
0.12500000000001
40
0.12500000000001
40
0.250000000000013
40
0.250000000000013
40
0.500000000000019
40
0.500000000000019
40
0.562500000000015
40
0.562500000000015
40
0.625000000000011
40
0.75000000000001
40
0.75000000000001
40
1
40
1
40
1
40
1
41
1
10
16.188352336587
20
-9.37751308909654
30
0
41
1
10
16.1883523365871
20
-9.39728237399194
30
0
41
1
10
16.1888117445007
20
-9.41740315042287
30
0
41
1
10
16.1907079954117
20
-9.45810768364467
30
0
41
1
10
16.1921408542772
20
-9.47863730002436
30
0
41
1
10
16.1979438667559
20
-9.54068080158368
30
0
41
1
10
16.203818295702
20
-9.58264871554161
30
0
41
1
10
16.2278548817162
20
-9.70978577579612
30
0
41
1
10
16.252413917072
20
-9.79619840398672
30
0
41
1
10
16.2952308068166
20
-9.90435615057706
30
0
41
1
10
16.3044165246687
20
-9.92602043866677
30
0
41
1
10
16.3238315708611
20
-9.96886864668406
30
0
41
1
10
16.3545774759978
20
-10.0325788284313
30
0
41
1
10
16.3901424009521
20
-10.094414573649
30
0
41
1
10
16.4675972203828
20
-10.2150789604484
30
0
41
1
10
16.527657187107
20
-10.2915310960756
30
0
41
1
10
16.5960081123817
20
-10.3624999999942
30
0
0
SPLINE
5
FD
100
AcDbEntity
8
1
62
256
6
ByLayer
370
18
48
1
60
0
100
AcDbSpline
70
4
71
3
72
24
73
20
40
0
40
0
40
0
40
0
40
0.124999999999998
40
0.124999999999998
40
0.187499999999994
40
0.187499999999994
40
0.249999999999991
40
0.249999999999991
40
0.499999999999979
40
0.499999999999979
40
0.562499999999978
40
0.562499999999978
40
0.624999999999977
40
0.624999999999977
40
0.749999999999985
40
0.749999999999985
40
0.874999999999992
40
0.874999999999992
40
1
40
1
40
1
40
1
41
1
10
17.788352336587
20
-10.7992424837068
30
0
41
1
10
17.73515466985
20
-10.8034949702727
30
0
41
1
10
17.681910468239
20
-10.8051190137676
30
0
41
1
10
17.6019728769183
20
-10.8035284467107
30
0
41
1
10
17.575315109304
20
-10.8023258895261
30
0
41
1
10
17.5219752310442
20
-10.798545800517
30
0
41
1
10
17.4953030259283
20
-10.7959661112638
30
0
41
1
10
17.3627526643855
20
-10.779665929178
30
0
41
1
10
17.2585949095662
20
-10.755818922918
30
0
41
1
10
17.1309545134532
20
-10.7113326362471
30
0
41
1
10
17.1055556252188
20
-10.7016937462563
30
0
41
1
10
17.0550273804097
20
-10.6808686951879
30
0
41
1
10
17.0298341168025
20
-10.6696499893192
30
0
41
1
10
16.9553167878229
20
-10.633866971548
30
0
41
1
10
16.9069819661888
20
-10.6071736324809
30
0
41
1
10
16.8130982852097
20
-10.5479014715672
30
0
41
1
10
16.767548499167
20
-10.5153246074153
30
0
41
1
10
16.6794438280657
20
-10.4438440030314
30
0
41
1
10
16.6368869161598
20
-10.4049445446143
30
0
41
1
10
16.59600811238
20
-10.3624999999924
30
0
0
SPLINE
5
FE
100
AcDbEntity
8
1
62
256
6
ByLayer
370
18
48
1
60
0
100
AcDbSpline
70
4
71
3
72
10
73
6
40
0
40
0
40
0
40
0
40
0.465535361152638
40
0.465535361152638
40
1
40
1
40
1
40
1
41
1
10
0.0243578840388068
20
-13.0663644636738
30
0
41
1
10
0.0790316951467105
20
-13.1350993184655
30
0
41
1
10
0.132403897123822
20
-13.2138337128837
30
0
41
1
10
0.235334831769762
20
-13.4045644401165
30
0
41
1
10
0.283291509576486
20
-13.5197583070923
30
0
41
1
10
0.317758141296196
20
-13.648389527836
30
0
0
SPLINE
5
FF
100
AcDbEntity
8
1
62
256
6
ByLayer
370
18
48
1
60
0
100
AcDbSpline
70
4
71
2
72
6
73
3
40
0
40
0
40
0
40
1
40
1
40
1
41
0.500000036239209
10
27.6052277675965
20
-12.855185905772
30
0
41
0.499999963760791
10
27.1459807893453
20
-12.8567379295171
30
0
41
0.500000036239209
10
26.686861078626
20
-12.858306819052
30
0
0
SPLINE
5
100
100
AcDbEntity
8
1
62
256
6
ByLayer
370
18
48
1
60
0
100
AcDbSpline
70
4
71
2
72
6
73
3
40
0
40
0
40
0
40
1
40
1
40
1
41
1.03186391735993
10
32.5883423346377
20
-10.0343486475742
30
0
41
0.729637973226922
10
32.7883423346376
20
-10.0343486475742
30
0
41
1.03186391735993
10
32.7883423346376
20
-10.2343486475742
30
0
0
SPLINE
5
101
100
AcDbEntity
8
1
62
256
6
ByLayer
370
18
48
1
60
0
100
AcDbSpline
70
4
71
2
72
6
73
3
40
0
40
0
40
0
40
1
40
1
40
1
41
1.03186391735993
10
32.5883423346377
20
-13.0406513524259
30
0
41
1.03138264657361
10
32.4661312814433
20
-13.0406513524259
30
0
41
1.03186391735993
10
32.3441481764982
20
-13.0331905461133
30
0
0
SPLINE
5
102
100
AcDbEntity
8
1
62
256
6
ByLayer
370
18
48
1
60
0
100
AcDbSpline
70
4
71
2
72
6
73
3
40
0
40
0
40
0
40
1
40
1
40
1
41
1.03186391735993
10
32.7883423346376
20
-12.8406513524258
30
0
41
0.729637973226922
10
32.7883423346376
20
-13.0406513524259
30
0
41
1.03186391735993
10
32.5883423346377
20
-13.0406513524259
30
0
0
SPLINE
5
103
100
AcDbEntity
8
1
62
256
6
ByLayer
370
18
48
1
60
0
100
AcDbSpline
70
4
71
2
72
6
73
3
40
0
40
0
40
0
40
1
40
1
40
1
41
1.03186391735993
10
32.3441481764982
20
-10.0418094538867
30
0
41
1.03138264657361
10
32.4661312814433
20
-10.0343486475742
30
0
41
1.03186391735993
10
32.5883423346377
20
-10.0343486475742
30
0
0
SPLINE
5
104
100
AcDbEntity
8
1
62
256
6
ByLayer
370
18
48
1
60
0
100
AcDbSpline
70
4
71
3
72
8
73
4
40
0
40
0
40
0
40
0
40
1
40
1
40
1
40
1
41
1
10
30.2080217529783
20
-10.118625024782
30
0
41
1
10
30.2208172061491
20
-10.1154008471108
30
0
41
1
10
30.2339134786688
20
-10.11349959762
30
0
41
1
10
30.247085347364
20
-10.1129385382393
30
0
0
SPLINE
5
105
100
AcDbEntity
8
1
62
256
6
ByLayer
370
18
48
1
60
0
100
AcDbSpline
70
4
71
3
72
8
73
4
40
0
40
0
40
0
40
0
40
1
40
1
40
1
40
1
41
1
10
30.247085347371
20
-12.962061461761
30
0
41
1
10
30.2339134636189
20
-12.9615004017392
30
0
41
1
10
30.2208172209433
20
-12.9595991566169
30
0
41
1
10
30.2080217529806
20
-12.9563749752186
30
0
0
SPLINE
5
106
100
AcDbEntity
8
SK1
62
256
6
ByLayer
370
18
48
1
60
0
100
AcDbSpline
70
4
71
3
72
26
73
22
40
0
40
0
40
0
40
0
40
0.125000000000003
40
0.125000000000003
40
0.250000000000005
40
0.250000000000005
40
0.312500000000005
40
0.312500000000005
40
0.375000000000005
40
0.375000000000005
40
0.500000000000008
40
0.500000000000008
40
0.562500000000008
40
0.562500000000008
40
0.625000000000007
40
0.625000000000007
40
0.750000000000004
40
0.750000000000004
40
0.875000000000002
40
0.875000000000002
40
1
40
1
40
1
40
1
41
1
10
-7.16189500386224
20
12.4625
30
0
41
1
10
-7.10921215962
20
12.4068527877143
30
0
41
1
10
-7.05463208656749
20
12.3571656382884
30
0
41
1
10
-6.94328374837295
20
12.268167920665
30
0
41
1
10
-6.88650825648315
20
12.2288676713168
30
0
41
1
10
-6.80072441251545
20
12.1768743527075
30
0
41
1
10
-6.77196865458387
20
12.1606840953904
30
0
41
1
10
-6.71531692963697
20
12.1309466044708
30
0
41
1
10
-6.68731011156768
20
12.117326970533
30
0
41
1
10
-6.60439717362573
20
12.0798047667303
30
0
41
1
10
-6.55060091039087
20
12.0592271426089
30
0
41
1
10
-6.47265602100794
20
12.0336625503743
30
0
41
1
10
-6.4471318994147
20
12.0260280126151
30
0
41
1
10
-6.3970816855263
20
12.012338963684
30
0
41
1
10
-6.3725145897416
20
12.0062781962711
30
0
41
1
10
-6.3011908983876
20
11.9903493295442
30
0
41
1
10
-6.25655504467207
20
11.982641858504
30
0
41
1
10
-6.17312158274521
20
11.9713365402054
30
0
41
1
10
-6.13432357705489
20
11.9677442524973
30
0
41
1
10
-6.0626623160795
20
11.9633245400553
30
0
41
1
10
-6.02979849161389
20
11.9625
30
0
41
1
10
-6
20
11.9625
30
0
0
SPLINE
5
107
100
AcDbEntity
8
1
62
256
6
ByLayer
370
18
48
1
60
0
100
AcDbSpline
70
4
71
3
72
24
73
20
40
0
40
0
40
0
40
0
40
0.250000000000015
40
0.250000000000015
40
0.31250000000001
40
0.31250000000001
40
0.375000000000004
40
0.375000000000004
40
0.499999999999997
40
0.499999999999997
40
0.624999999999989
40
0.624999999999989
40
0.749999999999982
40
0.749999999999982
40
0.812499999999983
40
0.812499999999983
40
0.874999999999985
40
0.874999999999985
40
1
40
1
40
1
40
1
41
1
10
11.2304700407542
20
-5.38108262808876
30
0
41
1
10
11.2544273509099
20
-5.40571415237358
30
0
41
1
10
11.2819364650664
20
-5.4264846413071
30
0
41
1
10
11.3210855919958
20
-5.44710285142733
30
0
41
1
10
11.3291883957359
20
-5.45096298446998
30
0
41
1
10
11.345613838774
20
-5.45797913939876
30
0
41
1
10
11.3539634597686
20
-5.46115209639126
30
0
41
1
10
11.379421863034
20
-5.46965862463142
30
0
41
1
10
11.3969372316665
20
-5.47398729490311
30
0
41
1
10
11.4331134141606
20
-5.47976047800438
30
0
41
1
10
11.4519523946451
20
-5.48118150345837
30
0
41
1
10
11.4893066768308
20
-5.48077407382692
30
0
41
1
10
11.5079613024688
20
-5.47899634461305
30
0
41
1
10
11.5359014160238
20
-5.47386958926609
30
0
41
1
10
11.5452078017597
20
-5.47174854955514
30
0
41
1
10
11.5638049654686
20
-5.46663594129575
30
0
41
1
10
11.5730048927997
20
-5.46366576349769
30
0
41
1
10
11.5999905854067
20
-5.45363573668988
30
0
41
1
10
11.617303179161
20
-5.44542825702533
30
0
41
1
10
11.6339292261822
20
-5.43568105833978
30
0
0
SPLINE
5
108
100
AcDbEntity
8
1
62
256
6
ByLayer
370
18
48
1
60
0
100
AcDbSpline
70
4
71
3
72
24
73
20
40
0
40
0
40
0
40
0
40
0.125000000000006
40
0.125000000000006
40
0.187500000000008
40
0.187500000000008
40
0.25000000000001
40
0.25000000000001
40
0.375000000000004
40
0.375000000000004
40
0.499999999999998
40
0.499999999999998
40
0.624999999999992
40
0.624999999999992
40
0.687499999999987
40
0.687499999999987
40
0.749999999999982
40
0.749999999999982
40
1
40
1
40
1
40
1
41
1
10
9.64277544699183
20
-5.43568105833978
30
0
41
1
10
9.65940149401305
20
-5.44542825702533
30
0
41
1
10
9.67671408776735
20
-5.45363573668988
30
0
41
1
10
9.70369978037431
20
-5.46366576349769
30
0
41
1
10
9.71289970770545
20
-5.46663594129575
30
0
41
1
10
9.73149687141435
20
-5.47174854955514
30
0
41
1
10
9.74080325715022
20
-5.47386958926609
30
0
41
1
10
9.76874337070521
20
-5.47899634461305
30
0
41
1
10
9.7873979963432
20
-5.48077407382692
30
0
41
1
10
9.82475227852891
20
-5.48118150345837
30
0
41
1
10
9.84359125901338
20
-5.47976047800441
30
0
41
1
10
9.87976744150751
20
-5.47398729490311
30
0
41
1
10
9.89728281013998
20
-5.46965862463142
30
0
41
1
10
9.92274121340543
20
-5.46115209639126
30
0
41
1
10
9.93109083440004
20
-5.45797913939876
30
0
41
1
10
9.94751627743815
20
-5.45096298446998
30
0
41
1
10
9.95561908117824
20
-5.44710285142733
30
0
41
1
10
9.99476820810756
20
-5.4264846413071
30
0
41
1
10
10.0222773222641
20
-5.40571415237355
30
0
41
1
10
10.0462346324198
20
-5.38108262808876
30
0
0
SPLINE
5
109
100
AcDbEntity
8
1
62
256
6
ByLayer
370
18
48
1
60
0
100
AcDbSpline
70
4
71
3
72
18
73
14
40
0
40
0
40
0
40
0
40
0.249999999999999
40
0.249999999999999
40
0.375000000000012
40
0.375000000000012
40
0.437500000000018
40
0.437500000000018
40
0.500000000000024
40
0.500000000000024
40
0.750000000000012
40
0.750000000000012
40
1
40
1
40
1
40
1
41
1
10
10.4856110432106
20
-5.14523793629982
30
0
41
1
10
10.4411860537293
20
-5.15359702343517
30
0
41
1
10
10.3988236089038
20
-5.16530592386303
30
0
41
1
10
10.3378647386471
20
-5.18728529958469
30
0
41
1
10
10.317979523734
20
-5.19535398223078
30
0
41
1
10
10.2887671903436
20
-5.20854090624687
30
0
41
1
10
10.2791324931299
20
-5.21311747444702
30
0
41
1
10
10.2600644609778
20
-5.22263070900485
30
0
41
1
10
10.2506103067625
20
-5.22757912414389
30
0
41
1
10
10.2041435447094
20
-5.25304985314355
30
0
41
1
10
10.169518992732
20
-5.2757169974673
30
0
41
1
10
10.1046453612772
20
-5.32525052945977
30
0
41
1
10
10.0744031370628
20
-5.35212139656198
30
0
41
1
10
10.0462346324198
20
-5.38108262808876
30
0
0
SPLINE
5
10A
100
AcDbEntity
8
1
62
256
6
ByLayer
370
18
48
1
60
0
100
AcDbSpline
70
4
71
3
72
17
73
13
40
0
40
0
40
0
40
0
40
0.250000000000023
40
0.250000000000023
40
0.500000000000047
40
0.500000000000047
40
0.562500000000047
40
0.562500000000047
40
0.625000000000046
40
0.750000000000033
40
0.750000000000033
40
1
40
1
40
1
40
1
41
1
10
11.2304700407542
20
-5.38108262808876
30
0
41
1
10
11.2023046553964
20
-5.3521246036311
30
0
41
1
10
11.1720780944516
20
-5.32526905890364
30
0
41
1
10
11.1072740131998
20
-5.27578026163303
30
0
41
1
10
11.0727030317205
20
-5.25314270781308
30
0
41
1
10
11.0263408484433
20
-5.22771052261237
30
0
41
1
10
11.0168870463979
20
-5.22275755203688
30
0
41
1
10
10.9977776127003
20
-5.21321635835543
30
0
41
1
10
10.9688143735348
20
-5.1994501115274
30
0
41
1
10
10.93893861333
20
-5.18732303345152
30
0
41
1
10
10.8779017245085
20
-5.16530907632685
30
0
41
1
10
10.8355105338538
20
-5.15359550203561
30
0
41
1
10
10.7910936299635
20
-5.14523793629982
30
0
0
SPLINE
5
10B
100
AcDbEntity
8
1
62
256
6
ByLayer
370
18
48
1
60
0
100
AcDbSpline
70
4
71
3
72
26
73
22
40
0
40
0
40
0
40
0
40
0.12500000000001
40
0.12500000000001
40
0.250000000000021
40
0.250000000000021
40
0.312500000000017
40
0.312500000000017
40
0.375000000000013
40
0.375000000000013
40
0.499999999999997
40
0.499999999999997
40
0.562499999999997
40
0.562499999999997
40
0.624999999999998
40
0.624999999999998
40
0.749999999999999
40
0.749999999999999
40
0.874999999999999
40
0.874999999999999
40
1
40
1
40
1
40
1
41
1
10
8.66985233658701
20
-3.73750000000001
30
0
41
1
10
8.66985233658701
20
-3.7562420838797
30
0
41
1
10
8.67148954108242
20
-3.77529002412101
30
0
41
1
10
8.67786705590407
20
-3.81217054585434
30
0
41
1
10
8.68257954492151
20
-3.83014683747936
30
0
41
1
10
8.69188695048385
20
-3.85642723056083
30
0
41
1
10
8.69538481149166
20
-3.86511361056296
30
0
41
1
10
8.70301820635098
20
-3.88198254761599
30
0
41
1
10
8.70715323732213
20
-3.89017739551585
30
0
41
1
10
8.72047000717126
20
-3.9140732518195
30
0
41
1
10
8.73055777409365
20
-3.92908993692456
30
0
41
1
10
8.74744762950078
20
-3.95027553940841
30
0
41
1
10
8.75335971920256
20
-3.95709191856909
30
0
41
1
10
8.76555496474413
20
-3.97005958951073
30
0
41
1
10
8.77186103980165
20
-3.97624038277121
30
0
41
1
10
8.79137598381121
20
-3.99390908220133
30
0
41
1
10
8.80517820892493
20
-4.00452827097109
30
0
41
1
10
8.83430680334709
20
-4.02350138094616
30
0
41
1
10
8.84937504240077
20
-4.03168115880459
30
0
41
1
10
8.88023458888711
20
-4.04552201982395
30
0
41
1
10
8.89605744709888
20
-4.05120198365543
30
0
41
1
10
8.9122568964427
20
-4.05566196954686
30
0
0
SPLINE
5
10C
100
AcDbEntity
8
1
62
256
6
ByLayer
370
18
48
1
60
0
100
AcDbSpline
70
4
71
3
72
34
73
30
40
0
40
0
40
0
40
0
40
0.12499999999998
40
0.12499999999998
40
0.187499999999974
40
0.187499999999974
40
0.218749999999967
40
0.218749999999967
40
0.249999999999961
40
0.249999999999961
40
0.374999999999958
40
0.374999999999958
40
0.406249999999961
40
0.406249999999961
40
0.437499999999965
40
0.499999999999966
40
0.562499999999966
40
0.562499999999966
40
0.624999999999967
40
0.624999999999967
40
0.687499999999967
40
0.687499999999967
40
0.749999999999968
40
0.749999999999968
40
0.874999999999981
40
0.874999999999981
40
0.93749999999999
40
0.93749999999999
40
1
40
1
40
1
40
1
41
1
10
9.49090130300215
20
-5.06565233797861
30
0
41
1
10
9.50401787480828
20
-5.01666054066769
30
0
41
1
10
9.51265015247765
20
-4.96655490158096
30
0
41
1
10
9.51856029698675
20
-4.88939762753932
30
0
41
1
10
9.51934886022269
20
-4.86334204988259
30
0
41
1
10
9.51862182722712
20
-4.82367210539067
30
0
41
1
10
9.51805813743371
20
-4.81032019146966
30
0
41
1
10
9.51626821347489
20
-4.78354626410066
30
0
41
1
10
9.51504643505987
20
-4.77016781005989
30
0
41
1
10
9.50728562064148
20
-4.70330545809455
30
0
41
1
10
9.49586248830744
20
-4.64991056350021
30
0
41
1
10
9.4741196868508
20
-4.58308862454962
30
0
41
1
10
9.46938319154071
20
-4.56970380677606
30
0
41
1
10
9.45928768814017
20
-4.5433521630066
30
0
41
1
10
9.44316205125645
20
-4.50429400704016
30
0
41
1
10
9.41142769625591
20
-4.44151393337992
30
0
41
1
10
9.3808215329444
20
-4.39377531742272
30
0
41
1
10
9.34750264413785
20
-4.34733026845166
30
0
41
1
10
9.32988801663808
20
-4.32531360473564
30
0
41
1
10
9.29290631781234
20
-4.28355078297548
30
0
41
1
10
9.27353278625759
20
-4.26379700866821
30
0
41
1
10
9.2330674314849
20
-4.22643969467126
30
0
41
1
10
9.21189281369556
20
-4.20879314060147
30
0
41
1
10
9.14736813071698
20
-4.16012695712485
30
0
41
1
10
9.10257918175603
20
-4.13286015162592
30
0
41
1
10
9.03278313155855
20
-4.09870755727806
30
0
41
1
10
9.0090014913244
20
-4.08843412604773
30
0
41
1
10
8.96096118158377
20
-4.07028061880328
30
0
41
1
10
8.93672309635977
20
-4.06239793347569
30
0
41
1
10
8.9122568964427
20
-4.05566196954686
30
0
0
SPLINE
5
10D
100
AcDbEntity
8
1
62
256
6
ByLayer
370
18
48
1
60
0
100
AcDbSpline
70
4
71
3
72
24
73
20
40
0
40
0
40
0
40
0
40
0.0624999999999909
40
0.0624999999999909
40
0.124999999999982
40
0.124999999999982
40
0.249999999999953
40
0.249999999999953
40
0.312499999999941
40
0.312499999999941
40
0.374999999999931
40
0.374999999999931
40
0.499999999999944
40
0.499999999999944
40
0.624999999999958
40
0.624999999999958
40
0.749999999999972
40
0.749999999999972
40
1
40
1
40
1
40
1
41
1
10
9.64277544699183
20
-5.43568105833978
30
0
41
1
10
9.63467372677385
20
-5.43093133782244
30
0
41
1
10
9.62670252735964
20
-5.42578978898649
30
0
41
1
10
9.61125927088611
20
-5.41485532158603
30
0
41
1
10
9.60383464145022
20
-5.40910082777495
30
0
41
1
10
9.58241958495935
20
-5.39100705640504
30
0
41
1
10
9.56928209706192
20
-5.3778431053359
30
0
41
1
10
9.55127185861079
20
-5.35646037283979
30
0
41
1
10
9.54554698213116
20
-5.34904312092056
30
0
41
1
10
9.53488142308845
20
-5.33395701884024
30
0
41
1
10
9.5299098020723
20
-5.32625416851681
30
0
41
1
10
9.51603710622678
20
-5.3026865615503
30
0
41
1
10
9.50817161885854
20
-5.28636555606639
30
0
41
1
10
9.49516200902707
20
-5.2525376500416
30
0
41
1
10
9.4901872756852
20
-5.23547339489599
30
0
41
1
10
9.4830283441037
20
-5.20110299775965
30
0
41
1
10
9.48084302966839
20
-5.18373705874805
30
0
41
1
10
9.47841312654094
20
-5.13166944413004
30
0
41
1
10
9.48221304481817
20
-5.09810391070849
30
0
41
1
10
9.49090130300215
20
-5.06565233797861
30
0
0
SPLINE
5
10E
100
AcDbEntity
8
1
62
256
6
ByLayer
370
18
48
1
60
0
100
AcDbSpline
70
4
71
3
72
26
73
22
40
0
40
0
40
0
40
0
40
0.12500000000001
40
0.12500000000001
40
0.250000000000021
40
0.250000000000021
40
0.312500000000017
40
0.312500000000017
40
0.375000000000013
40
0.375000000000013
40
0.499999999999997
40
0.499999999999997
40
0.562499999999997
40
0.562499999999997
40
0.624999999999998
40
0.624999999999998
40
0.749999999999999
40
0.749999999999999
40
0.874999999999999
40
0.874999999999999
40
1
40
1
40
1
40
1
41
1
10
12.606852336587
20
-3.73750000000001
30
0
41
1
10
12.606852336587
20
-3.71875791612035
30
0
41
1
10
12.6052151320916
20
-3.69970997587902
30
0
41
1
10
12.5988376172699
20
-3.66282945414568
30
0
41
1
10
12.5941251282525
20
-3.64485316252066
30
0
41
1
10
12.5848177226902
20
-3.6185727694392
30
0
41
1
10
12.5813198616823
20
-3.60988638943707
30
0
41
1
10
12.5736864668231
20
-3.59301745238403
30
0
41
1
10
12.5695514358519
20
-3.58482260448417
30
0
41
1
10
12.5562346660027
20
-3.56092674818052
30
0
41
1
10
12.5461468990804
20
-3.54591006307547
30
0
41
1
10
12.5292570436732
20
-3.52472446059161
30
0
41
1
10
12.5233449539714
20
-3.51790808143096
30
0
41
1
10
12.5111497084299
20
-3.5049404104893
30
0
41
1
10
12.5048436333724
20
-3.49875961722884
30
0
41
1
10
12.4853286893628
20
-3.4810909177987
30
0
41
1
10
12.4715264642491
20
-3.47047172902896
30
0
41
1
10
12.4423978698269
20
-3.45149861905389
30
0
41
1
10
12.4273296307732
20
-3.44331884119544
30
0
41
1
10
12.3964700842869
20
-3.42947798017607
30
0
41
1
10
12.3806472260751
20
-3.42379801634459
30
0
41
1
10
12.3644477767313
20
-3.41933803045319
30
0
0
SPLINE
5
10F
100
AcDbEntity
8
1
62
256
6
ByLayer
370
18
48
1
60
0
100
AcDbSpline
70
4
71
3
72
34
73
30
40
0
40
0
40
0
40
0
40
0.125000000000002
40
0.125000000000002
40
0.187500000000006
40
0.187500000000006
40
0.218750000000006
40
0.218750000000006
40
0.250000000000005
40
0.250000000000005
40
0.374999999999998
40
0.374999999999998
40
0.406249999999998
40
0.406249999999998
40
0.437499999999997
40
0.499999999999992
40
0.562499999999991
40
0.562499999999991
40
0.624999999999989
40
0.624999999999989
40
0.687499999999988
40
0.687499999999988
40
0.749999999999987
40
0.749999999999987
40
0.87499999999999
40
0.87499999999999
40
0.937499999999995
40
0.937499999999995
40
1
40
1
40
1
40
1
41
1
10
11.7858033701719
20
-2.40934766202145
30
0
41
1
10
11.7726867983658
20
-2.45833945933234
30
0
41
1
10
11.7640545206964
20
-2.50844509841906
30
0
41
1
10
11.7581443761873
20
-2.5856023724607
30
0
41
1
10
11.7573558129513
20
-2.61165795011743
30
0
41
1
10
11.7580828459469
20
-2.65132789460935
30
0
41
1
10
11.7586465357403
20
-2.66467980853037
30
0
41
1
10
11.7604364596991
20
-2.69145373589939
30
0
41
1
10
11.7616582381141
20
-2.70483218994013
30
0
41
1
10
11.7694190525325
20
-2.77169454190547
30
0
41
1
10
11.7808421848666
20
-2.82508943649984
30
0
41
1
10
11.8025849863232
20
-2.8919113754504
30
0
41
1
10
11.8073214816333
20
-2.90529619322399
30
0
41
1
10
11.8174169850338
20
-2.93164783699342
30
0
41
1
10
11.8335426219176
20
-2.97070599295989
30
0
41
1
10
11.8652769769181
20
-3.0334860666201
30
0
41
1
10
11.8958831402296
20
-3.0812246825773
30
0
41
1
10
11.9292020290362
20
-3.12766973154837
30
0
41
1
10
11.9468166565359
20
-3.14968639526438
30
0
41
1
10
11.9837983553617
20
-3.19144921702454
30
0
41
1
10
12.0031718869164
20
-3.21120299133182
30
0
41
1
10
12.0436372416891
20
-3.24856030532877
30
0
41
1
10
12.0648118594784
20
-3.26620685939855
30
0
41
1
10
12.129336542457
20
-3.31487304287518
30
0
41
1
10
12.174125491418
20
-3.34213984837413
30
0
41
1
10
12.2439215416155
20
-3.37629244272196
30
0
41
1
10
12.2677031818496
20
-3.38656587395229
30
0
41
1
10
12.3157434915903
20
-3.40471938119674
30
0
41
1
10
12.3399815768143
20
-3.41260206652436
30
0
41
1
10
12.3644477767313
20
-3.41933803045319
30
0
0
SPLINE
5
110
100
AcDbEntity
8
1
62
256
6
ByLayer
370
18
48
1
60
0
100
AcDbSpline
70
4
71
3
72
24
73
20
40
0
40
0
40
0
40
0
40
0.0624999999999949
40
0.0624999999999949
40
0.12499999999999
40
0.12499999999999
40
0.249999999999976
40
0.249999999999976
40
0.312499999999973
40
0.312499999999973
40
0.37499999999997
40
0.37499999999997
40
0.499999999999978
40
0.499999999999978
40
0.624999999999986
40
0.624999999999986
40
0.749999999999994
40
0.749999999999994
40
1
40
1
40
1
40
1
41
1
10
11.6339292261822
20
-2.03931894166024
30
0
41
1
10
11.6420309464001
20
-2.04406866217761
30
0
41
1
10
11.6500021458144
20
-2.04921021101353
30
0
41
1
10
11.6654454022879
20
-2.06014467841399
30
0
41
1
10
11.6728700317238
20
-2.06589917222507
30
0
41
1
10
11.6942850882147
20
-2.08399294359498
30
0
41
1
10
11.7074225761121
20
-2.09715689466415
30
0
41
1
10
11.7254328145633
20
-2.11853962716023
30
0
41
1
10
11.7311576910428
20
-2.12595687907947
30
0
41
1
10
11.7418232500856
20
-2.14104298115981
30
0
41
1
10
11.7467948711017
20
-2.14874583148321
30
0
41
1
10
11.7606675669472
20
-2.17231343844972
30
0
41
1
10
11.7685330543155
20
-2.18863444393364
30
0
41
1
10
11.7815426641469
20
-2.22246234995842
30
0
41
1
10
11.7865173974888
20
-2.23952660510403
30
0
41
1
10
11.7936763290703
20
-2.27389700224037
30
0
41
1
10
11.7958616435056
20
-2.291262941252
30
0
41
1
10
11.7982915466331
20
-2.34333055586998
30
0
41
1
10
11.7944916283558
20
-2.37689608929154
30
0
41
1
10
11.7858033701719
20
-2.40934766202145
30
0
0
SPLINE
5
111
100
AcDbEntity
8
1
62
256
6
ByLayer
370
18
48
1
60
0
100
AcDbSpline
70
4
71
3
72
26
73
22
40
0
40
0
40
0
40
0
40
0.250000000000021
40
0.250000000000021
40
0.312500000000022
40
0.312500000000022
40
0.375000000000023
40
0.375000000000023
40
0.500000000000026
40
0.500000000000026
40
0.562500000000027
40
0.562500000000027
40
0.625000000000028
40
0.625000000000028
40
0.750000000000034
40
0.750000000000034
40
0.812500000000029
40
0.812500000000029
40
0.875000000000025
40
0.875000000000025
40
1
40
1
40
1
40
1
41
1
10
12.3644477767313
20
-4.05566196954686
30
0
41
1
10
12.396929369936
20
-4.04671923054693
30
0
41
1
10
12.4278160263189
20
-4.03298763225908
30
0
41
1
10
12.4641508539088
20
-4.00933533882903
30
0
41
1
10
12.4713297940112
20
-4.00424950677316
30
0
41
1
10
12.4852117311475
20
-3.99355300917634
30
0
41
1
10
12.4919339310339
20
-3.98793339907115
30
0
41
1
10
12.5114390628961
20
-3.97025950334932
30
0
41
1
10
12.5235651452235
20
-3.95739578411684
30
0
41
1
10
12.5403417433362
20
-3.93638105486795
30
0
41
1
10
12.5456974537802
20
-3.9290883106091
30
0
41
1
10
12.5559039026234
20
-3.91389161344387
30
0
41
1
10
12.5607144494913
20
-3.90604117071126
30
0
41
1
10
12.5740768295255
20
-3.8820437728381
30
0
41
1
10
12.5816492406317
20
-3.86533349964961
30
0
41
1
10
12.5909363164384
20
-3.8391705104134
30
0
41
1
10
12.5936850681697
20
-3.83026567009648
30
0
41
1
10
12.5984540306909
20
-3.81207076974329
30
0
41
1
10
12.6004668620915
20
-3.80278459894993
30
0
41
1
10
12.6052559203004
20
-3.77498127685257
30
0
41
1
10
12.606852336587
20
-3.75630895329002
30
0
41
1
10
12.606852336587
20
-3.73750000000001
30
0
0
SPLINE
5
112
100
AcDbEntity
8
1
62
256
6
ByLayer
370
18
48
1
60
0
100
AcDbSpline
70
4
71
3
72
34
73
30
40
0
40
0
40
0
40
0
40
0.124999999999991
40
0.124999999999991
40
0.187499999999983
40
0.187499999999983
40
0.21874999999998
40
0.21874999999998
40
0.249999999999978
40
0.249999999999978
40
0.374999999999962
40
0.374999999999962
40
0.406249999999961
40
0.406249999999961
40
0.43749999999996
40
0.499999999999967
40
0.562499999999973
40
0.562499999999973
40
0.624999999999979
40
0.624999999999979
40
0.687499999999985
40
0.687499999999985
40
0.749999999999991
40
0.749999999999991
40
0.874999999999999
40
0.874999999999999
40
0.937499999999999
40
0.937499999999999
40
1
40
1
40
1
40
1
41
1
10
12.3644477767313
20
-4.05566196954686
30
0
41
1
10
12.3155498891714
20
-4.06912439558425
30
0
41
1
10
12.2679590632828
20
-4.08701865207459
30
0
41
1
10
12.1984081230776
20
-4.12094270749563
30
0
41
1
10
12.1755317374838
20
-4.13344014622359
30
0
41
1
10
12.1416770591567
20
-4.15413057817219
30
0
41
1
10
12.1304437478295
20
-4.16136964646046
30
0
41
1
10
12.1082517403122
20
-4.17645479578334
30
0
41
1
10
12.0973283662331
20
-4.18427500395947
30
0
41
1
10
12.0435727714116
20
-4.22478599049111
30
0
41
1
10
12.0032874814413
20
-4.26164515702251
30
0
41
1
10
11.9566381921068
20
-4.31419765776826
30
0
41
1
10
11.9474869105144
20
-4.32505315220081
30
0
41
1
10
11.9298597779978
20
-4.34708976756019
30
0
41
1
10
11.9043207853525
20
-4.38075481453052
30
0
41
1
10
11.8662115947797
20
-4.43988261185362
30
0
41
1
10
11.8405077455047
20
-4.4904298677765
30
0
41
1
10
11.8172917992897
20
-4.54266310638837
30
0
41
1
10
11.807207185442
20
-4.56899386630505
30
0
41
1
10
11.7898829749097
20
-4.62201886991411
30
0
41
1
10
11.7826400764712
20
-4.64872253564477
30
0
41
1
10
11.7708782720071
20
-4.70252471010036
30
0
41
1
10
11.7663641324258
20
-4.72971639707703
30
0
41
1
10
11.7570145220516
20
-4.80999352089435
30
0
41
1
10
11.756144249733
20
-4.86242224670647
30
0
41
1
10
11.7619812045397
20
-4.93990655888615
30
0
41
1
10
11.7651462059809
20
-4.96561828053669
30
0
41
1
10
11.7737821622169
20
-5.01624279472236
30
0
41
1
10
11.7792404556561
20
-5.04113915095999
30
0
41
1
10
11.7858033701719
20
-5.06565233797861
30
0
0
SPLINE
5
113
100
AcDbEntity
8
1
62
256
6
ByLayer
370
18
48
1
60
0
100
AcDbSpline
70
4
71
3
72
24
73
20
40
0
40
0
40
0
40
0
40
0.0624999999999909
40
0.0624999999999909
40
0.124999999999982
40
0.124999999999982
40
0.249999999999953
40
0.249999999999953
40
0.312499999999941
40
0.312499999999941
40
0.374999999999931
40
0.374999999999931
40
0.499999999999944
40
0.499999999999944
40
0.624999999999958
40
0.624999999999958
40
0.749999999999972
40
0.749999999999972
40
1
40
1
40
1
40
1
41
1
10
11.6339292261822
20
-5.43568105833978
30
0
41
1
10
11.6420309464001
20
-5.43093133782244
30
0
41
1
10
11.6500021458144
20
-5.42578978898649
30
0
41
1
10
11.6654454022879
20
-5.41485532158603
30
0
41
1
10
11.6728700317238
20
-5.40910082777495
30
0
41
1
10
11.6942850882147
20
-5.39100705640504
30
0
41
1
10
11.7074225761121
20
-5.3778431053359
30
0
41
1
10
11.7254328145632
20
-5.35646037283979
30
0
41
1
10
11.7311576910428
20
-5.34904312092056
30
0
41
1
10
11.7418232500856
20
-5.33395701884024
30
0
41
1
10
11.7467948711017
20
-5.32625416851681
30
0
41
1
10
11.7606675669472
20
-5.3026865615503
30
0
41
1
10
11.7685330543155
20
-5.28636555606639
30
0
41
1
10
11.7815426641469
20
-5.25253765004163
30
0
41
1
10
11.7865173974888
20
-5.23547339489599
30
0
41
1
10
11.7936763290703
20
-5.20110299775965
30
0
41
1
10
11.7958616435056
20
-5.18373705874805
30
0
41
1
10
11.7982915466331
20
-5.13166944413004
30
0
41
1
10
11.7944916283558
20
-5.09810391070849
30
0
41
1
10
11.7858033701719
20
-5.06565233797861
30
0
0
SPLINE
5
114
100
AcDbEntity
8
1
62
256
6
ByLayer
370
18
48
1
60
0
100
AcDbSpline
70
4
71
3
72
34
73
30
40
0
40
0
40
0
40
0
40
0.125000000000005
40
0.125000000000005
40
0.187500000000004
40
0.187500000000004
40
0.218750000000005
40
0.218750000000005
40
0.250000000000006
40
0.250000000000006
40
0.375000000000004
40
0.375000000000004
40
0.406250000000004
40
0.406250000000004
40
0.437500000000003
40
0.500000000000005
40
0.562500000000006
40
0.562500000000006
40
0.625000000000008
40
0.625000000000008
40
0.687500000000009
40
0.687500000000009
40
0.750000000000011
40
0.750000000000011
40
0.875000000000008
40
0.875000000000008
40
0.937500000000004
40
0.937500000000004
40
1
40
1
40
1
40
1
41
1
10
8.9122568964427
20
-3.41933803045319
30
0
41
1
10
8.96115478400264
20
-3.40587560441577
30
0
41
1
10
9.00874560989126
20
-3.38798134792543
30
0
41
1
10
9.07829655009644
20
-3.35405729250439
30
0
41
1
10
9.10117293569024
20
-3.34155985377643
30
0
41
1
10
9.13502761401728
20
-3.32086942182784
30
0
41
1
10
9.14626092534451
20
-3.31363035353957
30
0
41
1
10
9.16845293286178
20
-3.29854520421668
30
0
41
1
10
9.17937630694092
20
-3.29072499604055
30
0
41
1
10
9.23313190176245
20
-3.25021400950891
30
0
41
1
10
9.2734171917327
20
-3.21335484297754
30
0
41
1
10
9.32006648106722
20
-3.16080234223176
30
0
41
1
10
9.32921776265962
20
-3.14994684779921
30
0
41
1
10
9.34684489517616
20
-3.12791023243983
30
0
41
1
10
9.37238388782154
20
-3.09424518546953
30
0
41
1
10
9.4104930783943
20
-3.03511738814643
30
0
41
1
10
9.43619692766936
20
-2.98457013222352
30
0
41
1
10
9.45941287388436
20
-2.93233689361165
30
0
41
1
10
9.46949748773199
20
-2.90600613369497
30
0
41
1
10
9.48682169826432
20
-2.85298113008594
30
0
41
1
10
9.49406459670288
20
-2.82627746435529
30
0
41
1
10
9.5058264011669
20
-2.77247528989966
30
0
41
1
10
9.51034054074816
20
-2.745283602923
30
0
41
1
10
9.51969015112238
20
-2.66500647910567
30
0
41
1
10
9.52056042344103
20
-2.61257775329355
30
0
41
1
10
9.51472346863426
20
-2.53509344111387
30
0
41
1
10
9.51155846719308
20
-2.50938171946334
30
0
41
1
10
9.50292251095706
20
-2.45875720527766
30
0
41
1
10
9.49746421751794
20
-2.43386084904003
30
0
41
1
10
9.49090130300215
20
-2.40934766202145
30
0
0
SPLINE
5
115
100
AcDbEntity
8
1
62
256
6
ByLayer
370
18
48
1
60
0
100
AcDbSpline
70
4
71
3
72
24
73
20
40
0
40
0
40
0
40
0
40
0.0624999999999949
40
0.0624999999999949
40
0.12499999999999
40
0.12499999999999
40
0.249999999999976
40
0.249999999999976
40
0.312499999999973
40
0.312499999999973
40
0.37499999999997
40
0.37499999999997
40
0.499999999999978
40
0.499999999999978
40
0.624999999999986
40
0.624999999999986
40
0.749999999999994
40
0.749999999999994
40
1
40
1
40
1
40
1
41
1
10
9.64277544699183
20
-2.03931894166024
30
0
41
1
10
9.63467372677385
20
-2.04406866217761
30
0
41
1
10
9.62670252735964
20
-2.04921021101353
30
0
41
1
10
9.61125927088611
20
-2.06014467841399
30
0
41
1
10
9.60383464145022
20
-2.06589917222507
30
0
41
1
10
9.58241958495935
20
-2.08399294359498
30
0
41
1
10
9.56928209706192
20
-2.09715689466415
30
0
41
1
10
9.55127185861079
20
-2.11853962716023
30
0
41
1
10
9.54554698213116
20
-2.12595687907947
30
0
41
1
10
9.53488142308845
20
-2.14104298115981
30
0
41
1
10
9.52990980207233
20
-2.14874583148321
30
0
41
1
10
9.51603710622678
20
-2.17231343844972
30
0
41
1
10
9.50817161885854
20
-2.18863444393364
30
0
41
1
10
9.49516200902707
20
-2.22246234995842
30
0
41
1
10
9.4901872756852
20
-2.23952660510403
30
0
41
1
10
9.4830283441037
20
-2.27389700224037
30
0
41
1
10
9.48084302966839
20
-2.291262941252
30
0
41
1
10
9.47841312654094
20
-2.34333055586998
30
0
41
1
10
9.48221304481817
20
-2.37689608929154
30
0
41
1
10
9.49090130300215
20
-2.40934766202145
30
0
0
SPLINE
5
116
100
AcDbEntity
8
1
62
256
6
ByLayer
370
18
48
1
60
0
100
AcDbSpline
70
4
71
3
72
26
73
22
40
0
40
0
40
0
40
0
40
0.250000000000021
40
0.250000000000021
40
0.312500000000022
40
0.312500000000022
40
0.375000000000023
40
0.375000000000023
40
0.500000000000026
40
0.500000000000026
40
0.562500000000027
40
0.562500000000027
40
0.625000000000028
40
0.625000000000028
40
0.750000000000034
40
0.750000000000034
40
0.812500000000029
40
0.812500000000029
40
0.875000000000025
40
0.875000000000025
40
1
40
1
40
1
40
1
41
1
10
8.9122568964427
20
-3.41933803045316
30
0
41
1
10
8.87977530323798
20
-3.4282807694531
30
0
41
1
10
8.8488886468551
20
-3.44201236774097
30
0
41
1
10
8.81255381926519
20
-3.46566466117099
30
0
41
1
10
8.80537487916286
20
-3.47075049322689
30
0
41
1
10
8.79149294202648
20
-3.48144699082368
30
0
41
1
10
8.78477074214007
20
-3.48706660092887
30
0
41
1
10
8.76526561027796
20
-3.5047404966507
30
0
41
1
10
8.75313952795057
20
-3.51760421588318
30
0
41
1
10
8.73636292983781
20
-3.53861894513207
30
0
41
1
10
8.73100721939377
20
-3.54591168939092
30
0
41
1
10
8.72080077055062
20
-3.56110838655616
30
0
41
1
10
8.71599022368272
20
-3.56895882928876
30
0
41
1
10
8.70262784364849
20
-3.59295622716192
30
0
41
1
10
8.69505543254226
20
-3.60966650035041
30
0
41
1
10
8.68576835673565
20
-3.63582948958663
30
0
41
1
10
8.68301960500432
20
-3.64473432990357
30
0
41
1
10
8.67825064248311
20
-3.66292923025676
30
0
41
1
10
8.67623781108247
20
-3.6722154010501
30
0
41
1
10
8.6714487528736
20
-3.70001872314745
30
0
41
1
10
8.66985233658701
20
-3.71869104671001
30
0
41
1
10
8.66985233658701
20
-3.73750000000001
30
0
0
SPLINE
5
117
100
AcDbEntity
8
1
62
256
6
ByLayer
370
18
48
1
60
0
100
AcDbSpline
70
4
71
3
72
17
73
13
40
0
40
0
40
0
40
0
40
0.250000000000009
40
0.250000000000009
40
0.500000000000019
40
0.500000000000019
40
0.562500000000018
40
0.562500000000018
40
0.625000000000016
40
0.750000000000017
40
0.750000000000017
40
1
40
1
40
1
40
1
41
1
10
10.0462346324198
20
-2.09391737191126
30
0
41
1
10
10.0744000177775
20
-2.12287539636887
30
0
41
1
10
10.1046265787224
20
-2.14973094109632
30
0
41
1
10
10.169430659974
20
-2.19921973836685
30
0
41
1
10
10.2040016414532
20
-2.22185729218677
30
0
41
1
10
10.2503638247304
20
-2.24728947738745
30
0
41
1
10
10.2598176267757
20
-2.25224244796297
30
0
41
1
10
10.2789270604734
20
-2.26178364164443
30
0
41
1
10
10.3078902996388
20
-2.27554988847246
30
0
41
1
10
10.3377660598436
20
-2.28767696654833
30
0
41
1
10
10.3988029486652
20
-2.30969092367309
30
0
41
1
10
10.44119413932
20
-2.32140449796435
30
0
41
1
10
10.4856110432106
20
-2.3297620637002
30
0
0
SPLINE
5
118
100
AcDbEntity
8
1
62
256
6
ByLayer
370
18
48
1
60
0
100
AcDbSpline
70
4
71
3
72
18
73
14
40
0
40
0
40
0
40
0
40
0.249999999999997
40
0.249999999999997
40
0.374999999999989
40
0.374999999999989
40
0.437499999999996
40
0.437499999999996
40
0.500000000000003
40
0.500000000000003
40
0.750000000000001
40
0.750000000000001
40
1
40
1
40
1
40
1
41
1
10
10.7910936299635
20
-2.3297620637002
30
0
41
1
10
10.8355186194443
20
-2.32140297656491
30
0
41
1
10
10.8778810642698
20
-2.30969407613711
30
0
41
1
10
10.9388399345266
20
-2.28771470041545
30
0
41
1
10
10.9587251494399
20
-2.27964601776932
30
0
41
1
10
10.9879374828305
20
-2.26645909375316
30
0
41
1
10
10.9975721800442
20
-2.26188252555298
30
0
41
1
10
11.0166402121965
20
-2.25236929099506
30
0
41
1
10
11.0260943664118
20
-2.24742087585597
30
0
41
1
10
11.0725611284647
20
-2.22195014685642
30
0
41
1
10
11.107185680442
20
-2.19928300253272
30
0
41
1
10
11.1720593118967
20
-2.14974947054031
30
0
41
1
10
11.2023015361112
20
-2.12287860343807
30
0
41
1
10
11.2304700407542
20
-2.09391737191126
30
0
0
SPLINE
5
119
100
AcDbEntity
8
1
62
256
6
ByLayer
370
18
48
1
60
0
100
AcDbSpline
70
4
71
3
72
24
73
20
40
0
40
0
40
0
40
0
40
0.125000000000001
40
0.125000000000001
40
0.187500000000001
40
0.187500000000001
40
0.250000000000002
40
0.250000000000002
40
0.374999999999992
40
0.374999999999992
40
0.499999999999982
40
0.499999999999982
40
0.624999999999972
40
0.624999999999972
40
0.687499999999973
40
0.687499999999973
40
0.749999999999975
40
0.749999999999975
40
1
40
1
40
1
40
1
41
1
10
11.6339292261822
20
-2.03931894166024
30
0
41
1
10
11.617303179161
20
-2.0295717429747
30
0
41
1
10
11.5999905854067
20
-2.02136426331015
30
0
41
1
10
11.5730048927997
20
-2.01133423650234
30
0
41
1
10
11.5638049654686
20
-2.00836405870427
30
0
41
1
10
11.5452078017597
20
-2.00325145044488
30
0
41
1
10
11.5359014160238
20
-2.00113041073394
30
0
41
1
10
11.5079613024688
20
-1.99600365538697
30
0
41
1
10
11.4893066768308
20
-1.99422592617313
30
0
41
1
10
11.4519523946451
20
-1.99381849654168
30
0
41
1
10
11.4331134141606
20
-1.99523952199564
30
0
41
1
10
11.3969372316665
20
-2.00101270509694
30
0
41
1
10
11.379421863034
20
-2.0053413753686
30
0
41
1
10
11.3539634597686
20
-2.01384790360879
30
0
41
1
10
11.345613838774
20
-2.01702086060126
30
0
41
1
10
11.3291883957359
20
-2.02403701553004
30
0
41
1
10
11.3210855919958
20
-2.02789714857272
30
0
41
1
10
11.2819364650664
20
-2.04851535869292
30
0
41
1
10
11.2544273509099
20
-2.06928584762648
30
0
41
1
10
11.2304700407542
20
-2.09391737191126
30
0
0
SPLINE
5
11A
100
AcDbEntity
8
1
62
256
6
ByLayer
370
18
48
1
60
0
100
AcDbSpline
70
4
71
3
72
24
73
20
40
0
40
0
40
0
40
0
40
0.25
40
0.25
40
0.312499999999995
40
0.312499999999995
40
0.374999999999991
40
0.374999999999991
40
0.499999999999995
40
0.499999999999995
40
0.624999999999999
40
0.624999999999999
40
0.750000000000003
40
0.750000000000003
40
0.8125
40
0.8125
40
0.874999999999996
40
0.874999999999996
40
1
40
1
40
1
40
1
41
1
10
10.0462346324198
20
-2.09391737191126
30
0
41
1
10
10.0222773222641
20
-2.06928584762648
30
0
41
1
10
9.99476820810756
20
-2.04851535869292
30
0
41
1
10
9.95561908117824
20
-2.02789714857272
30
0
41
1
10
9.94751627743815
20
-2.02403701553004
30
0
41
1
10
9.93109083440007
20
-2.01702086060126
30
0
41
1
10
9.92274121340543
20
-2.01384790360879
30
0
41
1
10
9.89728281013998
20
-2.0053413753686
30
0
41
1
10
9.87976744150751
20
-2.00101270509694
30
0
41
1
10
9.84359125901338
20
-1.99523952199564
30
0
41
1
10
9.82475227852891
20
-1.99381849654168
30
0
41
1
10
9.7873979963432
20
-1.99422592617313
30
0
41
1
10
9.76874337070521
20
-1.99600365538697
30
0
41
1
10
9.74080325715022
20
-2.00113041073394
30
0
41
1
10
9.73149687141435
20
-2.00325145044488
30
0
41
1
10
9.71289970770545
20
-2.0083640587043
30
0
41
1
10
9.70369978037431
20
-2.01133423650234
30
0
41
1
10
9.67671408776735
20
-2.02136426331015
30
0
41
1
10
9.65940149401308
20
-2.0295717429747
30
0
41
1
10
9.64277544699183
20
-2.03931894166024
30
0
0
LINE
5
83
100
AcDbEntity
8
80
62
256
6
ByLayer
370
18
48
1
60
0
100
AcDbLine
10
0
20
0
30
0
11
-5
21
0
31
0
39
0
210
0
220
0
230
1
0
LINE
5
84
100
AcDbEntity
8
81
62
256
6
ByLayer
370
18
48
1
60
0
100
AcDbLine
10
32.788352
20
-13.0375
30
0
11
37.788352
21
-13.0375
31
0
39
0
210
0
220
0
230
1
0
LINE
5
85
100
AcDbEntity
8
1
62
256
6
ByLayer
370
18
48
1
60
0
100
AcDbLine
10
0
20
11.9625
30
0
11
0
21
-13.03649
31
0
39
0
210
0
220
0
230
1
0
LINE
5
86
100
AcDbEntity
8
1
62
256
6
ByLayer
370
18
48
1
60
0
100
AcDbLine
10
0
20
11.9625
30
0
11
8.003844
21
11.9625
31
0
39
0
210
0
220
0
230
1
0
LINE
5
87
100
AcDbEntity
8
1
62
256
6
ByLayer
370
18
48
1
60
0
100
AcDbLine
10
26.019352
20
-10.376029
30
0
11
26.04546
21
-10.441427
31
0
39
0
210
0
220
0
230
1
0
LINE
5
88
100
AcDbEntity
8
1
62
256
6
ByLayer
370
18
48
1
60
0
100
AcDbLine
10
26.04546
20
-12.633573
30
0
11
26.009173
21
-12.724468
31
0
39
0
210
0
220
0
230
1
0
LINE
5
89
100
AcDbEntity
8
1
62
256
6
ByLayer
370
18
48
1
60
0
100
AcDbLine
10
26.538352
20
-11.488681
30
0
11
26.538352
21
-11.586319
31
0
39
0
210
0
220
0
230
1
0
LINE
5
8A
100
AcDbEntity
8
1
62
256
6
ByLayer
370
13
48
1
60
0
100
AcDbLine
10
17.788352
20
-10.378253
30
0
11
17.788352
21
-10.799242
31
0
39
0
210
0
220
0
230
1
0
LINE
5
8B
100
AcDbEntity
8
1
62
256
6
ByLayer
370
18
48
1
60
0
100
AcDbLine
10
16.188352
20
-9.205911
30
0
11
16.188352
21
-9.377513
31
0
39
0
210
0
220
0
230
1
0
LINE
5
8C
100
AcDbEntity
8
1
62
256
6
ByLayer
370
18
48
1
60
0
100
AcDbLine
10
15.326353
20
-13.066485
30
0
11
18.182649
21
-13.066485
31
0
39
0
210
0
220
0
230
1
0
LINE
5
8D
100
AcDbEntity
8
1
62
256
6
ByLayer
370
13
48
1
60
0
100
AcDbLine
10
16.596008
20
-10.3625
30
0
11
15.326353
21
-10.3625
31
0
39
0
210
0
220
0
230
1
0
LINE
5
8E
100
AcDbEntity
8
1
62
256
6
ByLayer
370
18
48
1
60
0
100
AcDbLine
10
23.038352
20
-10.480815
30
0
11
23.038352
21
-12.815761
31
0
39
0
210
0
220
0
230
1
0
LINE
5
8F
100
AcDbEntity
8
1
62
256
6
ByLayer
370
18
48
1
60
0
100
AcDbLine
10
8.003844
20
11.9625
30
0
11
16.188352
21
-1.008516
31
0
39
0
210
0
220
0
230
1
0
LINE
5
90
100
AcDbEntity
8
1
62
256
6
ByLayer
370
18
48
1
60
0
100
AcDbLine
10
15.326353
20
-13.066485
30
0
11
0.024456
21
-13.066485
31
0
39
0
210
0
220
0
230
1
0
LINE
5
91
100
AcDbEntity
8
1
62
256
6
ByLayer
370
18
48
1
60
0
100
AcDbLine
10
15.326353
20
-13.066485
30
0
11
15.326353
21
-10.3625
31
0
39
0
210
0
220
0
230
1
0
LINE
5
92
100
AcDbEntity
8
1
62
256
6
ByLayer
370
18
48
1
60
0
100
AcDbLine
10
16.188352
20
-9.205911
30
0
11
16.188352
21
-1.008516
31
0
39
0
210
0
220
0
230
1
0
LINE
5
93
100
AcDbEntity
8
1
62
256
6
ByLayer
370
18
48
1
60
0
100
AcDbLine
10
27.605228
20
-12.855186
30
0
11
27.603635
21
-12.687492
31
0
39
0
210
0
220
0
230
1
0
LINE
5
94
100
AcDbEntity
8
1
62
256
6
ByLayer
370
18
48
1
60
0
100
AcDbLine
10
26.686861
20
-12.858307
30
0
11
26.685239
21
-12.687496
31
0
39
0
210
0
220
0
230
1
0
LINE
5
95
100
AcDbEntity
8
1
62
256
6
ByLayer
370
18
48
1
60
0
100
AcDbLine
10
31.988352
20
-13.011434
30
0
11
31.988352
21
-13.247966
31
0
39
0
210
0
220
0
230
1
0
LINE
5
96
100
AcDbEntity
8
1
62
256
6
ByLayer
370
18
48
1
60
0
100
AcDbLine
10
29.806378
20
-12.855186
30
0
11
27.605228
21
-12.855186
31
0
39
0
210
0
220
0
230
1
0
LINE
5
97
100
AcDbEntity
8
1
62
256
6
ByLayer
370
18
48
1
60
0
100
AcDbLine
10
26.686861
20
-12.858307
30
0
11
21.963774
21
-12.858307
31
0
39
0
210
0
220
0
230
1
0
LINE
5
98
100
AcDbEntity
8
1
62
256
6
ByLayer
370
18
48
1
60
0
100
AcDbLine
10
0.317758
20
-13.64839
30
0
11
1.59829
21
-18.4274
31
0
39
0
210
0
220
0
230
1
0
LINE
5
99
100
AcDbEntity
8
1
62
256
6
ByLayer
370
18
48
1
60
0
100
AcDbLine
10
1.59829
20
-18.4274
30
0
11
21.904336
21
-18.4274
31
0
39
0
210
0
220
0
230
1
0
LINE
5
9A
100
AcDbEntity
8
1
62
256
6
ByLayer
370
18
48
1
60
0
100
AcDbLine
10
31.397363
20
-10.099717
30
0
11
32.344148
21
-10.041809
31
0
39
0
210
0
220
0
230
1
0
LINE
5
9B
100
AcDbEntity
8
1
62
256
6
ByLayer
370
18
48
1
60
0
100
AcDbLine
10
32.344148
20
-13.033191
30
0
11
31.397363
21
-12.975283
31
0
39
0
210
0
220
0
230
1
0
LINE
5
9C
100
AcDbEntity
8
1
62
256
6
ByLayer
370
18
48
1
60
0
100
AcDbLine
10
32.788342
20
-10.234349
30
0
11
32.788342
21
-12.840651
31
0
39
0
210
0
220
0
230
1
0
LINE
5
9D
100
AcDbEntity
8
1
62
256
6
ByLayer
370
18
48
1
60
0
100
AcDbLine
10
30.639925
20
-10.096205
30
0
11
31.397363
21
-10.099717
31
0
39
0
210
0
220
0
230
1
0
LINE
5
9E
100
AcDbEntity
8
1
62
256
6
ByLayer
370
18
48
1
60
0
100
AcDbLine
10
31.397363
20
-12.975283
30
0
11
30.639925
21
-12.978795
31
0
39
0
210
0
220
0
230
1
0
LINE
5
9F
100
AcDbEntity
8
1
62
256
6
ByLayer
370
18
48
1
60
0
100
AcDbLine
10
31.397363
20
-12.975283
30
0
11
31.397363
21
-10.099717
31
0
39
0
210
0
220
0
230
1
0
LINE
5
A0
100
AcDbEntity
8
1
62
256
6
ByLayer
370
13
48
1
60
0
100
AcDbLine
10
29.969692
20
-11.5375
30
0
11
26.538134
21
-11.5375
31
0
39
0
210
0
220
0
230
1
0
LINE
5
A1
100
AcDbEntity
8
1
62
256
6
ByLayer
370
13
48
1
60
0
100
AcDbLine
10
26.441043
20
-11.340165
30
0
11
29.186059
21
-11.340165
31
0
39
0
210
0
220
0
230
1
0
LINE
5
A2
100
AcDbEntity
8
1
62
256
6
ByLayer
370
13
48
1
60
0
100
AcDbLine
10
29.186059
20
-11.734835
30
0
11
26.441043
21
-11.734835
31
0
39
0
210
0
220
0
230
1
0
LINE
5
A3
100
AcDbEntity
8
1
62
256
6
ByLayer
370
13
48
1
60
0
100
AcDbLine
10
26.433813
20
-11.738256
30
0
11
29.132766
21
-11.738256
31
0
39
0
210
0
220
0
230
1
0
LINE
5
A4
100
AcDbEntity
8
1
62
256
6
ByLayer
370
13
48
1
60
0
100
AcDbLine
10
26.433813
20
-11.336744
30
0
11
29.132766
21
-11.336744
31
0
39
0
210
0
220
0
230
1
0
LINE
5
A5
100
AcDbEntity
8
1
62
256
6
ByLayer
370
13
48
1
60
0
100
AcDbLine
10
26.329856
20
-11.286476
30
0
11
28.424604
21
-11.286476
31
0
39
0
210
0
220
0
230
1
0
LINE
5
A6
100
AcDbEntity
8
1
62
256
6
ByLayer
370
13
48
1
60
0
100
AcDbLine
10
26.329856
20
-11.788524
30
0
11
28.424604
21
-11.788524
31
0
39
0
210
0
220
0
230
1
0
LINE
5
A7
100
AcDbEntity
8
1
62
256
6
ByLayer
370
13
48
1
60
0
100
AcDbLine
10
26.290668
20
-11.905498
30
0
11
27.81252
21
-11.905498
31
0
39
0
210
0
220
0
230
1
0
LINE
5
A8
100
AcDbEntity
8
1
62
256
6
ByLayer
370
13
48
1
60
0
100
AcDbLine
10
26.291139
20
-11.169502
30
0
11
27.81252
21
-11.169502
31
0
39
0
210
0
220
0
230
1
0
LINE
5
A9
100
AcDbEntity
8
1
62
256
6
ByLayer
370
13
48
1
60
0
100
AcDbLine
10
26.086727
20
-12.513484
30
0
11
26.608402
21
-12.513484
31
0
39
0
210
0
220
0
230
1
0
LINE
5
AA
100
AcDbEntity
8
1
62
256
6
ByLayer
370
18
48
1
60
0
100
AcDbLine
10
26.560839
20
-10.3875
30
0
11
26.023849
21
-10.3875
31
0
39
0
210
0
220
0
230
1
0
LINE
5
AB
100
AcDbEntity
8
1
62
256
6
ByLayer
370
13
48
1
60
0
100
AcDbLine
10
26.608402
20
-10.561516
30
0
11
26.089592
21
-10.561516
31
0
39
0
210
0
220
0
230
1
0
LINE
5
AC
100
AcDbEntity
8
1
62
256
6
ByLayer
370
13
48
1
60
0
100
AcDbLine
10
26.072892
20
-10.512062
30
0
11
26.560839
21
-10.512062
31
0
39
0
210
0
220
0
230
1
0
LINE
5
AD
100
AcDbEntity
8
1
62
256
6
ByLayer
370
18
48
1
60
0
100
AcDbLine
10
29.016413
20
-10.3875
30
0
11
26.560839
21
-10.3875
31
0
39
0
210
0
220
0
230
1
0
LINE
5
AE
100
AcDbEntity
8
1
62
256
6
ByLayer
370
18
48
1
60
0
100
AcDbLine
10
26.560839
20
-12.6875
30
0
11
29.016413
21
-12.6875
31
0
39
0
210
0
220
0
230
1
0
LINE
5
AF
100
AcDbEntity
8
1
62
256
6
ByLayer
370
18
48
1
60
0
100
AcDbLine
10
29.260817
20
-10.3573
30
0
11
30.208022
21
-10.118625
31
0
39
0
210
0
220
0
230
1
0
LINE
5
B0
100
AcDbEntity
8
1
62
256
6
ByLayer
370
18
48
1
60
0
100
AcDbLine
10
26.560839
20
-10.512062
30
0
11
26.560839
21
-10.3875
31
0
39
0
210
0
220
0
230
1
0
LINE
5
B1
100
AcDbEntity
8
1
62
256
6
ByLayer
370
18
48
1
60
0
100
AcDbLine
10
27.81252
20
-11.169502
30
0
11
26.608402
21
-10.561516
31
0
39
0
210
0
220
0
230
1
0
LINE
5
B2
100
AcDbEntity
8
1
62
256
6
ByLayer
370
18
48
1
60
0
100
AcDbLine
10
29.186059
20
-11.340165
30
0
11
29.132766
21
-11.336744
31
0
39
0
210
0
220
0
230
1
0
LINE
5
B3
100
AcDbEntity
8
1
62
256
6
ByLayer
370
18
48
1
60
0
100
AcDbLine
10
29.132766
20
-11.738256
30
0
11
29.186059
21
-11.734835
31
0
39
0
210
0
220
0
230
1
0
LINE
5
B4
100
AcDbEntity
8
1
62
256
6
ByLayer
370
18
48
1
60
0
100
AcDbLine
10
26.608402
20
-12.513484
30
0
11
27.81252
21
-11.905498
31
0
39
0
210
0
220
0
230
1
0
LINE
5
B5
100
AcDbEntity
8
1
62
256
6
ByLayer
370
18
48
1
60
0
100
AcDbLine
10
30.208022
20
-12.956375
30
0
11
29.260817
21
-12.7177
31
0
39
0
210
0
220
0
230
1
0
LINE
5
B6
100
AcDbEntity
8
1
62
256
6
ByLayer
370
18
48
1
60
0
100
AcDbLine
10
30.639925
20
-12.978795
30
0
11
30.247085
21
-12.962061
31
0
39
0
210
0
220
0
230
1
0
LINE
5
B7
100
AcDbEntity
8
1
62
256
6
ByLayer
370
18
48
1
60
0
100
AcDbLine
10
30.639925
20
-12.978795
30
0
11
30.639925
21
-10.096205
31
0
39
0
210
0
220
0
230
1
0
LINE
5
B8
100
AcDbEntity
8
1
62
256
6
ByLayer
370
18
48
1
60
0
100
AcDbLine
10
30.247085
20
-10.112939
30
0
11
30.639925
21
-10.096205
31
0
39
0
210
0
220
0
230
1
0
LINE
5
B9
100
AcDbEntity
8
1
62
256
6
ByLayer
370
18
48
1
60
0
100
AcDbLine
10
26.023849
20
-12.6875
30
0
11
26.560839
21
-12.6875
31
0
39
0
210
0
220
0
230
1
0
LINE
5
BA
100
AcDbEntity
8
1
62
256
6
ByLayer
370
18
48
1
60
0
100
AcDbLine
10
26.560839
20
-12.6875
30
0
11
26.560839
21
-12.562938
31
0
39
0
210
0
220
0
230
1
0
LINE
5
BB
100
AcDbEntity
8
1
62
256
6
ByLayer
370
13
48
1
60
0
100
AcDbLine
10
26.560839
20
-12.562938
30
0
11
26.07018
21
-12.562938
31
0
39
0
210
0
220
0
230
1
0
LINE
5
BC
100
AcDbEntity
8
SK1
62
256
6
ByLayer
370
18
48
1
60
0
100
AcDbLine
10
-10.84207
20
-12.4625
30
0
11
-81
21
-12.4625
31
0
39
0
210
0
220
0
230
1
0
LINE
5
BE
100
AcDbEntity
8
SK1
62
256
6
ByLayer
370
18
48
1
60
0
100
AcDbLine
10
-10.84207
20
12.4625
30
0
11
-81
21
12.4625
31
0
39
0
210
0
220
0
230
1
0
LINE
5
BF
100
AcDbEntity
8
SK1
62
256
6
ByLayer
370
18
48
1
60
0
100
AcDbLine
10
-84
20
9.4625
30
0
11
-81
21
12.4625
31
0
39
0
210
0
220
0
230
1
0
LINE
5
C0
100
AcDbEntity
8
SK1
62
256
6
ByLayer
370
18
48
1
60
0
100
AcDbLine
10
-84
20
9.4625
30
0
11
-84
21
-9.4625
31
0
39
0
210
0
220
0
230
1
0
LINE
5
C1
100
AcDbEntity
8
SK1
62
256
6
ByLayer
370
18
48
1
60
0
100
AcDbLine
10
-84
20
-9.4625
30
0
11
-81
21
-12.4625
31
0
39
0
210
0
220
0
230
1
0
LINE
5
C2
100
AcDbEntity
8
SK1
62
256
6
ByLayer
370
18
48
1
60
0
100
AcDbLine
10
-5.904684
20
-12.4625
30
0
11
-10.84207
21
-12.4625
31
0
39
0
210
0
220
0
230
1
0
LINE
5
C3
100
AcDbEntity
8
SK1
62
256
6
ByLayer
370
18
48
1
60
0
100
AcDbLine
10
-6
20
11.9625
30
0
11
-5.904684
21
11.9625
31
0
39
0
210
0
220
0
230
1
0
LINE
5
C4
100
AcDbEntity
8
SK1
62
256
6
ByLayer
370
18
48
1
60
0
100
AcDbLine
10
-7.161895
20
12.4625
30
0
11
-10.84207
21
12.4625
31
0
39
0
210
0
220
0
230
1
0
LINE
5
C5
100
AcDbEntity
8
SK1
62
256
6
ByLayer
370
18
48
1
60
0
100
AcDbLine
10
-10.84207
20
12.4625
30
0
11
-10.84207
21
-12.4625
31
0
39
0
210
0
220
0
230
1
0
LINE
5
C6
100
AcDbEntity
8
SK1
62
256
6
ByLayer
370
18
48
1
60
0
100
AcDbLine
10
-3.747303
20
-12.4625
30
0
11
-5.904684
21
-12.4625
31
0
39
0
210
0
220
0
230
1
0
LINE
5
C7
100
AcDbEntity
8
SK1
62
256
6
ByLayer
370
18
48
1
60
0
100
AcDbLine
10
-5.904684
20
11.9625
30
0
11
-3.747303
21
11.9625
31
0
39
0
210
0
220
0
230
1
0
LINE
5
C8
100
AcDbEntity
8
SK1
62
256
6
ByLayer
370
13
48
1
60
0
100
AcDbLine
10
-5.904684
20
-12.4625
30
0
11
-5.904684
21
11.9625
31
0
39
0
210
0
220
0
230
1
0
LINE
5
C9
100
AcDbEntity
8
SK1
62
256
6
ByLayer
370
18
48
1
60
0
100
AcDbLine
10
0
20
11.9625
30
0
11
0
21
-13.03649
31
0
39
0
210
0
220
0
230
1
0
LINE
5
CA
100
AcDbEntity
8
SK1
62
256
6
ByLayer
370
18
48
1
60
0
100
AcDbLine
10
-1.227723
20
-12.4625
30
0
11
-3.747303
21
-12.4625
31
0
39
0
210
0
220
0
230
1
0
LINE
5
CB
100
AcDbEntity
8
SK1
62
256
6
ByLayer
370
18
48
1
60
0
100
AcDbLine
10
-3.747303
20
11.9625
30
0
11
0
21
11.9625
31
0
39
0
210
0
220
0
230
1
0
LINE
5
CC
100
AcDbEntity
8
SK1
62
256
6
ByLayer
370
18
48
1
60
0
100
AcDbLine
10
-3.747303
20
11.9625
30
0
11
-3.747303
21
-12.4625
31
0
39
0
210
0
220
0
230
1
0
MTEXT
5
11B
100
AcDbEntity
8
SK6
62
256
6
ByLayer
370
18
48
1
60
0
100
AcDbMText
10
-57.920324
20
-57.135201
30
0
210
0
220
0
230
1
1
\W0.7596;C2A-QS25-LFG15B-130CB
40
3.5
41
0
44
1.084337
50
0
71
7
72
5
7
iso_b_vert
0
DIMENSION
5
120
100
AcDbEntity
8
2
62
256
6
ByLayer
370
18
48
1
60
0
100
AcDbDimension
2
_U0
10
65.888352
20
12.4625
30
0
11
65.888352
21
-0.2875
31
0
70
32
71
1
72
1
41
1
210
0
220
0
230
1
3
Standard
100
AcDbAlignedDimension
13
32.788352
23
-13.0375
33
0
14
0
24
12.4625
34
0
50
90
100
AcDbRotatedDimension
1001
ACAD
1000
DSTYLE
1002
{
1070
   371
1070
    13
1070
   372
1070
    13
1070
   170
1070
     0
1070
   144
1040
1.0
1070
   277
1070
     2
1070
   284
1070
     8
1070
   278
1070
    46
1070
   146
1040
1.0
1070
   345
1005
16
1070
   347
1005
16
1070
   346
1005
16
1070
   344
1005
0
1070
   343
1005
0
1070
   172
1070
     1
1070
    76
1070
     0
1070
    75
1070
     0
1070
   282
1070
     0
1070
   281
1070
     0
1070
    71
1070
     0
1070
    74
1070
     0
1070
   279
1070
     0
1070
   173
1070
     1
1070
   340
1005
11C
1070
   271
1070
     2
1070
   272
1070
     2
1070
    77
1070
     1
1070
    73
1070
     0
1070
   171
1070
     3
1070
   274
1070
     4
1070
   177
1070
     2
1070
   176
1070
     2
1070
   178
1070
     2
1070
    78
1070
     8
1070
    48
1040
-0.1
1070
    41
1040
3.5
1070
   147
1040
1.75
1070
    42
1040
1.5875
1070
    44
1040
2.0
1070
   140
1040
3.5
1002
}
1001
ACAD_DSTYLE_DIM_LINETYPE
1070
   380
1005
16
1001
ACAD_DSTYLE_DIM_EXT1_LINETYPE
1070
   381
1005
16
1001
ACAD_DSTYLE_DIM_EXT2_LINETYPE
1070
   382
1005
16
0
DIMENSION
5
13A
100
AcDbEntity
8
2
62
256
6
ByLayer
370
18
48
1
60
0
100
AcDbDimension
2
_U1
10
53.888352
20
-13.0375
30
0
11
53.888352
21
-11.5375
31
0
70
32
71
1
72
1
41
1
210
0
220
0
230
1
3
Standard
100
AcDbAlignedDimension
13
32.788352
23
-10.0375
33
0
14
32.788352
24
-13.0375
34
0
50
90
100
AcDbRotatedDimension
1001
ACAD
1000
DSTYLE
1002
{
1070
   371
1070
    13
1070
   372
1070
    13
1070
   170
1070
     0
1070
   144
1040
1.0
1070
   277
1070
     2
1070
   284
1070
     8
1070
   278
1070
    46
1070
   146
1040
1.0
1070
   345
1005
16
1070
   347
1005
16
1070
   346
1005
16
1070
   344
1005
0
1070
   343
1005
0
1070
   172
1070
     1
1070
    76
1070
     0
1070
    75
1070
     0
1070
   282
1070
     0
1070
   281
1070
     0
1070
    71
1070
     0
1070
    74
1070
     0
1070
   279
1070
     0
1070
   173
1070
     1
1070
   340
1005
11C
1070
   271
1070
     2
1070
   272
1070
     2
1070
    77
1070
     1
1070
    73
1070
     0
1070
   171
1070
     3
1070
   274
1070
     4
1070
   177
1070
     2
1070
   176
1070
     2
1070
   178
1070
     2
1070
    78
1070
     8
1070
    48
1040
-0.1
1070
    41
1040
3.5
1070
   147
1040
1.75
1070
    42
1040
1.5875
1070
    44
1040
2.0
1070
   140
1040
3.5
1002
}
1001
ACAD_DSTYLE_DIM_LINETYPE
1070
   380
1005
16
1001
ACAD_DSTYLE_DIM_EXT1_LINETYPE
1070
   381
1005
16
1001
ACAD_DSTYLE_DIM_EXT2_LINETYPE
1070
   382
1005
16
0
DIMENSION
5
153
100
AcDbEntity
8
SK2
62
256
6
ByLayer
370
18
48
1
60
0
100
AcDbDimension
2
_U2
10
-95.6
20
-12.5375
30
0
11
-95.6
21
-0.0375
31
0
70
32
71
1
72
1
41
1
210
0
220
0
230
1
3
Standard
100
AcDbAlignedDimension
13
0
23
12.4625
33
0
14
0
24
-12.5375
34
0
50
90
100
AcDbRotatedDimension
1001
ACAD
1000
DSTYLE
1002
{
1070
   371
1070
    13
1070
   372
1070
    13
1070
   170
1070
     0
1070
   144
1040
1.0
1070
   277
1070
     2
1070
   284
1070
     8
1070
   278
1070
    46
1070
   146
1040
1.0
1070
   345
1005
16
1070
   347
1005
16
1070
   346
1005
16
1070
   344
1005
0
1070
   343
1005
0
1070
   172
1070
     1
1070
    76
1070
     0
1070
    75
1070
     0
1070
   282
1070
     0
1070
   281
1070
     0
1070
    71
1070
     0
1070
    74
1070
     0
1070
   279
1070
     0
1070
   173
1070
     1
1070
   340
1005
11C
1070
   271
1070
     2
1070
   272
1070
     2
1070
    77
1070
     1
1070
    73
1070
     0
1070
   171
1070
     3
1070
   274
1070
     4
1070
   177
1070
     2
1070
   176
1070
     2
1070
   178
1070
     2
1070
    78
1070
     8
1070
    48
1040
-0.1
1070
    41
1040
3.5
1070
   147
1040
1.75
1070
    42
1040
1.5875
1070
    44
1040
2.0
1070
   140
1040
3.5
1002
}
1001
ACAD_DSTYLE_DIM_LINETYPE
1070
   380
1005
16
1001
ACAD_DSTYLE_DIM_EXT1_LINETYPE
1070
   381
1005
16
1001
ACAD_DSTYLE_DIM_EXT2_LINETYPE
1070
   382
1005
16
0
DIMENSION
5
16C
100
AcDbEntity
8
2
62
256
6
ByLayer
370
18
48
1
60
0
100
AcDbDimension
2
_U3
10
32.788352
20
18.7125
30
0
11
25.288352
21
18.7125
31
0
70
32
71
1
72
1
41
1
210
0
220
0
230
1
3
Standard
100
AcDbAlignedDimension
13
17.788352
23
-10.3625
33
0
14
32.788352
24
-13.0375
34
0
50
0
100
AcDbRotatedDimension
1001
ACAD
1000
DSTYLE
1002
{
1070
   371
1070
    13
1070
   372
1070
    13
1070
   170
1070
     0
1070
   144
1040
1.0
1070
   277
1070
     2
1070
   284
1070
     8
1070
   278
1070
    46
1070
   146
1040
1.0
1070
   345
1005
16
1070
   347
1005
16
1070
   346
1005
16
1070
   344
1005
0
1070
   343
1005
0
1070
   172
1070
     1
1070
    76
1070
     0
1070
    75
1070
     0
1070
   282
1070
     0
1070
   281
1070
     0
1070
    71
1070
     0
1070
    74
1070
     0
1070
   279
1070
     0
1070
   173
1070
     1
1070
   340
1005
11C
1070
   271
1070
     1
1070
   272
1070
     2
1070
    77
1070
     1
1070
    73
1070
     1
1070
   171
1070
     3
1070
   274
1070
     4
1070
   177
1070
     2
1070
   176
1070
     2
1070
   178
1070
     2
1070
    78
1070
     8
1070
    48
1040
-0.1
1070
    41
1040
3.5
1070
   147
1040
1.75
1070
    42
1040
1.5875
1070
    44
1040
2.0
1070
   140
1040
3.5
1002
}
1001
ACAD_DSTYLE_DIM_LINETYPE
1070
   380
1005
16
1001
ACAD_DSTYLE_DIM_EXT1_LINETYPE
1070
   381
1005
16
1001
ACAD_DSTYLE_DIM_EXT2_LINETYPE
1070
   382
1005
16
0
DIMENSION
5
185
100
AcDbEntity
8
SK2
62
256
6
ByLayer
370
18
48
1
60
0
100
AcDbDimension
2
_U4
10
32.788352
20
34.7125
30
0
11
-25.605824
21
34.7125
31
0
70
32
71
1
72
1
41
1
210
0
220
0
230
1
3
Standard
100
AcDbAlignedDimension
13
-84
23
12.4625
33
0
14
32.788352
24
-13.0375
34
0
50
0
100
AcDbRotatedDimension
1001
ACAD
1000
DSTYLE
1002
{
1070
   371
1070
    13
1070
   372
1070
    13
1070
   170
1070
     0
1070
   144
1040
1.0
1070
   277
1070
     2
1070
   284
1070
     8
1070
   278
1070
    46
1070
   146
1040
1.0
1070
   345
1005
16
1070
   347
1005
16
1070
   346
1005
16
1070
   344
1005
0
1070
   343
1005
0
1070
   172
1070
     1
1070
    76
1070
     0
1070
    75
1070
     0
1070
   282
1070
     0
1070
   281
1070
     0
1070
    71
1070
     0
1070
    74
1070
     0
1070
   279
1070
     0
1070
   173
1070
     1
1070
   340
1005
11C
1070
   271
1070
     1
1070
   272
1070
     2
1070
    77
1070
     1
1070
    73
1070
     1
1070
   171
1070
     3
1070
   274
1070
     4
1070
   177
1070
     2
1070
   176
1070
     2
1070
   178
1070
     2
1070
    78
1070
     8
1070
    48
1040
-0.1
1070
    41
1040
3.5
1070
   147
1040
1.75
1070
    42
1040
1.5875
1070
    44
1040
2.0
1070
   140
1040
3.5
1002
}
1001
ACAD_DSTYLE_DIM_LINETYPE
1070
   380
1005
16
1001
ACAD_DSTYLE_DIM_EXT1_LINETYPE
1070
   381
1005
16
1001
ACAD_DSTYLE_DIM_EXT2_LINETYPE
1070
   382
1005
16
0
DIMENSION
5
19D
100
AcDbEntity
8
2
62
256
6
ByLayer
370
18
48
1
60
0
100
AcDbDimension
2
_U5
10
32.788352
20
26.7125
30
0
11
16.394176
21
26.7125
31
0
70
32
71
1
72
1
41
1
210
0
220
0
230
1
3
Standard
100
AcDbAlignedDimension
13
0
23
12.4625
33
0
14
32.788352
24
-13.0375
34
0
50
0
100
AcDbRotatedDimension
1001
ACAD
1000
DSTYLE
1002
{
1070
   371
1070
    13
1070
   372
1070
    13
1070
   170
1070
     0
1070
   144
1040
1.0
1070
   277
1070
     2
1070
   284
1070
     8
1070
   278
1070
    46
1070
   146
1040
1.0
1070
   345
1005
16
1070
   347
1005
16
1070
   346
1005
16
1070
   344
1005
0
1070
   343
1005
0
1070
   172
1070
     1
1070
    76
1070
     0
1070
    75
1070
     0
1070
   282
1070
     0
1070
   281
1070
     0
1070
    71
1070
     0
1070
    74
1070
     0
1070
   279
1070
     0
1070
   173
1070
     1
1070
   340
1005
11C
1070
   271
1070
     1
1070
   272
1070
     2
1070
    77
1070
     1
1070
    73
1070
     1
1070
   171
1070
     3
1070
   274
1070
     4
1070
   177
1070
     2
1070
   176
1070
     2
1070
   178
1070
     2
1070
    78
1070
     8
1070
    48
1040
-0.1
1070
    41
1040
3.5
1070
   147
1040
1.75
1070
    42
1040
1.5875
1070
    44
1040
2.0
1070
   140
1040
3.5
1002
}
1001
ACAD_DSTYLE_DIM_LINETYPE
1070
   380
1005
16
1001
ACAD_DSTYLE_DIM_EXT1_LINETYPE
1070
   381
1005
16
1001
ACAD_DSTYLE_DIM_EXT2_LINETYPE
1070
   382
1005
16
0
DIMENSION
5
1B5
100
AcDbEntity
8
SK2
62
256
6
ByLayer
370
18
48
1
60
0
100
AcDbDimension
2
_U6
10
-81
20
18.7125
30
0
11
-82.5
21
18.7125
31
0
70
32
71
1
72
1
41
1
210
0
220
0
230
1
3
Standard
100
AcDbAlignedDimension
13
-84
23
12.4625
33
0
14
-81
24
12.4625
34
0
50
0
100
AcDbRotatedDimension
1001
ACAD
1000
DSTYLE
1002
{
1070
   371
1070
    13
1070
   372
1070
    13
1070
   170
1070
     0
1070
   144
1040
1.0
1070
   277
1070
     2
1070
   284
1070
     8
1070
   278
1070
    46
1070
   146
1040
1.0
1070
   345
1005
16
1070
   347
1005
16
1070
   346
1005
16
1070
   344
1005
0
1070
   343
1005
0
1070
   172
1070
     1
1070
    76
1070
     0
1070
    75
1070
     0
1070
   282
1070
     0
1070
   281
1070
     0
1070
    71
1070
     0
1070
    74
1070
     0
1070
   279
1070
     0
1070
   173
1070
     1
1070
   340
1005
11C
1070
   271
1070
     2
1070
   272
1070
     2
1070
    77
1070
     1
1070
    73
1070
     1
1070
   171
1070
     3
1070
   274
1070
     4
1070
   177
1070
     2
1070
   176
1070
     2
1070
   178
1070
     2
1070
    78
1070
     8
1070
    48
1040
-0.1
1070
    41
1040
3.5
1070
   147
1040
1.75
1070
    42
1040
1.5875
1070
    44
1040
2.0
1070
   140
1040
3.5
1002
}
1001
ACAD_DSTYLE_DIM_LINETYPE
1070
   380
1005
16
1001
ACAD_DSTYLE_DIM_EXT1_LINETYPE
1070
   381
1005
16
1001
ACAD_DSTYLE_DIM_EXT2_LINETYPE
1070
   382
1005
16
0
ENDSEC
0
SECTION
2
OBJECTS
0
DICTIONARY
5
23d
330
0
100
AcDbDictionary
280
0
281
1
3
ACAD_GROUP
350
23e
3
ACAD_MLINESTYLE
350
23f
0
DICTIONARY
5
23e
330
0
100
AcDbDictionary
280
0
281
1
0
DICTIONARY
5
23f
330
0
100
AcDbDictionary
280
0
281
1
3
Standard
350
18
0
MLINESTYLE
5
18
330
23f
100
AcDbMlineStyle
2
Standard
70
0
3

62
256
51
90
52
90
71
2
49
-0.5
62
256
6
ByLayer
49
0.5
62
256
6
ByLayer
0
RASTERVARIABLES
5
22c
330

100
AcDbRasterVariables
90
0
70
1
71
1
72
1
0
ENDSEC
0
EOF
