0
SECTION
2
HEADER
9
$ACADVER
1
AC1015
9
$DWGCODEPAGE
3
ANSI_1252
9
$HANDSEED
5
23d
9
$ANGBASE
50
0
9
$ANGDIR
70
0
9
$ATTMODE
70
1
9
$AUNITS
70
0
9
$AUPREC
70
0
9
$CECOLOR
62
256
9
$CELTSCALE
40
1
9
$CELTYPE
6
ByLayer
9
$CELWEIGHT
370
18
9
$CLAYER
8
0
9
$CMLJUST
70
0
9
$CMLSCALE
40
1
9
$CMLSTYLE
2
Standard
9
$DIMSTYLE
2
Standard
9
$TEXTSIZE
40
0.2
9
$TEXTSTYLE
7
Standard
9
$LUNITS
70
2
9
$LUPREC
70
4
9
$EXTNAMES
290
1
9
$INSUNITS
70
4
9
$LTSCALE
40
1
9
$LWDISPLAY
290
1
9
$PDMODE
70
0
9
$PDSIZE
40
0
9
$PLINEGEN
70
0
0
ENDSEC
0
SECTION
2
CLASSES
0
CLASS
1
RASTERVARIABLES
2
AcDbRasterVariables
3
ISM
90
0
280
0
281
0
0
ENDSEC
0
SECTION
2
TABLES
0
TABLE
2
VPORT
5
233
100
AcDbSymbolTable
0
VPORT
5
1
100
AcDbSymbolTableRecord
100
AcDbViewportTableRecord
2
*Active
70
0
10
0
20
0
11
1
21
1
12
-1
22
1
13
0
23
0
14
0.5
24
0.5
15
10
25
10
16
0
26
0
36
1
17
0
27
0
37
0
0
ENDTAB
0
TABLE
2
LTYPE
5
234
100
AcDbSymbolTable
0
LTYPE
5
14
100
AcDbSymbolTableRecord
100
AcDbLinetypeTableRecord
70
0
2
ByBlock
3

72
65
73
0
40
0
0
LTYPE
5
15
100
AcDbSymbolTableRecord
100
AcDbLinetypeTableRecord
70
0
2
ByLayer
3

72
65
73
0
40
0
0
LTYPE
5
16
100
AcDbSymbolTableRecord
100
AcDbLinetypeTableRecord
70
0
2
Continuous
3
Solid line
72
65
73
0
40
0
0
LTYPE
5
6E
100
AcDbSymbolTableRecord
100
AcDbLinetypeTableRecord
70
0
2
CENTER
3
____ _ ____ _ ____ _ ____
72
65
73
4
40
47.5
49
22
74
0
49
-8.5
74
0
49
8.5
74
0
49
-8.5
74
0
0
LTYPE
5
6F
100
AcDbSymbolTableRecord
100
AcDbLinetypeTableRecord
70
0
2
DASHED
3
__ __ __ __ __ __ __ __ __
72
65
73
2
40
25.72
49
12.86
74
0
49
-12.86
74
0
0
ENDTAB
0
TABLE
2
LAYER
5
235
100
AcDbSymbolTable
0
LAYER
5
10
100
AcDbSymbolTableRecord
100
AcDbLayerTableRecord
2
0
70
0
62
7
6
Continuous
290
1
370
-3
390
0
0
LAYER
5
71
100
AcDbSymbolTableRecord
100
AcDbLayerTableRecord
2
80
70
0
62
-6
6
Continuous
290
1
370
-3
390
0
0
LAYER
5
73
100
AcDbSymbolTableRecord
100
AcDbLayerTableRecord
2
81
70
0
62
-3
6
Continuous
290
1
370
-3
390
0
0
LAYER
5
75
100
AcDbSymbolTableRecord
100
AcDbLayerTableRecord
2
1
70
0
62
4
6
Continuous
290
1
370
-3
390
0
0
LAYER
5
161
100
AcDbSymbolTableRecord
100
AcDbLayerTableRecord
2
Defpoints
70
0
62
7
6
Continuous
290
0
370
-3
390
0
0
LAYER
5
16E
100
AcDbSymbolTableRecord
100
AcDbLayerTableRecord
2
2
70
0
62
7
6
Continuous
290
1
370
-3
390
0
0
LAYER
5
220
100
AcDbSymbolTableRecord
100
AcDbLayerTableRecord
2
SK1
70
0
62
4
6
Continuous
290
1
370
-3
390
0
0
LAYER
5
221
100
AcDbSymbolTableRecord
100
AcDbLayerTableRecord
2
SK2
70
0
62
7
6
Continuous
290
1
370
-3
390
0
0
LAYER
5
222
100
AcDbSymbolTableRecord
100
AcDbLayerTableRecord
2
SK6
70
0
62
5
6
Continuous
290
1
370
-3
390
0
0
ENDTAB
0
TABLE
2
STYLE
5
236
100
AcDbSymbolTable
0
STYLE
5
11
100
AcDbSymbolTableRecord
100
AcDbTextStyleTableRecord
2
Standard
3
txt
70
0
71
0
40
0
41
1
42
0
50
0
0
STYLE
5
150
100
AcDbSymbolTableRecord
100
AcDbTextStyleTableRecord
2
iso_b_vert
3
simplex.shx
70
0
71
0
40
0
41
1
42
0
50
0
0
STYLE
5
151
100
AcDbSymbolTableRecord
100
AcDbTextStyleTableRecord
2
DWGDirectTextStyle
3
simplex
70
0
71
0
40
0
41
1
42
0
50
0
0
ENDTAB
0
TABLE
2
DIMSTYLE
5
237
100
AcDbSymbolTable
100
AcDbDimStyleTable
0
DIMSTYLE
105
27
100
AcDbSymbolTableRecord
100
AcDbDimStyleTableRecord
2
Standard
70
0
3
<>
41
0.18
42
0.0625
44
0.18
140
0.18
147
0.09
73
0
74
0
77
1
271
2
275
0
278
52
280
0
340
11
0
ENDTAB
0
TABLE
2
VIEW
5
238
100
AcDbSymbolTable
0
ENDTAB
0
TABLE
2
UCS
5
239
100
AcDbSymbolTable
0
ENDTAB
0
TABLE
2
APPID
5
23a
100
AcDbSymbolTable
0
APPID
5
12
100
AcDbSymbolTableRecord
100
AcDbRegAppTableRecord
2
ACAD
70
0
0
APPID
5
15D
100
AcDbSymbolTableRecord
100
AcDbRegAppTableRecord
2
ACAD_DSTYLE_DIMBREAK
70
0
0
APPID
5
1DF
100
AcDbSymbolTableRecord
100
AcDbRegAppTableRecord
2
ACAD_DSTYLE_DIM_LINETYPE
70
0
0
APPID
5
1E0
100
AcDbSymbolTableRecord
100
AcDbRegAppTableRecord
2
ACAD_DSTYLE_DIM_EXT1_LINETYPE
70
0
0
APPID
5
1E1
100
AcDbSymbolTableRecord
100
AcDbRegAppTableRecord
2
ACAD_DSTYLE_DIM_EXT2_LINETYPE
70
0
0
APPID
5
21C
100
AcDbSymbolTableRecord
100
AcDbRegAppTableRecord
2
ACAD_MLEADERVER
70
0
0
ENDTAB
0
TABLE
2
BLOCK_RECORD
5
23b
100
AcDbSymbolTable
0
BLOCK_RECORD
5
1F
100
AcDbSymbolTableRecord
100
AcDbBlockTableRecord
2
*Model_Space
340
0
70
0
0
BLOCK_RECORD
5
1B
100
AcDbSymbolTableRecord
100
AcDbBlockTableRecord
2
*Paper_Space
340
0
70
0
0
BLOCK_RECORD
5
23
100
AcDbSymbolTableRecord
100
AcDbBlockTableRecord
2
*Paper_Space0
340
0
70
0
0
BLOCK_RECORD
5
162
100
AcDbSymbolTableRecord
100
AcDbBlockTableRecord
2
*D1
340
0
70
0
0
BLOCK_RECORD
5
16F
100
AcDbSymbolTableRecord
100
AcDbBlockTableRecord
2
_U0
340
0
70
0
0
BLOCK_RECORD
5
17B
100
AcDbSymbolTableRecord
100
AcDbBlockTableRecord
2
*D3
340
0
70
0
0
BLOCK_RECORD
5
188
100
AcDbSymbolTableRecord
100
AcDbBlockTableRecord
2
_U1
340
0
70
0
0
BLOCK_RECORD
5
194
100
AcDbSymbolTableRecord
100
AcDbBlockTableRecord
2
*D5
340
0
70
0
0
BLOCK_RECORD
5
1A0
100
AcDbSymbolTableRecord
100
AcDbBlockTableRecord
2
_U2
340
0
70
0
0
BLOCK_RECORD
5
1AC
100
AcDbSymbolTableRecord
100
AcDbBlockTableRecord
2
*D7
340
0
70
0
0
BLOCK_RECORD
5
1B8
100
AcDbSymbolTableRecord
100
AcDbBlockTableRecord
2
_U3
340
0
70
0
0
ENDTAB
0
ENDSEC
0
SECTION
2
BLOCKS
0
BLOCK
5
20
100
AcDbEntity
8
0
100
AcDbBlockBegin
2
*Model_Space
70
0
10
0
20
0
30
0
3
*Model_Space
0
ENDBLK
5
21
100
AcDbEntity
8
0
100
AcDbBlockEnd
0
BLOCK
5
1C
100
AcDbEntity
8
0
100
AcDbBlockBegin
2
*Paper_Space
70
0
10
0
20
0
30
0
3
*Paper_Space
0
ENDBLK
5
1D
100
AcDbEntity
8
0
100
AcDbBlockEnd
0
BLOCK
5
24
100
AcDbEntity
8
0
100
AcDbBlockBegin
2
*Paper_Space0
70
0
10
0
20
0
30
0
3
*Paper_Space0
0
ENDBLK
5
25
100
AcDbEntity
8
0
100
AcDbBlockEnd
0
BLOCK
5
163
100
AcDbEntity
8
0
100
AcDbBlockBegin
2
*D1
70
1
10
0
20
0
30
0
3
*D1
0
LINE
5
165
100
AcDbEntity
8
0
62
256
6
ByLayer
370
-2
48
1
60
0
100
AcDbLine
10
71.5875
20
39
30
0
11
103.1
21
39
31
0
39
0
210
0
220
0
230
1
0
LINE
5
166
100
AcDbEntity
8
0
62
256
6
ByLayer
370
-2
48
1
60
0
100
AcDbLine
10
1.5875
20
0
30
0
11
103.1
21
0
31
0
39
0
210
0
220
0
230
1
0
LINE
5
167
100
AcDbEntity
8
0
62
256
6
ByLayer
370
-2
48
1
60
0
100
AcDbLine
10
101.1
20
35.5
30
0
11
101.1
21
3.5
31
0
39
0
210
0
220
0
230
1
0
SOLID
5
168
100
AcDbEntity
8
0
62
256
6
ByLayer
370
-1
48
1
60
0
100
AcDbTrace
10
101.683333
20
35.5
30
0
11
100.516667
21
35.5
31
0
12
101.1
22
39
32
0
13
101.1
23
39
33
0
39
0
210
0
220
0
230
1
0
SOLID
5
169
100
AcDbEntity
8
0
62
256
6
ByLayer
370
-1
48
1
60
0
100
AcDbTrace
10
100.516667
20
3.5
30
0
11
101.683333
21
3.5
31
0
12
101.1
22
0
32
0
13
101.1
23
0
33
0
39
0
210
0
220
0
230
1
0
MTEXT
5
16A
100
AcDbEntity
8
0
62
256
6
ByLayer
370
18
48
1
60
0
100
AcDbMText
10
94.1
20
19.5
30
0
210
0
220
0
230
1
1
\A1;39
40
3.5
41
0
44
1
50
90
71
5
72
5
7
iso_b_vert
0
POINT
5
16B
100
AcDbEntity
8
Defpoints
62
0
6
ByLayer
370
-1
48
1
60
0
100
AcDbPoint
10
70
20
39
30
0
39
0
210
0
220
0
230
1
50
360
0
POINT
5
16C
100
AcDbEntity
8
Defpoints
62
0
6
ByLayer
370
-1
48
1
60
0
100
AcDbPoint
10
0
20
0
30
0
39
0
210
0
220
0
230
1
50
360
0
POINT
5
16D
100
AcDbEntity
8
Defpoints
62
0
6
ByLayer
370
-1
48
1
60
0
100
AcDbPoint
10
101.1
20
0
30
0
39
0
210
0
220
0
230
1
50
360
0
ENDBLK
5
164
100
AcDbEntity
8
0
100
AcDbBlockEnd
0
BLOCK
5
176
100
AcDbEntity
8
0
100
AcDbBlockBegin
2
_U0
70
0
10
0
20
0
30
0
3
_U0
0
MTEXT
5
170
100
AcDbEntity
8
2
62
256
6
ByLayer
370
18
48
1
60
0
100
AcDbMText
10
100.410366
20
17.567034
30
0
210
0
220
0
230
1
1
\W0.6927;39
40
3.5
41
0
44
1.084337
50
90
71
7
72
5
7
iso_b_vert
0
LINE
5
171
100
AcDbEntity
8
2
62
256
6
ByLayer
370
13
48
1
60
0
100
AcDbLine
10
71.5875
20
39
30
0
11
103.1
21
39
31
0
39
0
210
0
220
0
230
1
0
LINE
5
172
100
AcDbEntity
8
2
62
256
6
ByLayer
370
13
48
1
60
0
100
AcDbLine
10
1.5875
20
0
30
0
11
103.1
21
0
31
0
39
0
210
0
220
0
230
1
0
LINE
5
173
100
AcDbEntity
8
2
62
256
6
ByLayer
370
13
48
1
60
0
100
AcDbLine
10
101.1
20
39
30
0
11
101.1
21
0
31
0
39
0
210
0
220
0
230
1
0
SOLID
5
174
100
AcDbEntity
8
2
62
256
6
ByLayer
370
18
48
1
60
0
100
AcDbTrace
10
101.1
20
39
30
0
11
101.560784
21
35.500002
31
0
12
100.639216
22
35.499998
32
0
13
100.639216
23
35.499998
33
0
39
0
210
0
220
0
230
1
0
SOLID
5
175
100
AcDbEntity
8
2
62
256
6
ByLayer
370
18
48
1
60
0
100
AcDbTrace
10
101.1
20
0
30
0
11
100.639216
21
3.499998
31
0
12
101.560784
22
3.500002
32
0
13
101.560784
23
3.500002
33
0
39
0
210
0
220
0
230
1
0
ENDBLK
5
177
100
AcDbEntity
8
0
100
AcDbBlockEnd
0
BLOCK
5
17C
100
AcDbEntity
8
0
100
AcDbBlockBegin
2
*D3
70
1
10
0
20
0
30
0
3
*D3
0
LINE
5
17E
100
AcDbEntity
8
0
62
256
6
ByLayer
370
-2
48
1
60
0
100
AcDbLine
10
71.5875
20
33
30
0
11
92.1
21
33
31
0
39
0
210
0
220
0
230
1
0
LINE
5
17F
100
AcDbEntity
8
0
62
256
6
ByLayer
370
-2
48
1
60
0
100
AcDbLine
10
71.5875
20
39
30
0
11
92.1
21
39
31
0
39
0
210
0
220
0
230
1
0
LINE
5
180
100
AcDbEntity
8
0
62
256
6
ByLayer
370
-2
48
1
60
0
100
AcDbLine
10
90.1
20
29.5
30
0
11
90.1
21
26
31
0
39
0
210
0
220
0
230
1
0
LINE
5
181
100
AcDbEntity
8
0
62
256
6
ByLayer
370
-2
48
1
60
0
100
AcDbLine
10
90.1
20
42.5
30
0
11
90.1
21
46
31
0
39
0
210
0
220
0
230
1
0
SOLID
5
182
100
AcDbEntity
8
0
62
256
6
ByLayer
370
-1
48
1
60
0
100
AcDbTrace
10
90.683333
20
29.5
30
0
11
89.516667
21
29.5
31
0
12
90.1
22
33
32
0
13
90.1
23
33
33
0
39
0
210
0
220
0
230
1
0
SOLID
5
183
100
AcDbEntity
8
0
62
256
6
ByLayer
370
-1
48
1
60
0
100
AcDbTrace
10
89.516667
20
42.5
30
0
11
90.683333
21
42.5
31
0
12
90.1
22
39
32
0
13
90.1
23
39
33
0
39
0
210
0
220
0
230
1
0
MTEXT
5
184
100
AcDbEntity
8
0
62
256
6
ByLayer
370
18
48
1
60
0
100
AcDbMText
10
83.1
20
36
30
0
210
0
220
0
230
1
1
\A1;6
40
3.5
41
0
44
1
50
90
71
5
72
5
7
iso_b_vert
0
POINT
5
185
100
AcDbEntity
8
Defpoints
62
0
6
ByLayer
370
-1
48
1
60
0
100
AcDbPoint
10
70
20
33
30
0
39
0
210
0
220
0
230
1
50
360
0
POINT
5
186
100
AcDbEntity
8
Defpoints
62
0
6
ByLayer
370
-1
48
1
60
0
100
AcDbPoint
10
70
20
39
30
0
39
0
210
0
220
0
230
1
50
360
0
POINT
5
187
100
AcDbEntity
8
Defpoints
62
0
6
ByLayer
370
-1
48
1
60
0
100
AcDbPoint
10
90.1
20
39
30
0
39
0
210
0
220
0
230
1
50
360
0
ENDBLK
5
17D
100
AcDbEntity
8
0
100
AcDbBlockEnd
0
BLOCK
5
18F
100
AcDbEntity
8
0
100
AcDbBlockBegin
2
_U1
70
0
10
0
20
0
30
0
3
_U1
0
MTEXT
5
189
100
AcDbEntity
8
2
62
256
6
ByLayer
370
18
48
1
60
0
100
AcDbMText
10
89.410366
20
35.374767
30
0
210
0
220
0
230
1
1
\W0.5404;6
40
3.5
41
0
44
1.084337
50
90
71
7
72
5
7
iso_b_vert
0
LINE
5
18A
100
AcDbEntity
8
2
62
256
6
ByLayer
370
13
48
1
60
0
100
AcDbLine
10
71.5875
20
33
30
0
11
92.1
21
33
31
0
39
0
210
0
220
0
230
1
0
LINE
5
18B
100
AcDbEntity
8
2
62
256
6
ByLayer
370
13
48
1
60
0
100
AcDbLine
10
71.5875
20
39
30
0
11
92.1
21
39
31
0
39
0
210
0
220
0
230
1
0
LINE
5
18C
100
AcDbEntity
8
2
62
256
6
ByLayer
370
13
48
1
60
0
100
AcDbLine
10
90.1
20
24.25
30
0
11
90.1
21
47.75
31
0
39
0
210
0
220
0
230
1
0
SOLID
5
18D
100
AcDbEntity
8
2
62
256
6
ByLayer
370
18
48
1
60
0
100
AcDbTrace
10
90.1
20
33
30
0
11
90.560784
21
29.500002
31
0
12
89.639216
22
29.499998
32
0
13
89.639216
23
29.499998
33
0
39
0
210
0
220
0
230
1
0
SOLID
5
18E
100
AcDbEntity
8
2
62
256
6
ByLayer
370
18
48
1
60
0
100
AcDbTrace
10
90.1
20
39
30
0
11
89.639216
21
42.499998
31
0
12
90.560784
22
42.500002
32
0
13
90.560784
23
42.500002
33
0
39
0
210
0
220
0
230
1
0
ENDBLK
5
190
100
AcDbEntity
8
0
100
AcDbBlockEnd
0
BLOCK
5
195
100
AcDbEntity
8
0
100
AcDbBlockBegin
2
*D5
70
1
10
0
20
0
30
0
3
*D5
0
LINE
5
197
100
AcDbEntity
8
0
62
256
6
ByLayer
370
-2
48
1
60
0
100
AcDbLine
10
52
20
31.7375
30
0
11
52
21
-33.425
31
0
39
0
210
0
220
0
230
1
0
LINE
5
198
100
AcDbEntity
8
0
62
256
6
ByLayer
370
-2
48
1
60
0
100
AcDbLine
10
70
20
31.4125
30
0
11
70
21
-33.425
31
0
39
0
210
0
220
0
230
1
0
LINE
5
199
100
AcDbEntity
8
0
62
256
6
ByLayer
370
-2
48
1
60
0
100
AcDbLine
10
55.5
20
-31.425
30
0
11
66.5
21
-31.425
31
0
39
0
210
0
220
0
230
1
0
SOLID
5
19A
100
AcDbEntity
8
0
62
256
6
ByLayer
370
-1
48
1
60
0
100
AcDbTrace
10
55.5
20
-30.841667
30
0
11
55.5
21
-32.008333
31
0
12
52
22
-31.425
32
0
13
52
23
-31.425
33
0
39
0
210
0
220
0
230
1
0
SOLID
5
19B
100
AcDbEntity
8
0
62
256
6
ByLayer
370
-1
48
1
60
0
100
AcDbTrace
10
66.5
20
-32.008333
30
0
11
66.5
21
-30.841667
31
0
12
70
22
-31.425
32
0
13
70
23
-31.425
33
0
39
0
210
0
220
0
230
1
0
MTEXT
5
19C
100
AcDbEntity
8
0
62
256
6
ByLayer
370
18
48
1
60
0
100
AcDbMText
10
61
20
-24.425
30
0
210
0
220
0
230
1
1
\A1;18
40
3.5
41
0
44
1
50
0
71
5
72
5
7
iso_b_vert
0
POINT
5
19D
100
AcDbEntity
8
Defpoints
62
0
6
ByLayer
370
-1
48
1
60
0
100
AcDbPoint
10
52
20
33.325
30
0
39
0
210
0
220
0
230
1
50
360
0
POINT
5
19E
100
AcDbEntity
8
Defpoints
62
0
6
ByLayer
370
-1
48
1
60
0
100
AcDbPoint
10
70
20
33
30
0
39
0
210
0
220
0
230
1
50
360
0
POINT
5
19F
100
AcDbEntity
8
Defpoints
62
0
6
ByLayer
370
-1
48
1
60
0
100
AcDbPoint
10
70
20
-31.425
30
0
39
0
210
0
220
0
230
1
50
360
0
ENDBLK
5
196
100
AcDbEntity
8
0
100
AcDbBlockEnd
0
BLOCK
5
1A7
100
AcDbEntity
8
0
100
AcDbBlockBegin
2
_U2
70
0
10
0
20
0
30
0
3
_U2
0
MTEXT
5
1A1
100
AcDbEntity
8
2
62
256
6
ByLayer
370
18
48
1
60
0
100
AcDbMText
10
59.532467
20
-30.392366
30
0
210
0
220
0
230
1
1
\W0.5321;18
40
3.5
41
0
44
1.084337
50
0
71
7
72
5
7
iso_b_vert
0
LINE
5
1A2
100
AcDbEntity
8
2
62
256
6
ByLayer
370
13
48
1
60
0
100
AcDbLine
10
52
20
31.7375
30
0
11
52
21
-33.425
31
0
39
0
210
0
220
0
230
1
0
LINE
5
1A3
100
AcDbEntity
8
2
62
256
6
ByLayer
370
13
48
1
60
0
100
AcDbLine
10
70
20
31.4125
30
0
11
70
21
-33.425
31
0
39
0
210
0
220
0
230
1
0
LINE
5
1A4
100
AcDbEntity
8
2
62
256
6
ByLayer
370
13
48
1
60
0
100
AcDbLine
10
52
20
-31.425
30
0
11
70
21
-31.425
31
0
39
0
210
0
220
0
230
1
0
SOLID
5
1A5
100
AcDbEntity
8
2
62
256
6
ByLayer
370
18
48
1
60
0
100
AcDbTrace
10
52
20
-31.425
30
0
11
55.499998
21
-30.964216
31
0
12
55.500002
22
-31.885784
32
0
13
55.500002
23
-31.885784
33
0
39
0
210
0
220
0
230
1
0
SOLID
5
1A6
100
AcDbEntity
8
2
62
256
6
ByLayer
370
18
48
1
60
0
100
AcDbTrace
10
70
20
-31.425
30
0
11
66.500002
21
-31.885784
31
0
12
66.499998
22
-30.964216
32
0
13
66.499998
23
-30.964216
33
0
39
0
210
0
220
0
230
1
0
ENDBLK
5
1A8
100
AcDbEntity
8
0
100
AcDbBlockEnd
0
BLOCK
5
1AD
100
AcDbEntity
8
0
100
AcDbBlockBegin
2
*D7
70
1
10
0
20
0
30
0
3
*D7
0
LINE
5
1AF
100
AcDbEntity
8
0
62
256
6
ByLayer
370
-2
48
1
60
0
100
AcDbLine
10
0
20
1.5875
30
0
11
0
21
55.75
31
0
39
0
210
0
220
0
230
1
0
LINE
5
1B0
100
AcDbEntity
8
0
62
256
6
ByLayer
370
-2
48
1
60
0
100
AcDbLine
10
70
20
40.5875
30
0
11
70
21
55.75
31
0
39
0
210
0
220
0
230
1
0
LINE
5
1B1
100
AcDbEntity
8
0
62
256
6
ByLayer
370
-2
48
1
60
0
100
AcDbLine
10
3.5
20
53.75
30
0
11
66.5
21
53.75
31
0
39
0
210
0
220
0
230
1
0
SOLID
5
1B2
100
AcDbEntity
8
0
62
256
6
ByLayer
370
-1
48
1
60
0
100
AcDbTrace
10
3.5
20
54.333333
30
0
11
3.5
21
53.166667
31
0
12
0
22
53.75
32
0
13
0
23
53.75
33
0
39
0
210
0
220
0
230
1
0
SOLID
5
1B3
100
AcDbEntity
8
0
62
256
6
ByLayer
370
-1
48
1
60
0
100
AcDbTrace
10
66.5
20
53.166667
30
0
11
66.5
21
54.333333
31
0
12
70
22
53.75
32
0
13
70
23
53.75
33
0
39
0
210
0
220
0
230
1
0
MTEXT
5
1B4
100
AcDbEntity
8
0
62
256
6
ByLayer
370
18
48
1
60
0
100
AcDbMText
10
35
20
60.75
30
0
210
0
220
0
230
1
1
\A1;70
40
3.5
41
0
44
1
50
0
71
5
72
5
7
iso_b_vert
0
POINT
5
1B5
100
AcDbEntity
8
Defpoints
62
0
6
ByLayer
370
-1
48
1
60
0
100
AcDbPoint
10
0
20
0
30
0
39
0
210
0
220
0
230
1
50
360
0
POINT
5
1B6
100
AcDbEntity
8
Defpoints
62
0
6
ByLayer
370
-1
48
1
60
0
100
AcDbPoint
10
70
20
39
30
0
39
0
210
0
220
0
230
1
50
360
0
POINT
5
1B7
100
AcDbEntity
8
Defpoints
62
0
6
ByLayer
370
-1
48
1
60
0
100
AcDbPoint
10
70
20
53.75
30
0
39
0
210
0
220
0
230
1
50
360
0
ENDBLK
5
1AE
100
AcDbEntity
8
0
100
AcDbBlockEnd
0
BLOCK
5
1BF
100
AcDbEntity
8
0
100
AcDbBlockBegin
2
_U3
70
0
10
0
20
0
30
0
3
_U3
0
MTEXT
5
1B9
100
AcDbEntity
8
2
62
256
6
ByLayer
370
18
48
1
60
0
100
AcDbMText
10
33.095034
20
54.782634
30
0
210
0
220
0
230
1
1
\W0.6740;70
40
3.5
41
0
44
1.084337
50
0
71
7
72
5
7
iso_b_vert
0
LINE
5
1BA
100
AcDbEntity
8
2
62
256
6
ByLayer
370
13
48
1
60
0
100
AcDbLine
10
0
20
1.5875
30
0
11
0
21
55.75
31
0
39
0
210
0
220
0
230
1
0
LINE
5
1BB
100
AcDbEntity
8
2
62
256
6
ByLayer
370
13
48
1
60
0
100
AcDbLine
10
70
20
40.5875
30
0
11
70
21
55.75
31
0
39
0
210
0
220
0
230
1
0
LINE
5
1BC
100
AcDbEntity
8
2
62
256
6
ByLayer
370
13
48
1
60
0
100
AcDbLine
10
0
20
53.75
30
0
11
70
21
53.75
31
0
39
0
210
0
220
0
230
1
0
SOLID
5
1BD
100
AcDbEntity
8
2
62
256
6
ByLayer
370
18
48
1
60
0
100
AcDbTrace
10
0
20
53.75
30
0
11
3.499998
21
54.210784
31
0
12
3.500002
22
53.289216
32
0
13
3.500002
23
53.289216
33
0
39
0
210
0
220
0
230
1
0
SOLID
5
1BE
100
AcDbEntity
8
2
62
256
6
ByLayer
370
18
48
1
60
0
100
AcDbTrace
10
70
20
53.75
30
0
11
66.500002
21
53.289216
31
0
12
66.499998
22
54.210784
32
0
13
66.499998
23
54.210784
33
0
39
0
210
0
220
0
230
1
0
ENDBLK
5
1C0
100
AcDbEntity
8
0
100
AcDbBlockEnd
0
ENDSEC
0
SECTION
2
ENTITIES
0
ARC
5
F4
100
AcDbEntity
8
1
62
256
6
ByLayer
370
18
48
1
60
0
100
AcDbCircle
39
0
10
52
20
31.725
30
0
40
1.6
210
0
220
0
230
1
100
AcDbArc
50
175.551791
51
180
0
ARC
5
F5
100
AcDbEntity
8
1
62
256
6
ByLayer
370
18
48
1
60
0
100
AcDbCircle
39
0
10
22.279208
20
32.7
30
0
40
1.2
210
0
220
0
230
1
100
AcDbArc
50
270
51
299.569416
0
ARC
5
F6
100
AcDbEntity
8
SK1
62
256
6
ByLayer
370
18
48
1
60
0
100
AcDbCircle
39
0
10
-0.6
20
23.45
30
0
40
0.999999999999994
210
0
220
0
230
1
100
AcDbArc
50
293.578178
51
306.869898
0
ARC
5
F7
100
AcDbEntity
8
SK1
62
256
6
ByLayer
370
18
48
1
60
0
100
AcDbCircle
39
0
10
-0.6
20
-23.45
30
0
40
0.999999999999994
210
0
220
0
230
1
100
AcDbArc
50
53.130102
51
66.421822
0
ARC
5
FB
100
AcDbEntity
8
1
62
256
6
ByLayer
370
18
48
1
60
0
100
AcDbCircle
39
0
10
31.4
20
32.65
30
0
40
1
210
0
220
0
230
1
100
AcDbArc
50
270
51
0
0
ARC
5
FC
100
AcDbEntity
8
1
62
256
6
ByLayer
370
18
48
1
60
0
100
AcDbCircle
39
0
10
69.6
20
33.383126
30
0
40
0.4
210
0
220
0
230
1
100
AcDbArc
50
266.667001
51
0
0
ARC
5
FD
100
AcDbEntity
8
1
62
256
6
ByLayer
370
18
48
1
60
0
100
AcDbCircle
39
0
10
69.6
20
38.616874
30
0
40
0.4
210
0
220
0
230
1
100
AcDbArc
50
0
51
93.332999
0
ARC
5
FE
100
AcDbEntity
8
1
62
256
6
ByLayer
370
18
48
1
60
0
100
AcDbCircle
39
0
10
45.4
20
38.616874
30
0
40
0.4
210
0
220
0
230
1
100
AcDbArc
50
86.667001
51
126.749123
0
CIRCLE
5
F8
100
AcDbEntity
8
1
62
256
6
ByLayer
370
18
48
1
60
0
100
AcDbCircle
10
43.65
20
25.1
30
0
40
2.55
39
0
210
0
220
0
230
1
0
CIRCLE
5
F9
100
AcDbEntity
8
1
62
256
6
ByLayer
370
18
48
1
60
0
100
AcDbCircle
10
43.65
20
25.1
30
0
40
3.3
39
0
210
0
220
0
230
1
0
CIRCLE
5
FA
100
AcDbEntity
8
1
62
256
6
ByLayer
370
18
48
1
60
0
100
AcDbCircle
10
43.65
20
25.1
30
0
40
5.75
39
0
210
0
220
0
230
1
0
ELLIPSE
5
FF
100
AcDbEntity
8
1
62
256
6
ByLayer
370
18
48
1
60
0
100
AcDbEllipse
10
74.090909
20
233.2
30
0
11
1.19108275494638E-14
21
194.525000009781
31
0
210
0
220
0
230
1
40
0.545455
41
2.98127071411624
42
3.08837457424067
0
ELLIPSE
5
100
100
AcDbEntity
8
1
62
256
6
ByLayer
370
18
48
1
60
0
100
AcDbEllipse
10
60.430138
20
36.039752
30
0
11
0.033449552335102
21
-0.999488059309122
31
0
210
0
220
0
230
1
40
0.962333
41
0
42
6.28318530717959
0
ELLIPSE
5
101
100
AcDbEntity
8
1
62
256
6
ByLayer
370
18
48
1
60
0
100
AcDbEllipse
10
62.929864
20
123
30
0
11
5.49082870892456E-15
21
89.6749995096135
31
0
210
0
220
0
230
1
40
0.885973
41
3.08580682322518
42
3.12341553462104
0
ELLIPSE
5
102
100
AcDbEntity
8
1
62
256
6
ByLayer
370
18
48
1
60
0
100
AcDbEllipse
10
-1029.972714
20
123.679093
30
0
11
6982.89870407318
21
-15.7389860074173
31
0
210
0
220
0
230
1
40
0.012742
41
-1.41519474411187
42
-1.41381955907645
0
ELLIPSE
5
103
100
AcDbEntity
8
1
62
256
6
ByLayer
370
18
48
1
60
0
100
AcDbEllipse
10
62.929864
20
233.200127
30
0
11
1.19108353259026E-14
21
194.525127012859
31
0
210
0
220
0
230
1
40
0.885972
41
3.11588619377523
42
3.133193582957
0
ELLIPSE
5
104
100
AcDbEntity
8
1
62
256
6
ByLayer
370
18
48
1
60
0
100
AcDbEllipse
10
51.149664
20
33.325
30
0
11
-2.78951487299375
21
3.41605763755017E-16
31
0
210
0
220
0
230
1
40
0.573576
41
0
42
1.29870801006719
0
ELLIPSE
5
105
100
AcDbEntity
8
1
62
256
6
ByLayer
370
18
48
1
60
0
100
AcDbEllipse
10
65.64074
20
233.199997
30
0
11
277.81048911542
21
3.25442587811554E-13
31
0
210
0
220
0
230
1
40
0.700208
41
-1.62274103085319
42
-1.59650279517561
0
ELLIPSE
5
106
100
AcDbEntity
8
1
62
256
6
ByLayer
370
18
48
1
60
0
100
AcDbEllipse
10
65.64074
20
122.999999
30
0
11
128.06917201328
21
1.50027318592599E-13
31
0
210
0
220
0
230
1
40
0.700208
41
-1.67750947006394
42
-1.62658215721744
0
ELLIPSE
5
107
100
AcDbEntity
8
1
62
256
6
ByLayer
370
18
48
1
60
0
100
AcDbEllipse
10
-2.347154
20
0
30
0
11
14.7536831606539
21
31.0932549155782
31
0
210
0
220
0
230
1
40
0.341999
41
-1.09123958575289
42
-0.157806186645448
0
ELLIPSE
5
108
100
AcDbEntity
8
1
62
256
6
ByLayer
370
18
48
1
60
0
100
AcDbEllipse
10
26.347154
20
0
30
0
11
14.7536831606547
21
-31.093254915579
31
0
210
0
220
0
230
1
40
0.341999
41
-2.98378646694435
42
-2.05035306783692
0
ELLIPSE
5
109
100
AcDbEntity
8
1
62
256
6
ByLayer
370
18
48
1
60
0
100
AcDbEllipse
10
26.347154
20
0
30
0
11
14.7536831606555
21
31.0932549155799
31
0
210
0
220
0
230
1
40
0.341999
41
2.05035306783694
42
2.98378646694436
0
ELLIPSE
5
10A
100
AcDbEntity
8
1
62
256
6
ByLayer
370
18
48
1
60
0
100
AcDbEllipse
10
-2.347154
20
0
30
0
11
14.7536831606552
21
-31.0932549155799
31
0
210
0
220
0
230
1
40
0.341999
41
0.157806186645438
42
1.09123958575286
0
ELLIPSE
5
10B
100
AcDbEntity
8
1
62
256
6
ByLayer
370
18
48
1
60
0
100
AcDbEllipse
10
26.093966
20
-20.75
30
0
11
4.00000000219342
21
4.68582146089959E-15
31
0
210
0
220
0
230
1
40
1
41
2.99876135256861
42
3.13286600733195
0
ELLIPSE
5
10C
100
AcDbEntity
8
1
62
256
6
ByLayer
370
18
48
1
60
0
100
AcDbEllipse
10
22.274896
20
0
30
0
11
1.92875500727009E-15
21
31.4999999999975
31
0
210
0
220
0
230
1
40
0.008727
41
0.535188254250117
42
2.3561944901924
0
ELLIPSE
5
10D
100
AcDbEntity
8
1
62
256
6
ByLayer
370
18
48
1
60
0
100
AcDbEllipse
10
64.336487
20
36.667299
30
0
11
0.43314758751142
21
5.07413065046231E-16
31
0
210
0
220
0
230
1
40
0.230868
41
-2.96705972840045
42
-2.47750918253339
0
ELLIPSE
5
10E
100
AcDbEntity
8
1
62
256
6
ByLayer
370
18
48
1
60
0
100
AcDbEllipse
10
64.336487
20
35.332701
30
0
11
0.43314758751142
21
5.07413065046231E-16
31
0
210
0
220
0
230
1
40
0.230868
41
2.47750918253339
42
2.96705972840045
0
ELLIPSE
5
10F
100
AcDbEntity
8
1
62
256
6
ByLayer
370
18
48
1
60
0
100
AcDbEllipse
10
63.044631
20
38.358749
30
0
11
0.433147585662949
21
-4.32783205651088E-11
31
0
210
0
220
0
230
1
40
0.230868
41
3.14159265358979
42
-2.96704007691037
0
ELLIPSE
5
110
100
AcDbEntity
8
1
62
256
6
ByLayer
370
18
48
1
60
0
100
AcDbEllipse
10
63.044631
20
33.641251
30
0
11
0.433147585662949
21
4.32783371787764E-11
31
0
210
0
220
0
230
1
40
0.230868
41
2.96704007691037
42
3.14159265358979
0
POINT
5
70
100
AcDbEntity
8
80
62
256
6
ByLayer
370
18
48
1
60
0
100
AcDbPoint
10
0
20
0
30
0
39
0
210
0
220
0
230
1
50
360
0
POINT
5
72
100
AcDbEntity
8
81
62
256
6
ByLayer
370
18
48
1
60
0
100
AcDbPoint
10
70
20
39
30
0
39
0
210
0
220
0
230
1
50
360
0
POINT
5
74
100
AcDbEntity
8
1
62
256
6
ByLayer
370
18
48
1
60
1
100
AcDbPoint
10
70
20
39
30
0
39
0
210
0
220
0
230
1
50
360
0
POINT
5
76
100
AcDbEntity
8
1
62
256
6
ByLayer
370
18
48
1
60
1
100
AcDbPoint
10
0
20
0
30
0
39
0
210
0
220
0
230
1
50
360
0
POINT
5
77
100
AcDbEntity
8
1
62
256
6
ByLayer
370
18
48
1
60
1
100
AcDbPoint
10
70
20
33
30
0
39
0
210
0
220
0
230
1
50
360
0
POINT
5
78
100
AcDbEntity
8
1
62
256
6
ByLayer
370
18
48
1
60
1
100
AcDbPoint
10
70
20
39
30
0
39
0
210
0
220
0
230
1
50
360
0
POINT
5
79
100
AcDbEntity
8
1
62
256
6
ByLayer
370
18
48
1
60
1
100
AcDbPoint
10
52
20
33.325
30
0
39
0
210
0
220
0
230
1
50
360
0
POINT
5
7A
100
AcDbEntity
8
1
62
256
6
ByLayer
370
18
48
1
60
1
100
AcDbPoint
10
70
20
33
30
0
39
0
210
0
220
0
230
1
50
360
0
POINT
5
7B
100
AcDbEntity
8
1
62
256
6
ByLayer
370
18
48
1
60
1
100
AcDbPoint
10
0
20
0
30
0
39
0
210
0
220
0
230
1
50
360
0
POINT
5
7C
100
AcDbEntity
8
1
62
256
6
ByLayer
370
18
48
1
60
1
100
AcDbPoint
10
70
20
39
30
0
39
0
210
0
220
0
230
1
50
360
0
SPLINE
5
111
100
AcDbEntity
8
SK1
62
256
6
ByLayer
370
18
48
1
60
0
100
AcDbSpline
70
4
71
3
72
11
73
7
40
0
40
0
40
0
40
0
40
0.24260137289863
40
0.502561214665899
40
0.761098879312195
40
1
40
1
40
1
40
1
41
1
10
-0.199999999999989
20
22.0603316233164
30
0
41
1
10
-0.200957649232748
20
22.03467763457
30
0
41
1
10
-0.211248088565583
20
21.9856476021506
30
0
41
1
10
-0.255178473897388
20
21.9196695750854
30
0
41
1
10
-0.321112940270211
20
21.8764518787731
30
0
41
1
10
-0.369683556830324
20
21.8664032520323
30
0
41
1
10
-0.394913799811292
20
21.8654753908017
30
0
0
SPLINE
5
112
100
AcDbEntity
8
SK1
62
256
6
ByLayer
370
18
48
1
60
0
100
AcDbSpline
70
4
71
3
72
11
73
7
40
0
40
0
40
0
40
0
40
0.238901121200236
40
0.497438786084572
40
0.757398627621475
40
1
40
1
40
1
40
1
41
1
10
-0.394913799811292
20
-21.8654754627471
30
0
41
1
10
-0.369683556841096
20
-21.8664033239634
30
0
41
1
10
-0.321112940313157
20
-21.8764519506625
30
0
41
1
10
-0.255178473954459
20
-21.9196696467454
30
0
41
1
10
-0.211248088575957
20
-21.9856476735436
30
0
41
1
10
-0.200957649243719
20
-22.0346777057893
30
0
41
1
10
-0.200000000000017
20
-22.0603316944385
30
0
0
SPLINE
5
113
100
AcDbEntity
8
SK1
62
256
6
ByLayer
370
18
48
1
60
0
100
AcDbSpline
70
4
71
2
72
6
73
3
40
0
40
0
40
0
40
1
40
1
40
1
41
1
10
-36.5
20
21.1556411500792
30
0
41
1
10
-37.2500000202692
20
20.7228363924583
30
0
41
1
10
-38
20
20.2900294978113
30
0
0
SPLINE
5
114
100
AcDbEntity
8
SK1
62
256
6
ByLayer
370
18
48
1
60
0
100
AcDbSpline
70
4
71
2
72
6
73
3
40
0
40
0
40
0
40
1
40
1
40
1
41
1
10
-38
20
-20.2900295032223
30
0
41
1
10
-37.2500000202654
20
-20.7228363958853
30
0
41
1
10
-36.5
20
-21.1556411516461
30
0
0
SPLINE
5
115
100
AcDbEntity
8
SK1
62
256
6
ByLayer
370
18
48
1
60
0
100
AcDbSpline
70
4
71
2
72
6
73
3
40
0
40
0
40
0
40
1
40
1
40
1
41
1
10
-0.394913799811292
20
21.8654705382346
30
0
41
1
10
-1.19497688887515
20
21.8453761190377
30
0
41
1
10
-1.99503997793928
20
21.8252816998361
30
0
0
SPLINE
5
116
100
AcDbEntity
8
SK1
62
256
6
ByLayer
370
18
48
1
60
0
100
AcDbSpline
70
4
71
2
72
6
73
3
40
0
40
0
40
0
40
1
40
1
40
1
41
1
10
-1.99503997793928
20
-21.8252817664983
30
0
41
1
10
-1.19497688887515
20
-21.845376185605
30
0
41
1
10
-0.394913799811292
20
-21.8654706047072
30
0
0
SPLINE
5
117
100
AcDbEntity
8
SK1
62
256
6
ByLayer
370
18
48
1
60
0
100
AcDbSpline
70
4
71
3
72
13
73
9
40
0
40
0
40
0
40
0
40
0.239488446613139
40
0.368403116187249
40
0.500046645745247
40
0.631682415479622
40
0.760575689762793
40
1
40
1
40
1
40
1
41
1
10
-1.99503997793928
20
21.825286524797
30
0
41
1
10
-2.0211096495122
20
21.8248845959364
30
0
41
1
10
-2.05883938576716
20
21.8310551084546
30
0
41
1
10
-2.1062761997685
20
21.8540920367489
30
0
41
1
10
-2.1388629218354
20
21.8792518859041
30
0
41
1
10
-2.16563526915769
20
21.9105242864783
30
0
41
1
10
-2.19103234710849
20
21.9567296167895
30
0
41
1
10
-2.19909149085342
20
21.9940920912339
30
0
41
1
10
-2.19999999999999
20
22.0201427571469
30
0
0
SPLINE
5
118
100
AcDbEntity
8
SK1
62
256
6
ByLayer
370
18
48
1
60
0
100
AcDbSpline
70
4
71
3
72
13
73
9
40
0
40
0
40
0
40
0
40
0.239424309709105
40
0.36831758382101
40
0.499953353497804
40
0.631596883124593
40
0.760511552875627
40
1
40
1
40
1
40
1
41
1
10
-2.19999999999999
20
-22.0201428284389
30
0
41
1
10
-2.19909149084521
20
-21.994092162624
30
0
41
1
10
-2.19103234710033
20
-21.956729688326
30
0
41
1
10
-2.1656352691468
20
-21.9105243582179
30
0
41
1
10
-2.13886292182099
20
-21.8792519577777
30
0
41
1
10
-2.1062761997531
20
-21.8540921087329
30
0
41
1
10
-2.05883938574669
20
-21.8310551805396
30
0
41
1
10
-2.02110964950145
20
-21.8248846680468
30
0
41
1
10
-1.99503997793928
20
-21.8252865969123
30
0
0
SPLINE
5
119
100
AcDbEntity
8
SK1
62
256
6
ByLayer
370
18
48
1
60
0
100
AcDbSpline
70
4
71
2
72
6
73
3
40
0
40
0
40
0
40
1
40
1
40
1
41
1
10
-2.19999999999999
20
22.0136642719968
30
0
41
1
10
-19.3500000008246
20
21.5830599810351
30
0
41
1
10
-36.5
20
21.1524539804128
30
0
0
SPLINE
5
11A
100
AcDbEntity
8
SK1
62
256
6
ByLayer
370
18
48
1
60
0
100
AcDbSpline
70
4
71
2
72
6
73
3
40
0
40
0
40
0
40
1
40
1
40
1
41
1
10
-36.5
20
-21.152454254977
30
0
41
1
10
-19.3500000008244
20
-21.5830602558515
30
0
41
1
10
-2.19999999999999
20
-22.0136645469338
30
0
0
SPLINE
5
11B
100
AcDbEntity
8
1
62
256
6
ByLayer
370
18
48
1
60
0
100
AcDbSpline
70
4
71
3
72
8
73
4
40
0
40
0
40
0
40
0
40
1
40
1
40
1
40
1
41
1
10
25.1921188463133
20
38.7182126136229
30
0
41
1
10
24.6531781654302
20
36.6956129945449
30
0
41
1
10
24.1146598990197
20
34.6729001375335
30
0
41
1
10
23.5768491959797
20
32.65
30
0
0
SPLINE
5
11C
100
AcDbEntity
8
1
62
256
6
ByLayer
370
18
48
1
60
0
100
AcDbSpline
70
4
71
3
72
15
73
11
40
0
40
0
40
0
40
0
40
0.25000000000001
40
0.50000000000002
40
0.50000000000002
40
0.625000000000007
40
0.625000000000007
40
0.749999999999994
40
0.749999999999994
40
1
40
1
40
1
40
1
41
1
10
23.5768491959797
20
32.65
30
0
41
1
10
23.5650726078035
20
32.605704001972
30
0
41
1
10
23.5415925208741
20
32.5181206426743
30
0
41
1
10
23.5182507052433
20
32.432473575086
30
0
41
1
10
23.5007976884182
20
32.3689718997741
30
0
41
1
10
23.4949889519702
20
32.3479273256336
30
0
41
1
10
23.4833901798496
20
32.306089587918
30
0
41
1
10
23.4776053763619
20
32.2853159216485
30
0
41
1
10
23.4604707436426
20
32.224060484028
30
0
41
1
10
23.4492766947907
20
32.1844119997969
30
0
41
1
10
23.4383186059721
20
32.1459721466515
30
0
0
SPLINE
5
11D
100
AcDbEntity
8
1
62
256
6
ByLayer
370
18
48
1
60
0
100
AcDbSpline
70
4
71
3
72
37
73
33
40
0
40
0
40
0
40
0
40
0.0312499999999978
40
0.0312499999999978
40
0.0624999999999956
40
0.124999999999991
40
0.124999999999991
40
0.249999999999982
40
0.249999999999982
40
0.281249999999978
40
0.281249999999978
40
0.312499999999973
40
0.312499999999973
40
0.374999999999968
40
0.374999999999968
40
0.499999999999963
40
0.499999999999963
40
0.53124999999996
40
0.53124999999996
40
0.562499999999958
40
0.624999999999961
40
0.687499999999965
40
0.687499999999965
40
0.718749999999962
40
0.718749999999962
40
0.749999999999959
40
0.749999999999959
40
0.874999999999978
40
0.874999999999978
40
0.937499999999989
40
0.937499999999989
40
1
40
1
40
1
40
1
41
1
10
30.6979991993593
20
31.65
30
0
41
1
10
30.7161596625569
20
31.65
30
0
41
1
10
30.7343436715721
20
31.6503025762777
30
0
41
1
10
30.7705404692685
20
31.6515196643775
30
0
41
1
10
30.8246748030338
20
31.6542634146374
30
0
41
1
10
30.8783209647337
20
31.6597933881372
30
0
41
1
10
30.9849379288975
20
31.6747079219338
30
0
41
1
10
31.0551208774945
20
31.6897592794783
30
0
41
1
10
31.1415829778381
20
31.7158024637559
30
0
41
1
10
31.1588116390368
20
31.7213750019034
30
0
41
1
10
31.1931357597246
20
31.7332803218201
30
0
41
1
10
31.2102683325626
20
31.7396289977521
30
0
41
1
10
31.2610060787218
20
31.7596878790594
30
0
41
1
10
31.2940493017973
20
31.7744353258395
30
0
41
1
10
31.3907724756647
20
31.8229089218058
30
0
41
1
10
31.4520714248128
20
31.8608215019205
30
0
41
1
10
31.5242042253866
20
31.9161083927452
30
0
41
1
10
31.5384465541441
20
31.9276015592398
30
0
41
1
10
31.5661892927071
20
31.9511913425106
30
0
41
1
10
31.6067111080115
20
31.9874857382757
30
0
41
1
10
31.6688047152749
20
32.0525094185346
30
0
41
1
10
31.7125622959425
20
32.1094566175086
30
0
41
1
10
31.7430477949145
20
32.1541098054289
30
0
41
1
10
31.7528200581636
20
32.1693186563508
30
0
41
1
10
31.7715554404667
20
32.2004102576542
30
0
41
1
10
31.7805452052648
20
32.2163445309867
30
0
41
1
10
31.8230509325826
20
32.2971584961779
30
0
41
1
10
31.8488697960024
20
32.3644367321645
30
0
41
1
10
31.8752531168167
20
32.4693159907482
30
0
41
1
10
31.8819729542626
20
32.5049415512714
30
0
41
1
10
31.8910147230195
20
32.5776041037324
30
0
41
1
10
31.8932370625239
20
32.6138738724258
30
0
41
1
10
31.8932370625238
20
32.65
30
0
0
SPLINE
5
11E
100
AcDbEntity
8
1
62
256
6
ByLayer
370
18
48
1
60
0
100
AcDbSpline
70
4
71
3
72
17
73
13
40
0
40
0
40
0
40
0
40
0.125
40
0.25
40
0.25
40
0.5
40
0.5
40
0.75
40
0.75
40
0.875
40
0.875
40
1
40
1
40
1
40
1
41
1
10
28.5771483829225
20
41.1696
30
0
41
1
10
28.3587647813528
20
40.989373954637
30
0
41
1
10
27.9354031986177
20
40.6485463277013
30
0
41
1
10
27.5427084824942
20
40.3468095915575
30
0
41
1
10
26.9799328705354
20
39.9234418267618
30
0
41
1
10
26.6396953359678
20
39.6801658344442
30
0
41
1
10
26.0489805093531
20
39.2714413850606
30
0
41
1
10
25.7986532729069
20
39.1059918872514
30
0
41
1
10
25.5059987030281
20
38.9164481859393
30
0
41
1
10
25.4222435837121
20
38.863042429254
30
0
41
1
10
25.2844703505753
20
38.775869550798
30
0
41
1
10
25.2304594005544
20
38.7421025006105
30
0
41
1
10
25.1921188463133
20
38.7182126136229
30
0
0
SPLINE
5
11F
100
AcDbEntity
8
1
62
256
6
ByLayer
370
18
48
1
60
0
100
AcDbSpline
70
4
71
3
72
31
73
27
40
0
40
0
40
0
40
0
40
0.124999999999996
40
0.124999999999996
40
0.249999999999992
40
0.249999999999992
40
0.312499999999992
40
0.312499999999992
40
0.374999999999991
40
0.374999999999991
40
0.499999999999989
40
0.499999999999989
40
0.624999999999987
40
0.624999999999987
40
0.656249999999988
40
0.656249999999988
40
0.687499999999988
40
0.74999999999999
40
0.74999999999999
40
0.874999999999995
40
0.874999999999995
40
0.937499999999996
40
0.937499999999996
40
0.968749999999998
40
0.968749999999998
40
1
40
1
40
1
40
1
41
1
10
28.2
20
38.7182126136229
30
0
41
1
10
28.3897904120395
20
38.7182126136229
30
0
41
1
10
28.5773997090085
20
38.7179414987235
30
0
41
1
10
28.9484319877029
20
38.7168933749496
30
0
41
1
10
29.1318544346655
20
38.7161162578329
30
0
41
1
10
29.4038062180573
20
38.7145981471087
30
0
41
1
10
29.493924765028
20
38.714033379602
30
0
41
1
10
29.6730685327213
20
38.7127911606554
30
0
41
1
10
29.761158622004
20
38.7121201705843
30
0
41
1
10
30.0206707398525
20
38.7099785513486
30
0
41
1
10
30.1875491502848
20
38.7083779496217
30
0
41
1
10
30.509223776671
20
38.7049231669586
30
0
41
1
10
30.6640213804767
20
38.7030687038211
30
0
41
1
10
30.8496631799084
20
38.7006509636297
30
0
41
1
10
30.8862591872664
20
38.7001642305038
30
0
41
1
10
30.9581790920245
20
38.6991891142352
30
0
41
1
10
31.0642569492834
20
38.6977225667954
30
0
41
1
10
31.1650020198698
20
38.6962522410532
30
0
41
1
10
31.3594835491536
20
38.6933269275676
30
0
41
1
10
31.4798243236138
20
38.6913970581078
30
0
41
1
10
31.6461993841193
20
38.6886137967256
30
0
41
1
10
31.6992940144451
20
38.6877046449426
30
0
41
1
10
31.7752953776834
20
38.6863793808515
30
0
41
1
10
31.799950398096
20
38.6859452797941
30
0
41
1
10
31.8477050029906
20
38.6850975088593
30
0
41
1
10
31.8708383801055
20
38.6846832502914
30
0
41
1
10
31.8932370625238
20
38.6842792342995
30
0
0
SPLINE
5
120
100
AcDbEntity
8
1
62
256
6
ByLayer
370
18
48
1
60
0
100
AcDbSpline
70
4
71
3
72
12
73
8
40
0
40
0
40
0
40
0
40
0.202635200367742
40
0.202635200367742
40
0.60131760018298
40
0.60131760018298
40
1
40
1
40
1
40
1
41
1
10
62.807322093242
20
38.7327411691177
30
0
41
1
10
62.6405106315244
20
38.732823830123
30
0
41
1
10
62.473699169851
20
38.732906580303
30
0
41
1
10
61.9786880976988
20
38.7331524051323
30
0
41
1
10
61.650488487347
20
38.7333157358109
30
0
41
1
10
60.9940892669867
20
38.7336430876244
30
0
41
1
10
60.6658896569777
20
38.7338071087592
30
0
41
1
10
60.3376900471419
20
38.7339714751437
30
0
0
SPLINE
5
121
100
AcDbEntity
8
1
62
256
6
ByLayer
370
18
48
1
60
0
100
AcDbSpline
70
4
71
3
72
33
73
29
40
0
40
0
40
0
40
0
40
0.125000000000031
40
0.125000000000031
40
0.187500000000046
40
0.187500000000046
40
0.250000000000062
40
0.312500000000077
40
0.312500000000077
40
0.343750000000085
40
0.343750000000085
40
0.375000000000093
40
0.375000000000093
40
0.500000000000092
40
0.500000000000092
40
0.562500000000092
40
0.562500000000092
40
0.593750000000082
40
0.593750000000082
40
0.625000000000073
40
0.625000000000073
40
0.750000000000052
40
0.750000000000052
40
0.812500000000039
40
0.812500000000039
40
0.875000000000026
40
0.875000000000026
40
1
40
1
40
1
40
1
41
1
10
32.2792156108743
20
32.65
30
0
41
1
10
32.2792156108743
20
32.5832436260867
30
0
41
1
10
32.2724024636134
20
32.517099031744
30
0
41
1
10
32.2519070702787
20
32.418804833698
30
0
41
1
10
32.243288334735
20
32.3860488117296
30
0
41
1
10
32.2229298975619
20
32.3222481913133
30
0
41
1
10
32.1994237772518
20
32.2598760962957
30
0
41
1
10
32.1697769675525
20
32.2002908544577
30
0
41
1
10
32.1452277297467
20
32.1566521540257
30
0
41
1
10
32.1366582573285
20
32.1422812788688
30
0
41
1
10
32.1187359240041
20
32.1138950568287
30
0
41
1
10
32.1093565962302
20
32.0998444499674
30
0
41
1
10
32.0609510550853
20
32.0311735123727
30
0
41
1
10
32.0172761539375
20
31.9809191664988
30
0
41
1
10
31.9446575523051
20
31.912259099656
30
0
41
1
10
31.9192581400242
20
31.8905010109516
30
0
41
1
10
31.879331242548
20
31.8595926841259
30
0
41
1
10
31.8657552067244
20
31.8496106169166
30
0
41
1
10
31.8382758559521
20
31.8304211683924
30
0
41
1
10
31.8243435742831
20
31.8211910993284
30
0
41
1
10
31.7537383245528
20
31.7768276981421
30
0
41
1
10
31.6942590621149
20
31.7470074317023
30
0
41
1
10
31.600599587541
20
31.7106842391689
30
0
41
1
10
31.5685154439816
20
31.6999671223375
30
0
41
1
10
31.5040980234736
20
31.6817637186531
30
0
41
1
10
31.4716360317391
20
31.6742157749747
30
0
41
1
10
31.3735131192457
20
31.6560926942454
30
0
41
1
10
31.3071055833143
20
31.65
30
0
41
1
10
31.2397368307141
20
31.65
30
0
0
SPLINE
5
122
100
AcDbEntity
8
1
62
256
6
ByLayer
370
18
48
1
60
0
100
AcDbSpline
70
4
71
3
72
16
73
12
40
0
40
0
40
0
40
0
40
0.250000000000002
40
0.250000000000002
40
0.500000000000004
40
0.500000000000004
40
0.750000000000006
40
0.750000000000006
40
0.875000000000003
40
0.875000000000003
40
1
40
1
40
1
40
1
41
1
10
61.774406808652
20
35.5
30
0
41
1
10
61.7537677243637
20
35.3317615078888
30
0
41
1
10
61.7329945381364
20
35.1635602573311
30
0
41
1
10
61.6910037663427
20
34.8272851112459
30
0
41
1
10
61.6697923291861
20
34.6592071762578
30
0
41
1
10
61.6265620734993
20
34.3232907952808
30
0
41
1
10
61.6045699210322
20
34.1554509537495
30
0
41
1
10
61.5702675579686
20
33.9041037014627
30
0
41
1
10
61.5586099642817
20
33.8203914326534
30
0
41
1
10
61.5345279266474
20
33.6532076112187
30
0
41
1
10
61.5221206439949
20
33.5697306716205
30
0
41
1
10
61.5089628852597
20
33.4864893083113
30
0
0
SPLINE
5
123
100
AcDbEntity
8
1
62
256
6
ByLayer
370
18
48
1
60
0
100
AcDbSpline
70
4
71
3
72
8
73
4
40
0
40
0
40
0
40
0
40
1
40
1
40
1
40
1
41
1
10
61.9330397954622
20
35.5840772376137
30
0
41
1
10
61.8802128688877
20
35.5558111996548
30
0
41
1
10
61.8273535334487
20
35.5276986550821
30
0
41
1
10
61.774406808652
20
35.5
30
0
0
SPLINE
5
124
100
AcDbEntity
8
1
62
256
6
ByLayer
370
18
48
1
60
0
100
AcDbSpline
70
4
71
3
72
20
73
16
40
0
40
0
40
0
40
0
40
0.24999999999992
40
0.24999999999992
40
0.374999999999933
40
0.374999999999933
40
0.499999999999947
40
0.499999999999947
40
0.62499999999996
40
0.62499999999996
40
0.749999999999973
40
0.749999999999973
40
0.874999999999987
40
0.874999999999987
40
1
40
1
40
1
40
1
41
1
10
62
20
35.7250311307315
30
0
41
1
10
62
20
35.7094958819083
30
0
41
1
10
61.9984050459487
20
35.6943684079369
30
0
41
1
10
61.9936571096376
20
35.6722794185904
30
0
41
1
10
61.9916895717912
20
35.6651134158443
30
0
41
1
10
61.9870887035605
20
35.6514438932603
30
0
41
1
10
61.9844457620998
20
35.6448943918017
30
0
41
1
10
61.9784667668225
20
35.6323726527539
30
0
41
1
10
61.9751283008423
20
35.6264174806154
30
0
41
1
10
61.9679840522907
20
35.6154842294122
30
0
41
1
10
61.9641534857344
20
35.6104500648765
30
0
41
1
10
61.9559769729612
20
35.601244139731
30
0
41
1
10
61.9516060515024
20
35.5970596501624
30
0
41
1
10
61.9425740123839
20
35.5897898375515
30
0
41
1
10
61.9378909441321
20
35.5866729357044
30
0
41
1
10
61.9330397954622
20
35.5840772376137
30
0
0
SPLINE
5
125
100
AcDbEntity
8
1
62
256
6
ByLayer
370
18
48
1
60
0
100
AcDbSpline
70
4
71
3
72
20
73
16
40
0
40
0
40
0
40
0
40
0.25
40
0.25
40
0.375
40
0.375
40
0.5
40
0.5
40
0.625
40
0.625
40
0.75
40
0.75
40
0.875
40
0.875
40
1
40
1
40
1
40
1
41
1
10
61.933039795462
20
36.4159227623865
30
0
41
1
10
61.9427422487556
20
36.4107312827591
30
0
41
1
10
61.9517092968702
20
36.403529525354
30
0
41
1
10
61.964047082971
20
36.3896850163108
30
0
41
1
10
61.9679371835433
20
36.3845799203338
30
0
41
1
10
61.9750781767345
20
36.3736667010935
30
0
41
1
10
61.9783611160118
20
36.367824199769
30
0
41
1
10
61.9843397653764
20
36.3553511564103
30
0
41
1
10
61.9870434392173
20
36.3486770600967
30
0
41
1
10
61.9916642630196
20
36.334975103544
30
0
41
1
10
61.9936086504077
20
36.3279014713726
30
0
41
1
10
61.9967642469955
20
36.3133082123662
30
0
41
1
10
61.9979798151933
20
36.3057306632175
30
0
41
1
10
61.9995937631251
20
36.2904457315629
30
0
41
1
10
62.0000000000113
20
36.2827395802012
30
0
41
1
10
62.0000000000113
20
36.2749688692704
30
0
0
SPLINE
5
126
100
AcDbEntity
8
1
62
256
6
ByLayer
370
18
48
1
60
0
100
AcDbSpline
70
4
71
3
72
8
73
4
40
0
40
0
40
0
40
0
40
1
40
1
40
1
40
1
41
1
10
61.774406808652
20
36.5
30
0
41
1
10
61.8273598960423
20
36.4722980163781
30
0
41
1
10
61.8802175315188
20
36.4441863055171
30
0
41
1
10
61.933039795462
20
36.4159227623865
30
0
0
SPLINE
5
127
100
AcDbEntity
8
1
62
256
6
ByLayer
370
18
48
1
60
0
100
AcDbSpline
70
4
71
3
72
16
73
12
40
0
40
0
40
0
40
0
40
0.124999999999996
40
0.124999999999996
40
0.249999999999993
40
0.249999999999993
40
0.499999999999995
40
0.499999999999995
40
0.749999999999997
40
0.749999999999997
40
1
40
1
40
1
40
1
41
1
10
61.5089628852597
20
38.5135106916887
30
0
41
1
10
61.5221180303294
20
38.4302858634964
30
0
41
1
10
61.5345255867988
20
38.3468084681364
30
0
41
1
10
61.5586102290944
20
38.1796068934215
30
0
41
1
10
61.5702699428618
20
38.0958791625312
30
0
41
1
10
61.6045749680554
20
37.8445113863886
30
0
41
1
10
61.6265668124317
20
37.6766727664943
30
0
41
1
10
61.6697949910066
20
37.3407717550907
30
0
41
1
10
61.6910054231555
20
37.1727016917544
30
0
41
1
10
61.732995258765
20
36.8364339003745
30
0
41
1
10
61.7537681164735
20
36.6682352958507
30
0
41
1
10
61.7744068086523
20
36.5000000000009
30
0
0
SPLINE
5
128
100
AcDbEntity
8
1
62
256
6
ByLayer
370
18
48
1
60
0
100
AcDbSpline
70
4
71
3
72
11
73
7
40
0
40
0
40
0
40
0
40
0.354895702968328
40
0.354895702968328
40
0.709791405936656
40
1
40
1
40
1
40
1
41
1
10
32.2792156108742
20
38.6770820057442
30
0
41
1
10
32.2892408725799
20
38.6768927957322
30
0
41
1
10
32.2986857010841
20
38.6767151378159
30
0
41
1
10
32.3162960658912
20
38.6763857009237
30
0
41
1
10
32.3311473334634
20
38.6761096330043
30
0
41
1
10
32.3439187837793
20
38.6758764521911
30
0
41
1
10
32.3492445120733
20
38.6757803057301
30
0
0
SPLINE
5
129
100
AcDbEntity
8
1
62
256
6
ByLayer
370
18
48
1
60
0
100
AcDbSpline
70
4
71
3
72
9
73
5
40
0
40
0
40
0
40
0
40
0.5
40
1
40
1
40
1
40
1
41
1
10
50.4032689572776
20
31.85
30
0
41
1
10
50.4039695616989
20
31.85
30
0
41
1
10
50.4050628026742
20
31.85
30
0
41
1
10
50.4049136135949
20
31.85
30
0
41
1
10
50.4045483279019
20
31.85
30
0
0
SPLINE
5
12A
100
AcDbEntity
8
1
62
256
6
ByLayer
370
18
48
1
60
0
100
AcDbSpline
70
4
71
3
72
36
73
32
40
0
40
0
40
0
40
0
40
0.124999999999995
40
0.124999999999995
40
0.187499999999992
40
0.187499999999992
40
0.218749999999991
40
0.218749999999991
40
0.249999999999989
40
0.249999999999989
40
0.374999999999987
40
0.374999999999987
40
0.43749999999998
40
0.43749999999998
40
0.468749999999976
40
0.468749999999976
40
0.499999999999972
40
0.499999999999972
40
0.624999999999994
40
0.624999999999994
40
0.656249999999998
40
0.656249999999998
40
0.687500000000002
40
0.687500000000002
40
0.749999999999998
40
0.749999999999998
40
0.874999999999998
40
0.874999999999998
40
0.937499999999999
40
0.937499999999999
40
1
40
1
40
1
40
1
41
1
10
50.4032689572776
20
31.85
30
0
41
1
10
50.4097092766892
20
31.950224321175
30
0
41
1
10
50.4254691097387
20
32.0482648274171
30
0
41
1
10
50.4625195277287
20
32.1921831032682
30
0
41
1
10
50.4771199837278
20
32.2396285516268
30
0
41
1
10
50.5024600081109
20
32.309990793385
30
0
41
1
10
50.5114808391781
20
32.3333103335765
30
0
41
1
10
50.5306933750656
20
32.3796750464671
30
0
41
1
10
50.5408785818055
20
32.4026946763794
30
0
41
1
10
50.5941960562758
20
32.5159029837667
30
0
41
1
10
50.6448234965224
20
32.6014262059324
30
0
41
1
10
50.7325027545533
20
32.7222863834507
30
0
41
1
10
50.7636982494304
20
32.761327617187
30
0
41
1
10
50.8135362785342
20
32.817963560006
30
0
41
1
10
50.8307007488531
20
32.836562786248
30
0
41
1
10
50.8657267062815
20
32.872755257067
30
0
41
1
10
50.8836117650938
20
32.890379745168
30
0
41
1
10
50.9748676178695
20
32.9761812844712
30
0
41
1
10
51.0536820464835
20
33.0374565421925
30
0
41
1
10
51.1594777122232
20
33.1048235625078
30
0
41
1
10
51.1810037334738
20
33.1178318020113
30
0
41
1
10
51.2248023313439
20
33.1429017496454
30
0
41
1
10
51.2471282150362
20
33.154990256977
30
0
41
1
10
51.3148620975159
20
33.1896041378396
30
0
41
1
10
51.3607919929966
20
33.2103773813599
30
0
41
1
10
51.5008362435062
20
33.2659894781979
30
0
41
1
10
51.5971853639001
20
33.2941796016161
30
0
41
1
10
51.7462870366325
20
33.3228446395435
30
0
41
1
10
51.796897124259
20
33.33011270477
30
0
41
1
10
51.8981707164792
20
33.3397498958305
30
0
41
1
10
51.9489922340815
20
33.3421626285459
30
0
41
1
10
51.9999999999999
20
33.3421496126793
30
0
0
SPLINE
5
12B
100
AcDbEntity
8
1
62
256
6
ByLayer
370
18
48
1
60
0
100
AcDbSpline
70
4
71
3
72
17
73
13
40
0
40
0
40
0
40
0
40
0.250000000000001
40
0.250000000000001
40
0.500000000000002
40
0.500000000000002
40
0.562500000000005
40
0.562500000000005
40
0.625000000000007
40
0.750000000000001
40
0.750000000000001
40
1
40
1
40
1
40
1
41
1
10
50.7475543808555
20
33.3250000000001
30
0
41
1
10
50.6888877635585
20
33.2554842581484
30
0
41
1
10
50.6376080366491
20
33.1819401354763
30
0
41
1
10
50.5496981506246
20
33.0290581210773
30
0
41
1
10
50.5130669838825
20
32.9497068168029
30
0
41
1
10
50.4765717128125
20
32.848127193204
30
0
41
1
10
50.4697725756526
20
32.8277836444864
30
0
41
1
10
50.4571990623706
20
32.7872442914108
30
0
41
1
10
50.4398477562379
20
32.7265779244066
30
0
41
1
10
50.4268703612833
20
32.666493576342
30
0
41
1
10
50.4063781570768
20
32.5474992732237
30
0
41
1
10
50.4
20
32.4697241232557
30
0
41
1
10
50.4
20
32.3946164668945
30
0
0
SPLINE
5
12C
100
AcDbEntity
8
1
62
256
6
ByLayer
370
18
48
1
60
0
100
AcDbSpline
70
4
71
3
72
27
73
23
40
0
40
0
40
0
40
0
40
0.124999999999977
40
0.124999999999977
40
0.249999999999955
40
0.249999999999955
40
0.312499999999941
40
0.343749999999942
40
0.343749999999942
40
0.374999999999942
40
0.374999999999942
40
0.499999999999942
40
0.499999999999942
40
0.624999999999941
40
0.624999999999941
40
0.687499999999948
40
0.687499999999948
40
0.749999999999955
40
0.749999999999955
40
0.874999999999977
40
0.874999999999977
40
1
40
1
40
1
40
1
41
1
10
50.7475543808555
20
33.3250000000001
30
0
41
1
10
50.7885797006651
20
33.3736120671802
30
0
41
1
10
50.8317789002407
20
33.4182536336153
30
0
41
1
10
50.9220324060813
20
33.5004955748698
30
0
41
1
10
50.9690897635275
20
33.5380903768339
30
0
41
1
10
51.0423705681922
20
33.589560697491
30
0
41
1
10
51.0796868535353
20
33.6140613856838
30
0
41
1
10
51.1179969243904
20
33.6367469660784
30
0
41
1
10
51.1437566690235
20
33.6514694182079
30
0
41
1
10
51.1567651521394
20
33.6586398076027
30
0
41
1
10
51.222056268029
20
33.693337199908
30
0
41
1
10
51.2751252522616
20
33.7174549710529
30
0
41
1
10
51.3827897047704
20
33.7590445665677
30
0
41
1
10
51.4373859088159
20
33.7765131875735
30
0
41
1
10
51.52036963585
20
33.7979730405128
30
0
41
1
10
51.5482129262202
20
33.8043337312231
30
0
41
1
10
51.604259483198
20
33.8154878621212
30
0
41
1
10
51.6325170749307
20
33.8202873184978
30
0
41
1
10
51.7172413340268
20
33.8322672946749
30
0
41
1
10
51.7737537490613
20
33.8370695225993
30
0
41
1
10
51.8868348553422
20
33.8406146920944
30
0
41
1
10
51.9434035571326
20
33.8393564983721
30
0
41
1
10
52
20
33.8351114097511
30
0
0
SPLINE
5
12D
100
AcDbEntity
8
1
62
256
6
ByLayer
370
18
48
1
60
0
100
AcDbSpline
70
4
71
3
72
10
73
6
40
0
40
0
40
0
40
0
40
0.5
40
0.5
40
1
40
1
40
1
40
1
41
1
10
23.4383186059721
20
31.65
30
0
41
1
10
23.4943187712437
20
31.65
30
0
41
1
10
23.5617765344836
20
31.65
30
0
41
1
10
23.7180281341278
20
31.65
30
0
41
1
10
23.8068166348299
20
31.65
30
0
41
1
10
23.9053431857192
20
31.65
30
0
0
SPLINE
5
12E
100
AcDbEntity
8
1
62
256
6
ByLayer
370
18
48
1
60
0
100
AcDbSpline
70
4
71
3
72
32
73
28
40
0
40
0
40
0
40
0
40
0.0905857042487622
40
0.0905857042487622
40
0.113232130310953
40
0.118893736826501
40
0.118893736826501
40
0.124555343342048
40
0.124555343342048
40
0.135878556373143
40
0.181171408497521
40
0.181171408497521
40
0.362342816995032
40
0.362342816995032
40
0.543514225492543
40
0.543514225492543
40
0.634099929741298
40
0.634099929741298
40
0.724685633990054
40
0.724685633990054
40
0.815271338238809
40
0.815271338238809
40
0.905857042487565
40
0.905857042487565
40
0.99644274673632
40
0.99644274673632
40
1
40
1
40
1
40
1
41
1
10
23.4383186059722
20
31.65
30
0
41
1
10
23.4266196175921
20
31.65
30
0
41
1
10
23.4127838136777
20
31.65
30
0
41
1
10
23.3933432645177
20
31.65
30
0
41
1
10
23.3883487430274
20
31.65
30
0
41
1
10
23.3831959135935
20
31.65
30
0
41
1
10
23.381122306761
20
31.65
30
0
41
1
10
23.3800847706127
20
31.65
30
0
41
1
10
23.3768900595709
20
31.65
30
0
41
1
10
23.3661152977216
20
31.65
30
0
41
1
10
23.3547321377893
20
31.65
30
0
41
1
10
23.3075043847671
20
31.65
30
0
41
1
10
23.2642805289376
20
31.65
30
0
41
1
10
23.1734408345052
20
31.65
30
0
41
1
10
23.1257539409718
20
31.65
30
0
41
1
10
23.0568649610638
20
31.65
30
0
41
1
10
23.0343626713623
20
31.65
30
0
41
1
10
22.9915972656386
20
31.65
30
0
41
1
10
22.9713353908744
20
31.65
30
0
41
1
10
22.9346028169906
20
31.65
30
0
41
1
10
22.9181399716714
20
31.65
30
0
41
1
10
22.890673967144
20
31.65
30
0
41
1
10
22.8796871952811
20
31.65
30
0
41
1
10
22.8645955131566
20
31.65
30
0
41
1
10
22.8605073187976
20
31.65
30
0
41
1
10
22.8601641620328
20
31.65
30
0
41
1
10
22.860156992745
20
31.65
30
0
41
1
10
22.8601556059671
20
31.65
30
0
0
SPLINE
5
12F
100
AcDbEntity
8
1
62
256
6
ByLayer
370
18
48
1
60
0
100
AcDbSpline
70
4
71
3
72
28
73
24
40
0
40
0
40
0
40
0
40
0.125000000000002
40
0.125000000000002
40
0.250000000000004
40
0.250000000000004
40
0.312500000000004
40
0.312500000000004
40
0.375000000000003
40
0.375000000000003
40
0.499999999999998
40
0.499999999999998
40
0.624999999999993
40
0.624999999999993
40
0.687499999999993
40
0.687499999999993
40
0.749999999999992
40
0.749999999999992
40
0.874999999999995
40
0.874999999999995
40
0.937499999999997
40
0.937499999999997
40
1
40
1
40
1
40
1
41
1
10
23.0745790681967
20
31.65
30
0
41
1
10
23.0797034947919
20
31.65
30
0
41
1
10
23.088339809912
20
31.6532182943537
30
0
41
1
10
23.1107129884679
20
31.6652812040201
30
0
41
1
10
23.124447738007
20
31.6741319697156
30
0
41
1
10
23.14766409967
20
31.691461769185
30
0
41
1
10
23.1558680757873
20
31.6979425634353
30
0
41
1
10
23.1727270953887
20
31.7120565487405
30
0
41
1
10
23.1814039219521
20
31.7197037416824
30
0
41
1
10
23.2079260405293
20
31.7443683618096
30
0
41
1
10
23.2262545474528
20
31.7630977756409
30
0
41
1
10
23.2631683059616
20
31.805181654542
30
0
41
1
10
23.2817602233248
20
31.8285356392096
30
0
41
1
10
23.3092208532197
20
31.8673501841443
30
0
41
1
10
23.3182435885789
20
31.880839563147
30
0
41
1
10
23.3358555373687
20
31.9088177785191
30
0
41
1
10
23.3444581436998
20
31.9233251916313
30
0
41
1
10
23.3695286319472
20
31.9684480006325
30
0
41
1
10
23.3852625864547
20
32.0006537550461
30
0
41
1
10
23.4068629022012
20
32.0524948669297
30
0
41
1
10
23.4137290017026
20
32.0703663342508
30
0
41
1
10
23.426689976007
20
32.1073844263877
30
0
41
1
10
23.4327474690385
20
32.1264291689353
30
0
41
1
10
23.4383186059724
20
32.1459721466512
30
0
0
SPLINE
5
130
100
AcDbEntity
8
1
62
256
6
ByLayer
370
18
48
1
60
0
100
AcDbSpline
70
4
71
3
72
67
73
63
40
0
40
0
40
0
40
0
40
0.0624999999999951
40
0.0624999999999951
40
0.12499999999999
40
0.12499999999999
40
0.140624999999989
40
0.140624999999989
40
0.156249999999987
40
0.156249999999987
40
0.187499999999986
40
0.187499999999986
40
0.249999999999983
40
0.249999999999983
40
0.281249999999982
40
0.281249999999982
40
0.296874999999983
40
0.296874999999983
40
0.312499999999983
40
0.312499999999983
40
0.374999999999985
40
0.374999999999985
40
0.437499999999987
40
0.437499999999987
40
0.499999999999989
40
0.499999999999989
40
0.515624999999989
40
0.515624999999989
40
0.531249999999989
40
0.562499999999989
40
0.562499999999989
40
0.624999999999991
40
0.624999999999991
40
0.687499999999992
40
0.687499999999992
40
0.749999999999994
40
0.749999999999994
40
0.781249999999995
40
0.781249999999995
40
0.812499999999996
40
0.812499999999996
40
0.843749999999996
40
0.843749999999996
40
0.874999999999997
40
0.874999999999997
40
0.890624999999997
40
0.890624999999997
40
0.906249999999998
40
0.906249999999998
40
0.921874999999998
40
0.921874999999998
40
0.937499999999998
40
0.937499999999998
40
0.953124999999999
40
0.953124999999999
40
0.96875
40
0.96875
40
0.984375000000001
40
0.984375000000001
40
0.9921875
40
0.9921875
40
1
40
1
40
1
40
1
41
1
10
26.0939661422936
20
-16.75
30
0
41
1
10
25.9411450476574
20
-16.75
30
0
41
1
10
25.7907393905346
20
-16.7587235824561
30
0
41
1
10
25.4944235323823
20
-16.7923766521907
30
0
41
1
10
25.3485149003339
20
-16.8173119978061
30
0
41
1
10
25.1688513264094
20
-16.8582753364057
30
0
41
1
10
25.133055137776
20
-16.8669592029568
30
0
41
1
10
25.061735200673
20
-16.8853066003541
30
0
41
1
10
25.0261613568963
20
-16.8949862442479
30
0
41
1
10
24.9206749810523
20
-16.9252463715981
30
0
41
1
10
24.8517543947964
20
-16.9471024839074
30
0
41
1
10
24.6489359091693
20
-17.0173915555675
30
0
41
1
10
24.5189667142253
20
-17.0705279097527
30
0
41
1
10
24.3311348980118
20
-17.1587313495764
30
0
41
1
10
24.2697152772442
20
-17.1895537422518
30
0
41
1
10
24.1793102523479
20
-17.2378411174417
30
0
41
1
10
24.1494373018678
20
-17.2542939714781
30
0
41
1
10
24.0903707209872
20
-17.2878101674212
30
0
41
1
10
24.0612577031993
20
-17.3048267556899
30
0
41
1
10
23.9177120036364
20
-17.3911498350201
30
0
41
1
10
23.8093092055448
20
-17.464159562369
30
0
41
1
10
23.6037782312901
20
-17.6170510907297
30
0
41
1
10
23.506658262145
20
-17.6969383137924
30
0
41
1
10
23.3226826887529
20
-17.8629018467327
30
0
41
1
10
23.2358313887578
20
-17.9489813964638
30
0
41
1
10
23.1332860492065
20
-18.0601508677403
30
0
41
1
10
23.1130920964353
20
-18.0825503792919
30
0
41
1
10
23.0734713701209
20
-18.1274994971278
30
0
41
1
10
23.0151248579756
20
-18.19521999998
30
0
41
1
10
22.9599331167854
20
-18.263794670769
30
0
41
1
10
22.8535358299083
20
-18.4019942148997
30
0
41
1
10
22.7879086467719
20
-18.4955276099181
30
0
41
1
10
22.6663949572527
20
-18.6849533436713
30
0
41
1
10
22.6105114709914
20
-18.7808502776935
30
0
41
1
10
22.5079301492749
20
-18.9745133251272
30
0
41
1
10
22.4612337305974
20
-19.072289730045
30
0
41
1
10
22.3978406120247
20
-19.2197973350827
30
0
41
1
10
22.3778198876576
20
-19.2691043602966
30
0
41
1
10
22.3399797834269
20
-19.3678345616461
30
0
41
1
10
22.3221557416976
20
-19.4172810080214
30
0
41
1
10
22.2888472668918
20
-19.5155916584509
30
0
41
1
10
22.2733405669466
20
-19.5645139143171
30
0
41
1
10
22.2445929677225
20
-19.6614765922429
30
0
41
1
10
22.2313516589709
20
-19.7095251963887
30
0
41
1
10
22.2131868619594
20
-19.7803883286255
30
0
41
1
10
22.2074150254758
20
-19.8038045982374
30
0
41
1
10
22.1964414497793
20
-19.8500741179433
30
0
41
1
10
22.1912419680965
20
-19.8729200014017
30
0
41
1
10
22.1814474335411
20
-19.9177003799923
30
0
41
1
10
22.1768489102108
20
-19.939650504615
30
0
41
1
10
22.1682624917521
20
-19.9823252233687
30
0
41
1
10
22.1642743399032
20
-20.0030528775521
30
0
41
1
10
22.1569340737144
20
-20.042761598549
30
0
41
1
10
22.1535814068693
20
-20.0617482025415
30
0
41
1
10
22.1475613740936
20
-20.0971510087326
30
0
41
1
10
22.1449234091477
20
-20.1133942604481
30
0
41
1
10
22.1404632668014
20
-20.1417069872851
30
0
41
1
10
22.1386390279503
20
-20.1537842014231
30
0
41
1
10
22.136599161752
20
-20.167532793797
30
0
41
1
10
22.1360344649331
20
-20.1713931285841
30
0
41
1
10
22.1351674692261
20
-20.177355135863
30
0
41
1
10
22.134865060747
20
-20.1794564020673
30
0
41
1
10
22.134698385264
20
-20.1806153952332
30
0
0
SPLINE
5
131
100
AcDbEntity
8
1
62
256
6
ByLayer
370
18
48
1
60
0
100
AcDbSpline
70
4
71
3
72
10
73
6
40
0
40
0
40
0
40
0
40
0.5
40
0.5
40
1
40
1
40
1
40
1
41
1
10
23.9053431857192
20
31.65
30
0
41
1
10
23.825681123129
20
31.3077908920247
30
0
41
1
10
23.746852899291
20
30.9659968227725
30
0
41
1
10
23.5910924148061
20
30.2832937428866
30
0
41
1
10
23.5141594672669
20
29.9423843777249
30
0
41
1
10
23.4383186059721
20
29.601957698314
30
0
0
SPLINE
5
132
100
AcDbEntity
8
1
62
256
6
ByLayer
370
18
48
1
60
0
100
AcDbSpline
70
4
71
3
72
32
73
28
40
0
40
0
40
0
40
0
40
0.124999999999993
40
0.124999999999993
40
0.249999999999986
40
0.249999999999986
40
0.374999999999979
40
0.374999999999979
40
0.499999999999971
40
0.499999999999971
40
0.531249999999971
40
0.531249999999971
40
0.562499999999971
40
0.562499999999971
40
0.624999999999973
40
0.624999999999973
40
0.749999999999976
40
0.749999999999976
40
0.78124999999998
40
0.78124999999998
40
0.812499999999984
40
0.812499999999984
40
0.874999999999989
40
0.874999999999989
40
0.937499999999995
40
0.937499999999995
40
1
40
1
40
1
40
1
41
1
10
22.2792076144253
20
27.6808413104202
30
0
41
1
10
22.3091971617309
20
27.739748535696
30
0
41
1
10
22.3436302598125
20
27.7981228609026
30
0
41
1
10
22.4207083126149
20
27.9158940525834
30
0
41
1
10
22.4633561739212
20
27.9752912754611
30
0
41
1
10
22.5558921869472
20
28.0975858377455
30
0
41
1
10
22.605784493114
20
28.1604801120641
30
0
41
1
10
22.711435417456
20
28.292664430431
30
0
41
1
10
22.7672017575789
20
28.3619446161894
30
0
41
1
10
22.8393613627147
20
28.454724133326
30
0
41
1
10
22.8539140940105
20
28.4735909776751
30
0
41
1
10
22.8832226517154
20
28.5120105341331
30
0
41
1
10
22.8979950247306
20
28.5315860189112
30
0
41
1
10
22.9423041762256
20
28.5911068891052
30
0
41
1
10
22.9718980055499
20
28.6319270962585
30
0
41
1
10
23.0601840342688
20
28.758378904948
30
0
41
1
10
23.1184224556377
20
28.847958385736
30
0
41
1
10
23.1877883505822
20
28.968865794043
30
0
41
1
10
23.2014866119682
20
28.9934973764694
30
0
41
1
10
23.228450467963
20
29.0437370763686
30
0
41
1
10
23.2417085258969
20
29.0693369968328
30
0
41
1
10
23.2803376082809
20
29.1469735650822
30
0
41
1
10
23.3046914129889
20
29.2000706234313
30
0
41
1
10
23.3498989939522
20
29.3092511691943
30
0
41
1
10
23.3707567795315
20
29.3653317206828
30
0
41
1
10
23.4081061557642
20
29.4809130423638
30
0
41
1
10
23.4246063461125
20
29.5404075126811
30
0
41
1
10
23.4383186059721
20
29.601957698314
30
0
0
SPLINE
5
133
100
AcDbEntity
8
1
62
256
6
ByLayer
370
18
48
1
60
0
100
AcDbSpline
70
4
71
3
72
30
73
26
40
0
40
0
40
0
40
0
40
0.0625000000000146
40
0.0625000000000146
40
0.0937500000000184
40
0.0937500000000184
40
0.125000000000022
40
0.125000000000022
40
0.250000000000028
40
0.250000000000028
40
0.312500000000029
40
0.312500000000029
40
0.375000000000029
40
0.375000000000029
40
0.43750000000003
40
0.43750000000003
40
0.500000000000031
40
0.500000000000031
40
0.625000000000023
40
0.625000000000023
40
0.750000000000015
40
0.750000000000015
40
0.875000000000008
40
0.875000000000008
40
1
40
1
40
1
40
1
41
1
10
13.4613248654052
20
30.0805927603169
30
0
41
1
10
13.4770644463612
20
30.0805927603168
30
0
41
1
10
13.4925182901835
20
30.0801205034908
30
0
41
1
10
13.5153082123102
20
30.0787652114225
30
0
41
1
10
13.5228395300832
20
30.0782053093477
30
0
41
1
10
13.537775923748
20
30.076876147822
30
0
41
1
10
13.5452163817752
20
30.0761022248719
30
0
41
1
10
13.5815263070002
20
30.0717959485601
30
0
41
1
10
13.6079581046676
20
30.0669872793661
30
0
41
1
10
13.6448606867708
20
30.0583172600355
30
0
41
1
10
13.6565013495868
20
30.0552244086801
30
0
41
1
10
13.6786197964872
20
30.0487371057378
30
0
41
1
10
13.6891167538208
20
30.0453372280741
30
0
41
1
10
13.7091749421594
20
30.0382729348065
30
0
41
1
10
13.7187352282342
20
30.0346082702024
30
0
41
1
10
13.7370497658741
20
30.0270468182506
30
0
41
1
10
13.7458258793004
20
30.0231382884602
30
0
41
1
10
13.77082212436
20
30.0112312950129
30
0
41
1
10
13.7858017072527
20
30.0030284643032
30
0
41
1
10
13.8132376332897
20
29.9862010424071
30
0
41
1
10
13.8256849705001
20
29.9775752500985
30
0
41
1
10
13.8485243776493
20
29.9599596837525
30
0
41
1
10
13.8589127955723
20
29.9509694256367
30
0
41
1
10
13.877931786983
20
29.932660186932
30
0
41
1
10
13.8865409364124
20
29.9233580917139
30
0
41
1
10
13.8943375672974
20
29.913954846469
30
0
0
SPLINE
5
134
100
AcDbEntity
8
1
62
256
6
ByLayer
370
18
48
1
60
0
100
AcDbSpline
70
4
71
3
72
32
73
28
40
0
40
0
40
0
40
0
40
0.25
40
0.25
40
0.374999999999998
40
0.374999999999998
40
0.437499999999994
40
0.437499999999994
40
0.499999999999991
40
0.499999999999991
40
0.62499999999998
40
0.62499999999998
40
0.687499999999978
40
0.687499999999978
40
0.749999999999977
40
0.749999999999977
40
0.812499999999975
40
0.812499999999975
40
0.843749999999976
40
0.843749999999976
40
0.874999999999977
40
0.874999999999977
40
0.937499999999988
40
0.937499999999988
40
0.968749999999994
40
0.968749999999994
40
1
40
1
40
1
40
1
41
1
10
13.8943375672973
20
9.86941261896635
30
0
41
1
10
13.8787501654512
20
9.81243201498819
30
0
41
1
10
13.8600981524864
20
9.75655023082984
30
0
41
1
10
13.8259097308549
20
9.67499387250803
30
0
41
1
10
13.8134681559942
20
9.64819007031215
30
0
41
1
10
13.792841581707
20
9.60870778228687
30
0
41
1
10
13.785636838674
20
9.59566828989819
30
0
41
1
10
13.7704696456803
20
9.5698696056034
30
0
41
1
10
13.7624961131814
20
9.55709686534382
30
0
41
1
10
13.7374904471463
20
9.51963294536139
30
0
41
1
10
13.7193382950672
20
9.49566900868402
30
0
41
1
10
13.689039794361
20
9.46183015552282
30
0
41
1
10
13.6784124135706
20
9.45090526429343
30
0
41
1
10
13.656277975813
20
9.43026612350775
30
0
41
1
10
13.6447350068564
20
9.4205071911085
30
0
41
1
10
13.6205171073694
20
9.40232505361266
30
0
41
1
10
13.607843974168
20
9.39389972204393
30
0
41
1
10
13.5877822000581
20
9.38250456041447
30
0
41
1
10
13.5808872163667
20
9.37890069603404
30
0
41
1
10
13.5669060817703
20
9.37226208194031
30
0
41
1
10
13.5598136368109
20
9.36922064667925
30
0
41
1
10
13.5382117701416
20
9.36098178019492
30
0
41
1
10
13.5233796774591
20
9.35666472180216
30
0
41
1
10
13.5003821923576
20
9.3522345198123
30
0
41
1
10
13.4925919071141
20
9.35110433740235
30
0
41
1
10
13.4770081601071
20
9.34960123302491
30
0
41
1
10
13.4691833484066
20
9.34922131452521
30
0
41
1
10
13.4613248654052
20
9.34922131452521
30
0
0
SPLINE
5
135
100
AcDbEntity
8
1
62
256
6
ByLayer
370
18
48
1
60
0
100
AcDbSpline
70
4
71
3
72
30
73
26
40
0
40
0
40
0
40
0
40
0.0624999999999964
40
0.0624999999999964
40
0.0937499999999974
40
0.0937499999999974
40
0.124999999999998
40
0.124999999999998
40
0.250000000000006
40
0.250000000000006
40
0.312500000000008
40
0.312500000000008
40
0.375000000000009
40
0.375000000000009
40
0.43750000000001
40
0.43750000000001
40
0.500000000000012
40
0.500000000000012
40
0.625000000000009
40
0.625000000000009
40
0.750000000000006
40
0.750000000000006
40
0.875000000000003
40
0.875000000000003
40
1
40
1
40
1
40
1
41
1
10
10.5386751345949
20
9.34922131452521
30
0
41
1
10
10.5229355536388
20
9.34922131452521
30
0
41
1
10
10.5074817098165
20
9.35074113394299
30
0
41
1
10
10.4846917876899
20
9.35509944740039
30
0
41
1
10
10.4771604699169
20
9.35689961322677
30
0
41
1
10
10.4622240762521
20
9.36117119765723
30
0
41
1
10
10.4547836182248
20
9.36365758390284
30
0
41
1
10
10.4184736929998
20
9.37748487924975
30
0
41
1
10
10.3920418953325
20
9.39290424748319
30
0
41
1
10
10.3551393132292
20
9.42059748954588
30
0
41
1
10
10.3434986504133
20
9.43046143490432
30
0
41
1
10
10.3213802035129
20
9.45111186483337
30
0
41
1
10
10.3108832461793
20
9.46191570446794
30
0
41
1
10
10.2908250578407
20
9.48431848058817
30
0
41
1
10
10.2812647717658
20
9.49591822570972
30
0
41
1
10
10.262950234126
20
9.51980127252989
30
0
41
1
10
10.2541741206997
20
9.53212142663477
30
0
41
1
10
10.22917787564
20
9.56957065273537
30
0
41
1
10
10.2141982927474
20
9.59526142127677
30
0
41
1
10
10.1867623667103
20
9.64772023935052
30
0
41
1
10
10.1743150294999
20
9.67449223197178
30
0
41
1
10
10.1514756223507
20
9.72890711075647
30
0
41
1
10
10.1410872044277
20
9.75655159685462
30
0
41
1
10
10.122068213017
20
9.81257982037172
30
0
41
1
10
10.1134590635876
20
9.84091160634031
30
0
41
1
10
10.1056624327026
20
9.86941261896627
30
0
0
SPLINE
5
136
100
AcDbEntity
8
1
62
256
6
ByLayer
370
18
48
1
60
0
100
AcDbSpline
70
4
71
3
72
32
73
28
40
0
40
0
40
0
40
0
40
0.250000000000002
40
0.250000000000002
40
0.375000000000002
40
0.375000000000002
40
0.437500000000002
40
0.437500000000002
40
0.500000000000001
40
0.500000000000001
40
0.625
40
0.625
40
0.687500000000002
40
0.687500000000002
40
0.750000000000003
40
0.750000000000003
40
0.812500000000004
40
0.812500000000004
40
0.843750000000003
40
0.843750000000003
40
0.875000000000002
40
0.875000000000002
40
0.937499999999998
40
0.937499999999998
40
0.968749999999999
40
0.968749999999999
40
1
40
1
40
1
40
1
41
1
10
10.1056624327027
20
29.913954846469
30
0
41
1
10
10.1212498345488
20
29.9327542695084
30
0
41
1
10
10.1399018475136
20
29.9510098933135
30
0
41
1
10
10.1740902691452
20
29.977413331973
30
0
41
1
10
10.1865318440058
20
29.9860499646858
30
0
41
1
10
10.207158418293
20
29.9987154022301
30
0
41
1
10
10.214363161326
20
30.0028887514666
30
0
41
1
10
10.2295303543197
20
30.0111275878529
30
0
41
1
10
10.2375038868186
20
30.0151973377028
30
0
41
1
10
10.2625095528537
20
30.0271090091071
30
0
41
1
10
10.2806617049328
20
30.0346937657148
30
0
41
1
10
10.3109602056391
20
30.0453642012994
30
0
41
1
10
10.3215875864295
20
30.0488020840795
30
0
41
1
10
10.343722024187
20
30.0552856889209
30
0
41
1
10
10.3552649931436
20
30.0583455135275
30
0
41
1
10
10.3794828926306
20
30.0640378913833
30
0
41
1
10
10.3921560258321
20
30.0666711051738
30
0
41
1
10
10.4122177999419
20
30.0702282001224
30
0
41
1
10
10.4191127836333
20
30.0713523776808
30
0
41
1
10
10.4330939182297
20
30.0734220792403
30
0
41
1
10
10.4401863631891
20
30.0743696982574
30
0
41
1
10
10.4617882298585
20
30.076935568727
30
0
41
1
10
10.4766203225409
20
30.0782784555614
30
0
41
1
10
10.4996178076425
20
30.0796561130286
30
0
41
1
10
10.5074080928859
20
30.0800074516351
30
0
41
1
10
10.5229918398929
20
30.080474687126
30
0
41
1
10
10.5308166515934
20
30.0805927603169
30
0
41
1
10
10.5386751345949
20
30.0805927603169
30
0
0
SPLINE
5
137
100
AcDbEntity
8
1
62
256
6
ByLayer
370
18
48
1
60
0
100
AcDbSpline
70
4
71
3
72
30
73
26
40
0
40
0
40
0
40
0
40
0.0625000000000012
40
0.0625000000000012
40
0.0937499999999991
40
0.0937499999999991
40
0.124999999999997
40
0.124999999999997
40
0.249999999999995
40
0.249999999999995
40
0.312499999999995
40
0.312499999999995
40
0.374999999999996
40
0.374999999999996
40
0.437499999999996
40
0.437499999999996
40
0.499999999999996
40
0.499999999999996
40
0.624999999999997
40
0.624999999999997
40
0.749999999999998
40
0.749999999999998
40
0.874999999999999
40
0.874999999999999
40
1
40
1
40
1
40
1
41
1
10
10.5386751345949
20
-30.0805927603169
30
0
41
1
10
10.5229355536388
20
-30.0805927603169
30
0
41
1
10
10.5074817098165
20
-30.0801205034908
30
0
41
1
10
10.4846917876899
20
-30.0787652114226
30
0
41
1
10
10.4771604699169
20
-30.0782053093477
30
0
41
1
10
10.4622240762521
20
-30.0768761478221
30
0
41
1
10
10.4547836182248
20
-30.0761022248719
30
0
41
1
10
10.4184736929998
20
-30.0717959485601
30
0
41
1
10
10.3920418953325
20
-30.0669872793661
30
0
41
1
10
10.3551393132292
20
-30.0583172600355
30
0
41
1
10
10.3434986504133
20
-30.0552244086801
30
0
41
1
10
10.3213802035129
20
-30.0487371057378
30
0
41
1
10
10.3108832461793
20
-30.0453372280741
30
0
41
1
10
10.2908250578407
20
-30.0382729348065
30
0
41
1
10
10.2812647717658
20
-30.0346082702024
30
0
41
1
10
10.262950234126
20
-30.0270468182506
30
0
41
1
10
10.2541741206997
20
-30.0231382884602
30
0
41
1
10
10.22917787564
20
-30.0112312950129
30
0
41
1
10
10.2141982927473
20
-30.0030284643032
30
0
41
1
10
10.1867623667103
20
-29.9862010424071
30
0
41
1
10
10.1743150294999
20
-29.9775752500985
30
0
41
1
10
10.1514756223507
20
-29.9599596837525
30
0
41
1
10
10.1410872044277
20
-29.9509694256367
30
0
41
1
10
10.122068213017
20
-29.9326601869321
30
0
41
1
10
10.1134590635876
20
-29.9233580917139
30
0
41
1
10
10.1056624327026
20
-29.913954846469
30
0
0
SPLINE
5
138
100
AcDbEntity
8
1
62
256
6
ByLayer
370
18
48
1
60
0
100
AcDbSpline
70
4
71
3
72
32
73
28
40
0
40
0
40
0
40
0
40
0.250000000000005
40
0.250000000000005
40
0.375000000000011
40
0.375000000000011
40
0.437500000000011
40
0.437500000000011
40
0.50000000000001
40
0.50000000000001
40
0.625000000000013
40
0.625000000000013
40
0.687500000000015
40
0.687500000000015
40
0.750000000000017
40
0.750000000000017
40
0.812500000000019
40
0.812500000000019
40
0.843750000000015
40
0.843750000000015
40
0.875000000000011
40
0.875000000000011
40
0.937500000000006
40
0.937500000000006
40
0.968750000000003
40
0.968750000000003
40
1
40
1
40
1
40
1
41
1
10
10.1056624327026
20
-9.86941261896629
30
0
41
1
10
10.1212498345488
20
-9.81243201498816
30
0
41
1
10
10.1399018475136
20
-9.75655023082979
30
0
41
1
10
10.1740902691452
20
-9.67499387250797
30
0
41
1
10
10.1865318440058
20
-9.64819007031207
30
0
41
1
10
10.207158418293
20
-9.60870778228679
30
0
41
1
10
10.214363161326
20
-9.5956682898981
30
0
41
1
10
10.2295303543197
20
-9.56986960560332
30
0
41
1
10
10.2375038868186
20
-9.55709686534374
30
0
41
1
10
10.2625095528537
20
-9.51963294536131
30
0
41
1
10
10.2806617049328
20
-9.49566900868393
30
0
41
1
10
10.3109602056391
20
-9.46183015552273
30
0
41
1
10
10.3215875864295
20
-9.45090526429331
30
0
41
1
10
10.343722024187
20
-9.43026612350764
30
0
41
1
10
10.3552649931437
20
-9.42050719110841
30
0
41
1
10
10.3794828926307
20
-9.40232505361257
30
0
41
1
10
10.3921560258321
20
-9.39389972204384
30
0
41
1
10
10.4122177999419
20
-9.38250456041439
30
0
41
1
10
10.4191127836333
20
-9.37890069603392
30
0
41
1
10
10.4330939182297
20
-9.37226208194019
30
0
41
1
10
10.4401863631891
20
-9.36922064667917
30
0
41
1
10
10.4617882298585
20
-9.36098178019481
30
0
41
1
10
10.4766203225409
20
-9.35666472180208
30
0
41
1
10
10.4996178076425
20
-9.35223451981221
30
0
41
1
10
10.507408092886
20
-9.35110433740226
30
0
41
1
10
10.5229918398929
20
-9.34960123302483
30
0
41
1
10
10.5308166515934
20
-9.3492213145251
30
0
41
1
10
10.5386751345949
20
-9.3492213145251
30
0
0
SPLINE
5
139
100
AcDbEntity
8
1
62
256
6
ByLayer
370
18
48
1
60
0
100
AcDbSpline
70
4
71
3
72
30
73
26
40
0
40
0
40
0
40
0
40
0.0624999999999889
40
0.0624999999999889
40
0.0937499999999841
40
0.0937499999999841
40
0.124999999999979
40
0.124999999999979
40
0.249999999999981
40
0.249999999999981
40
0.312499999999985
40
0.312499999999985
40
0.37499999999999
40
0.37499999999999
40
0.437499999999995
40
0.437499999999995
40
0.499999999999999
40
0.499999999999999
40
0.625
40
0.625
40
0.75
40
0.75
40
0.875
40
0.875
40
1
40
1
40
1
40
1
41
1
10
13.4613248654052
20
-9.34922131452524
30
0
41
1
10
13.4770644463612
20
-9.34922131452524
30
0
41
1
10
13.4925182901835
20
-9.35074113394299
30
0
41
1
10
13.5153082123102
20
-9.35509944740042
30
0
41
1
10
13.5228395300832
20
-9.3568996132268
30
0
41
1
10
13.537775923748
20
-9.36117119765726
30
0
41
1
10
13.5452163817752
20
-9.36365758390286
30
0
41
1
10
13.5815263070002
20
-9.37748487924978
30
0
41
1
10
13.6079581046675
20
-9.39290424748322
30
0
41
1
10
13.6448606867708
20
-9.42059748954591
30
0
41
1
10
13.6565013495867
20
-9.43046143490434
30
0
41
1
10
13.6786197964872
20
-9.45111186483339
30
0
41
1
10
13.6891167538208
20
-9.46191570446797
30
0
41
1
10
13.7091749421594
20
-9.4843184805882
30
0
41
1
10
13.7187352282342
20
-9.49591822570972
30
0
41
1
10
13.737049765874
20
-9.51980127252989
30
0
41
1
10
13.7458258793003
20
-9.5321214266348
30
0
41
1
10
13.77082212436
20
-9.56957065273537
30
0
41
1
10
13.7858017072526
20
-9.59526142127677
30
0
41
1
10
13.8132376332897
20
-9.64772023935052
30
0
41
1
10
13.8256849705001
20
-9.67449223197178
30
0
41
1
10
13.8485243776493
20
-9.72890711075647
30
0
41
1
10
13.8589127955723
20
-9.75655159685459
30
0
41
1
10
13.877931786983
20
-9.8125798203717
30
0
41
1
10
13.8865409364124
20
-9.84091160634034
30
0
41
1
10
13.8943375672974
20
-9.86941261896629
30
0
0
SPLINE
5
13A
100
AcDbEntity
8
1
62
256
6
ByLayer
370
18
48
1
60
0
100
AcDbSpline
70
4
71
3
72
32
73
28
40
0
40
0
40
0
40
0
40
0.249999999999988
40
0.249999999999988
40
0.374999999999984
40
0.374999999999984
40
0.437499999999984
40
0.437499999999984
40
0.499999999999984
40
0.499999999999984
40
0.624999999999991
40
0.624999999999991
40
0.68749999999999
40
0.68749999999999
40
0.749999999999989
40
0.749999999999989
40
0.812499999999989
40
0.812499999999989
40
0.843749999999992
40
0.843749999999992
40
0.874999999999994
40
0.874999999999994
40
0.937500000000001
40
0.937500000000001
40
0.968750000000001
40
0.968750000000001
40
1
40
1
40
1
40
1
41
1
10
13.8943375672973
20
-29.913954846469
30
0
41
1
10
13.8787501654512
20
-29.9327542695083
30
0
41
1
10
13.8600981524864
20
-29.9510098933135
30
0
41
1
10
13.8259097308548
20
-29.977413331973
30
0
41
1
10
13.8134681559942
20
-29.9860499646858
30
0
41
1
10
13.792841581707
20
-29.9987154022301
30
0
41
1
10
13.785636838674
20
-30.0028887514666
30
0
41
1
10
13.7704696456802
20
-30.0111275878529
30
0
41
1
10
13.7624961131814
20
-30.0151973377028
30
0
41
1
10
13.7374904471463
20
-30.0271090091071
30
0
41
1
10
13.7193382950672
20
-30.0346937657148
30
0
41
1
10
13.6890397943609
20
-30.0453642012995
30
0
41
1
10
13.6784124135705
20
-30.0488020840795
30
0
41
1
10
13.656277975813
20
-30.0552856889209
30
0
41
1
10
13.6447350068564
20
-30.0583455135275
30
0
41
1
10
13.6205171073694
20
-30.0640378913833
30
0
41
1
10
13.607843974168
20
-30.0666711051738
30
0
41
1
10
13.5877822000581
20
-30.0702282001224
30
0
41
1
10
13.5808872163667
20
-30.0713523776808
30
0
41
1
10
13.5669060817703
20
-30.0734220792403
30
0
41
1
10
13.5598136368109
20
-30.0743696982574
30
0
41
1
10
13.5382117701415
20
-30.076935568727
30
0
41
1
10
13.5233796774591
20
-30.0782784555613
30
0
41
1
10
13.5003821923576
20
-30.0796561130286
30
0
41
1
10
13.4925919071141
20
-30.0800074516351
30
0
41
1
10
13.4770081601071
20
-30.080474687126
30
0
41
1
10
13.4691833484066
20
-30.0805927603169
30
0
41
1
10
13.4613248654052
20
-30.0805927603169
30
0
0
SPLINE
5
13B
100
AcDbEntity
8
1
62
256
6
ByLayer
370
18
48
1
60
0
100
AcDbSpline
70
4
71
3
72
10
73
6
40
0
40
0
40
0
40
0
40
0.499999999999998
40
0.499999999999998
40
1
40
1
40
1
40
1
41
1
10
22.2792076144253
20
27.6808413104201
30
0
41
1
10
22.2318718677169
20
27.5878616643276
30
0
41
1
10
22.1966425889681
20
27.492605434315
30
0
41
1
10
22.1488047629374
20
27.2974965415979
30
0
41
1
10
22.1362027296174
20
27.1976438773933
30
0
41
1
10
22.134698385264
20
27.0954379800999
30
0
0
SPLINE
5
13C
100
AcDbEntity
8
SK1
62
256
6
ByLayer
370
18
48
1
60
0
100
AcDbSpline
70
4
71
3
72
49
73
45
40
0
40
0
40
0
40
0
40
0.0158520726275276
40
0.0443313515413167
40
0.0728106304551057
40
0.101289909368895
40
0.129769188282684
40
0.158248467196473
40
0.215207025024051
40
0.24368630393784
40
0.272165582851629
40
0.300644861765418
40
0.329124140679207
40
0.357603419592996
40
0.386082698506785
40
0.414561977420574
40
0.428801616877468
40
0.443041256334363
40
0.457280895791257
40
0.471520535248152
40
0.485760174705046
40
0.492879994433494
40
0.499999814161941
40
0.507119633890388
40
0.514239453618835
40
0.52847909307573
40
0.542718732532624
40
0.556958371989519
40
0.571198011446413
40
0.585437650903308
40
0.613916929817097
40
0.642396208730886
40
0.670875487644675
40
0.699354766558464
40
0.727834045472253
40
0.756313324386042
40
0.784792603299831
40
0.841751161127409
40
0.870230440041198
40
0.898709718954987
40
0.927188997868776
40
0.955668276782565
40
0.984147555696354
40
1
40
1
40
1
40
1
41
1
10
-38
20
-20.2900103501323
30
0
41
1
10
-38
20
-20.283808813205
30
0
41
1
10
-38
20
-20.2386783256176
30
0
41
1
10
-38
20
-20.0459066437045
30
0
41
1
10
-38
20
-19.6579362347721
30
0
41
1
10
-38
20
-19.1216505379956
30
0
41
1
10
-38
20
-18.4471799717542
30
0
41
1
10
-38
20
-17.3708466567051
30
0
41
1
10
-38
20
-16.0627718728323
30
0
41
1
10
-38
20
-14.5156181768618
30
0
41
1
10
-38
20
-13.2517907463501
30
0
41
1
10
-38
20
-11.8841222937699
30
0
41
1
10
-38
20
-10.4165562193455
30
0
41
1
10
-38
20
-8.85372672313898
30
0
41
1
10
-38
20
-7.20134092284709
30
0
41
1
10
-38
20
-5.76201911469511
30
0
41
1
10
-38
20
-4.5640765607352
30
0
41
1
10
-38
20
-3.65884583736087
30
0
41
1
10
-38
20
-2.74483905839463
30
0
41
1
10
-38
20
-1.82748828650287
30
0
41
1
10
-38
20
-1.06947767603967
30
0
41
1
10
-38
20
-0.455018198724474
30
0
41
1
10
-38
20
4.514861303E-07
30
0
41
1
10
-38
20
0.455018630552075
30
0
41
1
10
-38
20
1.06947718042707
30
0
41
1
10
-38
20
1.82748862261292
30
0
41
1
10
-38
20
2.74483966025932
30
0
41
1
10
-38
20
3.65884523285217
30
0
41
1
10
-38
20
4.56407688146012
30
0
41
1
10
-38
20
5.76201962732219
30
0
41
1
10
-38
20
7.20134053529003
30
0
41
1
10
-38
20
8.85372716578038
30
0
41
1
10
-38
20
10.4165563625368
30
0
41
1
10
-38
20
11.884121927153
30
0
41
1
10
-38
20
13.2517911056129
30
0
41
1
10
-38
20
14.5156182315173
30
0
41
1
10
-38
20
16.0627714181563
30
0
41
1
10
-38
20
17.3708469037194
30
0
41
1
10
-38
20
18.4471796582741
30
0
41
1
10
-38
20
19.121649880576
30
0
41
1
10
-38
20
19.6579364097435
30
0
41
1
10
-38
20
20.0459061788578
30
0
41
1
10
-38
20
20.2386786547084
30
0
41
1
10
-38
20
20.2838093459905
30
0
41
1
10
-38
20
20.2900106498245
30
0
0
SPLINE
5
13D
100
AcDbEntity
8
SK1
62
256
6
ByLayer
370
18
48
1
60
0
100
AcDbSpline
70
4
71
3
72
36
73
32
40
0
40
0
40
0
40
0
40
0.249999999999995
40
0.249999999999995
40
0.374999999999995
40
0.374999999999995
40
0.499999999999994
40
0.499999999999994
40
0.624999999999994
40
0.624999999999994
40
0.687499999999995
40
0.687499999999995
40
0.749999999999996
40
0.749999999999996
40
0.812499999999997
40
0.812499999999997
40
0.843749999999998
40
0.843749999999998
40
0.874999999999998
40
0.874999999999998
40
0.906249999999999
40
0.906249999999999
40
0.921874999999999
40
0.921874999999999
40
0.937499999999999
40
0.937499999999999
40
0.953124999999999
40
0.953124999999999
40
0.968749999999999
40
0.968749999999999
40
1
40
1
40
1
40
1
41
1
10
-0.200000000000017
20
-7.03415845154797
30
0
41
1
10
-0.200331074104753
20
-6.96758473110464
30
0
41
1
10
-0.201942367211245
20
-6.90082001005126
30
0
41
1
10
-0.207091999731233
20
-6.80034067321819
30
0
41
1
10
-0.209269492367241
20
-6.76679198903059
30
0
41
1
10
-0.214824426638018
20
-6.69957126003933
30
0
41
1
10
-0.21819915020231
20
-6.66587124141833
30
0
41
1
10
-0.226629907857017
20
-6.59846295367004
30
0
41
1
10
-0.231660540619686
20
-6.56479252713515
30
0
41
1
10
-0.241214598359392
20
-6.5144059185414
30
0
41
1
10
-0.24474520514363
20
-6.49760452342764
30
0
41
1
10
-0.252727620657765
20
-6.46421416849179
30
0
41
1
10
-0.257169431390224
20
-6.44763062016602
30
0
41
1
10
-0.267439101060546
20
-6.41481626716185
30
0
41
1
10
-0.27323621273078
20
-6.3985772093198
30
0
41
1
10
-0.283833370168679
20
-6.37471397159132
30
0
41
1
10
-0.287711149711186
20
-6.3668056729274
30
0
41
1
10
-0.296343527957418
20
-6.35152953268795
30
0
41
1
10
-0.301085882076165
20
-6.34414232274304
30
0
41
1
10
-0.312078412289935
20
-6.33025774259031
30
0
41
1
10
-0.31822232846153
20
-6.32386838427445
30
0
41
1
10
-0.329057935890972
20
-6.31619338160348
30
0
41
1
10
-0.332859652575024
20
-6.31402544311607
30
0
41
1
10
-0.340958863848982
20
-6.31070772605878
30
0
41
1
10
-0.345208124413119
20
-6.30960458427649
30
0
41
1
10
-0.35368915432602
20
-6.30870360354672
30
0
41
1
10
-0.358037716131264
20
-6.30890123768719
30
0
41
1
10
-0.366345960396387
20
-6.31042877188762
30
0
41
1
10
-0.37039582601011
20
-6.31175696012832
30
0
41
1
10
-0.381850124236081
20
-6.31686284615006
30
0
41
1
10
-0.388651860853344
20
-6.32169800880934
30
0
41
1
10
-0.394913799811292
20
-6.32721828439901
30
0
0
SPLINE
5
13E
100
AcDbEntity
8
SK1
62
256
6
ByLayer
370
18
48
1
60
0
100
AcDbSpline
70
4
71
3
72
40
73
36
40
0
40
0
40
0
40
0
40
0.0156250000000005
40
0.0156250000000005
40
0.0312500000000011
40
0.0312500000000011
40
0.0468750000000016
40
0.0468750000000016
40
0.0625000000000022
40
0.0625000000000022
40
0.0781250000000027
40
0.0781250000000027
40
0.0937500000000033
40
0.0937500000000033
40
0.109375000000004
40
0.109375000000004
40
0.125000000000004
40
0.125000000000004
40
0.156250000000005
40
0.156250000000005
40
0.187500000000007
40
0.187500000000007
40
0.250000000000009
40
0.250000000000009
40
0.312500000000011
40
0.312500000000011
40
0.375000000000013
40
0.375000000000013
40
0.500000000000012
40
0.500000000000012
40
0.62500000000001
40
0.62500000000001
40
0.750000000000009
40
0.750000000000009
40
1
40
1
40
1
40
1
41
1
10
-0.394913799811292
20
6.32722135061286
30
0
41
1
10
-0.39176836682077
20
6.32444846033573
30
0
41
1
10
-0.388488406577181
20
6.32186168295425
30
0
41
1
10
-0.381566403142131
20
6.31718953975286
30
0
41
1
10
-0.377887007436868
20
6.31508659472502
30
0
41
1
10
-0.37022491081737
20
6.31169706442716
30
0
41
1
10
-0.366254804145342
20
6.31040674643401
30
0
41
1
10
-0.35794647802453
20
6.30889601700255
30
0
41
1
10
-0.353563907701925
20
6.30870335232461
30
0
41
1
10
-0.344995599835357
20
6.3096474881059
30
0
41
1
10
-0.340684924848716
20
6.31079560648985
30
0
41
1
10
-0.332576144960626
20
6.31417396688744
30
0
41
1
10
-0.328692242821006
20
6.31642240799482
30
0
41
1
10
-0.321489218115914
20
6.3215939456986
30
0
41
1
10
-0.318164476683506
20
6.32450219496934
30
0
41
1
10
-0.311908022590586
20
6.33077681434855
30
0
41
1
10
-0.308967085084731
20
6.33416203110167
30
0
41
1
10
-0.300766232707417
20
6.34461234463069
30
0
41
1
10
-0.296040108964064
20
6.35202357617757
30
0
41
1
10
-0.287432431444984
20
6.36735118199186
30
0
41
1
10
-0.283553316434961
20
6.37530507146633
30
0
41
1
10
-0.272955344086199
20
6.39930333387312
30
0
41
1
10
-0.267171029982791
20
6.41559723945636
30
0
41
1
10
-0.25692997095706
20
6.44848157748783
30
0
41
1
10
-0.25250502314799
20
6.46507959466703
30
0
41
1
10
-0.244556108211697
20
6.49847112557535
30
0
41
1
10
-0.241036901726744
20
6.51528035330136
30
0
41
1
10
-0.23149114194635
20
6.56582630636572
30
0
41
1
10
-0.226489017484568
20
6.5994729106236
30
0
41
1
10
-0.218114808322753
20
6.66667162394384
30
0
41
1
10
-0.214764318431179
20
6.70022371847915
30
0
41
1
10
-0.209239354999539
20
6.76723901782026
30
0
41
1
10
-0.207070996833011
20
6.80070221210741
30
0
41
1
10
-0.201940349251316
20
6.90096555412458
30
0
41
1
10
-0.200330815103371
20
6.96763966546041
30
0
41
1
10
-0.200000000000017
20
7.03416121607441
30
0
0
SPLINE
5
13F
100
AcDbEntity
8
SK1
62
256
6
ByLayer
370
13
48
1
60
0
100
AcDbSpline
70
4
71
3
72
21
73
17
40
0
40
0
40
0
40
0
40
0.0620714905013323
40
0.130360513749324
40
0.198649536997316
40
0.266938560245308
40
0.3352275834933
40
0.403516606741292
40
0.471805629989284
40
0.608383676485268
40
0.67667269973326
40
0.744961722981252
40
0.813250746229243
40
0.881539769477235
40
0.949828792725227
40
1
40
1
40
1
40
1
41
1
10
-0.394913799811292
20
-6.32721828439904
30
0
41
1
10
-0.394913799811292
20
-6.90653762641452
30
0
41
1
10
-0.394913799811292
20
-8.09321756934102
30
0
41
1
10
-0.394913799811292
20
-9.80498157314139
30
0
41
1
10
-0.394913799811292
20
-11.4638140893219
30
0
41
1
10
-0.394913799811292
20
-13.0147246633634
30
0
41
1
10
-0.394913799811292
20
-14.4558606687731
30
0
41
1
10
-0.394913799811292
20
-15.7849097442956
30
0
41
1
10
-0.394913799811292
20
-17.4047594204778
30
0
41
1
10
-0.394913799811292
20
-18.7870404111631
30
0
41
1
10
-0.394913799811292
20
-19.9145928494951
30
0
41
1
10
-0.394913799811292
20
-20.6247618481558
30
0
41
1
10
-0.394913799811292
20
-21.1908658435729
30
0
41
1
10
-0.394913799811292
20
-21.6019834098091
30
0
41
1
10
-0.394913799811292
20
-21.8217384643143
30
0
41
1
10
-0.394913799811292
20
-21.8658202633224
30
0
41
1
10
-0.394913799811292
20
-21.8654706411056
30
0
0
SPLINE
5
140
100
AcDbEntity
8
SK1
62
256
6
ByLayer
370
18
48
1
60
0
100
AcDbSpline
70
4
71
3
72
51
73
47
40
0
40
0
40
0
40
0
40
0.0312500000000006
40
0.0312500000000006
40
0.0468750000000016
40
0.0468750000000016
40
0.0625000000000026
40
0.0625000000000026
40
0.0781250000000036
40
0.0781250000000036
40
0.0937500000000046
40
0.101562500000005
40
0.101562500000005
40
0.109375000000005
40
0.109375000000005
40
0.125000000000006
40
0.125000000000006
40
0.140625000000007
40
0.140625000000007
40
0.156250000000007
40
0.156250000000007
40
0.171875000000008
40
0.171875000000008
40
0.187500000000009
40
0.187500000000009
40
0.218750000000009
40
0.218750000000009
40
0.25000000000001
40
0.25000000000001
40
0.28125000000001
40
0.28125000000001
40
0.312500000000011
40
0.312500000000011
40
0.375000000000011
40
0.375000000000011
40
0.437500000000011
40
0.437500000000011
40
0.500000000000011
40
0.500000000000011
40
0.625000000000008
40
0.625000000000008
40
0.750000000000006
40
0.750000000000006
40
0.875000000000003
40
0.875000000000003
40
1
40
1
40
1
40
1
41
1
10
-0.394913799811292
20
-6.32721828439901
30
0
41
1
10
-0.411169702827039
20
-6.34154884003178
30
0
41
1
10
-0.428432689769124
20
-6.35475565889095
30
0
41
1
10
-0.456587609313431
20
-6.37205876567259
30
0
41
1
10
-0.466398416496645
20
-6.3774170277411
30
0
41
1
10
-0.486501972755633
20
-6.38684509374406
30
0
41
1
10
-0.496835484302608
20
-6.39094564046627
30
0
41
1
10
-0.518168362769302
20
-6.3976988542467
30
0
41
1
10
-0.529196261060889
20
-6.4003572033352
30
0
41
1
10
-0.551937271601957
20
-6.40390572644711
30
0
41
1
10
-0.569030850267808
20
-6.40516730683922
30
0
41
1
10
-0.586181679144261
20
-6.40431153762214
30
0
41
1
10
-0.597628364481892
20
-6.40326750190812
30
0
41
1
10
-0.603385608753428
20
-6.40250300130214
30
0
41
1
10
-0.620403474265572
20
-6.39954770653128
30
0
41
1
10
-0.631442528804882
20
-6.39670554026134
30
0
41
1
10
-0.652994271508675
20
-6.38952126343978
30
0
41
1
10
-0.6635762300306
20
-6.38514079164267
30
0
41
1
10
-0.6838456211714
20
-6.37529177227788
30
0
41
1
10
-0.693552428201002
20
-6.36983092851585
30
0
41
1
10
-0.712284737644694
20
-6.35805370019304
30
0
41
1
10
-0.721309333004712
20
-6.35173618101936
30
0
41
1
10
-0.738796592350639
20
-6.33839390811318
30
0
41
1
10
-0.747287558608093
20
-6.33134151096425
30
0
41
1
10
-0.771774774816237
20
-6.30953788138899
30
0
41
1
10
-0.786839616984622
20
-6.29414128632044
30
0
41
1
10
-0.815263156517972
20
-6.26217184383674
30
0
41
1
10
-0.82861191461663
20
-6.24559230293653
30
0
41
1
10
-0.854034688294348
20
-6.21154523857419
30
0
41
1
10
-0.866130482320528
20
-6.1940351189366
30
0
41
1
10
-0.889197260559286
20
-6.15850150199267
30
0
41
1
10
-0.90014045687775
20
-6.14052530360527
30
0
41
1
10
-0.931589886782064
20
-6.08609644673811
30
0
41
1
10
-0.950735693127655
20
-6.04915001273994
30
0
41
1
10
-0.986572619190127
20
-5.97432275637723
30
0
41
1
10
-1.00324847625177
20
-5.93643689983455
30
0
41
1
10
-1.03476146769921
20
-5.85992972493543
30
0
41
1
10
-1.04959296411107
20
-5.82130654980756
30
0
41
1
10
-1.09190951976353
20
-5.70451929766091
30
0
41
1
10
-1.11725974479191
20
-5.62540226977166
30
0
41
1
10
-1.1639578554223
20
-5.46549802550047
30
0
41
1
10
-1.18522246232584
20
-5.38492681950902
30
0
41
1
10
-1.22466451933835
20
-5.22271935203617
30
0
41
1
10
-1.2428321325454
20
-5.1410815354084
30
0
41
1
10
-1.27671142477865
20
-4.97683362134603
30
0
41
1
10
-1.29241814186358
20
-4.89422245258601
30
0
41
1
10
-1.30710678118655
20
-4.81115156937966
30
0
0
SPLINE
5
141
100
AcDbEntity
8
SK1
62
256
6
ByLayer
370
18
48
1
60
0
100
AcDbSpline
70
4
71
3
72
40
73
36
40
0
40
0
40
0
40
0
40
0.125000000000001
40
0.125000000000001
40
0.187500000000001
40
0.187500000000001
40
0.250000000000001
40
0.250000000000001
40
0.312500000000001
40
0.312500000000001
40
0.328125000000001
40
0.328125000000001
40
0.343750000000001
40
0.375
40
0.375
40
0.4375
40
0.4375
40
0.5
40
0.5625
40
0.5625
40
0.625
40
0.625
40
0.640625
40
0.640625
40
0.65625
40
0.65625
40
0.6875
40
0.6875
40
0.75
40
0.75
40
0.8125
40
0.8125
40
0.875
40
0.875
40
1
40
1
40
1
40
1
41
1
10
-1.30710678118655
20
-4.8111515693796
30
0
41
1
10
-1.37464191770107
20
-4.42920989906065
30
0
41
1
10
-1.43848245106358
20
-4.04286538655003
30
0
41
1
10
-1.52581080346147
20
-3.4555709451387
30
0
41
1
10
-1.55350142719044
20
-3.25850341404765
30
0
41
1
10
-1.60546482604906
20
-2.86151288497595
30
0
41
1
10
-1.62973519898719
20
-2.66158901568747
30
0
41
1
10
-1.67414509281366
20
-2.25856982386534
30
0
41
1
10
-1.69427910225542
20
-2.05547235697085
30
0
41
1
10
-1.71638790779505
20
-1.79939862844844
30
0
41
1
10
-1.72065969674747
20
-1.74803956652656
30
0
41
1
10
-1.72887208385961
20
-1.64527687502962
30
0
41
1
10
-1.74069036277351
20
-1.49111947898439
30
0
41
1
10
-1.75097190728465
20
-1.33692150334681
30
0
41
1
10
-1.76938952483024
20
-1.02847005779319
30
0
41
1
10
-1.77881369580271
20
-0.822761881301432
30
0
41
1
10
-1.79137807494828
20
-0.411189125581416
30
0
41
1
10
-1.79754609551321
20
0.0005418097730683
30
0
41
1
10
-1.79135312802683
20
0.412582134739552
30
0
41
1
10
-1.77873477820947
20
0.82478135977604
30
0
41
1
10
-1.76926982289669
20
1.03095952328059
30
0
41
1
10
-1.75383938151629
20
1.28877539719627
30
0
41
1
10
-1.75057294247844
20
1.340343237501
30
0
41
1
10
-1.74368713518695
20
1.44348814091276
30
0
41
1
10
-1.74006503391183
20
1.4951017046248
30
0
41
1
10
-1.72870229322061
20
1.64966999837915
30
0
41
1
10
-1.72047269473447
20
1.75227000555529
30
0
41
1
10
-1.69395938565037
20
2.05879746438532
30
0
41
1
10
-1.67384597566206
20
2.26145078101035
30
0
41
1
10
-1.629485287899
20
2.66369063393995
30
0
41
1
10
-1.60524340635007
20
2.86327920729124
30
0
41
1
10
-1.5533368167803
20
3.25969288493101
30
0
41
1
10
-1.52567448156807
20
3.45651882726707
30
0
41
1
10
-1.43842306954178
20
4.04321174825219
30
0
41
1
10
-1.374622793295
20
4.42931851789501
30
0
41
1
10
-1.3071067811866
20
4.81115177825131
30
0
0
SPLINE
5
142
100
AcDbEntity
8
SK1
62
256
6
ByLayer
370
18
48
1
60
0
100
AcDbSpline
70
4
71
3
72
51
73
47
40
0
40
0
40
0
40
0
40
0.125000000000003
40
0.125000000000003
40
0.250000000000005
40
0.250000000000005
40
0.375000000000008
40
0.375000000000008
40
0.50000000000001
40
0.50000000000001
40
0.562500000000011
40
0.562500000000011
40
0.625000000000011
40
0.625000000000011
40
0.687500000000011
40
0.687500000000011
40
0.718750000000011
40
0.718750000000011
40
0.75000000000001
40
0.75000000000001
40
0.781250000000009
40
0.781250000000009
40
0.812500000000009
40
0.812500000000009
40
0.828125000000008
40
0.828125000000008
40
0.843750000000008
40
0.843750000000008
40
0.859375000000007
40
0.859375000000007
40
0.875000000000007
40
0.875000000000007
40
0.906250000000005
40
0.906250000000005
40
0.914062500000005
40
0.914062500000005
40
0.921875000000005
40
0.937500000000004
40
0.937500000000004
40
0.953125000000003
40
0.953125000000003
40
0.968750000000002
40
0.968750000000002
40
0.984375000000001
40
0.984375000000001
40
1
40
1
40
1
40
1
41
1
10
-1.30710678118655
20
4.8111517782514
30
0
41
1
10
-1.29243386166999
20
4.89413370391597
30
0
41
1
10
-1.27674450029033
20
4.97666000857456
30
0
41
1
10
-1.24290388240135
20
5.14074733501747
30
0
41
1
10
-1.22475757478614
20
5.22230941297437
30
0
41
1
10
-1.18536324259088
20
5.38437609466149
30
0
41
1
10
-1.1641141016691
20
5.46491938757291
30
0
41
1
10
-1.11750013847291
20
5.62462479791714
30
0
41
1
10
-1.09222933922732
20
5.70354894528973
30
0
41
1
10
-1.05003902511504
20
5.82012130347704
30
0
41
1
10
-1.03525413522215
20
5.85867400558868
30
0
41
1
10
-1.00384791181236
20
5.93504366748635
30
0
41
1
10
-0.987232093239811
20
5.97286244830224
30
0
41
1
10
-0.951537336733765
20
6.0475612269523
30
0
41
1
10
-0.932473247849742
20
6.08444613540038
30
0
41
1
10
-0.901177592378616
20
6.13879101734139
30
0
41
1
10
-0.890290953598992
20
6.15674063815601
30
0
41
1
10
-0.867353405011528
20
6.19222552349751
30
0
41
1
10
-0.85525358147396
20
6.2098275518716
30
0
41
1
10
-0.829832017046726
20
6.24404146668815
30
0
41
1
10
-0.816508756328489
20
6.26067183093176
30
0
41
1
10
-0.78822917837428
20
6.29267436431064
30
0
41
1
10
-0.773280793926858
20
6.30805251056447
30
0
41
1
10
-0.749110346030392
20
6.32978409383841
30
0
41
1
10
-0.740759389627414
20
6.33680322085289
30
0
41
1
10
-0.723321143410601
20
6.3502808336809
30
0
41
1
10
-0.714177802118201
20
6.3567747780167
30
0
41
1
10
-0.695263535743464
20
6.36883407140752
30
0
41
1
10
-0.685506727928441
20
6.37439841042161
30
0
41
1
10
-0.665265234159847
20
6.38439885825292
30
0
41
1
10
-0.654728144683787
20
6.38885411254182
30
0
41
1
10
-0.622102468665219
20
6.39998734213981
30
0
41
1
10
-0.59968773121858
20
6.40423336369165
30
0
41
1
10
-0.570661631866017
20
6.40472651279043
30
0
41
1
10
-0.564821683089775
20
6.40457927715815
30
0
41
1
10
-0.553312890967476
20
6.40381092862668
30
0
41
1
10
-0.536205505855378
20
6.40195065166941
30
0
41
1
10
-0.519541799584147
20
6.39807453657346
30
0
41
1
10
-0.497682675631438
20
6.39127312214092
30
0
41
1
10
-0.487153207843136
20
6.38712350886505
30
0
41
1
10
-0.466917648563935
20
6.37769203793539
30
0
41
1
10
-0.457177342303623
20
6.37239779961379
30
0
41
1
10
-0.43831629492334
20
6.3608578974891
30
0
41
1
10
-0.429170091135489
20
6.35459039773457
30
0
41
1
10
-0.411568516590108
20
6.34138290087219
30
0
41
1
10
-0.403103547019441
20
6.33444111034481
30
0
41
1
10
-0.394913799811292
20
6.32722135062522
30
0
0
SPLINE
5
143
100
AcDbEntity
8
SK1
62
256
6
ByLayer
370
13
48
1
60
0
100
AcDbSpline
70
4
71
3
72
21
73
17
40
0
40
0
40
0
40
0
40
0.0501775032618665
40
0.118466081091258
40
0.18675465892065
40
0.255043236750042
40
0.323331814579433
40
0.391620392408825
40
0.528197548067608
40
0.596486125897
40
0.664774703726392
40
0.733063281555783
40
0.801351859385175
40
0.869640437214567
40
0.937929015043958
40
1
40
1
40
1
40
1
41
1
10
-0.394913799811292
20
21.865470430955
30
0
41
1
10
-0.394913799811292
20
21.865825078804
30
0
41
1
10
-0.394913799811292
20
21.8217455504434
30
0
41
1
10
-0.394913799811292
20
21.6019829919256
30
0
41
1
10
-0.394913799811292
20
21.1908660117695
30
0
41
1
10
-0.394913799811292
20
20.6247611340725
30
0
41
1
10
-0.394913799811292
20
19.9145926563567
30
0
41
1
10
-0.394913799811292
20
18.7870406318774
30
0
41
1
10
-0.394913799811292
20
17.4047589502432
30
0
41
1
10
-0.394913799811292
20
15.7849099352292
30
0
41
1
10
-0.394913799811292
20
14.4558608746283
30
0
41
1
10
-0.394913799811292
20
13.014724351229
30
0
41
1
10
-0.394913799811292
20
11.4638144327396
30
0
41
1
10
-0.394913799811292
20
9.80498177095927
30
0
41
1
10
-0.394913799811292
20
8.09321828866487
30
0
41
1
10
-0.394913799811292
20
6.90653972901185
30
0
41
1
10
-0.394913799811292
20
6.32722135061286
30
0
0
SPLINE
5
144
100
AcDbEntity
8
SK1
62
256
6
ByLayer
370
13
48
1
60
0
100
AcDbSpline
70
4
71
3
72
49
73
45
40
0
40
0
40
0
40
0
40
0.0205806433534511
40
0.0487849415180878
40
0.0769892396827245
40
0.105193537847361
40
0.133397836011998
40
0.161602134176634
40
0.218010730505908
40
0.246215028670545
40
0.274419326835181
40
0.302623624999818
40
0.330827923164455
40
0.359032221329091
40
0.387236519493728
40
0.415440817658365
40
0.429542966740683
40
0.443645115823001
40
0.45774726490532
40
0.471849413987638
40
0.485951563069957
40
0.493002637611116
40
0.500053712152275
40
0.507104786693434
40
0.514155861234593
40
0.528258010316912
40
0.54236015939923
40
0.556462308481548
40
0.570564457563867
40
0.584666606646185
40
0.612870904810822
40
0.641075202975458
40
0.669279501140095
40
0.697483799304732
40
0.725688097469368
40
0.753892395634005
40
0.782096693798642
40
0.838505290127915
40
0.866709588292552
40
0.894913886457189
40
0.923118184621825
40
0.951322482786462
40
0.979526780951099
40
1
40
1
40
1
40
1
41
1
10
-1.99503997793928
20
21.8252862012259
30
0
41
1
10
-1.99503997793928
20
21.8253760731494
30
0
41
1
10
-1.99503997793928
20
21.7812238914152
30
0
41
1
10
-1.99503997793928
20
21.5622159608078
30
0
41
1
10
-1.99503997793928
20
21.1516905297668
30
0
41
1
10
-1.99503997793928
20
20.5863476884834
30
0
41
1
10
-1.99503997793928
20
19.8770915138249
30
0
41
1
10
-1.99503997793928
20
18.7508484467722
30
0
41
1
10
-1.99503997793928
20
17.370463175446
30
0
41
1
10
-1.99503997793928
20
15.752471971849
30
0
41
1
10
-1.99503997793928
20
14.4250897201646
30
0
41
1
10
-1.99503997793928
20
12.985830725026
30
0
41
1
10
-1.99503997793928
20
11.4370507512064
30
0
41
1
10
-1.99503997793928
20
9.78067154978808
30
0
41
1
10
-1.99503997793928
20
8.01821733349291
30
0
41
1
10
-1.99503997793928
20
6.46319635117558
30
0
41
1
10
-1.99503997793928
20
5.16749918372616
30
0
41
1
10
-1.99503997793928
20
4.17226659327741
30
0
41
1
10
-1.99503997793928
20
3.15436880408234
30
0
41
1
10
-1.99503997793928
20
2.11640247274798
30
0
41
1
10
-1.99503997793928
20
1.23881045451824
30
0
41
1
10
-1.99503997793928
20
0.53126948289281
30
0
41
1
10
-1.99503997793928
20
7.43625606E-08
30
0
41
1
10
-1.99503997793928
20
-0.53126937109505
30
0
41
1
10
-1.99503997793928
20
-1.23881043770962
30
0
41
1
10
-1.99503997793928
20
-2.11640245296422
30
0
41
1
10
-1.99503997793928
20
-3.15436853749512
30
0
41
1
10
-1.99503997793928
20
-4.17226658860133
30
0
41
1
10
-1.99503997793928
20
-5.16749921349111
30
0
41
1
10
-1.99503997793928
20
-6.46319592062625
30
0
41
1
10
-1.99503997793928
20
-8.01821749841287
30
0
41
1
10
-1.99503997793928
20
-9.7806713457135
30
0
41
1
10
-1.99503997793928
20
-11.4370504129058
30
0
41
1
10
-1.99503997793928
20
-12.9858310385527
30
0
41
1
10
-1.99503997793928
20
-14.4250895103889
30
0
41
1
10
-1.99503997793928
20
-15.7524717843982
30
0
41
1
10
-1.99503997793928
20
-17.370463645283
30
0
41
1
10
-1.99503997793928
20
-18.7508482253859
30
0
41
1
10
-1.99503997793928
20
-19.8770917100388
30
0
41
1
10
-1.99503997793928
20
-20.5863484011186
30
0
41
1
10
-1.99503997793928
20
-21.1516903613971
30
0
41
1
10
-1.99503997793928
20
-21.5622163798915
30
0
41
1
10
-1.99503997793928
20
-21.7809190119713
30
0
41
1
10
-1.99503997793928
20
-21.8251812881228
30
0
41
1
10
-1.99503997793928
20
-21.8252861515484
30
0
0
SPLINE
5
145
100
AcDbEntity
8
SK1
62
256
6
ByLayer
370
18
48
1
60
0
100
AcDbSpline
70
4
71
3
72
49
73
45
40
0
40
0
40
0
40
0
40
0.0137023103416038
40
0.0423080705574579
40
0.0709138307733119
40
0.0995195909891659
40
0.12812535120502
40
0.156731111420874
40
0.213942631852582
40
0.242548392068436
40
0.27115415228429
40
0.299759912500144
40
0.328365672715998
40
0.356971432931852
40
0.385577193147706
40
0.41418295336356
40
0.428485833471488
40
0.442788713579415
40
0.457091593687342
40
0.471394473795269
40
0.485697353903196
40
0.492848793957159
40
0.500000234011123
40
0.507151674065086
40
0.51430311411905
40
0.528605994226977
40
0.542908874334904
40
0.557211754442831
40
0.571514634550758
40
0.585817514658685
40
0.614423274874539
40
0.643029035090393
40
0.671634795306247
40
0.700240555522101
40
0.728846315737955
40
0.757452075953809
40
0.786057836169663
40
0.843269356601371
40
0.871875116817225
40
0.900480877033079
40
0.929086637248933
40
0.957692397464787
40
0.986298157680641
40
1
40
1
40
1
40
1
41
1
10
-2.19999999999999
20
22.0136323367738
30
0
41
1
10
-2.19999999999999
20
22.0053276287356
30
0
41
1
10
-2.19999999999999
20
21.9554440373467
30
0
41
1
10
-2.19999999999999
20
21.7550269215783
30
0
41
1
10
-2.19999999999999
20
21.3416333570605
30
0
41
1
10
-2.19999999999999
20
20.7725957724454
30
0
41
1
10
-2.19999999999999
20
20.0589162847047
30
0
41
1
10
-2.19999999999999
20
18.9263267207688
30
0
41
1
10
-2.19999999999999
20
17.5367466797247
30
0
41
1
10
-2.19999999999999
20
15.9097478536278
30
0
41
1
10
-2.19999999999999
20
14.5742840575192
30
0
41
1
10
-2.19999999999999
20
13.1259218425112
30
0
41
1
10
-2.19999999999999
20
11.5668148046225
30
0
41
1
10
-2.19999999999999
20
9.89853996914991
30
0
41
1
10
-2.19999999999999
20
8.12208977576526
30
0
41
1
10
-2.19999999999999
20
6.55235660022589
30
0
41
1
10
-2.19999999999999
20
5.24422917335971
30
0
41
1
10
-2.19999999999999
20
4.2375522406841
30
0
41
1
10
-2.19999999999999
20
3.20644372216569
30
0
41
1
10
-2.19999999999999
20
2.15314018801405
30
0
41
1
10
-2.19999999999999
20
1.26034253962158
30
0
41
1
10
-2.19999999999999
20
0.540965390862539
30
0
41
1
10
-2.19999999999999
20
2.64082871E-08
30
0
41
1
10
-2.19999999999999
20
-0.540965319759152
30
0
41
1
10
-2.19999999999999
20
-1.26034245765445
30
0
41
1
10
-2.19999999999999
20
-2.15314020845372
30
0
41
1
10
-2.19999999999999
20
-3.20644349821168
30
0
41
1
10
-2.19999999999999
20
-4.23755215854527
30
0
41
1
10
-2.19999999999999
20
-5.24422924769223
30
0
41
1
10
-2.19999999999999
20
-6.55235618011341
30
0
41
1
10
-2.19999999999999
20
-8.12208991237512
30
0
41
1
10
-2.19999999999999
20
-9.89853979541101
30
0
41
1
10
-2.19999999999999
20
-11.5668144415121
30
0
41
1
10
-2.19999999999999
20
-13.1259221492871
30
0
41
1
10
-2.19999999999999
20
-14.574283866752
30
0
41
1
10
-2.19999999999999
20
-15.9097476492909
30
0
41
1
10
-2.19999999999999
20
-17.5367471514895
30
0
41
1
10
-2.19999999999999
20
-18.9263265026412
30
0
41
1
10
-2.19999999999999
20
-20.0589164660072
30
0
41
1
10
-2.19999999999999
20
-20.7725964921017
30
0
41
1
10
-2.19999999999999
20
-21.3416331895302
30
0
41
1
10
-2.19999999999999
20
-21.7550273348429
30
0
41
1
10
-2.19999999999999
20
-21.9554433983347
30
0
41
1
10
-2.19999999999999
20
-22.0053267975696
30
0
41
1
10
-2.19999999999999
20
-22.0136316624576
30
0
0
SPLINE
5
146
100
AcDbEntity
8
SK1
62
256
6
ByLayer
370
18
48
1
60
0
100
AcDbSpline
70
4
71
3
72
49
73
45
40
0
40
0
40
0
40
0
40
0.0270948201963833
40
0.0549127537678295
40
0.0827306873392759
40
0.110548620910722
40
0.138366554482168
40
0.166184488053615
40
0.221820355196507
40
0.249638288767953
40
0.2774562223394
40
0.305274155910846
40
0.333092089482292
40
0.360910023053739
40
0.388727956625185
40
0.416545890196631
40
0.430454856982354
40
0.444363823768077
40
0.4582727905538
40
0.472181757339524
40
0.486090724125247
40
0.493045207518108
40
0.49999969091097
40
0.506954174303832
40
0.513908657696693
40
0.527817624482416
40
0.541726591268139
40
0.555635558053862
40
0.569544524839585
40
0.583453491625309
40
0.611271425196755
40
0.639089358768201
40
0.666907292339648
40
0.694725225911094
40
0.72254315948254
40
0.750361093053986
40
0.778179026625433
40
0.833814893768325
40
0.861632827339772
40
0.889450760911218
40
0.917268694482664
40
0.94508662805411
40
0.972904561625557
40
1
40
1
40
1
40
1
41
1
10
-36.5
20
21.1524103625812
30
0
41
1
10
-36.5
20
21.1690101689514
30
0
41
1
10
-36.5
20
21.1349478851086
30
0
41
1
10
-36.5
20
20.9025884164263
30
0
41
1
10
-36.5
20
20.5018751860753
30
0
41
1
10
-36.5
20
19.9491724688865
30
0
41
1
10
-36.5
20
19.2550489357272
30
0
41
1
10
-36.5
20
18.1505179338898
30
0
41
1
10
-36.5
20
16.8015889830236
30
0
41
1
10
-36.5
20
15.2144138486304
30
0
41
1
10
-36.5
20
13.9146794509994
30
0
41
1
10
-36.5
20
12.5065635742002
30
0
41
1
10
-36.5
20
10.9931136245939
30
0
41
1
10
-36.5
20
9.37743069816284
30
0
41
1
10
-36.5
20
7.6628582618342
30
0
41
1
10
-36.5
20
6.15816931379931
30
0
41
1
10
-36.5
20
4.9049974336175
30
0
41
1
10
-36.5
20
3.94891719908253
30
0
41
1
10
-36.5
20
2.97621477071243
30
0
41
1
10
-36.5
20
1.99071870036124
30
0
41
1
10
-36.5
20
1.16514681856438
30
0
41
1
10
-36.5
20
0.498098713248481
30
0
41
1
10
-36.5
20
2.384194602E-07
30
0
41
1
10
-36.5
20
-0.498098462230814
30
0
41
1
10
-36.5
20
-1.16514702467006
30
0
41
1
10
-36.5
20
-1.99071854296869
30
0
41
1
10
-36.5
20
-2.97621435827227
30
0
41
1
10
-36.5
20
-3.94891745941501
30
0
41
1
10
-36.5
20
-4.90499731091177
30
0
41
1
10
-36.5
20
-6.15816884754437
30
0
41
1
10
-36.5
20
-7.6628585236061
30
0
41
1
10
-36.5
20
-9.37743039030653
30
0
41
1
10
-36.5
20
-10.9931133711701
30
0
41
1
10
-36.5
20
-12.5065639108223
30
0
41
1
10
-36.5
20
-13.9146791761936
30
0
41
1
10
-36.5
20
-15.2144137189484
30
0
41
1
10
-36.5
20
-16.8015894462653
30
0
41
1
10
-36.5
20
-18.1505177013548
30
0
41
1
10
-36.5
20
-19.2550491829544
30
0
41
1
10
-36.5
20
-19.9491731575018
30
0
41
1
10
-36.5
20
-20.5018750148337
30
0
41
1
10
-36.5
20
-20.9025888554179
30
0
41
1
10
-36.5
20
-21.1349503332577
30
0
41
1
10
-36.5
20
-21.1690108791096
30
0
41
1
10
-36.5
20
-21.152409334723
30
0
0
SPLINE
5
147
100
AcDbEntity
8
1
62
256
6
ByLayer
370
18
48
1
60
0
100
AcDbSpline
70
4
71
3
72
19
73
15
40
0
40
0
40
0
40
0
40
0.10559879530975
40
0.207133056768
40
0.304606247524388
40
0.398022283830842
40
0.487385615464968
40
0.572701326119391
40
0.653975258965689
40
0.731214174678374
40
0.804425952125545
40
0.873619846082945
40
0.938806822394091
40
1
40
1
40
1
40
1
41
1
10
64.48236683062
20
36.483085351822
30
0
41
1
10
64.4761086181707
20
36.4837049490853
30
0
41
1
10
64.463833074016
20
36.484920295101
30
0
41
1
10
64.4458128004535
20
36.4870082121237
30
0
41
1
10
64.428539119221
20
36.4892307140948
30
0
41
1
10
64.4120140189838
20
36.491593512128
30
0
41
1
10
64.3962369707864
20
36.4940773874632
30
0
41
1
10
64.3812080910702
20
36.4966698932994
30
0
41
1
10
64.3669272661601
20
36.4993571633471
30
0
41
1
10
64.3533946416573
20
36.5021269601486
30
0
41
1
10
64.3406095573258
20
36.5049646761752
30
0
41
1
10
64.3285740432231
20
36.5078656318826
30
0
41
1
10
64.3172808603107
20
36.5107934196336
30
0
41
1
10
64.3100347419719
20
36.5128781454489
30
0
41
1
10
64.3065261768
20
36.5138875681559
30
0
0
SPLINE
5
148
100
AcDbEntity
8
1
62
256
6
ByLayer
370
18
48
1
60
0
100
AcDbSpline
70
4
71
3
72
16
73
12
40
0
40
0
40
0
40
0
40
0.118227901208985
40
0.234676362797985
40
0.349345481218963
40
0.462235357484022
40
0.573346097457547
40
0.682677812172279
40
0.790230618171239
40
0.896004637878246
40
1
40
1
40
1
40
1
41
1
10
65.1702887043917
20
36.4277346738549
30
0
41
1
10
65.1431521268268
20
36.4295566837591
30
0
41
1
10
65.0892874023701
20
36.4331732806277
30
0
41
1
10
65.009124713396
20
36.4388878609321
30
0
41
1
10
64.9302034041845
20
36.4447527074665
30
0
41
1
10
64.8525249527702
20
36.4507819529497
30
0
41
1
10
64.7760890095594
20
36.4569609754792
30
0
41
1
10
64.7008955277781
20
36.4632809223075
30
0
41
1
10
64.6269450208379
20
36.4697385791177
30
0
41
1
10
64.5542355274137
20
36.4763039893532
30
0
41
1
10
64.5061872606909
20
36.4808377116472
30
0
41
1
10
64.48236683059
20
36.48308535183
30
0
0
SPLINE
5
149
100
AcDbEntity
8
1
62
256
6
ByLayer
370
18
48
1
60
0
100
AcDbSpline
70
4
71
2
72
10
73
7
40
0
40
0
40
0
40
0.5
40
0.5
40
0.75
40
0.75
40
1
40
1
40
1
41
1
10
65.1703211835004
20
36.427732523738
30
0
41
1
10
65.4005090492969
20
36.4124656263186
30
0
41
1
10
65.5813994958523
20
36.3762583567371
30
0
41
1
10
65.6977168199743
20
36.3529761282298
30
0
41
1
10
65.7815407125726
20
36.3230189485083
30
0
41
1
10
65.9246417322624
20
36.2718771698065
30
0
41
1
10
65.9499902265207
20
36.210735586972
30
0
0
SPLINE
5
14A
100
AcDbEntity
8
1
62
256
6
ByLayer
370
18
48
1
60
0
100
AcDbSpline
70
4
71
2
72
6
73
3
40
0
40
0
40
0
40
1
40
1
40
1
41
1
10
65.9499902266708
20
36.210735587058
30
0
41
1
10
65.9884919085573
20
36.1155912650914
30
0
41
1
10
65.9886043049807
20
36.0200000006976
30
0
0
SPLINE
5
14B
100
AcDbEntity
8
1
62
256
6
ByLayer
370
18
48
1
60
0
100
AcDbSpline
70
4
71
3
72
24
73
20
40
0
40
0
40
0
40
0
40
0.0615883759047084
40
0.122688254024873
40
0.183326299851807
40
0.243529792548024
40
0.303326606004203
40
0.36274518644549
40
0.421814526539229
40
0.480564136000303
40
0.539024008730868
40
0.597224586585081
40
0.655196719894199
40
0.712971624940747
40
0.770580838619312
40
0.828056170570645
40
0.885429653119929
40
0.942733489390593
40
1
40
1
40
1
40
1
41
1
10
65.94999022667
20
35.789264412942
30
0
41
1
10
65.9514760409687
20
35.7929901798058
30
0
41
1
10
65.9544358845989
20
35.8004121620338
30
0
41
1
10
65.9585659721736
20
35.8116216503168
30
0
41
1
10
65.9624450214134
20
35.8228285131277
30
0
41
1
10
65.9660526456091
20
35.83404112012
30
0
41
1
10
65.9693942359552
20
35.8452568203017
30
0
41
1
10
65.9724683525928
20
35.8564758821521
30
0
41
1
10
65.9752753669341
20
35.8676977990063
30
0
41
1
10
65.9778151708743
20
35.8789222688591
30
0
41
1
10
65.9800877810841
20
35.8901489343787
30
0
41
1
10
65.9820931925112
20
35.9013774519818
30
0
41
1
10
65.9838313661184
20
35.9126074735421
30
0
41
1
10
65.9853024227051
20
35.9238386513105
30
0
41
1
10
65.9865058842008
20
35.9350706367791
30
0
41
1
10
65.9874435045143
20
35.9463030808113
30
0
41
1
10
65.9881087368339
20
35.9575356348019
30
0
41
1
10
65.9885259471521
20
35.968767946552
30
0
41
1
10
65.9885781913775
20
35.9762567949783
30
0
41
1
10
65.98860430498
20
35.9799999993024
30
0
0
SPLINE
5
14C
100
AcDbEntity
8
1
62
256
6
ByLayer
370
18
48
1
60
0
100
AcDbSpline
70
4
71
3
72
43
73
39
40
0
40
0
40
0
40
0
40
0.040997340636662
40
0.0809092982715886
40
0.119736159842851
40
0.15747823704754
40
0.194135869264802
40
0.229709426921881
40
0.264199315386301
40
0.2976059794853
40
0.329929908777832
40
0.361171643733669
40
0.3913317830129
40
0.420410992088527
40
0.448410013519445
40
0.475329679265273
40
0.501170925548127
40
0.572592867093705
40
0.638080914696127
40
0.697670982799372
40
0.751410812475233
40
0.772779913618563
40
0.793234602755303
40
0.812782181749369
40
0.831431018019201
40
0.849190749344535
40
0.866072536338497
40
0.882089374987179
40
0.897256484840491
40
0.911591792130984
40
0.925116531009044
40
0.937855989439949
40
0.949840427402957
40
0.961106190504029
40
0.971697025976518
40
0.981665570834305
40
0.991074911407349
40
1
40
1
40
1
40
1
41
1
10
65.1703211835
20
35.572267476262
30
0
41
1
10
65.1815955433722
20
35.5730405333593
30
0
41
1
10
65.2038457803768
20
35.5745661812744
30
0
41
1
10
65.2367474852616
20
35.5771689404714
30
0
41
1
10
65.268734387051
20
35.5799480523695
30
0
41
1
10
65.2998047803202
20
35.58291298977
30
0
41
1
10
65.3299591078148
20
35.5860435105337
30
0
41
1
10
65.3591972610569
20
35.5893273427029
30
0
41
1
10
65.3875192737298
20
35.5927505360394
30
0
41
1
10
65.4149251441988
20
35.5962999639445
30
0
41
1
10
65.4414148802485
20
35.5999627077348
30
0
41
1
10
65.4669884910949
20
35.6037262288779
30
0
41
1
10
65.4916459782106
20
35.6075783622643
30
0
41
1
10
65.5153873786588
20
35.6115072610154
30
0
41
1
10
65.538212610891
20
35.6155016729279
30
0
41
1
10
65.5601220206574
20
35.6195499937755
30
0
41
1
10
65.5937486984551
20
35.626107366319
30
0
41
1
10
65.6376602656581
20
35.6355375625419
30
0
41
1
10
65.690314785579
20
35.6485901785153
30
0
41
1
10
65.7378060332942
20
35.6621596087783
30
0
41
1
10
65.7731644417989
20
35.67382203962
30
0
41
1
10
65.7979490400554
20
35.682972103705
30
0
41
1
10
65.8137384431464
20
35.6891993032897
30
0
41
1
10
65.8286893772276
20
35.6955079877224
30
0
41
1
10
65.8428019685624
20
35.7018921260808
30
0
41
1
10
65.8560763753171
20
35.7083455162314
30
0
41
1
10
65.8685127830692
20
35.714862070018
30
0
41
1
10
65.8801114087742
20
35.7214357642014
30
0
41
1
10
65.8908725094797
20
35.7280606767799
30
0
41
1
10
65.9007963582658
20
35.7347310216472
30
0
41
1
10
65.9098833178299
20
35.741441151275
30
0
41
1
10
65.9181335453682
20
35.7481857216071
30
0
41
1
10
65.9255478947299
20
35.7549593379339
30
0
41
1
10
65.9321246317882
20
35.7617580006681
30
0
41
1
10
65.937870243827
20
35.768574412401
30
0
41
1
10
65.9427620013418
20
35.7754140966517
30
0
41
1
10
65.9468749657509
20
35.7822401833556
30
0
41
1
10
65.9489702532908
20
35.786964597137
30
0
41
1
10
65.94999022652
20
35.789264413028
30
0
0
SPLINE
5
14D
100
AcDbEntity
8
1
62
256
6
ByLayer
370
18
48
1
60
0
100
AcDbSpline
70
4
71
2
72
6
73
3
40
0
40
0
40
0
40
1
40
1
40
1
41
1
10
65.1702887043921
20
35.5722653261425
30
0
41
1
10
64.819552783945
20
35.5490374694324
30
0
41
1
10
64.4823668305908
20
35.51691464817
30
0
0
SPLINE
5
14E
100
AcDbEntity
8
1
62
256
6
ByLayer
370
18
48
1
60
0
100
AcDbSpline
70
4
71
2
72
6
73
3
40
0
40
0
40
0
40
1
40
1
40
1
41
1
10
64.4823668306203
20
35.516914648178
30
0
41
1
10
64.3769907517283
20
35.5068233680093
30
0
41
1
10
64.3065261768005
20
35.486112431844
30
0
0
LINE
5
7D
100
AcDbEntity
8
1
62
256
6
ByLayer
370
18
48
1
60
0
100
AcDbLine
10
0
20
-31.2
30
0
11
0.3
21
-31.5
31
0
39
0
210
0
220
0
230
1
0
LINE
5
7E
100
AcDbEntity
8
1
62
256
6
ByLayer
370
18
48
1
60
0
100
AcDbLine
10
0.3
20
31.5
30
0
11
0
21
31.2
31
0
39
0
210
0
220
0
230
1
0
LINE
5
7F
100
AcDbEntity
8
1
62
256
6
ByLayer
370
18
48
1
60
0
100
AcDbLine
10
22.279208
20
31.5
30
0
11
0.3
21
31.5
31
0
39
0
210
0
220
0
230
1
0
LINE
5
80
100
AcDbEntity
8
1
62
256
6
ByLayer
370
18
48
1
60
0
100
AcDbLine
10
0.3
20
-31.5
30
0
11
22
21
-31.5
31
0
39
0
210
0
220
0
230
1
0
LINE
5
81
100
AcDbEntity
8
81
62
256
6
ByLayer
370
18
48
1
60
0
100
AcDbLine
10
70
20
39
30
0
11
75
21
39
31
0
39
0
210
0
220
0
230
1
0
LINE
5
82
100
AcDbEntity
8
80
62
256
6
ByLayer
370
18
48
1
60
0
100
AcDbLine
10
0
20
0
30
0
11
-5
21
0
31
0
39
0
210
0
220
0
230
1
0
LINE
5
83
100
AcDbEntity
8
1
62
256
6
ByLayer
370
18
48
1
60
0
100
AcDbLine
10
60.337624
20
38.696971
30
0
11
60.33769
21
38.733971
31
0
39
0
210
0
220
0
230
1
0
LINE
5
84
100
AcDbEntity
8
1
62
256
6
ByLayer
370
18
48
1
60
0
100
AcDbLine
10
62.807085
20
38.599998
30
0
11
62.807322
21
38.732741
31
0
39
0
210
0
220
0
230
1
0
LINE
5
85
100
AcDbEntity
8
1
62
256
6
ByLayer
370
13
48
1
60
0
100
AcDbLine
10
23.576849
20
32.65
30
0
11
28.2
21
32.65
31
0
39
0
210
0
220
0
230
1
0
LINE
5
86
100
AcDbEntity
8
1
62
256
6
ByLayer
370
13
48
1
60
0
100
AcDbLine
10
28.2
20
32.65
30
0
11
28.2
21
31.65
31
0
39
0
210
0
220
0
230
1
0
LINE
5
87
100
AcDbEntity
8
1
62
256
6
ByLayer
370
13
48
1
60
0
100
AcDbLine
10
28.2
20
32.65
30
0
11
28.2
21
38.718213
31
0
39
0
210
0
220
0
230
1
0
LINE
5
88
100
AcDbEntity
8
1
62
256
6
ByLayer
370
13
48
1
60
0
100
AcDbLine
10
28.2
20
32.65
30
0
11
31.893237
21
32.65
31
0
39
0
210
0
220
0
230
1
0
LINE
5
89
100
AcDbEntity
8
1
62
256
6
ByLayer
370
18
48
1
60
0
100
AcDbLine
10
31.893237
20
32.65
30
0
11
31.893237
21
38.684279
31
0
39
0
210
0
220
0
230
1
0
LINE
5
8A
100
AcDbEntity
8
1
62
256
6
ByLayer
370
18
48
1
60
0
100
AcDbLine
10
57.152801
20
41.1696
30
0
11
28.577148
21
41.1696
31
0
39
0
210
0
220
0
230
1
0
LINE
5
8B
100
AcDbEntity
8
1
62
256
6
ByLayer
370
18
48
1
60
0
100
AcDbLine
10
25.192119
20
38.718213
30
0
11
28.2
21
38.718213
31
0
39
0
210
0
220
0
230
1
0
LINE
5
8C
100
AcDbEntity
8
1
62
256
6
ByLayer
370
18
48
1
60
0
100
AcDbLine
10
32.400095
20
38.684279
30
0
11
31.893237
21
38.684279
31
0
39
0
210
0
220
0
230
1
0
LINE
5
8D
100
AcDbEntity
8
1
62
256
6
ByLayer
370
18
48
1
60
0
100
AcDbLine
10
58.686532
20
38.733971
30
0
11
60.33769
21
38.733971
31
0
39
0
210
0
220
0
230
1
0
LINE
5
8E
100
AcDbEntity
8
1
62
256
6
ByLayer
370
18
48
1
60
0
100
AcDbLine
10
62.807322
20
38.732741
30
0
11
64.283598
21
38.732741
31
0
39
0
210
0
220
0
230
1
0
LINE
5
8F
100
AcDbEntity
8
1
62
256
6
ByLayer
370
18
48
1
60
0
100
AcDbLine
10
32.279216
20
38.677082
30
0
11
32.279216
21
32.65
31
0
39
0
210
0
220
0
230
1
0
LINE
5
90
100
AcDbEntity
8
1
62
256
6
ByLayer
370
13
48
1
60
0
100
AcDbLine
10
32.4
20
32.65
30
0
11
32.279216
21
32.65
31
0
39
0
210
0
220
0
230
1
0
LINE
5
91
100
AcDbEntity
8
1
62
256
6
ByLayer
370
18
48
1
60
0
100
AcDbLine
10
61.508963
20
33.486489
30
0
11
61.485778
21
33.339814
31
0
39
0
210
0
220
0
230
1
0
LINE
5
92
100
AcDbEntity
8
1
62
256
6
ByLayer
370
18
48
1
60
0
100
AcDbLine
10
62
20
36.274969
30
0
11
62
21
35.725031
31
0
39
0
210
0
220
0
230
1
0
LINE
5
93
100
AcDbEntity
8
1
62
256
6
ByLayer
370
18
48
1
60
0
100
AcDbLine
10
61.482352
20
38.681861
30
0
11
61.508963
21
38.513511
31
0
39
0
210
0
220
0
230
1
0
LINE
5
94
100
AcDbEntity
8
1
62
256
6
ByLayer
370
18
48
1
60
0
100
AcDbLine
10
29.399843
20
31.65
30
0
11
28.400157
21
31.65
31
0
39
0
210
0
220
0
230
1
0
LINE
5
95
100
AcDbEntity
8
1
62
256
6
ByLayer
370
18
48
1
60
0
100
AcDbLine
10
29.399843
20
-16.75
30
0
11
28.400157
21
-16.75
31
0
39
0
210
0
220
0
230
1
0
LINE
5
96
100
AcDbEntity
8
1
62
256
6
ByLayer
370
18
48
1
60
0
100
AcDbLine
10
32.279216
20
38.677082
30
0
11
32.400017
21
38.677082
31
0
39
0
210
0
220
0
230
1
0
LINE
5
97
100
AcDbEntity
8
1
62
256
6
ByLayer
370
13
48
1
60
0
100
AcDbLine
10
52
20
33.835111
30
0
11
52
21
33.34215
31
0
39
0
210
0
220
0
230
1
0
LINE
5
98
100
AcDbEntity
8
1
62
256
6
ByLayer
370
18
48
1
60
0
100
AcDbLine
10
50.4
20
32.394616
30
0
11
50.4
21
31.783861
31
0
39
0
210
0
220
0
230
1
0
LINE
5
99
100
AcDbEntity
8
1
62
256
6
ByLayer
370
18
48
1
60
0
100
AcDbLine
10
26.134546
20
31.65
30
0
11
28.4
21
31.65
31
0
39
0
210
0
220
0
230
1
0
LINE
5
9A
100
AcDbEntity
8
1
62
256
6
ByLayer
370
18
48
1
60
0
100
AcDbLine
10
28.4
20
-16.75
30
0
11
26.134546
21
-16.75
31
0
39
0
210
0
220
0
230
1
0
LINE
5
9B
100
AcDbEntity
8
1
62
256
6
ByLayer
370
18
48
1
60
0
100
AcDbLine
10
28.4
20
31.65
30
0
11
28.4
21
-16.75
31
0
39
0
210
0
220
0
230
1
0
LINE
5
9C
100
AcDbEntity
8
1
62
256
6
ByLayer
370
18
48
1
60
0
100
AcDbLine
10
29.4
20
31.65
30
0
11
31.4
21
31.65
31
0
39
0
210
0
220
0
230
1
0
LINE
5
9D
100
AcDbEntity
8
1
62
256
6
ByLayer
370
18
48
1
60
0
100
AcDbLine
10
38.9
20
-16.75
30
0
11
29.4
21
-16.75
31
0
39
0
210
0
220
0
230
1
0
LINE
5
9E
100
AcDbEntity
8
1
62
256
6
ByLayer
370
18
48
1
60
0
100
AcDbLine
10
38.9
20
-16.75
30
0
11
50.4
21
19.35
31
0
39
0
210
0
220
0
230
1
0
LINE
5
9F
100
AcDbEntity
8
1
62
256
6
ByLayer
370
18
48
1
60
0
100
AcDbLine
10
32.4
20
38.93738
30
0
11
48.360149
21
38.93738
31
0
39
0
210
0
220
0
230
1
0
LINE
5
A0
100
AcDbEntity
8
1
62
256
6
ByLayer
370
18
48
1
60
0
100
AcDbLine
10
32.4
20
32.65
30
0
11
32.4
21
38.93738
31
0
39
0
210
0
220
0
230
1
0
LINE
5
A1
100
AcDbEntity
8
1
62
256
6
ByLayer
370
18
48
1
60
0
100
AcDbLine
10
29.4
20
-16.75
30
0
11
29.4
21
31.65
31
0
39
0
210
0
220
0
230
1
0
LINE
5
A2
100
AcDbEntity
8
1
62
256
6
ByLayer
370
18
48
1
60
0
100
AcDbLine
10
50.4
20
19.35
30
0
11
50.4
21
31.783861
31
0
39
0
210
0
220
0
230
1
0
LINE
5
A3
100
AcDbEntity
8
1
62
256
6
ByLayer
370
18
48
1
60
0
100
AcDbLine
10
58.5
20
38.73927
30
0
11
58.5
21
33.464501
31
0
39
0
210
0
220
0
230
1
0
LINE
5
A4
100
AcDbEntity
8
1
62
256
6
ByLayer
370
18
48
1
60
0
100
AcDbLine
10
51.216445
20
38.93738
30
0
11
48.360149
21
38.93738
31
0
39
0
210
0
220
0
230
1
0
LINE
5
A5
100
AcDbEntity
8
1
62
256
6
ByLayer
370
18
48
1
60
0
100
AcDbLine
10
48.360149
20
33.325
30
0
11
48.360149
21
38.93738
31
0
39
0
210
0
220
0
230
1
0
LINE
5
A6
100
AcDbEntity
8
1
62
256
6
ByLayer
370
13
48
1
60
0
100
AcDbLine
10
48.360149
20
33.325
30
0
11
50.747554
21
33.325
31
0
39
0
210
0
220
0
230
1
0
LINE
5
A7
100
AcDbEntity
8
1
62
256
6
ByLayer
370
13
48
1
60
0
100
AcDbLine
10
23.438319
20
31.65
30
0
11
23.438319
21
29.601958
31
0
39
0
210
0
220
0
230
1
0
LINE
5
A8
100
AcDbEntity
8
1
62
256
6
ByLayer
370
13
48
1
60
0
100
AcDbLine
10
26.134546
20
31.65
30
0
11
26.134546
21
-16.75
31
0
39
0
210
0
220
0
230
1
0
LINE
5
A9
100
AcDbEntity
8
1
62
256
6
ByLayer
370
18
48
1
60
0
100
AcDbLine
10
26.134546
20
31.65
30
0
11
23.905343
21
31.65
31
0
39
0
210
0
220
0
230
1
0
LINE
5
AA
100
AcDbEntity
8
1
62
256
6
ByLayer
370
18
48
1
60
0
100
AcDbLine
10
26.093966
20
-16.75
30
0
11
26.134546
21
-16.75
31
0
39
0
210
0
220
0
230
1
0
LINE
5
AB
100
AcDbEntity
8
1
62
256
6
ByLayer
370
13
48
1
60
0
100
AcDbLine
10
13.461325
20
-9.349221
30
0
11
13.461325
21
-30.080593
31
0
39
0
210
0
220
0
230
1
0
LINE
5
AC
100
AcDbEntity
8
1
62
256
6
ByLayer
370
13
48
1
60
0
100
AcDbLine
10
13.894338
20
-9.869413
30
0
11
13.894338
21
-29.913955
31
0
39
0
210
0
220
0
230
1
0
LINE
5
AD
100
AcDbEntity
8
1
62
256
6
ByLayer
370
13
48
1
60
0
100
AcDbLine
10
10.105662
20
29.913955
30
0
11
10.105662
21
9.869413
31
0
39
0
210
0
220
0
230
1
0
LINE
5
AE
100
AcDbEntity
8
1
62
256
6
ByLayer
370
13
48
1
60
0
100
AcDbLine
10
10.538675
20
30.080593
30
0
11
10.538675
21
9.349221
31
0
39
0
210
0
220
0
230
1
0
LINE
5
AF
100
AcDbEntity
8
1
62
256
6
ByLayer
370
13
48
1
60
0
100
AcDbLine
10
13.461325
20
30.080593
30
0
11
13.461325
21
9.349221
31
0
39
0
210
0
220
0
230
1
0
LINE
5
B0
100
AcDbEntity
8
1
62
256
6
ByLayer
370
13
48
1
60
0
100
AcDbLine
10
13.894338
20
29.913955
30
0
11
13.894338
21
9.869413
31
0
39
0
210
0
220
0
230
1
0
LINE
5
B1
100
AcDbEntity
8
1
62
256
6
ByLayer
370
13
48
1
60
0
100
AcDbLine
10
10.105662
20
-9.869413
30
0
11
10.105662
21
-29.913955
31
0
39
0
210
0
220
0
230
1
0
LINE
5
B2
100
AcDbEntity
8
1
62
256
6
ByLayer
370
13
48
1
60
0
100
AcDbLine
10
10.538675
20
-9.349221
30
0
11
10.538675
21
-30.080593
31
0
39
0
210
0
220
0
230
1
0
LINE
5
B3
100
AcDbEntity
8
1
62
256
6
ByLayer
370
18
48
1
60
0
100
AcDbLine
10
0
20
-31.2
30
0
11
0
21
31.2
31
0
39
0
210
0
220
0
230
1
0
LINE
5
B4
100
AcDbEntity
8
1
62
256
6
ByLayer
370
18
48
1
60
0
100
AcDbLine
10
0.3
20
-31.5
30
0
11
0.3
21
31.5
31
0
39
0
210
0
220
0
230
1
0
LINE
5
B5
100
AcDbEntity
8
1
62
256
6
ByLayer
370
18
48
1
60
0
100
AcDbLine
10
13.461325
20
9.349221
30
0
11
10.538675
21
9.349221
31
0
39
0
210
0
220
0
230
1
0
LINE
5
B6
100
AcDbEntity
8
1
62
256
6
ByLayer
370
18
48
1
60
0
100
AcDbLine
10
10.538675
20
30.080593
30
0
11
13.461325
21
30.080593
31
0
39
0
210
0
220
0
230
1
0
LINE
5
B7
100
AcDbEntity
8
1
62
256
6
ByLayer
370
18
48
1
60
0
100
AcDbLine
10
10.538675
20
-9.349221
30
0
11
13.461325
21
-9.349221
31
0
39
0
210
0
220
0
230
1
0
LINE
5
B8
100
AcDbEntity
8
1
62
256
6
ByLayer
370
18
48
1
60
0
100
AcDbLine
10
13.461325
20
-30.080593
30
0
11
10.538675
21
-30.080593
31
0
39
0
210
0
220
0
230
1
0
LINE
5
B9
100
AcDbEntity
8
1
62
256
6
ByLayer
370
18
48
1
60
0
100
AcDbLine
10
22.080515
20
-22.273864
30
0
11
22
21
-31.5
31
0
39
0
210
0
220
0
230
1
0
LINE
5
BA
100
AcDbEntity
8
1
62
256
6
ByLayer
370
13
48
1
60
0
100
AcDbLine
10
22.279208
20
31.5
30
0
11
22.279208
21
27.680841
31
0
39
0
210
0
220
0
230
1
0
LINE
5
BB
100
AcDbEntity
8
1
62
256
6
ByLayer
370
18
48
1
60
0
100
AcDbLine
10
22.094118
20
-20.715094
30
0
11
22.080515
21
-22.273864
31
0
39
0
210
0
220
0
230
1
0
LINE
5
BC
100
AcDbEntity
8
1
62
256
6
ByLayer
370
13
48
1
60
0
100
AcDbLine
10
22.134698
20
-20.180615
30
0
11
22.134698
21
27.095438
31
0
39
0
210
0
220
0
230
1
0
LINE
5
BD
100
AcDbEntity
8
SK1
62
256
6
ByLayer
370
18
48
1
60
0
100
AcDbLine
10
-0.2
20
-7.034158
30
0
11
-0.2
21
-22.533485
31
0
39
0
210
0
220
0
230
1
0
LINE
5
BF
100
AcDbEntity
8
SK1
62
256
6
ByLayer
370
18
48
1
60
0
100
AcDbLine
10
-0.2
20
22.533485
30
0
11
-0.2
21
7.034161
31
0
39
0
210
0
220
0
230
1
0
LINE
5
C0
100
AcDbEntity
8
SK1
62
256
6
ByLayer
370
13
48
1
60
0
100
AcDbLine
10
-1.307107
20
4.811152
30
0
11
-1.307107
21
-4.811152
31
0
39
0
210
0
220
0
230
1
0
LINE
5
C1
100
AcDbEntity
8
1
62
256
6
ByLayer
370
18
48
1
60
0
100
AcDbLine
10
69.576744
20
32.983803
30
0
11
67.568682
21
33.100747
31
0
39
0
210
0
220
0
230
1
0
LINE
5
C2
100
AcDbEntity
8
1
62
256
6
ByLayer
370
18
48
1
60
0
100
AcDbLine
10
69.576744
20
39.016197
30
0
11
67.568682
21
38.899253
31
0
39
0
210
0
220
0
230
1
0
LINE
5
C3
100
AcDbEntity
8
1
62
256
6
ByLayer
370
18
48
1
60
0
100
AcDbLine
10
70
20
38.616874
30
0
11
70
21
33.383126
31
0
39
0
210
0
220
0
230
1
0
LINE
5
C4
100
AcDbEntity
8
1
62
256
6
ByLayer
370
18
48
1
60
0
100
AcDbLine
10
45.423256
20
39.016197
30
0
11
46.776627
21
38.93738
31
0
39
0
210
0
220
0
230
1
0
LINE
5
C5
100
AcDbEntity
8
1
62
256
6
ByLayer
370
18
48
1
60
0
100
AcDbLine
10
67.568682
20
33.100747
30
0
11
67.143073
21
33.078922
31
0
39
0
210
0
220
0
230
1
0
LINE
5
C6
100
AcDbEntity
8
1
62
256
6
ByLayer
370
18
48
1
60
0
100
AcDbLine
10
67.568682
20
38.899253
30
0
11
67.143073
21
38.921078
31
0
39
0
210
0
220
0
230
1
0
LINE
5
C7
100
AcDbEntity
8
1
62
256
6
ByLayer
370
18
48
1
60
0
100
AcDbLine
10
67.568682
20
38.899253
30
0
11
67.568682
21
33.100747
31
0
39
0
210
0
220
0
230
1
0
LINE
5
C8
100
AcDbEntity
8
1
62
256
6
ByLayer
370
13
48
1
60
0
100
AcDbLine
10
61.999889
20
35.98
30
0
11
65.988604
21
35.98
31
0
39
0
210
0
220
0
230
1
0
LINE
5
C9
100
AcDbEntity
8
1
62
256
6
ByLayer
370
13
48
1
60
0
100
AcDbLine
10
61.999889
20
36.02
30
0
11
65.988604
21
36.02
31
0
39
0
210
0
220
0
230
1
0
LINE
5
CA
100
AcDbEntity
8
1
62
256
6
ByLayer
370
13
48
1
60
0
100
AcDbLine
10
61.999884
20
36.210736
30
0
11
65.94999
21
36.210736
31
0
39
0
210
0
220
0
230
1
0
LINE
5
CB
100
AcDbEntity
8
1
62
256
6
ByLayer
370
13
48
1
60
0
100
AcDbLine
10
61.999884
20
35.789264
30
0
11
65.94999
21
35.789264
31
0
39
0
210
0
220
0
230
1
0
LINE
5
CC
100
AcDbEntity
8
1
62
256
6
ByLayer
370
13
48
1
60
0
100
AcDbLine
10
65.170287
20
36.427733
30
0
11
61.910655
21
36.427733
31
0
39
0
210
0
220
0
230
1
0
LINE
5
CD
100
AcDbEntity
8
1
62
256
6
ByLayer
370
13
48
1
60
0
100
AcDbLine
10
65.170287
20
35.572267
30
0
11
61.910655
21
35.572267
31
0
39
0
210
0
220
0
230
1
0
LINE
5
CE
100
AcDbEntity
8
1
62
256
6
ByLayer
370
13
48
1
60
0
100
AcDbLine
10
64.482367
20
35.516915
30
0
11
61.806266
21
35.516915
31
0
39
0
210
0
220
0
230
1
0
LINE
5
CF
100
AcDbEntity
8
1
62
256
6
ByLayer
370
13
48
1
60
0
100
AcDbLine
10
64.482367
20
36.483085
30
0
11
61.806266
21
36.483085
31
0
39
0
210
0
220
0
230
1
0
LINE
5
D0
100
AcDbEntity
8
1
62
256
6
ByLayer
370
13
48
1
60
0
100
AcDbLine
10
61.77269
20
35.486112
30
0
11
64.306526
21
35.486112
31
0
39
0
210
0
220
0
230
1
0
LINE
5
D1
100
AcDbEntity
8
1
62
256
6
ByLayer
370
13
48
1
60
0
100
AcDbLine
10
61.77269
20
36.513888
30
0
11
64.306526
21
36.513888
31
0
39
0
210
0
220
0
230
1
0
LINE
5
D2
100
AcDbEntity
8
1
62
256
6
ByLayer
370
13
48
1
60
0
100
AcDbLine
10
63.995391
20
35.394335
30
0
11
61.761382
21
35.394335
31
0
39
0
210
0
220
0
230
1
0
LINE
5
D3
100
AcDbEntity
8
1
62
256
6
ByLayer
370
13
48
1
60
0
100
AcDbLine
10
63.995391
20
36.605665
30
0
11
61.761179
21
36.605665
31
0
39
0
210
0
220
0
230
1
0
LINE
5
D4
100
AcDbEntity
8
1
62
256
6
ByLayer
370
13
48
1
60
0
100
AcDbLine
10
63.90992
20
35.350066
30
0
11
61.755786
21
35.350066
31
0
39
0
210
0
220
0
230
1
0
LINE
5
D5
100
AcDbEntity
8
1
62
256
6
ByLayer
370
13
48
1
60
0
100
AcDbLine
10
63.90992
20
36.649934
30
0
11
61.755786
21
36.649934
31
0
39
0
210
0
220
0
230
1
0
LINE
5
D6
100
AcDbEntity
8
1
62
256
6
ByLayer
370
18
48
1
60
0
100
AcDbLine
10
62.611484
20
38.6
30
0
11
61.495264
21
38.6
31
0
39
0
210
0
220
0
230
1
0
LINE
5
D7
100
AcDbEntity
8
1
62
256
6
ByLayer
370
18
48
1
60
0
100
AcDbLine
10
62.611484
20
33.4
30
0
11
61.495264
21
33.4
31
0
39
0
210
0
220
0
230
1
0
LINE
5
D8
100
AcDbEntity
8
1
62
256
6
ByLayer
370
18
48
1
60
0
100
AcDbLine
10
63.90992
20
36.649934
30
0
11
62.618066
21
38.341382
31
0
39
0
210
0
220
0
230
1
0
LINE
5
D9
100
AcDbEntity
8
1
62
256
6
ByLayer
370
18
48
1
60
0
100
AcDbLine
10
64.306526
20
36.513888
30
0
11
63.995391
21
36.605665
31
0
39
0
210
0
220
0
230
1
0
LINE
5
DA
100
AcDbEntity
8
1
62
256
6
ByLayer
370
18
48
1
60
0
100
AcDbLine
10
65.988604
20
36.02
30
0
11
65.988604
21
35.98
31
0
39
0
210
0
220
0
230
1
0
LINE
5
DB
100
AcDbEntity
8
1
62
256
6
ByLayer
370
18
48
1
60
0
100
AcDbLine
10
64.306526
20
35.486112
30
0
11
63.995391
21
35.394335
31
0
39
0
210
0
220
0
230
1
0
LINE
5
DC
100
AcDbEntity
8
1
62
256
6
ByLayer
370
18
48
1
60
0
100
AcDbLine
10
63.90992
20
35.350066
30
0
11
62.618066
21
33.658618
31
0
39
0
210
0
220
0
230
1
0
LINE
5
DD
100
AcDbEntity
8
1
62
256
6
ByLayer
370
18
48
1
60
0
100
AcDbLine
10
62.611484
20
33.641251
30
0
11
62.611484
21
33.4
31
0
39
0
210
0
220
0
230
1
0
LINE
5
DE
100
AcDbEntity
8
1
62
256
6
ByLayer
370
18
48
1
60
0
100
AcDbLine
10
64.039855
20
33.4
30
0
11
62.611484
21
33.4
31
0
39
0
210
0
220
0
230
1
0
LINE
5
DF
100
AcDbEntity
8
1
62
256
6
ByLayer
370
18
48
1
60
0
100
AcDbLine
10
64.467511
20
33.167091
30
0
11
64.039855
21
33.4
31
0
39
0
210
0
220
0
230
1
0
LINE
5
E0
100
AcDbEntity
8
1
62
256
6
ByLayer
370
18
48
1
60
0
100
AcDbLine
10
64.467511
20
33.167091
30
0
11
67.143073
21
33.078922
31
0
39
0
210
0
220
0
230
1
0
LINE
5
E1
100
AcDbEntity
8
1
62
256
6
ByLayer
370
18
48
1
60
0
100
AcDbLine
10
67.143073
20
33.078922
30
0
11
67.143073
21
38.921078
31
0
39
0
210
0
220
0
230
1
0
LINE
5
E2
100
AcDbEntity
8
1
62
256
6
ByLayer
370
18
48
1
60
0
100
AcDbLine
10
64.467511
20
38.832909
30
0
11
67.143073
21
38.921078
31
0
39
0
210
0
220
0
230
1
0
LINE
5
E3
100
AcDbEntity
8
1
62
256
6
ByLayer
370
18
48
1
60
0
100
AcDbLine
10
64.467511
20
38.832909
30
0
11
64.039855
21
38.6
31
0
39
0
210
0
220
0
230
1
0
LINE
5
E4
100
AcDbEntity
8
1
62
256
6
ByLayer
370
18
48
1
60
0
100
AcDbLine
10
64.039855
20
38.6
30
0
11
62.611484
21
38.6
31
0
39
0
210
0
220
0
230
1
0
LINE
5
E5
100
AcDbEntity
8
1
62
256
6
ByLayer
370
18
48
1
60
0
100
AcDbLine
10
62.611484
20
38.358749
30
0
11
62.611484
21
38.6
31
0
39
0
210
0
220
0
230
1
0
LINE
5
E6
100
AcDbEntity
8
1
62
256
6
ByLayer
370
13
48
1
60
0
100
AcDbLine
10
62.618068
20
38.341384
30
0
11
61.534477
21
38.341384
31
0
39
0
210
0
220
0
230
1
0
LINE
5
E7
100
AcDbEntity
8
1
62
256
6
ByLayer
370
13
48
1
60
0
100
AcDbLine
10
62.611484
20
38.358749
30
0
11
61.531843
21
38.358749
31
0
39
0
210
0
220
0
230
1
0
LINE
5
E8
100
AcDbEntity
8
1
62
256
6
ByLayer
370
13
48
1
60
0
100
AcDbLine
10
62.611484
20
33.641251
30
0
11
61.530245
21
33.641251
31
0
39
0
210
0
220
0
230
1
0
LINE
5
E9
100
AcDbEntity
8
1
62
256
6
ByLayer
370
13
48
1
60
0
100
AcDbLine
10
62.618068
20
33.658616
30
0
11
61.532718
21
33.658616
31
0
39
0
210
0
220
0
230
1
0
LINE
5
EA
100
AcDbEntity
8
SK2
62
256
6
ByLayer
370
18
48
1
60
0
100
AcDbLine
10
-47.975
20
-31.5
30
0
11
-47.975
21
31.5
31
0
39
0
210
0
220
0
230
1
0
LINE
5
EC
100
AcDbEntity
8
SK2
62
256
6
ByLayer
370
18
48
1
60
0
100
AcDbLine
10
-1.2875
20
31.5
30
0
11
-49.975
21
31.5
31
0
39
0
210
0
220
0
230
1
0
LINE
5
ED
100
AcDbEntity
8
SK2
62
256
6
ByLayer
370
18
48
1
60
0
100
AcDbLine
10
-1.2875
20
-31.5
30
0
11
-49.975
21
-31.5
31
0
39
0
210
0
220
0
230
1
0
LINE
5
EE
100
AcDbEntity
8
1
62
256
6
ByLayer
370
18
48
1
60
1
100
AcDbLine
10
-47.975
20
31.5
30
0
11
-47.514216
21
28.000002
31
0
39
0
210
0
220
0
230
1
0
LINE
5
EF
100
AcDbEntity
8
1
62
256
6
ByLayer
370
18
48
1
60
1
100
AcDbLine
10
-47.514216
20
28.000002
30
0
11
-48.435784
21
27.999998
31
0
39
0
210
0
220
0
230
1
0
LINE
5
F0
100
AcDbEntity
8
1
62
256
6
ByLayer
370
18
48
1
60
1
100
AcDbLine
10
-48.435784
20
27.999998
30
0
11
-47.975
21
31.5
31
0
39
0
210
0
220
0
230
1
0
LINE
5
F1
100
AcDbEntity
8
1
62
256
6
ByLayer
370
18
48
1
60
1
100
AcDbLine
10
-47.975
20
-31.5
30
0
11
-48.435784
21
-28.000002
31
0
39
0
210
0
220
0
230
1
0
LINE
5
F2
100
AcDbEntity
8
1
62
256
6
ByLayer
370
18
48
1
60
1
100
AcDbLine
10
-48.435784
20
-28.000002
30
0
11
-47.514216
21
-27.999998
31
0
39
0
210
0
220
0
230
1
0
LINE
5
F3
100
AcDbEntity
8
1
62
256
6
ByLayer
370
18
48
1
60
1
100
AcDbLine
10
-47.514216
20
-27.999998
30
0
11
-47.975
21
-31.5
31
0
39
0
210
0
220
0
230
1
0
LINE
5
153
100
AcDbEntity
8
1
62
256
6
ByLayer
370
18
48
1
60
1
100
AcDbLine
10
-47.975
20
31.5
30
0
11
-47.514216
21
28.000002
31
0
39
0
210
0
220
0
230
1
0
LINE
5
154
100
AcDbEntity
8
1
62
256
6
ByLayer
370
18
48
1
60
1
100
AcDbLine
10
-47.514216
20
28.000002
30
0
11
-48.435784
21
27.999998
31
0
39
0
210
0
220
0
230
1
0
LINE
5
155
100
AcDbEntity
8
1
62
256
6
ByLayer
370
18
48
1
60
1
100
AcDbLine
10
-48.435784
20
27.999998
30
0
11
-47.975
21
31.5
31
0
39
0
210
0
220
0
230
1
0
LINE
5
157
100
AcDbEntity
8
1
62
256
6
ByLayer
370
18
48
1
60
1
100
AcDbLine
10
-47.975
20
-31.5
30
0
11
-48.435784
21
-28.000002
31
0
39
0
210
0
220
0
230
1
0
LINE
5
158
100
AcDbEntity
8
1
62
256
6
ByLayer
370
18
48
1
60
1
100
AcDbLine
10
-48.435784
20
-28.000002
30
0
11
-47.514216
21
-27.999998
31
0
39
0
210
0
220
0
230
1
0
LINE
5
159
100
AcDbEntity
8
1
62
256
6
ByLayer
370
18
48
1
60
1
100
AcDbLine
10
-47.514216
20
-27.999998
30
0
11
-47.975
21
-31.5
31
0
39
0
210
0
220
0
230
1
0
MTEXT
5
14F
100
AcDbEntity
8
SK2
62
256
6
ByLayer
370
18
48
1
60
0
100
AcDbMText
10
-49.539634
20
-4.530622
30
0
210
0
220
0
230
1
1
%%c
40
3.5
41
0
44
1.084337
50
90
71
7
72
5
7
iso_b_vert
0
MTEXT
5
152
100
AcDbEntity
8
SK2
62
256
6
ByLayer
370
18
48
1
60
0
100
AcDbMText
10
-49.539634
20
2.442034
30
0
210
0
220
0
230
1
1
\W0.6740;63
40
3.5
41
0
44
1.084337
50
90
71
7
72
5
7
iso_b_vert
0
MTEXT
5
15B
100
AcDbEntity
8
SK6
62
256
6
ByLayer
370
18
48
1
60
0
100
AcDbMText
10
-16.3145
20
-47.829556
30
0
210
0
220
0
230
1
1
\W0.7408;C2A-CC6-RFK18B-168CB
40
3.5
41
0
44
1.084337
50
0
71
7
72
5
7
iso_b_vert
0
HATCH
5
156
100
AcDbEntity
8
SK2
62
256
6
ByLayer
370
13
48
1
60
0
100
AcDbHatch
10
0
20
0
30
0
210
0
220
0
230
1
2
ANSI31
70
0
71
0
91
1
92
5
93
3
72
1
10
-47.9750000000001
20
31.5
11
-47.5142162584473
21
28.0000016925532
72
1
10
-47.5142162584473
20
28.0000016925532
11
-48.4357837415529
21
27.9999983074468
72
1
10
-48.4357837415529
20
27.9999983074468
11
-47.9750000000001
21
31.5
97
0
75
0
76
1
52
0
41
0.0062
77
0
78
1
53
45
43
0
44
0
45
-0.0139193969876572
46
0.0139193969876572
79
0
47
0
98
1
10
0
20
0
0
HATCH
5
15A
100
AcDbEntity
8
SK2
62
256
6
ByLayer
370
13
48
1
60
0
100
AcDbHatch
10
0
20
0
30
0
210
0
220
0
230
1
2
ANSI31
70
0
71
0
91
1
92
5
93
3
72
1
10
-47.9750000000001
20
-31.5
11
-48.4357837415529
21
-28.0000016925532
72
1
10
-48.4357837415529
20
-28.0000016925532
11
-47.5142162584473
21
-27.9999983074468
72
1
10
-47.5142162584473
20
-27.9999983074468
11
-47.9750000000001
21
-31.5
97
0
75
0
76
1
52
0
41
0.0062
77
0
78
1
53
45
43
0
44
0
45
-0.0139193969876572
46
0.0139193969876572
79
0
47
0
98
1
10
0
20
0
0
DIMENSION
5
15E
100
AcDbEntity
8
2
62
256
6
ByLayer
370
18
48
1
60
0
100
AcDbDimension
2
_U0
10
101.1
20
0
30
0
11
101.1
21
19.5
31
0
70
32
71
1
72
1
41
1
210
0
220
0
230
1
3
Standard
100
AcDbAlignedDimension
13
70
23
39
33
0
14
0
24
0
34
0
50
90
100
AcDbRotatedDimension
1001
ACAD
1000
DSTYLE
1002
{
1070
   371
1070
    13
1070
   372
1070
    13
1070
   170
1070
     0
1070
   144
1040
1.0
1070
   277
1070
     2
1070
   284
1070
     8
1070
   278
1070
    46
1070
   146
1040
1.0
1070
   345
1005
16
1070
   347
1005
16
1070
   346
1005
16
1070
   344
1005
0
1070
   343
1005
0
1070
   172
1070
     1
1070
    76
1070
     0
1070
    75
1070
     0
1070
   282
1070
     0
1070
   281
1070
     0
1070
    71
1070
     0
1070
    74
1070
     0
1070
   279
1070
     0
1070
   173
1070
     1
1070
   340
1005
150
1070
   271
1070
     1
1070
   272
1070
     2
1070
    77
1070
     1
1070
    73
1070
     0
1070
   171
1070
     3
1070
   274
1070
     4
1070
   177
1070
     2
1070
   176
1070
     2
1070
   178
1070
     2
1070
    78
1070
     8
1070
    48
1040
-0.1
1070
    41
1040
3.5
1070
   147
1040
1.75
1070
    42
1040
1.5875
1070
    44
1040
2.0
1070
   140
1040
3.5
1002
}
1001
ACAD_DSTYLE_DIM_LINETYPE
1070
   380
1005
16
1001
ACAD_DSTYLE_DIM_EXT1_LINETYPE
1070
   381
1005
16
1001
ACAD_DSTYLE_DIM_EXT2_LINETYPE
1070
   382
1005
16
0
DIMENSION
5
178
100
AcDbEntity
8
2
62
256
6
ByLayer
370
18
48
1
60
0
100
AcDbDimension
2
_U1
10
90.1
20
39
30
0
11
90.1
21
36
31
0
70
32
71
1
72
1
41
1
210
0
220
0
230
1
3
Standard
100
AcDbAlignedDimension
13
70
23
33
33
0
14
70
24
39
34
0
50
90
100
AcDbRotatedDimension
1001
ACAD
1000
DSTYLE
1002
{
1070
   371
1070
    13
1070
   372
1070
    13
1070
   170
1070
     0
1070
   144
1040
1.0
1070
   277
1070
     2
1070
   284
1070
     8
1070
   278
1070
    46
1070
   146
1040
1.0
1070
   345
1005
16
1070
   347
1005
16
1070
   346
1005
16
1070
   344
1005
0
1070
   343
1005
0
1070
   172
1070
     1
1070
    76
1070
     0
1070
    75
1070
     0
1070
   282
1070
     0
1070
   281
1070
     0
1070
    71
1070
     0
1070
    74
1070
     0
1070
   279
1070
     0
1070
   173
1070
     1
1070
   340
1005
150
1070
   271
1070
     1
1070
   272
1070
     2
1070
    77
1070
     1
1070
    73
1070
     0
1070
   171
1070
     3
1070
   274
1070
     4
1070
   177
1070
     2
1070
   176
1070
     2
1070
   178
1070
     2
1070
    78
1070
     8
1070
    48
1040
-0.1
1070
    41
1040
3.5
1070
   147
1040
1.75
1070
    42
1040
1.5875
1070
    44
1040
2.0
1070
   140
1040
3.5
1002
}
1001
ACAD_DSTYLE_DIM_LINETYPE
1070
   380
1005
16
1001
ACAD_DSTYLE_DIM_EXT1_LINETYPE
1070
   381
1005
16
1001
ACAD_DSTYLE_DIM_EXT2_LINETYPE
1070
   382
1005
16
0
DIMENSION
5
191
100
AcDbEntity
8
2
62
256
6
ByLayer
370
18
48
1
60
0
100
AcDbDimension
2
_U2
10
70
20
-31.425
30
0
11
61
21
-31.425
31
0
70
32
71
1
72
1
41
1
210
0
220
0
230
1
3
Standard
100
AcDbAlignedDimension
13
52
23
33.325
33
0
14
70
24
33
34
0
50
0
100
AcDbRotatedDimension
1001
ACAD
1000
DSTYLE
1002
{
1070
   371
1070
    13
1070
   372
1070
    13
1070
   170
1070
     0
1070
   144
1040
1.0
1070
   277
1070
     2
1070
   284
1070
     8
1070
   278
1070
    46
1070
   146
1040
1.0
1070
   345
1005
16
1070
   347
1005
16
1070
   346
1005
16
1070
   344
1005
0
1070
   343
1005
0
1070
   172
1070
     1
1070
    76
1070
     0
1070
    75
1070
     0
1070
   282
1070
     0
1070
   281
1070
     0
1070
    71
1070
     0
1070
    74
1070
     0
1070
   279
1070
     0
1070
   173
1070
     1
1070
   340
1005
150
1070
   271
1070
     1
1070
   272
1070
     2
1070
    77
1070
     1
1070
    73
1070
     1
1070
   171
1070
     3
1070
   274
1070
     4
1070
   177
1070
     2
1070
   176
1070
     2
1070
   178
1070
     2
1070
    78
1070
     8
1070
    48
1040
-0.1
1070
    41
1040
3.5
1070
   147
1040
1.75
1070
    42
1040
1.5875
1070
    44
1040
2.0
1070
   140
1040
3.5
1002
}
1001
ACAD_DSTYLE_DIM_LINETYPE
1070
   380
1005
16
1001
ACAD_DSTYLE_DIM_EXT1_LINETYPE
1070
   381
1005
16
1001
ACAD_DSTYLE_DIM_EXT2_LINETYPE
1070
   382
1005
16
0
DIMENSION
5
1A9
100
AcDbEntity
8
2
62
256
6
ByLayer
370
18
48
1
60
0
100
AcDbDimension
2
_U3
10
70
20
53.75
30
0
11
35
21
53.75
31
0
70
32
71
1
72
1
41
1
210
0
220
0
230
1
3
Standard
100
AcDbAlignedDimension
13
0
23
0
33
0
14
70
24
39
34
0
50
0
100
AcDbRotatedDimension
1001
ACAD
1000
DSTYLE
1002
{
1070
   371
1070
    13
1070
   372
1070
    13
1070
   170
1070
     0
1070
   144
1040
1.0
1070
   277
1070
     2
1070
   284
1070
     8
1070
   278
1070
    46
1070
   146
1040
1.0
1070
   345
1005
16
1070
   347
1005
16
1070
   346
1005
16
1070
   344
1005
0
1070
   343
1005
0
1070
   172
1070
     1
1070
    76
1070
     0
1070
    75
1070
     0
1070
   282
1070
     0
1070
   281
1070
     0
1070
    71
1070
     0
1070
    74
1070
     0
1070
   279
1070
     0
1070
   173
1070
     1
1070
   340
1005
150
1070
   271
1070
     1
1070
   272
1070
     2
1070
    77
1070
     1
1070
    73
1070
     1
1070
   171
1070
     3
1070
   274
1070
     4
1070
   177
1070
     2
1070
   176
1070
     2
1070
   178
1070
     2
1070
    78
1070
     8
1070
    48
1040
-0.1
1070
    41
1040
3.5
1070
   147
1040
1.75
1070
    42
1040
1.5875
1070
    44
1040
2.0
1070
   140
1040
3.5
1002
}
1001
ACAD_DSTYLE_DIM_LINETYPE
1070
   380
1005
16
1001
ACAD_DSTYLE_DIM_EXT1_LINETYPE
1070
   381
1005
16
1001
ACAD_DSTYLE_DIM_EXT2_LINETYPE
1070
   382
1005
16
0
ENDSEC
0
SECTION
2
OBJECTS
0
DICTIONARY
5
230
330
0
100
AcDbDictionary
280
0
281
1
3
ACAD_GROUP
350
231
3
ACAD_MLINESTYLE
350
232
0
DICTIONARY
5
231
330
0
100
AcDbDictionary
280
0
281
1
0
DICTIONARY
5
232
330
0
100
AcDbDictionary
280
0
281
1
3
Standard
350
18
0
MLINESTYLE
5
18
330
232
100
AcDbMlineStyle
2
Standard
70
0
3

62
256
51
90
52
90
71
2
49
-0.5
62
256
6
ByLayer
49
0.5
62
256
6
ByLayer
0
RASTERVARIABLES
5
21f
330

100
AcDbRasterVariables
90
0
70
1
71
1
72
1
0
ENDSEC
0
EOF
