0
SECTION
2
HEADER
9
$ACADVER
1
AC1015
9
$DWGCODEPAGE
3
ANSI_1252
9
$HANDSEED
5
23e
9
$ANGBASE
50
0
9
$ANGDIR
70
0
9
$ATTMODE
70
1
9
$AUNITS
70
0
9
$AUPREC
70
0
9
$CECOLOR
62
256
9
$CELTSCALE
40
1
9
$CELTYPE
6
ByLayer
9
$CELWEIGHT
370
18
9
$CLAYER
8
0
9
$CMLJUST
70
0
9
$CMLSCALE
40
1
9
$CMLSTYLE
2
Standard
9
$DIMSTYLE
2
Standard
9
$TEXTSIZE
40
0.2
9
$TEXTSTYLE
7
Standard
9
$LUNITS
70
2
9
$LUPREC
70
4
9
$EXTNAMES
290
1
9
$INSUNITS
70
4
9
$LTSCALE
40
1
9
$LWDISPLAY
290
1
9
$PDMODE
70
0
9
$PDSIZE
40
0
9
$PLINEGEN
70
0
0
ENDSEC
0
SECTION
2
CLASSES
0
CLASS
1
RASTERVARIABLES
2
AcDbRasterVariables
3
ISM
90
0
280
0
281
0
0
ENDSEC
0
SECTION
2
TABLES
0
TABLE
2
VPORT
5
234
100
AcDbSymbolTable
0
VPORT
5
1
100
AcDbSymbolTableRecord
100
AcDbViewportTableRecord
2
*Active
70
0
10
0
20
0
11
1
21
1
12
-1
22
1
13
0
23
0
14
0.5
24
0.5
15
10
25
10
16
0
26
0
36
1
17
0
27
0
37
0
0
ENDTAB
0
TABLE
2
LTYPE
5
235
100
AcDbSymbolTable
0
LTYPE
5
14
100
AcDbSymbolTableRecord
100
AcDbLinetypeTableRecord
70
0
2
ByBlock
3

72
65
73
0
40
0
0
LTYPE
5
15
100
AcDbSymbolTableRecord
100
AcDbLinetypeTableRecord
70
0
2
ByLayer
3

72
65
73
0
40
0
0
LTYPE
5
16
100
AcDbSymbolTableRecord
100
AcDbLinetypeTableRecord
70
0
2
Continuous
3
Solid line
72
65
73
0
40
0
0
LTYPE
5
6E
100
AcDbSymbolTableRecord
100
AcDbLinetypeTableRecord
70
0
2
CENTER
3
____ _ ____ _ ____ _ ____
72
65
73
4
40
47.5
49
22
74
0
49
-8.5
74
0
49
8.5
74
0
49
-8.5
74
0
0
LTYPE
5
6F
100
AcDbSymbolTableRecord
100
AcDbLinetypeTableRecord
70
0
2
DASHED
3
__ __ __ __ __ __ __ __ __
72
65
73
2
40
25.72
49
12.86
74
0
49
-12.86
74
0
0
ENDTAB
0
TABLE
2
LAYER
5
236
100
AcDbSymbolTable
0
LAYER
5
10
100
AcDbSymbolTableRecord
100
AcDbLayerTableRecord
2
0
70
0
62
7
6
Continuous
290
1
370
-3
390
0
0
LAYER
5
71
100
AcDbSymbolTableRecord
100
AcDbLayerTableRecord
2
80
70
0
62
-6
6
Continuous
290
1
370
-3
390
0
0
LAYER
5
73
100
AcDbSymbolTableRecord
100
AcDbLayerTableRecord
2
81
70
0
62
-3
6
Continuous
290
1
370
-3
390
0
0
LAYER
5
75
100
AcDbSymbolTableRecord
100
AcDbLayerTableRecord
2
1
70
0
62
4
6
Continuous
290
1
370
-3
390
0
0
LAYER
5
162
100
AcDbSymbolTableRecord
100
AcDbLayerTableRecord
2
Defpoints
70
0
62
7
6
Continuous
290
0
370
-3
390
0
0
LAYER
5
16F
100
AcDbSymbolTableRecord
100
AcDbLayerTableRecord
2
2
70
0
62
7
6
Continuous
290
1
370
-3
390
0
0
LAYER
5
221
100
AcDbSymbolTableRecord
100
AcDbLayerTableRecord
2
SK1
70
0
62
4
6
Continuous
290
1
370
-3
390
0
0
LAYER
5
222
100
AcDbSymbolTableRecord
100
AcDbLayerTableRecord
2
SK2
70
0
62
7
6
Continuous
290
1
370
-3
390
0
0
LAYER
5
223
100
AcDbSymbolTableRecord
100
AcDbLayerTableRecord
2
SK6
70
0
62
5
6
Continuous
290
1
370
-3
390
0
0
ENDTAB
0
TABLE
2
STYLE
5
237
100
AcDbSymbolTable
0
STYLE
5
11
100
AcDbSymbolTableRecord
100
AcDbTextStyleTableRecord
2
Standard
3
txt
70
0
71
0
40
0
41
1
42
0
50
0
0
STYLE
5
151
100
AcDbSymbolTableRecord
100
AcDbTextStyleTableRecord
2
iso_b_vert
3
simplex.shx
70
0
71
0
40
0
41
1
42
0
50
0
0
STYLE
5
152
100
AcDbSymbolTableRecord
100
AcDbTextStyleTableRecord
2
DWGDirectTextStyle
3
simplex
70
0
71
0
40
0
41
1
42
0
50
0
0
ENDTAB
0
TABLE
2
DIMSTYLE
5
238
100
AcDbSymbolTable
100
AcDbDimStyleTable
0
DIMSTYLE
105
27
100
AcDbSymbolTableRecord
100
AcDbDimStyleTableRecord
2
Standard
70
0
3
<>
41
0.18
42
0.0625
44
0.18
140
0.18
147
0.09
73
0
74
0
77
1
271
2
275
0
278
52
280
0
340
11
0
ENDTAB
0
TABLE
2
VIEW
5
239
100
AcDbSymbolTable
0
ENDTAB
0
TABLE
2
UCS
5
23a
100
AcDbSymbolTable
0
ENDTAB
0
TABLE
2
APPID
5
23b
100
AcDbSymbolTable
0
APPID
5
12
100
AcDbSymbolTableRecord
100
AcDbRegAppTableRecord
2
ACAD
70
0
0
APPID
5
15E
100
AcDbSymbolTableRecord
100
AcDbRegAppTableRecord
2
ACAD_DSTYLE_DIMBREAK
70
0
0
APPID
5
1E0
100
AcDbSymbolTableRecord
100
AcDbRegAppTableRecord
2
ACAD_DSTYLE_DIM_LINETYPE
70
0
0
APPID
5
1E1
100
AcDbSymbolTableRecord
100
AcDbRegAppTableRecord
2
ACAD_DSTYLE_DIM_EXT1_LINETYPE
70
0
0
APPID
5
1E2
100
AcDbSymbolTableRecord
100
AcDbRegAppTableRecord
2
ACAD_DSTYLE_DIM_EXT2_LINETYPE
70
0
0
APPID
5
21D
100
AcDbSymbolTableRecord
100
AcDbRegAppTableRecord
2
ACAD_MLEADERVER
70
0
0
ENDTAB
0
TABLE
2
BLOCK_RECORD
5
23c
100
AcDbSymbolTable
0
BLOCK_RECORD
5
1F
100
AcDbSymbolTableRecord
100
AcDbBlockTableRecord
2
*Model_Space
340
0
70
0
0
BLOCK_RECORD
5
1B
100
AcDbSymbolTableRecord
100
AcDbBlockTableRecord
2
*Paper_Space
340
0
70
0
0
BLOCK_RECORD
5
23
100
AcDbSymbolTableRecord
100
AcDbBlockTableRecord
2
*Paper_Space0
340
0
70
0
0
BLOCK_RECORD
5
163
100
AcDbSymbolTableRecord
100
AcDbBlockTableRecord
2
*D1
340
0
70
0
0
BLOCK_RECORD
5
170
100
AcDbSymbolTableRecord
100
AcDbBlockTableRecord
2
_U0
340
0
70
0
0
BLOCK_RECORD
5
17C
100
AcDbSymbolTableRecord
100
AcDbBlockTableRecord
2
*D3
340
0
70
0
0
BLOCK_RECORD
5
189
100
AcDbSymbolTableRecord
100
AcDbBlockTableRecord
2
_U1
340
0
70
0
0
BLOCK_RECORD
5
195
100
AcDbSymbolTableRecord
100
AcDbBlockTableRecord
2
*D5
340
0
70
0
0
BLOCK_RECORD
5
1A1
100
AcDbSymbolTableRecord
100
AcDbBlockTableRecord
2
_U2
340
0
70
0
0
BLOCK_RECORD
5
1AD
100
AcDbSymbolTableRecord
100
AcDbBlockTableRecord
2
*D7
340
0
70
0
0
BLOCK_RECORD
5
1B9
100
AcDbSymbolTableRecord
100
AcDbBlockTableRecord
2
_U3
340
0
70
0
0
ENDTAB
0
ENDSEC
0
SECTION
2
BLOCKS
0
BLOCK
5
20
100
AcDbEntity
8
0
100
AcDbBlockBegin
2
*Model_Space
70
0
10
0
20
0
30
0
3
*Model_Space
0
ENDBLK
5
21
100
AcDbEntity
8
0
100
AcDbBlockEnd
0
BLOCK
5
1C
100
AcDbEntity
8
0
100
AcDbBlockBegin
2
*Paper_Space
70
0
10
0
20
0
30
0
3
*Paper_Space
0
ENDBLK
5
1D
100
AcDbEntity
8
0
100
AcDbBlockEnd
0
BLOCK
5
24
100
AcDbEntity
8
0
100
AcDbBlockBegin
2
*Paper_Space0
70
0
10
0
20
0
30
0
3
*Paper_Space0
0
ENDBLK
5
25
100
AcDbEntity
8
0
100
AcDbBlockEnd
0
BLOCK
5
164
100
AcDbEntity
8
0
100
AcDbBlockBegin
2
*D1
70
1
10
0
20
0
30
0
3
*D1
0
LINE
5
166
100
AcDbEntity
8
0
62
256
6
ByLayer
370
-2
48
1
60
0
100
AcDbLine
10
71.5875
20
39
30
0
11
103.1
21
39
31
0
39
0
210
0
220
0
230
1
0
LINE
5
167
100
AcDbEntity
8
0
62
256
6
ByLayer
370
-2
48
1
60
0
100
AcDbLine
10
1.5875
20
0
30
0
11
103.1
21
0
31
0
39
0
210
0
220
0
230
1
0
LINE
5
168
100
AcDbEntity
8
0
62
256
6
ByLayer
370
-2
48
1
60
0
100
AcDbLine
10
101.1
20
35.5
30
0
11
101.1
21
3.5
31
0
39
0
210
0
220
0
230
1
0
SOLID
5
169
100
AcDbEntity
8
0
62
256
6
ByLayer
370
-1
48
1
60
0
100
AcDbTrace
10
101.683333
20
35.5
30
0
11
100.516667
21
35.5
31
0
12
101.1
22
39
32
0
13
101.1
23
39
33
0
39
0
210
0
220
0
230
1
0
SOLID
5
16A
100
AcDbEntity
8
0
62
256
6
ByLayer
370
-1
48
1
60
0
100
AcDbTrace
10
100.516667
20
3.5
30
0
11
101.683333
21
3.5
31
0
12
101.1
22
0
32
0
13
101.1
23
0
33
0
39
0
210
0
220
0
230
1
0
MTEXT
5
16B
100
AcDbEntity
8
0
62
256
6
ByLayer
370
18
48
1
60
0
100
AcDbMText
10
94.1
20
19.5
30
0
210
0
220
0
230
1
1
\A1;39
40
3.5
41
0
44
1
50
90
71
5
72
5
7
iso_b_vert
0
POINT
5
16C
100
AcDbEntity
8
Defpoints
62
0
6
ByLayer
370
-1
48
1
60
0
100
AcDbPoint
10
70
20
39
30
0
39
0
210
0
220
0
230
1
50
360
0
POINT
5
16D
100
AcDbEntity
8
Defpoints
62
0
6
ByLayer
370
-1
48
1
60
0
100
AcDbPoint
10
0
20
0
30
0
39
0
210
0
220
0
230
1
50
360
0
POINT
5
16E
100
AcDbEntity
8
Defpoints
62
0
6
ByLayer
370
-1
48
1
60
0
100
AcDbPoint
10
101.1
20
0
30
0
39
0
210
0
220
0
230
1
50
360
0
ENDBLK
5
165
100
AcDbEntity
8
0
100
AcDbBlockEnd
0
BLOCK
5
177
100
AcDbEntity
8
0
100
AcDbBlockBegin
2
_U0
70
0
10
0
20
0
30
0
3
_U0
0
MTEXT
5
171
100
AcDbEntity
8
2
62
256
6
ByLayer
370
18
48
1
60
0
100
AcDbMText
10
100.410366
20
17.567034
30
0
210
0
220
0
230
1
1
\W0.6927;39
40
3.5
41
0
44
1.084337
50
90
71
7
72
5
7
iso_b_vert
0
LINE
5
172
100
AcDbEntity
8
2
62
256
6
ByLayer
370
13
48
1
60
0
100
AcDbLine
10
71.5875
20
39
30
0
11
103.1
21
39
31
0
39
0
210
0
220
0
230
1
0
LINE
5
173
100
AcDbEntity
8
2
62
256
6
ByLayer
370
13
48
1
60
0
100
AcDbLine
10
1.5875
20
0
30
0
11
103.1
21
0
31
0
39
0
210
0
220
0
230
1
0
LINE
5
174
100
AcDbEntity
8
2
62
256
6
ByLayer
370
13
48
1
60
0
100
AcDbLine
10
101.1
20
39
30
0
11
101.1
21
0
31
0
39
0
210
0
220
0
230
1
0
SOLID
5
175
100
AcDbEntity
8
2
62
256
6
ByLayer
370
18
48
1
60
0
100
AcDbTrace
10
101.1
20
39
30
0
11
101.560784
21
35.500002
31
0
12
100.639216
22
35.499998
32
0
13
100.639216
23
35.499998
33
0
39
0
210
0
220
0
230
1
0
SOLID
5
176
100
AcDbEntity
8
2
62
256
6
ByLayer
370
18
48
1
60
0
100
AcDbTrace
10
101.1
20
0
30
0
11
100.639216
21
3.499998
31
0
12
101.560784
22
3.500002
32
0
13
101.560784
23
3.500002
33
0
39
0
210
0
220
0
230
1
0
ENDBLK
5
178
100
AcDbEntity
8
0
100
AcDbBlockEnd
0
BLOCK
5
17D
100
AcDbEntity
8
0
100
AcDbBlockBegin
2
*D3
70
1
10
0
20
0
30
0
3
*D3
0
LINE
5
17F
100
AcDbEntity
8
0
62
256
6
ByLayer
370
-2
48
1
60
0
100
AcDbLine
10
71.5875
20
33
30
0
11
92.1
21
33
31
0
39
0
210
0
220
0
230
1
0
LINE
5
180
100
AcDbEntity
8
0
62
256
6
ByLayer
370
-2
48
1
60
0
100
AcDbLine
10
71.5875
20
39
30
0
11
92.1
21
39
31
0
39
0
210
0
220
0
230
1
0
LINE
5
181
100
AcDbEntity
8
0
62
256
6
ByLayer
370
-2
48
1
60
0
100
AcDbLine
10
90.1
20
29.5
30
0
11
90.1
21
26
31
0
39
0
210
0
220
0
230
1
0
LINE
5
182
100
AcDbEntity
8
0
62
256
6
ByLayer
370
-2
48
1
60
0
100
AcDbLine
10
90.1
20
42.5
30
0
11
90.1
21
46
31
0
39
0
210
0
220
0
230
1
0
SOLID
5
183
100
AcDbEntity
8
0
62
256
6
ByLayer
370
-1
48
1
60
0
100
AcDbTrace
10
90.683333
20
29.5
30
0
11
89.516667
21
29.5
31
0
12
90.1
22
33
32
0
13
90.1
23
33
33
0
39
0
210
0
220
0
230
1
0
SOLID
5
184
100
AcDbEntity
8
0
62
256
6
ByLayer
370
-1
48
1
60
0
100
AcDbTrace
10
89.516667
20
42.5
30
0
11
90.683333
21
42.5
31
0
12
90.1
22
39
32
0
13
90.1
23
39
33
0
39
0
210
0
220
0
230
1
0
MTEXT
5
185
100
AcDbEntity
8
0
62
256
6
ByLayer
370
18
48
1
60
0
100
AcDbMText
10
83.1
20
36
30
0
210
0
220
0
230
1
1
\A1;6
40
3.5
41
0
44
1
50
90
71
5
72
5
7
iso_b_vert
0
POINT
5
186
100
AcDbEntity
8
Defpoints
62
0
6
ByLayer
370
-1
48
1
60
0
100
AcDbPoint
10
70
20
33
30
0
39
0
210
0
220
0
230
1
50
360
0
POINT
5
187
100
AcDbEntity
8
Defpoints
62
0
6
ByLayer
370
-1
48
1
60
0
100
AcDbPoint
10
70
20
39
30
0
39
0
210
0
220
0
230
1
50
360
0
POINT
5
188
100
AcDbEntity
8
Defpoints
62
0
6
ByLayer
370
-1
48
1
60
0
100
AcDbPoint
10
90.1
20
39
30
0
39
0
210
0
220
0
230
1
50
360
0
ENDBLK
5
17E
100
AcDbEntity
8
0
100
AcDbBlockEnd
0
BLOCK
5
190
100
AcDbEntity
8
0
100
AcDbBlockBegin
2
_U1
70
0
10
0
20
0
30
0
3
_U1
0
MTEXT
5
18A
100
AcDbEntity
8
2
62
256
6
ByLayer
370
18
48
1
60
0
100
AcDbMText
10
89.410366
20
35.374767
30
0
210
0
220
0
230
1
1
\W0.5404;6
40
3.5
41
0
44
1.084337
50
90
71
7
72
5
7
iso_b_vert
0
LINE
5
18B
100
AcDbEntity
8
2
62
256
6
ByLayer
370
13
48
1
60
0
100
AcDbLine
10
71.5875
20
33
30
0
11
92.1
21
33
31
0
39
0
210
0
220
0
230
1
0
LINE
5
18C
100
AcDbEntity
8
2
62
256
6
ByLayer
370
13
48
1
60
0
100
AcDbLine
10
71.5875
20
39
30
0
11
92.1
21
39
31
0
39
0
210
0
220
0
230
1
0
LINE
5
18D
100
AcDbEntity
8
2
62
256
6
ByLayer
370
13
48
1
60
0
100
AcDbLine
10
90.1
20
24.25
30
0
11
90.1
21
47.75
31
0
39
0
210
0
220
0
230
1
0
SOLID
5
18E
100
AcDbEntity
8
2
62
256
6
ByLayer
370
18
48
1
60
0
100
AcDbTrace
10
90.1
20
33
30
0
11
90.560784
21
29.500002
31
0
12
89.639216
22
29.499998
32
0
13
89.639216
23
29.499998
33
0
39
0
210
0
220
0
230
1
0
SOLID
5
18F
100
AcDbEntity
8
2
62
256
6
ByLayer
370
18
48
1
60
0
100
AcDbTrace
10
90.1
20
39
30
0
11
89.639216
21
42.499998
31
0
12
90.560784
22
42.500002
32
0
13
90.560784
23
42.500002
33
0
39
0
210
0
220
0
230
1
0
ENDBLK
5
191
100
AcDbEntity
8
0
100
AcDbBlockEnd
0
BLOCK
5
196
100
AcDbEntity
8
0
100
AcDbBlockBegin
2
*D5
70
1
10
0
20
0
30
0
3
*D5
0
LINE
5
198
100
AcDbEntity
8
0
62
256
6
ByLayer
370
-2
48
1
60
0
100
AcDbLine
10
52
20
31.737541
30
0
11
52
21
-33.424959
31
0
39
0
210
0
220
0
230
1
0
LINE
5
199
100
AcDbEntity
8
0
62
256
6
ByLayer
370
-2
48
1
60
0
100
AcDbLine
10
70
20
31.4125
30
0
11
70
21
-33.424959
31
0
39
0
210
0
220
0
230
1
0
LINE
5
19A
100
AcDbEntity
8
0
62
256
6
ByLayer
370
-2
48
1
60
0
100
AcDbLine
10
55.5
20
-31.424959
30
0
11
66.5
21
-31.424959
31
0
39
0
210
0
220
0
230
1
0
SOLID
5
19B
100
AcDbEntity
8
0
62
256
6
ByLayer
370
-1
48
1
60
0
100
AcDbTrace
10
55.5
20
-30.841626
30
0
11
55.5
21
-32.008292
31
0
12
52
22
-31.424959
32
0
13
52
23
-31.424959
33
0
39
0
210
0
220
0
230
1
0
SOLID
5
19C
100
AcDbEntity
8
0
62
256
6
ByLayer
370
-1
48
1
60
0
100
AcDbTrace
10
66.5
20
-32.008292
30
0
11
66.5
21
-30.841626
31
0
12
70
22
-31.424959
32
0
13
70
23
-31.424959
33
0
39
0
210
0
220
0
230
1
0
MTEXT
5
19D
100
AcDbEntity
8
0
62
256
6
ByLayer
370
18
48
1
60
0
100
AcDbMText
10
61
20
-24.424959
30
0
210
0
220
0
230
1
1
\A1;18
40
3.5
41
0
44
1
50
0
71
5
72
5
7
iso_b_vert
0
POINT
5
19E
100
AcDbEntity
8
Defpoints
62
0
6
ByLayer
370
-1
48
1
60
0
100
AcDbPoint
10
52
20
33.325041
30
0
39
0
210
0
220
0
230
1
50
360
0
POINT
5
19F
100
AcDbEntity
8
Defpoints
62
0
6
ByLayer
370
-1
48
1
60
0
100
AcDbPoint
10
70
20
33
30
0
39
0
210
0
220
0
230
1
50
360
0
POINT
5
1A0
100
AcDbEntity
8
Defpoints
62
0
6
ByLayer
370
-1
48
1
60
0
100
AcDbPoint
10
70
20
-31.424959
30
0
39
0
210
0
220
0
230
1
50
360
0
ENDBLK
5
197
100
AcDbEntity
8
0
100
AcDbBlockEnd
0
BLOCK
5
1A8
100
AcDbEntity
8
0
100
AcDbBlockBegin
2
_U2
70
0
10
0
20
0
30
0
3
_U2
0
MTEXT
5
1A2
100
AcDbEntity
8
2
62
256
6
ByLayer
370
18
48
1
60
0
100
AcDbMText
10
59.532467
20
-30.392325
30
0
210
0
220
0
230
1
1
\W0.5321;18
40
3.5
41
0
44
1.084337
50
0
71
7
72
5
7
iso_b_vert
0
LINE
5
1A3
100
AcDbEntity
8
2
62
256
6
ByLayer
370
13
48
1
60
0
100
AcDbLine
10
52
20
31.737541
30
0
11
52
21
-33.424959
31
0
39
0
210
0
220
0
230
1
0
LINE
5
1A4
100
AcDbEntity
8
2
62
256
6
ByLayer
370
13
48
1
60
0
100
AcDbLine
10
70
20
31.4125
30
0
11
70
21
-33.424959
31
0
39
0
210
0
220
0
230
1
0
LINE
5
1A5
100
AcDbEntity
8
2
62
256
6
ByLayer
370
13
48
1
60
0
100
AcDbLine
10
52
20
-31.424959
30
0
11
70
21
-31.424959
31
0
39
0
210
0
220
0
230
1
0
SOLID
5
1A6
100
AcDbEntity
8
2
62
256
6
ByLayer
370
18
48
1
60
0
100
AcDbTrace
10
52
20
-31.424959
30
0
11
55.499998
21
-30.964175
31
0
12
55.500002
22
-31.885743
32
0
13
55.500002
23
-31.885743
33
0
39
0
210
0
220
0
230
1
0
SOLID
5
1A7
100
AcDbEntity
8
2
62
256
6
ByLayer
370
18
48
1
60
0
100
AcDbTrace
10
70
20
-31.424959
30
0
11
66.500002
21
-31.885743
31
0
12
66.499998
22
-30.964175
32
0
13
66.499998
23
-30.964175
33
0
39
0
210
0
220
0
230
1
0
ENDBLK
5
1A9
100
AcDbEntity
8
0
100
AcDbBlockEnd
0
BLOCK
5
1AE
100
AcDbEntity
8
0
100
AcDbBlockBegin
2
*D7
70
1
10
0
20
0
30
0
3
*D7
0
LINE
5
1B0
100
AcDbEntity
8
0
62
256
6
ByLayer
370
-2
48
1
60
0
100
AcDbLine
10
0
20
1.5875
30
0
11
0
21
55.75
31
0
39
0
210
0
220
0
230
1
0
LINE
5
1B1
100
AcDbEntity
8
0
62
256
6
ByLayer
370
-2
48
1
60
0
100
AcDbLine
10
70
20
40.5875
30
0
11
70
21
55.75
31
0
39
0
210
0
220
0
230
1
0
LINE
5
1B2
100
AcDbEntity
8
0
62
256
6
ByLayer
370
-2
48
1
60
0
100
AcDbLine
10
3.5
20
53.75
30
0
11
66.5
21
53.75
31
0
39
0
210
0
220
0
230
1
0
SOLID
5
1B3
100
AcDbEntity
8
0
62
256
6
ByLayer
370
-1
48
1
60
0
100
AcDbTrace
10
3.5
20
54.333333
30
0
11
3.5
21
53.166667
31
0
12
0
22
53.75
32
0
13
0
23
53.75
33
0
39
0
210
0
220
0
230
1
0
SOLID
5
1B4
100
AcDbEntity
8
0
62
256
6
ByLayer
370
-1
48
1
60
0
100
AcDbTrace
10
66.5
20
53.166667
30
0
11
66.5
21
54.333333
31
0
12
70
22
53.75
32
0
13
70
23
53.75
33
0
39
0
210
0
220
0
230
1
0
MTEXT
5
1B5
100
AcDbEntity
8
0
62
256
6
ByLayer
370
18
48
1
60
0
100
AcDbMText
10
35
20
60.75
30
0
210
0
220
0
230
1
1
\A1;70
40
3.5
41
0
44
1
50
0
71
5
72
5
7
iso_b_vert
0
POINT
5
1B6
100
AcDbEntity
8
Defpoints
62
0
6
ByLayer
370
-1
48
1
60
0
100
AcDbPoint
10
0
20
0
30
0
39
0
210
0
220
0
230
1
50
360
0
POINT
5
1B7
100
AcDbEntity
8
Defpoints
62
0
6
ByLayer
370
-1
48
1
60
0
100
AcDbPoint
10
70
20
39
30
0
39
0
210
0
220
0
230
1
50
360
0
POINT
5
1B8
100
AcDbEntity
8
Defpoints
62
0
6
ByLayer
370
-1
48
1
60
0
100
AcDbPoint
10
70
20
53.75
30
0
39
0
210
0
220
0
230
1
50
360
0
ENDBLK
5
1AF
100
AcDbEntity
8
0
100
AcDbBlockEnd
0
BLOCK
5
1C0
100
AcDbEntity
8
0
100
AcDbBlockBegin
2
_U3
70
0
10
0
20
0
30
0
3
_U3
0
MTEXT
5
1BA
100
AcDbEntity
8
2
62
256
6
ByLayer
370
18
48
1
60
0
100
AcDbMText
10
33.095034
20
54.782634
30
0
210
0
220
0
230
1
1
\W0.6740;70
40
3.5
41
0
44
1.084337
50
0
71
7
72
5
7
iso_b_vert
0
LINE
5
1BB
100
AcDbEntity
8
2
62
256
6
ByLayer
370
13
48
1
60
0
100
AcDbLine
10
0
20
1.5875
30
0
11
0
21
55.75
31
0
39
0
210
0
220
0
230
1
0
LINE
5
1BC
100
AcDbEntity
8
2
62
256
6
ByLayer
370
13
48
1
60
0
100
AcDbLine
10
70
20
40.5875
30
0
11
70
21
55.75
31
0
39
0
210
0
220
0
230
1
0
LINE
5
1BD
100
AcDbEntity
8
2
62
256
6
ByLayer
370
13
48
1
60
0
100
AcDbLine
10
0
20
53.75
30
0
11
70
21
53.75
31
0
39
0
210
0
220
0
230
1
0
SOLID
5
1BE
100
AcDbEntity
8
2
62
256
6
ByLayer
370
18
48
1
60
0
100
AcDbTrace
10
0
20
53.75
30
0
11
3.499998
21
54.210784
31
0
12
3.500002
22
53.289216
32
0
13
3.500002
23
53.289216
33
0
39
0
210
0
220
0
230
1
0
SOLID
5
1BF
100
AcDbEntity
8
2
62
256
6
ByLayer
370
18
48
1
60
0
100
AcDbTrace
10
70
20
53.75
30
0
11
66.500002
21
53.289216
31
0
12
66.499998
22
54.210784
32
0
13
66.499998
23
54.210784
33
0
39
0
210
0
220
0
230
1
0
ENDBLK
5
1C1
100
AcDbEntity
8
0
100
AcDbBlockEnd
0
ENDSEC
0
SECTION
2
ENTITIES
0
ARC
5
F6
100
AcDbEntity
8
1
62
256
6
ByLayer
370
18
48
1
60
0
100
AcDbCircle
39
0
10
52
20
31.725041
30
0
40
1.6
210
0
220
0
230
1
100
AcDbArc
50
175.552369
51
180
0
ARC
5
F7
100
AcDbEntity
8
1
62
256
6
ByLayer
370
18
48
1
60
0
100
AcDbCircle
39
0
10
22.279208
20
32.7
30
0
40
1.2
210
0
220
0
230
1
100
AcDbArc
50
270
51
299.567152
0
ARC
5
F8
100
AcDbEntity
8
SK1
62
256
6
ByLayer
370
18
48
1
60
0
100
AcDbCircle
39
0
10
-0.6
20
23.45
30
0
40
0.999999999999994
210
0
220
0
230
1
100
AcDbArc
50
293.578178
51
306.869898
0
ARC
5
F9
100
AcDbEntity
8
SK1
62
256
6
ByLayer
370
18
48
1
60
0
100
AcDbCircle
39
0
10
-0.6
20
-23.45
30
0
40
0.999999999999994
210
0
220
0
230
1
100
AcDbArc
50
53.130102
51
66.421822
0
ARC
5
FD
100
AcDbEntity
8
1
62
256
6
ByLayer
370
18
48
1
60
0
100
AcDbCircle
39
0
10
31.4
20
32.65
30
0
40
1
210
0
220
0
230
1
100
AcDbArc
50
270
51
0
0
CIRCLE
5
FA
100
AcDbEntity
8
1
62
256
6
ByLayer
370
18
48
1
60
0
100
AcDbCircle
10
43.65
20
25.099902
30
0
40
2.55
39
0
210
0
220
0
230
1
0
CIRCLE
5
FB
100
AcDbEntity
8
1
62
256
6
ByLayer
370
18
48
1
60
0
100
AcDbCircle
10
43.65
20
25.099902
30
0
40
3.3
39
0
210
0
220
0
230
1
0
CIRCLE
5
FC
100
AcDbEntity
8
1
62
256
6
ByLayer
370
18
48
1
60
0
100
AcDbCircle
10
43.65
20
25.099902
30
0
40
5.75
39
0
210
0
220
0
230
1
0
ELLIPSE
5
FE
100
AcDbEntity
8
1
62
256
6
ByLayer
370
18
48
1
60
0
100
AcDbEllipse
10
74.090909
20
83.200041
30
0
11
2.72627989519702E-15
21
44.5249999999993
31
0
210
0
220
0
230
1
40
0.545455
41
2.47911285735984
42
2.93040627926895
0
ELLIPSE
5
FF
100
AcDbEntity
8
1
62
256
6
ByLayer
370
18
48
1
60
0
100
AcDbEllipse
10
656.874311
20
82.045882
30
0
11
2201.68998043475
21
7.10286844937231
31
0
210
0
220
0
230
1
40
0.019433
41
-1.84523335892923
42
-1.84406826709688
0
ELLIPSE
5
100
100
AcDbEntity
8
1
62
256
6
ByLayer
370
18
48
1
60
0
100
AcDbEllipse
10
60.415098
20
36.125691
30
0
11
0.104063173072334
21
-0.995044591663332
31
0
210
0
220
0
230
1
40
0.961522
41
0
42
6.28318530717959
0
ELLIPSE
5
101
100
AcDbEntity
8
1
62
256
6
ByLayer
370
18
48
1
60
0
100
AcDbEllipse
10
62.915915
20
68.000041
30
0
11
2.12316126454507E-15
21
34.6749999772257
31
0
210
0
220
0
230
1
40
0.885954
41
2.99734788763691
42
3.09558171112625
0
ELLIPSE
5
102
100
AcDbEntity
8
1
62
256
6
ByLayer
370
18
48
1
60
0
100
AcDbEllipse
10
-269.366196
20
68.007248
30
0
11
2689.97681640353
21
-5.8452879883775
31
0
210
0
220
0
230
1
40
0.012709
41
-1.45101466647508
42
-1.44745569268023
0
ELLIPSE
5
103
100
AcDbEntity
8
1
62
256
6
ByLayer
370
18
48
1
60
0
100
AcDbEllipse
10
62.915915
20
83.200041
30
0
11
2.72627989650381E-15
21
44.5250000213414
31
0
210
0
220
0
230
1
40
0.885954
41
3.02941230006927
42
3.10479269581709
0
ELLIPSE
5
104
100
AcDbEntity
8
1
62
256
6
ByLayer
370
18
48
1
60
0
100
AcDbEllipse
10
65.618307
20
68.000041
30
0
11
49.5203533171764
21
5.80108835494282E-14
31
0
210
0
220
0
230
1
40
0.700217
41
-1.84939043961789
42
-1.71504109268658
0
ELLIPSE
5
105
100
AcDbEntity
8
1
62
256
6
ByLayer
370
18
48
1
60
0
100
AcDbEllipse
10
65.618307
20
83.200041
30
0
11
63.5874183475559
21
7.44898223431976E-14
31
0
210
0
220
0
230
1
40
0.700217
41
-1.79926509049888
42
-1.68297668034232
0
ELLIPSE
5
106
100
AcDbEntity
8
1
62
256
6
ByLayer
370
18
48
1
60
0
100
AcDbEllipse
10
51.149858
20
33.325041
30
0
11
-2.78948921498212
21
3.4160262165861E-16
31
0
210
0
220
0
230
1
40
0.573582
41
0
42
1.298633388347
0
ELLIPSE
5
107
100
AcDbEntity
8
1
62
256
6
ByLayer
370
18
48
1
60
0
100
AcDbEllipse
10
-2.347154
20
0
30
0
11
14.7536831606558
21
31.0932549155807
31
0
210
0
220
0
230
1
40
0.341999
41
-1.09123958575284
42
-0.157806186645435
0
ELLIPSE
5
108
100
AcDbEntity
8
1
62
256
6
ByLayer
370
18
48
1
60
0
100
AcDbEllipse
10
26.347154
20
0
30
0
11
14.7536831606557
21
-31.0932549155803
31
0
210
0
220
0
230
1
40
0.341999
41
-2.98378646694436
42
-2.05035306783695
0
ELLIPSE
5
109
100
AcDbEntity
8
1
62
256
6
ByLayer
370
18
48
1
60
0
100
AcDbEllipse
10
26.347154
20
0
30
0
11
14.7536831606555
21
31.0932549155801
31
0
210
0
220
0
230
1
40
0.341999
41
2.05035306783694
42
2.98378646694436
0
ELLIPSE
5
10A
100
AcDbEntity
8
1
62
256
6
ByLayer
370
18
48
1
60
0
100
AcDbEllipse
10
-2.347154
20
0
30
0
11
14.753683160658
21
-31.0932549155834
31
0
210
0
220
0
230
1
40
0.341999
41
0.157806186645423
42
1.09123958575277
0
ELLIPSE
5
10B
100
AcDbEntity
8
1
62
256
6
ByLayer
370
18
48
1
60
0
100
AcDbEllipse
10
26.093965
20
-20.750098
30
0
11
4.00000000484967
21
4.68582146401127E-15
31
0
210
0
220
0
230
1
40
1
41
2.99851949050416
42
3.13286600733457
0
ELLIPSE
5
10C
100
AcDbEntity
8
1
62
256
6
ByLayer
370
18
48
1
60
0
100
AcDbEllipse
10
22.274896
20
0
30
0
11
1.92875500727034E-15
21
31.5000000000016
31
0
210
0
220
0
230
1
40
0.008727
41
0.534609084392029
42
2.35619449019227
0
ELLIPSE
5
10D
100
AcDbEntity
8
1
62
256
6
ByLayer
370
18
48
1
60
0
100
AcDbEllipse
10
69.6
20
33.383203
30
0
11
0.4
21
0
31
0
210
0
220
0
230
1
40
0.999986
41
-1.62896812623596
42
0
0
ELLIPSE
5
10E
100
AcDbEntity
8
1
62
256
6
ByLayer
370
18
48
1
60
0
100
AcDbEllipse
10
69.6
20
38.616879
30
0
11
-0.4
21
4.89842541528951E-17
31
0
210
0
220
0
230
1
40
0.999986
41
3.14159265358979
42
-1.51262452735383
0
ELLIPSE
5
10F
100
AcDbEntity
8
1
62
256
6
ByLayer
370
18
48
1
60
0
100
AcDbEllipse
10
63.044631
20
38.351575
30
0
11
0.433147566377856
21
0.000553074381458645
31
0
210
0
220
0
230
1
40
0.230865
41
3.14129786875939
42
-2.96733486166831
0
ELLIPSE
5
110
100
AcDbEntity
8
1
62
256
6
ByLayer
370
18
48
1
60
0
100
AcDbEllipse
10
64.336487
20
36.66171
30
0
11
0.433147568744599
21
0.000553074455487239
31
0
210
0
220
0
230
1
40
0.230865
41
-2.96735451328627
42
-2.47780396744416
0
ELLIPSE
5
111
100
AcDbEntity
8
1
62
256
6
ByLayer
370
18
48
1
60
0
100
AcDbEllipse
10
64.336487
20
35.32713
30
0
11
0.433147568603859
21
0.000553074442115534
31
0
210
0
220
0
230
1
40
0.230865
41
2.47721439760857
42
2.96676494353781
0
ELLIPSE
5
112
100
AcDbEntity
8
1
62
256
6
ByLayer
370
18
48
1
60
0
100
AcDbEllipse
10
63.044631
20
33.634142
30
0
11
0.433147566117889
21
0.000553074499419198
31
0
210
0
220
0
230
1
40
0.230865
41
2.9667452918949
42
3.14129786869932
0
POINT
5
70
100
AcDbEntity
8
80
62
256
6
ByLayer
370
18
48
1
60
0
100
AcDbPoint
10
0
20
0
30
0
39
0
210
0
220
0
230
1
50
360
0
POINT
5
72
100
AcDbEntity
8
81
62
256
6
ByLayer
370
18
48
1
60
0
100
AcDbPoint
10
70
20
39
30
0
39
0
210
0
220
0
230
1
50
360
0
POINT
5
74
100
AcDbEntity
8
1
62
256
6
ByLayer
370
18
48
1
60
1
100
AcDbPoint
10
70
20
39
30
0
39
0
210
0
220
0
230
1
50
360
0
POINT
5
76
100
AcDbEntity
8
1
62
256
6
ByLayer
370
18
48
1
60
1
100
AcDbPoint
10
0
20
0
30
0
39
0
210
0
220
0
230
1
50
360
0
POINT
5
77
100
AcDbEntity
8
1
62
256
6
ByLayer
370
18
48
1
60
1
100
AcDbPoint
10
70
20
33
30
0
39
0
210
0
220
0
230
1
50
360
0
POINT
5
78
100
AcDbEntity
8
1
62
256
6
ByLayer
370
18
48
1
60
1
100
AcDbPoint
10
70
20
39
30
0
39
0
210
0
220
0
230
1
50
360
0
POINT
5
79
100
AcDbEntity
8
1
62
256
6
ByLayer
370
18
48
1
60
1
100
AcDbPoint
10
52
20
33.325041
30
0
39
0
210
0
220
0
230
1
50
360
0
POINT
5
7A
100
AcDbEntity
8
1
62
256
6
ByLayer
370
18
48
1
60
1
100
AcDbPoint
10
70
20
33
30
0
39
0
210
0
220
0
230
1
50
360
0
POINT
5
7B
100
AcDbEntity
8
1
62
256
6
ByLayer
370
18
48
1
60
1
100
AcDbPoint
10
0
20
0
30
0
39
0
210
0
220
0
230
1
50
360
0
POINT
5
7C
100
AcDbEntity
8
1
62
256
6
ByLayer
370
18
48
1
60
1
100
AcDbPoint
10
70
20
39
30
0
39
0
210
0
220
0
230
1
50
360
0
SPLINE
5
113
100
AcDbEntity
8
SK1
62
256
6
ByLayer
370
18
48
1
60
0
100
AcDbSpline
70
4
71
3
72
11
73
7
40
0
40
0
40
0
40
0
40
0.24260137289863
40
0.502561214665899
40
0.761098879312195
40
1
40
1
40
1
40
1
41
1
10
-0.199999999999989
20
22.0603316233164
30
0
41
1
10
-0.200957649232748
20
22.03467763457
30
0
41
1
10
-0.211248088565583
20
21.9856476021506
30
0
41
1
10
-0.255178473897388
20
21.9196695750854
30
0
41
1
10
-0.321112940270211
20
21.8764518787731
30
0
41
1
10
-0.369683556830324
20
21.8664032520323
30
0
41
1
10
-0.394913799811292
20
21.8654753908017
30
0
0
SPLINE
5
114
100
AcDbEntity
8
SK1
62
256
6
ByLayer
370
18
48
1
60
0
100
AcDbSpline
70
4
71
3
72
11
73
7
40
0
40
0
40
0
40
0
40
0.238901121200236
40
0.497438786084572
40
0.757398627621475
40
1
40
1
40
1
40
1
41
1
10
-0.394913799811292
20
-21.8654754627471
30
0
41
1
10
-0.369683556841096
20
-21.8664033239634
30
0
41
1
10
-0.321112940313157
20
-21.8764519506625
30
0
41
1
10
-0.255178473954459
20
-21.9196696467454
30
0
41
1
10
-0.211248088575957
20
-21.9856476735436
30
0
41
1
10
-0.200957649243719
20
-22.0346777057893
30
0
41
1
10
-0.200000000000017
20
-22.0603316944385
30
0
0
SPLINE
5
115
100
AcDbEntity
8
SK1
62
256
6
ByLayer
370
18
48
1
60
0
100
AcDbSpline
70
4
71
2
72
6
73
3
40
0
40
0
40
0
40
1
40
1
40
1
41
1
10
-36.5
20
21.1556411500792
30
0
41
1
10
-37.2500000202692
20
20.7228363924583
30
0
41
1
10
-38
20
20.2900294978113
30
0
0
SPLINE
5
116
100
AcDbEntity
8
SK1
62
256
6
ByLayer
370
18
48
1
60
0
100
AcDbSpline
70
4
71
2
72
6
73
3
40
0
40
0
40
0
40
1
40
1
40
1
41
1
10
-38
20
-20.2900295032223
30
0
41
1
10
-37.2500000202654
20
-20.7228363958853
30
0
41
1
10
-36.5
20
-21.1556411516461
30
0
0
SPLINE
5
117
100
AcDbEntity
8
SK1
62
256
6
ByLayer
370
18
48
1
60
0
100
AcDbSpline
70
4
71
2
72
6
73
3
40
0
40
0
40
0
40
1
40
1
40
1
41
1
10
-0.394913799811292
20
21.8654705382346
30
0
41
1
10
-1.19497688887515
20
21.8453761190377
30
0
41
1
10
-1.99503997793928
20
21.8252816998361
30
0
0
SPLINE
5
118
100
AcDbEntity
8
SK1
62
256
6
ByLayer
370
18
48
1
60
0
100
AcDbSpline
70
4
71
2
72
6
73
3
40
0
40
0
40
0
40
1
40
1
40
1
41
1
10
-1.99503997793928
20
-21.8252817664983
30
0
41
1
10
-1.19497688887515
20
-21.845376185605
30
0
41
1
10
-0.394913799811292
20
-21.8654706047072
30
0
0
SPLINE
5
119
100
AcDbEntity
8
SK1
62
256
6
ByLayer
370
18
48
1
60
0
100
AcDbSpline
70
4
71
3
72
13
73
9
40
0
40
0
40
0
40
0
40
0.239488446613139
40
0.368403116187249
40
0.500046645745247
40
0.631682415479622
40
0.760575689762793
40
1
40
1
40
1
40
1
41
1
10
-1.99503997793928
20
21.825286524797
30
0
41
1
10
-2.02110964951223
20
21.8248845959364
30
0
41
1
10
-2.05883938576716
20
21.8310551084546
30
0
41
1
10
-2.10627619976853
20
21.8540920367489
30
0
41
1
10
-2.1388629218354
20
21.8792518859041
30
0
41
1
10
-2.16563526915769
20
21.9105242864783
30
0
41
1
10
-2.19103234710849
20
21.9567296167895
30
0
41
1
10
-2.19909149085342
20
21.9940920912339
30
0
41
1
10
-2.19999999999999
20
22.0201427571469
30
0
0
SPLINE
5
11A
100
AcDbEntity
8
SK1
62
256
6
ByLayer
370
18
48
1
60
0
100
AcDbSpline
70
4
71
3
72
13
73
9
40
0
40
0
40
0
40
0
40
0.239424309709105
40
0.36831758382101
40
0.499953353497804
40
0.631596883124593
40
0.760511552875627
40
1
40
1
40
1
40
1
41
1
10
-2.19999999999999
20
-22.0201428284389
30
0
41
1
10
-2.19909149084521
20
-21.994092162624
30
0
41
1
10
-2.19103234710033
20
-21.956729688326
30
0
41
1
10
-2.1656352691468
20
-21.9105243582179
30
0
41
1
10
-2.13886292182099
20
-21.8792519577777
30
0
41
1
10
-2.1062761997531
20
-21.8540921087329
30
0
41
1
10
-2.05883938574669
20
-21.8310551805396
30
0
41
1
10
-2.02110964950145
20
-21.8248846680468
30
0
41
1
10
-1.99503997793928
20
-21.8252865969123
30
0
0
SPLINE
5
11B
100
AcDbEntity
8
SK1
62
256
6
ByLayer
370
18
48
1
60
0
100
AcDbSpline
70
4
71
2
72
6
73
3
40
0
40
0
40
0
40
1
40
1
40
1
41
1
10
-2.19999999999999
20
22.0136642719968
30
0
41
1
10
-19.3500000008246
20
21.5830599810351
30
0
41
1
10
-36.5
20
21.1524539804128
30
0
0
SPLINE
5
11C
100
AcDbEntity
8
SK1
62
256
6
ByLayer
370
18
48
1
60
0
100
AcDbSpline
70
4
71
2
72
6
73
3
40
0
40
0
40
0
40
1
40
1
40
1
41
1
10
-36.5
20
-21.152454254977
30
0
41
1
10
-19.3500000008244
20
-21.5830602558515
30
0
41
1
10
-2.19999999999999
20
-22.0136645469338
30
0
0
SPLINE
5
11D
100
AcDbEntity
8
1
62
256
6
ByLayer
370
18
48
1
60
0
100
AcDbSpline
70
4
71
3
72
8
73
4
40
0
40
0
40
0
40
0
40
1
40
1
40
1
40
1
41
1
10
25.2318524853266
20
38.8656676067348
30
0
41
1
10
24.6798166157524
20
36.7939223795221
30
0
41
1
10
24.128221027244
20
34.722057128231
30
0
41
1
10
23.5773741845978
20
32.65
30
0
0
SPLINE
5
11E
100
AcDbEntity
8
1
62
256
6
ByLayer
370
18
48
1
60
0
100
AcDbSpline
70
4
71
3
72
15
73
11
40
0
40
0
40
0
40
0
40
0.249999999999982
40
0.499999999999965
40
0.499999999999965
40
0.624999999999973
40
0.624999999999973
40
0.749999999999982
40
0.749999999999982
40
1
40
1
40
1
40
1
41
1
10
23.5773741845978
20
32.65
30
0
41
1
10
23.565551652846
20
32.6055285438826
30
0
41
1
10
23.5419795433429
20
32.5176023972146
30
0
41
1
10
23.5185454042602
20
32.4316280130257
30
0
41
1
10
23.5010230639937
20
32.3678869617223
30
0
41
1
10
23.4951912066984
20
32.3467636202679
30
0
41
1
10
23.4835461785259
20
32.3047705325951
30
0
41
1
10
23.4777407147771
20
32.2839291863665
30
0
41
1
10
23.4605451942372
20
32.2224775547907
30
0
41
1
10
23.449312738678
20
32.1827101328282
30
0
41
1
10
23.4383186059721
20
32.1441638872945
30
0
0
SPLINE
5
11F
100
AcDbEntity
8
1
62
256
6
ByLayer
370
18
48
1
60
0
100
AcDbSpline
70
4
71
3
72
37
73
33
40
0
40
0
40
0
40
0
40
0.0312499999999976
40
0.0312499999999976
40
0.0624999999999951
40
0.124999999999989
40
0.124999999999989
40
0.24999999999998
40
0.24999999999998
40
0.281249999999976
40
0.281249999999976
40
0.312499999999973
40
0.312499999999973
40
0.374999999999976
40
0.374999999999976
40
0.499999999999988
40
0.499999999999988
40
0.531249999999993
40
0.531249999999993
40
0.562499999999998
40
0.625000000000008
40
0.687500000000018
40
0.687500000000018
40
0.718750000000025
40
0.718750000000025
40
0.750000000000031
40
0.750000000000031
40
0.87500000000001
40
0.87500000000001
40
0.937500000000005
40
0.937500000000005
40
1
40
1
40
1
40
1
41
1
10
30.6980101742836
20
31.65
30
0
41
1
10
30.716170628554
20
31.65
30
0
41
1
10
30.73435457042
20
31.6503025778244
30
0
41
1
10
30.770551264815
20
31.6515196699836
30
0
41
1
10
30.8246854506177
20
31.6542634289335
30
0
41
1
10
30.8783314854446
20
31.659793419709
30
0
41
1
10
30.9849482244972
20
31.6747080030274
30
0
41
1
10
31.0551310611027
20
31.6897594126597
30
0
41
1
10
31.1415930720336
20
31.7158027079616
30
0
41
1
10
31.1588217178862
20
31.7213752706802
30
0
41
1
10
31.1931458130606
20
31.7332806453666
30
0
41
1
10
31.2102783559745
20
31.7396293450437
30
0
41
1
10
31.2610159093727
20
31.7596882551777
30
0
41
1
10
31.2940590170837
20
31.7744357229671
30
0
41
1
10
31.3907818812466
20
31.8229093946124
30
0
41
1
10
31.4520806726002
20
31.8608220409612
30
0
41
1
10
31.5242133260675
20
31.9161090694332
30
0
41
1
10
31.5384556238259
20
31.9276022645705
30
0
41
1
10
31.5661982145099
20
31.9511920277826
30
0
41
1
10
31.6067198227028
20
31.9874863956605
30
0
41
1
10
31.6688131515904
20
32.0525100457977
30
0
41
1
10
31.7125705680379
20
32.109457250247
30
0
41
1
10
31.743055961021
20
32.1541104588268
30
0
41
1
10
31.7528281918014
20
32.169319319406
30
0
41
1
10
31.7715635140183
20
32.2004109466876
30
0
41
1
10
31.7805532633965
20
32.2163452614523
30
0
41
1
10
31.8230587068219
20
32.2971590224971
30
0
41
1
10
31.8488774396645
20
32.3644371357351
30
0
41
1
10
31.875260638177
20
32.4693162944934
30
0
41
1
10
31.8819804473966
20
32.5049418358506
30
0
41
1
10
31.8910221735875
20
32.577604383965
30
0
41
1
10
31.8932444856556
20
32.613873950298
30
0
41
1
10
31.8932444856556
20
32.65
30
0
0
SPLINE
5
120
100
AcDbEntity
8
1
62
256
6
ByLayer
370
18
48
1
60
0
100
AcDbSpline
70
4
71
3
72
27
73
23
40
0
40
0
40
0
40
0
40
0.124999999999998
40
0.124999999999998
40
0.249999999999996
40
0.249999999999996
40
0.374999999999995
40
0.374999999999995
40
0.499999999999993
40
0.499999999999993
40
0.531249999999993
40
0.546874999999993
40
0.546874999999993
40
0.562499999999993
40
0.562499999999993
40
0.624999999999994
40
0.624999999999994
40
0.749999999999996
40
0.749999999999996
40
0.874999999999998
40
0.874999999999998
40
1
40
1
40
1
40
1
41
1
10
29.5890362326586
20
48.0934411232574
30
0
41
1
10
29.3280664529217
20
47.4455733146647
30
0
41
1
10
29.0731856070266
20
46.8299449956425
30
0
41
1
10
28.5770889737687
20
45.6618070095516
30
0
41
1
10
28.3358693583458
20
45.1092984455096
30
0
41
1
10
27.8692657687038
20
44.0670481050431
30
0
41
1
10
27.6438768806101
20
43.5773044858282
30
0
41
1
10
27.211925838682
20
42.6612433656466
30
0
41
1
10
27.0053581096376
20
42.2349206615438
30
0
41
1
10
26.7613970185369
20
41.7427673763192
30
0
41
1
10
26.6892812772256
20
41.5981821233872
30
0
41
1
10
26.6188566600983
20
41.4582333761203
30
0
41
1
10
26.5722923989238
20
41.365970226451
30
0
41
1
10
26.5491964048683
20
41.3203438024639
30
0
41
1
10
26.4349473929262
20
41.0952930901925
30
0
41
1
10
26.3473005119218
20
40.924740932803
30
0
41
1
10
26.0962138709209
20
40.4411877960617
30
0
41
1
10
25.9446178423677
20
40.1562508973264
30
0
41
1
10
25.6765297428517
20
39.6602875049951
30
0
41
1
10
25.5600484973486
20
39.4492618681651
30
0
41
1
10
25.3659199261782
20
39.1014197959597
30
0
41
1
10
25.2882854892075
20
38.9646014336125
30
0
41
1
10
25.2318524853266
20
38.8656676067348
30
0
0
SPLINE
5
121
100
AcDbEntity
8
1
62
256
6
ByLayer
370
18
48
1
60
0
100
AcDbSpline
70
4
71
3
72
30
73
26
40
0
40
0
40
0
40
0
40
0.125
40
0.125
40
0.249999999999999
40
0.249999999999999
40
0.312499999999999
40
0.312499999999999
40
0.374999999999999
40
0.374999999999999
40
0.499999999999998
40
0.499999999999998
40
0.624999999999998
40
0.624999999999998
40
0.687499999999998
40
0.687499999999998
40
0.749999999999997
40
0.749999999999997
40
0.874999999999999
40
0.874999999999999
40
0.937499999999999
40
0.937499999999999
40
0.96875
40
0.96875
40
1
40
1
40
1
40
1
41
1
10
28.2000000000004
20
38.8656676067348
30
0
41
1
10
28.389909342974
20
38.8656676067348
30
0
41
1
10
28.5776227816699
20
38.8644722437685
30
0
41
1
10
28.948837456878
20
38.8598521695368
30
0
41
1
10
29.1323381458342
20
38.8564269893125
30
0
41
1
10
29.4043905069873
20
38.849737206882
30
0
41
1
10
29.4945397822854
20
38.8472486491722
30
0
41
1
10
29.673739865318
20
38.8417754951731
30
0
41
1
10
29.7617973421686
20
38.8388213066025
30
0
41
1
10
30.0212877552332
20
38.8293907116807
30
0
41
1
10
30.1881418573862
20
38.8223438812416
30
0
41
1
10
30.5097631065289
20
38.8071360964882
30
0
41
1
10
30.6645316249356
20
38.7989739103852
30
0
41
1
10
30.8872642551731
20
38.7862045255891
30
0
41
1
10
30.9591438842033
20
38.7819059860473
30
0
41
1
10
31.0981138414749
20
38.77329726812
30
0
41
1
10
31.1652361808304
20
38.768985193664
30
0
41
1
10
31.3596156954857
20
38.7561147323356
30
0
41
1
10
31.4799167890259
20
38.747621627743
30
0
41
1
10
31.6462696226981
20
38.73536617151
30
0
41
1
10
31.6993630210903
20
38.7313617675259
30
0
41
1
10
31.7753706345777
20
38.7255223433416
30
0
41
1
10
31.7999995463211
20
38.72361149809
30
0
41
1
10
31.8477302658796
20
38.7198770609103
30
0
41
1
10
31.8708537968165
20
38.718051799484
30
0
41
1
10
31.8932444856556
20
38.7162711834019
30
0
0
SPLINE
5
122
100
AcDbEntity
8
1
62
256
6
ByLayer
370
18
48
1
60
0
100
AcDbSpline
70
4
71
3
72
33
73
29
40
0
40
0
40
0
40
0
40
0.125000000000004
40
0.125000000000004
40
0.187500000000006
40
0.187500000000006
40
0.250000000000009
40
0.312500000000011
40
0.312500000000011
40
0.343750000000012
40
0.343750000000012
40
0.375000000000013
40
0.375000000000013
40
0.500000000000018
40
0.500000000000018
40
0.56250000000003
40
0.56250000000003
40
0.593750000000027
40
0.593750000000027
40
0.625000000000024
40
0.625000000000024
40
0.750000000000012
40
0.750000000000012
40
0.81250000000001
40
0.81250000000001
40
0.875000000000007
40
0.875000000000007
40
1
40
1
40
1
40
1
41
1
10
32.2792189712396
20
32.65
30
0
41
1
10
32.2792189712396
20
32.5832436417484
30
0
41
1
10
32.2724058326548
20
32.5170990868887
30
0
41
1
10
32.2519104883936
20
32.4188049819319
30
0
41
1
10
32.2432917714725
20
32.3860489769865
30
0
41
1
10
32.2229333631543
20
32.3222483543852
30
0
41
1
10
32.1994272779716
20
32.2598762678131
30
0
41
1
10
32.1697805221862
20
32.2002910521867
30
0
41
1
10
32.1452313344109
20
32.1566523769669
30
0
41
1
10
32.136661880272
20
32.1422815111411
30
0
41
1
10
32.1187395871998
20
32.1138953094413
30
0
41
1
10
32.1093602779409
20
32.0998447077048
30
0
41
1
10
32.0609547840668
20
32.0311737304763
30
0
41
1
10
32.0172799347813
20
31.9809193739152
30
0
41
1
10
31.9446614463096
20
31.9122593068328
30
0
41
1
10
31.9192620776411
20
31.8905012207437
30
0
41
1
10
31.8793352565326
20
31.8595929001509
30
0
41
1
10
31.8657592182797
20
31.8496108134579
30
0
41
1
10
31.8382798826092
20
31.8304213428807
30
0
41
1
10
31.8243476096287
20
31.8211912640673
30
0
41
1
10
31.7537424094289
20
31.7768278194225
30
0
41
1
10
31.6942632059881
20
31.747007534893
30
0
41
1
10
31.6006038573539
20
31.7106843234384
30
0
41
1
10
31.568519735081
20
31.6999671914527
30
0
41
1
10
31.5041023258886
20
31.6817637558616
30
0
41
1
10
31.4716403457386
20
31.6742158011375
30
0
41
1
10
31.3735174859829
20
31.6560926970093
30
0
41
1
10
31.3071100851205
20
31.65
30
0
41
1
10
31.2397413401999
20
31.65
30
0
0
SPLINE
5
123
100
AcDbEntity
8
1
62
256
6
ByLayer
370
18
48
1
60
0
100
AcDbSpline
70
4
71
3
72
16
73
12
40
0
40
0
40
0
40
0
40
0.25
40
0.25
40
0.5
40
0.5
40
0.75
40
0.75
40
0.875
40
0.875
40
1
40
1
40
1
40
1
41
1
10
61.7760754426654
20
35.493215510544
30
0
41
1
10
61.7552624464093
20
35.3185464635208
30
0
41
1
10
61.73432627236
20
35.1439114399003
30
0
41
1
10
61.692038398773
20
34.7947561665211
30
0
41
1
10
61.670693312153
20
34.6202340901836
30
0
41
1
10
61.6272310307995
20
34.2714032044019
30
0
41
1
10
61.605142493853
20
34.097094361722
30
0
41
1
10
61.5707134676877
20
33.836030961245
30
0
41
1
10
61.5590166998802
20
33.7490774561115
30
0
41
1
10
61.5348439642234
20
33.575409510561
30
0
41
1
10
61.5223886763672
20
33.4886887253591
30
0
41
1
10
61.5091380352467
20
33.4022119608098
30
0
0
SPLINE
5
124
100
AcDbEntity
8
1
62
256
6
ByLayer
370
18
48
1
60
0
100
AcDbSpline
70
4
71
3
72
8
73
4
40
0
40
0
40
0
40
0
40
1
40
1
40
1
40
1
41
1
10
61.9343402421793
20
35.5782292539701
30
0
41
1
10
61.8816398673966
20
35.5496603521608
30
0
41
1
10
61.828904660164
20
35.521238922724
30
0
41
1
10
61.7760754426716
20
35.4932155105423
30
0
0
SPLINE
5
125
100
AcDbEntity
8
1
62
256
6
ByLayer
370
18
48
1
60
0
100
AcDbSpline
70
4
71
3
72
20
73
16
40
0
40
0
40
0
40
0
40
0.25000000000008
40
0.25000000000008
40
0.375000000000067
40
0.375000000000067
40
0.500000000000053
40
0.500000000000053
40
0.62500000000004
40
0.62500000000004
40
0.750000000000027
40
0.750000000000027
40
0.875000000000013
40
0.875000000000013
40
1
40
1
40
1
40
1
41
1
10
62.0008436384063
20
35.7195781178448
30
0
41
1
10
62.000891241622
20
35.7040567052836
30
0
41
1
10
61.999345836953
20
35.6889195014024
30
0
41
1
10
61.9946631580064
20
35.6667839934894
30
0
41
1
10
61.9927204593625
20
35.6596157374201
30
0
41
1
10
61.9881627999054
20
35.6459178064862
30
0
41
1
10
61.9855397322679
20
35.6393492846739
30
0
41
1
10
61.9795952571665
20
35.6267811643665
30
0
41
1
10
61.9762771348666
20
35.6208094712004
30
0
41
1
10
61.9691673539334
20
35.6098333039657
30
0
41
1
10
61.9653514005482
20
35.6047741684921
30
0
41
1
10
61.9571976684985
20
35.5955132999902
30
0
41
1
10
61.9528374550609
20
35.5913021299149
30
0
41
1
10
61.9438372632789
20
35.5839873022252
30
0
41
1
10
61.9391716942392
20
35.5808483867574
30
0
41
1
10
61.9343402421793
20
35.5782292539701
30
0
0
SPLINE
5
126
100
AcDbEntity
8
1
62
256
6
ByLayer
370
18
48
1
60
0
100
AcDbSpline
70
4
71
2
72
6
73
3
40
0
40
0
40
0
40
1
40
1
40
1
41
0.499997290953715
10
61.9991557022109
20
36.2695134191012
30
0
41
0.500002709046285
10
62.0000001573165
20
35.9946019327985
30
0
41
0.499997290953715
10
62.0008436384063
20
35.7195781178448
30
0
0
SPLINE
5
127
100
AcDbEntity
8
1
62
256
6
ByLayer
370
18
48
1
60
0
100
AcDbSpline
70
4
71
3
72
20
73
16
40
0
40
0
40
0
40
0
40
0.250000000000047
40
0.250000000000047
40
0.375000000000039
40
0.375000000000039
40
0.500000000000031
40
0.500000000000031
40
0.625000000000023
40
0.625000000000023
40
0.750000000000015
40
0.750000000000015
40
0.875000000000008
40
0.875000000000008
40
1
40
1
40
1
40
1
41
1
10
61.9317407751111
20
36.4100708186448
30
0
41
1
10
61.9414455007484
20
36.40494597069
30
0
41
1
10
61.9504392387068
20
36.3978053228694
30
0
41
1
10
61.9628432048344
20
36.3840134955005
30
0
41
1
10
61.9667382592653
20
36.3789464547374
30
0
41
1
10
61.9739127735967
20
36.3680820905486
30
0
41
1
10
61.9772168538376
20
36.3622580601081
30
0
41
1
10
61.9832437734763
20
36.349805702538
30
0
41
1
10
61.9859670010399
20
36.3431508667605
30
0
41
1
10
61.9906288455433
20
36.3294858040958
30
0
41
1
10
61.9925967950369
20
36.3224228321775
30
0
41
1
10
61.9958018919804
20
36.3078329239046
30
0
41
1
10
61.997042605396
20
36.3002482033429
30
0
41
1
10
61.9987021063211
20
36.2849820483089
30
0
41
1
10
61.9991318397854
20
36.2772818070372
30
0
41
1
10
61.9991557022109
20
36.269513419104
30
0
0
SPLINE
5
128
100
AcDbEntity
8
1
62
256
6
ByLayer
370
18
48
1
60
0
100
AcDbSpline
70
4
71
3
72
8
73
4
40
0
40
0
40
0
40
0
40
1
40
1
40
1
40
1
41
1
10
61.7727458333313
20
36.4932095403164
30
0
41
1
10
61.8258207300124
20
36.4658296568755
30
0
41
1
10
61.8787987119115
20
36.4380283348543
30
0
41
1
10
61.9317407751111
20
36.4100708186448
30
0
0
SPLINE
5
129
100
AcDbEntity
8
1
62
256
6
ByLayer
370
18
48
1
60
0
100
AcDbSpline
70
4
71
3
72
16
73
12
40
0
40
0
40
0
40
0
40
0.125
40
0.125
40
0.25
40
0.25
40
0.5
40
0.5
40
0.75
40
0.75
40
1
40
1
40
1
40
1
41
1
10
61.5087981774498
20
38.4338245521512
30
0
41
1
10
61.5218598589894
20
38.3536471331983
30
0
41
1
10
61.5342139915398
20
38.2732232495194
30
0
41
1
10
61.5581997654334
20
38.1121238125249
30
0
41
1
10
61.5698169812862
20
38.0314441609365
30
0
41
1
10
61.603988183299
20
37.7892135835448
30
0
41
1
10
61.6258827457962
20
37.6274563875171
30
0
41
1
10
61.6688808434016
20
37.3037008735038
30
0
41
1
10
61.6899601995463
20
37.1416951852562
30
0
41
1
10
61.7316606640084
20
36.8175441250852
30
0
41
1
10
61.752275526997
20
36.6553970805459
30
0
41
1
10
61.7727458333314
20
36.4932095403167
30
0
0
SPLINE
5
12A
100
AcDbEntity
8
1
62
256
6
ByLayer
370
18
48
1
60
0
100
AcDbSpline
70
4
71
3
72
11
73
7
40
0
40
0
40
0
40
0
40
0.334742935845771
40
0.334742935845771
40
0.669485871691543
40
1
40
1
40
1
40
1
41
1
10
32.2792189712396
20
38.6844578769883
30
0
41
1
10
32.2892458808246
20
38.6836165155422
30
0
41
1
10
32.2986919105562
20
38.6828255893313
30
0
41
1
10
32.316298565595
20
38.6813573184512
30
0
41
1
10
32.3325330054627
20
38.6800097614758
30
0
41
1
10
32.3462827092161
20
38.6788860315019
30
0
41
1
10
32.3525026314077
20
38.6783835541588
30
0
0
SPLINE
5
12B
100
AcDbEntity
8
1
62
256
6
ByLayer
370
18
48
1
60
0
100
AcDbSpline
70
4
71
3
72
10
73
6
40
0
40
0
40
0
40
0
40
0.5
40
0.5
40
1
40
1
40
1
40
1
41
1
10
50.4010920229868
20
31.8394283370351
30
0
41
1
10
50.4021781958268
20
31.8419730262604
30
0
41
1
10
50.4036268424379
20
31.8445177129678
30
0
41
1
10
50.4050807191055
20
31.8496070964092
30
0
41
1
10
50.4050839594948
20
31.8521517957116
30
0
41
1
10
50.4043615199803
20
31.8546965309783
30
0
0
SPLINE
5
12C
100
AcDbEntity
8
1
62
256
6
ByLayer
370
18
48
1
60
0
100
AcDbSpline
70
4
71
3
72
38
73
34
40
0
40
0
40
0
40
0
40
0.124999999999966
40
0.124999999999966
40
0.187499999999951
40
0.187499999999951
40
0.218749999999947
40
0.218749999999947
40
0.249999999999942
40
0.249999999999942
40
0.374999999999952
40
0.374999999999952
40
0.437499999999954
40
0.437499999999954
40
0.468749999999955
40
0.468749999999955
40
0.499999999999956
40
0.499999999999956
40
0.624999999999973
40
0.624999999999973
40
0.656249999999978
40
0.656249999999978
40
0.687499999999982
40
0.687499999999982
40
0.749999999999988
40
0.749999999999988
40
0.875
40
0.875
40
0.906250000000002
40
0.906250000000002
40
0.937500000000004
40
0.937500000000004
40
1
40
1
40
1
40
1
41
1
10
50.4010920229868
20
31.8394283370352
30
0
41
1
10
50.4048921106933
20
31.9414199900494
30
0
41
1
10
50.4184522612426
20
32.0413891522665
30
0
41
1
10
50.4528271337978
20
32.1884346208903
30
0
41
1
10
50.4666410813874
20
32.2369616353567
30
0
41
1
10
50.4909669248599
20
32.3090051411953
30
0
41
1
10
50.4996773782948
20
32.3328949294234
30
0
41
1
10
50.5183269304565
20
32.3804199046711
30
0
41
1
10
50.528220162093
20
32.4039331626819
30
0
41
1
10
50.5802647413124
20
32.5197548502604
30
0
41
1
10
50.6302881657116
20
32.6074078992563
30
0
41
1
10
50.7177154200169
20
32.7314940947454
30
0
41
1
10
50.7489370405765
20
32.7716156673564
30
0
41
1
10
50.7989955304445
20
32.8298732968255
30
0
41
1
10
50.816181976504
20
32.8489213174965
30
0
41
1
10
50.8512678041882
20
32.8859771391562
30
0
41
1
10
50.8692062900248
20
32.9040310883937
30
0
41
1
10
50.960848041224
20
32.991965219877
30
0
41
1
10
51.0403461308006
20
33.0549022308412
30
0
41
1
10
51.1475338127688
20
33.1242097299923
30
0
41
1
10
51.1693654471941
20
33.1375990342849
30
0
41
1
10
51.2138329437028
20
33.1634140432554
30
0
41
1
10
51.2364577828113
20
33.1758283451792
30
0
41
1
10
51.3047949635037
20
33.2112175944837
30
0
41
1
10
51.3512113659244
20
33.232488181769
30
0
41
1
10
51.4929755843398
20
33.2894951011347
30
0
41
1
10
51.5908149778815
20
33.3184899948163
30
0
41
1
10
51.7174294583565
20
33.3430579107624
30
0
41
1
10
51.7429750720162
20
33.3473798919465
30
0
41
1
10
51.7940731347043
20
33.3547641532192
30
0
41
1
10
51.8196791155404
20
33.3578377771805
30
0
41
1
10
51.8966671717264
20
33.3652111094046
30
0
41
1
10
51.9482189580359
20
33.3676676517751
30
0
41
1
10
52.0000000000004
20
33.367634336068
30
0
0
SPLINE
5
12D
100
AcDbEntity
8
1
62
256
6
ByLayer
370
18
48
1
60
0
100
AcDbSpline
70
4
71
3
72
46
73
42
40
0
40
0
40
0
40
0
40
0.062500000000019
40
0.062500000000019
40
0.125000000000038
40
0.125000000000038
40
0.156250000000047
40
0.156250000000047
40
0.171875000000047
40
0.171875000000047
40
0.187500000000047
40
0.250000000000045
40
0.312500000000042
40
0.312500000000042
40
0.328125000000039
40
0.328125000000039
40
0.343750000000037
40
0.375000000000036
40
0.375000000000036
40
0.43750000000003
40
0.43750000000003
40
0.468750000000025
40
0.468750000000025
40
0.500000000000019
40
0.500000000000019
40
0.56250000000001
40
0.56250000000001
40
0.625000000000001
40
0.625000000000001
40
0.656249999999999
40
0.656249999999999
40
0.687499999999997
40
0.687499999999997
40
0.749999999999994
40
0.749999999999994
40
0.874999999999994
40
0.874999999999994
40
0.906249999999995
40
0.906249999999995
40
0.937499999999997
40
1
40
1
40
1
40
1
41
1
10
50.4000000000004
20
33.3255152697486
30
0
41
1
10
50.4000000000005
20
33.3825626578316
30
0
41
1
10
50.4027799841454
20
33.4390631079139
30
0
41
1
10
50.4140151729455
20
33.5509474571933
30
0
41
1
10
50.422469242331
20
33.6063315797449
30
0
41
1
10
50.4396426139809
20
33.6885239485158
30
0
41
1
10
50.4461174430698
20
33.7157737755526
30
0
41
1
10
50.4570021010746
20
33.7564178536512
30
0
41
1
10
50.4608261287155
20
33.769924512452
30
0
41
1
10
50.4688085466205
20
33.7966525491429
30
0
41
1
10
50.4896362523178
20
33.8628894992405
30
0
41
1
10
50.5348681998693
20
33.976936555581
30
0
41
1
10
50.5859381746444
20
34.0710438293387
30
0
41
1
10
50.6213196282488
20
34.1275443143343
30
0
41
1
10
50.6285836278953
20
34.1387489157826
30
0
41
1
10
50.6433815357767
20
34.1608046874858
30
0
41
1
10
50.6659753002666
20
34.1933514357507
30
0
41
1
10
50.6897332491272
20
34.2243233359372
30
0
41
1
10
50.7387458424507
20
34.2842424843284
30
0
41
1
10
50.7734124615176
20
34.3214945087097
30
0
41
1
10
50.8282608200404
20
34.3735193374025
30
0
41
1
10
50.8470194051155
20
34.3902173109557
30
0
41
1
10
50.8854767825148
20
34.4223413945867
30
0
41
1
10
50.9051795131019
20
34.4377628228717
30
0
41
1
10
50.9649627806922
20
34.4816383111739
30
0
41
1
10
51.0059455169218
20
34.5079110790447
30
0
41
1
10
51.0899724966141
20
34.5550111541478
30
0
41
1
10
51.1330175426019
20
34.5758363415138
30
0
41
1
10
51.1990451402013
20
34.6032174645598
30
0
41
1
10
51.2213548086928
20
34.6117188394621
30
0
41
1
10
51.2661061649105
20
34.6273407368134
30
0
41
1
10
51.2885512963321
20
34.6344675406972
30
0
41
1
10
51.3560838097668
20
34.6539062443401
30
0
41
1
10
51.4013677517431
20
34.6642819445175
30
0
41
1
10
51.5379406958405
20
34.6883057231189
30
0
41
1
10
51.629945114753
20
34.6949066406136
30
0
41
1
10
51.7460393520711
20
34.6924334927997
30
0
41
1
10
51.7693337118269
20
34.6913950569461
30
0
41
1
10
51.8157498702156
20
34.68826985598
30
0
41
1
10
51.885212445015
20
34.6820089279678
30
0
41
1
10
51.9542052432025
20
34.6711766443758
30
0
41
1
10
52.0000000000005
20
34.6620046382781
30
0
0
SPLINE
5
12E
100
AcDbEntity
8
1
62
256
6
ByLayer
370
18
48
1
60
0
100
AcDbSpline
70
4
71
3
72
10
73
6
40
0
40
0
40
0
40
0
40
0.5
40
0.5
40
1
40
1
40
1
40
1
41
1
10
23.4383186059721
20
31.65
30
0
41
1
10
23.4941800010291
20
31.65
30
0
41
1
10
23.5614421277836
20
31.65
30
0
41
1
10
23.7172006779234
20
31.65
30
0
41
1
10
23.8056918304968
20
31.65
30
0
41
1
10
23.9038773530839
20
31.65
30
0
0
SPLINE
5
12F
100
AcDbEntity
8
1
62
256
6
ByLayer
370
18
48
1
60
0
100
AcDbSpline
70
4
71
3
72
30
73
26
40
0
40
0
40
0
40
0
40
0.0906807457015459
40
0.0906807457015459
40
0.113350932126932
40
0.113350932126932
40
0.124686025339626
40
0.124686025339626
40
0.136021118552319
40
0.181361491403092
40
0.181361491403092
40
0.362722982806184
40
0.362722982806184
40
0.544084474209275
40
0.544084474209275
40
0.634765219910821
40
0.634765219910821
40
0.725445965612366
40
0.725445965612366
40
0.816126711313912
40
0.816126711313912
40
0.906807457015457
40
0.906807457015457
40
0.997488202717003
40
1
40
1
40
1
40
1
41
1
10
23.4383186059722
20
31.65
30
0
41
1
10
23.4264657523847
20
31.65
30
0
41
1
10
23.4124194831038
20
31.65
30
0
41
1
10
23.3926656454653
20
31.65
30
0
41
1
10
23.3886048500843
20
31.65
30
0
41
1
10
23.3823582617168
20
31.65
30
0
41
1
10
23.3802541675147
20
31.65
30
0
41
1
10
23.3759783610603
20
31.65
30
0
41
1
10
23.365163570132
20
31.65
30
0
41
1
10
23.3537426327851
20
31.65
30
0
41
1
10
23.3063711486605
20
31.65
30
0
41
1
10
23.2630552560456
20
31.65
30
0
41
1
10
23.1720918182496
20
31.65
30
0
41
1
10
23.1243728211918
20
31.65
30
0
41
1
10
23.0555082015381
20
31.65
30
0
41
1
10
23.033026329196
20
31.65
30
0
41
1
10
22.9903329867346
20
31.65
30
0
41
1
10
22.9701228511383
20
31.65
30
0
41
1
10
22.9335314822041
20
31.65
30
0
41
1
10
22.9171582963495
20
31.65
30
0
41
1
10
22.8899113936226
20
31.65
30
0
41
1
10
22.8790542448305
20
31.65
30
0
41
1
10
22.8642529086063
20
31.65
30
0
41
1
10
22.8602160999044
20
31.65
30
0
41
1
10
22.8601541585497
20
31.65
30
0
41
1
10
22.8601553712318
20
31.65
30
0
0
SPLINE
5
130
100
AcDbEntity
8
1
62
256
6
ByLayer
370
18
48
1
60
0
100
AcDbSpline
70
4
71
3
72
26
73
22
40
0
40
0
40
0
40
0
40
0.124999999999992
40
0.124999999999992
40
0.249999999999984
40
0.249999999999984
40
0.312499999999983
40
0.312499999999983
40
0.374999999999981
40
0.374999999999981
40
0.499999999999982
40
0.499999999999982
40
0.624999999999982
40
0.624999999999982
40
0.687499999999983
40
0.687499999999983
40
0.749999999999985
40
0.749999999999985
40
0.874999999999993
40
0.874999999999993
40
1
40
1
40
1
40
1
41
1
10
23.0763085115676
20
31.65
30
0
41
1
10
23.0814360052258
20
31.65
30
0
41
1
10
23.0900570939099
20
31.6532150442679
30
0
41
1
10
23.1123760490003
20
31.6652688884986
30
0
41
1
10
23.1260718358486
20
31.6741137850536
30
0
41
1
10
23.1492187737078
20
31.6914339088736
30
0
41
1
10
23.1573981659651
20
31.6979116770897
30
0
41
1
10
23.1742074536329
20
31.7120210208488
30
0
41
1
10
23.1828584096401
20
31.7196660457595
30
0
41
1
10
23.2093006359698
20
31.7443245818313
30
0
41
1
10
23.2275729014449
20
31.7630505081156
30
0
41
1
10
23.2643699640973
20
31.8051279485907
30
0
41
1
10
23.2829013951909
20
31.8284789793898
30
0
41
1
10
23.3102681530805
20
31.8672888317941
30
0
41
1
10
23.3192552514136
20
31.8807713822649
30
0
41
1
10
23.3367749608568
20
31.9086982886559
30
0
41
1
10
23.3453231759687
20
31.9231644093824
30
0
41
1
10
23.3702099398985
20
31.968105141208
30
0
41
1
10
23.3857933791668
20
32.000113087303
30
0
41
1
10
23.4142716016276
20
32.0686053476926
30
0
41
1
10
23.4271724263217
20
32.105084553884
30
0
41
1
10
23.4383186059721
20
32.1441638872945
30
0
0
SPLINE
5
131
100
AcDbEntity
8
1
62
256
6
ByLayer
370
18
48
1
60
0
100
AcDbSpline
70
4
71
3
72
67
73
63
40
0
40
0
40
0
40
0
40
0.062499999999996
40
0.062499999999996
40
0.124999999999992
40
0.124999999999992
40
0.140624999999991
40
0.140624999999991
40
0.15624999999999
40
0.15624999999999
40
0.187499999999988
40
0.187499999999988
40
0.249999999999985
40
0.249999999999985
40
0.281249999999983
40
0.281249999999983
40
0.296874999999982
40
0.296874999999982
40
0.312499999999982
40
0.312499999999982
40
0.37499999999998
40
0.37499999999998
40
0.437499999999978
40
0.437499999999978
40
0.499999999999976
40
0.499999999999976
40
0.515624999999976
40
0.515624999999976
40
0.531249999999976
40
0.562499999999976
40
0.562499999999976
40
0.624999999999979
40
0.624999999999979
40
0.687499999999982
40
0.687499999999982
40
0.749999999999985
40
0.749999999999985
40
0.781249999999986
40
0.781249999999986
40
0.812499999999987
40
0.812499999999987
40
0.843749999999988
40
0.843749999999988
40
0.874999999999989
40
0.874999999999989
40
0.89062499999999
40
0.89062499999999
40
0.906249999999992
40
0.906249999999992
40
0.921874999999993
40
0.921874999999993
40
0.937499999999994
40
0.937499999999994
40
0.953124999999995
40
0.953124999999995
40
0.968749999999996
40
0.968749999999996
40
0.984374999999997
40
0.984374999999997
40
0.992187499999998
40
0.992187499999998
40
1
40
1
40
1
40
1
41
1
10
26.0939652869578
20
-16.7500980117749
30
0
41
1
10
25.9411577548918
20
-16.7500980117749
30
0
41
1
10
25.7907655456276
20
-16.7588200501987
30
0
41
1
10
25.4944763648029
20
-16.7924670433898
30
0
41
1
10
25.3485809620238
20
-16.8173978556295
30
0
41
1
10
25.1689337718186
20
-16.8583535808834
30
0
41
1
10
25.1331408522006
20
-16.867035826906
30
0
41
1
10
25.061827436922
20
-16.8853797834291
30
0
41
1
10
25.0262566266957
20
-16.8950576616587
30
0
41
1
10
24.9207786383571
20
-16.9253124459643
30
0
41
1
10
24.8518634824396
20
-16.9471647040015
30
0
41
1
10
24.649060828374
20
-17.0174413639967
30
0
41
1
10
24.5191015778869
20
-17.0705683165253
30
0
41
1
10
24.3312838014813
20
-17.1587559783769
30
0
41
1
10
24.2698687137732
20
-17.1895728312728
30
0
41
1
10
24.1794702670487
20
-17.2378514677426
30
0
41
1
10
24.1495998172165
20
-17.2543011381055
30
0
41
1
10
24.0905364425225
20
-17.2878118122871
30
0
41
1
10
24.0614249855775
20
-17.3048255959339
30
0
41
1
10
23.9178868833957
20
-17.3911344336766
30
0
41
1
10
23.8094895043568
20
-17.464132072223
30
0
41
1
10
23.6039681103434
20
-17.6169979786387
30
0
41
1
10
23.5068523017213
20
-17.6968716688658
30
0
41
1
10
23.3228837863241
20
-17.8628065446281
30
0
41
1
10
23.23603538359
20
-17.9488709712909
30
0
41
1
10
23.1334928415731
20
-18.0600203796842
30
0
41
1
10
23.113298839395
20
-18.0824164486946
30
0
41
1
10
23.0736781755452
20
-18.1273583833977
30
0
41
1
10
23.0153316664923
20
-18.1950679961834
30
0
41
1
10
22.9601396539594
20
-18.2636314104958
30
0
41
1
10
22.8537414505197
20
-18.4018078851005
30
0
41
1
10
22.7881131581632
20
-18.4953251670021
30
0
41
1
10
22.6665962030719
20
-18.6847166809298
30
0
41
1
10
22.6107105601345
20
-18.7805955167067
30
0
41
1
10
22.5081238200646
20
-18.9742194843057
30
0
41
1
10
22.4614241383948
20
-19.0719749277728
30
0
41
1
10
22.3980252634909
20
-19.2194476881538
30
0
41
1
10
22.3780024768796
20
-19.2687425239181
30
0
41
1
10
22.340157963269
20
-19.3674468396032
30
0
41
1
10
22.3223313180629
20
-19.4168802727804
30
0
41
1
10
22.2890174260178
20
-19.5151631509746
30
0
41
1
10
22.273507955208
20
-19.5640704768706
30
0
41
1
10
22.2447547398458
20
-19.6610003571662
30
0
41
1
10
22.2315105841928
20
-19.7090311001654
30
0
41
1
10
22.2133415422785
20
-19.7798642700523
30
0
41
1
10
22.2075682956621
20
-19.8032700195289
30
0
41
1
10
22.1965919348221
20
-19.8495172131145
30
0
41
1
10
22.1913910024709
20
-19.8723516291759
30
0
41
1
10
22.1815937810358
20
-19.9171070407834
30
0
41
1
10
22.1769939906607
20
-19.939043776118
30
0
41
1
10
22.1684052389256
20
-19.9816896447683
30
0
41
1
10
22.1644160207445
20
-20.0024018305621
30
0
41
1
10
22.1570738902625
20
-20.0420774290057
30
0
41
1
10
22.1537204259085
20
-20.0610463576904
30
0
41
1
10
22.1476991513427
20
-20.0964120520669
30
0
41
1
10
22.1450604977733
20
-20.1126375717337
30
0
41
1
10
22.1405998546802
20
-20.1409128137157
30
0
41
1
10
22.1387756355004
20
-20.1529712302596
30
0
41
1
10
22.1367359755878
20
-20.166696288874
30
0
41
1
10
22.1361713837392
20
-20.1705495117949
30
0
41
1
10
22.1353044046359
20
-20.1765014087886
30
0
41
1
10
22.1350020214568
20
-20.1785989053386
30
0
41
1
10
22.1348353582931
20
-20.1797558268089
30
0
0
SPLINE
5
132
100
AcDbEntity
8
1
62
256
6
ByLayer
370
18
48
1
60
0
100
AcDbSpline
70
4
71
3
72
10
73
6
40
0
40
0
40
0
40
0
40
0.5
40
0.5
40
1
40
1
40
1
40
1
41
1
10
23.9038773530839
20
31.65
30
0
41
1
10
23.8244718310658
20
31.3089463411993
30
0
41
1
10
23.7458947092436
20
30.9683058625244
30
0
41
1
10
23.5906235908866
20
30.2879060446004
30
0
41
1
10
23.5139289161755
20
29.9481463546829
30
0
41
1
10
23.4383186059721
20
29.6088671837268
30
0
0
SPLINE
5
133
100
AcDbEntity
8
1
62
256
6
ByLayer
370
18
48
1
60
0
100
AcDbSpline
70
4
71
3
72
32
73
28
40
0
40
0
40
0
40
0
40
0.125000000000001
40
0.125000000000001
40
0.250000000000003
40
0.250000000000003
40
0.375000000000004
40
0.375000000000004
40
0.500000000000006
40
0.500000000000006
40
0.531250000000005
40
0.531250000000005
40
0.562500000000004
40
0.562500000000004
40
0.625000000000005
40
0.625000000000005
40
0.750000000000007
40
0.750000000000007
40
0.781250000000007
40
0.781250000000007
40
0.812500000000007
40
0.812500000000007
40
0.875000000000005
40
0.875000000000005
40
0.937500000000002
40
0.937500000000002
40
1
40
1
40
1
40
1
41
1
10
22.2792076144253
20
27.6890913464893
30
0
41
1
10
22.3091861324518
20
27.7479292826984
30
0
41
1
10
22.3436091539087
20
27.8062346625528
30
0
41
1
10
22.4206693858726
20
27.9238691213878
30
0
41
1
10
22.463309505809
20
27.9831985498048
30
0
41
1
10
22.5558332452928
20
28.105359562657
30
0
41
1
10
22.6057210245033
20
28.1681880686338
30
0
41
1
10
22.7113673116023
20
28.3002444815813
30
0
41
1
10
22.7671335517497
20
28.3694625030245
30
0
41
1
10
22.8392966168967
20
28.4621683792877
30
0
41
1
10
22.8538502191994
20
28.4810207031904
30
0
41
1
10
22.8831608950909
20
28.5194117010655
30
0
41
1
10
22.8979340263431
20
28.5389724917473
30
0
41
1
10
22.9422445650674
20
28.5984482957647
30
0
41
1
10
22.9718399909694
20
28.639239554091
30
0
41
1
10
23.0601329079226
20
28.7656085605475
30
0
41
1
10
23.118378788982
20
28.8551380968836
30
0
41
1
10
23.1877571224344
20
28.9759936133815
30
0
41
1
10
23.2014580216965
20
29.0006153551833
30
0
41
1
10
23.2284274139894
20
29.0508366040765
30
0
41
1
10
23.2416862764283
20
29.0764239329745
30
0
41
1
10
23.2803185235414
20
29.1540248359238
30
0
41
1
10
23.3046746652805
20
29.2070996320098
30
0
41
1
10
23.3498871477089
20
29.3162391470491
30
0
41
1
10
23.3707475017362
20
29.3723009239704
30
0
41
1
10
23.4081018365313
20
29.4878489165952
30
0
41
1
10
23.4246044279109
20
29.5473288174587
30
0
41
1
10
23.4383186059721
20
29.6088671837268
30
0
0
SPLINE
5
134
100
AcDbEntity
8
1
62
256
6
ByLayer
370
18
48
1
60
0
100
AcDbSpline
70
4
71
3
72
30
73
26
40
0
40
0
40
0
40
0
40
0.0624999999999848
40
0.0624999999999848
40
0.093749999999981
40
0.093749999999981
40
0.124999999999977
40
0.124999999999977
40
0.24999999999998
40
0.24999999999998
40
0.312499999999983
40
0.312499999999983
40
0.374999999999985
40
0.374999999999985
40
0.437499999999987
40
0.437499999999987
40
0.49999999999999
40
0.49999999999999
40
0.624999999999992
40
0.624999999999992
40
0.749999999999995
40
0.749999999999995
40
0.874999999999997
40
0.874999999999997
40
1
40
1
40
1
40
1
41
1
10
13.4613248654052
20
30.0805927603169
30
0
41
1
10
13.4770644463612
20
30.0805927603168
30
0
41
1
10
13.4925182901836
20
30.0801205034908
30
0
41
1
10
13.5153082123102
20
30.0787652114225
30
0
41
1
10
13.5228395300832
20
30.0782053093477
30
0
41
1
10
13.537775923748
20
30.076876147822
30
0
41
1
10
13.5452163817752
20
30.0761022248719
30
0
41
1
10
13.5815263070002
20
30.0717959485601
30
0
41
1
10
13.6079581046676
20
30.0669872793661
30
0
41
1
10
13.6448606867708
20
30.0583172600355
30
0
41
1
10
13.6565013495868
20
30.0552244086801
30
0
41
1
10
13.6786197964872
20
30.0487371057378
30
0
41
1
10
13.6891167538208
20
30.0453372280741
30
0
41
1
10
13.7091749421594
20
30.0382729348065
30
0
41
1
10
13.7187352282343
20
30.0346082702024
30
0
41
1
10
13.737049765874
20
30.0270468182506
30
0
41
1
10
13.7458258793004
20
30.0231382884602
30
0
41
1
10
13.77082212436
20
30.0112312950129
30
0
41
1
10
13.7858017072527
20
30.0030284643032
30
0
41
1
10
13.8132376332897
20
29.9862010424071
30
0
41
1
10
13.8256849705002
20
29.9775752500985
30
0
41
1
10
13.8485243776493
20
29.9599596837525
30
0
41
1
10
13.8589127955723
20
29.9509694256367
30
0
41
1
10
13.8779317869831
20
29.932660186932
30
0
41
1
10
13.8865409364124
20
29.9233580917139
30
0
41
1
10
13.8943375672974
20
29.913954846469
30
0
0
SPLINE
5
135
100
AcDbEntity
8
1
62
256
6
ByLayer
370
18
48
1
60
0
100
AcDbSpline
70
4
71
3
72
32
73
28
40
0
40
0
40
0
40
0
40
0.250000000000002
40
0.250000000000002
40
0.375000000000002
40
0.375000000000002
40
0.437500000000002
40
0.437500000000002
40
0.500000000000001
40
0.500000000000001
40
0.625
40
0.625
40
0.687499999999998
40
0.687499999999998
40
0.749999999999996
40
0.749999999999996
40
0.812499999999994
40
0.812499999999994
40
0.843749999999995
40
0.843749999999995
40
0.874999999999995
40
0.874999999999995
40
0.937500000000001
40
0.937500000000001
40
0.968750000000001
40
0.968750000000001
40
1
40
1
40
1
40
1
41
1
10
13.8943375672973
20
9.86941261896635
30
0
41
1
10
13.8787501654512
20
9.81243201498822
30
0
41
1
10
13.8600981524864
20
9.75655023082984
30
0
41
1
10
13.8259097308548
20
9.67499387250803
30
0
41
1
10
13.8134681559942
20
9.64819007031215
30
0
41
1
10
13.792841581707
20
9.60870778228687
30
0
41
1
10
13.785636838674
20
9.59566828989819
30
0
41
1
10
13.7704696456803
20
9.5698696056034
30
0
41
1
10
13.7624961131814
20
9.55709686534382
30
0
41
1
10
13.7374904471463
20
9.51963294536142
30
0
41
1
10
13.7193382950672
20
9.49566900868405
30
0
41
1
10
13.689039794361
20
9.46183015552285
30
0
41
1
10
13.6784124135706
20
9.45090526429343
30
0
41
1
10
13.656277975813
20
9.43026612350775
30
0
41
1
10
13.6447350068564
20
9.4205071911085
30
0
41
1
10
13.6205171073694
20
9.40232505361269
30
0
41
1
10
13.607843974168
20
9.39389972204395
30
0
41
1
10
13.5877822000581
20
9.3825045604145
30
0
41
1
10
13.5808872163667
20
9.37890069603404
30
0
41
1
10
13.5669060817703
20
9.37226208194031
30
0
41
1
10
13.559813636811
20
9.36922064667928
30
0
41
1
10
13.5382117701416
20
9.36098178019492
30
0
41
1
10
13.5233796774591
20
9.35666472180216
30
0
41
1
10
13.5003821923576
20
9.3522345198123
30
0
41
1
10
13.4925919071141
20
9.35110433740235
30
0
41
1
10
13.4770081601072
20
9.34960123302491
30
0
41
1
10
13.4691833484066
20
9.34922131452521
30
0
41
1
10
13.4613248654052
20
9.34922131452521
30
0
0
SPLINE
5
136
100
AcDbEntity
8
1
62
256
6
ByLayer
370
18
48
1
60
0
100
AcDbSpline
70
4
71
3
72
30
73
26
40
0
40
0
40
0
40
0
40
0.0625000000000067
40
0.0625000000000067
40
0.0937500000000107
40
0.0937500000000107
40
0.125000000000015
40
0.125000000000015
40
0.250000000000008
40
0.250000000000008
40
0.312500000000007
40
0.312500000000007
40
0.375000000000005
40
0.375000000000005
40
0.437500000000004
40
0.437500000000004
40
0.500000000000003
40
0.500000000000003
40
0.625000000000002
40
0.625000000000002
40
0.750000000000001
40
0.750000000000001
40
0.875000000000001
40
0.875000000000001
40
1
40
1
40
1
40
1
41
1
10
10.5386751345949
20
9.34922131452518
30
0
41
1
10
10.5229355536388
20
9.34922131452518
30
0
41
1
10
10.5074817098165
20
9.35074113394293
30
0
41
1
10
10.4846917876899
20
9.35509944740036
30
0
41
1
10
10.4771604699169
20
9.35689961322677
30
0
41
1
10
10.4622240762521
20
9.36117119765723
30
0
41
1
10
10.4547836182248
20
9.36365758390278
30
0
41
1
10
10.4184736929998
20
9.37748487924972
30
0
41
1
10
10.3920418953325
20
9.39290424748316
30
0
41
1
10
10.3551393132292
20
9.42059748954586
30
0
41
1
10
10.3434986504133
20
9.43046143490429
30
0
41
1
10
10.3213802035129
20
9.45111186483337
30
0
41
1
10
10.3108832461793
20
9.46191570446791
30
0
41
1
10
10.2908250578407
20
9.48431848058817
30
0
41
1
10
10.2812647717658
20
9.49591822570969
30
0
41
1
10
10.262950234126
20
9.51980127252986
30
0
41
1
10
10.2541741206997
20
9.53212142663477
30
0
41
1
10
10.22917787564
20
9.56957065273537
30
0
41
1
10
10.2141982927473
20
9.59526142127675
30
0
41
1
10
10.1867623667103
20
9.64772023935052
30
0
41
1
10
10.1743150294998
20
9.67449223197178
30
0
41
1
10
10.1514756223507
20
9.7289071107565
30
0
41
1
10
10.1410872044276
20
9.75655159685462
30
0
41
1
10
10.1220682130169
20
9.81257982037172
30
0
41
1
10
10.1134590635876
20
9.84091160634031
30
0
41
1
10
10.1056624327026
20
9.86941261896627
30
0
0
SPLINE
5
137
100
AcDbEntity
8
1
62
256
6
ByLayer
370
18
48
1
60
0
100
AcDbSpline
70
4
71
3
72
32
73
28
40
0
40
0
40
0
40
0
40
0.250000000000009
40
0.250000000000009
40
0.375000000000012
40
0.375000000000012
40
0.437500000000012
40
0.437500000000012
40
0.500000000000012
40
0.500000000000012
40
0.625000000000013
40
0.625000000000013
40
0.687500000000011
40
0.687500000000011
40
0.750000000000008
40
0.750000000000008
40
0.812500000000006
40
0.812500000000006
40
0.843750000000004
40
0.843750000000004
40
0.875000000000003
40
0.875000000000003
40
0.937500000000002
40
0.937500000000002
40
0.968750000000001
40
0.968750000000001
40
1
40
1
40
1
40
1
41
1
10
10.1056624327026
20
29.913954846469
30
0
41
1
10
10.1212498345488
20
29.9327542695084
30
0
41
1
10
10.1399018475136
20
29.9510098933135
30
0
41
1
10
10.1740902691452
20
29.977413331973
30
0
41
1
10
10.1865318440058
20
29.9860499646858
30
0
41
1
10
10.207158418293
20
29.9987154022301
30
0
41
1
10
10.214363161326
20
30.0028887514666
30
0
41
1
10
10.2295303543197
20
30.0111275878529
30
0
41
1
10
10.2375038868186
20
30.0151973377028
30
0
41
1
10
10.2625095528537
20
30.0271090091071
30
0
41
1
10
10.2806617049328
20
30.0346937657148
30
0
41
1
10
10.3109602056391
20
30.0453642012995
30
0
41
1
10
10.3215875864295
20
30.0488020840795
30
0
41
1
10
10.343722024187
20
30.0552856889209
30
0
41
1
10
10.3552649931437
20
30.0583455135275
30
0
41
1
10
10.3794828926306
20
30.0640378913833
30
0
41
1
10
10.3921560258321
20
30.0666711051738
30
0
41
1
10
10.4122177999419
20
30.0702282001224
30
0
41
1
10
10.4191127836333
20
30.0713523776808
30
0
41
1
10
10.4330939182297
20
30.0734220792403
30
0
41
1
10
10.4401863631891
20
30.0743696982575
30
0
41
1
10
10.4617882298585
20
30.076935568727
30
0
41
1
10
10.4766203225409
20
30.0782784555614
30
0
41
1
10
10.4996178076425
20
30.0796561130286
30
0
41
1
10
10.5074080928859
20
30.0800074516351
30
0
41
1
10
10.5229918398929
20
30.080474687126
30
0
41
1
10
10.5308166515934
20
30.0805927603169
30
0
41
1
10
10.5386751345949
20
30.0805927603169
30
0
0
SPLINE
5
138
100
AcDbEntity
8
1
62
256
6
ByLayer
370
18
48
1
60
0
100
AcDbSpline
70
4
71
3
72
30
73
26
40
0
40
0
40
0
40
0
40
0.0625000000000127
40
0.0625000000000127
40
0.0937500000000146
40
0.0937500000000146
40
0.125000000000016
40
0.125000000000016
40
0.250000000000018
40
0.250000000000018
40
0.312500000000014
40
0.312500000000014
40
0.37500000000001
40
0.37500000000001
40
0.437500000000006
40
0.437500000000006
40
0.500000000000002
40
0.500000000000002
40
0.625000000000002
40
0.625000000000002
40
0.750000000000001
40
0.750000000000001
40
0.875000000000001
40
0.875000000000001
40
1
40
1
40
1
40
1
41
1
10
10.5386751345949
20
-30.0805927603169
30
0
41
1
10
10.5229355536388
20
-30.0805927603169
30
0
41
1
10
10.5074817098165
20
-30.0801205034908
30
0
41
1
10
10.4846917876898
20
-30.0787652114226
30
0
41
1
10
10.4771604699169
20
-30.0782053093477
30
0
41
1
10
10.462224076252
20
-30.0768761478221
30
0
41
1
10
10.4547836182248
20
-30.0761022248719
30
0
41
1
10
10.4184736929998
20
-30.0717959485601
30
0
41
1
10
10.3920418953325
20
-30.0669872793661
30
0
41
1
10
10.3551393132292
20
-30.0583172600355
30
0
41
1
10
10.3434986504133
20
-30.0552244086801
30
0
41
1
10
10.3213802035128
20
-30.0487371057378
30
0
41
1
10
10.3108832461792
20
-30.0453372280742
30
0
41
1
10
10.2908250578406
20
-30.0382729348065
30
0
41
1
10
10.2812647717658
20
-30.0346082702024
30
0
41
1
10
10.262950234126
20
-30.0270468182506
30
0
41
1
10
10.2541741206997
20
-30.0231382884602
30
0
41
1
10
10.22917787564
20
-30.0112312950129
30
0
41
1
10
10.2141982927473
20
-30.0030284643032
30
0
41
1
10
10.1867623667103
20
-29.9862010424071
30
0
41
1
10
10.1743150294998
20
-29.9775752500985
30
0
41
1
10
10.1514756223507
20
-29.9599596837525
30
0
41
1
10
10.1410872044276
20
-29.9509694256367
30
0
41
1
10
10.1220682130169
20
-29.9326601869321
30
0
41
1
10
10.1134590635876
20
-29.9233580917139
30
0
41
1
10
10.1056624327026
20
-29.9139548464691
30
0
0
SPLINE
5
139
100
AcDbEntity
8
1
62
256
6
ByLayer
370
18
48
1
60
0
100
AcDbSpline
70
4
71
3
72
32
73
28
40
0
40
0
40
0
40
0
40
0.249999999999995
40
0.249999999999995
40
0.374999999999999
40
0.374999999999999
40
0.437500000000003
40
0.437500000000003
40
0.500000000000008
40
0.500000000000008
40
0.625000000000008
40
0.625000000000008
40
0.687500000000004
40
0.687500000000004
40
0.75
40
0.75
40
0.812499999999996
40
0.812499999999996
40
0.843749999999995
40
0.843749999999995
40
0.874999999999995
40
0.874999999999995
40
0.937499999999997
40
0.937499999999997
40
0.968749999999999
40
0.968749999999999
40
1
40
1
40
1
40
1
41
1
10
10.1056624327026
20
-9.86941261896627
30
0
41
1
10
10.1212498345488
20
-9.81243201498813
30
0
41
1
10
10.1399018475136
20
-9.75655023082976
30
0
41
1
10
10.1740902691451
20
-9.67499387250794
30
0
41
1
10
10.1865318440058
20
-9.64819007031207
30
0
41
1
10
10.207158418293
20
-9.60870778228679
30
0
41
1
10
10.214363161326
20
-9.5956682898981
30
0
41
1
10
10.2295303543197
20
-9.56986960560332
30
0
41
1
10
10.2375038868186
20
-9.55709686534374
30
0
41
1
10
10.2625095528537
20
-9.51963294536131
30
0
41
1
10
10.2806617049328
20
-9.49566900868393
30
0
41
1
10
10.3109602056391
20
-9.46183015552273
30
0
41
1
10
10.3215875864294
20
-9.45090526429331
30
0
41
1
10
10.343722024187
20
-9.43026612350764
30
0
41
1
10
10.3552649931436
20
-9.42050719110841
30
0
41
1
10
10.3794828926306
20
-9.40232505361257
30
0
41
1
10
10.3921560258321
20
-9.39389972204384
30
0
41
1
10
10.4122177999419
20
-9.38250456041439
30
0
41
1
10
10.4191127836333
20
-9.37890069603392
30
0
41
1
10
10.4330939182297
20
-9.37226208194019
30
0
41
1
10
10.4401863631891
20
-9.36922064667914
30
0
41
1
10
10.4617882298585
20
-9.36098178019481
30
0
41
1
10
10.4766203225409
20
-9.35666472180205
30
0
41
1
10
10.4996178076425
20
-9.35223451981219
30
0
41
1
10
10.5074080928859
20
-9.35110433740223
30
0
41
1
10
10.5229918398929
20
-9.3496012330248
30
0
41
1
10
10.5308166515934
20
-9.3492213145251
30
0
41
1
10
10.5386751345949
20
-9.3492213145251
30
0
0
SPLINE
5
13A
100
AcDbEntity
8
1
62
256
6
ByLayer
370
18
48
1
60
0
100
AcDbSpline
70
4
71
3
72
30
73
26
40
0
40
0
40
0
40
0
40
0.0624999999999964
40
0.0624999999999964
40
0.0937499999999974
40
0.0937499999999974
40
0.124999999999998
40
0.124999999999998
40
0.250000000000006
40
0.250000000000006
40
0.312500000000008
40
0.312500000000008
40
0.37500000000001
40
0.37500000000001
40
0.437500000000012
40
0.437500000000012
40
0.500000000000014
40
0.500000000000014
40
0.62500000000001
40
0.62500000000001
40
0.750000000000007
40
0.750000000000007
40
0.875000000000003
40
0.875000000000003
40
1
40
1
40
1
40
1
41
1
10
13.4613248654052
20
-9.34922131452524
30
0
41
1
10
13.4770644463612
20
-9.34922131452524
30
0
41
1
10
13.4925182901835
20
-9.35074113394299
30
0
41
1
10
13.5153082123102
20
-9.35509944740042
30
0
41
1
10
13.5228395300832
20
-9.3568996132268
30
0
41
1
10
13.537775923748
20
-9.36117119765726
30
0
41
1
10
13.5452163817752
20
-9.36365758390286
30
0
41
1
10
13.5815263070002
20
-9.37748487924981
30
0
41
1
10
13.6079581046675
20
-9.39290424748322
30
0
41
1
10
13.6448606867708
20
-9.42059748954594
30
0
41
1
10
13.6565013495868
20
-9.43046143490434
30
0
41
1
10
13.6786197964872
20
-9.45111186483339
30
0
41
1
10
13.6891167538208
20
-9.461915704468
30
0
41
1
10
13.7091749421593
20
-9.48431848058823
30
0
41
1
10
13.7187352282342
20
-9.49591822570974
30
0
41
1
10
13.737049765874
20
-9.51980127252992
30
0
41
1
10
13.7458258793003
20
-9.53212142663483
30
0
41
1
10
13.77082212436
20
-9.56957065273539
30
0
41
1
10
13.7858017072526
20
-9.5952614212768
30
0
41
1
10
13.8132376332897
20
-9.64772023935055
30
0
41
1
10
13.8256849705001
20
-9.67449223197178
30
0
41
1
10
13.8485243776493
20
-9.7289071107565
30
0
41
1
10
13.8589127955723
20
-9.75655159685462
30
0
41
1
10
13.877931786983
20
-9.81257982037172
30
0
41
1
10
13.8865409364124
20
-9.84091160634034
30
0
41
1
10
13.8943375672974
20
-9.86941261896629
30
0
0
SPLINE
5
13B
100
AcDbEntity
8
1
62
256
6
ByLayer
370
18
48
1
60
0
100
AcDbSpline
70
4
71
3
72
32
73
28
40
0
40
0
40
0
40
0
40
0.249999999999997
40
0.249999999999997
40
0.374999999999993
40
0.374999999999993
40
0.437499999999991
40
0.437499999999991
40
0.499999999999988
40
0.499999999999988
40
0.624999999999983
40
0.624999999999983
40
0.687499999999982
40
0.687499999999982
40
0.749999999999981
40
0.749999999999981
40
0.81249999999998
40
0.81249999999998
40
0.843749999999983
40
0.843749999999983
40
0.874999999999985
40
0.874999999999985
40
0.937499999999992
40
0.937499999999992
40
0.968749999999996
40
0.968749999999996
40
1
40
1
40
1
40
1
41
1
10
13.8943375672973
20
-29.913954846469
30
0
41
1
10
13.8787501654512
20
-29.9327542695084
30
0
41
1
10
13.8600981524864
20
-29.9510098933135
30
0
41
1
10
13.8259097308548
20
-29.977413331973
30
0
41
1
10
13.8134681559942
20
-29.9860499646858
30
0
41
1
10
13.792841581707
20
-29.9987154022301
30
0
41
1
10
13.785636838674
20
-30.0028887514666
30
0
41
1
10
13.7704696456802
20
-30.0111275878529
30
0
41
1
10
13.7624961131814
20
-30.0151973377028
30
0
41
1
10
13.7374904471463
20
-30.0271090091071
30
0
41
1
10
13.7193382950672
20
-30.0346937657148
30
0
41
1
10
13.6890397943609
20
-30.0453642012995
30
0
41
1
10
13.6784124135705
20
-30.0488020840795
30
0
41
1
10
13.656277975813
20
-30.0552856889209
30
0
41
1
10
13.6447350068563
20
-30.0583455135275
30
0
41
1
10
13.6205171073694
20
-30.0640378913833
30
0
41
1
10
13.607843974168
20
-30.0666711051738
30
0
41
1
10
13.5877822000581
20
-30.0702282001224
30
0
41
1
10
13.5808872163667
20
-30.0713523776808
30
0
41
1
10
13.5669060817703
20
-30.0734220792403
30
0
41
1
10
13.5598136368109
20
-30.0743696982574
30
0
41
1
10
13.5382117701416
20
-30.076935568727
30
0
41
1
10
13.5233796774591
20
-30.0782784555613
30
0
41
1
10
13.5003821923576
20
-30.0796561130286
30
0
41
1
10
13.4925919071141
20
-30.0800074516351
30
0
41
1
10
13.4770081601071
20
-30.080474687126
30
0
41
1
10
13.4691833484066
20
-30.0805927603169
30
0
41
1
10
13.4613248654052
20
-30.0805927603169
30
0
0
SPLINE
5
13C
100
AcDbEntity
8
1
62
256
6
ByLayer
370
18
48
1
60
0
100
AcDbSpline
70
4
71
3
72
10
73
6
40
0
40
0
40
0
40
0
40
0.499999999999998
40
0.499999999999998
40
1
40
1
40
1
40
1
41
1
10
22.2792076144253
20
27.6890913464893
30
0
41
1
10
22.2319190720842
20
27.5962795458785
30
0
41
1
10
22.1967233874892
20
27.5011947659451
30
0
41
1
10
22.1489301124042
20
27.3064358336754
30
0
41
1
10
22.1363390072793
20
27.2067616809699
30
0
41
1
10
22.1348353582931
20
27.104737853297
30
0
0
SPLINE
5
13D
100
AcDbEntity
8
SK1
62
256
6
ByLayer
370
18
48
1
60
0
100
AcDbSpline
70
4
71
3
72
49
73
45
40
0
40
0
40
0
40
0
40
0.0158520731504461
40
0.044331352064728
40
0.0728106309790098
40
0.101289909893292
40
0.129769188807573
40
0.158248467721855
40
0.215207025550419
40
0.2436863044647
40
0.272165583378982
40
0.300644862293264
40
0.329124141207546
40
0.357603420121828
40
0.386082699036109
40
0.414561977950391
40
0.428801617407532
40
0.443041256864673
40
0.457280896321814
40
0.471520535778955
40
0.485760175236096
40
0.492879994964666
40
0.499999814693237
40
0.507119634421807
40
0.514239454150378
40
0.528479093607518
40
0.542718733064659
40
0.5569583725218
40
0.571198011978941
40
0.585437651436082
40
0.613916930350364
40
0.642396209264645
40
0.670875488178927
40
0.699354767093209
40
0.727834046007491
40
0.756313324921773
40
0.784792603836055
40
0.841751161664618
40
0.8702304405789
40
0.898709719493182
40
0.927188998407463
40
0.955668277321745
40
0.984147556236027
40
1
40
1
40
1
40
1
41
1
10
-38
20
-20.2900103507457
30
0
41
1
10
-38
20
-20.2838088142691
30
0
41
1
10
-38
20
-20.2386783270013
30
0
41
1
10
-38
20
-20.0459066437045
30
0
41
1
10
-38
20
-19.6579362347721
30
0
41
1
10
-38
20
-19.1216505379956
30
0
41
1
10
-38
20
-18.4471799717542
30
0
41
1
10
-38
20
-17.3708466567051
30
0
41
1
10
-38
20
-16.0627718728323
30
0
41
1
10
-38
20
-14.5156181768618
30
0
41
1
10
-38
20
-13.2517907463501
30
0
41
1
10
-38
20
-11.8841222937699
30
0
41
1
10
-38
20
-10.4165562193455
30
0
41
1
10
-38
20
-8.85372672313898
30
0
41
1
10
-38
20
-7.20134092284709
30
0
41
1
10
-38
20
-5.76201911469511
30
0
41
1
10
-38
20
-4.5640765607352
30
0
41
1
10
-38
20
-3.65884583736087
30
0
41
1
10
-38
20
-2.74483905839463
30
0
41
1
10
-38
20
-1.82748828650287
30
0
41
1
10
-38
20
-1.06947767603967
30
0
41
1
10
-38
20
-0.455018198724474
30
0
41
1
10
-38
20
4.514861303E-07
30
0
41
1
10
-38
20
0.455018630552075
30
0
41
1
10
-38
20
1.06947718042707
30
0
41
1
10
-38
20
1.82748862261292
30
0
41
1
10
-38
20
2.74483966025932
30
0
41
1
10
-38
20
3.65884523285217
30
0
41
1
10
-38
20
4.56407688146012
30
0
41
1
10
-38
20
5.76201962732219
30
0
41
1
10
-38
20
7.20134053529003
30
0
41
1
10
-38
20
8.85372716578038
30
0
41
1
10
-38
20
10.4165563625368
30
0
41
1
10
-38
20
11.884121927153
30
0
41
1
10
-38
20
13.2517911056129
30
0
41
1
10
-38
20
14.5156182315173
30
0
41
1
10
-38
20
16.0627714181563
30
0
41
1
10
-38
20
17.3708469037194
30
0
41
1
10
-38
20
18.4471796582741
30
0
41
1
10
-38
20
19.121649880576
30
0
41
1
10
-38
20
19.6579364097435
30
0
41
1
10
-38
20
20.0459061788578
30
0
41
1
10
-38
20
20.2386786532789
30
0
41
1
10
-38
20
20.2838093448912
30
0
41
1
10
-38
20
20.2900106491909
30
0
0
SPLINE
5
13E
100
AcDbEntity
8
SK1
62
256
6
ByLayer
370
18
48
1
60
0
100
AcDbSpline
70
4
71
3
72
36
73
32
40
0
40
0
40
0
40
0
40
0.249999999999995
40
0.249999999999995
40
0.374999999999995
40
0.374999999999995
40
0.499999999999994
40
0.499999999999994
40
0.624999999999994
40
0.624999999999994
40
0.687499999999995
40
0.687499999999995
40
0.749999999999996
40
0.749999999999996
40
0.812499999999997
40
0.812499999999997
40
0.843749999999998
40
0.843749999999998
40
0.874999999999998
40
0.874999999999998
40
0.906249999999999
40
0.906249999999999
40
0.921874999999999
40
0.921874999999999
40
0.937499999999999
40
0.937499999999999
40
0.953124999999999
40
0.953124999999999
40
0.968749999999999
40
0.968749999999999
40
1
40
1
40
1
40
1
41
1
10
-0.200000000000017
20
-7.03415845154797
30
0
41
1
10
-0.200331074104753
20
-6.96758473110461
30
0
41
1
10
-0.201942367211245
20
-6.90082001005126
30
0
41
1
10
-0.207091999731233
20
-6.80034067321819
30
0
41
1
10
-0.209269492367241
20
-6.76679198903059
30
0
41
1
10
-0.214824426638018
20
-6.69957126003933
30
0
41
1
10
-0.21819915020231
20
-6.66587124141833
30
0
41
1
10
-0.226629907857017
20
-6.59846295367004
30
0
41
1
10
-0.231660540619686
20
-6.56479252713515
30
0
41
1
10
-0.241214598359392
20
-6.5144059185414
30
0
41
1
10
-0.24474520514363
20
-6.49760452342764
30
0
41
1
10
-0.252727620657765
20
-6.46421416849179
30
0
41
1
10
-0.257169431390224
20
-6.44763062016602
30
0
41
1
10
-0.267439101060546
20
-6.41481626716185
30
0
41
1
10
-0.27323621273078
20
-6.39857720931977
30
0
41
1
10
-0.283833370168679
20
-6.37471397159132
30
0
41
1
10
-0.287711149711186
20
-6.3668056729274
30
0
41
1
10
-0.296343527957418
20
-6.35152953268795
30
0
41
1
10
-0.301085882076165
20
-6.34414232274304
30
0
41
1
10
-0.312078412289935
20
-6.33025774259031
30
0
41
1
10
-0.31822232846153
20
-6.32386838427445
30
0
41
1
10
-0.329057935890972
20
-6.31619338160348
30
0
41
1
10
-0.332859652575024
20
-6.31402544311607
30
0
41
1
10
-0.340958863848982
20
-6.31070772605878
30
0
41
1
10
-0.345208124413119
20
-6.30960458427649
30
0
41
1
10
-0.35368915432602
20
-6.30870360354672
30
0
41
1
10
-0.358037716131264
20
-6.30890123768719
30
0
41
1
10
-0.366345960396387
20
-6.31042877188762
30
0
41
1
10
-0.37039582601011
20
-6.31175696012832
30
0
41
1
10
-0.381850124236081
20
-6.31686284615006
30
0
41
1
10
-0.388651860853344
20
-6.32169800880934
30
0
41
1
10
-0.394913799811292
20
-6.32721828439901
30
0
0
SPLINE
5
13F
100
AcDbEntity
8
SK1
62
256
6
ByLayer
370
18
48
1
60
0
100
AcDbSpline
70
4
71
3
72
40
73
36
40
0
40
0
40
0
40
0
40
0.0156250000000005
40
0.0156250000000005
40
0.0312500000000011
40
0.0312500000000011
40
0.0468750000000016
40
0.0468750000000016
40
0.0625000000000022
40
0.0625000000000022
40
0.0781250000000027
40
0.0781250000000027
40
0.0937500000000033
40
0.0937500000000033
40
0.109375000000004
40
0.109375000000004
40
0.125000000000004
40
0.125000000000004
40
0.156250000000005
40
0.156250000000005
40
0.187500000000007
40
0.187500000000007
40
0.250000000000009
40
0.250000000000009
40
0.312500000000011
40
0.312500000000011
40
0.375000000000013
40
0.375000000000013
40
0.500000000000012
40
0.500000000000012
40
0.62500000000001
40
0.62500000000001
40
0.750000000000009
40
0.750000000000009
40
1
40
1
40
1
40
1
41
1
10
-0.394913799811292
20
6.32722135061286
30
0
41
1
10
-0.39176836682077
20
6.32444846033573
30
0
41
1
10
-0.388488406577181
20
6.32186168295425
30
0
41
1
10
-0.381566403142131
20
6.31718953975286
30
0
41
1
10
-0.377887007436868
20
6.31508659472502
30
0
41
1
10
-0.37022491081737
20
6.31169706442716
30
0
41
1
10
-0.366254804145342
20
6.31040674643401
30
0
41
1
10
-0.35794647802453
20
6.30889601700255
30
0
41
1
10
-0.353563907701925
20
6.30870335232461
30
0
41
1
10
-0.344995599835357
20
6.3096474881059
30
0
41
1
10
-0.340684924848716
20
6.31079560648985
30
0
41
1
10
-0.332576144960626
20
6.31417396688744
30
0
41
1
10
-0.328692242821006
20
6.31642240799482
30
0
41
1
10
-0.321489218115914
20
6.3215939456986
30
0
41
1
10
-0.318164476683506
20
6.32450219496934
30
0
41
1
10
-0.311908022590586
20
6.33077681434855
30
0
41
1
10
-0.308967085084731
20
6.33416203110167
30
0
41
1
10
-0.300766232707417
20
6.34461234463069
30
0
41
1
10
-0.296040108964064
20
6.35202357617757
30
0
41
1
10
-0.287432431444984
20
6.36735118199186
30
0
41
1
10
-0.283553316434961
20
6.37530507146633
30
0
41
1
10
-0.272955344086199
20
6.39930333387312
30
0
41
1
10
-0.267171029982791
20
6.41559723945636
30
0
41
1
10
-0.25692997095706
20
6.44848157748783
30
0
41
1
10
-0.25250502314799
20
6.46507959466703
30
0
41
1
10
-0.244556108211697
20
6.49847112557535
30
0
41
1
10
-0.241036901726744
20
6.51528035330136
30
0
41
1
10
-0.23149114194635
20
6.56582630636572
30
0
41
1
10
-0.226489017484568
20
6.5994729106236
30
0
41
1
10
-0.218114808322753
20
6.66667162394384
30
0
41
1
10
-0.214764318431179
20
6.70022371847915
30
0
41
1
10
-0.209239354999539
20
6.76723901782026
30
0
41
1
10
-0.207070996833011
20
6.80070221210741
30
0
41
1
10
-0.201940349251316
20
6.90096555412458
30
0
41
1
10
-0.200330815103371
20
6.96763966546041
30
0
41
1
10
-0.200000000000017
20
7.03416121607441
30
0
0
SPLINE
5
140
100
AcDbEntity
8
SK1
62
256
6
ByLayer
370
13
48
1
60
0
100
AcDbSpline
70
4
71
3
72
21
73
17
40
0
40
0
40
0
40
0
40
0.0620714910824458
40
0.13036051496976
40
0.198649538857074
40
0.266938562744388
40
0.335227586631702
40
0.403516610519016
40
0.47180563440633
40
0.608383682180957
40
0.676672706068271
40
0.744961729955585
40
0.813250753842899
40
0.881539777730213
40
0.949828801617527
40
1
40
1
40
1
40
1
41
1
10
-0.394913799811292
20
-6.32721828439904
30
0
41
1
10
-0.394913799811292
20
-6.90653762641452
30
0
41
1
10
-0.394913799811292
20
-8.09321756934102
30
0
41
1
10
-0.394913799811292
20
-9.80498157314139
30
0
41
1
10
-0.394913799811292
20
-11.4638140893219
30
0
41
1
10
-0.394913799811292
20
-13.0147246633634
30
0
41
1
10
-0.394913799811292
20
-14.4558606687731
30
0
41
1
10
-0.394913799811292
20
-15.7849097442956
30
0
41
1
10
-0.394913799811292
20
-17.4047594204778
30
0
41
1
10
-0.394913799811292
20
-18.7870404111631
30
0
41
1
10
-0.394913799811292
20
-19.9145928494951
30
0
41
1
10
-0.394913799811292
20
-20.6247618481558
30
0
41
1
10
-0.394913799811292
20
-21.1908658435729
30
0
41
1
10
-0.394913799811292
20
-21.6019834098091
30
0
41
1
10
-0.394913799811292
20
-21.8217384532977
30
0
41
1
10
-0.394913799811292
20
-21.8658202563548
30
0
41
1
10
-0.39491379981132
20
-21.8654706413013
30
0
0
SPLINE
5
141
100
AcDbEntity
8
SK1
62
256
6
ByLayer
370
18
48
1
60
0
100
AcDbSpline
70
4
71
3
72
51
73
47
40
0
40
0
40
0
40
0
40
0.0312500000000006
40
0.0312500000000006
40
0.0468750000000016
40
0.0468750000000016
40
0.0625000000000026
40
0.0625000000000026
40
0.0781250000000036
40
0.0781250000000036
40
0.0937500000000046
40
0.101562500000005
40
0.101562500000005
40
0.109375000000005
40
0.109375000000005
40
0.125000000000006
40
0.125000000000006
40
0.140625000000007
40
0.140625000000007
40
0.156250000000007
40
0.156250000000007
40
0.171875000000008
40
0.171875000000008
40
0.187500000000009
40
0.187500000000009
40
0.218750000000009
40
0.218750000000009
40
0.25000000000001
40
0.25000000000001
40
0.28125000000001
40
0.28125000000001
40
0.312500000000011
40
0.312500000000011
40
0.375000000000011
40
0.375000000000011
40
0.437500000000011
40
0.437500000000011
40
0.500000000000011
40
0.500000000000011
40
0.625000000000008
40
0.625000000000008
40
0.750000000000006
40
0.750000000000006
40
0.875000000000003
40
0.875000000000003
40
1
40
1
40
1
40
1
41
1
10
-0.394913799811292
20
-6.32721828439901
30
0
41
1
10
-0.411169702827039
20
-6.34154884003178
30
0
41
1
10
-0.428432689769124
20
-6.35475565889095
30
0
41
1
10
-0.456587609313431
20
-6.37205876567259
30
0
41
1
10
-0.466398416496645
20
-6.37741702774107
30
0
41
1
10
-0.486501972755633
20
-6.38684509374406
30
0
41
1
10
-0.496835484302608
20
-6.39094564046627
30
0
41
1
10
-0.518168362769302
20
-6.3976988542467
30
0
41
1
10
-0.529196261060889
20
-6.4003572033352
30
0
41
1
10
-0.551937271601957
20
-6.40390572644711
30
0
41
1
10
-0.569030850267808
20
-6.40516730683922
30
0
41
1
10
-0.586181679144261
20
-6.40431153762214
30
0
41
1
10
-0.597628364481892
20
-6.40326750190812
30
0
41
1
10
-0.603385608753428
20
-6.40250300130214
30
0
41
1
10
-0.620403474265572
20
-6.39954770653125
30
0
41
1
10
-0.631442528804882
20
-6.39670554026134
30
0
41
1
10
-0.652994271508675
20
-6.38952126343978
30
0
41
1
10
-0.6635762300306
20
-6.38514079164267
30
0
41
1
10
-0.6838456211714
20
-6.37529177227788
30
0
41
1
10
-0.693552428201002
20
-6.36983092851585
30
0
41
1
10
-0.712284737644694
20
-6.35805370019304
30
0
41
1
10
-0.721309333004712
20
-6.35173618101936
30
0
41
1
10
-0.738796592350639
20
-6.33839390811318
30
0
41
1
10
-0.747287558608093
20
-6.33134151096425
30
0
41
1
10
-0.771774774816237
20
-6.30953788138899
30
0
41
1
10
-0.786839616984622
20
-6.29414128632044
30
0
41
1
10
-0.815263156517972
20
-6.26217184383674
30
0
41
1
10
-0.82861191461663
20
-6.24559230293653
30
0
41
1
10
-0.854034688294348
20
-6.21154523857419
30
0
41
1
10
-0.866130482320528
20
-6.1940351189366
30
0
41
1
10
-0.889197260559286
20
-6.15850150199267
30
0
41
1
10
-0.90014045687775
20
-6.14052530360527
30
0
41
1
10
-0.931589886782064
20
-6.08609644673811
30
0
41
1
10
-0.950735693127655
20
-6.04915001273994
30
0
41
1
10
-0.986572619190127
20
-5.97432275637723
30
0
41
1
10
-1.00324847625177
20
-5.93643689983455
30
0
41
1
10
-1.03476146769921
20
-5.85992972493543
30
0
41
1
10
-1.04959296411107
20
-5.82130654980756
30
0
41
1
10
-1.09190951976353
20
-5.70451929766091
30
0
41
1
10
-1.11725974479191
20
-5.62540226977166
30
0
41
1
10
-1.1639578554223
20
-5.46549802550047
30
0
41
1
10
-1.18522246232584
20
-5.38492681950902
30
0
41
1
10
-1.22466451933835
20
-5.22271935203617
30
0
41
1
10
-1.2428321325454
20
-5.1410815354084
30
0
41
1
10
-1.27671142477865
20
-4.97683362134603
30
0
41
1
10
-1.29241814186358
20
-4.89422245258601
30
0
41
1
10
-1.30710678118655
20
-4.81115156937966
30
0
0
SPLINE
5
142
100
AcDbEntity
8
SK1
62
256
6
ByLayer
370
18
48
1
60
0
100
AcDbSpline
70
4
71
3
72
40
73
36
40
0
40
0
40
0
40
0
40
0.125000000000001
40
0.125000000000001
40
0.187500000000001
40
0.187500000000001
40
0.250000000000001
40
0.250000000000001
40
0.312500000000001
40
0.312500000000001
40
0.328125000000001
40
0.328125000000001
40
0.343750000000001
40
0.375
40
0.375
40
0.4375
40
0.4375
40
0.5
40
0.5625
40
0.5625
40
0.625
40
0.625
40
0.640625
40
0.640625
40
0.65625
40
0.65625
40
0.6875
40
0.6875
40
0.75
40
0.75
40
0.8125
40
0.8125
40
0.875
40
0.875
40
1
40
1
40
1
40
1
41
1
10
-1.30710678118655
20
-4.8111515693796
30
0
41
1
10
-1.37464191770107
20
-4.42920989906065
30
0
41
1
10
-1.43848245106358
20
-4.04286538655003
30
0
41
1
10
-1.52581080346147
20
-3.4555709451387
30
0
41
1
10
-1.55350142719044
20
-3.25850341404765
30
0
41
1
10
-1.60546482604906
20
-2.86151288497595
30
0
41
1
10
-1.62973519898719
20
-2.6615890156875
30
0
41
1
10
-1.67414509281366
20
-2.25856982386534
30
0
41
1
10
-1.69427910225542
20
-2.05547235697085
30
0
41
1
10
-1.71638790779505
20
-1.79939862844844
30
0
41
1
10
-1.72065969674747
20
-1.74803956652656
30
0
41
1
10
-1.72887208385961
20
-1.64527687502962
30
0
41
1
10
-1.74069036277351
20
-1.49111947898439
30
0
41
1
10
-1.75097190728465
20
-1.33692150334681
30
0
41
1
10
-1.76938952483024
20
-1.02847005779319
30
0
41
1
10
-1.77881369580271
20
-0.822761881301432
30
0
41
1
10
-1.79137807494828
20
-0.411189125581416
30
0
41
1
10
-1.79754609551321
20
0.0005418097730683
30
0
41
1
10
-1.79135312802683
20
0.412582134739552
30
0
41
1
10
-1.77873477820947
20
0.82478135977604
30
0
41
1
10
-1.76926982289669
20
1.03095952328059
30
0
41
1
10
-1.75383938151629
20
1.28877539719627
30
0
41
1
10
-1.75057294247844
20
1.340343237501
30
0
41
1
10
-1.74368713518695
20
1.44348814091276
30
0
41
1
10
-1.74006503391183
20
1.4951017046248
30
0
41
1
10
-1.72870229322061
20
1.64966999837915
30
0
41
1
10
-1.72047269473447
20
1.75227000555529
30
0
41
1
10
-1.69395938565037
20
2.05879746438532
30
0
41
1
10
-1.67384597566206
20
2.26145078101035
30
0
41
1
10
-1.629485287899
20
2.66369063393995
30
0
41
1
10
-1.60524340635007
20
2.86327920729124
30
0
41
1
10
-1.5533368167803
20
3.25969288493101
30
0
41
1
10
-1.52567448156807
20
3.45651882726707
30
0
41
1
10
-1.43842306954178
20
4.04321174825219
30
0
41
1
10
-1.374622793295
20
4.42931851789501
30
0
41
1
10
-1.3071067811866
20
4.81115177825131
30
0
0
SPLINE
5
143
100
AcDbEntity
8
SK1
62
256
6
ByLayer
370
18
48
1
60
0
100
AcDbSpline
70
4
71
3
72
51
73
47
40
0
40
0
40
0
40
0
40
0.125000000000003
40
0.125000000000003
40
0.250000000000005
40
0.250000000000005
40
0.375000000000008
40
0.375000000000008
40
0.50000000000001
40
0.50000000000001
40
0.562500000000011
40
0.562500000000011
40
0.625000000000011
40
0.625000000000011
40
0.687500000000011
40
0.687500000000011
40
0.718750000000011
40
0.718750000000011
40
0.75000000000001
40
0.75000000000001
40
0.781250000000009
40
0.781250000000009
40
0.812500000000009
40
0.812500000000009
40
0.828125000000008
40
0.828125000000008
40
0.843750000000008
40
0.843750000000008
40
0.859375000000007
40
0.859375000000007
40
0.875000000000007
40
0.875000000000007
40
0.906250000000005
40
0.906250000000005
40
0.914062500000005
40
0.914062500000005
40
0.921875000000005
40
0.937500000000004
40
0.937500000000004
40
0.953125000000003
40
0.953125000000003
40
0.968750000000002
40
0.968750000000002
40
0.984375000000001
40
0.984375000000001
40
1
40
1
40
1
40
1
41
1
10
-1.30710678118655
20
4.8111517782514
30
0
41
1
10
-1.29243386166999
20
4.89413370391597
30
0
41
1
10
-1.27674450029033
20
4.97666000857456
30
0
41
1
10
-1.24290388240135
20
5.14074733501747
30
0
41
1
10
-1.22475757478614
20
5.22230941297437
30
0
41
1
10
-1.18536324259088
20
5.38437609466149
30
0
41
1
10
-1.1641141016691
20
5.46491938757291
30
0
41
1
10
-1.11750013847291
20
5.62462479791714
30
0
41
1
10
-1.09222933922732
20
5.70354894528973
30
0
41
1
10
-1.05003902511504
20
5.82012130347704
30
0
41
1
10
-1.03525413522215
20
5.85867400558868
30
0
41
1
10
-1.00384791181236
20
5.93504366748635
30
0
41
1
10
-0.987232093239811
20
5.97286244830227
30
0
41
1
10
-0.951537336733765
20
6.0475612269523
30
0
41
1
10
-0.932473247849742
20
6.08444613540038
30
0
41
1
10
-0.901177592378616
20
6.13879101734139
30
0
41
1
10
-0.890290953598992
20
6.15674063815601
30
0
41
1
10
-0.867353405011528
20
6.19222552349751
30
0
41
1
10
-0.85525358147396
20
6.2098275518716
30
0
41
1
10
-0.829832017046726
20
6.24404146668815
30
0
41
1
10
-0.816508756328489
20
6.26067183093176
30
0
41
1
10
-0.78822917837428
20
6.29267436431064
30
0
41
1
10
-0.773280793926858
20
6.30805251056447
30
0
41
1
10
-0.749110346030392
20
6.32978409383841
30
0
41
1
10
-0.740759389627414
20
6.33680322085289
30
0
41
1
10
-0.723321143410601
20
6.3502808336809
30
0
41
1
10
-0.714177802118201
20
6.3567747780167
30
0
41
1
10
-0.695263535743464
20
6.36883407140752
30
0
41
1
10
-0.685506727928441
20
6.37439841042161
30
0
41
1
10
-0.665265234159847
20
6.38439885825292
30
0
41
1
10
-0.654728144683787
20
6.38885411254182
30
0
41
1
10
-0.622102468665219
20
6.39998734213981
30
0
41
1
10
-0.59968773121858
20
6.40423336369165
30
0
41
1
10
-0.570661631866017
20
6.40472651279043
30
0
41
1
10
-0.564821683089775
20
6.40457927715815
30
0
41
1
10
-0.553312890967476
20
6.40381092862668
30
0
41
1
10
-0.536205505855378
20
6.40195065166941
30
0
41
1
10
-0.519541799584147
20
6.39807453657346
30
0
41
1
10
-0.497682675631438
20
6.39127312214092
30
0
41
1
10
-0.487153207843136
20
6.38712350886505
30
0
41
1
10
-0.466917648563935
20
6.37769203793539
30
0
41
1
10
-0.457177342303623
20
6.37239779961379
30
0
41
1
10
-0.43831629492334
20
6.3608578974891
30
0
41
1
10
-0.429170091135489
20
6.35459039773457
30
0
41
1
10
-0.411568516590108
20
6.34138290087219
30
0
41
1
10
-0.403103547019441
20
6.33444111034481
30
0
41
1
10
-0.394913799811292
20
6.32722135062522
30
0
0
SPLINE
5
144
100
AcDbEntity
8
SK1
62
256
6
ByLayer
370
13
48
1
60
0
100
AcDbSpline
70
4
71
3
72
21
73
17
40
0
40
0
40
0
40
0
40
0.0501775021059605
40
0.118466080018457
40
0.186754657930954
40
0.255043235843451
40
0.323331813755948
40
0.391620391668445
40
0.528197547493439
40
0.596486125405935
40
0.664774703318432
40
0.733063281230929
40
0.801351859143426
40
0.869640437055923
40
0.93792901496842
40
1
40
1
40
1
40
1
41
1
10
-0.394913799811292
20
21.8654704309808
30
0
41
1
10
-0.394913799811292
20
21.8658250778984
30
0
41
1
10
-0.394913799811292
20
21.8217455490113
30
0
41
1
10
-0.394913799811292
20
21.6019829919256
30
0
41
1
10
-0.394913799811292
20
21.1908660117695
30
0
41
1
10
-0.394913799811292
20
20.6247611340725
30
0
41
1
10
-0.394913799811292
20
19.9145926563567
30
0
41
1
10
-0.394913799811292
20
18.7870406318774
30
0
41
1
10
-0.394913799811292
20
17.4047589502432
30
0
41
1
10
-0.394913799811292
20
15.7849099352292
30
0
41
1
10
-0.394913799811292
20
14.4558608746283
30
0
41
1
10
-0.394913799811292
20
13.014724351229
30
0
41
1
10
-0.394913799811292
20
11.4638144327396
30
0
41
1
10
-0.394913799811292
20
9.80498177095927
30
0
41
1
10
-0.394913799811292
20
8.09321828866487
30
0
41
1
10
-0.394913799811292
20
6.90653972901185
30
0
41
1
10
-0.394913799811292
20
6.32722135061286
30
0
0
SPLINE
5
145
100
AcDbEntity
8
SK1
62
256
6
ByLayer
370
13
48
1
60
0
100
AcDbSpline
70
4
71
3
72
49
73
45
40
0
40
0
40
0
40
0
40
0.0205803630466811
40
0.048784662756695
40
0.0769889624667089
40
0.105193262176723
40
0.133397561886737
40
0.161601861596751
40
0.218010461016779
40
0.246214760726792
40
0.274419060436806
40
0.30262336014682
40
0.330827659856834
40
0.359031959566848
40
0.387236259276862
40
0.415440558986876
40
0.429542708841883
40
0.44364485869689
40
0.457747008551897
40
0.471849158406904
40
0.485951308261911
40
0.493002383189414
40
0.500053458116918
40
0.507104533044421
40
0.514155607971925
40
0.528257757826932
40
0.542359907681939
40
0.556462057536945
40
0.570564207391952
40
0.584666357246959
40
0.612870656956973
40
0.641074956666987
40
0.669279256377001
40
0.697483556087015
40
0.725687855797029
40
0.753892155507043
40
0.782096455217057
40
0.838505054637085
40
0.866709354347099
40
0.894913654057113
40
0.923117953767126
40
0.95132225347714
40
0.979526553187154
40
1
40
1
40
1
40
1
41
1
10
-1.99503997793928
20
21.8252862049023
30
0
41
1
10
-1.99503997793928
20
21.825375563729
30
0
41
1
10
-1.99503997793931
20
21.781223090831
30
0
41
1
10
-1.99503997793928
20
21.5622159608078
30
0
41
1
10
-1.99503997793928
20
21.1516905297668
30
0
41
1
10
-1.99503997793928
20
20.5863476884834
30
0
41
1
10
-1.99503997793928
20
19.8770915138249
30
0
41
1
10
-1.99503997793928
20
18.7508484467722
30
0
41
1
10
-1.99503997793928
20
17.370463175446
30
0
41
1
10
-1.99503997793928
20
15.752471971849
30
0
41
1
10
-1.99503997793928
20
14.4250897201646
30
0
41
1
10
-1.99503997793928
20
12.985830725026
30
0
41
1
10
-1.99503997793928
20
11.4370507512064
30
0
41
1
10
-1.99503997793928
20
9.78067154978808
30
0
41
1
10
-1.99503997793928
20
8.01821733349291
30
0
41
1
10
-1.99503997793928
20
6.46319635117558
30
0
41
1
10
-1.99503997793928
20
5.16749918372616
30
0
41
1
10
-1.99503997793928
20
4.17226659327741
30
0
41
1
10
-1.99503997793928
20
3.15436880408234
30
0
41
1
10
-1.99503997793928
20
2.11640247274798
30
0
41
1
10
-1.99503997793928
20
1.23881045451824
30
0
41
1
10
-1.99503997793928
20
0.53126948289281
30
0
41
1
10
-1.99503997793928
20
7.43625606E-08
30
0
41
1
10
-1.99503997793928
20
-0.53126937109505
30
0
41
1
10
-1.99503997793928
20
-1.23881043770962
30
0
41
1
10
-1.99503997793928
20
-2.11640245296422
30
0
41
1
10
-1.99503997793928
20
-3.15436853749512
30
0
41
1
10
-1.99503997793928
20
-4.17226658860133
30
0
41
1
10
-1.99503997793928
20
-5.16749921349111
30
0
41
1
10
-1.99503997793928
20
-6.46319592062625
30
0
41
1
10
-1.99503997793928
20
-8.01821749841287
30
0
41
1
10
-1.99503997793928
20
-9.7806713457135
30
0
41
1
10
-1.99503997793928
20
-11.4370504129058
30
0
41
1
10
-1.99503997793928
20
-12.9858310385527
30
0
41
1
10
-1.99503997793928
20
-14.4250895103889
30
0
41
1
10
-1.99503997793928
20
-15.7524717843982
30
0
41
1
10
-1.99503997793928
20
-17.370463645283
30
0
41
1
10
-1.99503997793928
20
-18.7508482253859
30
0
41
1
10
-1.99503997793928
20
-19.8770917100388
30
0
41
1
10
-1.99503997793928
20
-20.5863484011186
30
0
41
1
10
-1.99503997793928
20
-21.1516903613971
30
0
41
1
10
-1.99503997793928
20
-21.5622163798915
30
0
41
1
10
-1.99503997793928
20
-21.7809196566912
30
0
41
1
10
-1.99503997793928
20
-21.8251817002904
30
0
41
1
10
-1.99503997793928
20
-21.8252861550241
30
0
0
SPLINE
5
146
100
AcDbEntity
8
SK1
62
256
6
ByLayer
370
18
48
1
60
0
100
AcDbSpline
70
4
71
3
72
49
73
45
40
0
40
0
40
0
40
0
40
0.0137023104142633
40
0.0423080706177902
40
0.0709138308213171
40
0.099519591024844
40
0.128125351228371
40
0.156731111431898
40
0.213942631838952
40
0.242548392042479
40
0.271154152246005
40
0.299759912449532
40
0.328365672653059
40
0.356971432856586
40
0.385577193060113
40
0.41418295326364
40
0.428485833365404
40
0.442788713467167
40
0.45709159356893
40
0.471394473670694
40
0.485697353772457
40
0.492848793823339
40
0.500000233874221
40
0.507151673925103
40
0.514303113975984
40
0.528605994077748
40
0.542908874179511
40
0.557211754281275
40
0.571514634383038
40
0.585817514484802
40
0.614423274688328
40
0.643029034891855
40
0.671634795095382
40
0.700240555298909
40
0.728846315502436
40
0.757452075705963
40
0.78605783590949
40
0.843269356316544
40
0.871875116520071
40
0.900480876723598
40
0.929086636927124
40
0.957692397130651
40
0.986298157334178
40
1
40
1
40
1
40
1
41
1
10
-2.19999999999999
20
22.0136323369166
30
0
41
1
10
-2.19999999999999
20
22.0053276289209
30
0
41
1
10
-2.19999999999999
20
21.9554440375687
30
0
41
1
10
-2.19999999999999
20
21.7550269215783
30
0
41
1
10
-2.19999999999999
20
21.3416333570605
30
0
41
1
10
-2.19999999999999
20
20.7725957724454
30
0
41
1
10
-2.19999999999999
20
20.0589162847047
30
0
41
1
10
-2.19999999999999
20
18.9263267207688
30
0
41
1
10
-2.19999999999999
20
17.5367466797246
30
0
41
1
10
-2.19999999999999
20
15.9097478536278
30
0
41
1
10
-2.19999999999999
20
14.5742840575192
30
0
41
1
10
-2.19999999999999
20
13.1259218425112
30
0
41
1
10
-2.19999999999999
20
11.5668148046225
30
0
41
1
10
-2.19999999999999
20
9.89853996914991
30
0
41
1
10
-2.19999999999999
20
8.12208977576526
30
0
41
1
10
-2.19999999999999
20
6.55235660022589
30
0
41
1
10
-2.19999999999999
20
5.24422917335971
30
0
41
1
10
-2.19999999999999
20
4.2375522406841
30
0
41
1
10
-2.19999999999999
20
3.20644372216569
30
0
41
1
10
-2.19999999999999
20
2.15314018801405
30
0
41
1
10
-2.19999999999999
20
1.26034253962158
30
0
41
1
10
-2.19999999999999
20
0.540965390862539
30
0
41
1
10
-2.19999999999999
20
2.64082871E-08
30
0
41
1
10
-2.19999999999999
20
-0.540965319759152
30
0
41
1
10
-2.19999999999999
20
-1.26034245765445
30
0
41
1
10
-2.19999999999999
20
-2.15314020845372
30
0
41
1
10
-2.19999999999999
20
-3.20644349821168
30
0
41
1
10
-2.19999999999999
20
-4.23755215854527
30
0
41
1
10
-2.19999999999999
20
-5.24422924769223
30
0
41
1
10
-2.19999999999999
20
-6.55235618011341
30
0
41
1
10
-2.19999999999999
20
-8.12208991237512
30
0
41
1
10
-2.19999999999999
20
-9.89853979541101
30
0
41
1
10
-2.19999999999999
20
-11.5668144415121
30
0
41
1
10
-2.19999999999999
20
-13.1259221492871
30
0
41
1
10
-2.19999999999999
20
-14.574283866752
30
0
41
1
10
-2.19999999999999
20
-15.9097476492909
30
0
41
1
10
-2.19999999999999
20
-17.5367471514895
30
0
41
1
10
-2.19999999999999
20
-18.9263265026412
30
0
41
1
10
-2.19999999999999
20
-20.0589164660072
30
0
41
1
10
-2.19999999999999
20
-20.7725964921017
30
0
41
1
10
-2.19999999999999
20
-21.3416331895302
30
0
41
1
10
-2.19999999999999
20
-21.7550273348429
30
0
41
1
10
-2.19999999999999
20
-21.9554433993306
30
0
41
1
10
-2.19999999999999
20
-22.0053267984005
30
0
41
1
10
-2.19999999999999
20
-22.0136316630983
30
0
0
SPLINE
5
147
100
AcDbEntity
8
SK1
62
256
6
ByLayer
370
18
48
1
60
0
100
AcDbSpline
70
4
71
3
72
49
73
45
40
0
40
0
40
0
40
0
40
0.0270948200239667
40
0.0549127535969534
40
0.0827306871699402
40
0.110548620742927
40
0.138366554315914
40
0.1661844878889
40
0.221820355034874
40
0.249638288607861
40
0.277456222180847
40
0.305274155753834
40
0.333092089326821
40
0.360910022899808
40
0.388727956472794
40
0.416545890045781
40
0.430454856832274
40
0.444363823618768
40
0.458272790405261
40
0.472181757191754
40
0.486090723978248
40
0.493045207371494
40
0.499999690764741
40
0.506954174157988
40
0.513908657551234
40
0.527817624337728
40
0.541726591124221
40
0.555635557910715
40
0.569544524697208
40
0.583453491483701
40
0.611271425056688
40
0.639089358629675
40
0.666907292202661
40
0.694725225775648
40
0.722543159348635
40
0.750361092921622
40
0.778179026494608
40
0.833814893640582
40
0.861632827213569
40
0.889450760786555
40
0.917268694359542
40
0.945086627932529
40
0.972904561505516
40
1
40
1
40
1
40
1
41
1
10
-36.5
20
21.1524103629009
30
0
41
1
10
-36.5
20
21.1690101687356
30
0
41
1
10
-36.5
20
21.1349478846202
30
0
41
1
10
-36.5
20
20.9025884164263
30
0
41
1
10
-36.5
20
20.5018751860753
30
0
41
1
10
-36.5
20
19.9491724688865
30
0
41
1
10
-36.5
20
19.2550489357272
30
0
41
1
10
-36.5
20
18.1505179338898
30
0
41
1
10
-36.5
20
16.8015889830236
30
0
41
1
10
-36.5
20
15.2144138486304
30
0
41
1
10
-36.5
20
13.9146794509994
30
0
41
1
10
-36.5
20
12.5065635742002
30
0
41
1
10
-36.5
20
10.9931136245939
30
0
41
1
10
-36.5
20
9.37743069816284
30
0
41
1
10
-36.5
20
7.6628582618342
30
0
41
1
10
-36.5
20
6.15816931379931
30
0
41
1
10
-36.5
20
4.9049974336175
30
0
41
1
10
-36.5
20
3.94891719908253
30
0
41
1
10
-36.5
20
2.97621477071243
30
0
41
1
10
-36.5
20
1.99071870036124
30
0
41
1
10
-36.5
20
1.16514681856438
30
0
41
1
10
-36.5
20
0.498098713248481
30
0
41
1
10
-36.5
20
2.384194602E-07
30
0
41
1
10
-36.5
20
-0.498098462230814
30
0
41
1
10
-36.5
20
-1.16514702467006
30
0
41
1
10
-36.5
20
-1.99071854296869
30
0
41
1
10
-36.5
20
-2.97621435827227
30
0
41
1
10
-36.5
20
-3.94891745941501
30
0
41
1
10
-36.5
20
-4.90499731091177
30
0
41
1
10
-36.5
20
-6.15816884754437
30
0
41
1
10
-36.5
20
-7.6628585236061
30
0
41
1
10
-36.5
20
-9.37743039030653
30
0
41
1
10
-36.5
20
-10.9931133711701
30
0
41
1
10
-36.5
20
-12.5065639108223
30
0
41
1
10
-36.5
20
-13.9146791761936
30
0
41
1
10
-36.5
20
-15.2144137189484
30
0
41
1
10
-36.5
20
-16.8015894462653
30
0
41
1
10
-36.5
20
-18.1505177013548
30
0
41
1
10
-36.5
20
-19.2550491829544
30
0
41
1
10
-36.5
20
-19.9491731575018
30
0
41
1
10
-36.5
20
-20.5018750148337
30
0
41
1
10
-36.5
20
-20.9025888554179
30
0
41
1
10
-36.5
20
-21.1349503335906
30
0
41
1
10
-36.5
20
-21.1690108792566
30
0
41
1
10
-36.5
20
-21.1524093345051
30
0
0
SPLINE
5
148
100
AcDbEntity
8
1
62
256
6
ByLayer
370
18
48
1
60
0
100
AcDbSpline
70
4
71
3
72
19
73
15
40
0
40
0
40
0
40
0
40
0.105598795309681
40
0.207133056767996
40
0.304606247524384
40
0.398022283830774
40
0.487385615464957
40
0.572701326119398
40
0.653975258965674
40
0.73121417467844
40
0.804425952125476
40
0.873619846083032
40
0.938806822394226
40
1
40
1
40
1
40
1
41
1
10
64.4823668306205
20
36.4776750718665
30
0
41
1
10
64.4761086181712
20
36.4782870900591
30
0
41
1
10
64.4638330740164
20
36.4794875696541
30
0
41
1
10
64.445812800454
20
36.481553616436
30
0
41
1
10
64.4285391192214
20
36.4837551454804
30
0
41
1
10
64.4120140189842
20
36.4860978813081
30
0
41
1
10
64.3962369707869
20
36.4885626162636
30
0
41
1
10
64.3812080910707
20
36.4911369091328
30
0
41
1
10
64.3669272661606
20
36.4938068948707
30
0
41
1
10
64.3533946416577
20
36.496560333165
30
0
41
1
10
64.3406095573262
20
36.4993826094121
30
0
41
1
10
64.3285740432235
20
36.5022690347738
30
0
41
1
10
64.3172808603112
20
36.5051831845824
30
0
41
1
10
64.3100347419724
20
36.5072591336836
30
0
41
1
10
64.3065261768004
20
36.5082643067121
30
0
0
SPLINE
5
149
100
AcDbEntity
8
1
62
256
6
ByLayer
370
18
48
1
60
0
100
AcDbSpline
70
4
71
3
72
16
73
12
40
0
40
0
40
0
40
0
40
0.118227901208987
40
0.234676362797987
40
0.349345481218964
40
0.462235357484024
40
0.573346097457547
40
0.68267781217228
40
0.79023061817124
40
0.896004637878248
40
1
40
1
40
1
40
1
41
1
10
65.1702887043922
20
36.4231567246315
30
0
41
1
10
65.1431521268273
20
36.4249459057046
30
0
41
1
10
65.0892874023706
20
36.4284973390152
30
0
41
1
10
65.0091247133965
20
36.4341149328072
30
0
41
1
10
64.9302034041849
20
36.4398842922495
30
0
41
1
10
64.8525249527706
20
36.4458195529489
30
0
41
1
10
64.7760890095599
20
36.4519060937804
30
0
41
1
10
64.7008955277786
20
36.4581350619982
30
0
41
1
10
64.6269450208384
20
36.464503242839
30
0
41
1
10
64.5542355274142
20
36.47098067651
30
0
41
1
10
64.5061872606913
20
36.4754562563972
30
0
41
1
10
64.4823668305905
20
36.4776750718746
30
0
0
SPLINE
5
14A
100
AcDbEntity
8
1
62
256
6
ByLayer
370
18
48
1
60
0
100
AcDbSpline
70
4
71
2
72
10
73
7
40
0
40
0
40
0
40
0.5
40
0.5
40
0.75
40
0.75
40
1
40
1
40
1
41
1
10
65.1703211835009
20
36.4231546138054
30
0
41
1
10
65.4005090492973
20
36.4081661807809
30
0
41
1
10
65.5813994958528
20
36.3721780710569
30
0
41
1
10
65.6977168199748
20
36.3490367681135
30
0
41
1
10
65.7815407125731
20
36.3191813268257
30
0
41
1
10
65.9246417322628
20
36.2682132321794
30
0
41
1
10
65.9499902265212
20
36.2071031291621
30
0
0
SPLINE
5
14B
100
AcDbEntity
8
1
62
256
6
ByLayer
370
18
48
1
60
0
100
AcDbSpline
70
4
71
2
72
6
73
3
40
0
40
0
40
0
40
1
40
1
40
1
41
1
10
65.9499902266712
20
36.2071031292482
30
0
41
1
10
65.9884919085577
20
36.1120066530032
30
0
41
1
10
65.9886043049812
20
36.0164168348176
30
0
0
SPLINE
5
14C
100
AcDbEntity
8
1
62
256
6
ByLayer
370
18
48
1
60
0
100
AcDbSpline
70
4
71
3
72
24
73
20
40
0
40
0
40
0
40
0
40
0.0615883759047159
40
0.122688254024812
40
0.183326299851774
40
0.243529792548003
40
0.30332660600417
40
0.362745186445435
40
0.421814526539202
40
0.480564136000261
40
0.539024008730835
40
0.597224586585027
40
0.655196719894264
40
0.712971624940702
40
0.770580838619306
40
0.828056170570622
40
0.885429653119886
40
0.942733489390634
40
1
40
1
40
1
40
1
41
1
10
65.9499902266705
20
35.7856377325548
30
0
41
1
10
65.9514760409691
20
35.7893652448864
30
0
41
1
10
65.9544358845992
20
35.7967907042057
30
0
41
1
10
65.9585659721741
20
35.8080050327693
30
0
41
1
10
65.9624450214139
20
35.8192164323653
30
0
41
1
10
65.9660526456095
20
35.8304332478366
30
0
41
1
10
65.9693942359556
20
35.8416528346912
30
0
41
1
10
65.9724683525933
20
35.852875459624
30
0
41
1
10
65.9752753669345
20
35.8641006163944
30
0
41
1
10
65.9778151708747
20
35.8753280028494
30
0
41
1
10
65.9800877810845
20
35.8865572616704
30
0
41
1
10
65.9820931925116
20
35.8977880492712
30
0
41
1
10
65.9838313661188
20
35.9090200174908
30
0
41
1
10
65.9853024227055
20
35.9202528187488
30
0
41
1
10
65.9865058842013
20
35.9314861039914
30
0
41
1
10
65.9874435045147
20
35.9427195262444
30
0
41
1
10
65.9881087368342
20
35.9539527290415
30
0
41
1
10
65.9885259471525
20
35.9651853896949
30
0
41
1
10
65.988578191378
20
35.9726741976416
30
0
41
1
10
65.9886043049804
20
35.9764173817326
30
0
0
SPLINE
5
14D
100
AcDbEntity
8
1
62
256
6
ByLayer
370
18
48
1
60
0
100
AcDbSpline
70
4
71
3
72
43
73
39
40
0
40
0
40
0
40
0
40
0.0409973406366614
40
0.0809092982715877
40
0.119736159842851
40
0.157478237047541
40
0.194135869264803
40
0.229709426921881
40
0.264199315386301
40
0.297605979485299
40
0.329929908777832
40
0.361171643733667
40
0.3913317830129
40
0.42041099208853
40
0.448410013519431
40
0.475329679265274
40
0.501170925548144
40
0.572592867093718
40
0.638080914696126
40
0.69767098279937
40
0.75141081247524
40
0.772779913618562
40
0.793234602755305
40
0.812782181749371
40
0.831431018019205
40
0.849190749344534
40
0.866072536338498
40
0.882089374987184
40
0.897256484840493
40
0.911591792130993
40
0.925116531009045
40
0.937855989439954
40
0.949840427402954
40
0.961106190504035
40
0.971697025976523
40
0.981665570834281
40
0.991074911407357
40
1
40
1
40
1
40
1
41
1
10
65.1703211835004
20
35.5677012928327
30
0
41
1
10
65.1815955433727
20
35.568487973787
30
0
41
1
10
65.2038457803772
20
35.5700405087317
30
0
41
1
10
65.236747485262
20
35.5726830735261
30
0
41
1
10
65.2687343870515
20
35.5755008948066
30
0
41
1
10
65.2998047803207
20
35.578503432263
30
0
41
1
10
65.3299591078152
20
35.5816704311093
30
0
41
1
10
65.3591972610574
20
35.5849896112212
30
0
41
1
10
65.3875192737302
20
35.5884470173951
30
0
41
1
10
65.4149251441993
20
35.5920295213466
30
0
41
1
10
65.441414880249
20
35.5957242057285
30
0
41
1
10
65.4669884910954
20
35.599518536159
30
0
41
1
10
65.491645978211
20
35.6034003544124
30
0
41
1
10
65.5153873786592
20
35.6073578226334
30
0
41
1
10
65.5382126108914
20
35.6113797010362
30
0
41
1
10
65.5601220206578
20
35.6154543959535
30
0
41
1
10
65.5937486984556
20
35.62205230806
30
0
41
1
10
65.6376602656585
20
35.6315355015325
30
0
41
1
10
65.6903147855794
20
35.644651590823
30
0
41
1
10
65.7378060332947
20
35.6582782126089
30
0
41
1
10
65.7731644417993
20
35.6699832061776
30
0
41
1
10
65.7979490400559
20
35.6791631437361
30
0
41
1
10
65.8137384431469
20
35.6854093824746
30
0
41
1
10
65.8286893772281
20
35.6917360968125
30
0
41
1
10
65.8428019685629
20
35.6981372504287
30
0
41
1
10
65.8560763753176
20
35.7046066369215
30
0
41
1
10
65.8685127830696
20
35.711138164916
30
0
41
1
10
65.8801114087746
20
35.7177258090043
30
0
41
1
10
65.8908725094801
20
35.7243636460535
30
0
41
1
10
65.9007963582663
20
35.7310458898155
30
0
41
1
10
65.9098833178303
20
35.7377668936759
30
0
41
1
10
65.9181335453687
20
35.7445213151761
30
0
41
1
10
65.9255478947304
20
35.7513037629343
30
0
41
1
10
65.9321246317886
20
35.7581102385112
30
0
41
1
10
65.9378702438275
20
35.764933456239
30
0
41
1
10
65.9427620013422
20
35.7717789176499
30
0
41
1
10
65.9468749657513
20
35.7786098472507
30
0
41
1
10
65.9489702532913
20
35.7833367198245
30
0
41
1
10
65.9499902265204
20
35.7856377326406
30
0
0
SPLINE
5
14E
100
AcDbEntity
8
1
62
256
6
ByLayer
370
18
48
1
60
0
100
AcDbSpline
70
4
71
2
72
6
73
3
40
0
40
0
40
0
40
1
40
1
40
1
41
1
10
65.1702887043926
20
35.5676991034814
30
0
41
1
10
64.8195527839454
20
35.5440475894549
30
0
41
1
10
64.4823668305912
20
35.5115176122435
30
0
0
SPLINE
5
14F
100
AcDbEntity
8
1
62
256
6
ByLayer
370
18
48
1
60
0
100
AcDbSpline
70
4
71
2
72
6
73
3
40
0
40
0
40
0
40
1
40
1
40
1
41
1
10
64.4823668306208
20
35.5115176122515
30
0
41
1
10
64.3769907517287
20
35.5012990899635
30
0
41
1
10
64.306526176801
20
35.4805032588874
30
0
0
LINE
5
7D
100
AcDbEntity
8
1
62
256
6
ByLayer
370
18
48
1
60
0
100
AcDbLine
10
22.279208
20
31.5
30
0
11
0.3
21
31.5
31
0
39
0
210
0
220
0
230
1
0
LINE
5
7E
100
AcDbEntity
8
1
62
256
6
ByLayer
370
18
48
1
60
0
100
AcDbLine
10
0.3
20
-31.5
30
0
11
22
21
-31.5
31
0
39
0
210
0
220
0
230
1
0
LINE
5
7F
100
AcDbEntity
8
1
62
256
6
ByLayer
370
18
48
1
60
0
100
AcDbLine
10
0
20
-31.2
30
0
11
0.3
21
-31.5
31
0
39
0
210
0
220
0
230
1
0
LINE
5
80
100
AcDbEntity
8
1
62
256
6
ByLayer
370
18
48
1
60
0
100
AcDbLine
10
0.3
20
31.5
30
0
11
0
21
31.2
31
0
39
0
210
0
220
0
230
1
0
LINE
5
81
100
AcDbEntity
8
81
62
256
6
ByLayer
370
18
48
1
60
0
100
AcDbLine
10
70
20
39
30
0
11
75
21
39
31
0
39
0
210
0
220
0
230
1
0
LINE
5
82
100
AcDbEntity
8
80
62
256
6
ByLayer
370
18
48
1
60
0
100
AcDbLine
10
0
20
0
30
0
11
-5
21
0
31
0
39
0
210
0
220
0
230
1
0
LINE
5
83
100
AcDbEntity
8
1
62
256
6
ByLayer
370
18
48
1
60
0
100
AcDbLine
10
60.33771
20
38.770208
30
0
11
60.338007
21
38.936835
31
0
39
0
210
0
220
0
230
1
0
LINE
5
84
100
AcDbEntity
8
1
62
256
6
ByLayer
370
18
48
1
60
0
100
AcDbLine
10
62.807085
20
38.624458
30
0
11
62.807632
21
38.931321
31
0
39
0
210
0
220
0
230
1
0
LINE
5
85
100
AcDbEntity
8
1
62
256
6
ByLayer
370
13
48
1
60
0
100
AcDbLine
10
23.577374
20
32.65
30
0
11
28.2
21
32.65
31
0
39
0
210
0
220
0
230
1
0
LINE
5
86
100
AcDbEntity
8
1
62
256
6
ByLayer
370
13
48
1
60
0
100
AcDbLine
10
28.2
20
32.65
30
0
11
28.2
21
31.65
31
0
39
0
210
0
220
0
230
1
0
LINE
5
87
100
AcDbEntity
8
1
62
256
6
ByLayer
370
13
48
1
60
0
100
AcDbLine
10
28.2
20
32.65
30
0
11
28.2
21
38.865668
31
0
39
0
210
0
220
0
230
1
0
LINE
5
88
100
AcDbEntity
8
1
62
256
6
ByLayer
370
13
48
1
60
0
100
AcDbLine
10
28.2
20
32.65
30
0
11
31.893244
21
32.65
31
0
39
0
210
0
220
0
230
1
0
LINE
5
89
100
AcDbEntity
8
1
62
256
6
ByLayer
370
18
48
1
60
0
100
AcDbLine
10
31.893244
20
32.65
30
0
11
31.893244
21
38.716271
31
0
39
0
210
0
220
0
230
1
0
LINE
5
8A
100
AcDbEntity
8
1
62
256
6
ByLayer
370
18
48
1
60
0
100
AcDbLine
10
69
20
39.664257
30
0
11
69
21
38.982615
31
0
39
0
210
0
220
0
230
1
0
LINE
5
8B
100
AcDbEntity
8
1
62
256
6
ByLayer
370
18
48
1
60
0
100
AcDbLine
10
59.152999
20
48.093441
30
0
11
29.589036
21
48.093441
31
0
39
0
210
0
220
0
230
1
0
LINE
5
8C
100
AcDbEntity
8
1
62
256
6
ByLayer
370
18
48
1
60
0
100
AcDbLine
10
25.231852
20
38.865668
30
0
11
28.2
21
38.865668
31
0
39
0
210
0
220
0
230
1
0
LINE
5
8D
100
AcDbEntity
8
1
62
256
6
ByLayer
370
18
48
1
60
0
100
AcDbLine
10
32.400067
20
38.716271
30
0
11
31.893244
21
38.716271
31
0
39
0
210
0
220
0
230
1
0
LINE
5
8E
100
AcDbEntity
8
1
62
256
6
ByLayer
370
18
48
1
60
0
100
AcDbLine
10
58.644535
20
38.936835
30
0
11
60.338007
21
38.936835
31
0
39
0
210
0
220
0
230
1
0
LINE
5
8F
100
AcDbEntity
8
1
62
256
6
ByLayer
370
18
48
1
60
0
100
AcDbLine
10
62.807632
20
38.931321
30
0
11
68.119232
21
38.931321
31
0
39
0
210
0
220
0
230
1
0
LINE
5
90
100
AcDbEntity
8
1
62
256
6
ByLayer
370
18
48
1
60
0
100
AcDbLine
10
32.279219
20
38.684458
30
0
11
32.279219
21
32.65
31
0
39
0
210
0
220
0
230
1
0
LINE
5
91
100
AcDbEntity
8
1
62
256
6
ByLayer
370
13
48
1
60
0
100
AcDbLine
10
32.4
20
32.65
30
0
11
32.279219
21
32.65
31
0
39
0
210
0
220
0
230
1
0
LINE
5
92
100
AcDbEntity
8
1
62
256
6
ByLayer
370
18
48
1
60
0
100
AcDbLine
10
50.399995
20
31.854697
30
0
11
50.404362
21
31.854697
31
0
39
0
210
0
220
0
230
1
0
LINE
5
93
100
AcDbEntity
8
1
62
256
6
ByLayer
370
18
48
1
60
0
100
AcDbLine
10
61.509138
20
33.402212
30
0
11
61.502936
21
33.361738
31
0
39
0
210
0
220
0
230
1
0
LINE
5
94
100
AcDbEntity
8
1
62
256
6
ByLayer
370
18
48
1
60
0
100
AcDbLine
10
61.464591
20
38.705186
30
0
11
61.508798
21
38.433825
31
0
39
0
210
0
220
0
230
1
0
LINE
5
95
100
AcDbEntity
8
1
62
256
6
ByLayer
370
18
48
1
60
0
100
AcDbLine
10
29.399843
20
31.65
30
0
11
28.400157
21
31.65
31
0
39
0
210
0
220
0
230
1
0
LINE
5
96
100
AcDbEntity
8
1
62
256
6
ByLayer
370
18
48
1
60
0
100
AcDbLine
10
29.399843
20
-16.750098
30
0
11
28.400157
21
-16.750098
31
0
39
0
210
0
220
0
230
1
0
LINE
5
97
100
AcDbEntity
8
1
62
256
6
ByLayer
370
18
48
1
60
0
100
AcDbLine
10
32.279219
20
38.684458
30
0
11
32.400021
21
38.684458
31
0
39
0
210
0
220
0
230
1
0
LINE
5
98
100
AcDbEntity
8
1
62
256
6
ByLayer
370
13
48
1
60
0
100
AcDbLine
10
52
20
34.662005
30
0
11
52
21
33.367634
31
0
39
0
210
0
220
0
230
1
0
LINE
5
99
100
AcDbEntity
8
1
62
256
6
ByLayer
370
18
48
1
60
0
100
AcDbLine
10
50.4
20
33.325041
30
0
11
50.4
21
31.783934
31
0
39
0
210
0
220
0
230
1
0
LINE
5
9A
100
AcDbEntity
8
1
62
256
6
ByLayer
370
18
48
1
60
0
100
AcDbLine
10
51.216625
20
39.832053
30
0
11
48.360368
21
39.832053
31
0
39
0
210
0
220
0
230
1
0
LINE
5
9B
100
AcDbEntity
8
1
62
256
6
ByLayer
370
18
48
1
60
0
100
AcDbLine
10
50.4
20
33.325041
30
0
11
50.4
21
33.325515
31
0
39
0
210
0
220
0
230
1
0
LINE
5
9C
100
AcDbEntity
8
1
62
256
6
ByLayer
370
18
48
1
60
0
100
AcDbLine
10
58.5
20
38.954908
30
0
11
58.5
21
33.68515
31
0
39
0
210
0
220
0
230
1
0
LINE
5
9D
100
AcDbEntity
8
1
62
256
6
ByLayer
370
13
48
1
60
0
100
AcDbLine
10
48.360368
20
33.325041
30
0
11
50.4
21
33.325041
31
0
39
0
210
0
220
0
230
1
0
LINE
5
9E
100
AcDbEntity
8
1
62
256
6
ByLayer
370
18
48
1
60
0
100
AcDbLine
10
26.134683
20
31.65
30
0
11
28.4
21
31.65
31
0
39
0
210
0
220
0
230
1
0
LINE
5
9F
100
AcDbEntity
8
1
62
256
6
ByLayer
370
18
48
1
60
0
100
AcDbLine
10
28.4
20
-16.750098
30
0
11
26.134683
21
-16.750098
31
0
39
0
210
0
220
0
230
1
0
LINE
5
A0
100
AcDbEntity
8
1
62
256
6
ByLayer
370
18
48
1
60
0
100
AcDbLine
10
28.4
20
31.65
30
0
11
28.4
21
-16.750098
31
0
39
0
210
0
220
0
230
1
0
LINE
5
A1
100
AcDbEntity
8
1
62
256
6
ByLayer
370
18
48
1
60
0
100
AcDbLine
10
29.4
20
31.65
30
0
11
31.4
21
31.65
31
0
39
0
210
0
220
0
230
1
0
LINE
5
A2
100
AcDbEntity
8
1
62
256
6
ByLayer
370
18
48
1
60
0
100
AcDbLine
10
38.9
20
-16.750098
30
0
11
29.4
21
-16.750098
31
0
39
0
210
0
220
0
230
1
0
LINE
5
A3
100
AcDbEntity
8
1
62
256
6
ByLayer
370
18
48
1
60
0
100
AcDbLine
10
38.9
20
-16.750098
30
0
11
50.4
21
19.349902
31
0
39
0
210
0
220
0
230
1
0
LINE
5
A4
100
AcDbEntity
8
1
62
256
6
ByLayer
370
18
48
1
60
0
100
AcDbLine
10
29.4
20
-16.750098
30
0
11
29.4
21
31.65
31
0
39
0
210
0
220
0
230
1
0
LINE
5
A5
100
AcDbEntity
8
1
62
256
6
ByLayer
370
18
48
1
60
0
100
AcDbLine
10
50.4
20
19.349902
30
0
11
50.4
21
31.783934
31
0
39
0
210
0
220
0
230
1
0
LINE
5
A6
100
AcDbEntity
8
1
62
256
6
ByLayer
370
18
48
1
60
0
100
AcDbLine
10
48.360368
20
33.325041
30
0
11
48.360368
21
39.832053
31
0
39
0
210
0
220
0
230
1
0
LINE
5
A7
100
AcDbEntity
8
1
62
256
6
ByLayer
370
18
48
1
60
0
100
AcDbLine
10
32.4
20
39.832053
30
0
11
48.360368
21
39.832053
31
0
39
0
210
0
220
0
230
1
0
LINE
5
A8
100
AcDbEntity
8
1
62
256
6
ByLayer
370
18
48
1
60
0
100
AcDbLine
10
32.4
20
32.65
30
0
11
32.4
21
39.832053
31
0
39
0
210
0
220
0
230
1
0
LINE
5
A9
100
AcDbEntity
8
1
62
256
6
ByLayer
370
13
48
1
60
0
100
AcDbLine
10
23.438319
20
31.65
30
0
11
23.438319
21
29.608867
31
0
39
0
210
0
220
0
230
1
0
LINE
5
AA
100
AcDbEntity
8
1
62
256
6
ByLayer
370
13
48
1
60
0
100
AcDbLine
10
26.134683
20
31.65
30
0
11
26.134683
21
-16.750098
31
0
39
0
210
0
220
0
230
1
0
LINE
5
AB
100
AcDbEntity
8
1
62
256
6
ByLayer
370
18
48
1
60
0
100
AcDbLine
10
26.134683
20
31.65
30
0
11
23.903877
21
31.65
31
0
39
0
210
0
220
0
230
1
0
LINE
5
AC
100
AcDbEntity
8
1
62
256
6
ByLayer
370
18
48
1
60
0
100
AcDbLine
10
26.093965
20
-16.750098
30
0
11
26.134683
21
-16.750098
31
0
39
0
210
0
220
0
230
1
0
LINE
5
AD
100
AcDbEntity
8
1
62
256
6
ByLayer
370
13
48
1
60
0
100
AcDbLine
10
13.461325
20
-9.349221
30
0
11
13.461325
21
-30.080593
31
0
39
0
210
0
220
0
230
1
0
LINE
5
AE
100
AcDbEntity
8
1
62
256
6
ByLayer
370
13
48
1
60
0
100
AcDbLine
10
13.894338
20
-9.869413
30
0
11
13.894338
21
-29.913955
31
0
39
0
210
0
220
0
230
1
0
LINE
5
AF
100
AcDbEntity
8
1
62
256
6
ByLayer
370
13
48
1
60
0
100
AcDbLine
10
10.105662
20
29.913955
30
0
11
10.105662
21
9.869413
31
0
39
0
210
0
220
0
230
1
0
LINE
5
B0
100
AcDbEntity
8
1
62
256
6
ByLayer
370
13
48
1
60
0
100
AcDbLine
10
10.538675
20
30.080593
30
0
11
10.538675
21
9.349221
31
0
39
0
210
0
220
0
230
1
0
LINE
5
B1
100
AcDbEntity
8
1
62
256
6
ByLayer
370
13
48
1
60
0
100
AcDbLine
10
10.105662
20
-9.869413
30
0
11
10.105662
21
-29.913955
31
0
39
0
210
0
220
0
230
1
0
LINE
5
B2
100
AcDbEntity
8
1
62
256
6
ByLayer
370
13
48
1
60
0
100
AcDbLine
10
10.538675
20
-9.349221
30
0
11
10.538675
21
-30.080593
31
0
39
0
210
0
220
0
230
1
0
LINE
5
B3
100
AcDbEntity
8
1
62
256
6
ByLayer
370
13
48
1
60
0
100
AcDbLine
10
13.461325
20
30.080593
30
0
11
13.461325
21
9.349221
31
0
39
0
210
0
220
0
230
1
0
LINE
5
B4
100
AcDbEntity
8
1
62
256
6
ByLayer
370
13
48
1
60
0
100
AcDbLine
10
13.894338
20
29.913955
30
0
11
13.894338
21
9.869413
31
0
39
0
210
0
220
0
230
1
0
LINE
5
B5
100
AcDbEntity
8
1
62
256
6
ByLayer
370
18
48
1
60
0
100
AcDbLine
10
13.461325
20
9.349221
30
0
11
10.538675
21
9.349221
31
0
39
0
210
0
220
0
230
1
0
LINE
5
B6
100
AcDbEntity
8
1
62
256
6
ByLayer
370
18
48
1
60
0
100
AcDbLine
10
10.538675
20
30.080593
30
0
11
13.461325
21
30.080593
31
0
39
0
210
0
220
0
230
1
0
LINE
5
B7
100
AcDbEntity
8
1
62
256
6
ByLayer
370
18
48
1
60
0
100
AcDbLine
10
10.538675
20
-9.349221
30
0
11
13.461325
21
-9.349221
31
0
39
0
210
0
220
0
230
1
0
LINE
5
B8
100
AcDbEntity
8
1
62
256
6
ByLayer
370
18
48
1
60
0
100
AcDbLine
10
13.461325
20
-30.080593
30
0
11
10.538675
21
-30.080593
31
0
39
0
210
0
220
0
230
1
0
LINE
5
B9
100
AcDbEntity
8
1
62
256
6
ByLayer
370
18
48
1
60
0
100
AcDbLine
10
22.080515
20
-22.273864
30
0
11
22
21
-31.5
31
0
39
0
210
0
220
0
230
1
0
LINE
5
BA
100
AcDbEntity
8
1
62
256
6
ByLayer
370
13
48
1
60
0
100
AcDbLine
10
22.279208
20
31.5
30
0
11
22.279208
21
27.689091
31
0
39
0
210
0
220
0
230
1
0
LINE
5
BB
100
AcDbEntity
8
1
62
256
6
ByLayer
370
18
48
1
60
0
100
AcDbLine
10
0.3
20
-31.5
30
0
11
0.3
21
31.5
31
0
39
0
210
0
220
0
230
1
0
LINE
5
BC
100
AcDbEntity
8
1
62
256
6
ByLayer
370
18
48
1
60
0
100
AcDbLine
10
0
20
-31.2
30
0
11
0
21
31.2
31
0
39
0
210
0
220
0
230
1
0
LINE
5
BD
100
AcDbEntity
8
1
62
256
6
ByLayer
370
18
48
1
60
0
100
AcDbLine
10
22.094118
20
-20.715192
30
0
11
22.080515
21
-22.273864
31
0
39
0
210
0
220
0
230
1
0
LINE
5
BE
100
AcDbEntity
8
1
62
256
6
ByLayer
370
13
48
1
60
0
100
AcDbLine
10
22.134835
20
-20.179756
30
0
11
22.134835
21
27.104738
31
0
39
0
210
0
220
0
230
1
0
LINE
5
BF
100
AcDbEntity
8
SK1
62
256
6
ByLayer
370
18
48
1
60
0
100
AcDbLine
10
-0.2
20
-7.034158
30
0
11
-0.2
21
-22.533485
31
0
39
0
210
0
220
0
230
1
0
LINE
5
C1
100
AcDbEntity
8
SK1
62
256
6
ByLayer
370
18
48
1
60
0
100
AcDbLine
10
-0.2
20
22.533485
30
0
11
-0.2
21
7.034161
31
0
39
0
210
0
220
0
230
1
0
LINE
5
C2
100
AcDbEntity
8
SK1
62
256
6
ByLayer
370
13
48
1
60
0
100
AcDbLine
10
-1.307107
20
4.811152
30
0
11
-1.307107
21
-4.811152
31
0
39
0
210
0
220
0
230
1
0
LINE
5
C3
100
AcDbEntity
8
1
62
256
6
ByLayer
370
18
48
1
60
0
100
AcDbLine
10
69.576744
20
39.016197
30
0
11
67.568682
21
38.899254
31
0
39
0
210
0
220
0
230
1
0
LINE
5
C4
100
AcDbEntity
8
1
62
256
6
ByLayer
370
18
48
1
60
0
100
AcDbLine
10
69.576744
20
32.983885
30
0
11
67.568682
21
33.100828
31
0
39
0
210
0
220
0
230
1
0
LINE
5
C5
100
AcDbEntity
8
1
62
256
6
ByLayer
370
18
48
1
60
0
100
AcDbLine
10
70
20
38.616879
30
0
11
70
21
33.383203
31
0
39
0
210
0
220
0
230
1
0
LINE
5
C6
100
AcDbEntity
8
1
62
256
6
ByLayer
370
18
48
1
60
0
100
AcDbLine
10
67.568682
20
38.899254
30
0
11
67.143073
21
38.918851
31
0
39
0
210
0
220
0
230
1
0
LINE
5
C7
100
AcDbEntity
8
1
62
256
6
ByLayer
370
18
48
1
60
0
100
AcDbLine
10
67.568682
20
33.100828
30
0
11
67.143073
21
33.076775
31
0
39
0
210
0
220
0
230
1
0
LINE
5
C8
100
AcDbEntity
8
1
62
256
6
ByLayer
370
18
48
1
60
0
100
AcDbLine
10
67.568682
20
38.899254
30
0
11
67.568682
21
33.100828
31
0
39
0
210
0
220
0
230
1
0
LINE
5
C9
100
AcDbEntity
8
1
62
256
6
ByLayer
370
13
48
1
60
0
100
AcDbLine
10
62.000021
20
35.976417
30
0
11
65.988604
21
35.976417
31
0
39
0
210
0
220
0
230
1
0
LINE
5
CA
100
AcDbEntity
8
1
62
256
6
ByLayer
370
13
48
1
60
0
100
AcDbLine
10
61.999889
20
36.016417
30
0
11
65.988604
21
36.016417
31
0
39
0
210
0
220
0
230
1
0
LINE
5
CB
100
AcDbEntity
8
1
62
256
6
ByLayer
370
13
48
1
60
0
100
AcDbLine
10
62.000544
20
35.785638
30
0
11
65.94999
21
35.785638
31
0
39
0
210
0
220
0
230
1
0
LINE
5
CC
100
AcDbEntity
8
1
62
256
6
ByLayer
370
13
48
1
60
0
100
AcDbLine
10
61.999224
20
36.207103
30
0
11
65.94999
21
36.207103
31
0
39
0
210
0
220
0
230
1
0
LINE
5
CD
100
AcDbEntity
8
1
62
256
6
ByLayer
370
13
48
1
60
0
100
AcDbLine
10
65.170287
20
35.567701
30
0
11
61.914729
21
35.567701
31
0
39
0
210
0
220
0
230
1
0
LINE
5
CE
100
AcDbEntity
8
1
62
256
6
ByLayer
370
13
48
1
60
0
100
AcDbLine
10
65.170287
20
36.423155
30
0
11
61.9067
21
36.423155
31
0
39
0
210
0
220
0
230
1
0
LINE
5
CF
100
AcDbEntity
8
1
62
256
6
ByLayer
370
13
48
1
60
0
100
AcDbLine
10
64.482367
20
35.511518
30
0
11
61.810084
21
35.511518
31
0
39
0
210
0
220
0
230
1
0
LINE
5
D0
100
AcDbEntity
8
1
62
256
6
ByLayer
370
13
48
1
60
0
100
AcDbLine
10
64.482367
20
36.477675
30
0
11
61.802447
21
36.477675
31
0
39
0
210
0
220
0
230
1
0
LINE
5
D1
100
AcDbEntity
8
1
62
256
6
ByLayer
370
13
48
1
60
0
100
AcDbLine
10
61.774498
20
35.480503
30
0
11
64.306526
21
35.480503
31
0
39
0
210
0
220
0
230
1
0
LINE
5
D2
100
AcDbEntity
8
1
62
256
6
ByLayer
370
13
48
1
60
0
100
AcDbLine
10
61.770776
20
36.508264
30
0
11
64.306526
21
36.508264
31
0
39
0
210
0
220
0
230
1
0
LINE
5
D3
100
AcDbEntity
8
1
62
256
6
ByLayer
370
13
48
1
60
0
100
AcDbLine
10
63.995391
20
35.388351
30
0
11
61.763209
21
35.388351
31
0
39
0
210
0
220
0
230
1
0
LINE
5
D4
100
AcDbEntity
8
1
62
256
6
ByLayer
370
13
48
1
60
0
100
AcDbLine
10
63.995391
20
36.599664
30
0
11
61.75915
21
36.599664
31
0
39
0
210
0
220
0
230
1
0
LINE
5
D5
100
AcDbEntity
8
1
62
256
6
ByLayer
370
13
48
1
60
0
100
AcDbLine
10
63.90992
20
35.343979
30
0
11
61.757789
21
35.343979
31
0
39
0
210
0
220
0
230
1
0
LINE
5
D6
100
AcDbEntity
8
1
62
256
6
ByLayer
370
18
48
1
60
0
100
AcDbLine
10
62.611484
20
33.39237
30
0
11
61.507563
21
33.39237
31
0
39
0
210
0
220
0
230
1
0
LINE
5
D7
100
AcDbEntity
8
1
62
256
6
ByLayer
370
13
48
1
60
0
100
AcDbLine
10
62.611484
20
33.633618
30
0
11
61.540149
21
33.633618
31
0
39
0
210
0
220
0
230
1
0
LINE
5
D8
100
AcDbEntity
8
1
62
256
6
ByLayer
370
13
48
1
60
0
100
AcDbLine
10
62.618068
20
33.650991
30
0
11
61.542474
21
33.650991
31
0
39
0
210
0
220
0
230
1
0
LINE
5
D9
100
AcDbEntity
8
1
62
256
6
ByLayer
370
13
48
1
60
0
100
AcDbLine
10
63.90992
20
36.643829
30
0
11
61.753583
21
36.643829
31
0
39
0
210
0
220
0
230
1
0
LINE
5
DA
100
AcDbEntity
8
1
62
256
6
ByLayer
370
13
48
1
60
0
100
AcDbLine
10
62.618068
20
38.333695
30
0
11
61.524081
21
38.333695
31
0
39
0
210
0
220
0
230
1
0
LINE
5
DB
100
AcDbEntity
8
1
62
256
6
ByLayer
370
18
48
1
60
0
100
AcDbLine
10
63.90992
20
36.643829
30
0
11
62.618066
21
38.333693
31
0
39
0
210
0
220
0
230
1
0
LINE
5
DC
100
AcDbEntity
8
1
62
256
6
ByLayer
370
18
48
1
60
0
100
AcDbLine
10
64.306526
20
36.508264
30
0
11
63.995391
21
36.599664
31
0
39
0
210
0
220
0
230
1
0
LINE
5
DD
100
AcDbEntity
8
1
62
256
6
ByLayer
370
18
48
1
60
0
100
AcDbLine
10
65.988604
20
36.016417
30
0
11
65.988604
21
35.976417
31
0
39
0
210
0
220
0
230
1
0
LINE
5
DE
100
AcDbEntity
8
1
62
256
6
ByLayer
370
18
48
1
60
0
100
AcDbLine
10
64.306526
20
35.480503
30
0
11
63.995391
21
35.388351
31
0
39
0
210
0
220
0
230
1
0
LINE
5
DF
100
AcDbEntity
8
1
62
256
6
ByLayer
370
18
48
1
60
0
100
AcDbLine
10
63.90992
20
35.343979
30
0
11
62.618066
21
33.650993
31
0
39
0
210
0
220
0
230
1
0
LINE
5
E0
100
AcDbEntity
8
1
62
256
6
ByLayer
370
18
48
1
60
0
100
AcDbLine
10
62.611484
20
33.633618
30
0
11
62.611484
21
33.39237
31
0
39
0
210
0
220
0
230
1
0
LINE
5
E1
100
AcDbEntity
8
1
62
256
6
ByLayer
370
18
48
1
60
0
100
AcDbLine
10
64.039855
20
33.394097
30
0
11
62.611484
21
33.39237
31
0
39
0
210
0
220
0
230
1
0
LINE
5
E2
100
AcDbEntity
8
1
62
256
6
ByLayer
370
18
48
1
60
0
100
AcDbLine
10
64.467511
20
33.161708
30
0
11
64.039855
21
33.394097
31
0
39
0
210
0
220
0
230
1
0
LINE
5
E3
100
AcDbEntity
8
1
62
256
6
ByLayer
370
18
48
1
60
0
100
AcDbLine
10
64.467511
20
33.161708
30
0
11
67.143073
21
33.076775
31
0
39
0
210
0
220
0
230
1
0
LINE
5
E4
100
AcDbEntity
8
1
62
256
6
ByLayer
370
18
48
1
60
0
100
AcDbLine
10
67.143073
20
33.076775
30
0
11
67.143073
21
38.918851
31
0
39
0
210
0
220
0
230
1
0
LINE
5
E5
100
AcDbEntity
8
1
62
256
6
ByLayer
370
18
48
1
60
0
100
AcDbLine
10
64.467511
20
38.827449
30
0
11
67.143073
21
38.918851
31
0
39
0
210
0
220
0
230
1
0
LINE
5
E6
100
AcDbEntity
8
1
62
256
6
ByLayer
370
18
48
1
60
0
100
AcDbLine
10
64.467511
20
38.827449
30
0
11
64.039855
21
38.594026
31
0
39
0
210
0
220
0
230
1
0
LINE
5
E7
100
AcDbEntity
8
1
62
256
6
ByLayer
370
18
48
1
60
0
100
AcDbLine
10
64.039855
20
38.594026
30
0
11
62.611484
21
38.592299
31
0
39
0
210
0
220
0
230
1
0
LINE
5
E8
100
AcDbEntity
8
1
62
256
6
ByLayer
370
18
48
1
60
0
100
AcDbLine
10
64.095422
20
38.624467
30
0
11
61.477375
21
38.624467
31
0
39
0
210
0
220
0
230
1
0
LINE
5
E9
100
AcDbEntity
8
1
62
256
6
ByLayer
370
18
48
1
60
0
100
AcDbLine
10
62.611484
20
38.592299
30
0
11
61.482964
21
38.592299
31
0
39
0
210
0
220
0
230
1
0
LINE
5
EA
100
AcDbEntity
8
1
62
256
6
ByLayer
370
13
48
1
60
0
100
AcDbLine
10
62.611484
20
38.351051
30
0
11
61.52146
21
38.351051
31
0
39
0
210
0
220
0
230
1
0
LINE
5
EB
100
AcDbEntity
8
1
62
256
6
ByLayer
370
18
48
1
60
0
100
AcDbLine
10
62.611484
20
38.351051
30
0
11
62.611484
21
38.592299
31
0
39
0
210
0
220
0
230
1
0
LINE
5
EC
100
AcDbEntity
8
SK2
62
256
6
ByLayer
370
18
48
1
60
0
100
AcDbLine
10
-47.975
20
-31.5
30
0
11
-47.975
21
31.5
31
0
39
0
210
0
220
0
230
1
0
LINE
5
EE
100
AcDbEntity
8
SK2
62
256
6
ByLayer
370
18
48
1
60
0
100
AcDbLine
10
-1.2875
20
31.5
30
0
11
-49.975
21
31.5
31
0
39
0
210
0
220
0
230
1
0
LINE
5
EF
100
AcDbEntity
8
SK2
62
256
6
ByLayer
370
18
48
1
60
0
100
AcDbLine
10
-1.2875
20
-31.5
30
0
11
-49.975
21
-31.5
31
0
39
0
210
0
220
0
230
1
0
LINE
5
F0
100
AcDbEntity
8
1
62
256
6
ByLayer
370
18
48
1
60
1
100
AcDbLine
10
-47.975
20
31.5
30
0
11
-47.514216
21
28.000002
31
0
39
0
210
0
220
0
230
1
0
LINE
5
F1
100
AcDbEntity
8
1
62
256
6
ByLayer
370
18
48
1
60
1
100
AcDbLine
10
-47.514216
20
28.000002
30
0
11
-48.435784
21
27.999998
31
0
39
0
210
0
220
0
230
1
0
LINE
5
F2
100
AcDbEntity
8
1
62
256
6
ByLayer
370
18
48
1
60
1
100
AcDbLine
10
-48.435784
20
27.999998
30
0
11
-47.975
21
31.5
31
0
39
0
210
0
220
0
230
1
0
LINE
5
F3
100
AcDbEntity
8
1
62
256
6
ByLayer
370
18
48
1
60
1
100
AcDbLine
10
-47.975
20
-31.5
30
0
11
-48.435784
21
-28.000002
31
0
39
0
210
0
220
0
230
1
0
LINE
5
F4
100
AcDbEntity
8
1
62
256
6
ByLayer
370
18
48
1
60
1
100
AcDbLine
10
-48.435784
20
-28.000002
30
0
11
-47.514216
21
-27.999998
31
0
39
0
210
0
220
0
230
1
0
LINE
5
F5
100
AcDbEntity
8
1
62
256
6
ByLayer
370
18
48
1
60
1
100
AcDbLine
10
-47.514216
20
-27.999998
30
0
11
-47.975
21
-31.5
31
0
39
0
210
0
220
0
230
1
0
LINE
5
154
100
AcDbEntity
8
1
62
256
6
ByLayer
370
18
48
1
60
1
100
AcDbLine
10
-47.975
20
31.5
30
0
11
-47.514216
21
28.000002
31
0
39
0
210
0
220
0
230
1
0
LINE
5
155
100
AcDbEntity
8
1
62
256
6
ByLayer
370
18
48
1
60
1
100
AcDbLine
10
-47.514216
20
28.000002
30
0
11
-48.435784
21
27.999998
31
0
39
0
210
0
220
0
230
1
0
LINE
5
156
100
AcDbEntity
8
1
62
256
6
ByLayer
370
18
48
1
60
1
100
AcDbLine
10
-48.435784
20
27.999998
30
0
11
-47.975
21
31.5
31
0
39
0
210
0
220
0
230
1
0
LINE
5
158
100
AcDbEntity
8
1
62
256
6
ByLayer
370
18
48
1
60
1
100
AcDbLine
10
-47.975
20
-31.5
30
0
11
-48.435784
21
-28.000002
31
0
39
0
210
0
220
0
230
1
0
LINE
5
159
100
AcDbEntity
8
1
62
256
6
ByLayer
370
18
48
1
60
1
100
AcDbLine
10
-48.435784
20
-28.000002
30
0
11
-47.514216
21
-27.999998
31
0
39
0
210
0
220
0
230
1
0
LINE
5
15A
100
AcDbEntity
8
1
62
256
6
ByLayer
370
18
48
1
60
1
100
AcDbLine
10
-47.514216
20
-27.999998
30
0
11
-47.975
21
-31.5
31
0
39
0
210
0
220
0
230
1
0
MTEXT
5
150
100
AcDbEntity
8
SK2
62
256
6
ByLayer
370
18
48
1
60
0
100
AcDbMText
10
-49.539634
20
-4.530622
30
0
210
0
220
0
230
1
1
%%c
40
3.5
41
0
44
1.084337
50
90
71
7
72
5
7
iso_b_vert
0
MTEXT
5
153
100
AcDbEntity
8
SK2
62
256
6
ByLayer
370
18
48
1
60
0
100
AcDbMText
10
-49.539634
20
2.442034
30
0
210
0
220
0
230
1
1
\W0.6740;63
40
3.5
41
0
44
1.084337
50
90
71
7
72
5
7
iso_b_vert
0
MTEXT
5
15C
100
AcDbEntity
8
SK6
62
256
6
ByLayer
370
18
48
1
60
0
100
AcDbMText
10
-16.3145
20
-44.78633
30
0
210
0
220
0
230
1
1
\W0.7534;C2A-CC6-RFK18B-058CB
40
3.5
41
0
44
1.084337
50
0
71
7
72
5
7
iso_b_vert
0
HATCH
5
157
100
AcDbEntity
8
SK2
62
256
6
ByLayer
370
13
48
1
60
0
100
AcDbHatch
10
0
20
0
30
0
210
0
220
0
230
1
2
ANSI31
70
0
71
0
91
1
92
5
93
3
72
1
10
-47.9750000000001
20
31.5
11
-47.5142162584473
21
28.0000016925532
72
1
10
-47.5142162584473
20
28.0000016925532
11
-48.4357837415529
21
27.9999983074468
72
1
10
-48.4357837415529
20
27.9999983074468
11
-47.9750000000001
21
31.5
97
0
75
0
76
1
52
0
41
0.0062
77
0
78
1
53
45
43
0
44
0
45
-0.0139193969876572
46
0.0139193969876572
79
0
47
0
98
1
10
0
20
0
0
HATCH
5
15B
100
AcDbEntity
8
SK2
62
256
6
ByLayer
370
13
48
1
60
0
100
AcDbHatch
10
0
20
0
30
0
210
0
220
0
230
1
2
ANSI31
70
0
71
0
91
1
92
5
93
3
72
1
10
-47.9750000000001
20
-31.5
11
-48.4357837415529
21
-28.0000016925532
72
1
10
-48.4357837415529
20
-28.0000016925532
11
-47.5142162584473
21
-27.9999983074468
72
1
10
-47.5142162584473
20
-27.9999983074468
11
-47.9750000000001
21
-31.5
97
0
75
0
76
1
52
0
41
0.0062
77
0
78
1
53
45
43
0
44
0
45
-0.0139193969876572
46
0.0139193969876572
79
0
47
0
98
1
10
0
20
0
0
DIMENSION
5
15F
100
AcDbEntity
8
2
62
256
6
ByLayer
370
18
48
1
60
0
100
AcDbDimension
2
_U0
10
101.1
20
0
30
0
11
101.1
21
19.5
31
0
70
32
71
1
72
1
41
1
210
0
220
0
230
1
3
Standard
100
AcDbAlignedDimension
13
70
23
39
33
0
14
0
24
0
34
0
50
90
100
AcDbRotatedDimension
1001
ACAD
1000
DSTYLE
1002
{
1070
   371
1070
    13
1070
   372
1070
    13
1070
   170
1070
     0
1070
   144
1040
1.0
1070
   277
1070
     2
1070
   284
1070
     8
1070
   278
1070
    46
1070
   146
1040
1.0
1070
   345
1005
16
1070
   347
1005
16
1070
   346
1005
16
1070
   344
1005
0
1070
   343
1005
0
1070
   172
1070
     1
1070
    76
1070
     0
1070
    75
1070
     0
1070
   282
1070
     0
1070
   281
1070
     0
1070
    71
1070
     0
1070
    74
1070
     0
1070
   279
1070
     0
1070
   173
1070
     1
1070
   340
1005
151
1070
   271
1070
     1
1070
   272
1070
     2
1070
    77
1070
     1
1070
    73
1070
     0
1070
   171
1070
     3
1070
   274
1070
     4
1070
   177
1070
     2
1070
   176
1070
     2
1070
   178
1070
     2
1070
    78
1070
     8
1070
    48
1040
-0.1
1070
    41
1040
3.5
1070
   147
1040
1.75
1070
    42
1040
1.5875
1070
    44
1040
2.0
1070
   140
1040
3.5
1002
}
1001
ACAD_DSTYLE_DIM_LINETYPE
1070
   380
1005
16
1001
ACAD_DSTYLE_DIM_EXT1_LINETYPE
1070
   381
1005
16
1001
ACAD_DSTYLE_DIM_EXT2_LINETYPE
1070
   382
1005
16
0
DIMENSION
5
179
100
AcDbEntity
8
2
62
256
6
ByLayer
370
18
48
1
60
0
100
AcDbDimension
2
_U1
10
90.1
20
39
30
0
11
90.1
21
36
31
0
70
32
71
1
72
1
41
1
210
0
220
0
230
1
3
Standard
100
AcDbAlignedDimension
13
70
23
33
33
0
14
70
24
39
34
0
50
90
100
AcDbRotatedDimension
1001
ACAD
1000
DSTYLE
1002
{
1070
   371
1070
    13
1070
   372
1070
    13
1070
   170
1070
     0
1070
   144
1040
1.0
1070
   277
1070
     2
1070
   284
1070
     8
1070
   278
1070
    46
1070
   146
1040
1.0
1070
   345
1005
16
1070
   347
1005
16
1070
   346
1005
16
1070
   344
1005
0
1070
   343
1005
0
1070
   172
1070
     1
1070
    76
1070
     0
1070
    75
1070
     0
1070
   282
1070
     0
1070
   281
1070
     0
1070
    71
1070
     0
1070
    74
1070
     0
1070
   279
1070
     0
1070
   173
1070
     1
1070
   340
1005
151
1070
   271
1070
     1
1070
   272
1070
     2
1070
    77
1070
     1
1070
    73
1070
     0
1070
   171
1070
     3
1070
   274
1070
     4
1070
   177
1070
     2
1070
   176
1070
     2
1070
   178
1070
     2
1070
    78
1070
     8
1070
    48
1040
-0.1
1070
    41
1040
3.5
1070
   147
1040
1.75
1070
    42
1040
1.5875
1070
    44
1040
2.0
1070
   140
1040
3.5
1002
}
1001
ACAD_DSTYLE_DIM_LINETYPE
1070
   380
1005
16
1001
ACAD_DSTYLE_DIM_EXT1_LINETYPE
1070
   381
1005
16
1001
ACAD_DSTYLE_DIM_EXT2_LINETYPE
1070
   382
1005
16
0
DIMENSION
5
192
100
AcDbEntity
8
2
62
256
6
ByLayer
370
18
48
1
60
0
100
AcDbDimension
2
_U2
10
70
20
-31.424959
30
0
11
61
21
-31.424959
31
0
70
32
71
1
72
1
41
1
210
0
220
0
230
1
3
Standard
100
AcDbAlignedDimension
13
52
23
33.325041
33
0
14
70
24
33
34
0
50
0
100
AcDbRotatedDimension
1001
ACAD
1000
DSTYLE
1002
{
1070
   371
1070
    13
1070
   372
1070
    13
1070
   170
1070
     0
1070
   144
1040
1.0
1070
   277
1070
     2
1070
   284
1070
     8
1070
   278
1070
    46
1070
   146
1040
1.0
1070
   345
1005
16
1070
   347
1005
16
1070
   346
1005
16
1070
   344
1005
0
1070
   343
1005
0
1070
   172
1070
     1
1070
    76
1070
     0
1070
    75
1070
     0
1070
   282
1070
     0
1070
   281
1070
     0
1070
    71
1070
     0
1070
    74
1070
     0
1070
   279
1070
     0
1070
   173
1070
     1
1070
   340
1005
151
1070
   271
1070
     1
1070
   272
1070
     2
1070
    77
1070
     1
1070
    73
1070
     1
1070
   171
1070
     3
1070
   274
1070
     4
1070
   177
1070
     2
1070
   176
1070
     2
1070
   178
1070
     2
1070
    78
1070
     8
1070
    48
1040
-0.1
1070
    41
1040
3.5
1070
   147
1040
1.75
1070
    42
1040
1.5875
1070
    44
1040
2.0
1070
   140
1040
3.5
1002
}
1001
ACAD_DSTYLE_DIM_LINETYPE
1070
   380
1005
16
1001
ACAD_DSTYLE_DIM_EXT1_LINETYPE
1070
   381
1005
16
1001
ACAD_DSTYLE_DIM_EXT2_LINETYPE
1070
   382
1005
16
0
DIMENSION
5
1AA
100
AcDbEntity
8
2
62
256
6
ByLayer
370
18
48
1
60
0
100
AcDbDimension
2
_U3
10
70
20
53.75
30
0
11
35
21
53.75
31
0
70
32
71
1
72
1
41
1
210
0
220
0
230
1
3
Standard
100
AcDbAlignedDimension
13
0
23
0
33
0
14
70
24
39
34
0
50
0
100
AcDbRotatedDimension
1001
ACAD
1000
DSTYLE
1002
{
1070
   371
1070
    13
1070
   372
1070
    13
1070
   170
1070
     0
1070
   144
1040
1.0
1070
   277
1070
     2
1070
   284
1070
     8
1070
   278
1070
    46
1070
   146
1040
1.0
1070
   345
1005
16
1070
   347
1005
16
1070
   346
1005
16
1070
   344
1005
0
1070
   343
1005
0
1070
   172
1070
     1
1070
    76
1070
     0
1070
    75
1070
     0
1070
   282
1070
     0
1070
   281
1070
     0
1070
    71
1070
     0
1070
    74
1070
     0
1070
   279
1070
     0
1070
   173
1070
     1
1070
   340
1005
151
1070
   271
1070
     1
1070
   272
1070
     2
1070
    77
1070
     1
1070
    73
1070
     1
1070
   171
1070
     3
1070
   274
1070
     4
1070
   177
1070
     2
1070
   176
1070
     2
1070
   178
1070
     2
1070
    78
1070
     8
1070
    48
1040
-0.1
1070
    41
1040
3.5
1070
   147
1040
1.75
1070
    42
1040
1.5875
1070
    44
1040
2.0
1070
   140
1040
3.5
1002
}
1001
ACAD_DSTYLE_DIM_LINETYPE
1070
   380
1005
16
1001
ACAD_DSTYLE_DIM_EXT1_LINETYPE
1070
   381
1005
16
1001
ACAD_DSTYLE_DIM_EXT2_LINETYPE
1070
   382
1005
16
0
ENDSEC
0
SECTION
2
OBJECTS
0
DICTIONARY
5
231
330
0
100
AcDbDictionary
280
0
281
1
3
ACAD_GROUP
350
232
3
ACAD_MLINESTYLE
350
233
0
DICTIONARY
5
232
330
0
100
AcDbDictionary
280
0
281
1
0
DICTIONARY
5
233
330
0
100
AcDbDictionary
280
0
281
1
3
Standard
350
18
0
MLINESTYLE
5
18
330
233
100
AcDbMlineStyle
2
Standard
70
0
3

62
256
51
90
52
90
71
2
49
-0.5
62
256
6
ByLayer
49
0.5
62
256
6
ByLayer
0
RASTERVARIABLES
5
220
330

100
AcDbRasterVariables
90
0
70
1
71
1
72
1
0
ENDSEC
0
EOF
