0
SECTION
2
HEADER
9
$ACADVER
1
AC1015
9
$DWGCODEPAGE
3
ANSI_1252
9
$HANDSEED
5
23d
9
$ANGBASE
50
0
9
$ANGDIR
70
0
9
$ATTMODE
70
1
9
$AUNITS
70
0
9
$AUPREC
70
0
9
$CECOLOR
62
256
9
$CELTSCALE
40
1
9
$CELTYPE
6
ByLayer
9
$CELWEIGHT
370
18
9
$CLAYER
8
0
9
$CMLJUST
70
0
9
$CMLSCALE
40
1
9
$CMLSTYLE
2
Standard
9
$DIMSTYLE
2
Standard
9
$TEXTSIZE
40
0.2
9
$TEXTSTYLE
7
Standard
9
$LUNITS
70
2
9
$LUPREC
70
4
9
$EXTNAMES
290
1
9
$INSUNITS
70
4
9
$LTSCALE
40
1
9
$LWDISPLAY
290
1
9
$PDMODE
70
0
9
$PDSIZE
40
0
9
$PLINEGEN
70
0
0
ENDSEC
0
SECTION
2
CLASSES
0
CLASS
1
RASTERVARIABLES
2
AcDbRasterVariables
3
ISM
90
0
280
0
281
0
0
ENDSEC
0
SECTION
2
TABLES
0
TABLE
2
VPORT
5
233
100
AcDbSymbolTable
0
VPORT
5
1
100
AcDbSymbolTableRecord
100
AcDbViewportTableRecord
2
*Active
70
0
10
0
20
0
11
1
21
1
12
-1
22
1
13
0
23
0
14
0.5
24
0.5
15
10
25
10
16
0
26
0
36
1
17
0
27
0
37
0
0
ENDTAB
0
TABLE
2
LTYPE
5
234
100
AcDbSymbolTable
0
LTYPE
5
14
100
AcDbSymbolTableRecord
100
AcDbLinetypeTableRecord
70
0
2
ByBlock
3

72
65
73
0
40
0
0
LTYPE
5
15
100
AcDbSymbolTableRecord
100
AcDbLinetypeTableRecord
70
0
2
ByLayer
3

72
65
73
0
40
0
0
LTYPE
5
16
100
AcDbSymbolTableRecord
100
AcDbLinetypeTableRecord
70
0
2
Continuous
3
Solid line
72
65
73
0
40
0
0
LTYPE
5
6E
100
AcDbSymbolTableRecord
100
AcDbLinetypeTableRecord
70
0
2
CENTER
3
____ _ ____ _ ____ _ ____
72
65
73
4
40
47.5
49
22
74
0
49
-8.5
74
0
49
8.5
74
0
49
-8.5
74
0
0
LTYPE
5
6F
100
AcDbSymbolTableRecord
100
AcDbLinetypeTableRecord
70
0
2
DASHED
3
__ __ __ __ __ __ __ __ __
72
65
73
2
40
25.72
49
12.86
74
0
49
-12.86
74
0
0
ENDTAB
0
TABLE
2
LAYER
5
235
100
AcDbSymbolTable
0
LAYER
5
10
100
AcDbSymbolTableRecord
100
AcDbLayerTableRecord
2
0
70
0
62
7
6
Continuous
290
1
370
-3
390
0
0
LAYER
5
71
100
AcDbSymbolTableRecord
100
AcDbLayerTableRecord
2
80
70
0
62
-6
6
Continuous
290
1
370
-3
390
0
0
LAYER
5
73
100
AcDbSymbolTableRecord
100
AcDbLayerTableRecord
2
81
70
0
62
-3
6
Continuous
290
1
370
-3
390
0
0
LAYER
5
75
100
AcDbSymbolTableRecord
100
AcDbLayerTableRecord
2
1
70
0
62
4
6
Continuous
290
1
370
-3
390
0
0
LAYER
5
161
100
AcDbSymbolTableRecord
100
AcDbLayerTableRecord
2
Defpoints
70
0
62
7
6
Continuous
290
0
370
-3
390
0
0
LAYER
5
16E
100
AcDbSymbolTableRecord
100
AcDbLayerTableRecord
2
2
70
0
62
7
6
Continuous
290
1
370
-3
390
0
0
LAYER
5
220
100
AcDbSymbolTableRecord
100
AcDbLayerTableRecord
2
SK1
70
0
62
4
6
Continuous
290
1
370
-3
390
0
0
LAYER
5
221
100
AcDbSymbolTableRecord
100
AcDbLayerTableRecord
2
SK2
70
0
62
7
6
Continuous
290
1
370
-3
390
0
0
LAYER
5
222
100
AcDbSymbolTableRecord
100
AcDbLayerTableRecord
2
SK6
70
0
62
5
6
Continuous
290
1
370
-3
390
0
0
ENDTAB
0
TABLE
2
STYLE
5
236
100
AcDbSymbolTable
0
STYLE
5
11
100
AcDbSymbolTableRecord
100
AcDbTextStyleTableRecord
2
Standard
3
txt
70
0
71
0
40
0
41
1
42
0
50
0
0
STYLE
5
150
100
AcDbSymbolTableRecord
100
AcDbTextStyleTableRecord
2
iso_b_vert
3
simplex.shx
70
0
71
0
40
0
41
1
42
0
50
0
0
STYLE
5
151
100
AcDbSymbolTableRecord
100
AcDbTextStyleTableRecord
2
DWGDirectTextStyle
3
simplex
70
0
71
0
40
0
41
1
42
0
50
0
0
ENDTAB
0
TABLE
2
DIMSTYLE
5
237
100
AcDbSymbolTable
100
AcDbDimStyleTable
0
DIMSTYLE
105
27
100
AcDbSymbolTableRecord
100
AcDbDimStyleTableRecord
2
Standard
70
0
3
<>
41
0.18
42
0.0625
44
0.18
140
0.18
147
0.09
73
0
74
0
77
1
271
2
275
0
278
52
280
0
340
11
0
ENDTAB
0
TABLE
2
VIEW
5
238
100
AcDbSymbolTable
0
ENDTAB
0
TABLE
2
UCS
5
239
100
AcDbSymbolTable
0
ENDTAB
0
TABLE
2
APPID
5
23a
100
AcDbSymbolTable
0
APPID
5
12
100
AcDbSymbolTableRecord
100
AcDbRegAppTableRecord
2
ACAD
70
0
0
APPID
5
15D
100
AcDbSymbolTableRecord
100
AcDbRegAppTableRecord
2
ACAD_DSTYLE_DIMBREAK
70
0
0
APPID
5
1DF
100
AcDbSymbolTableRecord
100
AcDbRegAppTableRecord
2
ACAD_DSTYLE_DIM_LINETYPE
70
0
0
APPID
5
1E0
100
AcDbSymbolTableRecord
100
AcDbRegAppTableRecord
2
ACAD_DSTYLE_DIM_EXT1_LINETYPE
70
0
0
APPID
5
1E1
100
AcDbSymbolTableRecord
100
AcDbRegAppTableRecord
2
ACAD_DSTYLE_DIM_EXT2_LINETYPE
70
0
0
APPID
5
21C
100
AcDbSymbolTableRecord
100
AcDbRegAppTableRecord
2
ACAD_MLEADERVER
70
0
0
ENDTAB
0
TABLE
2
BLOCK_RECORD
5
23b
100
AcDbSymbolTable
0
BLOCK_RECORD
5
1F
100
AcDbSymbolTableRecord
100
AcDbBlockTableRecord
2
*Model_Space
340
0
70
0
0
BLOCK_RECORD
5
1B
100
AcDbSymbolTableRecord
100
AcDbBlockTableRecord
2
*Paper_Space
340
0
70
0
0
BLOCK_RECORD
5
23
100
AcDbSymbolTableRecord
100
AcDbBlockTableRecord
2
*Paper_Space0
340
0
70
0
0
BLOCK_RECORD
5
162
100
AcDbSymbolTableRecord
100
AcDbBlockTableRecord
2
*D1
340
0
70
0
0
BLOCK_RECORD
5
16F
100
AcDbSymbolTableRecord
100
AcDbBlockTableRecord
2
_U0
340
0
70
0
0
BLOCK_RECORD
5
17B
100
AcDbSymbolTableRecord
100
AcDbBlockTableRecord
2
*D3
340
0
70
0
0
BLOCK_RECORD
5
188
100
AcDbSymbolTableRecord
100
AcDbBlockTableRecord
2
_U1
340
0
70
0
0
BLOCK_RECORD
5
194
100
AcDbSymbolTableRecord
100
AcDbBlockTableRecord
2
*D5
340
0
70
0
0
BLOCK_RECORD
5
1A0
100
AcDbSymbolTableRecord
100
AcDbBlockTableRecord
2
_U2
340
0
70
0
0
BLOCK_RECORD
5
1AC
100
AcDbSymbolTableRecord
100
AcDbBlockTableRecord
2
*D7
340
0
70
0
0
BLOCK_RECORD
5
1B8
100
AcDbSymbolTableRecord
100
AcDbBlockTableRecord
2
_U3
340
0
70
0
0
ENDTAB
0
ENDSEC
0
SECTION
2
BLOCKS
0
BLOCK
5
20
100
AcDbEntity
8
0
100
AcDbBlockBegin
2
*Model_Space
70
0
10
0
20
0
30
0
3
*Model_Space
0
ENDBLK
5
21
100
AcDbEntity
8
0
100
AcDbBlockEnd
0
BLOCK
5
1C
100
AcDbEntity
8
0
100
AcDbBlockBegin
2
*Paper_Space
70
0
10
0
20
0
30
0
3
*Paper_Space
0
ENDBLK
5
1D
100
AcDbEntity
8
0
100
AcDbBlockEnd
0
BLOCK
5
24
100
AcDbEntity
8
0
100
AcDbBlockBegin
2
*Paper_Space0
70
0
10
0
20
0
30
0
3
*Paper_Space0
0
ENDBLK
5
25
100
AcDbEntity
8
0
100
AcDbBlockEnd
0
BLOCK
5
163
100
AcDbEntity
8
0
100
AcDbBlockBegin
2
*D1
70
1
10
0
20
0
30
0
3
*D1
0
LINE
5
165
100
AcDbEntity
8
0
62
256
6
ByLayer
370
-2
48
1
60
0
100
AcDbLine
10
66.5875
20
33
30
0
11
98.1
21
33
31
0
39
0
210
0
220
0
230
1
0
LINE
5
166
100
AcDbEntity
8
0
62
256
6
ByLayer
370
-2
48
1
60
0
100
AcDbLine
10
1.5875
20
0
30
0
11
98.1
21
0
31
0
39
0
210
0
220
0
230
1
0
LINE
5
167
100
AcDbEntity
8
0
62
256
6
ByLayer
370
-2
48
1
60
0
100
AcDbLine
10
96.1
20
29.5
30
0
11
96.1
21
3.5
31
0
39
0
210
0
220
0
230
1
0
SOLID
5
168
100
AcDbEntity
8
0
62
256
6
ByLayer
370
-1
48
1
60
0
100
AcDbTrace
10
96.683333
20
29.5
30
0
11
95.516667
21
29.5
31
0
12
96.1
22
33
32
0
13
96.1
23
33
33
0
39
0
210
0
220
0
230
1
0
SOLID
5
169
100
AcDbEntity
8
0
62
256
6
ByLayer
370
-1
48
1
60
0
100
AcDbTrace
10
95.516667
20
3.5
30
0
11
96.683333
21
3.5
31
0
12
96.1
22
0
32
0
13
96.1
23
0
33
0
39
0
210
0
220
0
230
1
0
MTEXT
5
16A
100
AcDbEntity
8
0
62
256
6
ByLayer
370
18
48
1
60
0
100
AcDbMText
10
89.1
20
16.5
30
0
210
0
220
0
230
1
1
\A1;33
40
3.5
41
0
44
1
50
90
71
5
72
5
7
iso_b_vert
0
POINT
5
16B
100
AcDbEntity
8
Defpoints
62
0
6
ByLayer
370
-1
48
1
60
0
100
AcDbPoint
10
65
20
33
30
0
39
0
210
0
220
0
230
1
50
360
0
POINT
5
16C
100
AcDbEntity
8
Defpoints
62
0
6
ByLayer
370
-1
48
1
60
0
100
AcDbPoint
10
0
20
0
30
0
39
0
210
0
220
0
230
1
50
360
0
POINT
5
16D
100
AcDbEntity
8
Defpoints
62
0
6
ByLayer
370
-1
48
1
60
0
100
AcDbPoint
10
96.1
20
0
30
0
39
0
210
0
220
0
230
1
50
360
0
ENDBLK
5
164
100
AcDbEntity
8
0
100
AcDbBlockEnd
0
BLOCK
5
176
100
AcDbEntity
8
0
100
AcDbBlockBegin
2
_U0
70
0
10
0
20
0
30
0
3
_U0
0
MTEXT
5
170
100
AcDbEntity
8
2
62
256
6
ByLayer
370
18
48
1
60
0
100
AcDbMText
10
95.410366
20
14.567034
30
0
210
0
220
0
230
1
1
\W0.6740;33
40
3.5
41
0
44
1.084337
50
90
71
7
72
5
7
iso_b_vert
0
LINE
5
171
100
AcDbEntity
8
2
62
256
6
ByLayer
370
13
48
1
60
0
100
AcDbLine
10
66.5875
20
33
30
0
11
98.1
21
33
31
0
39
0
210
0
220
0
230
1
0
LINE
5
172
100
AcDbEntity
8
2
62
256
6
ByLayer
370
13
48
1
60
0
100
AcDbLine
10
1.5875
20
0
30
0
11
98.1
21
0
31
0
39
0
210
0
220
0
230
1
0
LINE
5
173
100
AcDbEntity
8
2
62
256
6
ByLayer
370
13
48
1
60
0
100
AcDbLine
10
96.1
20
33
30
0
11
96.1
21
0
31
0
39
0
210
0
220
0
230
1
0
SOLID
5
174
100
AcDbEntity
8
2
62
256
6
ByLayer
370
18
48
1
60
0
100
AcDbTrace
10
96.1
20
33
30
0
11
96.560784
21
29.500002
31
0
12
95.639216
22
29.499998
32
0
13
95.639216
23
29.499998
33
0
39
0
210
0
220
0
230
1
0
SOLID
5
175
100
AcDbEntity
8
2
62
256
6
ByLayer
370
18
48
1
60
0
100
AcDbTrace
10
96.1
20
0
30
0
11
95.639216
21
3.499998
31
0
12
96.560784
22
3.500002
32
0
13
96.560784
23
3.500002
33
0
39
0
210
0
220
0
230
1
0
ENDBLK
5
177
100
AcDbEntity
8
0
100
AcDbBlockEnd
0
BLOCK
5
17C
100
AcDbEntity
8
0
100
AcDbBlockBegin
2
*D3
70
1
10
0
20
0
30
0
3
*D3
0
LINE
5
17E
100
AcDbEntity
8
0
62
256
6
ByLayer
370
-2
48
1
60
0
100
AcDbLine
10
66.5875
20
27
30
0
11
87.1
21
27
31
0
39
0
210
0
220
0
230
1
0
LINE
5
17F
100
AcDbEntity
8
0
62
256
6
ByLayer
370
-2
48
1
60
0
100
AcDbLine
10
66.5875
20
33
30
0
11
87.1
21
33
31
0
39
0
210
0
220
0
230
1
0
LINE
5
180
100
AcDbEntity
8
0
62
256
6
ByLayer
370
-2
48
1
60
0
100
AcDbLine
10
85.1
20
23.5
30
0
11
85.1
21
20
31
0
39
0
210
0
220
0
230
1
0
LINE
5
181
100
AcDbEntity
8
0
62
256
6
ByLayer
370
-2
48
1
60
0
100
AcDbLine
10
85.1
20
36.5
30
0
11
85.1
21
40
31
0
39
0
210
0
220
0
230
1
0
SOLID
5
182
100
AcDbEntity
8
0
62
256
6
ByLayer
370
-1
48
1
60
0
100
AcDbTrace
10
85.683333
20
23.5
30
0
11
84.516667
21
23.5
31
0
12
85.1
22
27
32
0
13
85.1
23
27
33
0
39
0
210
0
220
0
230
1
0
SOLID
5
183
100
AcDbEntity
8
0
62
256
6
ByLayer
370
-1
48
1
60
0
100
AcDbTrace
10
84.516667
20
36.5
30
0
11
85.683333
21
36.5
31
0
12
85.1
22
33
32
0
13
85.1
23
33
33
0
39
0
210
0
220
0
230
1
0
MTEXT
5
184
100
AcDbEntity
8
0
62
256
6
ByLayer
370
18
48
1
60
0
100
AcDbMText
10
78.1
20
30
30
0
210
0
220
0
230
1
1
\A1;6
40
3.5
41
0
44
1
50
90
71
5
72
5
7
iso_b_vert
0
POINT
5
185
100
AcDbEntity
8
Defpoints
62
0
6
ByLayer
370
-1
48
1
60
0
100
AcDbPoint
10
65
20
27
30
0
39
0
210
0
220
0
230
1
50
360
0
POINT
5
186
100
AcDbEntity
8
Defpoints
62
0
6
ByLayer
370
-1
48
1
60
0
100
AcDbPoint
10
65
20
33
30
0
39
0
210
0
220
0
230
1
50
360
0
POINT
5
187
100
AcDbEntity
8
Defpoints
62
0
6
ByLayer
370
-1
48
1
60
0
100
AcDbPoint
10
85.1
20
33
30
0
39
0
210
0
220
0
230
1
50
360
0
ENDBLK
5
17D
100
AcDbEntity
8
0
100
AcDbBlockEnd
0
BLOCK
5
18F
100
AcDbEntity
8
0
100
AcDbBlockBegin
2
_U1
70
0
10
0
20
0
30
0
3
_U1
0
MTEXT
5
189
100
AcDbEntity
8
2
62
256
6
ByLayer
370
18
48
1
60
0
100
AcDbMText
10
84.410366
20
29.374767
30
0
210
0
220
0
230
1
1
\W0.5404;6
40
3.5
41
0
44
1.084337
50
90
71
7
72
5
7
iso_b_vert
0
LINE
5
18A
100
AcDbEntity
8
2
62
256
6
ByLayer
370
13
48
1
60
0
100
AcDbLine
10
66.5875
20
27
30
0
11
87.1
21
27
31
0
39
0
210
0
220
0
230
1
0
LINE
5
18B
100
AcDbEntity
8
2
62
256
6
ByLayer
370
13
48
1
60
0
100
AcDbLine
10
66.5875
20
33
30
0
11
87.1
21
33
31
0
39
0
210
0
220
0
230
1
0
LINE
5
18C
100
AcDbEntity
8
2
62
256
6
ByLayer
370
13
48
1
60
0
100
AcDbLine
10
85.1
20
18.25
30
0
11
85.1
21
41.75
31
0
39
0
210
0
220
0
230
1
0
SOLID
5
18D
100
AcDbEntity
8
2
62
256
6
ByLayer
370
18
48
1
60
0
100
AcDbTrace
10
85.1
20
27
30
0
11
85.560784
21
23.500002
31
0
12
84.639216
22
23.499998
32
0
13
84.639216
23
23.499998
33
0
39
0
210
0
220
0
230
1
0
SOLID
5
18E
100
AcDbEntity
8
2
62
256
6
ByLayer
370
18
48
1
60
0
100
AcDbTrace
10
85.1
20
33
30
0
11
84.639216
21
36.499998
31
0
12
85.560784
22
36.500002
32
0
13
85.560784
23
36.500002
33
0
39
0
210
0
220
0
230
1
0
ENDBLK
5
190
100
AcDbEntity
8
0
100
AcDbBlockEnd
0
BLOCK
5
195
100
AcDbEntity
8
0
100
AcDbBlockBegin
2
*D5
70
1
10
0
20
0
30
0
3
*D5
0
LINE
5
197
100
AcDbEntity
8
0
62
256
6
ByLayer
370
-2
48
1
60
0
100
AcDbLine
10
47
20
25.737541
30
0
11
47
21
-26.424959
31
0
39
0
210
0
220
0
230
1
0
LINE
5
198
100
AcDbEntity
8
0
62
256
6
ByLayer
370
-2
48
1
60
0
100
AcDbLine
10
65
20
25.4125
30
0
11
65
21
-26.424959
31
0
39
0
210
0
220
0
230
1
0
LINE
5
199
100
AcDbEntity
8
0
62
256
6
ByLayer
370
-2
48
1
60
0
100
AcDbLine
10
50.5
20
-24.424959
30
0
11
61.5
21
-24.424959
31
0
39
0
210
0
220
0
230
1
0
SOLID
5
19A
100
AcDbEntity
8
0
62
256
6
ByLayer
370
-1
48
1
60
0
100
AcDbTrace
10
50.5
20
-23.841626
30
0
11
50.5
21
-25.008292
31
0
12
47
22
-24.424959
32
0
13
47
23
-24.424959
33
0
39
0
210
0
220
0
230
1
0
SOLID
5
19B
100
AcDbEntity
8
0
62
256
6
ByLayer
370
-1
48
1
60
0
100
AcDbTrace
10
61.5
20
-25.008292
30
0
11
61.5
21
-23.841626
31
0
12
65
22
-24.424959
32
0
13
65
23
-24.424959
33
0
39
0
210
0
220
0
230
1
0
MTEXT
5
19C
100
AcDbEntity
8
0
62
256
6
ByLayer
370
18
48
1
60
0
100
AcDbMText
10
56
20
-17.424959
30
0
210
0
220
0
230
1
1
\A1;18
40
3.5
41
0
44
1
50
0
71
5
72
5
7
iso_b_vert
0
POINT
5
19D
100
AcDbEntity
8
Defpoints
62
0
6
ByLayer
370
-1
48
1
60
0
100
AcDbPoint
10
47
20
27.325041
30
0
39
0
210
0
220
0
230
1
50
360
0
POINT
5
19E
100
AcDbEntity
8
Defpoints
62
0
6
ByLayer
370
-1
48
1
60
0
100
AcDbPoint
10
65
20
27
30
0
39
0
210
0
220
0
230
1
50
360
0
POINT
5
19F
100
AcDbEntity
8
Defpoints
62
0
6
ByLayer
370
-1
48
1
60
0
100
AcDbPoint
10
65
20
-24.424959
30
0
39
0
210
0
220
0
230
1
50
360
0
ENDBLK
5
196
100
AcDbEntity
8
0
100
AcDbBlockEnd
0
BLOCK
5
1A7
100
AcDbEntity
8
0
100
AcDbBlockBegin
2
_U2
70
0
10
0
20
0
30
0
3
_U2
0
MTEXT
5
1A1
100
AcDbEntity
8
2
62
256
6
ByLayer
370
18
48
1
60
0
100
AcDbMText
10
54.532467
20
-23.392325
30
0
210
0
220
0
230
1
1
\W0.5321;18
40
3.5
41
0
44
1.084337
50
0
71
7
72
5
7
iso_b_vert
0
LINE
5
1A2
100
AcDbEntity
8
2
62
256
6
ByLayer
370
13
48
1
60
0
100
AcDbLine
10
47
20
25.737541
30
0
11
47
21
-26.424959
31
0
39
0
210
0
220
0
230
1
0
LINE
5
1A3
100
AcDbEntity
8
2
62
256
6
ByLayer
370
13
48
1
60
0
100
AcDbLine
10
65
20
25.4125
30
0
11
65
21
-26.424959
31
0
39
0
210
0
220
0
230
1
0
LINE
5
1A4
100
AcDbEntity
8
2
62
256
6
ByLayer
370
13
48
1
60
0
100
AcDbLine
10
47
20
-24.424959
30
0
11
65
21
-24.424959
31
0
39
0
210
0
220
0
230
1
0
SOLID
5
1A5
100
AcDbEntity
8
2
62
256
6
ByLayer
370
18
48
1
60
0
100
AcDbTrace
10
47
20
-24.424959
30
0
11
50.499998
21
-23.964175
31
0
12
50.500002
22
-24.885743
32
0
13
50.500002
23
-24.885743
33
0
39
0
210
0
220
0
230
1
0
SOLID
5
1A6
100
AcDbEntity
8
2
62
256
6
ByLayer
370
18
48
1
60
0
100
AcDbTrace
10
65
20
-24.424959
30
0
11
61.500002
21
-24.885743
31
0
12
61.499998
22
-23.964175
32
0
13
61.499998
23
-23.964175
33
0
39
0
210
0
220
0
230
1
0
ENDBLK
5
1A8
100
AcDbEntity
8
0
100
AcDbBlockEnd
0
BLOCK
5
1AD
100
AcDbEntity
8
0
100
AcDbBlockBegin
2
*D7
70
1
10
0
20
0
30
0
3
*D7
0
LINE
5
1AF
100
AcDbEntity
8
0
62
256
6
ByLayer
370
-2
48
1
60
0
100
AcDbLine
10
0
20
1.5875
30
0
11
0
21
49.25
31
0
39
0
210
0
220
0
230
1
0
LINE
5
1B0
100
AcDbEntity
8
0
62
256
6
ByLayer
370
-2
48
1
60
0
100
AcDbLine
10
65
20
34.5875
30
0
11
65
21
49.25
31
0
39
0
210
0
220
0
230
1
0
LINE
5
1B1
100
AcDbEntity
8
0
62
256
6
ByLayer
370
-2
48
1
60
0
100
AcDbLine
10
3.5
20
47.25
30
0
11
61.5
21
47.25
31
0
39
0
210
0
220
0
230
1
0
SOLID
5
1B2
100
AcDbEntity
8
0
62
256
6
ByLayer
370
-1
48
1
60
0
100
AcDbTrace
10
3.5
20
47.833333
30
0
11
3.5
21
46.666667
31
0
12
0
22
47.25
32
0
13
0
23
47.25
33
0
39
0
210
0
220
0
230
1
0
SOLID
5
1B3
100
AcDbEntity
8
0
62
256
6
ByLayer
370
-1
48
1
60
0
100
AcDbTrace
10
61.5
20
46.666667
30
0
11
61.5
21
47.833333
31
0
12
65
22
47.25
32
0
13
65
23
47.25
33
0
39
0
210
0
220
0
230
1
0
MTEXT
5
1B4
100
AcDbEntity
8
0
62
256
6
ByLayer
370
18
48
1
60
0
100
AcDbMText
10
32.5
20
54.25
30
0
210
0
220
0
230
1
1
\A1;65
40
3.5
41
0
44
1
50
0
71
5
72
5
7
iso_b_vert
0
POINT
5
1B5
100
AcDbEntity
8
Defpoints
62
0
6
ByLayer
370
-1
48
1
60
0
100
AcDbPoint
10
0
20
0
30
0
39
0
210
0
220
0
230
1
50
360
0
POINT
5
1B6
100
AcDbEntity
8
Defpoints
62
0
6
ByLayer
370
-1
48
1
60
0
100
AcDbPoint
10
65
20
33
30
0
39
0
210
0
220
0
230
1
50
360
0
POINT
5
1B7
100
AcDbEntity
8
Defpoints
62
0
6
ByLayer
370
-1
48
1
60
0
100
AcDbPoint
10
65
20
47.25
30
0
39
0
210
0
220
0
230
1
50
360
0
ENDBLK
5
1AE
100
AcDbEntity
8
0
100
AcDbBlockEnd
0
BLOCK
5
1BF
100
AcDbEntity
8
0
100
AcDbBlockBegin
2
_U3
70
0
10
0
20
0
30
0
3
_U3
0
MTEXT
5
1B9
100
AcDbEntity
8
2
62
256
6
ByLayer
370
18
48
1
60
0
100
AcDbMText
10
30.595034
20
48.282634
30
0
210
0
220
0
230
1
1
\W0.6740;65
40
3.5
41
0
44
1.084337
50
0
71
7
72
5
7
iso_b_vert
0
LINE
5
1BA
100
AcDbEntity
8
2
62
256
6
ByLayer
370
13
48
1
60
0
100
AcDbLine
10
0
20
1.5875
30
0
11
0
21
49.25
31
0
39
0
210
0
220
0
230
1
0
LINE
5
1BB
100
AcDbEntity
8
2
62
256
6
ByLayer
370
13
48
1
60
0
100
AcDbLine
10
65
20
34.5875
30
0
11
65
21
49.25
31
0
39
0
210
0
220
0
230
1
0
LINE
5
1BC
100
AcDbEntity
8
2
62
256
6
ByLayer
370
13
48
1
60
0
100
AcDbLine
10
0
20
47.25
30
0
11
65
21
47.25
31
0
39
0
210
0
220
0
230
1
0
SOLID
5
1BD
100
AcDbEntity
8
2
62
256
6
ByLayer
370
18
48
1
60
0
100
AcDbTrace
10
0
20
47.25
30
0
11
3.499998
21
47.710784
31
0
12
3.500002
22
46.789216
32
0
13
3.500002
23
46.789216
33
0
39
0
210
0
220
0
230
1
0
SOLID
5
1BE
100
AcDbEntity
8
2
62
256
6
ByLayer
370
18
48
1
60
0
100
AcDbTrace
10
65
20
47.25
30
0
11
61.500002
21
46.789216
31
0
12
61.499998
22
47.710784
32
0
13
61.499998
23
47.710784
33
0
39
0
210
0
220
0
230
1
0
ENDBLK
5
1C0
100
AcDbEntity
8
0
100
AcDbBlockEnd
0
ENDSEC
0
SECTION
2
ENTITIES
0
ARC
5
F3
100
AcDbEntity
8
1
62
256
6
ByLayer
370
18
48
1
60
0
100
AcDbCircle
39
0
10
47
20
25.725041
30
0
40
1.6
210
0
220
0
230
1
100
AcDbArc
50
175.552369
51
180
0
ARC
5
F4
100
AcDbEntity
8
1
62
256
6
ByLayer
370
18
48
1
60
0
100
AcDbCircle
39
0
10
20.279208
20
26.2
30
0
40
1.2
210
0
220
0
230
1
100
AcDbArc
50
270
51
299.321623
0
ARC
5
F5
100
AcDbEntity
8
SK1
62
256
6
ByLayer
370
18
48
1
60
0
100
AcDbCircle
39
0
10
-0.6
20
18.75
30
0
40
0.999999999999998
210
0
220
0
230
1
100
AcDbArc
50
293.578178
51
306.869898
0
ARC
5
F6
100
AcDbEntity
8
SK1
62
256
6
ByLayer
370
18
48
1
60
0
100
AcDbCircle
39
0
10
-0.6
20
-18.75
30
0
40
0.999999999999998
210
0
220
0
230
1
100
AcDbArc
50
53.130102
51
66.421822
0
ARC
5
FA
100
AcDbEntity
8
1
62
256
6
ByLayer
370
18
48
1
60
0
100
AcDbCircle
39
0
10
26.4
20
26.15
30
0
40
1
210
0
220
0
230
1
100
AcDbArc
50
270
51
0
0
CIRCLE
5
F7
100
AcDbEntity
8
1
62
256
6
ByLayer
370
18
48
1
60
0
100
AcDbCircle
10
38.65
20
19.099902
30
0
40
2.55
39
0
210
0
220
0
230
1
0
CIRCLE
5
F8
100
AcDbEntity
8
1
62
256
6
ByLayer
370
18
48
1
60
0
100
AcDbCircle
10
38.65
20
19.099902
30
0
40
3.3
39
0
210
0
220
0
230
1
0
CIRCLE
5
F9
100
AcDbEntity
8
1
62
256
6
ByLayer
370
18
48
1
60
0
100
AcDbCircle
10
38.65
20
19.099902
30
0
40
5.75
39
0
210
0
220
0
230
1
0
ELLIPSE
5
FB
100
AcDbEntity
8
1
62
256
6
ByLayer
370
18
48
1
60
0
100
AcDbEllipse
10
698.508862
20
79.423537
30
0
11
2292.84762407885
21
8.30095815816371
31
0
210
0
220
0
230
1
40
0.020065
41
-1.85519626252227
42
-1.85407429298724
0
ELLIPSE
5
FC
100
AcDbEntity
8
1
62
256
6
ByLayer
370
18
48
1
60
0
100
AcDbEllipse
10
70.192308
20
77.200041
30
0
11
2.72627989519176E-15
21
44.5249999999133
31
0
210
0
220
0
230
1
40
0.692308
41
2.5474586553589
42
2.93933048712335
0
ELLIPSE
5
FD
100
AcDbEntity
8
1
62
256
6
ByLayer
370
18
48
1
60
0
100
AcDbEllipse
10
55.415098
20
30.125691
30
0
11
0.10406317307113
21
-0.995044591663454
31
0
210
0
220
0
230
1
40
0.961522
41
0
42
6.28318530717959
0
ELLIPSE
5
FE
100
AcDbEntity
8
1
62
256
6
ByLayer
370
18
48
1
60
0
100
AcDbEllipse
10
57.915915
20
62.000041
30
0
11
2.12316126326877E-15
21
34.6749999563815
31
0
210
0
220
0
230
1
40
0.885954
41
2.99734788759355
42
3.09558171111285
0
ELLIPSE
5
FF
100
AcDbEntity
8
1
62
256
6
ByLayer
370
18
48
1
60
0
100
AcDbEllipse
10
-274.168359
20
61.986239
30
0
11
2689.14904235128
21
-5.84099332517335
31
0
210
0
220
0
230
1
40
0.012705
41
-1.45105174576342
42
-1.4474916923205
0
ELLIPSE
5
100
100
AcDbEntity
8
1
62
256
6
ByLayer
370
18
48
1
60
0
100
AcDbEllipse
10
57.915915
20
77.200041
30
0
11
2.72627989604009E-15
21
44.5250000137681
31
0
210
0
220
0
230
1
40
0.885954
41
3.0294123000597
42
3.10479269581404
0
ELLIPSE
5
101
100
AcDbEntity
8
1
62
256
6
ByLayer
370
18
48
1
60
0
100
AcDbEllipse
10
60.618307
20
62.000041
30
0
11
49.5203533148416
21
5.80108835466932E-14
31
0
210
0
220
0
230
1
40
0.700217
41
-1.84939043963055
42
-1.71504109269263
0
ELLIPSE
5
102
100
AcDbEntity
8
1
62
256
6
ByLayer
370
18
48
1
60
0
100
AcDbEllipse
10
60.618307
20
77.200041
30
0
11
63.5874183463955
21
7.44898223418382E-14
31
0
210
0
220
0
230
1
40
0.700217
41
-1.79926509050301
42
-1.68297668034429
0
ELLIPSE
5
103
100
AcDbEntity
8
1
62
256
6
ByLayer
370
18
48
1
60
0
100
AcDbEllipse
10
46.149858
20
27.325041
30
0
11
-2.78948921498213
21
3.41602621658611E-16
31
0
210
0
220
0
230
1
40
0.573582
41
0
42
1.29863338834613
0
ELLIPSE
5
104
100
AcDbEntity
8
1
62
256
6
ByLayer
370
18
48
1
60
0
100
AcDbEllipse
10
24.065603
20
-17.500098
30
0
11
3.9963790654981
21
-0.170160960455555
31
0
210
0
220
0
230
1
40
1
41
3.10504366453899
42
-3.10776621934948
0
ELLIPSE
5
105
100
AcDbEntity
8
1
62
256
6
ByLayer
370
18
48
1
60
0
100
AcDbEllipse
10
-1.056258
20
0
30
0
11
11.7092723497272
21
24.6771864409375
31
0
210
0
220
0
230
1
40
0.341999
41
-1.08183270048927
42
-0.167213071908988
0
ELLIPSE
5
106
100
AcDbEntity
8
1
62
256
6
ByLayer
370
18
48
1
60
0
100
AcDbEllipse
10
21.056258
20
0
30
0
11
11.7092723497264
21
-24.6771864409362
31
0
210
0
220
0
230
1
40
0.341999
41
-2.97437958168081
42
-2.05975995310049
0
ELLIPSE
5
107
100
AcDbEntity
8
1
62
256
6
ByLayer
370
18
48
1
60
0
100
AcDbEllipse
10
21.056258
20
0
30
0
11
11.7092723497275
21
24.6771864409376
31
0
210
0
220
0
230
1
40
0.341999
41
2.05975995310053
42
2.97437958168082
0
ELLIPSE
5
108
100
AcDbEntity
8
1
62
256
6
ByLayer
370
18
48
1
60
0
100
AcDbEllipse
10
-1.056258
20
0
30
0
11
11.7092723497271
21
-24.6771864409374
31
0
210
0
220
0
230
1
40
0.341999
41
0.167213071908983
42
1.08183270048928
0
ELLIPSE
5
109
100
AcDbEntity
8
1
62
256
6
ByLayer
370
18
48
1
60
0
100
AcDbEllipse
10
20.218172
20
0
30
0
11
1.5307579422779E-15
21
24.9999999999989
31
0
210
0
220
0
230
1
40
0.008727
41
0.697072601418706
42
2.3561944901924
0
ELLIPSE
5
10A
100
AcDbEntity
8
1
62
256
6
ByLayer
370
18
48
1
60
0
100
AcDbEllipse
10
64.6
20
32.616879
30
0
11
-0.4
21
4.89842541528951E-17
31
0
210
0
220
0
230
1
40
0.999986
41
3.14159265358979
42
-1.51262452735383
0
ELLIPSE
5
10B
100
AcDbEntity
8
1
62
256
6
ByLayer
370
18
48
1
60
0
100
AcDbEllipse
10
64.6
20
27.383203
30
0
11
0.4
21
0
31
0
210
0
220
0
230
1
40
0.999986
41
-1.62896812623596
42
0
0
ELLIPSE
5
10C
100
AcDbEntity
8
1
62
256
6
ByLayer
370
18
48
1
60
0
100
AcDbEllipse
10
58.044631
20
32.351575
30
0
11
0.433147566548784
21
0.000553074394280479
31
0
210
0
220
0
230
1
40
0.230865
41
3.14129786875326
42
-2.96733486170943
0
ELLIPSE
5
10D
100
AcDbEntity
8
1
62
256
6
ByLayer
370
18
48
1
60
0
100
AcDbEllipse
10
59.336487
20
30.66171
30
0
11
0.43314756854348
21
0.00055307443512957
31
0
210
0
220
0
230
1
40
0.230865
41
-2.967354513242
42
-2.47780396727537
0
ELLIPSE
5
10E
100
AcDbEntity
8
1
62
256
6
ByLayer
370
18
48
1
60
0
100
AcDbEllipse
10
59.336487
20
29.32713
30
0
11
0.433147568671019
21
0.000553074435235001
31
0
210
0
220
0
230
1
40
0.230865
41
2.47721439766491
42
2.96676494355216
0
ELLIPSE
5
10F
100
AcDbEntity
8
1
62
256
6
ByLayer
370
18
48
1
60
0
100
AcDbEllipse
10
58.044631
20
27.634142
30
0
11
0.433147568623585
21
0.000553074443659568
31
0
210
0
220
0
230
1
40
0.230865
41
2.96674529243322
42
3.14129786873054
0
POINT
5
70
100
AcDbEntity
8
80
62
256
6
ByLayer
370
18
48
1
60
0
100
AcDbPoint
10
0
20
0
30
0
39
0
210
0
220
0
230
1
50
360
0
POINT
5
72
100
AcDbEntity
8
81
62
256
6
ByLayer
370
18
48
1
60
0
100
AcDbPoint
10
65
20
33
30
0
39
0
210
0
220
0
230
1
50
360
0
POINT
5
74
100
AcDbEntity
8
1
62
256
6
ByLayer
370
18
48
1
60
1
100
AcDbPoint
10
65
20
33
30
0
39
0
210
0
220
0
230
1
50
360
0
POINT
5
76
100
AcDbEntity
8
1
62
256
6
ByLayer
370
18
48
1
60
1
100
AcDbPoint
10
0
20
0
30
0
39
0
210
0
220
0
230
1
50
360
0
POINT
5
77
100
AcDbEntity
8
1
62
256
6
ByLayer
370
18
48
1
60
1
100
AcDbPoint
10
65
20
27
30
0
39
0
210
0
220
0
230
1
50
360
0
POINT
5
78
100
AcDbEntity
8
1
62
256
6
ByLayer
370
18
48
1
60
1
100
AcDbPoint
10
65
20
33
30
0
39
0
210
0
220
0
230
1
50
360
0
POINT
5
79
100
AcDbEntity
8
1
62
256
6
ByLayer
370
18
48
1
60
1
100
AcDbPoint
10
47
20
27.325041
30
0
39
0
210
0
220
0
230
1
50
360
0
POINT
5
7A
100
AcDbEntity
8
1
62
256
6
ByLayer
370
18
48
1
60
1
100
AcDbPoint
10
65
20
27
30
0
39
0
210
0
220
0
230
1
50
360
0
POINT
5
7B
100
AcDbEntity
8
1
62
256
6
ByLayer
370
18
48
1
60
1
100
AcDbPoint
10
0
20
0
30
0
39
0
210
0
220
0
230
1
50
360
0
POINT
5
7C
100
AcDbEntity
8
1
62
256
6
ByLayer
370
18
48
1
60
1
100
AcDbPoint
10
65
20
33
30
0
39
0
210
0
220
0
230
1
50
360
0
SPLINE
5
110
100
AcDbEntity
8
SK1
62
256
6
ByLayer
370
18
48
1
60
0
100
AcDbSpline
70
4
71
3
72
11
73
7
40
0
40
0
40
0
40
0
40
0.242589954178652
40
0.502544718947562
40
0.761087572808605
40
1
40
1
40
1
40
1
41
1
10
-0.199999999999989
20
17.5545583467653
30
0
41
1
10
-0.20095788927037
20
17.528914023106
30
0
41
1
10
-0.211248315226271
20
17.4799022728817
30
0
41
1
10
-0.255179720944199
20
17.413949611085
30
0
41
1
10
-0.321113897423828
20
17.3707504109673
30
0
41
1
10
-0.369683795840189
20
17.3607068368228
30
0
41
1
10
-0.394913799811292
20
17.359780267379
30
0
0
SPLINE
5
111
100
AcDbEntity
8
SK1
62
256
6
ByLayer
370
18
48
1
60
0
100
AcDbSpline
70
4
71
3
72
11
73
7
40
0
40
0
40
0
40
0
40
0.238912427113125
40
0.497455280942488
40
0.757410045745046
40
1
40
1
40
1
40
1
41
1
10
-0.394913799811292
20
-17.3597801301672
30
0
41
1
10
-0.369683795838398
20
-17.3607066995757
30
0
41
1
10
-0.321113897416467
20
-17.3707502735068
30
0
41
1
10
-0.255179720936411
20
-17.4139494728385
30
0
41
1
10
-0.211248315224623
20
-17.4799021334557
30
0
41
1
10
-0.20095788926875
20
-17.5289138828002
30
0
41
1
10
-0.199999999999989
20
-17.5545582060013
30
0
0
SPLINE
5
112
100
AcDbEntity
8
SK1
62
256
6
ByLayer
370
18
48
1
60
0
100
AcDbSpline
70
4
71
2
72
6
73
3
40
0
40
0
40
0
40
1
40
1
40
1
41
1
10
-28.5
20
16.8588088260863
30
0
41
1
10
-29.2499999297871
20
16.4259984461422
30
0
41
1
10
-30
20
15.9931873508859
30
0
0
SPLINE
5
113
100
AcDbEntity
8
SK1
62
256
6
ByLayer
370
18
48
1
60
0
100
AcDbSpline
70
4
71
2
72
6
73
3
40
0
40
0
40
0
40
1
40
1
40
1
41
1
10
-30
20
-15.9931874249211
30
0
41
1
10
-29.2499999297894
20
-16.425998517687
30
0
41
1
10
-28.5
20
-16.8588088951667
30
0
0
SPLINE
5
114
100
AcDbEntity
8
SK1
62
256
6
ByLayer
370
18
48
1
60
0
100
AcDbSpline
70
4
71
2
72
6
73
3
40
0
40
0
40
0
40
1
40
1
40
1
41
1
10
-0.394913799811292
20
17.3602209523781
30
0
41
1
10
-1.19497688886898
20
17.3401342706943
30
0
41
1
10
-1.99503997793928
20
17.3200475850767
30
0
0
SPLINE
5
115
100
AcDbEntity
8
SK1
62
256
6
ByLayer
370
18
48
1
60
0
100
AcDbSpline
70
4
71
2
72
6
73
3
40
0
40
0
40
0
40
1
40
1
40
1
41
1
10
-1.99503997793928
20
-17.3200478774323
30
0
41
1
10
-1.19497688886898
20
-17.340134563042
30
0
41
1
10
-0.394913799811292
20
-17.3602212447177
30
0
0
SPLINE
5
116
100
AcDbEntity
8
SK1
62
256
6
ByLayer
370
18
48
1
60
0
100
AcDbSpline
70
4
71
3
72
13
73
9
40
0
40
0
40
0
40
0
40
0.239505987673083
40
0.368426538155688
40
0.500072261058321
40
0.631705987654816
40
0.760593443052916
40
1
40
1
40
1
40
1
41
1
10
-1.99503997793928
20
17.3252686883828
30
0
41
1
10
-2.02110925982341
20
17.3248665791032
30
0
41
1
10
-2.05883863809936
20
17.3310361992814
30
0
41
1
10
-2.10627567686484
20
17.3540696096461
30
0
41
1
10
-2.13886243911925
20
17.3792256041407
30
0
41
1
10
-2.16563490776916
20
17.4104933211739
30
0
41
1
10
-2.19103207710596
20
17.4566915621889
30
0
41
1
10
-2.19909121921685
20
17.4940488942773
30
0
41
1
10
-2.2
20
17.5200961072231
30
0
0
SPLINE
5
117
100
AcDbEntity
8
SK1
62
256
6
ByLayer
370
18
48
1
60
0
100
AcDbSpline
70
4
71
3
72
13
73
9
40
0
40
0
40
0
40
0
40
0.239406556342956
40
0.368294011542631
40
0.499927738071791
40
0.631573461053609
40
0.76049401174041
40
1
40
1
40
1
40
1
41
1
10
-2.2
20
-17.5200962264206
30
0
41
1
10
-2.19909121920765
20
-17.4940490135991
30
0
41
1
10
-2.19103207709688
20
-17.4566916816953
30
0
41
1
10
-2.16563490775661
20
-17.4104934409328
30
0
41
1
10
-2.13886243910255
20
-17.379225724067
30
0
41
1
10
-2.106275676847
20
-17.3540697297104
30
0
41
1
10
-2.05883863807624
20
-17.3310363194718
30
0
41
1
10
-2.0211092598112
20
-17.3248666993254
30
0
41
1
10
-1.99503997793928
20
-17.3252688086104
30
0
0
SPLINE
5
118
100
AcDbEntity
8
SK1
62
256
6
ByLayer
370
18
48
1
60
0
100
AcDbSpline
70
4
71
2
72
6
73
3
40
0
40
0
40
0
40
1
40
1
40
1
41
1
10
-2.2
20
17.5148287077807
30
0
41
1
10
-15.3499999982432
20
17.1846805562453
30
0
41
1
10
-28.5
20
16.8545313165689
30
0
0
SPLINE
5
119
100
AcDbEntity
8
SK1
62
256
6
ByLayer
370
18
48
1
60
0
100
AcDbSpline
70
4
71
2
72
6
73
3
40
0
40
0
40
0
40
1
40
1
40
1
41
1
10
-28.5
20
-16.8545316091351
30
0
41
1
10
-15.3499999982428
20
-17.1846808487114
30
0
41
1
10
-2.2
20
-17.5148290000611
30
0
0
SPLINE
5
11A
100
AcDbEntity
8
1
62
256
6
ByLayer
370
18
48
1
60
0
100
AcDbSpline
70
4
71
3
72
8
73
4
40
0
40
0
40
0
40
0
40
1
40
1
40
1
40
1
41
1
10
23.2000000000004
20
32.2021574398456
30
0
41
1
10
22.6638697674671
20
30.185016399629
30
0
41
1
10
22.1284545688414
20
28.1676753789238
30
0
41
1
10
21.5943942153538
20
26.15
30
0
0
SPLINE
5
11B
100
AcDbEntity
8
1
62
256
6
ByLayer
370
18
48
1
60
0
100
AcDbSpline
70
4
71
3
72
16
73
12
40
0
40
0
40
0
40
0
40
0.250000000000009
40
0.250000000000009
40
0.500000000000019
40
0.500000000000019
40
0.625000000000015
40
0.625000000000015
40
0.750000000000012
40
0.750000000000012
40
1
40
1
40
1
40
1
41
1
10
21.5943942153538
20
26.15
30
0
41
1
10
21.5811269851674
20
26.0998765195378
30
0
41
1
10
21.5678774024159
20
26.0504067321069
30
0
41
1
10
21.5414095181822
20
25.9527187329704
30
0
41
1
10
21.5281912225254
20
25.904500667341
30
0
41
1
10
21.5083893625219
20
25.8331334415431
30
0
41
1
10
21.5017698387173
20
25.8094226554855
30
0
41
1
10
21.4886771440578
20
25.7628193372576
30
0
41
1
10
21.4822050822355
20
25.7399293850616
30
0
41
1
10
21.4630110877152
20
25.6724823670724
30
0
41
1
10
21.4505098951087
20
25.6291410540925
30
0
41
1
10
21.4383186059721
20
25.5874737195788
30
0
0
SPLINE
5
11C
100
AcDbEntity
8
1
62
256
6
ByLayer
370
18
48
1
60
0
100
AcDbSpline
70
4
71
3
72
37
73
33
40
0
40
0
40
0
40
0
40
0.0312500000000032
40
0.0312500000000032
40
0.0625000000000064
40
0.125000000000013
40
0.125000000000013
40
0.250000000000025
40
0.250000000000025
40
0.281250000000027
40
0.281250000000027
40
0.312500000000029
40
0.312500000000029
40
0.375000000000025
40
0.375000000000025
40
0.500000000000018
40
0.500000000000018
40
0.531250000000018
40
0.531250000000018
40
0.562500000000018
40
0.625000000000019
40
0.687500000000019
40
0.687500000000019
40
0.71875000000002
40
0.71875000000002
40
0.750000000000021
40
0.750000000000021
40
0.875000000000011
40
0.875000000000011
40
0.937500000000006
40
0.937500000000006
40
1
40
1
40
1
40
1
41
1
10
25.6980101742835
20
25.15
30
0
41
1
10
25.7161706285539
20
25.15
30
0
41
1
10
25.7343545704199
20
25.1503025778244
30
0
41
1
10
25.7705512648149
20
25.1515196699836
30
0
41
1
10
25.8246854506176
20
25.1542634289335
30
0
41
1
10
25.8783314854445
20
25.159793419709
30
0
41
1
10
25.9849482244971
20
25.1747080030274
30
0
41
1
10
26.0551310611026
20
25.1897594126597
30
0
41
1
10
26.1415930720335
20
25.2158027079615
30
0
41
1
10
26.1588217178861
20
25.2213752706801
30
0
41
1
10
26.1931458130605
20
25.2332806453666
30
0
41
1
10
26.2102783559744
20
25.2396293450436
30
0
41
1
10
26.2610159093726
20
25.2596882551777
30
0
41
1
10
26.2940590170836
20
25.274435722967
30
0
41
1
10
26.3907818812466
20
25.3229093946124
30
0
41
1
10
26.4520806726001
20
25.3608220409611
30
0
41
1
10
26.5242133260674
20
25.4161090694332
30
0
41
1
10
26.5384556238259
20
25.4276022645704
30
0
41
1
10
26.5661982145099
20
25.4511920277826
30
0
41
1
10
26.6067198227028
20
25.4874863956605
30
0
41
1
10
26.6688131515903
20
25.5525100457977
30
0
41
1
10
26.7125705680378
20
25.609457250247
30
0
41
1
10
26.743055961021
20
25.6541104588267
30
0
41
1
10
26.7528281918013
20
25.669319319406
30
0
41
1
10
26.7715635140182
20
25.7004109466876
30
0
41
1
10
26.7805532633964
20
25.7163452614523
30
0
41
1
10
26.8230587068218
20
25.7971590224971
30
0
41
1
10
26.8488774396644
20
25.8644371357351
30
0
41
1
10
26.8752606381769
20
25.9693162944934
30
0
41
1
10
26.8819804473965
20
26.0049418358506
30
0
41
1
10
26.8910221735874
20
26.077604383965
30
0
41
1
10
26.8932444856555
20
26.1138739502979
30
0
41
1
10
26.8932444856555
20
26.15
30
0
0
SPLINE
5
11D
100
AcDbEntity
8
1
62
256
6
ByLayer
370
18
48
1
60
0
100
AcDbSpline
70
4
71
3
72
26
73
22
40
0
40
0
40
0
40
0
40
0.125
40
0.125
40
0.25
40
0.25
40
0.375
40
0.375
40
0.5
40
0.5
40
0.625
40
0.625
40
0.640625
40
0.640625
40
0.65625
40
0.687500000000001
40
0.75
40
0.75
40
0.875
40
0.875
40
1
40
1
40
1
40
1
41
1
10
27.1991920013141
20
40.305130536811
30
0
41
1
10
26.9730214098711
20
39.7869914615459
30
0
41
1
10
26.7520324014936
20
39.2945854133908
30
0
41
1
10
26.3217730212222
20
38.3603058913037
30
0
41
1
10
26.112499705443
20
37.9184329065923
30
0
41
1
10
25.7075540675829
20
37.0849194667844
30
0
41
1
10
25.5118783205406
20
36.6932779960958
30
0
41
1
10
25.1366381633951
20
35.9605647352423
30
0
41
1
10
24.9570703527153
20
35.6194902453835
30
0
41
1
10
24.6172891469643
20
34.98894011767
30
0
41
1
10
24.4570733411038
20
34.699459702424
30
0
41
1
10
24.2900052833645
20
34.4038488537576
30
0
41
1
10
24.2716220394591
20
34.3714147709706
30
0
41
1
10
24.2352470262936
20
34.3074145116073
30
0
41
1
10
24.1813345421885
20
34.2128264057446
30
0
41
1
10
24.0601458283129
20
34.00197307355
30
0
41
1
10
23.9643654385102
20
33.8380224374571
30
0
41
1
10
23.7841390593094
20
33.5322746864288
30
0
41
1
10
23.679105561007
20
33.3579571096848
30
0
41
1
10
23.5021457480945
20
33.0677651990254
30
0
41
1
10
23.4302313100055
20
32.9518915951393
30
0
41
1
10
23.3761669174204
20
32.865324628553
30
0
0
SPLINE
5
11E
100
AcDbEntity
8
1
62
256
6
ByLayer
370
18
48
1
60
0
100
AcDbSpline
70
4
71
3
72
8
73
4
40
0
40
0
40
0
40
0
40
1
40
1
40
1
40
1
41
1
10
23.3761669174204
20
32.865324628553
30
0
41
1
10
23.3174741356269
20
32.644264073966
30
0
41
1
10
23.2587524530537
20
32.4232081791544
30
0
41
1
10
23.2000000000004
20
32.2021574398456
30
0
0
SPLINE
5
11F
100
AcDbEntity
8
1
62
256
6
ByLayer
370
18
48
1
60
0
100
AcDbSpline
70
4
71
3
72
31
73
27
40
0
40
0
40
0
40
0
40
0.124999999999998
40
0.249999999999996
40
0.249999999999996
40
0.281249999999996
40
0.281249999999996
40
0.312499999999995
40
0.312499999999995
40
0.374999999999994
40
0.374999999999994
40
0.499999999999992
40
0.499999999999992
40
0.562499999999993
40
0.562499999999993
40
0.593749999999994
40
0.593749999999994
40
0.624999999999995
40
0.624999999999995
40
0.749999999999996
40
0.749999999999996
40
0.874999999999998
40
0.874999999999998
40
0.937499999999999
40
0.937499999999999
40
1
40
1
40
1
40
1
41
1
10
23.3761669174204
20
32.865324628553
30
0
41
1
10
23.557356120515
20
32.8646191255775
30
0
41
1
10
23.9157528110875
20
32.8610476716061
30
0
41
1
10
24.2663816578975
20
32.8534369373232
30
0
41
1
10
24.4830364470531
20
32.847508244939
30
0
41
1
10
24.5262425035325
20
32.8462639305107
30
0
41
1
10
24.6124012579646
20
32.8436605294339
30
0
41
1
10
24.6552307891318
20
32.8423050155884
30
0
41
1
10
24.7824805453715
20
32.8381011288725
30
0
41
1
10
24.86587057257
20
32.8351092372058
30
0
41
1
10
25.111805058303
20
32.8256346962652
30
0
41
1
10
25.2701310293305
20
32.8186531431874
30
0
41
1
10
25.499226082137
20
32.8074521557942
30
0
41
1
10
25.5741878140356
20
32.8035970110849
30
0
41
1
10
25.6844921990838
20
32.7976663077726
30
0
41
1
10
25.7209036763341
20
32.7956647515283
30
0
41
1
10
25.7930042354269
20
32.7916181897577
30
0
41
1
10
25.8287507856229
20
32.7895697409017
30
0
41
1
10
26.0045126499105
20
32.7793010979804
30
0
41
1
10
26.1362435373628
20
32.7709718747777
30
0
41
1
10
26.3825709877256
20
32.7545096523825
30
0
41
1
10
26.4971660918997
20
32.7463754680409
30
0
41
1
10
26.6560158559697
20
32.7346335738453
30
0
41
1
10
26.7067853331953
20
32.7307962309595
30
0
41
1
10
26.8038461780021
20
32.7233294207784
30
0
41
1
10
26.84982757968
20
32.719723906164
30
0
41
1
10
26.8932444856555
20
32.7162711834021
30
0
0
SPLINE
5
120
100
AcDbEntity
8
1
62
256
6
ByLayer
370
18
48
1
60
0
100
AcDbSpline
70
4
71
3
72
33
73
29
40
0
40
0
40
0
40
0
40
0.124999999999997
40
0.124999999999997
40
0.187499999999996
40
0.187499999999996
40
0.249999999999994
40
0.312499999999993
40
0.312499999999993
40
0.343749999999992
40
0.343749999999992
40
0.374999999999992
40
0.374999999999992
40
0.499999999999995
40
0.499999999999995
40
0.562499999999994
40
0.562499999999994
40
0.593749999999993
40
0.593749999999993
40
0.624999999999993
40
0.624999999999993
40
0.749999999999995
40
0.749999999999995
40
0.812499999999995
40
0.812499999999995
40
0.874999999999994
40
0.874999999999994
40
1
40
1
40
1
40
1
41
1
10
27.2792189712395
20
26.15
30
0
41
1
10
27.2792189712395
20
26.0832436417484
30
0
41
1
10
27.2724058326547
20
26.0170990868887
30
0
41
1
10
27.2519104883935
20
25.9188049819319
30
0
41
1
10
27.2432917714725
20
25.8860489769865
30
0
41
1
10
27.2229333631542
20
25.8222483543853
30
0
41
1
10
27.1994272779716
20
25.7598762678132
30
0
41
1
10
27.1697805221861
20
25.7002910521867
30
0
41
1
10
27.1452313344108
20
25.6566523769668
30
0
41
1
10
27.136661880272
20
25.6422815111411
30
0
41
1
10
27.1187395871997
20
25.6138953094414
30
0
41
1
10
27.1093602779408
20
25.5998447077048
30
0
41
1
10
27.0609547840668
20
25.5311737304764
30
0
41
1
10
27.0172799347812
20
25.4809193739152
30
0
41
1
10
26.9446614463095
20
25.4122593068328
30
0
41
1
10
26.919262077641
20
25.3905012207437
30
0
41
1
10
26.8793352565325
20
25.3595929001509
30
0
41
1
10
26.8657592182796
20
25.3496108134579
30
0
41
1
10
26.8382798826091
20
25.3304213428806
30
0
41
1
10
26.8243476096287
20
25.3211912640673
30
0
41
1
10
26.7537424094289
20
25.2768278194225
30
0
41
1
10
26.694263205988
20
25.247007534893
30
0
41
1
10
26.6006038573538
20
25.2106843234384
30
0
41
1
10
26.5685197350809
20
25.1999671914527
30
0
41
1
10
26.5041023258886
20
25.1817637558616
30
0
41
1
10
26.4716403457386
20
25.1742158011375
30
0
41
1
10
26.3735174859827
20
25.1560926970093
30
0
41
1
10
26.3071100851205
20
25.15
30
0
41
1
10
26.2397413401998
20
25.15
30
0
0
SPLINE
5
121
100
AcDbEntity
8
1
62
256
6
ByLayer
370
18
48
1
60
0
100
AcDbSpline
70
4
71
3
72
16
73
12
40
0
40
0
40
0
40
0
40
0.250000000000001
40
0.250000000000001
40
0.500000000000002
40
0.500000000000002
40
0.750000000000004
40
0.750000000000004
40
0.875000000000002
40
0.875000000000002
40
1
40
1
40
1
40
1
41
1
10
56.7760754426717
20
29.4932155105423
30
0
41
1
10
56.7552625444193
20
29.3185472860005
30
0
41
1
10
56.7343263807457
20
29.1439123433496
30
0
41
1
10
56.6920385901498
20
28.7947577380143
30
0
41
1
10
56.6706932426137
20
28.6202335746184
30
0
41
1
10
56.6272319343203
20
28.2714104134973
30
0
41
1
10
56.605144113141
20
28.0971070144344
30
0
41
1
10
56.5707153149497
20
27.8360447812931
30
0
41
1
10
56.559018524625
20
27.7490908309967
30
0
41
1
10
56.5348453310721
20
27.5754190655558
30
0
41
1
10
56.5223896345391
20
27.4886949786081
30
0
41
1
10
56.5091380352467
20
27.402211960809
30
0
0
SPLINE
5
122
100
AcDbEntity
8
1
62
256
6
ByLayer
370
18
48
1
60
0
100
AcDbSpline
70
4
71
3
72
8
73
4
40
0
40
0
40
0
40
0
40
1
40
1
40
1
40
1
41
1
10
56.9343402421793
20
29.5782292539702
30
0
41
1
10
56.8816398673966
20
29.5496603521608
30
0
41
1
10
56.828904660164
20
29.521238922724
30
0
41
1
10
56.7760754426717
20
29.4932155105423
30
0
0
SPLINE
5
123
100
AcDbEntity
8
1
62
256
6
ByLayer
370
18
48
1
60
0
100
AcDbSpline
70
4
71
3
72
20
73
16
40
0
40
0
40
0
40
0
40
0.25000000000004
40
0.25000000000004
40
0.375000000000033
40
0.375000000000033
40
0.500000000000027
40
0.500000000000027
40
0.62500000000002
40
0.62500000000002
40
0.750000000000013
40
0.750000000000013
40
0.875000000000007
40
0.875000000000007
40
1
40
1
40
1
40
1
41
1
10
57.0008436384063
20
29.7195781178448
30
0
41
1
10
57.0008912416219
20
29.7040567052837
30
0
41
1
10
56.999345836953
20
29.6889195014025
30
0
41
1
10
56.9946631580063
20
29.6667839934895
30
0
41
1
10
56.9927204593625
20
29.6596157374202
30
0
41
1
10
56.9881627999054
20
29.6459178064863
30
0
41
1
10
56.9855397322679
20
29.639349284674
30
0
41
1
10
56.9795952571665
20
29.6267811643666
30
0
41
1
10
56.9762771348666
20
29.6208094712005
30
0
41
1
10
56.9691673539334
20
29.6098333039658
30
0
41
1
10
56.9653514005482
20
29.6047741684922
30
0
41
1
10
56.9571976684985
20
29.5955132999902
30
0
41
1
10
56.9528374550609
20
29.591302129915
30
0
41
1
10
56.9438372632789
20
29.5839873022252
30
0
41
1
10
56.9391716942392
20
29.5808483867574
30
0
41
1
10
56.9343402421793
20
29.5782292539702
30
0
0
SPLINE
5
124
100
AcDbEntity
8
1
62
256
6
ByLayer
370
18
48
1
60
0
100
AcDbSpline
70
4
71
2
72
6
73
3
40
0
40
0
40
0
40
1
40
1
40
1
41
0.499998746208245
10
56.9991557022109
20
30.2695134191041
30
0
41
0.500001253791755
10
57.0000001573165
20
29.9946019328084
30
0
41
0.499998746208245
10
57.0008436384063
20
29.7195781178451
30
0
0
SPLINE
5
125
100
AcDbEntity
8
1
62
256
6
ByLayer
370
18
48
1
60
0
100
AcDbSpline
70
4
71
3
72
20
73
16
40
0
40
0
40
0
40
0
40
0.249999999999998
40
0.249999999999998
40
0.374999999999999
40
0.374999999999999
40
0.499999999999999
40
0.499999999999999
40
0.624999999999999
40
0.624999999999999
40
0.749999999999999
40
0.749999999999999
40
0.875
40
0.875
40
1
40
1
40
1
40
1
41
1
10
56.9317407751111
20
30.4100708186449
30
0
41
1
10
56.9414455007483
20
30.4049459706901
30
0
41
1
10
56.9504392387067
20
30.3978053228694
30
0
41
1
10
56.9628432048344
20
30.3840134955006
30
0
41
1
10
56.9667382592653
20
30.3789464547375
30
0
41
1
10
56.9739127735966
20
30.3680820905486
30
0
41
1
10
56.9772168538376
20
30.3622580601082
30
0
41
1
10
56.9832437734763
20
30.349805702538
30
0
41
1
10
56.9859670010399
20
30.3431508667605
30
0
41
1
10
56.9906288455433
20
30.3294858040958
30
0
41
1
10
56.9925967950369
20
30.3224228321776
30
0
41
1
10
56.9958018919803
20
30.3078329239046
30
0
41
1
10
56.997042605396
20
30.300248203343
30
0
41
1
10
56.9987021063211
20
30.284982048309
30
0
41
1
10
56.9991318397854
20
30.2772818070372
30
0
41
1
10
56.9991557022109
20
30.269513419104
30
0
0
SPLINE
5
126
100
AcDbEntity
8
1
62
256
6
ByLayer
370
18
48
1
60
0
100
AcDbSpline
70
4
71
3
72
8
73
4
40
0
40
0
40
0
40
0
40
1
40
1
40
1
40
1
41
1
10
56.7727458333313
20
30.4932095403165
30
0
41
1
10
56.8258207300124
20
30.4658296568755
30
0
41
1
10
56.8787987119115
20
30.4380283348544
30
0
41
1
10
56.9317407751111
20
30.4100708186449
30
0
0
SPLINE
5
127
100
AcDbEntity
8
1
62
256
6
ByLayer
370
18
48
1
60
0
100
AcDbSpline
70
4
71
3
72
16
73
12
40
0
40
0
40
0
40
0
40
0.124999999999999
40
0.124999999999999
40
0.249999999999999
40
0.249999999999999
40
0.499999999999999
40
0.499999999999999
40
0.75
40
0.75
40
1
40
1
40
1
40
1
41
1
10
56.5087981774498
20
32.4338245521525
30
0
41
1
10
56.5218596897155
20
32.3536481722647
30
0
41
1
10
56.5342131463967
20
32.2732286661955
30
0
41
1
10
56.5581971799237
20
32.1121414376488
30
0
41
1
10
56.569813647239
20
32.0314675310143
30
0
41
1
10
56.6039870412334
20
31.7892222074512
30
0
41
1
10
56.6258822627431
20
31.6274600133833
30
0
41
1
10
56.6688811120989
20
31.3036988616498
30
0
41
1
10
56.6899605260172
20
31.1416926616616
30
0
41
1
10
56.7316607931106
20
30.8175431073646
30
0
41
1
10
56.7522754245608
20
30.655397892154
30
0
41
1
10
56.7727458333313
20
30.4932095403165
30
0
0
SPLINE
5
128
100
AcDbEntity
8
1
62
256
6
ByLayer
370
18
48
1
60
0
100
AcDbSpline
70
4
71
3
72
12
73
8
40
0
40
0
40
0
40
0
40
0.578285545960652
40
0.578285545960652
40
0.867428318940977
40
0.867428318940977
40
1
40
1
40
1
40
1
41
1
10
24.0656029666378
20
-13.5000980117747
30
0
41
1
10
23.9379161416777
20
-13.5000980117748
30
0
41
1
10
23.8116109612555
20
-13.5061959265707
30
0
41
1
10
23.6241153135022
20
-13.5240409066293
30
0
41
1
10
23.5619455623946
20
-13.5314418919881
30
0
41
1
10
23.4717519743394
20
-13.5443223204458
30
0
41
1
10
23.4433979547573
20
-13.5486847931524
30
0
41
1
10
23.4153388946848
20
-13.5533073884953
30
0
0
SPLINE
5
129
100
AcDbEntity
8
1
62
256
6
ByLayer
370
18
48
1
60
0
100
AcDbSpline
70
4
71
3
72
8
73
4
40
0
40
0
40
0
40
0
40
1
40
1
40
1
40
1
41
1
10
27.2792189712395
20
32.6844578769884
30
0
41
1
10
27.3191806013387
20
32.6811046828059
30
0
41
1
10
27.3491201566086
20
32.6786223489108
30
0
41
1
10
27.3692486618071
20
32.677050602235
30
0
0
SPLINE
5
12A
100
AcDbEntity
8
1
62
256
6
ByLayer
370
18
48
1
60
0
100
AcDbSpline
70
4
71
3
72
10
73
6
40
0
40
0
40
0
40
0
40
0.5
40
0.5
40
1
40
1
40
1
40
1
41
1
10
45.4010920229867
20
25.8394283370353
30
0
41
1
10
45.4021781958268
20
25.8419730262605
30
0
41
1
10
45.4036268424378
20
25.8445177129679
30
0
41
1
10
45.4050807191055
20
25.8496070964092
30
0
41
1
10
45.4050839594947
20
25.8521517957117
30
0
41
1
10
45.4043615199803
20
25.8546965309784
30
0
0
SPLINE
5
12B
100
AcDbEntity
8
1
62
256
6
ByLayer
370
18
48
1
60
0
100
AcDbSpline
70
4
71
3
72
38
73
34
40
0
40
0
40
0
40
0
40
0.124999999999984
40
0.124999999999984
40
0.187499999999978
40
0.187499999999978
40
0.218749999999974
40
0.218749999999974
40
0.249999999999971
40
0.249999999999971
40
0.374999999999953
40
0.374999999999953
40
0.437499999999942
40
0.437499999999942
40
0.468749999999939
40
0.468749999999939
40
0.499999999999937
40
0.499999999999937
40
0.624999999999937
40
0.624999999999937
40
0.65624999999994
40
0.65624999999994
40
0.687499999999943
40
0.687499999999943
40
0.749999999999957
40
0.749999999999957
40
0.874999999999974
40
0.874999999999974
40
0.906249999999978
40
0.906249999999978
40
0.937499999999983
40
0.937499999999983
40
1
40
1
40
1
40
1
41
1
10
45.4010920229867
20
25.8394283370353
30
0
41
1
10
45.4048921106932
20
25.9414199900495
30
0
41
1
10
45.4184522612425
20
26.0413891522666
30
0
41
1
10
45.4528271337977
20
26.1884346208903
30
0
41
1
10
45.4666410813873
20
26.2369616353567
30
0
41
1
10
45.4909669248598
20
26.3090051411954
30
0
41
1
10
45.4996773782948
20
26.3328949294235
30
0
41
1
10
45.5183269304564
20
26.3804199046712
30
0
41
1
10
45.5282201620929
20
26.4039331626819
30
0
41
1
10
45.5802647413123
20
26.5197548502606
30
0
41
1
10
45.6302881657115
20
26.6074078992564
30
0
41
1
10
45.7177154200168
20
26.7314940947455
30
0
41
1
10
45.7489370405764
20
26.7716156673565
30
0
41
1
10
45.7989955304444
20
26.8298732968256
30
0
41
1
10
45.8161819765039
20
26.8489213174966
30
0
41
1
10
45.8512678041881
20
26.8859771391563
30
0
41
1
10
45.8692062900247
20
26.9040310883938
30
0
41
1
10
45.960848041224
20
26.9919652198771
30
0
41
1
10
46.0403461308005
20
27.0549022308413
30
0
41
1
10
46.1475338127688
20
27.1242097299924
30
0
41
1
10
46.169365447194
20
27.137599034285
30
0
41
1
10
46.2138329437026
20
27.1634140432555
30
0
41
1
10
46.2364577828113
20
27.1758283451793
30
0
41
1
10
46.3047949635036
20
27.2112175944838
30
0
41
1
10
46.3512113659243
20
27.2324881817692
30
0
41
1
10
46.4929755843398
20
27.2894951011348
30
0
41
1
10
46.5908149778814
20
27.3184899948164
30
0
41
1
10
46.7174294583564
20
27.3430579107625
30
0
41
1
10
46.7429750720162
20
27.3473798919466
30
0
41
1
10
46.7940731347042
20
27.3547641532193
30
0
41
1
10
46.8196791155403
20
27.3578377771806
30
0
41
1
10
46.8966671717263
20
27.3652111094047
30
0
41
1
10
46.9482189580359
20
27.3676676517752
30
0
41
1
10
47.0000000000003
20
27.3676343360681
30
0
0
SPLINE
5
12C
100
AcDbEntity
8
1
62
256
6
ByLayer
370
18
48
1
60
0
100
AcDbSpline
70
4
71
3
72
46
73
42
40
0
40
0
40
0
40
0
40
0.062500000000012
40
0.062500000000012
40
0.125000000000024
40
0.125000000000024
40
0.156250000000028
40
0.156250000000028
40
0.171875000000029
40
0.171875000000029
40
0.187500000000031
40
0.250000000000046
40
0.312500000000062
40
0.312500000000062
40
0.328125000000063
40
0.328125000000063
40
0.343750000000064
40
0.375000000000059
40
0.375000000000059
40
0.43750000000005
40
0.43750000000005
40
0.468750000000044
40
0.468750000000044
40
0.500000000000038
40
0.500000000000038
40
0.56250000000003
40
0.56250000000003
40
0.625000000000021
40
0.625000000000021
40
0.656250000000018
40
0.656250000000018
40
0.687500000000014
40
0.687500000000014
40
0.750000000000013
40
0.750000000000013
40
0.87500000000001
40
0.87500000000001
40
0.906250000000009
40
0.906250000000009
40
0.937500000000008
40
1
40
1
40
1
40
1
41
1
10
45.4000000000004
20
27.3255152697493
30
0
41
1
10
45.4000000000004
20
27.3825631902885
30
0
41
1
10
45.402780035893
20
27.4390641626463
30
0
41
1
10
45.4140154357929
20
27.5509495353062
30
0
41
1
10
45.422469664466
20
27.6063341589756
30
0
41
1
10
45.4396433646521
20
27.6885272617944
30
0
41
1
10
45.4461183182536
20
27.7157773305625
30
0
41
1
10
45.4570031873825
20
27.7564217664665
30
0
41
1
10
45.4608272850633
20
27.7699285278443
30
0
41
1
10
45.4688098489331
20
27.7966567661965
30
0
41
1
10
45.4896379349729
20
27.8628942101243
30
0
41
1
10
45.5348707048152
20
27.976942063255
30
0
41
1
10
45.5859416140198
20
28.0710499091261
30
0
41
1
10
45.6213237219615
20
28.1275507046492
30
0
41
1
10
45.6285878576961
20
28.1387553675476
30
0
41
1
10
45.6433860074053
20
28.1608112048161
30
0
41
1
10
45.6659801402752
20
28.1933580438017
30
0
41
1
10
45.6897384743615
20
28.224330011921
30
0
41
1
10
45.7387518607034
20
28.2842492656503
30
0
41
1
10
45.7734190384415
20
28.321501319685
30
0
41
1
10
45.8282682821764
20
28.3735261290013
30
0
41
1
10
45.8470271702138
20
28.3902240854201
30
0
41
1
10
45.8854851699956
20
28.4223481125192
30
0
41
1
10
45.9051881705341
20
28.4377694616611
30
0
41
1
10
45.9649722494935
20
28.4816446901837
30
0
41
1
10
46.0059555387065
20
28.5079172529838
30
0
41
1
10
46.0899836502296
20
28.5550168496257
30
0
41
1
10
46.1330292750575
20
28.5758417636207
30
0
41
1
10
46.1990577622259
20
28.6032224203226
30
0
41
1
10
46.2213677298481
20
28.6117236278888
30
0
41
1
10
46.2661195582615
20
28.6273451341476
30
0
41
1
10
46.2885649262644
20
28.6344717377224
30
0
41
1
10
46.3560981510508
20
28.6539098246026
30
0
41
1
10
46.4013825694044
20
28.6642850924958
30
0
41
1
10
46.5379569502627
20
28.6883074990982
30
0
41
1
10
46.6299623370966
20
28.6949074026263
30
0
41
1
10
46.7460578015689
20
28.692432817409
30
0
41
1
10
46.7693524748155
20
28.6913940714096
30
0
41
1
10
46.8157677647373
20
28.6882683731472
30
0
41
1
10
46.885227366404
20
28.6820068812051
30
0
41
1
10
46.9542124045727
20
28.6711752100608
30
0
41
1
10
47.0000000000004
20
28.6620046382787
30
0
0
SPLINE
5
12D
100
AcDbEntity
8
1
62
256
6
ByLayer
370
18
48
1
60
0
100
AcDbSpline
70
4
71
3
72
10
73
6
40
0
40
0
40
0
40
0
40
0.5
40
0.5
40
1
40
1
40
1
40
1
41
1
10
21.4383186059721
20
25.15
30
0
41
1
10
21.5071906502194
20
25.15
30
0
41
1
10
21.5932778689697
20
25.15
30
0
41
1
10
21.7962949188296
20
25.15
30
0
41
1
10
21.9132045260633
20
25.15
30
0
41
1
10
22.0434614337643
20
25.15
30
0
0
SPLINE
5
12E
100
AcDbEntity
8
1
62
256
6
ByLayer
370
18
48
1
60
0
100
AcDbSpline
70
4
71
3
72
32
73
28
40
0
40
0
40
0
40
0
40
0.0235015228600245
40
0.0264392132175276
40
0.0264392132175276
40
0.0293769035750306
40
0.0293769035750306
40
0.0352522842900366
40
0.0470030457200487
40
0.0940060914400962
40
0.188012182880191
40
0.188012182880191
40
0.376024365760382
40
0.376024365760382
40
0.470030457200477
40
0.470030457200477
40
0.564036548640572
40
0.564036548640572
40
0.658042640080667
40
0.658042640080667
40
0.752048731520762
40
0.752048731520762
40
0.846054822960857
40
0.846054822960857
40
0.940060914400952
40
0.940060914400952
40
1
40
1
40
1
40
1
41
1
10
21.4383186059721
20
25.15
30
0
41
1
10
21.4351943700966
20
25.15
30
0
41
1
10
21.4315069737348
20
25.15
30
0
41
1
10
21.4276357136816
20
25.15
30
0
41
1
10
21.4267709239508
20
25.15
30
0
41
1
10
21.4263485777755
20
25.15
30
0
41
1
10
21.4250613359168
20
25.15
30
0
41
1
10
21.4224611693405
20
25.15
30
0
41
1
10
21.4126486730436
20
25.15
30
0
41
1
10
21.3873241276671
20
25.15
30
0
41
1
10
21.3597629786821
20
25.15
30
0
41
1
10
21.3004022859049
20
25.15
30
0
41
1
10
21.2551453978899
20
25.15
30
0
41
1
10
21.1841426036005
20
25.15
30
0
41
1
10
21.1599596905409
20
25.15
30
0
41
1
10
21.1116151463693
20
25.15
30
0
41
1
10
21.0874513722321
20
25.15
30
0
41
1
10
21.0404004864048
20
25.15
30
0
41
1
10
21.0175117591862
20
25.15
30
0
41
1
10
20.9745386695542
20
25.15
30
0
41
1
10
20.9544570638221
20
25.15
30
0
41
1
10
20.9188978628148
20
25.15
30
0
41
1
10
20.9034326405853
20
25.15
30
0
41
1
10
20.8789709356451
20
25.15
30
0
41
1
10
20.8699966587834
20
25.15
30
0
41
1
10
20.861742406504
20
25.15
30
0
41
1
10
20.8601345155444
20
25.15
30
0
41
1
10
20.8601644254138
20
25.15
30
0
0
SPLINE
5
12F
100
AcDbEntity
8
1
62
256
6
ByLayer
370
18
48
1
60
0
100
AcDbSpline
70
4
71
3
72
22
73
18
40
0
40
0
40
0
40
0
40
0.125
40
0.125
40
0.25
40
0.25
40
0.375
40
0.375
40
0.5
40
0.5
40
0.625
40
0.625
40
0.75
40
0.75
40
0.875
40
0.875
40
1
40
1
40
1
40
1
41
1
10
21.1184211028338
20
25.15
30
0
41
1
10
21.1238306039846
20
25.15
30
0
41
1
10
21.1319164493004
20
25.1527586035199
30
0
41
1
10
21.1520357454861
20
25.1631741332617
30
0
41
1
10
21.1640687279343
20
25.1708351771952
30
0
41
1
10
21.1908865640529
20
25.1908638509249
30
0
41
1
10
21.2057537658964
20
25.2033233259228
30
0
41
1
10
21.2364825237578
20
25.2323223284603
30
0
41
1
10
21.2524067733555
20
25.2488934761511
30
0
41
1
10
21.2845126059943
20
25.2861902839991
30
0
41
1
10
21.3007115389223
20
25.3069342854305
30
0
41
1
10
21.3326035080025
20
25.3528032537632
30
0
41
1
10
21.3480352745408
20
25.377553122109
30
0
41
1
10
21.377277879452
20
25.4307736227705
30
0
41
1
10
21.3910923555225
20
25.4592433917583
30
0
41
1
10
21.416522093174
20
25.5202038942893
30
0
41
1
10
21.4281417072005
20
25.552691159615
30
0
41
1
10
21.4383186059721
20
25.5874737195788
30
0
0
SPLINE
5
130
100
AcDbEntity
8
1
62
256
6
ByLayer
370
18
48
1
60
0
100
AcDbSpline
70
4
71
3
72
61
73
57
40
0
40
0
40
0
40
0
40
0.0312499999999993
40
0.0312499999999993
40
0.0468749999999995
40
0.0468749999999995
40
0.0624999999999997
40
0.0624999999999997
40
0.125000000000001
40
0.125000000000001
40
0.187500000000001
40
0.187500000000001
40
0.203125000000001
40
0.203125000000001
40
0.218750000000001
40
0.218750000000001
40
0.250000000000001
40
0.250000000000001
40
0.3125
40
0.3125
40
0.374999999999999
40
0.374999999999999
40
0.437499999999999
40
0.437499999999999
40
0.453124999999998
40
0.453124999999998
40
0.468749999999997
40
0.499999999999998
40
0.499999999999998
40
0.562499999999998
40
0.562499999999998
40
0.624999999999998
40
0.624999999999998
40
0.687499999999998
40
0.687499999999998
40
0.749999999999999
40
0.749999999999999
40
0.812499999999999
40
0.812499999999999
40
0.843749999999999
40
0.843749999999999
40
0.875
40
0.875
40
0.90625
40
0.90625
40
0.9375
40
0.9375
40
0.953125000000001
40
0.953125000000001
40
0.968750000000002
40
0.968750000000002
40
0.976562500000002
40
0.976562500000002
40
0.984375000000002
40
0.984375000000002
40
1
40
1
40
1
40
1
41
1
10
23.4000000000004
20
-13.5558651724506
30
0
41
1
10
23.3320114003304
20
-13.5673384843673
30
0
41
1
10
23.2644889705826
20
-13.5805398862882
30
0
41
1
10
23.1638971555184
20
-13.6029058797867
30
0
41
1
10
23.1304819148824
20
-13.6107887461856
30
0
41
1
10
23.0638816258063
20
-13.6274074354239
30
0
41
1
10
23.0306415124916
20
-13.6361587473329
30
0
41
1
10
22.8656931543771
20
-13.6818567862537
30
0
41
1
10
22.7386080028711
20
-13.7243292732288
30
0
41
1
10
22.4931146609962
20
-13.8197956153046
30
0
41
1
10
22.374711759945
20
-13.8727959348927
30
0
41
1
10
22.2317187105179
20
-13.9451162080914
30
0
41
1
10
22.2033714109138
20
-13.9598847014632
30
0
41
1
10
22.1471718852629
20
-13.9900212553981
30
0
41
1
10
22.1192961397261
20
-14.0054027178632
30
0
41
1
10
22.0365582499613
20
-14.0523452096138
30
0
41
1
10
21.9828533499005
20
-14.0845472845026
30
0
41
1
10
21.8257974631505
20
-14.183683946417
30
0
41
1
10
21.7264911781843
20
-14.2531402271821
30
0
41
1
10
21.5374889321871
20
-14.3980312422447
30
0
41
1
10
21.4477981660271
20
-14.4734692992649
30
0
41
1
10
21.27725033991
20
-14.6298239888792
30
0
41
1
10
21.1963961429367
20
-14.7107425353993
30
0
41
1
10
21.1005361094067
20
-14.8151060624718
30
0
41
1
10
21.0816481024288
20
-14.8361156004734
30
0
41
1
10
21.0445316145713
20
-14.8782824566521
30
0
41
1
10
20.9897974355207
20
-14.941807672105
30
0
41
1
10
20.9378044238343
20
-15.006131971254
30
0
41
1
10
20.8372919710835
20
-15.1357863871109
30
0
41
1
10
20.7749068825393
20
-15.223561956613
30
0
41
1
10
20.658651718483
20
-15.4015317581031
30
0
41
1
10
20.6047839897587
20
-15.4917273525657
30
0
41
1
10
20.5050745403335
20
-15.6743220066258
30
0
41
1
10
20.4592341679192
20
-15.7667230652352
30
0
41
1
10
20.3752716494494
20
-15.9535084129993
30
0
41
1
10
20.3371501855996
20
-16.0478974216042
30
0
41
1
10
20.2684695117586
20
-16.2383435902014
30
0
41
1
10
20.2381032898733
20
-16.3338837557314
30
0
41
1
10
20.1983331840291
20
-16.4770257781646
30
0
41
1
10
20.1860386806878
20
-16.5247147699281
30
0
41
1
10
20.1633521747071
20
-16.6198535717639
30
0
41
1
10
20.1529585948248
20
-16.6673157555668
30
0
41
1
10
20.1340696118002
20
-16.7616146021209
30
0
41
1
10
20.1255851207962
20
-16.8084086402377
30
0
41
1
10
20.1105298408847
20
-16.9004552996594
30
0
41
1
10
20.103957379521
20
-16.9457641066348
30
0
41
1
10
20.0955591762012
20
-17.0109837499785
30
0
41
1
10
20.0930054607357
20
-17.0322429115045
30
0
41
1
10
20.0884235010625
20
-17.0729413223094
30
0
41
1
10
20.0863917840017
20
-17.0924198683092
30
0
41
1
10
20.0837643488851
20
-17.1192542139497
30
0
41
1
10
20.082958806167
20
-17.1277948208922
30
0
41
1
10
20.0814995142912
20
-17.143750069626
30
0
41
1
10
20.0808507095814
20
-17.1511112087179
30
0
41
1
10
20.0791792489791
20
-17.1705600039754
30
0
41
1
10
20.078420299691
20
-17.1801140598956
30
0
41
1
10
20.0781107176532
20
-17.1840195969986
30
0
0
SPLINE
5
131
100
AcDbEntity
8
1
62
256
6
ByLayer
370
18
48
1
60
0
100
AcDbSpline
70
4
71
3
72
10
73
6
40
0
40
0
40
0
40
0
40
0.5
40
0.5
40
1
40
1
40
1
40
1
41
1
10
22.0434614337643
20
25.15
30
0
41
1
10
21.9386901833709
20
24.6812730505122
30
0
41
1
10
21.8356801343149
20
24.2129926966045
30
0
41
1
10
21.6337533008181
20
23.2772910731061
30
0
41
1
10
21.5348352879546
20
22.809869582436
30
0
41
1
10
21.4383186059721
20
22.3428651698907
30
0
0
SPLINE
5
132
100
AcDbEntity
8
1
62
256
6
ByLayer
370
18
48
1
60
0
100
AcDbSpline
70
4
71
3
72
28
73
24
40
0
40
0
40
0
40
0
40
0.125000000000001
40
0.125000000000001
40
0.250000000000002
40
0.250000000000002
40
0.375000000000003
40
0.375000000000003
40
0.500000000000003
40
0.500000000000003
40
0.625000000000004
40
0.625000000000004
40
0.750000000000005
40
0.750000000000005
40
0.812500000000005
40
0.812500000000005
40
0.875000000000006
40
0.875000000000006
40
0.906250000000005
40
0.906250000000005
40
0.937500000000005
40
0.937500000000005
40
1
40
1
40
1
40
1
41
1
10
20.2792076144253
20
20.1252650422422
30
0
41
1
10
20.3128433412071
20
20.200428333831
30
0
41
1
10
20.3505064828628
20
20.2749280648108
30
0
41
1
10
20.4331297874798
20
20.4245186778602
30
0
41
1
10
20.4780917442147
20
20.4996111550672
30
0
41
1
10
20.5741634296694
20
20.6525869208874
30
0
41
1
10
20.6252756074697
20
20.7304696859752
30
0
41
1
10
20.7320435406842
20
20.8914807577847
30
0
41
1
10
20.7877040900148
20
20.9746044323675
30
0
41
1
10
20.9014087434084
20
21.1488751157572
30
0
41
1
10
20.959463794751
20
21.2400082919488
30
0
41
1
10
21.0750245845514
20
21.4336495435261
30
0
41
1
10
21.1314551270656
20
21.5343979655524
30
0
41
1
10
21.2110421461321
20
21.693146184112
30
0
41
1
10
21.2367246248552
20
21.7473387514829
30
0
41
1
10
21.285791665523
20
21.8586537892693
30
0
41
1
10
21.3091787333275
20
21.915773871347
30
0
41
1
10
21.3419854450008
20
22.0040177769093
30
0
41
1
10
21.3525439421335
20
22.0338783122933
30
0
41
1
10
21.3726366237039
20
22.0940520767729
30
0
41
1
10
21.3821920457951
20
22.1244196436406
30
0
41
1
10
21.4092340360033
20
22.2164200271341
30
0
41
1
10
21.4251079364448
20
22.2789441892352
30
0
41
1
10
21.4383186059721
20
22.3428651698907
30
0
0
SPLINE
5
133
100
AcDbEntity
8
1
62
256
6
ByLayer
370
18
48
1
60
0
100
AcDbSpline
70
4
71
3
72
26
73
22
40
0
40
0
40
0
40
0
40
0.0624999999999983
40
0.0624999999999983
40
0.0937499999999936
40
0.0937499999999936
40
0.124999999999989
40
0.124999999999989
40
0.249999999999987
40
0.249999999999987
40
0.374999999999985
40
0.374999999999985
40
0.437499999999983
40
0.437499999999983
40
0.499999999999981
40
0.499999999999981
40
0.624999999999981
40
0.624999999999981
40
0.749999999999984
40
0.749999999999984
40
1
40
1
40
1
40
1
41
1
10
11.4613248654052
20
23.8391299750502
30
0
41
1
10
11.4772013120199
20
23.8391299750502
30
0
41
1
10
11.4927843117432
20
23.8386381480423
30
0
41
1
10
11.5157579869923
20
23.8372273769848
30
0
41
1
10
11.5233488813096
20
23.8366445991221
30
0
41
1
10
11.5384012334117
20
23.8352611656444
30
0
41
1
10
11.5458956692735
20
23.8344558067494
30
0
41
1
10
11.582404000511
20
23.8299833264009
30
0
41
1
10
11.6089650834003
20
23.8249896713849
30
0
41
1
10
11.6582924559948
20
23.813005969379
30
0
41
1
10
11.6801688454703
20
23.8062336877525
30
0
41
1
10
11.7102266942346
20
23.7952700628808
30
0
41
1
10
11.719773612984
20
23.7914778883489
30
0
41
1
10
11.7380555263963
20
23.7836514357395
30
0
41
1
10
11.7468017366172
20
23.7796095569562
30
0
41
1
10
11.7716769242357
20
23.7673085978343
30
0
41
1
10
11.7865761040498
20
23.7588292909636
30
0
41
1
10
11.8138519277098
20
23.7414211400326
30
0
41
1
10
11.8262196262291
20
23.7324910902464
30
0
41
1
10
11.8602443227467
20
23.7051129235882
30
0
41
1
10
11.8788862370737
20
23.6860331168061
30
0
41
1
10
11.8943375672975
20
23.6665017920808
30
0
0
SPLINE
5
134
100
AcDbEntity
8
1
62
256
6
ByLayer
370
18
48
1
60
0
100
AcDbSpline
70
4
71
3
72
30
73
26
40
0
40
0
40
0
40
0
40
0.25
40
0.25
40
0.374999999999996
40
0.374999999999996
40
0.437499999999993
40
0.437499999999993
40
0.49999999999999
40
0.49999999999999
40
0.624999999999989
40
0.624999999999989
40
0.687499999999989
40
0.687499999999989
40
0.749999999999989
40
0.749999999999989
40
0.812499999999988
40
0.812499999999988
40
0.843749999999991
40
0.843749999999991
40
0.874999999999994
40
0.874999999999994
40
0.937499999999997
40
0.937499999999997
40
1
40
1
40
1
40
1
41
1
10
11.8943375672973
20
8.05584836782791
30
0
41
1
10
11.8788923030149
20
7.9984916943493
30
0
41
1
10
11.8604037172645
20
7.94218253951274
30
0
41
1
10
11.8264575712212
20
7.85991012495438
30
0
41
1
10
11.8140962699691
20
7.8328550605851
30
0
41
1
10
11.7935837333005
20
7.79297622996174
30
0
41
1
10
11.7864159259844
20
7.77980127287398
30
0
41
1
10
11.7713191828915
20
7.75372482186646
30
0
41
1
10
11.7633824368151
20
7.74081492713998
30
0
41
1
10
11.7384769785308
20
7.70292805784948
30
0
41
1
10
11.7203772593316
20
7.67866353751202
30
0
41
1
10
11.6901125047557
20
7.64434849039861
30
0
41
1
10
11.6794995583259
20
7.63327217102551
30
0
41
1
10
11.6573691354905
20
7.6123213786517
30
0
41
1
10
11.6458165560481
20
7.60240297286816
30
0
41
1
10
11.6215461384038
20
7.58390025536215
30
0
41
1
10
11.6088302857938
20
7.57531366225038
30
0
41
1
10
11.5886665813883
20
7.56368345606458
30
0
41
1
10
11.5817366894217
20
7.56000567013078
30
0
41
1
10
11.5676991017995
20
7.55323657194805
30
0
41
1
10
11.5605721090663
20
7.55013193108826
30
0
41
1
10
11.53884494046
20
7.54171396614049
30
0
41
1
10
11.5239007732521
20
7.53729092133952
30
0
41
1
10
11.4929356027573
20
7.53123335639165
30
0
41
1
10
11.477175816822
20
7.52966679426495
30
0
41
1
10
11.4613248654052
20
7.52966679426495
30
0
0
SPLINE
5
135
100
AcDbEntity
8
1
62
256
6
ByLayer
370
18
48
1
60
0
100
AcDbSpline
70
4
71
3
72
26
73
22
40
0
40
0
40
0
40
0
40
0.0624999999999898
40
0.0624999999999898
40
0.0937499999999877
40
0.0937499999999877
40
0.124999999999986
40
0.124999999999986
40
0.249999999999989
40
0.249999999999989
40
0.374999999999992
40
0.374999999999992
40
0.437499999999994
40
0.437499999999994
40
0.499999999999996
40
0.499999999999996
40
0.624999999999999
40
0.624999999999999
40
0.749999999999999
40
0.749999999999999
40
1
40
1
40
1
40
1
41
1
10
8.53867513459488
20
7.52966679426515
30
0
41
1
10
8.52279868798016
20
7.52966679426515
30
0
41
1
10
8.50721568825682
20
7.53122440152958
30
0
41
1
10
8.48424201300779
20
7.53568798536665
30
0
41
1
10
8.47665111869043
20
7.53753139400644
30
0
41
1
10
8.46159876658839
20
7.54190496002263
30
0
41
1
10
8.45410433072652
20
7.54444995843579
30
0
41
1
10
8.41759599948898
20
7.55857361750117
30
0
41
1
10
8.39103491659975
20
7.5743155696812
30
0
41
1
10
8.3417075440052
20
7.61190750686274
30
0
41
1
10
8.31983115452977
20
7.63307325241212
30
0
41
1
10
8.28977330576538
20
7.66715495165656
30
0
41
1
10
8.280226387016
20
7.67891539799632
30
0
41
1
10
8.26194447360365
20
7.70312184666886
30
0
41
1
10
8.25319826338281
20
7.71559105034078
30
0
41
1
10
8.22832307576428
20
7.75343444963912
30
0
41
1
10
8.21342389595023
20
7.77938351245618
30
0
41
1
10
8.18614807229017
20
7.83234954293013
30
0
41
1
10
8.17378037377094
20
7.85937042586593
30
0
41
1
10
8.13975567725333
20
7.94172327888199
30
0
41
1
10
8.12111376292626
20
7.99846916820718
30
0
41
1
10
8.1056624327025
20
8.05584836782782
30
0
0
SPLINE
5
136
100
AcDbEntity
8
1
62
256
6
ByLayer
370
18
48
1
60
0
100
AcDbSpline
70
4
71
3
72
30
73
26
40
0
40
0
40
0
40
0
40
0.250000000000004
40
0.250000000000004
40
0.375000000000002
40
0.375000000000002
40
0.4375
40
0.4375
40
0.499999999999998
40
0.499999999999998
40
0.625000000000004
40
0.625000000000004
40
0.687500000000005
40
0.687500000000005
40
0.750000000000005
40
0.750000000000005
40
0.812500000000006
40
0.812500000000006
40
0.843750000000006
40
0.843750000000006
40
0.875000000000005
40
0.875000000000005
40
0.937500000000003
40
0.937500000000003
40
1
40
1
40
1
40
1
41
1
10
8.10566243270267
20
23.6665017920808
30
0
41
1
10
8.12110769698506
20
23.6860254491251
30
0
41
1
10
8.13959628273548
20
23.7049589195931
30
0
41
1
10
8.17354242877877
20
23.7323123198157
30
0
41
1
10
8.18590373003093
20
23.7412544902041
30
0
41
1
10
8.20641626669953
20
23.7543620682907
30
0
41
1
10
8.21358407401561
20
23.7586801045418
30
0
41
1
10
8.22868081710851
20
23.7672030231185
30
0
41
1
10
8.23661756318495
20
23.7714105724815
30
0
41
1
10
8.2615230214692
20
23.7837256270429
30
0
41
1
10
8.2796227406684
20
23.7915679133937
30
0
41
1
10
8.30988749524425
20
23.8026065911347
30
0
41
1
10
8.32050044167417
20
23.8061604830514
30
0
41
1
10
8.34263086450954
20
23.8128680383081
30
0
41
1
10
8.35418344395191
20
23.816035844018
30
0
41
1
10
8.3784538615962
20
23.8219342456095
30
0
41
1
10
8.39116971420628
20
23.8246655611125
30
0
41
1
10
8.41133341861178
20
23.8283593459882
30
0
41
1
10
8.41826331057828
20
23.8295263669799
30
0
41
1
10
8.43230089820059
20
23.8316728303992
30
0
41
1
10
8.4394278909337
20
23.8326565134122
30
0
41
1
10
8.46115505954
20
23.8353222152631
30
0
41
1
10
8.47609922674792
20
23.8367207404254
30
0
41
1
10
8.50706439724271
20
23.838635326325
30
0
41
1
10
8.52282418317802
20
23.8391299750504
30
0
41
1
10
8.5386751345948
20
23.8391299750504
30
0
0
SPLINE
5
137
100
AcDbEntity
8
1
62
256
6
ByLayer
370
18
48
1
60
0
100
AcDbSpline
70
4
71
3
72
26
73
22
40
0
40
0
40
0
40
0
40
0.0624999999999989
40
0.0624999999999989
40
0.0937499999999991
40
0.0937499999999991
40
0.124999999999999
40
0.124999999999999
40
0.250000000000002
40
0.250000000000002
40
0.375000000000004
40
0.375000000000004
40
0.437500000000005
40
0.437500000000005
40
0.500000000000006
40
0.500000000000006
40
0.62500000000001
40
0.62500000000001
40
0.75000000000001
40
0.75000000000001
40
1
40
1
40
1
40
1
41
1
10
8.53867513459488
20
-23.8391299750503
30
0
41
1
10
8.52279868798016
20
-23.8391299750503
30
0
41
1
10
8.50721568825682
20
-23.8386381480423
30
0
41
1
10
8.48424201300776
20
-23.8372273769848
30
0
41
1
10
8.4766511186904
20
-23.8366445991222
30
0
41
1
10
8.46159876658837
20
-23.8352611656445
30
0
41
1
10
8.45410433072652
20
-23.8344558067495
30
0
41
1
10
8.41759599948898
20
-23.8299833264009
30
0
41
1
10
8.39103491659972
20
-23.8249896713849
30
0
41
1
10
8.3417075440052
20
-23.813005969379
30
0
41
1
10
8.31983115452974
20
-23.8062336877526
30
0
41
1
10
8.28977330576538
20
-23.7952700628808
30
0
41
1
10
8.280226387016
20
-23.7914778883489
30
0
41
1
10
8.26194447360365
20
-23.7836514357395
30
0
41
1
10
8.25319826338281
20
-23.7796095569563
30
0
41
1
10
8.22832307576428
20
-23.7673085978343
30
0
41
1
10
8.21342389595023
20
-23.7588292909636
30
0
41
1
10
8.18614807229017
20
-23.7414211400326
30
0
41
1
10
8.17378037377094
20
-23.7324910902464
30
0
41
1
10
8.13975567725333
20
-23.7051129235882
30
0
41
1
10
8.12111376292626
20
-23.6860331168061
30
0
41
1
10
8.1056624327025
20
-23.6665017920809
30
0
0
SPLINE
5
138
100
AcDbEntity
8
1
62
256
6
ByLayer
370
18
48
1
60
0
100
AcDbSpline
70
4
71
3
72
30
73
26
40
0
40
0
40
0
40
0
40
0.250000000000009
40
0.250000000000009
40
0.375000000000011
40
0.375000000000011
40
0.437500000000011
40
0.437500000000011
40
0.500000000000012
40
0.500000000000012
40
0.625000000000016
40
0.625000000000016
40
0.687500000000015
40
0.687500000000015
40
0.750000000000014
40
0.750000000000014
40
0.812500000000012
40
0.812500000000012
40
0.843750000000011
40
0.843750000000011
40
0.875000000000009
40
0.875000000000009
40
0.937500000000005
40
0.937500000000005
40
1
40
1
40
1
40
1
41
1
10
8.10566243270267
20
-8.05584836782785
30
0
41
1
10
8.12110769698506
20
-7.99849169434921
30
0
41
1
10
8.13959628273548
20
-7.94218253951266
30
0
41
1
10
8.17354242877877
20
-7.85991012495427
30
0
41
1
10
8.18590373003093
20
-7.83285506058502
30
0
41
1
10
8.20641626669953
20
-7.79297622996162
30
0
41
1
10
8.21358407401564
20
-7.7798012728739
30
0
41
1
10
8.22868081710851
20
-7.75372482186637
30
0
41
1
10
8.23661756318495
20
-7.74081492713987
30
0
41
1
10
8.2615230214692
20
-7.70292805784936
30
0
41
1
10
8.2796227406684
20
-7.67866353751191
30
0
41
1
10
8.30988749524428
20
-7.6443484903985
30
0
41
1
10
8.32050044167417
20
-7.6332721710254
30
0
41
1
10
8.34263086450954
20
-7.61232137865159
30
0
41
1
10
8.35418344395191
20
-7.60240297286802
30
0
41
1
10
8.3784538615962
20
-7.58390025536204
30
0
41
1
10
8.39116971420628
20
-7.57531366225027
30
0
41
1
10
8.41133341861178
20
-7.56368345606447
30
0
41
1
10
8.41826331057831
20
-7.56000567013066
30
0
41
1
10
8.43230089820059
20
-7.55323657194793
30
0
41
1
10
8.4394278909337
20
-7.55013193108815
30
0
41
1
10
8.46115505954
20
-7.54171396614038
30
0
41
1
10
8.47609922674792
20
-7.53729092133941
30
0
41
1
10
8.50706439724274
20
-7.53123335639154
30
0
41
1
10
8.52282418317805
20
-7.52966679426484
30
0
41
1
10
8.5386751345948
20
-7.52966679426484
30
0
0
SPLINE
5
139
100
AcDbEntity
8
1
62
256
6
ByLayer
370
18
48
1
60
0
100
AcDbSpline
70
4
71
3
72
26
73
22
40
0
40
0
40
0
40
0
40
0.0624999999999964
40
0.0624999999999964
40
0.0937499999999953
40
0.0937499999999953
40
0.124999999999994
40
0.124999999999994
40
0.249999999999997
40
0.249999999999997
40
0.374999999999999
40
0.374999999999999
40
0.437500000000001
40
0.437500000000001
40
0.500000000000002
40
0.500000000000002
40
0.625000000000001
40
0.625000000000001
40
0.750000000000002
40
0.750000000000002
40
1
40
1
40
1
40
1
41
1
10
11.4613248654052
20
-7.52966679426524
30
0
41
1
10
11.4772013120199
20
-7.52966679426524
30
0
41
1
10
11.4927843117432
20
-7.5312244015297
30
0
41
1
10
11.5157579869923
20
-7.53568798536676
30
0
41
1
10
11.5233488813096
20
-7.53753139400655
30
0
41
1
10
11.5384012334116
20
-7.54190496002275
30
0
41
1
10
11.5458956692735
20
-7.54444995843591
30
0
41
1
10
11.582404000511
20
-7.55857361750125
30
0
41
1
10
11.6089650834003
20
-7.57431556968129
30
0
41
1
10
11.6582924559948
20
-7.61190750686282
30
0
41
1
10
11.6801688454703
20
-7.6330732524122
30
0
41
1
10
11.7102266942346
20
-7.66715495165661
30
0
41
1
10
11.719773612984
20
-7.67891539799638
30
0
41
1
10
11.7380555263963
20
-7.70312184666892
30
0
41
1
10
11.7468017366172
20
-7.71559105034081
30
0
41
1
10
11.7716769242357
20
-7.75343444963914
30
0
41
1
10
11.7865761040498
20
-7.77938351245621
30
0
41
1
10
11.8138519277098
20
-7.83234954293016
30
0
41
1
10
11.8262196262291
20
-7.85937042586593
30
0
41
1
10
11.8602443227466
20
-7.94172327888199
30
0
41
1
10
11.8788862370737
20
-7.99846916820721
30
0
41
1
10
11.8943375672975
20
-8.05584836782785
30
0
0
SPLINE
5
13A
100
AcDbEntity
8
1
62
256
6
ByLayer
370
18
48
1
60
0
100
AcDbSpline
70
4
71
3
72
30
73
26
40
0
40
0
40
0
40
0
40
0.249999999999992
40
0.249999999999992
40
0.374999999999991
40
0.374999999999991
40
0.437499999999991
40
0.437499999999991
40
0.49999999999999
40
0.49999999999999
40
0.624999999999993
40
0.624999999999993
40
0.687499999999993
40
0.687499999999993
40
0.749999999999993
40
0.749999999999993
40
0.812499999999992
40
0.812499999999992
40
0.843749999999993
40
0.843749999999993
40
0.874999999999994
40
0.874999999999994
40
0.937499999999997
40
0.937499999999997
40
1
40
1
40
1
40
1
41
1
10
11.8943375672973
20
-23.6665017920808
30
0
41
1
10
11.8788923030149
20
-23.6860254491251
30
0
41
1
10
11.8604037172645
20
-23.7049589195931
30
0
41
1
10
11.8264575712212
20
-23.7323123198157
30
0
41
1
10
11.814096269969
20
-23.7412544902041
30
0
41
1
10
11.7935837333004
20
-23.7543620682906
30
0
41
1
10
11.7864159259844
20
-23.7586801045418
30
0
41
1
10
11.7713191828915
20
-23.7672030231185
30
0
41
1
10
11.763382436815
20
-23.7714105724815
30
0
41
1
10
11.7384769785308
20
-23.7837256270429
30
0
41
1
10
11.7203772593316
20
-23.7915679133937
30
0
41
1
10
11.6901125047557
20
-23.8026065911346
30
0
41
1
10
11.6794995583258
20
-23.8061604830514
30
0
41
1
10
11.6573691354905
20
-23.812868038308
30
0
41
1
10
11.6458165560481
20
-23.816035844018
30
0
41
1
10
11.6215461384038
20
-23.8219342456095
30
0
41
1
10
11.6088302857937
20
-23.8246655611124
30
0
41
1
10
11.5886665813883
20
-23.8283593459881
30
0
41
1
10
11.5817366894217
20
-23.8295263669799
30
0
41
1
10
11.5676991017994
20
-23.8316728303992
30
0
41
1
10
11.5605721090663
20
-23.8326565134122
30
0
41
1
10
11.53884494046
20
-23.8353222152631
30
0
41
1
10
11.5239007732521
20
-23.8367207404254
30
0
41
1
10
11.4929356027573
20
-23.8386353263249
30
0
41
1
10
11.477175816822
20
-23.8391299750504
30
0
41
1
10
11.4613248654053
20
-23.8391299750504
30
0
0
SPLINE
5
13B
100
AcDbEntity
8
1
62
256
6
ByLayer
370
18
48
1
60
0
100
AcDbSpline
70
4
71
3
72
10
73
6
40
0
40
0
40
0
40
0
40
0.5
40
0.5
40
1
40
1
40
1
40
1
41
1
10
20.2792076144253
20
20.1252650422422
30
0
41
1
10
20.2118041288577
20
19.9746434168296
30
0
41
1
10
20.1627141793077
20
19.8195669235281
30
0
41
1
10
20.0967308889998
20
19.500537528337
30
0
41
1
10
20.0798665616791
20
19.3365836053348
30
0
41
1
10
20.0781107176532
20
19.1681197329302
30
0
0
SPLINE
5
13C
100
AcDbEntity
8
SK1
62
256
6
ByLayer
370
18
48
1
60
0
100
AcDbSpline
70
4
71
3
72
45
73
41
40
0
40
0
40
0
40
0
40
0.023694305923645
40
0.0517123096207659
40
0.0797303133178868
40
0.107748317015008
40
0.16378432440925
40
0.219820331803492
40
0.247838335500612
40
0.275856339197733
40
0.303874342894854
40
0.331892346591975
40
0.359910350289096
40
0.387928353986217
40
0.415946357683338
40
0.429955359531899
40
0.443964361380459
40
0.47198236507758
40
0.48599136692614
40
0.492995867850421
40
0.500000368774701
40
0.507004869698981
40
0.514009370623261
40
0.528018372471822
40
0.556036376168943
40
0.570045378017503
40
0.584054379866064
40
0.612072383563185
40
0.640090387260305
40
0.668108390957426
40
0.696126394654547
40
0.724144398351668
40
0.752162402048789
40
0.78018040574591
40
0.836216413140152
40
0.892252420534394
40
0.920270424231515
40
0.948288427928636
40
0.976306431625757
40
1
40
1
40
1
40
1
41
1
10
-30
20
-15.993189230354
30
0
41
1
10
-30
20
-15.9976541730001
30
0
41
1
10
-30
20
-15.9670776489225
30
0
41
1
10
-30
20
-15.7965331178349
30
0
41
1
10
-30
20
-15.4890632796305
30
0
41
1
10
-30
20
-14.9202435431778
30
0
41
1
10
-30
20
-13.9430327235571
30
0
41
1
10
-30
20
-12.6450678356931
30
0
41
1
10
-30
20
-11.42137036219
30
0
41
1
10
-30
20
-10.4224345134304
30
0
41
1
10
-30
20
-9.34179268341308
30
0
41
1
10
-30
20
-8.18272261240929
30
0
41
1
10
-30
20
-6.94914665451273
30
0
41
1
10
-30
20
-5.64597210397025
30
0
41
1
10
-30
20
-4.51272453462846
30
0
41
1
10
-30
20
-3.56968201835696
30
0
41
1
10
-30
20
-2.61530592334967
30
0
41
1
10
-30
20
-1.67591474804155
30
0
41
1
10
-30
20
-0.833341855678952
30
0
41
1
10
-30
20
-0.354131622770439
30
0
41
1
10
-30
20
4.002277763E-07
30
0
41
1
10
-30
20
0.354131996183753
30
0
41
1
10
-30
20
0.8333415404785
30
0
41
1
10
-30
20
1.675914880346
30
0
41
1
10
-30
20
2.61530613672116
30
0
41
1
10
-30
20
3.56968220154852
30
0
41
1
10
-30
20
4.51272494557483
30
0
41
1
10
-30
20
5.64597176408017
30
0
41
1
10
-30
20
6.94914704263559
30
0
41
1
10
-30
20
8.18272269843541
30
0
41
1
10
-30
20
9.34179238961872
30
0
41
1
10
-30
20
10.4224348167646
30
0
41
1
10
-30
20
11.4213703912989
30
0
41
1
10
-30
20
12.6450674903883
30
0
41
1
10
-30
20
13.9430330734595
30
0
41
1
10
-30
20
14.9202427964398
30
0
41
1
10
-30
20
15.4890634139888
30
0
41
1
10
-30
20
15.7965327535813
30
0
41
1
10
-30
20
15.9670755125068
30
0
41
1
10
-30
20
15.997653164088
30
0
41
1
10
-30
20
15.9931895362351
30
0
0
SPLINE
5
13D
100
AcDbEntity
8
SK1
62
256
6
ByLayer
370
18
48
1
60
0
100
AcDbSpline
70
4
71
3
72
38
73
34
40
0
40
0
40
0
40
0
40
0.249999999999998
40
0.249999999999998
40
0.375000000000001
40
0.375000000000001
40
0.500000000000003
40
0.500000000000003
40
0.625000000000006
40
0.625000000000006
40
0.687500000000004
40
0.687500000000004
40
0.750000000000002
40
0.750000000000002
40
0.8125
40
0.8125
40
0.843749999999999
40
0.843749999999999
40
0.874999999999998
40
0.874999999999998
40
0.906249999999997
40
0.906249999999997
40
0.921874999999998
40
0.921874999999998
40
0.937499999999998
40
0.937499999999998
40
0.953124999999999
40
0.953124999999999
40
0.968749999999999
40
0.968749999999999
40
0.984375
40
0.984375
40
1
40
1
40
1
40
1
41
1
10
-0.200000000000017
20
-6.07843116862739
30
0
41
1
10
-0.200329859654715
20
-6.01357702681145
30
0
41
1
10
-0.201930655445096
20
-5.94848814748187
30
0
41
1
10
-0.20706282051475
20
-5.85044931358604
30
0
41
1
10
-0.209234214279519
20
-5.81770188154789
30
0
41
1
10
-0.214779228537793
20
-5.7520569459719
30
0
41
1
10
-0.218149341071353
20
-5.71913713924792
30
0
41
1
10
-0.226581907125791
20
-5.65322539656964
30
0
41
1
10
-0.231616433421522
20
-5.620292949023
30
0
41
1
10
-0.241184891539973
20
-5.57099638970087
30
0
41
1
10
-0.244723140953255
20
-5.55455058376108
30
0
41
1
10
-0.252718404682355
20
-5.52188785992811
30
0
41
1
10
-0.257164394743938
20
-5.50568135296518
30
0
41
1
10
-0.267422418729041
20
-5.47365965349914
30
0
41
1
10
-0.273206407019217
20
-5.45783596374676
30
0
41
1
10
-0.283724888362031
20
-5.43464123738514
30
0
41
1
10
-0.287542348293499
20
-5.42700107315446
30
0
41
1
10
-0.296164698039092
20
-5.41201401791534
30
0
41
1
10
-0.301003751719009
20
-5.4046119981478
30
0
41
1
10
-0.312019326339538
20
-5.39094692539047
30
0
41
1
10
-0.31824990755598
20
-5.3846016561252
30
0
41
1
10
-0.328982330604276
20
-5.37709874944116
30
0
41
1
10
-0.332865959292434
20
-5.37490714744831
30
0
41
1
10
-0.340905624745261
20
-5.37162929612282
30
0
41
1
10
-0.345153788553745
20
-5.37051023807425
30
0
41
1
10
-0.353672033871192
20
-5.36955188220813
30
0
41
1
10
-0.357904387099609
20
-5.36969675293608
30
0
41
1
10
-0.366271728735967
20
-5.37110702101791
30
0
41
1
10
-0.370241250613816
20
-5.37233602993433
30
0
41
1
10
-0.377868038063696
20
-5.37555831609177
30
0
41
1
10
-0.381539373885118
20
-5.37756780385982
30
0
41
1
10
-0.388473887026265
20
-5.38206549938215
30
0
41
1
10
-0.39176092894752
20
-5.3845619683195
30
0
41
1
10
-0.394913799811292
20
-5.38724256160015
30
0
0
SPLINE
5
13E
100
AcDbEntity
8
SK1
62
256
6
ByLayer
370
18
48
1
60
0
100
AcDbSpline
70
4
71
3
72
38
73
34
40
0
40
0
40
0
40
0
40
0.0156249999999985
40
0.0156249999999985
40
0.031249999999997
40
0.031249999999997
40
0.0468749999999954
40
0.0468749999999954
40
0.0624999999999939
40
0.0624999999999939
40
0.0781249999999924
40
0.0781249999999924
40
0.0937499999999909
40
0.0937499999999909
40
0.124999999999989
40
0.124999999999989
40
0.156249999999988
40
0.156249999999988
40
0.187499999999987
40
0.187499999999987
40
0.249999999999987
40
0.249999999999987
40
0.312499999999986
40
0.312499999999986
40
0.374999999999986
40
0.374999999999986
40
0.499999999999989
40
0.499999999999989
40
0.624999999999992
40
0.624999999999992
40
0.749999999999995
40
0.749999999999995
40
1
40
1
40
1
40
1
41
1
10
-0.394913799809103
20
5.38724490303883
30
0
41
1
10
-0.391781832950699
20
5.38458208568073
30
0
41
1
10
-0.388519962703811
20
5.3821033059937
30
0
41
1
10
-0.381650196472521
20
5.37763658736256
30
0
41
1
10
-0.378006935713103
20
5.375632334519
30
0
41
1
10
-0.370423579197194
20
5.37240298219777
30
0
41
1
10
-0.366503702076471
20
5.37117873901857
30
0
41
1
10
-0.358331183030117
20
5.36974313779842
30
0
41
1
10
-0.354015865513219
20
5.36955368909108
30
0
41
1
10
-0.345568573158801
20
5.37043109064084
30
0
41
1
10
-0.341321667103017
20
5.37150405183556
30
0
41
1
10
-0.333263890221957
20
5.37470929745368
30
0
41
1
10
-0.329419339218276
20
5.37683593115611
30
0
41
1
10
-0.318577749103383
20
5.38430052549947
30
0
41
1
10
-0.312400979321552
20
5.3905410449475
30
0
41
1
10
-0.301354650858144
20
5.40411801099182
30
0
41
1
10
-0.296591327986192
20
5.41134235290909
30
0
41
1
10
-0.287922394076219
20
5.42628126698924
30
0
41
1
10
-0.284017391060843
20
5.43403466061338
30
0
41
1
10
-0.273296210573392
20
5.45757128507671
30
0
41
1
10
-0.267463037667568
20
5.47353830586394
30
0
41
1
10
-0.25714417824588
20
5.50574351678881
30
0
41
1
10
-0.252692130238955
20
5.52198910291142
30
0
41
1
10
-0.244699800125972
20
5.55465646091182
30
0
41
1
10
-0.241167183894703
20
5.57107991706769
30
0
41
1
10
-0.231573562776504
20
5.6205357075076
30
0
41
1
10
-0.226533735280697
20
5.65356559342112
30
0
41
1
10
-0.218124597314073
20
5.71937115218196
30
0
41
1
10
-0.214765406462988
20
5.75220767186599
30
0
41
1
10
-0.209230735864509
20
5.81775962891592
30
0
41
1
10
-0.207061534202325
20
5.85047499196546
30
0
41
1
10
-0.201932717755426
20
5.94845143863401
30
0
41
1
10
-0.200330038101583
20
6.01354333629556
30
0
41
1
10
-0.199999999999989
20
6.0784324458115
30
0
0
SPLINE
5
13F
100
AcDbEntity
8
SK1
62
256
6
ByLayer
370
13
48
1
60
0
100
AcDbSpline
70
4
71
3
72
20
73
16
40
0
40
0
40
0
40
0
40
0.0453685402409065
40
0.113618264783811
40
0.181867989326716
40
0.250117713869621
40
0.318367438412526
40
0.38661716295543
40
0.454866887498335
40
0.591366336584145
40
0.727865785669954
40
0.796115510212859
40
0.864365234755764
40
0.932614959298669
40
1
40
1
40
1
40
1
41
1
10
-0.394913799811292
20
-5.38724256160785
30
0
41
1
10
-0.394913799811292
20
-5.7190547501427
30
0
41
1
10
-0.394913799811292
20
-6.5348354946259
30
0
41
1
10
-0.394913799811292
20
-7.7796880789966
30
0
41
1
10
-0.394913799811292
20
-9.09679923539034
30
0
41
1
10
-0.394913799811292
20
-10.3283869583107
30
0
41
1
10
-0.394913799811292
20
-11.4729576347282
30
0
41
1
10
-0.394913799811292
20
-12.5286533763275
30
0
41
1
10
-0.394913799811292
20
-13.8156305223415
30
0
41
1
10
-0.394913799811292
20
-15.1889742433629
30
0
41
1
10
-0.394913799811292
20
-16.224825355641
30
0
41
1
10
-0.394913799811292
20
-16.8259463034278
30
0
41
1
10
-0.394913799811292
20
-17.1536380024563
30
0
41
1
10
-0.394913799811292
20
-17.3456596443268
30
0
41
1
10
-0.394913799811292
20
-17.374138216063
30
0
41
1
10
-0.394913799811292
20
-17.3602188927211
30
0
0
SPLINE
5
140
100
AcDbEntity
8
SK1
62
256
6
ByLayer
370
18
48
1
60
0
100
AcDbSpline
70
4
71
3
72
50
73
46
40
0
40
0
40
0
40
0
40
0.0312500000000015
40
0.0312500000000015
40
0.0468750000000022
40
0.0468750000000022
40
0.0625000000000029
40
0.0625000000000029
40
0.0781250000000036
40
0.0781250000000036
40
0.0937500000000043
40
0.0937500000000043
40
0.109375000000005
40
0.109375000000005
40
0.125000000000006
40
0.125000000000006
40
0.140625000000006
40
0.140625000000006
40
0.156250000000007
40
0.156250000000007
40
0.187500000000007
40
0.187500000000007
40
0.218750000000006
40
0.218750000000006
40
0.250000000000006
40
0.250000000000006
40
0.281250000000005
40
0.281250000000005
40
0.312500000000005
40
0.312500000000005
40
0.375000000000004
40
0.375000000000004
40
0.437500000000003
40
0.437500000000003
40
0.500000000000001
40
0.500000000000001
40
0.625
40
0.625
40
0.6875
40
0.6875
40
0.75
40
0.75
40
0.875
40
0.875
40
1
40
1
40
1
40
1
41
1
10
-0.394913799811292
20
-5.38724256160785
30
0
41
1
10
-0.411056331481689
20
-5.40096705709072
30
0
41
1
10
-0.428167571421085
20
-5.41359596702645
30
0
41
1
10
-0.455974774655147
20
-5.43013648208
30
0
41
1
10
-0.465658214706991
20
-5.43526409556435
30
0
41
1
10
-0.485484698823484
20
-5.44430592701531
30
0
41
1
10
-0.495657428995088
20
-5.44824432393753
30
0
41
1
10
-0.516608715435041
20
-5.45476351226009
30
0
41
1
10
-0.527386860231815
20
-5.45734523281897
30
0
41
1
10
-0.549664818445279
20
-5.46089328829356
30
0
41
1
10
-0.560930035443761
20
-5.46180969649637
30
0
41
1
10
-0.58336584661788
20
-5.4618713105761
30
0
41
1
10
-0.594591467840019
20
-5.46102572365922
30
0
41
1
10
-0.617058166617738
20
-5.45757599588921
30
0
41
1
10
-0.627999143283205
20
-5.45501931647436
30
0
41
1
10
-0.649331735085582
20
-5.44848807488125
30
0
41
1
10
-0.659758151599817
20
-5.44449947952501
30
0
41
1
10
-0.680036525045011
20
-5.43533205618732
30
0
41
1
10
-0.689742098894556
20
-5.43022628481572
30
0
41
1
10
-0.717826906306101
20
-5.41366379171245
30
0
41
1
10
-0.735187935399324
20
-5.40097830060952
30
0
41
1
10
-0.768034946557918
20
-5.3733304614868
30
0
41
1
10
-0.783237057424145
20
-5.35859529837754
30
0
41
1
10
-0.811836627358673
20
-5.32802442998909
30
0
41
1
10
-0.825257514875972
20
-5.31215335693128
30
0
41
1
10
-0.85080730255018
20
-5.27953884086708
30
0
41
1
10
-0.862932209486871
20
-5.26279281423712
30
0
41
1
10
-0.8861698860768
20
-5.22860723544375
30
0
41
1
10
-0.897260448987026
20
-5.21119248410571
30
0
41
1
10
-0.929029640850729
20
-5.15857889561175
30
0
41
1
10
-0.948347177186207
20
-5.12284414993096
30
0
41
1
10
-0.984487535026432
20
-5.05043807526351
30
0
41
1
10
-1.00129416978024
20
-5.013761649543
30
0
41
1
10
-1.03304457478234
20
-4.93966608077309
30
0
41
1
10
-1.04798244371665
20
-4.90224508459647
30
0
41
1
10
-1.09059413059555
20
-4.78904752584498
30
0
41
1
10
-1.11609621830422
20
-4.71234577760799
30
0
41
1
10
-1.15135515985602
20
-4.5958383808707
30
0
41
1
10
-1.16260343866753
20
-4.55673847320071
30
0
41
1
10
-1.18417456263643
20
-4.47826299864514
30
0
41
1
10
-1.19450305218302
20
-4.4388689467043
30
0
41
1
10
-1.22429462395718
20
-4.32024366329264
30
0
41
1
10
-1.24257202444835
20
-4.24057073726357
30
0
41
1
10
-1.27661859809459
20
-4.08013408760161
30
0
41
1
10
-1.29238372607517
20
-3.99936988902869
30
0
41
1
10
-1.30710678118655
20
-3.91808269248796
30
0
0
SPLINE
5
141
100
AcDbEntity
8
SK1
62
256
6
ByLayer
370
18
48
1
60
0
100
AcDbSpline
70
4
71
3
72
38
73
34
40
0
40
0
40
0
40
0
40
0.0624999999999996
40
0.0624999999999996
40
0.124999999999999
40
0.124999999999999
40
0.249999999999999
40
0.249999999999999
40
0.374999999999998
40
0.374999999999998
40
0.390624999999998
40
0.390624999999998
40
0.406249999999998
40
0.406249999999998
40
0.437499999999998
40
0.437499999999998
40
0.499999999999998
40
0.499999999999998
40
0.562499999999998
40
0.562499999999998
40
0.624999999999999
40
0.624999999999999
40
0.749999999999999
40
0.749999999999999
40
0.781249999999999
40
0.781249999999999
40
0.812499999999999
40
0.812499999999999
40
0.874999999999999
40
0.874999999999999
40
0.9375
40
0.9375
40
1
40
1
40
1
40
1
41
1
10
-1.30710678118655
20
-3.91808269248796
30
0
41
1
10
-1.33526487251859
20
-3.76261955749285
30
0
41
1
10
-1.36267126502631
20
-3.6063109858577
30
0
41
1
10
-1.41562242099803
20
-3.29187611045597
30
0
41
1
10
-1.44117770353176
20
-3.13375373985022
30
0
41
1
10
-1.51435013598103
20
-2.65639932915295
30
0
41
1
10
-1.55846884179033
20
-2.33418302861881
30
0
41
1
10
-1.63296978491243
20
-1.68004719877027
30
0
41
1
10
-1.66337509736468
20
-1.34813830750838
30
0
41
1
10
-1.68707319146449
20
-0.968091690681803
30
0
41
1
10
-1.68955923537888
20
-0.925771372654197
30
0
41
1
10
-1.69422507481971
20
-0.840939584978429
30
0
41
1
10
-1.6964065979426
20
-0.798386309984579
30
0
41
1
10
-1.70245250680873
20
-0.670897601193616
30
0
41
1
10
-1.70582437938029
20
-0.586052568901891
30
0
41
1
10
-1.71388361409092
20
-0.331968562037986
30
0
41
1
10
-1.71646782396985
20
-0.163187101305908
30
0
41
1
10
-1.71636335941631
20
0.173213348331899
30
0
41
1
10
-1.71367008139578
20
0.34083166255536
30
0
41
1
10
-1.70293626023371
20
0.674902568806147
30
0
41
1
10
-1.69494665814693
20
0.841362289300548
30
0
41
1
10
-1.66399327242203
20
1.33914312869118
30
0
41
1
10
-1.63408221528164
20
1.66887252592326
30
0
41
1
10
-1.5876007265538
20
2.07872253566578
30
0
41
1
10
-1.57784909269048
20
2.16057674059007
30
0
41
1
10
-1.5574977199426
20
2.32406172494171
30
0
41
1
10
-1.54688933197929
20
2.40575612114199
30
0
41
1
10
-1.51394731043965
20
2.65007047288915
30
0
41
1
10
-1.49055743488208
20
2.81150726182861
30
0
41
1
10
-1.44149329508792
20
3.13180385741538
30
0
41
1
10
-1.41582315096537
20
3.29066553946589
30
0
41
1
10
-1.36271475580057
20
3.60607338167011
30
0
41
1
10
-1.33526589565594
20
3.76261441071909
30
0
41
1
10
-1.30710678118655
20
3.91808311129771
30
0
0
SPLINE
5
142
100
AcDbEntity
8
SK1
62
256
6
ByLayer
370
18
48
1
60
0
100
AcDbSpline
70
4
71
3
72
53
73
49
40
0
40
0
40
0
40
0
40
0.125000000000001
40
0.125000000000001
40
0.250000000000003
40
0.250000000000003
40
0.312500000000002
40
0.312500000000002
40
0.375000000000001
40
0.375000000000001
40
0.499999999999999
40
0.499999999999999
40
0.562499999999999
40
0.562499999999999
40
0.624999999999998
40
0.624999999999998
40
0.687499999999997
40
0.687499999999997
40
0.718749999999997
40
0.718749999999997
40
0.749999999999997
40
0.749999999999997
40
0.781249999999997
40
0.781249999999997
40
0.812499999999997
40
0.812499999999997
40
0.843749999999997
40
0.843749999999997
40
0.859374999999997
40
0.859374999999997
40
0.874999999999998
40
0.874999999999998
40
0.890624999999998
40
0.890624999999998
40
0.898437499999998
40
0.898437499999998
40
0.906249999999998
40
0.906249999999998
40
0.921874999999998
40
0.929687499999998
40
0.929687499999998
40
0.937499999999998
40
0.937499999999998
40
0.968749999999999
40
0.968749999999999
40
0.984374999999999
40
0.984374999999999
40
1
40
1
40
1
40
1
41
1
10
-1.30710678118655
20
3.91808311129773
30
0
41
1
10
-1.29239108240532
20
3.99932964943406
30
0
41
1
10
-1.27663490881506
20
4.08005058420358
30
0
41
1
10
-1.24261095077244
20
4.24039497937329
30
0
41
1
10
-1.22434718173434
20
4.32001891689725
30
0
41
1
10
-1.19458151328425
20
4.43856580615747
30
0
41
1
10
-1.18426257821704
20
4.47793290560355
30
0
41
1
10
-1.16271294340757
20
4.55635268985432
30
0
41
1
10
-1.1514750174868
20
4.5954305661744
30
0
41
1
10
-1.11622081339451
20
4.71196262616607
30
0
41
1
10
-1.09072783956066
20
4.78866062339225
30
0
41
1
10
-1.04815216411876
20
4.90181336669082
30
0
41
1
10
-1.03323011355693
20
4.93921284702577
30
0
41
1
10
-1.00152410230021
20
5.01324987497111
30
0
41
1
10
-0.984745886096874
20
5.04988928444075
30
0
41
1
10
-0.948685190430894
20
5.12220258194967
30
0
41
1
10
-0.929418355061557
20
5.15788155457773
30
0
41
1
10
-0.897760317588421
20
5.21039425330486
30
0
41
1
10
-0.886742970836565
20
5.22772922691752
30
0
41
1
10
-0.863513824307972
20
5.26197522516884
30
0
41
1
10
-0.851357742368606
20
5.27880041053592
30
0
41
1
10
-0.825828436847473
20
5.31146357138681
30
0
41
1
10
-0.812437519911811
20
5.32733553299153
30
0
41
1
10
-0.783971777383869
20
5.35785904442616
30
0
41
1
10
-0.768905931142399
20
5.37251692611162
30
0
41
1
10
-0.736341322354491
20
5.40008757388526
30
0
41
1
10
-0.718704728837935
20
5.41307616107983
30
0
41
1
10
-0.690494000998513
20
5.42981903443433
30
0
41
1
10
-0.680770506186064
20
5.43496537787155
30
0
41
1
10
-0.660532703009267
20
5.4441860527954
30
0
41
1
10
-0.650045797817
20
5.44823342219186
30
0
41
1
10
-0.628779113836032
20
5.45481846069106
30
0
41
1
10
-0.617932285477195
20
5.4573891634796
30
0
41
1
10
-0.601299914959753
20
5.46002170773141
30
0
41
1
10
-0.595695338837032
20
5.46069496960084
30
0
41
1
10
-0.584356912700144
20
5.46160478770395
30
0
41
1
10
-0.578637021974231
20
5.46183701163628
30
0
41
1
10
-0.561675487241928
20
5.46185622962994
30
0
41
1
10
-0.544917445528739
20
5.46054034675203
30
0
41
1
10
-0.528445210270377
20
5.45734844847985
30
0
41
1
10
-0.517525389033324
20
5.45481548249097
30
0
41
1
10
-0.512078734988165
20
5.4533397528954
30
0
41
1
10
-0.48545098532486
20
5.44513209892818
30
0
41
1
10
-0.465729936503919
20
5.43590631685376
30
0
41
1
10
-0.437770416117502
20
5.4193273215547
30
0
41
1
10
-0.428743917867394
20
5.41334179407008
30
0
41
1
10
-0.411386251483435
20
5.40075705360888
30
0
41
1
10
-0.403020392727001
20
5.39413717786437
30
0
41
1
10
-0.394913799811292
20
5.38724490303858
30
0
0
SPLINE
5
143
100
AcDbEntity
8
SK1
62
256
6
ByLayer
370
13
48
1
60
0
100
AcDbSpline
70
4
71
3
72
20
73
16
40
0
40
0
40
0
40
0
40
0.0673842631909326
40
0.135634051843014
40
0.203883840495095
40
0.272133629147177
40
0.408633206451339
40
0.545132783755502
40
0.613382572407583
40
0.681632361059665
40
0.749882149711746
40
0.818131938363827
40
0.886381727015909
40
0.95463151566799
40
1
40
1
40
1
40
1
41
1
10
-0.394913799811292
20
17.3602193112312
30
0
41
1
10
-0.394913799811292
20
17.3741378069533
30
0
41
1
10
-0.394913799811292
20
17.3456582492568
30
0
41
1
10
-0.394913799811292
20
17.1536376810083
30
0
41
1
10
-0.394913799811292
20
16.8259464323311
30
0
41
1
10
-0.394913799811292
20
16.2248245878661
30
0
41
1
10
-0.394913799811292
20
15.1889746622834
30
0
41
1
10
-0.394913799811292
20
13.8156301488903
30
0
41
1
10
-0.394913799811292
20
12.5286535254346
30
0
41
1
10
-0.394913799811292
20
11.4729578043957
30
0
41
1
10
-0.394913799811292
20
10.3283867090429
30
0
41
1
10
-0.394913799811292
20
9.09679950047928
30
0
41
1
10
-0.394913799811292
20
7.77968825069564
30
0
41
1
10
-0.394913799811292
20
6.53483606378791
30
0
41
1
10
-0.394913799811292
20
5.71905630139054
30
0
41
1
10
-0.394913799811292
20
5.38724490303878
30
0
0
SPLINE
5
144
100
AcDbEntity
8
SK1
62
256
6
ByLayer
370
13
48
1
60
0
100
AcDbSpline
70
4
71
3
72
45
73
41
40
0
40
0
40
0
40
0
40
0.0139247366370585
40
0.042517400352385
40
0.0711100640677114
40
0.0997027277830379
40
0.156888055213691
40
0.214073382644344
40
0.24266604635967
40
0.271258710074997
40
0.299851373790323
40
0.32844403750565
40
0.357036701220976
40
0.385629364936303
40
0.414222028651629
40
0.428518360509292
40
0.442814692366955
40
0.471407356082282
40
0.485703687939945
40
0.492851853868777
40
0.500000019797608
40
0.50714818572644
40
0.514296351655272
40
0.528592683512935
40
0.557185347228261
40
0.571481679085925
40
0.585778010943588
40
0.614370674658914
40
0.642963338374241
40
0.671556002089567
40
0.700148665804894
40
0.72874132952022
40
0.757333993235547
40
0.785926656950873
40
0.843111984381526
40
0.900297311812179
40
0.928889975527505
40
0.957482639242832
40
0.986075302958158
40
1
40
1
40
1
40
1
41
1
10
-1.99503997793928
20
17.3200454226225
30
0
41
1
10
-1.99503997793928
20
17.3133442632961
30
0
41
1
10
-1.99503997793928
20
17.2734193783355
30
0
41
1
10
-1.99503997793928
20
17.1138751154123
30
0
41
1
10
-1.99503997793928
20
16.7867763596001
30
0
41
1
10
-1.99503997793928
20
16.1866009265939
30
0
41
1
10
-1.99503997793928
20
15.1524691326423
30
0
41
1
10
-1.99503997793928
20
13.7813331880937
30
0
41
1
10
-1.99503997793928
20
12.4962106263157
30
0
41
1
10
-1.99503997793928
20
11.4421779521075
30
0
41
1
10
-1.99503997793928
20
10.2994799380558
30
0
41
1
10
-1.99503997793928
20
9.07001746022104
30
0
41
1
10
-1.99503997793928
20
7.75535376586828
30
0
41
1
10
-1.99503997793928
20
6.35676341745574
30
0
41
1
10
-1.99503997793928
20
5.12318926412425
30
0
41
1
10
-1.99503997793928
20
4.09531236648536
30
0
41
1
10
-1.99503997793928
20
3.04236295320669
30
0
41
1
10
-1.99503997793928
20
1.95640625727882
30
0
41
1
10
-1.99503997793928
20
0.981337226851394
30
0
41
1
10
-1.99503997793928
20
0.420771319084707
30
0
41
1
10
-1.99503997793928
20
6.88173714E-08
30
0
41
1
10
-1.99503997793928
20
-0.420771221994357
30
0
41
1
10
-1.99503997793928
20
-0.981337209960486
30
0
41
1
10
-1.99503997793928
20
-1.95640624898675
30
0
41
1
10
-1.99503997793928
20
-3.04236280324244
30
0
41
1
10
-1.99503997793928
20
-4.0953123914187
30
0
41
1
10
-1.99503997793928
20
-5.12318891405303
30
0
41
1
10
-1.99503997793928
20
-6.35676356337376
30
0
41
1
10
-1.99503997793928
20
-7.7553535878281
30
0
41
1
10
-1.99503997793928
20
-9.07001720037854
30
0
41
1
10
-1.99503997793928
20
-10.2994801886281
30
0
41
1
10
-1.99503997793928
20
-11.4421777785236
30
0
41
1
10
-1.99503997793928
20
-12.4962104807245
30
0
41
1
10
-1.99503997793928
20
-13.7813335607202
30
0
41
1
10
-1.99503997793928
20
-15.152468715744
30
0
41
1
10
-1.99503997793928
20
-16.1866016937524
30
0
41
1
10
-1.99503997793928
20
-16.786776230537
30
0
41
1
10
-1.99503997793928
20
-17.1138754381145
30
0
41
1
10
-1.99503997793928
20
-17.2734198448617
30
0
41
1
10
-1.99503997793928
20
-17.3133444737568
30
0
41
1
10
-1.99503997793928
20
-17.3200455775251
30
0
0
SPLINE
5
145
100
AcDbEntity
8
SK1
62
256
6
ByLayer
370
18
48
1
60
0
100
AcDbSpline
70
4
71
3
72
45
73
41
40
0
40
0
40
0
40
0
40
0.0138970646625129
40
0.0424913609757433
40
0.0710856572889738
40
0.0996799536022042
40
0.156868546228665
40
0.214057138855126
40
0.242651435168356
40
0.271245731481587
40
0.299840027794817
40
0.328434324108048
40
0.357028620421278
40
0.385622916734508
40
0.414217213047739
40
0.428514361204354
40
0.442811509360969
40
0.4714058056742
40
0.485702953830815
40
0.492851527909123
40
0.50000010198743
40
0.507148676065738
40
0.514297250144045
40
0.528594398300661
40
0.557188694613891
40
0.571485842770506
40
0.585782990927121
40
0.614377287240352
40
0.642971583553582
40
0.671565879866813
40
0.700160176180043
40
0.728754472493274
40
0.757348768806504
40
0.785943065119735
40
0.843131657746195
40
0.900320250372656
40
0.928914546685887
40
0.957508842999117
40
0.986103139312348
40
1
40
1
40
1
40
1
41
1
10
-2.2
20
17.5147945427041
30
0
41
1
10
-2.20000000000002
20
17.5080193393402
30
0
41
1
10
-2.2
20
17.4676802393001
30
0
41
1
10
-2.2
20
17.3066644250431
30
0
41
1
10
-2.2
20
16.9766929599708
30
0
41
1
10
-2.2
20
16.3719288388599
30
0
41
1
10
-2.2
20
15.3294666616432
30
0
41
1
10
-2.2
20
13.9476224427057
30
0
41
1
10
-2.2
20
12.6535104390874
30
0
41
1
10
-2.2
20
11.5914144609754
30
0
41
1
10
-2.2
20
10.4396347881955
30
0
41
1
10
-2.2
20
9.19987052615136
30
0
41
1
10
-2.2
20
7.87333982787851
30
0
41
1
10
-2.2
20
6.4607857552443
30
0
41
1
10
-2.2
20
5.21252898167785
30
0
41
1
10
-2.2
20
4.17223684682958
30
0
41
1
10
-2.2
20
3.10486150423552
30
0
41
1
10
-2.2
20
1.99745537289451
30
0
41
1
10
-2.2
20
1.00299597482069
30
0
41
1
10
-2.2
20
0.430523794544825
30
0
41
1
10
-2.2
20
2.03164063E-08
30
0
41
1
10
-2.2
20
-0.430523737893537
30
0
41
1
10
-2.2
20
-1.00299590932914
30
0
41
1
10
-2.2
20
-1.99745538275133
30
0
41
1
10
-2.2
20
-3.10486136355075
30
0
41
1
10
-2.2
20
-4.17223690222141
30
0
41
1
10
-2.2
20
-5.21252864051553
30
0
41
1
10
-2.2
20
-6.46078587277509
30
0
41
1
10
-2.2
20
-7.87333968058334
30
0
41
1
10
-2.2
20
-9.19987024087132
30
0
41
1
10
-2.2
20
-10.4396350324424
30
0
41
1
10
-2.2
20
-11.5914143063801
30
0
41
1
10
-2.2
20
-12.6535102764493
30
0
41
1
10
-2.2
20
-13.9476228193307
30
0
41
1
10
-2.2
20
-15.3294662349403
30
0
41
1
10
-2.2
20
-16.3719296090069
30
0
41
1
10
-2.2
20
-16.9766928316826
30
0
41
1
10
-2.2
20
-17.3066647416643
30
0
41
1
10
-2.2
20
-17.4676803356305
30
0
41
1
10
-2.19999999999997
20
-17.5080192379428
30
0
41
1
10
-2.19999999999997
20
-17.5147944568103
30
0
0
SPLINE
5
146
100
AcDbEntity
8
SK1
62
256
6
ByLayer
370
18
48
1
60
0
100
AcDbSpline
70
4
71
3
72
45
73
41
40
0
40
0
40
0
40
0
40
0.027525617487762
40
0.0553182308226719
40
0.0831108441575819
40
0.110903457492492
40
0.166488684162312
40
0.222073910832132
40
0.249866524167042
40
0.277659137501951
40
0.305451750836861
40
0.333244364171771
40
0.361036977506681
40
0.388829590841591
40
0.416622204176501
40
0.430518510843956
40
0.444414817511411
40
0.472207430846321
40
0.486103737513776
40
0.493051890847504
40
0.500000044181231
40
0.506948197514959
40
0.513896350848686
40
0.527792657516141
40
0.555585270851051
40
0.569481577518506
40
0.583377884185961
40
0.611170497520871
40
0.638963110855781
40
0.666755724190691
40
0.694548337525601
40
0.722340950860511
40
0.750133564195421
40
0.777926177530331
40
0.83351140420015
40
0.88909663086997
40
0.91688924420488
40
0.94468185753979
40
0.9724744708747
40
1
40
1
40
1
40
1
41
1
10
-28.5
20
16.854510241705
30
0
41
1
10
-28.5
20
16.8681141424934
30
0
41
1
10
-28.5
20
16.840542006956
30
0
41
1
10
-28.5
20
16.6531187925377
30
0
41
1
10
-28.5
20
16.3328856609547
30
0
41
1
10
-28.5
20
15.7436769514769
30
0
41
1
10
-28.5
20
14.7294543359372
30
0
41
1
10
-28.5
20
13.3839106046769
30
0
41
1
10
-28.5
20
12.1202723366856
30
0
41
1
10
-28.5
20
11.0855105352455
30
0
41
1
10
-28.5
20
9.96451720849825
30
0
41
1
10
-28.5
20
8.75967545377557
30
0
41
1
10
-28.5
20
7.47337327542297
30
0
41
1
10
-28.5
20
6.10815549439155
30
0
41
1
10
-28.5
20
4.9096720321497
30
0
41
1
10
-28.5
20
3.9114668992739
30
0
41
1
10
-28.5
20
2.89299469927084
30
0
41
1
10
-28.5
20
1.85830102725041
30
0
41
1
10
-28.5
20
0.929573956929886
30
0
41
1
10
-28.5
20
0.39746341502854
30
0
41
1
10
-28.5
20
1.847321585E-07
30
0
41
1
10
-28.5
20
-0.397463221290906
30
0
41
1
10
-28.5
20
-0.929574056191939
30
0
41
1
10
-28.5
20
-1.85830097558352
30
0
41
1
10
-28.5
20
-2.89299452712916
30
0
41
1
10
-28.5
20
-3.91146685141305
30
0
41
1
10
-28.5
20
-4.90967166078667
30
0
41
1
10
-28.5
20
-6.10815570815362
30
0
41
1
10
-28.5
20
-7.47337302390386
30
0
41
1
10
-28.5
20
-8.75967525472745
30
0
41
1
10
-28.5
20
-9.96451747418803
30
0
41
1
10
-28.5
20
-11.0855103162798
30
0
41
1
10
-28.5
20
-12.1202722318355
30
0
41
1
10
-28.5
20
-13.3839109677473
30
0
41
1
10
-28.5
20
-14.7294539424715
30
0
41
1
10
-28.5
20
-15.7436777114932
30
0
41
1
10
-28.5
20
-16.3328855300396
30
0
41
1
10
-28.5
20
-16.653119129773
30
0
41
1
10
-28.5
20
-16.8405423983315
30
0
41
1
10
-28.5
20
-16.8681141134596
30
0
41
1
10
-28.5
20
-16.8545104797445
30
0
0
SPLINE
5
147
100
AcDbEntity
8
1
62
256
6
ByLayer
370
18
48
1
60
0
100
AcDbSpline
70
4
71
3
72
19
73
15
40
0
40
0
40
0
40
0
40
0.105598795309712
40
0.207133056768144
40
0.304606247524418
40
0.398022283830801
40
0.487385615464985
40
0.572701326119419
40
0.653975258965638
40
0.731214174678392
40
0.80442595212549
40
0.873619846083054
40
0.938806822394135
40
1
40
1
40
1
40
1
41
1
10
59.4823668306204
20
30.4776750718666
30
0
41
1
10
59.4761086181711
20
30.4782870900592
30
0
41
1
10
59.4638330740164
20
30.4794875696542
30
0
41
1
10
59.4458128004539
20
30.4815536164361
30
0
41
1
10
59.4285391192213
20
30.4837551454806
30
0
41
1
10
59.4120140189841
20
30.4860978813082
30
0
41
1
10
59.3962369707868
20
30.4885626162637
30
0
41
1
10
59.3812080910706
20
30.4911369091329
30
0
41
1
10
59.3669272661605
20
30.4938068948709
30
0
41
1
10
59.3533946416577
20
30.496560333165
30
0
41
1
10
59.3406095573262
20
30.4993826094122
30
0
41
1
10
59.3285740432235
20
30.5022690347739
30
0
41
1
10
59.3172808603111
20
30.5051831845825
30
0
41
1
10
59.3100347419723
20
30.5072591336837
30
0
41
1
10
59.3065261768004
20
30.5082643067121
30
0
0
SPLINE
5
148
100
AcDbEntity
8
1
62
256
6
ByLayer
370
18
48
1
60
0
100
AcDbSpline
70
4
71
3
72
16
73
12
40
0
40
0
40
0
40
0
40
0.118227901208892
40
0.234676362797895
40
0.349345481218902
40
0.462235357483962
40
0.573346097457497
40
0.68267781217225
40
0.79023061817122
40
0.896004637878217
40
1
40
1
40
1
40
1
41
1
10
60.170288704392
20
30.4231567246316
30
0
41
1
10
60.1431521268272
20
30.4249459057047
30
0
41
1
10
60.0892874023705
20
30.4284973390153
30
0
41
1
10
60.0091247133964
20
30.4341149328073
30
0
41
1
10
59.9302034041849
20
30.4398842922496
30
0
41
1
10
59.8525249527706
20
30.445819552949
30
0
41
1
10
59.7760890095598
20
30.4519060937806
30
0
41
1
10
59.7008955277785
20
30.4581350619983
30
0
41
1
10
59.6269450208383
20
30.4645032428391
30
0
41
1
10
59.5542355274141
20
30.4709806765101
30
0
41
1
10
59.5061872606913
20
30.4754562563973
30
0
41
1
10
59.4823668305904
20
30.4776750718747
30
0
0
SPLINE
5
149
100
AcDbEntity
8
1
62
256
6
ByLayer
370
18
48
1
60
0
100
AcDbSpline
70
4
71
2
72
10
73
7
40
0
40
0
40
0
40
0.5
40
0.5
40
0.75
40
0.75
40
1
40
1
40
1
41
1
10
60.1703211835009
20
30.4231546138055
30
0
41
1
10
60.4005090492973
20
30.408166180781
30
0
41
1
10
60.5813994958527
20
30.372178071057
30
0
41
1
10
60.6977168199747
20
30.3490367681136
30
0
41
1
10
60.781540712573
20
30.3191813268258
30
0
41
1
10
60.9246417322627
20
30.2682132321795
30
0
41
1
10
60.9499902265211
20
30.2071031291621
30
0
0
SPLINE
5
14A
100
AcDbEntity
8
1
62
256
6
ByLayer
370
18
48
1
60
0
100
AcDbSpline
70
4
71
2
72
6
73
3
40
0
40
0
40
0
40
1
40
1
40
1
41
1
10
60.9499902266712
20
30.2071031292483
30
0
41
1
10
60.9884919085576
20
30.1120066530033
30
0
41
1
10
60.9886043049811
20
30.0164168348177
30
0
0
SPLINE
5
14B
100
AcDbEntity
8
1
62
256
6
ByLayer
370
18
48
1
60
0
100
AcDbSpline
70
4
71
3
72
24
73
20
40
0
40
0
40
0
40
0
40
0.0615883759047229
40
0.122688254024854
40
0.183326299851823
40
0.243529792547999
40
0.303326606004193
40
0.362745186445482
40
0.421814526539182
40
0.480564136000285
40
0.53902400873085
40
0.597224586585078
40
0.655196719894212
40
0.712971624940715
40
0.770580838619282
40
0.828056170570655
40
0.88542965311992
40
0.942733489390615
40
1
40
1
40
1
40
1
41
1
10
60.9499902266704
20
29.7856377325549
30
0
41
1
10
60.9514760409691
20
29.7893652448865
30
0
41
1
10
60.9544358845992
20
29.7967907042058
30
0
41
1
10
60.958565972174
20
29.8080050327694
30
0
41
1
10
60.9624450214138
20
29.8192164323654
30
0
41
1
10
60.9660526456095
20
29.8304332478367
30
0
41
1
10
60.9693942359555
20
29.8416528346913
30
0
41
1
10
60.9724683525932
20
29.8528754596241
30
0
41
1
10
60.9752753669344
20
29.8641006163945
30
0
41
1
10
60.9778151708746
20
29.8753280028494
30
0
41
1
10
60.9800877810845
20
29.8865572616706
30
0
41
1
10
60.9820931925116
20
29.8977880492713
30
0
41
1
10
60.9838313661188
20
29.9090200174909
30
0
41
1
10
60.9853024227054
20
29.9202528187488
30
0
41
1
10
60.9865058842012
20
29.9314861039915
30
0
41
1
10
60.9874435045147
20
29.9427195262445
30
0
41
1
10
60.9881087368342
20
29.9539527290416
30
0
41
1
10
60.9885259471525
20
29.965185389695
30
0
41
1
10
60.9885781913779
20
29.9726741976417
30
0
41
1
10
60.9886043049804
20
29.9764173817326
30
0
0
SPLINE
5
14C
100
AcDbEntity
8
1
62
256
6
ByLayer
370
18
48
1
60
0
100
AcDbSpline
70
4
71
3
72
43
73
39
40
0
40
0
40
0
40
0
40
0.0409973406366452
40
0.0809092982715809
40
0.119736159842837
40
0.157478237047557
40
0.194135869264795
40
0.229709426921881
40
0.264199315386286
40
0.297605979485287
40
0.32992990877784
40
0.361171643733655
40
0.391331783012887
40
0.420410992088516
40
0.448410013519424
40
0.475329679265251
40
0.501170925548121
40
0.572592867093699
40
0.638080914696129
40
0.697670982799367
40
0.751410812475232
40
0.772779913618549
40
0.793234602755291
40
0.812782181749364
40
0.831431018019201
40
0.849190749344523
40
0.866072536338504
40
0.882089374987177
40
0.8972564848405
40
0.911591792130991
40
0.925116531009035
40
0.937855989439942
40
0.949840427402953
40
0.96110619050402
40
0.971697025976514
40
0.98166557083429
40
0.991074911407368
40
1
40
1
40
1
40
1
41
1
10
60.1703211835004
20
29.5677012928327
30
0
41
1
10
60.1815955433726
20
29.5684879737871
30
0
41
1
10
60.2038457803772
20
29.5700405087318
30
0
41
1
10
60.236747485262
20
29.5726830735262
30
0
41
1
10
60.2687343870514
20
29.5755008948067
30
0
41
1
10
60.2998047803207
20
29.5785034322631
30
0
41
1
10
60.3299591078152
20
29.5816704311094
30
0
41
1
10
60.3591972610573
20
29.5849896112213
30
0
41
1
10
60.3875192737302
20
29.5884470173952
30
0
41
1
10
60.4149251441992
20
29.5920295213467
30
0
41
1
10
60.4414148802489
20
29.5957242057286
30
0
41
1
10
60.4669884910953
20
29.5995185361591
30
0
41
1
10
60.491645978211
20
29.6034003544125
30
0
41
1
10
60.5153873786591
20
29.6073578226335
30
0
41
1
10
60.5382126108913
20
29.6113797010362
30
0
41
1
10
60.5601220206577
20
29.6154543959536
30
0
41
1
10
60.5937486984555
20
29.6220523080601
30
0
41
1
10
60.6376602656584
20
29.6315355015326
30
0
41
1
10
60.6903147855794
20
29.6446515908231
30
0
41
1
10
60.7378060332947
20
29.658278212609
30
0
41
1
10
60.7731644417992
20
29.6699832061777
30
0
41
1
10
60.7979490400558
20
29.6791631437362
30
0
41
1
10
60.8137384431468
20
29.6854093824747
30
0
41
1
10
60.828689377228
20
29.6917360968126
30
0
41
1
10
60.8428019685628
20
29.6981372504288
30
0
41
1
10
60.8560763753175
20
29.7046066369216
30
0
41
1
10
60.8685127830695
20
29.7111381649162
30
0
41
1
10
60.8801114087746
20
29.7177258090044
30
0
41
1
10
60.8908725094801
20
29.7243636460536
30
0
41
1
10
60.9007963582662
20
29.7310458898156
30
0
41
1
10
60.9098833178302
20
29.737766893676
30
0
41
1
10
60.9181335453686
20
29.7445213151762
30
0
41
1
10
60.9255478947303
20
29.7513037629344
30
0
41
1
10
60.9321246317885
20
29.7581102385113
30
0
41
1
10
60.9378702438274
20
29.7649334562391
30
0
41
1
10
60.9427620013422
20
29.77177891765
30
0
41
1
10
60.9468749657512
20
29.7786098472508
30
0
41
1
10
60.9489702532912
20
29.7833367198246
30
0
41
1
10
60.9499902265204
20
29.7856377326407
30
0
0
SPLINE
5
14D
100
AcDbEntity
8
1
62
256
6
ByLayer
370
18
48
1
60
0
100
AcDbSpline
70
4
71
2
72
6
73
3
40
0
40
0
40
0
40
1
40
1
40
1
41
1
10
60.1702887043925
20
29.5676991034814
30
0
41
1
10
59.8195527839454
20
29.544047589455
30
0
41
1
10
59.4823668305912
20
29.5115176122436
30
0
0
SPLINE
5
14E
100
AcDbEntity
8
1
62
256
6
ByLayer
370
18
48
1
60
0
100
AcDbSpline
70
4
71
2
72
6
73
3
40
0
40
0
40
0
40
1
40
1
40
1
41
1
10
59.4823668306207
20
29.5115176122516
30
0
41
1
10
59.3769907517287
20
29.5012990899636
30
0
41
1
10
59.3065261768009
20
29.4805032588875
30
0
0
LINE
5
7D
100
AcDbEntity
8
1
62
256
6
ByLayer
370
18
48
1
60
0
100
AcDbLine
10
0
20
-24.7
30
0
11
0.3
21
-25
31
0
39
0
210
0
220
0
230
1
0
LINE
5
7E
100
AcDbEntity
8
1
62
256
6
ByLayer
370
18
48
1
60
0
100
AcDbLine
10
0.3
20
25
30
0
11
0
21
24.7
31
0
39
0
210
0
220
0
230
1
0
LINE
5
7F
100
AcDbEntity
8
1
62
256
6
ByLayer
370
18
48
1
60
0
100
AcDbLine
10
20.279208
20
25
30
0
11
0.3
21
25
31
0
39
0
210
0
220
0
230
1
0
LINE
5
80
100
AcDbEntity
8
1
62
256
6
ByLayer
370
18
48
1
60
0
100
AcDbLine
10
0.3
20
-25
30
0
11
20
21
-25
31
0
39
0
210
0
220
0
230
1
0
LINE
5
81
100
AcDbEntity
8
81
62
256
6
ByLayer
370
18
48
1
60
0
100
AcDbLine
10
65
20
33
30
0
11
70
21
33
31
0
39
0
210
0
220
0
230
1
0
LINE
5
82
100
AcDbEntity
8
80
62
256
6
ByLayer
370
18
48
1
60
0
100
AcDbLine
10
0
20
0
30
0
11
-5
21
0
31
0
39
0
210
0
220
0
230
1
0
LINE
5
83
100
AcDbEntity
8
1
62
256
6
ByLayer
370
18
48
1
60
0
100
AcDbLine
10
55.33771
20
32.770208
30
0
11
55.338007
21
32.936835
31
0
39
0
210
0
220
0
230
1
0
LINE
5
84
100
AcDbEntity
8
1
62
256
6
ByLayer
370
18
48
1
60
0
100
AcDbLine
10
57.807085
20
32.624458
30
0
11
57.807632
21
32.931321
31
0
39
0
210
0
220
0
230
1
0
LINE
5
85
100
AcDbEntity
8
1
62
256
6
ByLayer
370
13
48
1
60
0
100
AcDbLine
10
21.594394
20
26.15
30
0
11
23.2
21
26.15
31
0
39
0
210
0
220
0
230
1
0
LINE
5
86
100
AcDbEntity
8
1
62
256
6
ByLayer
370
13
48
1
60
0
100
AcDbLine
10
23.2
20
26.15
30
0
11
23.2
21
25.15
31
0
39
0
210
0
220
0
230
1
0
LINE
5
87
100
AcDbEntity
8
1
62
256
6
ByLayer
370
18
48
1
60
0
100
AcDbLine
10
27.199192
20
40.305131
30
0
11
52.936739
21
40.305131
31
0
39
0
210
0
220
0
230
1
0
LINE
5
88
100
AcDbEntity
8
1
62
256
6
ByLayer
370
18
48
1
60
0
100
AcDbLine
10
27.400067
20
32.716271
30
0
11
26.893244
21
32.716271
31
0
39
0
210
0
220
0
230
1
0
LINE
5
89
100
AcDbEntity
8
1
62
256
6
ByLayer
370
18
48
1
60
0
100
AcDbLine
10
53.644535
20
32.936835
30
0
11
55.338007
21
32.936835
31
0
39
0
210
0
220
0
230
1
0
LINE
5
8A
100
AcDbEntity
8
1
62
256
6
ByLayer
370
18
48
1
60
0
100
AcDbLine
10
57.807632
20
32.931321
30
0
11
63.119232
21
32.931321
31
0
39
0
210
0
220
0
230
1
0
LINE
5
8B
100
AcDbEntity
8
1
62
256
6
ByLayer
370
18
48
1
60
0
100
AcDbLine
10
64
20
33.582699
30
0
11
64
21
32.982617
31
0
39
0
210
0
220
0
230
1
0
LINE
5
8C
100
AcDbEntity
8
1
62
256
6
ByLayer
370
13
48
1
60
0
100
AcDbLine
10
23.2
20
26.15
30
0
11
23.2
21
32.202157
31
0
39
0
210
0
220
0
230
1
0
LINE
5
8D
100
AcDbEntity
8
1
62
256
6
ByLayer
370
13
48
1
60
0
100
AcDbLine
10
23.2
20
26.15
30
0
11
26.893244
21
26.15
31
0
39
0
210
0
220
0
230
1
0
LINE
5
8E
100
AcDbEntity
8
1
62
256
6
ByLayer
370
18
48
1
60
0
100
AcDbLine
10
26.893244
20
26.15
30
0
11
26.893244
21
32.716271
31
0
39
0
210
0
220
0
230
1
0
LINE
5
8F
100
AcDbEntity
8
1
62
256
6
ByLayer
370
18
48
1
60
0
100
AcDbLine
10
27.279219
20
32.684458
30
0
11
27.279219
21
26.15
31
0
39
0
210
0
220
0
230
1
0
LINE
5
90
100
AcDbEntity
8
1
62
256
6
ByLayer
370
13
48
1
60
0
100
AcDbLine
10
27.4
20
26.15
30
0
11
27.279219
21
26.15
31
0
39
0
210
0
220
0
230
1
0
LINE
5
91
100
AcDbEntity
8
1
62
256
6
ByLayer
370
18
48
1
60
0
100
AcDbLine
10
45.399995
20
25.854697
30
0
11
45.404362
21
25.854697
31
0
39
0
210
0
220
0
230
1
0
LINE
5
92
100
AcDbEntity
8
1
62
256
6
ByLayer
370
18
48
1
60
0
100
AcDbLine
10
56.509138
20
27.402212
30
0
11
56.502936
21
27.361738
31
0
39
0
210
0
220
0
230
1
0
LINE
5
93
100
AcDbEntity
8
1
62
256
6
ByLayer
370
18
48
1
60
0
100
AcDbLine
10
56.464591
20
32.705186
30
0
11
56.508798
21
32.433825
31
0
39
0
210
0
220
0
230
1
0
LINE
5
94
100
AcDbEntity
8
1
62
256
6
ByLayer
370
18
48
1
60
0
100
AcDbLine
10
24.399843
20
25.15
30
0
11
23.400157
21
25.15
31
0
39
0
210
0
220
0
230
1
0
LINE
5
95
100
AcDbEntity
8
1
62
256
6
ByLayer
370
18
48
1
60
0
100
AcDbLine
10
24.400046
20
-13.500098
30
0
11
24.065603
21
-13.500098
31
0
39
0
210
0
220
0
230
1
0
LINE
5
96
100
AcDbEntity
8
1
62
256
6
ByLayer
370
18
48
1
60
0
100
AcDbLine
10
27.279219
20
32.684458
30
0
11
27.400021
21
32.684458
31
0
39
0
210
0
220
0
230
1
0
LINE
5
97
100
AcDbEntity
8
1
62
256
6
ByLayer
370
13
48
1
60
0
100
AcDbLine
10
47
20
28.662005
30
0
11
47
21
27.367634
31
0
39
0
210
0
220
0
230
1
0
LINE
5
98
100
AcDbEntity
8
1
62
256
6
ByLayer
370
18
48
1
60
0
100
AcDbLine
10
46.216625
20
33.832053
30
0
11
43.360368
21
33.832053
31
0
39
0
210
0
220
0
230
1
0
LINE
5
99
100
AcDbEntity
8
1
62
256
6
ByLayer
370
18
48
1
60
0
100
AcDbLine
10
45.4
20
27.325041
30
0
11
45.4
21
27.325515
31
0
39
0
210
0
220
0
230
1
0
LINE
5
9A
100
AcDbEntity
8
1
62
256
6
ByLayer
370
18
48
1
60
0
100
AcDbLine
10
53.5
20
32.954908
30
0
11
53.5
21
27.68515
31
0
39
0
210
0
220
0
230
1
0
LINE
5
9B
100
AcDbEntity
8
1
62
256
6
ByLayer
370
18
48
1
60
0
100
AcDbLine
10
45.4
20
27.325041
30
0
11
45.4
21
25.783934
31
0
39
0
210
0
220
0
230
1
0
LINE
5
9C
100
AcDbEntity
8
1
62
256
6
ByLayer
370
13
48
1
60
0
100
AcDbLine
10
43.360368
20
27.325041
30
0
11
45.4
21
27.325041
31
0
39
0
210
0
220
0
230
1
0
LINE
5
9D
100
AcDbEntity
8
1
62
256
6
ByLayer
370
18
48
1
60
0
100
AcDbLine
10
24.4
20
25.15
30
0
11
26.4
21
25.15
31
0
39
0
210
0
220
0
230
1
0
LINE
5
9E
100
AcDbEntity
8
1
62
256
6
ByLayer
370
18
48
1
60
0
100
AcDbLine
10
24.4
20
-13.500098
30
0
11
24.4
21
25.15
31
0
39
0
210
0
220
0
230
1
0
LINE
5
9F
100
AcDbEntity
8
1
62
256
6
ByLayer
370
18
48
1
60
0
100
AcDbLine
10
27.4
20
26.15
30
0
11
27.4
21
33.832053
31
0
39
0
210
0
220
0
230
1
0
LINE
5
A0
100
AcDbEntity
8
1
62
256
6
ByLayer
370
18
48
1
60
0
100
AcDbLine
10
33.9
20
-13.500098
30
0
11
24.4
21
-13.500098
31
0
39
0
210
0
220
0
230
1
0
LINE
5
A1
100
AcDbEntity
8
1
62
256
6
ByLayer
370
18
48
1
60
0
100
AcDbLine
10
33.9
20
-13.500098
30
0
11
45.4
21
13.349902
31
0
39
0
210
0
220
0
230
1
0
LINE
5
A2
100
AcDbEntity
8
1
62
256
6
ByLayer
370
18
48
1
60
0
100
AcDbLine
10
45.4
20
13.349902
30
0
11
45.4
21
25.783934
31
0
39
0
210
0
220
0
230
1
0
LINE
5
A3
100
AcDbEntity
8
1
62
256
6
ByLayer
370
18
48
1
60
0
100
AcDbLine
10
43.360368
20
27.325041
30
0
11
43.360368
21
33.832053
31
0
39
0
210
0
220
0
230
1
0
LINE
5
A4
100
AcDbEntity
8
1
62
256
6
ByLayer
370
18
48
1
60
0
100
AcDbLine
10
27.4
20
33.832053
30
0
11
43.360368
21
33.832053
31
0
39
0
210
0
220
0
230
1
0
LINE
5
A5
100
AcDbEntity
8
1
62
256
6
ByLayer
370
13
48
1
60
0
100
AcDbLine
10
21.438319
20
25.15
30
0
11
21.438319
21
22.342865
31
0
39
0
210
0
220
0
230
1
0
LINE
5
A6
100
AcDbEntity
8
1
62
256
6
ByLayer
370
18
48
1
60
0
100
AcDbLine
10
23.4
20
-13.555865
30
0
11
23.4
21
25.15
31
0
39
0
210
0
220
0
230
1
0
LINE
5
A7
100
AcDbEntity
8
1
62
256
6
ByLayer
370
18
48
1
60
0
100
AcDbLine
10
23.4
20
25.15
30
0
11
22.043461
21
25.15
31
0
39
0
210
0
220
0
230
1
0
LINE
5
A8
100
AcDbEntity
8
1
62
256
6
ByLayer
370
13
48
1
60
0
100
AcDbLine
10
11.461325
20
-7.529667
30
0
11
11.461325
21
-23.83913
31
0
39
0
210
0
220
0
230
1
0
LINE
5
A9
100
AcDbEntity
8
1
62
256
6
ByLayer
370
13
48
1
60
0
100
AcDbLine
10
11.894338
20
-8.055848
30
0
11
11.894338
21
-23.666502
31
0
39
0
210
0
220
0
230
1
0
LINE
5
AA
100
AcDbEntity
8
1
62
256
6
ByLayer
370
13
48
1
60
0
100
AcDbLine
10
8.105662
20
23.666502
30
0
11
8.105662
21
8.055848
31
0
39
0
210
0
220
0
230
1
0
LINE
5
AB
100
AcDbEntity
8
1
62
256
6
ByLayer
370
13
48
1
60
0
100
AcDbLine
10
8.538675
20
23.83913
30
0
11
8.538675
21
7.529667
31
0
39
0
210
0
220
0
230
1
0
LINE
5
AC
100
AcDbEntity
8
1
62
256
6
ByLayer
370
13
48
1
60
0
100
AcDbLine
10
11.461325
20
23.83913
30
0
11
11.461325
21
7.529667
31
0
39
0
210
0
220
0
230
1
0
LINE
5
AD
100
AcDbEntity
8
1
62
256
6
ByLayer
370
13
48
1
60
0
100
AcDbLine
10
11.894338
20
23.666502
30
0
11
11.894338
21
8.055848
31
0
39
0
210
0
220
0
230
1
0
LINE
5
AE
100
AcDbEntity
8
1
62
256
6
ByLayer
370
13
48
1
60
0
100
AcDbLine
10
8.105662
20
-8.055848
30
0
11
8.105662
21
-23.666502
31
0
39
0
210
0
220
0
230
1
0
LINE
5
AF
100
AcDbEntity
8
1
62
256
6
ByLayer
370
13
48
1
60
0
100
AcDbLine
10
8.538675
20
-7.529667
30
0
11
8.538675
21
-23.83913
31
0
39
0
210
0
220
0
230
1
0
LINE
5
B0
100
AcDbEntity
8
1
62
256
6
ByLayer
370
18
48
1
60
0
100
AcDbLine
10
0
20
-24.7
30
0
11
0
21
24.7
31
0
39
0
210
0
220
0
230
1
0
LINE
5
B1
100
AcDbEntity
8
1
62
256
6
ByLayer
370
18
48
1
60
0
100
AcDbLine
10
20.065755
20
-17.465192
30
0
11
20.063901
21
-17.67767
31
0
39
0
210
0
220
0
230
1
0
LINE
5
B2
100
AcDbEntity
8
1
62
256
6
ByLayer
370
13
48
1
60
0
100
AcDbLine
10
20.078111
20
-17.18402
30
0
11
20.078111
21
19.16812
31
0
39
0
210
0
220
0
230
1
0
LINE
5
B3
100
AcDbEntity
8
1
62
256
6
ByLayer
370
18
48
1
60
0
100
AcDbLine
10
0.3
20
-25
30
0
11
0.3
21
25
31
0
39
0
210
0
220
0
230
1
0
LINE
5
B4
100
AcDbEntity
8
1
62
256
6
ByLayer
370
18
48
1
60
0
100
AcDbLine
10
11.461325
20
7.529667
30
0
11
8.538675
21
7.529667
31
0
39
0
210
0
220
0
230
1
0
LINE
5
B5
100
AcDbEntity
8
1
62
256
6
ByLayer
370
18
48
1
60
0
100
AcDbLine
10
8.538675
20
23.83913
30
0
11
11.461325
21
23.83913
31
0
39
0
210
0
220
0
230
1
0
LINE
5
B6
100
AcDbEntity
8
1
62
256
6
ByLayer
370
18
48
1
60
0
100
AcDbLine
10
8.538675
20
-7.529667
30
0
11
11.461325
21
-7.529667
31
0
39
0
210
0
220
0
230
1
0
LINE
5
B7
100
AcDbEntity
8
1
62
256
6
ByLayer
370
18
48
1
60
0
100
AcDbLine
10
11.461325
20
-23.83913
30
0
11
8.538675
21
-23.83913
31
0
39
0
210
0
220
0
230
1
0
LINE
5
B8
100
AcDbEntity
8
1
62
256
6
ByLayer
370
18
48
1
60
0
100
AcDbLine
10
20.063901
20
-17.67767
30
0
11
20
21
-25
31
0
39
0
210
0
220
0
230
1
0
LINE
5
B9
100
AcDbEntity
8
1
62
256
6
ByLayer
370
13
48
1
60
0
100
AcDbLine
10
20.279208
20
25
30
0
11
20.279208
21
20.125265
31
0
39
0
210
0
220
0
230
1
0
LINE
5
BA
100
AcDbEntity
8
SK1
62
256
6
ByLayer
370
18
48
1
60
0
100
AcDbLine
10
-0.2
20
-6.078431
30
0
11
-0.2
21
-17.833485
31
0
39
0
210
0
220
0
230
1
0
LINE
5
BC
100
AcDbEntity
8
SK1
62
256
6
ByLayer
370
18
48
1
60
0
100
AcDbLine
10
-0.2
20
17.833485
30
0
11
-0.2
21
6.078432
31
0
39
0
210
0
220
0
230
1
0
LINE
5
BD
100
AcDbEntity
8
SK1
62
256
6
ByLayer
370
13
48
1
60
0
100
AcDbLine
10
-1.307107
20
3.918083
30
0
11
-1.307107
21
-3.918083
31
0
39
0
210
0
220
0
230
1
0
LINE
5
BE
100
AcDbEntity
8
SK1
62
256
6
ByLayer
370
18
48
1
60
0
100
AcDbLine
10
-1.99504
20
17.325269
30
0
11
-1.99504
21
17.320045
31
0
39
0
210
0
220
0
230
1
0
LINE
5
BF
100
AcDbEntity
8
SK1
62
256
6
ByLayer
370
18
48
1
60
0
100
AcDbLine
10
-1.99504
20
-17.320045
30
0
11
-1.99504
21
-17.325269
31
0
39
0
210
0
220
0
230
1
0
LINE
5
C0
100
AcDbEntity
8
1
62
256
6
ByLayer
370
18
48
1
60
0
100
AcDbLine
10
64.576744
20
33.016197
30
0
11
62.568682
21
32.899254
31
0
39
0
210
0
220
0
230
1
0
LINE
5
C1
100
AcDbEntity
8
1
62
256
6
ByLayer
370
18
48
1
60
0
100
AcDbLine
10
64.576744
20
26.983885
30
0
11
62.568682
21
27.100828
31
0
39
0
210
0
220
0
230
1
0
LINE
5
C2
100
AcDbEntity
8
1
62
256
6
ByLayer
370
18
48
1
60
0
100
AcDbLine
10
65
20
32.616879
30
0
11
65
21
27.383203
31
0
39
0
210
0
220
0
230
1
0
LINE
5
C3
100
AcDbEntity
8
1
62
256
6
ByLayer
370
18
48
1
60
0
100
AcDbLine
10
62.568682
20
32.899254
30
0
11
62.143073
21
32.918851
31
0
39
0
210
0
220
0
230
1
0
LINE
5
C4
100
AcDbEntity
8
1
62
256
6
ByLayer
370
18
48
1
60
0
100
AcDbLine
10
62.568682
20
27.100828
30
0
11
62.143073
21
27.076775
31
0
39
0
210
0
220
0
230
1
0
LINE
5
C5
100
AcDbEntity
8
1
62
256
6
ByLayer
370
18
48
1
60
0
100
AcDbLine
10
62.568682
20
32.899254
30
0
11
62.568682
21
27.100828
31
0
39
0
210
0
220
0
230
1
0
LINE
5
C6
100
AcDbEntity
8
1
62
256
6
ByLayer
370
13
48
1
60
0
100
AcDbLine
10
57.000021
20
29.976417
30
0
11
60.988604
21
29.976417
31
0
39
0
210
0
220
0
230
1
0
LINE
5
C7
100
AcDbEntity
8
1
62
256
6
ByLayer
370
13
48
1
60
0
100
AcDbLine
10
56.999889
20
30.016417
30
0
11
60.988604
21
30.016417
31
0
39
0
210
0
220
0
230
1
0
LINE
5
C8
100
AcDbEntity
8
1
62
256
6
ByLayer
370
13
48
1
60
0
100
AcDbLine
10
57.000544
20
29.785638
30
0
11
60.94999
21
29.785638
31
0
39
0
210
0
220
0
230
1
0
LINE
5
C9
100
AcDbEntity
8
1
62
256
6
ByLayer
370
13
48
1
60
0
100
AcDbLine
10
56.999224
20
30.207103
30
0
11
60.94999
21
30.207103
31
0
39
0
210
0
220
0
230
1
0
LINE
5
CA
100
AcDbEntity
8
1
62
256
6
ByLayer
370
13
48
1
60
0
100
AcDbLine
10
60.170287
20
29.567701
30
0
11
56.914729
21
29.567701
31
0
39
0
210
0
220
0
230
1
0
LINE
5
CB
100
AcDbEntity
8
1
62
256
6
ByLayer
370
13
48
1
60
0
100
AcDbLine
10
60.170287
20
30.423155
30
0
11
56.9067
21
30.423155
31
0
39
0
210
0
220
0
230
1
0
LINE
5
CC
100
AcDbEntity
8
1
62
256
6
ByLayer
370
13
48
1
60
0
100
AcDbLine
10
59.482367
20
29.511518
30
0
11
56.810084
21
29.511518
31
0
39
0
210
0
220
0
230
1
0
LINE
5
CD
100
AcDbEntity
8
1
62
256
6
ByLayer
370
13
48
1
60
0
100
AcDbLine
10
59.482367
20
30.477675
30
0
11
56.802447
21
30.477675
31
0
39
0
210
0
220
0
230
1
0
LINE
5
CE
100
AcDbEntity
8
1
62
256
6
ByLayer
370
13
48
1
60
0
100
AcDbLine
10
56.774498
20
29.480503
30
0
11
59.306526
21
29.480503
31
0
39
0
210
0
220
0
230
1
0
LINE
5
CF
100
AcDbEntity
8
1
62
256
6
ByLayer
370
13
48
1
60
0
100
AcDbLine
10
56.77067
20
30.508264
30
0
11
59.306526
21
30.508264
31
0
39
0
210
0
220
0
230
1
0
LINE
5
D0
100
AcDbEntity
8
1
62
256
6
ByLayer
370
13
48
1
60
0
100
AcDbLine
10
58.995391
20
29.388351
30
0
11
56.763412
21
29.388351
31
0
39
0
210
0
220
0
230
1
0
LINE
5
D1
100
AcDbEntity
8
1
62
256
6
ByLayer
370
13
48
1
60
0
100
AcDbLine
10
58.995391
20
30.599664
30
0
11
56.758744
21
30.599664
31
0
39
0
210
0
220
0
230
1
0
LINE
5
D2
100
AcDbEntity
8
1
62
256
6
ByLayer
370
13
48
1
60
0
100
AcDbLine
10
58.90992
20
29.343979
30
0
11
56.75819
21
29.343979
31
0
39
0
210
0
220
0
230
1
0
LINE
5
D3
100
AcDbEntity
8
1
62
256
6
ByLayer
370
18
48
1
60
0
100
AcDbLine
10
57.611484
20
27.39237
30
0
11
56.507563
21
27.39237
31
0
39
0
210
0
220
0
230
1
0
LINE
5
D4
100
AcDbEntity
8
1
62
256
6
ByLayer
370
13
48
1
60
0
100
AcDbLine
10
57.611484
20
27.633618
30
0
11
56.539829
21
27.633618
31
0
39
0
210
0
220
0
230
1
0
LINE
5
D5
100
AcDbEntity
8
1
62
256
6
ByLayer
370
13
48
1
60
0
100
AcDbLine
10
57.618068
20
27.650991
30
0
11
56.542154
21
27.650991
31
0
39
0
210
0
220
0
230
1
0
LINE
5
D6
100
AcDbEntity
8
1
62
256
6
ByLayer
370
13
48
1
60
0
100
AcDbLine
10
58.90992
20
30.643829
30
0
11
56.752781
21
30.643829
31
0
39
0
210
0
220
0
230
1
0
LINE
5
D7
100
AcDbEntity
8
1
62
256
6
ByLayer
370
13
48
1
60
0
100
AcDbLine
10
57.618068
20
32.333695
30
0
11
56.523761
21
32.333695
31
0
39
0
210
0
220
0
230
1
0
LINE
5
D8
100
AcDbEntity
8
1
62
256
6
ByLayer
370
18
48
1
60
0
100
AcDbLine
10
59.095422
20
32.624467
30
0
11
56.477375
21
32.624467
31
0
39
0
210
0
220
0
230
1
0
LINE
5
D9
100
AcDbEntity
8
1
62
256
6
ByLayer
370
18
48
1
60
0
100
AcDbLine
10
57.611484
20
32.592299
30
0
11
56.482964
21
32.592299
31
0
39
0
210
0
220
0
230
1
0
LINE
5
DA
100
AcDbEntity
8
1
62
256
6
ByLayer
370
13
48
1
60
0
100
AcDbLine
10
57.611484
20
32.351051
30
0
11
56.52114
21
32.351051
31
0
39
0
210
0
220
0
230
1
0
LINE
5
DB
100
AcDbEntity
8
1
62
256
6
ByLayer
370
18
48
1
60
0
100
AcDbLine
10
58.90992
20
30.643829
30
0
11
57.618066
21
32.333693
31
0
39
0
210
0
220
0
230
1
0
LINE
5
DC
100
AcDbEntity
8
1
62
256
6
ByLayer
370
18
48
1
60
0
100
AcDbLine
10
59.306526
20
30.508264
30
0
11
58.995391
21
30.599664
31
0
39
0
210
0
220
0
230
1
0
LINE
5
DD
100
AcDbEntity
8
1
62
256
6
ByLayer
370
18
48
1
60
0
100
AcDbLine
10
60.988604
20
30.016417
30
0
11
60.988604
21
29.976417
31
0
39
0
210
0
220
0
230
1
0
LINE
5
DE
100
AcDbEntity
8
1
62
256
6
ByLayer
370
18
48
1
60
0
100
AcDbLine
10
59.306526
20
29.480503
30
0
11
58.995391
21
29.388351
31
0
39
0
210
0
220
0
230
1
0
LINE
5
DF
100
AcDbEntity
8
1
62
256
6
ByLayer
370
18
48
1
60
0
100
AcDbLine
10
58.90992
20
29.343979
30
0
11
57.618066
21
27.650993
31
0
39
0
210
0
220
0
230
1
0
LINE
5
E0
100
AcDbEntity
8
1
62
256
6
ByLayer
370
18
48
1
60
0
100
AcDbLine
10
57.611484
20
27.633618
30
0
11
57.611484
21
27.39237
31
0
39
0
210
0
220
0
230
1
0
LINE
5
E1
100
AcDbEntity
8
1
62
256
6
ByLayer
370
18
48
1
60
0
100
AcDbLine
10
59.039855
20
27.394097
30
0
11
57.611484
21
27.39237
31
0
39
0
210
0
220
0
230
1
0
LINE
5
E2
100
AcDbEntity
8
1
62
256
6
ByLayer
370
18
48
1
60
0
100
AcDbLine
10
59.467511
20
27.161708
30
0
11
59.039855
21
27.394097
31
0
39
0
210
0
220
0
230
1
0
LINE
5
E3
100
AcDbEntity
8
1
62
256
6
ByLayer
370
18
48
1
60
0
100
AcDbLine
10
59.467511
20
27.161708
30
0
11
62.143073
21
27.076775
31
0
39
0
210
0
220
0
230
1
0
LINE
5
E4
100
AcDbEntity
8
1
62
256
6
ByLayer
370
18
48
1
60
0
100
AcDbLine
10
62.143073
20
27.076775
30
0
11
62.143073
21
32.918851
31
0
39
0
210
0
220
0
230
1
0
LINE
5
E5
100
AcDbEntity
8
1
62
256
6
ByLayer
370
18
48
1
60
0
100
AcDbLine
10
59.467511
20
32.827449
30
0
11
62.143073
21
32.918851
31
0
39
0
210
0
220
0
230
1
0
LINE
5
E6
100
AcDbEntity
8
1
62
256
6
ByLayer
370
18
48
1
60
0
100
AcDbLine
10
59.467511
20
32.827449
30
0
11
59.039855
21
32.594026
31
0
39
0
210
0
220
0
230
1
0
LINE
5
E7
100
AcDbEntity
8
1
62
256
6
ByLayer
370
18
48
1
60
0
100
AcDbLine
10
59.039855
20
32.594026
30
0
11
57.611484
21
32.592299
31
0
39
0
210
0
220
0
230
1
0
LINE
5
E8
100
AcDbEntity
8
1
62
256
6
ByLayer
370
18
48
1
60
0
100
AcDbLine
10
57.611484
20
32.351051
30
0
11
57.611484
21
32.592299
31
0
39
0
210
0
220
0
230
1
0
LINE
5
E9
100
AcDbEntity
8
SK2
62
256
6
ByLayer
370
18
48
1
60
0
100
AcDbLine
10
-39.975
20
-25
30
0
11
-39.975
21
25
31
0
39
0
210
0
220
0
230
1
0
LINE
5
EB
100
AcDbEntity
8
SK2
62
256
6
ByLayer
370
18
48
1
60
0
100
AcDbLine
10
-1.2875
20
25
30
0
11
-41.975
21
25
31
0
39
0
210
0
220
0
230
1
0
LINE
5
EC
100
AcDbEntity
8
SK2
62
256
6
ByLayer
370
18
48
1
60
0
100
AcDbLine
10
-1.2875
20
-25
30
0
11
-41.975
21
-25
31
0
39
0
210
0
220
0
230
1
0
LINE
5
ED
100
AcDbEntity
8
1
62
256
6
ByLayer
370
18
48
1
60
1
100
AcDbLine
10
-39.975
20
25
30
0
11
-39.514216
21
21.500002
31
0
39
0
210
0
220
0
230
1
0
LINE
5
EE
100
AcDbEntity
8
1
62
256
6
ByLayer
370
18
48
1
60
1
100
AcDbLine
10
-39.514216
20
21.500002
30
0
11
-40.435784
21
21.499998
31
0
39
0
210
0
220
0
230
1
0
LINE
5
EF
100
AcDbEntity
8
1
62
256
6
ByLayer
370
18
48
1
60
1
100
AcDbLine
10
-40.435784
20
21.499998
30
0
11
-39.975
21
25
31
0
39
0
210
0
220
0
230
1
0
LINE
5
F0
100
AcDbEntity
8
1
62
256
6
ByLayer
370
18
48
1
60
1
100
AcDbLine
10
-39.975
20
-25
30
0
11
-40.435784
21
-21.500002
31
0
39
0
210
0
220
0
230
1
0
LINE
5
F1
100
AcDbEntity
8
1
62
256
6
ByLayer
370
18
48
1
60
1
100
AcDbLine
10
-40.435784
20
-21.500002
30
0
11
-39.514216
21
-21.499998
31
0
39
0
210
0
220
0
230
1
0
LINE
5
F2
100
AcDbEntity
8
1
62
256
6
ByLayer
370
18
48
1
60
1
100
AcDbLine
10
-39.514216
20
-21.499998
30
0
11
-39.975
21
-25
31
0
39
0
210
0
220
0
230
1
0
LINE
5
153
100
AcDbEntity
8
1
62
256
6
ByLayer
370
18
48
1
60
1
100
AcDbLine
10
-39.975
20
25
30
0
11
-39.514216
21
21.500002
31
0
39
0
210
0
220
0
230
1
0
LINE
5
154
100
AcDbEntity
8
1
62
256
6
ByLayer
370
18
48
1
60
1
100
AcDbLine
10
-39.514216
20
21.500002
30
0
11
-40.435784
21
21.499998
31
0
39
0
210
0
220
0
230
1
0
LINE
5
155
100
AcDbEntity
8
1
62
256
6
ByLayer
370
18
48
1
60
1
100
AcDbLine
10
-40.435784
20
21.499998
30
0
11
-39.975
21
25
31
0
39
0
210
0
220
0
230
1
0
LINE
5
157
100
AcDbEntity
8
1
62
256
6
ByLayer
370
18
48
1
60
1
100
AcDbLine
10
-39.975
20
-25
30
0
11
-40.435784
21
-21.500002
31
0
39
0
210
0
220
0
230
1
0
LINE
5
158
100
AcDbEntity
8
1
62
256
6
ByLayer
370
18
48
1
60
1
100
AcDbLine
10
-40.435784
20
-21.500002
30
0
11
-39.514216
21
-21.499998
31
0
39
0
210
0
220
0
230
1
0
LINE
5
159
100
AcDbEntity
8
1
62
256
6
ByLayer
370
18
48
1
60
1
100
AcDbLine
10
-39.514216
20
-21.499998
30
0
11
-39.975
21
-25
31
0
39
0
210
0
220
0
230
1
0
MTEXT
5
14F
100
AcDbEntity
8
SK2
62
256
6
ByLayer
370
18
48
1
60
0
100
AcDbMText
10
-41.539634
20
-4.530622
30
0
210
0
220
0
230
1
1
%%c
40
3.5
41
0
44
1.084337
50
90
71
7
72
5
7
iso_b_vert
0
MTEXT
5
152
100
AcDbEntity
8
SK2
62
256
6
ByLayer
370
18
48
1
60
0
100
AcDbMText
10
-41.539634
20
2.442034
30
0
210
0
220
0
230
1
1
\W0.6740;50
40
3.5
41
0
44
1.084337
50
90
71
7
72
5
7
iso_b_vert
0
MTEXT
5
15B
100
AcDbEntity
8
SK6
62
256
6
ByLayer
370
18
48
1
60
0
100
AcDbMText
10
-14.8145
20
-45.374371
30
0
210
0
220
0
230
1
1
\W0.7534;C2A-CC5-RFK18B-058CB
40
3.5
41
0
44
1.084337
50
0
71
7
72
5
7
iso_b_vert
0
HATCH
5
156
100
AcDbEntity
8
SK2
62
256
6
ByLayer
370
13
48
1
60
0
100
AcDbHatch
10
0
20
0
30
0
210
0
220
0
230
1
2
ANSI31
70
0
71
0
91
1
92
5
93
3
72
1
10
-39.9750000000001
20
25
11
-39.5142162584473
21
21.5000016925532
72
1
10
-39.5142162584473
20
21.5000016925532
11
-40.4357837415528
21
21.4999983074468
72
1
10
-40.4357837415528
20
21.4999983074468
11
-39.9750000000001
21
25
97
0
75
0
76
1
52
0
41
0.0062
77
0
78
1
53
45
43
0
44
0
45
-0.0139193969876572
46
0.0139193969876572
79
0
47
0
98
1
10
0
20
0
0
HATCH
5
15A
100
AcDbEntity
8
SK2
62
256
6
ByLayer
370
13
48
1
60
0
100
AcDbHatch
10
0
20
0
30
0
210
0
220
0
230
1
2
ANSI31
70
0
71
0
91
1
92
5
93
3
72
1
10
-39.9750000000001
20
-25
11
-40.4357837415528
21
-21.5000016925532
72
1
10
-40.4357837415528
20
-21.5000016925532
11
-39.5142162584473
21
-21.4999983074468
72
1
10
-39.5142162584473
20
-21.4999983074468
11
-39.9750000000001
21
-25
97
0
75
0
76
1
52
0
41
0.0062
77
0
78
1
53
45
43
0
44
0
45
-0.0139193969876572
46
0.0139193969876572
79
0
47
0
98
1
10
0
20
0
0
DIMENSION
5
15E
100
AcDbEntity
8
2
62
256
6
ByLayer
370
18
48
1
60
0
100
AcDbDimension
2
_U0
10
96.1
20
0
30
0
11
96.1
21
16.5
31
0
70
32
71
1
72
1
41
1
210
0
220
0
230
1
3
Standard
100
AcDbAlignedDimension
13
65
23
33
33
0
14
0
24
0
34
0
50
90
100
AcDbRotatedDimension
1001
ACAD
1000
DSTYLE
1002
{
1070
   371
1070
    13
1070
   372
1070
    13
1070
   170
1070
     0
1070
   144
1040
1.0
1070
   277
1070
     2
1070
   284
1070
     8
1070
   278
1070
    46
1070
   146
1040
1.0
1070
   345
1005
16
1070
   347
1005
16
1070
   346
1005
16
1070
   344
1005
0
1070
   343
1005
0
1070
   172
1070
     1
1070
    76
1070
     0
1070
    75
1070
     0
1070
   282
1070
     0
1070
   281
1070
     0
1070
    71
1070
     0
1070
    74
1070
     0
1070
   279
1070
     0
1070
   173
1070
     1
1070
   340
1005
150
1070
   271
1070
     1
1070
   272
1070
     2
1070
    77
1070
     1
1070
    73
1070
     0
1070
   171
1070
     3
1070
   274
1070
     4
1070
   177
1070
     2
1070
   176
1070
     2
1070
   178
1070
     2
1070
    78
1070
     8
1070
    48
1040
-0.1
1070
    41
1040
3.5
1070
   147
1040
1.75
1070
    42
1040
1.5875
1070
    44
1040
2.0
1070
   140
1040
3.5
1002
}
1001
ACAD_DSTYLE_DIM_LINETYPE
1070
   380
1005
16
1001
ACAD_DSTYLE_DIM_EXT1_LINETYPE
1070
   381
1005
16
1001
ACAD_DSTYLE_DIM_EXT2_LINETYPE
1070
   382
1005
16
0
DIMENSION
5
178
100
AcDbEntity
8
2
62
256
6
ByLayer
370
18
48
1
60
0
100
AcDbDimension
2
_U1
10
85.1
20
33
30
0
11
85.1
21
30
31
0
70
32
71
1
72
1
41
1
210
0
220
0
230
1
3
Standard
100
AcDbAlignedDimension
13
65
23
27
33
0
14
65
24
33
34
0
50
90
100
AcDbRotatedDimension
1001
ACAD
1000
DSTYLE
1002
{
1070
   371
1070
    13
1070
   372
1070
    13
1070
   170
1070
     0
1070
   144
1040
1.0
1070
   277
1070
     2
1070
   284
1070
     8
1070
   278
1070
    46
1070
   146
1040
1.0
1070
   345
1005
16
1070
   347
1005
16
1070
   346
1005
16
1070
   344
1005
0
1070
   343
1005
0
1070
   172
1070
     1
1070
    76
1070
     0
1070
    75
1070
     0
1070
   282
1070
     0
1070
   281
1070
     0
1070
    71
1070
     0
1070
    74
1070
     0
1070
   279
1070
     0
1070
   173
1070
     1
1070
   340
1005
150
1070
   271
1070
     1
1070
   272
1070
     2
1070
    77
1070
     1
1070
    73
1070
     0
1070
   171
1070
     3
1070
   274
1070
     4
1070
   177
1070
     2
1070
   176
1070
     2
1070
   178
1070
     2
1070
    78
1070
     8
1070
    48
1040
-0.1
1070
    41
1040
3.5
1070
   147
1040
1.75
1070
    42
1040
1.5875
1070
    44
1040
2.0
1070
   140
1040
3.5
1002
}
1001
ACAD_DSTYLE_DIM_LINETYPE
1070
   380
1005
16
1001
ACAD_DSTYLE_DIM_EXT1_LINETYPE
1070
   381
1005
16
1001
ACAD_DSTYLE_DIM_EXT2_LINETYPE
1070
   382
1005
16
0
DIMENSION
5
191
100
AcDbEntity
8
2
62
256
6
ByLayer
370
18
48
1
60
0
100
AcDbDimension
2
_U2
10
65
20
-24.424959
30
0
11
56
21
-24.424959
31
0
70
32
71
1
72
1
41
1
210
0
220
0
230
1
3
Standard
100
AcDbAlignedDimension
13
47
23
27.325041
33
0
14
65
24
27
34
0
50
0
100
AcDbRotatedDimension
1001
ACAD
1000
DSTYLE
1002
{
1070
   371
1070
    13
1070
   372
1070
    13
1070
   170
1070
     0
1070
   144
1040
1.0
1070
   277
1070
     2
1070
   284
1070
     8
1070
   278
1070
    46
1070
   146
1040
1.0
1070
   345
1005
16
1070
   347
1005
16
1070
   346
1005
16
1070
   344
1005
0
1070
   343
1005
0
1070
   172
1070
     1
1070
    76
1070
     0
1070
    75
1070
     0
1070
   282
1070
     0
1070
   281
1070
     0
1070
    71
1070
     0
1070
    74
1070
     0
1070
   279
1070
     0
1070
   173
1070
     1
1070
   340
1005
150
1070
   271
1070
     1
1070
   272
1070
     2
1070
    77
1070
     1
1070
    73
1070
     1
1070
   171
1070
     3
1070
   274
1070
     4
1070
   177
1070
     2
1070
   176
1070
     2
1070
   178
1070
     2
1070
    78
1070
     8
1070
    48
1040
-0.1
1070
    41
1040
3.5
1070
   147
1040
1.75
1070
    42
1040
1.5875
1070
    44
1040
2.0
1070
   140
1040
3.5
1002
}
1001
ACAD_DSTYLE_DIM_LINETYPE
1070
   380
1005
16
1001
ACAD_DSTYLE_DIM_EXT1_LINETYPE
1070
   381
1005
16
1001
ACAD_DSTYLE_DIM_EXT2_LINETYPE
1070
   382
1005
16
0
DIMENSION
5
1A9
100
AcDbEntity
8
2
62
256
6
ByLayer
370
18
48
1
60
0
100
AcDbDimension
2
_U3
10
65
20
47.25
30
0
11
32.5
21
47.25
31
0
70
32
71
1
72
1
41
1
210
0
220
0
230
1
3
Standard
100
AcDbAlignedDimension
13
0
23
0
33
0
14
65
24
33
34
0
50
0
100
AcDbRotatedDimension
1001
ACAD
1000
DSTYLE
1002
{
1070
   371
1070
    13
1070
   372
1070
    13
1070
   170
1070
     0
1070
   144
1040
1.0
1070
   277
1070
     2
1070
   284
1070
     8
1070
   278
1070
    46
1070
   146
1040
1.0
1070
   345
1005
16
1070
   347
1005
16
1070
   346
1005
16
1070
   344
1005
0
1070
   343
1005
0
1070
   172
1070
     1
1070
    76
1070
     0
1070
    75
1070
     0
1070
   282
1070
     0
1070
   281
1070
     0
1070
    71
1070
     0
1070
    74
1070
     0
1070
   279
1070
     0
1070
   173
1070
     1
1070
   340
1005
150
1070
   271
1070
     1
1070
   272
1070
     2
1070
    77
1070
     1
1070
    73
1070
     1
1070
   171
1070
     3
1070
   274
1070
     4
1070
   177
1070
     2
1070
   176
1070
     2
1070
   178
1070
     2
1070
    78
1070
     8
1070
    48
1040
-0.1
1070
    41
1040
3.5
1070
   147
1040
1.75
1070
    42
1040
1.5875
1070
    44
1040
2.0
1070
   140
1040
3.5
1002
}
1001
ACAD_DSTYLE_DIM_LINETYPE
1070
   380
1005
16
1001
ACAD_DSTYLE_DIM_EXT1_LINETYPE
1070
   381
1005
16
1001
ACAD_DSTYLE_DIM_EXT2_LINETYPE
1070
   382
1005
16
0
ENDSEC
0
SECTION
2
OBJECTS
0
DICTIONARY
5
230
330
0
100
AcDbDictionary
280
0
281
1
3
ACAD_GROUP
350
231
3
ACAD_MLINESTYLE
350
232
0
DICTIONARY
5
231
330
0
100
AcDbDictionary
280
0
281
1
0
DICTIONARY
5
232
330
0
100
AcDbDictionary
280
0
281
1
3
Standard
350
18
0
MLINESTYLE
5
18
330
232
100
AcDbMlineStyle
2
Standard
70
0
3

62
256
51
90
52
90
71
2
49
-0.5
62
256
6
ByLayer
49
0.5
62
256
6
ByLayer
0
RASTERVARIABLES
5
21f
330

100
AcDbRasterVariables
90
0
70
1
71
1
72
1
0
ENDSEC
0
EOF
