0
SECTION
2
HEADER
9
$ACADVER
1
AC1015
9
$DWGCODEPAGE
3
ANSI_1252
9
$HANDSEED
5
23f
9
$ANGBASE
50
0
9
$ANGDIR
70
0
9
$ATTMODE
70
1
9
$AUNITS
70
0
9
$AUPREC
70
0
9
$CECOLOR
62
256
9
$CELTSCALE
40
1
9
$CELTYPE
6
ByLayer
9
$CELWEIGHT
370
18
9
$CLAYER
8
0
9
$CMLJUST
70
0
9
$CMLSCALE
40
1
9
$CMLSTYLE
2
Standard
9
$DIMSTYLE
2
Standard
9
$TEXTSIZE
40
0.2
9
$TEXTSTYLE
7
Standard
9
$LUNITS
70
2
9
$LUPREC
70
4
9
$EXTNAMES
290
1
9
$INSUNITS
70
4
9
$LTSCALE
40
1
9
$LWDISPLAY
290
1
9
$PDMODE
70
0
9
$PDSIZE
40
0
9
$PLINEGEN
70
0
0
ENDSEC
0
SECTION
2
CLASSES
0
CLASS
1
RASTERVARIABLES
2
AcDbRasterVariables
3
ISM
90
0
280
0
281
0
0
ENDSEC
0
SECTION
2
TABLES
0
TABLE
2
VPORT
5
235
100
AcDbSymbolTable
0
VPORT
5
1
100
AcDbSymbolTableRecord
100
AcDbViewportTableRecord
2
*Active
70
0
10
0
20
0
11
1
21
1
12
-1
22
1
13
0
23
0
14
0.5
24
0.5
15
10
25
10
16
0
26
0
36
1
17
0
27
0
37
0
0
ENDTAB
0
TABLE
2
LTYPE
5
236
100
AcDbSymbolTable
0
LTYPE
5
14
100
AcDbSymbolTableRecord
100
AcDbLinetypeTableRecord
70
0
2
ByBlock
3

72
65
73
0
40
0
0
LTYPE
5
15
100
AcDbSymbolTableRecord
100
AcDbLinetypeTableRecord
70
0
2
ByLayer
3

72
65
73
0
40
0
0
LTYPE
5
16
100
AcDbSymbolTableRecord
100
AcDbLinetypeTableRecord
70
0
2
Continuous
3
Solid line
72
65
73
0
40
0
0
LTYPE
5
6E
100
AcDbSymbolTableRecord
100
AcDbLinetypeTableRecord
70
0
2
CENTER
3
____ _ ____ _ ____ _ ____
72
65
73
4
40
47.5
49
22
74
0
49
-8.5
74
0
49
8.5
74
0
49
-8.5
74
0
0
LTYPE
5
6F
100
AcDbSymbolTableRecord
100
AcDbLinetypeTableRecord
70
0
2
DASHED
3
__ __ __ __ __ __ __ __ __
72
65
73
2
40
25.72
49
12.86
74
0
49
-12.86
74
0
0
ENDTAB
0
TABLE
2
LAYER
5
237
100
AcDbSymbolTable
0
LAYER
5
10
100
AcDbSymbolTableRecord
100
AcDbLayerTableRecord
2
0
70
0
62
7
6
Continuous
290
1
370
-3
390
0
0
LAYER
5
71
100
AcDbSymbolTableRecord
100
AcDbLayerTableRecord
2
80
70
0
62
-6
6
Continuous
290
1
370
-3
390
0
0
LAYER
5
73
100
AcDbSymbolTableRecord
100
AcDbLayerTableRecord
2
81
70
0
62
-3
6
Continuous
290
1
370
-3
390
0
0
LAYER
5
75
100
AcDbSymbolTableRecord
100
AcDbLayerTableRecord
2
1
70
0
62
4
6
Continuous
290
1
370
-3
390
0
0
LAYER
5
163
100
AcDbSymbolTableRecord
100
AcDbLayerTableRecord
2
Defpoints
70
0
62
7
6
Continuous
290
0
370
-3
390
0
0
LAYER
5
170
100
AcDbSymbolTableRecord
100
AcDbLayerTableRecord
2
2
70
0
62
7
6
Continuous
290
1
370
-3
390
0
0
LAYER
5
222
100
AcDbSymbolTableRecord
100
AcDbLayerTableRecord
2
SK1
70
0
62
4
6
Continuous
290
1
370
-3
390
0
0
LAYER
5
223
100
AcDbSymbolTableRecord
100
AcDbLayerTableRecord
2
SK2
70
0
62
7
6
Continuous
290
1
370
-3
390
0
0
LAYER
5
224
100
AcDbSymbolTableRecord
100
AcDbLayerTableRecord
2
SK6
70
0
62
5
6
Continuous
290
1
370
-3
390
0
0
ENDTAB
0
TABLE
2
STYLE
5
238
100
AcDbSymbolTable
0
STYLE
5
11
100
AcDbSymbolTableRecord
100
AcDbTextStyleTableRecord
2
Standard
3
txt
70
0
71
0
40
0
41
1
42
0
50
0
0
STYLE
5
152
100
AcDbSymbolTableRecord
100
AcDbTextStyleTableRecord
2
iso_b_vert
3
simplex.shx
70
0
71
0
40
0
41
1
42
0
50
0
0
STYLE
5
153
100
AcDbSymbolTableRecord
100
AcDbTextStyleTableRecord
2
DWGDirectTextStyle
3
simplex
70
0
71
0
40
0
41
1
42
0
50
0
0
ENDTAB
0
TABLE
2
DIMSTYLE
5
239
100
AcDbSymbolTable
100
AcDbDimStyleTable
0
DIMSTYLE
105
27
100
AcDbSymbolTableRecord
100
AcDbDimStyleTableRecord
2
Standard
70
0
3
<>
41
0.18
42
0.0625
44
0.18
140
0.18
147
0.09
73
0
74
0
77
1
271
2
275
0
278
52
280
0
340
11
0
ENDTAB
0
TABLE
2
VIEW
5
23a
100
AcDbSymbolTable
0
ENDTAB
0
TABLE
2
UCS
5
23b
100
AcDbSymbolTable
0
ENDTAB
0
TABLE
2
APPID
5
23c
100
AcDbSymbolTable
0
APPID
5
12
100
AcDbSymbolTableRecord
100
AcDbRegAppTableRecord
2
ACAD
70
0
0
APPID
5
15F
100
AcDbSymbolTableRecord
100
AcDbRegAppTableRecord
2
ACAD_DSTYLE_DIMBREAK
70
0
0
APPID
5
1E1
100
AcDbSymbolTableRecord
100
AcDbRegAppTableRecord
2
ACAD_DSTYLE_DIM_LINETYPE
70
0
0
APPID
5
1E2
100
AcDbSymbolTableRecord
100
AcDbRegAppTableRecord
2
ACAD_DSTYLE_DIM_EXT1_LINETYPE
70
0
0
APPID
5
1E3
100
AcDbSymbolTableRecord
100
AcDbRegAppTableRecord
2
ACAD_DSTYLE_DIM_EXT2_LINETYPE
70
0
0
APPID
5
21E
100
AcDbSymbolTableRecord
100
AcDbRegAppTableRecord
2
ACAD_MLEADERVER
70
0
0
ENDTAB
0
TABLE
2
BLOCK_RECORD
5
23d
100
AcDbSymbolTable
0
BLOCK_RECORD
5
1F
100
AcDbSymbolTableRecord
100
AcDbBlockTableRecord
2
*Model_Space
340
0
70
0
0
BLOCK_RECORD
5
1B
100
AcDbSymbolTableRecord
100
AcDbBlockTableRecord
2
*Paper_Space
340
0
70
0
0
BLOCK_RECORD
5
23
100
AcDbSymbolTableRecord
100
AcDbBlockTableRecord
2
*Paper_Space0
340
0
70
0
0
BLOCK_RECORD
5
164
100
AcDbSymbolTableRecord
100
AcDbBlockTableRecord
2
*D1
340
0
70
0
0
BLOCK_RECORD
5
171
100
AcDbSymbolTableRecord
100
AcDbBlockTableRecord
2
_U0
340
0
70
0
0
BLOCK_RECORD
5
17D
100
AcDbSymbolTableRecord
100
AcDbBlockTableRecord
2
*D3
340
0
70
0
0
BLOCK_RECORD
5
18A
100
AcDbSymbolTableRecord
100
AcDbBlockTableRecord
2
_U1
340
0
70
0
0
BLOCK_RECORD
5
196
100
AcDbSymbolTableRecord
100
AcDbBlockTableRecord
2
*D5
340
0
70
0
0
BLOCK_RECORD
5
1A2
100
AcDbSymbolTableRecord
100
AcDbBlockTableRecord
2
_U2
340
0
70
0
0
BLOCK_RECORD
5
1AE
100
AcDbSymbolTableRecord
100
AcDbBlockTableRecord
2
*D7
340
0
70
0
0
BLOCK_RECORD
5
1BA
100
AcDbSymbolTableRecord
100
AcDbBlockTableRecord
2
_U3
340
0
70
0
0
ENDTAB
0
ENDSEC
0
SECTION
2
BLOCKS
0
BLOCK
5
20
100
AcDbEntity
8
0
100
AcDbBlockBegin
2
*Model_Space
70
0
10
0
20
0
30
0
3
*Model_Space
0
ENDBLK
5
21
100
AcDbEntity
8
0
100
AcDbBlockEnd
0
BLOCK
5
1C
100
AcDbEntity
8
0
100
AcDbBlockBegin
2
*Paper_Space
70
0
10
0
20
0
30
0
3
*Paper_Space
0
ENDBLK
5
1D
100
AcDbEntity
8
0
100
AcDbBlockEnd
0
BLOCK
5
24
100
AcDbEntity
8
0
100
AcDbBlockBegin
2
*Paper_Space0
70
0
10
0
20
0
30
0
3
*Paper_Space0
0
ENDBLK
5
25
100
AcDbEntity
8
0
100
AcDbBlockEnd
0
BLOCK
5
165
100
AcDbEntity
8
0
100
AcDbBlockBegin
2
*D1
70
1
10
0
20
0
30
0
3
*D1
0
LINE
5
167
100
AcDbEntity
8
0
62
256
6
ByLayer
370
-2
48
1
60
0
100
AcDbLine
10
66.5875
20
33
30
0
11
98.1
21
33
31
0
39
0
210
0
220
0
230
1
0
LINE
5
168
100
AcDbEntity
8
0
62
256
6
ByLayer
370
-2
48
1
60
0
100
AcDbLine
10
1.5875
20
0
30
0
11
98.1
21
0
31
0
39
0
210
0
220
0
230
1
0
LINE
5
169
100
AcDbEntity
8
0
62
256
6
ByLayer
370
-2
48
1
60
0
100
AcDbLine
10
96.1
20
29.5
30
0
11
96.1
21
3.5
31
0
39
0
210
0
220
0
230
1
0
SOLID
5
16A
100
AcDbEntity
8
0
62
256
6
ByLayer
370
-1
48
1
60
0
100
AcDbTrace
10
96.683333
20
29.5
30
0
11
95.516667
21
29.5
31
0
12
96.1
22
33
32
0
13
96.1
23
33
33
0
39
0
210
0
220
0
230
1
0
SOLID
5
16B
100
AcDbEntity
8
0
62
256
6
ByLayer
370
-1
48
1
60
0
100
AcDbTrace
10
95.516667
20
3.5
30
0
11
96.683333
21
3.5
31
0
12
96.1
22
0
32
0
13
96.1
23
0
33
0
39
0
210
0
220
0
230
1
0
MTEXT
5
16C
100
AcDbEntity
8
0
62
256
6
ByLayer
370
18
48
1
60
0
100
AcDbMText
10
89.1
20
16.5
30
0
210
0
220
0
230
1
1
\A1;33
40
3.5
41
0
44
1
50
90
71
5
72
5
7
iso_b_vert
0
POINT
5
16D
100
AcDbEntity
8
Defpoints
62
0
6
ByLayer
370
-1
48
1
60
0
100
AcDbPoint
10
65
20
33
30
0
39
0
210
0
220
0
230
1
50
360
0
POINT
5
16E
100
AcDbEntity
8
Defpoints
62
0
6
ByLayer
370
-1
48
1
60
0
100
AcDbPoint
10
0
20
0
30
0
39
0
210
0
220
0
230
1
50
360
0
POINT
5
16F
100
AcDbEntity
8
Defpoints
62
0
6
ByLayer
370
-1
48
1
60
0
100
AcDbPoint
10
96.1
20
0
30
0
39
0
210
0
220
0
230
1
50
360
0
ENDBLK
5
166
100
AcDbEntity
8
0
100
AcDbBlockEnd
0
BLOCK
5
178
100
AcDbEntity
8
0
100
AcDbBlockBegin
2
_U0
70
0
10
0
20
0
30
0
3
_U0
0
MTEXT
5
172
100
AcDbEntity
8
2
62
256
6
ByLayer
370
18
48
1
60
0
100
AcDbMText
10
95.410366
20
14.567034
30
0
210
0
220
0
230
1
1
\W0.6740;33
40
3.5
41
0
44
1.084337
50
90
71
7
72
5
7
iso_b_vert
0
LINE
5
173
100
AcDbEntity
8
2
62
256
6
ByLayer
370
13
48
1
60
0
100
AcDbLine
10
66.5875
20
33
30
0
11
98.1
21
33
31
0
39
0
210
0
220
0
230
1
0
LINE
5
174
100
AcDbEntity
8
2
62
256
6
ByLayer
370
13
48
1
60
0
100
AcDbLine
10
1.5875
20
0
30
0
11
98.1
21
0
31
0
39
0
210
0
220
0
230
1
0
LINE
5
175
100
AcDbEntity
8
2
62
256
6
ByLayer
370
13
48
1
60
0
100
AcDbLine
10
96.1
20
33
30
0
11
96.1
21
0
31
0
39
0
210
0
220
0
230
1
0
SOLID
5
176
100
AcDbEntity
8
2
62
256
6
ByLayer
370
18
48
1
60
0
100
AcDbTrace
10
96.1
20
33
30
0
11
96.560784
21
29.500002
31
0
12
95.639216
22
29.499998
32
0
13
95.639216
23
29.499998
33
0
39
0
210
0
220
0
230
1
0
SOLID
5
177
100
AcDbEntity
8
2
62
256
6
ByLayer
370
18
48
1
60
0
100
AcDbTrace
10
96.1
20
0
30
0
11
95.639216
21
3.499998
31
0
12
96.560784
22
3.500002
32
0
13
96.560784
23
3.500002
33
0
39
0
210
0
220
0
230
1
0
ENDBLK
5
179
100
AcDbEntity
8
0
100
AcDbBlockEnd
0
BLOCK
5
17E
100
AcDbEntity
8
0
100
AcDbBlockBegin
2
*D3
70
1
10
0
20
0
30
0
3
*D3
0
LINE
5
180
100
AcDbEntity
8
0
62
256
6
ByLayer
370
-2
48
1
60
0
100
AcDbLine
10
66.5875
20
27
30
0
11
87.1
21
27
31
0
39
0
210
0
220
0
230
1
0
LINE
5
181
100
AcDbEntity
8
0
62
256
6
ByLayer
370
-2
48
1
60
0
100
AcDbLine
10
66.5875
20
33
30
0
11
87.1
21
33
31
0
39
0
210
0
220
0
230
1
0
LINE
5
182
100
AcDbEntity
8
0
62
256
6
ByLayer
370
-2
48
1
60
0
100
AcDbLine
10
85.1
20
23.5
30
0
11
85.1
21
20
31
0
39
0
210
0
220
0
230
1
0
LINE
5
183
100
AcDbEntity
8
0
62
256
6
ByLayer
370
-2
48
1
60
0
100
AcDbLine
10
85.1
20
36.5
30
0
11
85.1
21
40
31
0
39
0
210
0
220
0
230
1
0
SOLID
5
184
100
AcDbEntity
8
0
62
256
6
ByLayer
370
-1
48
1
60
0
100
AcDbTrace
10
85.683333
20
23.5
30
0
11
84.516667
21
23.5
31
0
12
85.1
22
27
32
0
13
85.1
23
27
33
0
39
0
210
0
220
0
230
1
0
SOLID
5
185
100
AcDbEntity
8
0
62
256
6
ByLayer
370
-1
48
1
60
0
100
AcDbTrace
10
84.516667
20
36.5
30
0
11
85.683333
21
36.5
31
0
12
85.1
22
33
32
0
13
85.1
23
33
33
0
39
0
210
0
220
0
230
1
0
MTEXT
5
186
100
AcDbEntity
8
0
62
256
6
ByLayer
370
18
48
1
60
0
100
AcDbMText
10
78.1
20
30
30
0
210
0
220
0
230
1
1
\A1;6
40
3.5
41
0
44
1
50
90
71
5
72
5
7
iso_b_vert
0
POINT
5
187
100
AcDbEntity
8
Defpoints
62
0
6
ByLayer
370
-1
48
1
60
0
100
AcDbPoint
10
65
20
27
30
0
39
0
210
0
220
0
230
1
50
360
0
POINT
5
188
100
AcDbEntity
8
Defpoints
62
0
6
ByLayer
370
-1
48
1
60
0
100
AcDbPoint
10
65
20
33
30
0
39
0
210
0
220
0
230
1
50
360
0
POINT
5
189
100
AcDbEntity
8
Defpoints
62
0
6
ByLayer
370
-1
48
1
60
0
100
AcDbPoint
10
85.1
20
33
30
0
39
0
210
0
220
0
230
1
50
360
0
ENDBLK
5
17F
100
AcDbEntity
8
0
100
AcDbBlockEnd
0
BLOCK
5
191
100
AcDbEntity
8
0
100
AcDbBlockBegin
2
_U1
70
0
10
0
20
0
30
0
3
_U1
0
MTEXT
5
18B
100
AcDbEntity
8
2
62
256
6
ByLayer
370
18
48
1
60
0
100
AcDbMText
10
84.410366
20
29.374767
30
0
210
0
220
0
230
1
1
\W0.5404;6
40
3.5
41
0
44
1.084337
50
90
71
7
72
5
7
iso_b_vert
0
LINE
5
18C
100
AcDbEntity
8
2
62
256
6
ByLayer
370
13
48
1
60
0
100
AcDbLine
10
66.5875
20
27
30
0
11
87.1
21
27
31
0
39
0
210
0
220
0
230
1
0
LINE
5
18D
100
AcDbEntity
8
2
62
256
6
ByLayer
370
13
48
1
60
0
100
AcDbLine
10
66.5875
20
33
30
0
11
87.1
21
33
31
0
39
0
210
0
220
0
230
1
0
LINE
5
18E
100
AcDbEntity
8
2
62
256
6
ByLayer
370
13
48
1
60
0
100
AcDbLine
10
85.1
20
18.25
30
0
11
85.1
21
41.75
31
0
39
0
210
0
220
0
230
1
0
SOLID
5
18F
100
AcDbEntity
8
2
62
256
6
ByLayer
370
18
48
1
60
0
100
AcDbTrace
10
85.1
20
27
30
0
11
85.560784
21
23.500002
31
0
12
84.639216
22
23.499998
32
0
13
84.639216
23
23.499998
33
0
39
0
210
0
220
0
230
1
0
SOLID
5
190
100
AcDbEntity
8
2
62
256
6
ByLayer
370
18
48
1
60
0
100
AcDbTrace
10
85.1
20
33
30
0
11
84.639216
21
36.499998
31
0
12
85.560784
22
36.500002
32
0
13
85.560784
23
36.500002
33
0
39
0
210
0
220
0
230
1
0
ENDBLK
5
192
100
AcDbEntity
8
0
100
AcDbBlockEnd
0
BLOCK
5
197
100
AcDbEntity
8
0
100
AcDbBlockBegin
2
*D5
70
1
10
0
20
0
30
0
3
*D5
0
LINE
5
199
100
AcDbEntity
8
0
62
256
6
ByLayer
370
-2
48
1
60
0
100
AcDbLine
10
47
20
25.739328
30
0
11
47
21
-26.423172
31
0
39
0
210
0
220
0
230
1
0
LINE
5
19A
100
AcDbEntity
8
0
62
256
6
ByLayer
370
-2
48
1
60
0
100
AcDbLine
10
65
20
25.4125
30
0
11
65
21
-26.423172
31
0
39
0
210
0
220
0
230
1
0
LINE
5
19B
100
AcDbEntity
8
0
62
256
6
ByLayer
370
-2
48
1
60
0
100
AcDbLine
10
50.5
20
-24.423172
30
0
11
61.5
21
-24.423172
31
0
39
0
210
0
220
0
230
1
0
SOLID
5
19C
100
AcDbEntity
8
0
62
256
6
ByLayer
370
-1
48
1
60
0
100
AcDbTrace
10
50.5
20
-23.839839
30
0
11
50.5
21
-25.006506
31
0
12
47
22
-24.423172
32
0
13
47
23
-24.423172
33
0
39
0
210
0
220
0
230
1
0
SOLID
5
19D
100
AcDbEntity
8
0
62
256
6
ByLayer
370
-1
48
1
60
0
100
AcDbTrace
10
61.5
20
-25.006506
30
0
11
61.5
21
-23.839839
31
0
12
65
22
-24.423172
32
0
13
65
23
-24.423172
33
0
39
0
210
0
220
0
230
1
0
MTEXT
5
19E
100
AcDbEntity
8
0
62
256
6
ByLayer
370
18
48
1
60
0
100
AcDbMText
10
56
20
-17.423172
30
0
210
0
220
0
230
1
1
\A1;18
40
3.5
41
0
44
1
50
0
71
5
72
5
7
iso_b_vert
0
POINT
5
19F
100
AcDbEntity
8
Defpoints
62
0
6
ByLayer
370
-1
48
1
60
0
100
AcDbPoint
10
47
20
27.326828
30
0
39
0
210
0
220
0
230
1
50
360
0
POINT
5
1A0
100
AcDbEntity
8
Defpoints
62
0
6
ByLayer
370
-1
48
1
60
0
100
AcDbPoint
10
65
20
27
30
0
39
0
210
0
220
0
230
1
50
360
0
POINT
5
1A1
100
AcDbEntity
8
Defpoints
62
0
6
ByLayer
370
-1
48
1
60
0
100
AcDbPoint
10
65
20
-24.423172
30
0
39
0
210
0
220
0
230
1
50
360
0
ENDBLK
5
198
100
AcDbEntity
8
0
100
AcDbBlockEnd
0
BLOCK
5
1A9
100
AcDbEntity
8
0
100
AcDbBlockBegin
2
_U2
70
0
10
0
20
0
30
0
3
_U2
0
MTEXT
5
1A3
100
AcDbEntity
8
2
62
256
6
ByLayer
370
18
48
1
60
0
100
AcDbMText
10
54.532467
20
-23.390539
30
0
210
0
220
0
230
1
1
\W0.5321;18
40
3.5
41
0
44
1.084337
50
0
71
7
72
5
7
iso_b_vert
0
LINE
5
1A4
100
AcDbEntity
8
2
62
256
6
ByLayer
370
13
48
1
60
0
100
AcDbLine
10
47
20
25.739328
30
0
11
47
21
-26.423172
31
0
39
0
210
0
220
0
230
1
0
LINE
5
1A5
100
AcDbEntity
8
2
62
256
6
ByLayer
370
13
48
1
60
0
100
AcDbLine
10
65
20
25.4125
30
0
11
65
21
-26.423172
31
0
39
0
210
0
220
0
230
1
0
LINE
5
1A6
100
AcDbEntity
8
2
62
256
6
ByLayer
370
13
48
1
60
0
100
AcDbLine
10
47
20
-24.423172
30
0
11
65
21
-24.423172
31
0
39
0
210
0
220
0
230
1
0
SOLID
5
1A7
100
AcDbEntity
8
2
62
256
6
ByLayer
370
18
48
1
60
0
100
AcDbTrace
10
47
20
-24.423172
30
0
11
50.499998
21
-23.962389
31
0
12
50.500002
22
-24.883956
32
0
13
50.500002
23
-24.883956
33
0
39
0
210
0
220
0
230
1
0
SOLID
5
1A8
100
AcDbEntity
8
2
62
256
6
ByLayer
370
18
48
1
60
0
100
AcDbTrace
10
65
20
-24.423172
30
0
11
61.500002
21
-24.883956
31
0
12
61.499998
22
-23.962389
32
0
13
61.499998
23
-23.962389
33
0
39
0
210
0
220
0
230
1
0
ENDBLK
5
1AA
100
AcDbEntity
8
0
100
AcDbBlockEnd
0
BLOCK
5
1AF
100
AcDbEntity
8
0
100
AcDbBlockBegin
2
*D7
70
1
10
0
20
0
30
0
3
*D7
0
LINE
5
1B1
100
AcDbEntity
8
0
62
256
6
ByLayer
370
-2
48
1
60
0
100
AcDbLine
10
0
20
1.5875
30
0
11
0
21
49.25
31
0
39
0
210
0
220
0
230
1
0
LINE
5
1B2
100
AcDbEntity
8
0
62
256
6
ByLayer
370
-2
48
1
60
0
100
AcDbLine
10
65
20
34.5875
30
0
11
65
21
49.25
31
0
39
0
210
0
220
0
230
1
0
LINE
5
1B3
100
AcDbEntity
8
0
62
256
6
ByLayer
370
-2
48
1
60
0
100
AcDbLine
10
3.5
20
47.25
30
0
11
61.5
21
47.25
31
0
39
0
210
0
220
0
230
1
0
SOLID
5
1B4
100
AcDbEntity
8
0
62
256
6
ByLayer
370
-1
48
1
60
0
100
AcDbTrace
10
3.5
20
47.833333
30
0
11
3.5
21
46.666667
31
0
12
0
22
47.25
32
0
13
0
23
47.25
33
0
39
0
210
0
220
0
230
1
0
SOLID
5
1B5
100
AcDbEntity
8
0
62
256
6
ByLayer
370
-1
48
1
60
0
100
AcDbTrace
10
61.5
20
46.666667
30
0
11
61.5
21
47.833333
31
0
12
65
22
47.25
32
0
13
65
23
47.25
33
0
39
0
210
0
220
0
230
1
0
MTEXT
5
1B6
100
AcDbEntity
8
0
62
256
6
ByLayer
370
18
48
1
60
0
100
AcDbMText
10
32.5
20
54.25
30
0
210
0
220
0
230
1
1
\A1;65
40
3.5
41
0
44
1
50
0
71
5
72
5
7
iso_b_vert
0
POINT
5
1B7
100
AcDbEntity
8
Defpoints
62
0
6
ByLayer
370
-1
48
1
60
0
100
AcDbPoint
10
0
20
0
30
0
39
0
210
0
220
0
230
1
50
360
0
POINT
5
1B8
100
AcDbEntity
8
Defpoints
62
0
6
ByLayer
370
-1
48
1
60
0
100
AcDbPoint
10
65
20
33
30
0
39
0
210
0
220
0
230
1
50
360
0
POINT
5
1B9
100
AcDbEntity
8
Defpoints
62
0
6
ByLayer
370
-1
48
1
60
0
100
AcDbPoint
10
65
20
47.25
30
0
39
0
210
0
220
0
230
1
50
360
0
ENDBLK
5
1B0
100
AcDbEntity
8
0
100
AcDbBlockEnd
0
BLOCK
5
1C1
100
AcDbEntity
8
0
100
AcDbBlockBegin
2
_U3
70
0
10
0
20
0
30
0
3
_U3
0
MTEXT
5
1BB
100
AcDbEntity
8
2
62
256
6
ByLayer
370
18
48
1
60
0
100
AcDbMText
10
30.595034
20
48.282634
30
0
210
0
220
0
230
1
1
\W0.6740;65
40
3.5
41
0
44
1.084337
50
0
71
7
72
5
7
iso_b_vert
0
LINE
5
1BC
100
AcDbEntity
8
2
62
256
6
ByLayer
370
13
48
1
60
0
100
AcDbLine
10
0
20
1.5875
30
0
11
0
21
49.25
31
0
39
0
210
0
220
0
230
1
0
LINE
5
1BD
100
AcDbEntity
8
2
62
256
6
ByLayer
370
13
48
1
60
0
100
AcDbLine
10
65
20
34.5875
30
0
11
65
21
49.25
31
0
39
0
210
0
220
0
230
1
0
LINE
5
1BE
100
AcDbEntity
8
2
62
256
6
ByLayer
370
13
48
1
60
0
100
AcDbLine
10
0
20
47.25
30
0
11
65
21
47.25
31
0
39
0
210
0
220
0
230
1
0
SOLID
5
1BF
100
AcDbEntity
8
2
62
256
6
ByLayer
370
18
48
1
60
0
100
AcDbTrace
10
0
20
47.25
30
0
11
3.499998
21
47.710784
31
0
12
3.500002
22
46.789216
32
0
13
3.500002
23
46.789216
33
0
39
0
210
0
220
0
230
1
0
SOLID
5
1C0
100
AcDbEntity
8
2
62
256
6
ByLayer
370
18
48
1
60
0
100
AcDbTrace
10
65
20
47.25
30
0
11
61.500002
21
46.789216
31
0
12
61.499998
22
47.710784
32
0
13
61.499998
23
47.710784
33
0
39
0
210
0
220
0
230
1
0
ENDBLK
5
1C2
100
AcDbEntity
8
0
100
AcDbBlockEnd
0
ENDSEC
0
SECTION
2
ENTITIES
0
ARC
5
F4
100
AcDbEntity
8
1
62
256
6
ByLayer
370
18
48
1
60
0
100
AcDbCircle
39
0
10
20.279208
20
26.2
30
0
40
1.2
210
0
220
0
230
1
100
AcDbArc
50
270
51
299.263638
0
ARC
5
F5
100
AcDbEntity
8
1
62
256
6
ByLayer
370
18
48
1
60
0
100
AcDbCircle
39
0
10
47
20
25.726828
30
0
40
1.6
210
0
220
0
230
1
100
AcDbArc
50
175.76876
51
180
0
ARC
5
F6
100
AcDbEntity
8
SK1
62
256
6
ByLayer
370
18
48
1
60
0
100
AcDbCircle
39
0
10
-0.6
20
18.75
30
0
40
0.999999999999998
210
0
220
0
230
1
100
AcDbArc
50
293.578178
51
306.869898
0
ARC
5
F7
100
AcDbEntity
8
SK1
62
256
6
ByLayer
370
18
48
1
60
0
100
AcDbCircle
39
0
10
-0.6
20
-18.75
30
0
40
0.999999999999998
210
0
220
0
230
1
100
AcDbArc
50
53.130102
51
66.421822
0
ARC
5
FB
100
AcDbEntity
8
1
62
256
6
ByLayer
370
18
48
1
60
0
100
AcDbCircle
39
0
10
26.4
20
26.15
30
0
40
1
210
0
220
0
230
1
100
AcDbArc
50
270
51
0
0
CIRCLE
5
F8
100
AcDbEntity
8
1
62
256
6
ByLayer
370
18
48
1
60
0
100
AcDbCircle
10
38.65
20
19.095642
30
0
40
2.55
39
0
210
0
220
0
230
1
0
CIRCLE
5
F9
100
AcDbEntity
8
1
62
256
6
ByLayer
370
18
48
1
60
0
100
AcDbCircle
10
38.65
20
19.095642
30
0
40
3.3
39
0
210
0
220
0
230
1
0
CIRCLE
5
FA
100
AcDbEntity
8
1
62
256
6
ByLayer
370
18
48
1
60
0
100
AcDbCircle
10
38.65
20
19.095642
30
0
40
5.75
39
0
210
0
220
0
230
1
0
ELLIPSE
5
FC
100
AcDbEntity
8
1
62
256
6
ByLayer
370
18
48
1
60
0
100
AcDbEllipse
10
70.192308
20
62.201828
30
0
11
1.807825129829E-15
21
29.524999999979
31
0
210
0
220
0
230
1
40
0.692308
41
2.2402255856856
42
2.83381153313508
0
ELLIPSE
5
FD
100
AcDbEntity
8
1
62
256
6
ByLayer
370
18
48
1
60
0
100
AcDbEllipse
10
501.610399
20
62.432928
30
0
11
1487.21106549128
21
4.19573060680251
31
0
210
0
220
0
230
1
40
0.019808
41
-1.8756217540066
42
-1.87388143395605
0
ELLIPSE
5
FE
100
AcDbEntity
8
1
62
256
6
ByLayer
370
18
48
1
60
0
100
AcDbEllipse
10
56.512711
20
21.538989
30
0
11
0.729851295248127
21
-42.1252449573966
31
0
210
0
220
0
230
1
40
0.015338
41
1.76526035312994
42
1.77858193769735
0
ELLIPSE
5
FF
100
AcDbEntity
8
1
62
256
6
ByLayer
370
18
48
1
60
0
100
AcDbEllipse
10
55.330816
20
30.181641
30
0
11
0.14228103732795
21
-0.990761727525964
31
0
210
0
220
0
230
1
40
0.959731
41
0
42
6.28318530717959
0
ELLIPSE
5
100
100
AcDbEntity
8
1
62
256
6
ByLayer
370
18
48
1
60
0
100
AcDbEllipse
10
57.835757
20
53.001828
30
0
11
1.57208840658184E-15
21
25.6749999977521
31
0
210
0
220
0
230
1
40
0.885147
41
2.9496330880764
42
3.08600701679881
0
ELLIPSE
5
101
100
AcDbEntity
8
1
62
256
6
ByLayer
370
18
48
1
60
0
100
AcDbEllipse
10
-111.203151
20
53.002079
30
0
11
1991.58489344155
21
-3.57426255736156
31
0
210
0
220
0
230
1
40
0.012766
41
-1.49125383054484
42
-1.48646311317595
0
ELLIPSE
5
102
100
AcDbEntity
8
1
62
256
6
ByLayer
370
18
48
1
60
0
100
AcDbEllipse
10
57.835757
20
62.201828
30
0
11
1.80782512994032E-15
21
29.5250000017971
31
0
210
0
220
0
230
1
40
0.885147
41
2.97491685397987
42
3.08588915407586
0
ELLIPSE
5
103
100
AcDbEntity
8
1
62
256
6
ByLayer
370
18
48
1
60
0
100
AcDbEllipse
10
46.158268
20
27.326828
30
0
11
-2.78837474183734
21
3.41466142569184E-16
31
0
210
0
220
0
230
1
40
0.573811
41
0
42
1.29538878037899
0
ELLIPSE
5
104
100
AcDbEntity
8
1
62
256
6
ByLayer
370
18
48
1
60
0
100
AcDbEllipse
10
60.491306
20
53.001828
30
0
11
36.6453631017967
21
4.29284071926742E-14
31
0
210
0
220
0
230
1
40
0.700634
41
-1.94782408204465
42
-1.76275589229646
0
ELLIPSE
5
105
100
AcDbEntity
8
1
62
256
6
ByLayer
370
18
48
1
60
0
100
AcDbEllipse
10
60.491306
20
62.201828
30
0
11
42.1403834664819
21
4.93655782773749E-14
31
0
210
0
220
0
230
1
40
0.700634
41
-1.91617759366287
42
-1.73747212641655
0
ELLIPSE
5
106
100
AcDbEntity
8
1
62
256
6
ByLayer
370
18
48
1
60
0
100
AcDbEllipse
10
-1.056258
20
0
30
0
11
11.7092723497271
21
24.6771864409374
31
0
210
0
220
0
230
1
40
0.341999
41
-1.08183270048927
42
-0.167213071908988
0
ELLIPSE
5
107
100
AcDbEntity
8
1
62
256
6
ByLayer
370
18
48
1
60
0
100
AcDbEllipse
10
21.056258
20
0
30
0
11
11.7092723497264
21
-24.6771864409362
31
0
210
0
220
0
230
1
40
0.341999
41
-2.97437958168081
42
-2.05975995310049
0
ELLIPSE
5
108
100
AcDbEntity
8
1
62
256
6
ByLayer
370
18
48
1
60
0
100
AcDbEllipse
10
21.056258
20
0
30
0
11
11.7092723497275
21
24.6771864409376
31
0
210
0
220
0
230
1
40
0.341999
41
2.05975995310053
42
2.97437958168082
0
ELLIPSE
5
109
100
AcDbEntity
8
1
62
256
6
ByLayer
370
18
48
1
60
0
100
AcDbEllipse
10
-1.056258
20
0
30
0
11
11.7092723497287
21
-24.6771864409394
31
0
210
0
220
0
230
1
40
0.341999
41
0.167213071908973
42
1.08183270048921
0
ELLIPSE
5
10A
100
AcDbEntity
8
1
62
256
6
ByLayer
370
18
48
1
60
0
100
AcDbEllipse
10
24.065566
20
-17.504358
30
0
11
2.44921270125273E-16
21
3.99999998956069
31
0
210
0
220
0
230
1
40
1
41
1.489174462293
42
1.56206968051271
0
ELLIPSE
5
10B
100
AcDbEntity
8
1
62
256
6
ByLayer
370
18
48
1
60
0
100
AcDbEllipse
10
20.218172
20
0
30
0
11
1.53075794227796E-15
21
24.9999999999998
31
0
210
0
220
0
230
1
40
0.008727
41
0.692466789186232
42
2.35619449019235
0
ELLIPSE
5
10C
100
AcDbEntity
8
1
62
256
6
ByLayer
370
18
48
1
60
0
100
AcDbEllipse
10
64.6
20
32.617107
30
0
11
-0.4
21
4.89842541528951E-17
31
0
210
0
220
0
230
1
40
0.999391
41
3.14159265358979
42
-1.51262452735383
0
ELLIPSE
5
10D
100
AcDbEntity
8
1
62
256
6
ByLayer
370
18
48
1
60
0
100
AcDbEllipse
10
64.6
20
27.386548
30
0
11
0.4
21
0
31
0
210
0
220
0
230
1
40
0.999391
41
-1.62896812623596
42
0
0
ELLIPSE
5
10E
100
AcDbEntity
8
1
62
256
6
ByLayer
370
18
48
1
60
0
100
AcDbEllipse
10
58.044631
20
32.311264
30
0
11
0.43314675426861
21
0.00368616318064601
31
0
210
0
220
0
230
1
40
0.230712
41
3.13962925436683
42
-2.96900347686045
0
ELLIPSE
5
10F
100
AcDbEntity
8
1
62
256
6
ByLayer
370
18
48
1
60
0
100
AcDbEllipse
10
59.336487
20
30.631253
30
0
11
0.433146752442001
21
0.0036861631220451
31
0
210
0
220
0
230
1
40
0.230712
41
-2.96902312758357
42
-2.47947258159034
0
ELLIPSE
5
110
100
AcDbEntity
8
1
62
256
6
ByLayer
370
18
48
1
60
0
100
AcDbEllipse
10
59.336487
20
29.297469
30
0
11
0.433146752621868
21
0.00368616312710368
31
0
210
0
220
0
230
1
40
0.230712
41
2.47554578332135
42
2.96509632920381
0
ELLIPSE
5
111
100
AcDbEntity
8
1
62
256
6
ByLayer
370
18
48
1
60
0
100
AcDbEllipse
10
58.044631
20
27.59664
30
0
11
0.433146754288283
21
0.00368616310607412
31
0
210
0
220
0
230
1
40
0.230712
41
2.96507667845743
42
3.13962925440552
0
POINT
5
70
100
AcDbEntity
8
80
62
256
6
ByLayer
370
18
48
1
60
0
100
AcDbPoint
10
0
20
0
30
0
39
0
210
0
220
0
230
1
50
360
0
POINT
5
72
100
AcDbEntity
8
81
62
256
6
ByLayer
370
18
48
1
60
0
100
AcDbPoint
10
65
20
33
30
0
39
0
210
0
220
0
230
1
50
360
0
POINT
5
74
100
AcDbEntity
8
1
62
256
6
ByLayer
370
18
48
1
60
1
100
AcDbPoint
10
65
20
33
30
0
39
0
210
0
220
0
230
1
50
360
0
POINT
5
76
100
AcDbEntity
8
1
62
256
6
ByLayer
370
18
48
1
60
1
100
AcDbPoint
10
0
20
0
30
0
39
0
210
0
220
0
230
1
50
360
0
POINT
5
77
100
AcDbEntity
8
1
62
256
6
ByLayer
370
18
48
1
60
1
100
AcDbPoint
10
65
20
27
30
0
39
0
210
0
220
0
230
1
50
360
0
POINT
5
78
100
AcDbEntity
8
1
62
256
6
ByLayer
370
18
48
1
60
1
100
AcDbPoint
10
65
20
33
30
0
39
0
210
0
220
0
230
1
50
360
0
POINT
5
79
100
AcDbEntity
8
1
62
256
6
ByLayer
370
18
48
1
60
1
100
AcDbPoint
10
47
20
27.326828
30
0
39
0
210
0
220
0
230
1
50
360
0
POINT
5
7A
100
AcDbEntity
8
1
62
256
6
ByLayer
370
18
48
1
60
1
100
AcDbPoint
10
65
20
27
30
0
39
0
210
0
220
0
230
1
50
360
0
POINT
5
7B
100
AcDbEntity
8
1
62
256
6
ByLayer
370
18
48
1
60
1
100
AcDbPoint
10
0
20
0
30
0
39
0
210
0
220
0
230
1
50
360
0
POINT
5
7C
100
AcDbEntity
8
1
62
256
6
ByLayer
370
18
48
1
60
1
100
AcDbPoint
10
65
20
33
30
0
39
0
210
0
220
0
230
1
50
360
0
SPLINE
5
112
100
AcDbEntity
8
SK1
62
256
6
ByLayer
370
18
48
1
60
0
100
AcDbSpline
70
4
71
3
72
11
73
7
40
0
40
0
40
0
40
0
40
0.242589954178652
40
0.502544718947562
40
0.761087572808605
40
1
40
1
40
1
40
1
41
1
10
-0.199999999999989
20
17.5545583467653
30
0
41
1
10
-0.20095788927037
20
17.528914023106
30
0
41
1
10
-0.2112483152263
20
17.4799022728817
30
0
41
1
10
-0.255179720944199
20
17.413949611085
30
0
41
1
10
-0.321113897423828
20
17.3707504109673
30
0
41
1
10
-0.369683795840189
20
17.3607068368228
30
0
41
1
10
-0.394913799811292
20
17.359780267379
30
0
0
SPLINE
5
113
100
AcDbEntity
8
SK1
62
256
6
ByLayer
370
18
48
1
60
0
100
AcDbSpline
70
4
71
3
72
11
73
7
40
0
40
0
40
0
40
0
40
0.238912427113125
40
0.497455280942488
40
0.757410045745046
40
1
40
1
40
1
40
1
41
1
10
-0.394913799811292
20
-17.3597801301672
30
0
41
1
10
-0.369683795838398
20
-17.3607066995757
30
0
41
1
10
-0.321113897416467
20
-17.3707502735068
30
0
41
1
10
-0.255179720936411
20
-17.4139494728385
30
0
41
1
10
-0.211248315224623
20
-17.4799021334557
30
0
41
1
10
-0.20095788926875
20
-17.5289138828002
30
0
41
1
10
-0.199999999999989
20
-17.5545582060013
30
0
0
SPLINE
5
114
100
AcDbEntity
8
SK1
62
256
6
ByLayer
370
18
48
1
60
0
100
AcDbSpline
70
4
71
2
72
6
73
3
40
0
40
0
40
0
40
1
40
1
40
1
41
1
10
-28.5
20
16.8588088260863
30
0
41
1
10
-29.2499999297871
20
16.4259984461422
30
0
41
1
10
-30
20
15.9931873508859
30
0
0
SPLINE
5
115
100
AcDbEntity
8
SK1
62
256
6
ByLayer
370
18
48
1
60
0
100
AcDbSpline
70
4
71
2
72
6
73
3
40
0
40
0
40
0
40
1
40
1
40
1
41
1
10
-30
20
-15.9931874249212
30
0
41
1
10
-29.2499999297894
20
-16.425998517687
30
0
41
1
10
-28.5
20
-16.8588088951667
30
0
0
SPLINE
5
116
100
AcDbEntity
8
SK1
62
256
6
ByLayer
370
18
48
1
60
0
100
AcDbSpline
70
4
71
2
72
6
73
3
40
0
40
0
40
0
40
1
40
1
40
1
41
1
10
-0.394913799811292
20
17.3602209523781
30
0
41
1
10
-1.19497688886898
20
17.3401342706943
30
0
41
1
10
-1.99503997793928
20
17.3200475850767
30
0
0
SPLINE
5
117
100
AcDbEntity
8
SK1
62
256
6
ByLayer
370
18
48
1
60
0
100
AcDbSpline
70
4
71
2
72
6
73
3
40
0
40
0
40
0
40
1
40
1
40
1
41
1
10
-1.99503997793928
20
-17.3200478774323
30
0
41
1
10
-1.19497688886898
20
-17.340134563042
30
0
41
1
10
-0.394913799811292
20
-17.3602212447177
30
0
0
SPLINE
5
118
100
AcDbEntity
8
SK1
62
256
6
ByLayer
370
18
48
1
60
0
100
AcDbSpline
70
4
71
3
72
13
73
9
40
0
40
0
40
0
40
0
40
0.239505987673083
40
0.368426538155688
40
0.500072261058321
40
0.631705987654816
40
0.760593443052916
40
1
40
1
40
1
40
1
41
1
10
-1.99503997793928
20
17.3252686883828
30
0
41
1
10
-2.02110925982341
20
17.3248665791032
30
0
41
1
10
-2.05883863809936
20
17.3310361992814
30
0
41
1
10
-2.10627567686484
20
17.3540696096461
30
0
41
1
10
-2.13886243911925
20
17.3792256041407
30
0
41
1
10
-2.16563490776916
20
17.4104933211739
30
0
41
1
10
-2.19103207710596
20
17.4566915621889
30
0
41
1
10
-2.19909121921685
20
17.4940488942773
30
0
41
1
10
-2.2
20
17.5200961072231
30
0
0
SPLINE
5
119
100
AcDbEntity
8
SK1
62
256
6
ByLayer
370
18
48
1
60
0
100
AcDbSpline
70
4
71
3
72
13
73
9
40
0
40
0
40
0
40
0
40
0.239406556342956
40
0.368294011542631
40
0.499927738071791
40
0.631573461053609
40
0.76049401174041
40
1
40
1
40
1
40
1
41
1
10
-2.2
20
-17.5200962264206
30
0
41
1
10
-2.19909121920765
20
-17.4940490135991
30
0
41
1
10
-2.19103207709688
20
-17.4566916816953
30
0
41
1
10
-2.16563490775661
20
-17.4104934409328
30
0
41
1
10
-2.13886243910255
20
-17.379225724067
30
0
41
1
10
-2.106275676847
20
-17.3540697297104
30
0
41
1
10
-2.05883863807624
20
-17.3310363194718
30
0
41
1
10
-2.0211092598112
20
-17.3248666993254
30
0
41
1
10
-1.99503997793928
20
-17.3252688086104
30
0
0
SPLINE
5
11A
100
AcDbEntity
8
SK1
62
256
6
ByLayer
370
18
48
1
60
0
100
AcDbSpline
70
4
71
2
72
6
73
3
40
0
40
0
40
0
40
1
40
1
40
1
41
1
10
-2.2
20
17.5148287077807
30
0
41
1
10
-15.3499999982432
20
17.1846805562453
30
0
41
1
10
-28.5
20
16.8545313165689
30
0
0
SPLINE
5
11B
100
AcDbEntity
8
SK1
62
256
6
ByLayer
370
18
48
1
60
0
100
AcDbSpline
70
4
71
2
72
6
73
3
40
0
40
0
40
0
40
1
40
1
40
1
41
1
10
-28.5
20
-16.8545316091351
30
0
41
1
10
-15.3499999982428
20
-17.1846808487114
30
0
41
1
10
-2.2
20
-17.5148290000611
30
0
0
SPLINE
5
11C
100
AcDbEntity
8
1
62
256
6
ByLayer
370
18
48
1
60
0
100
AcDbSpline
70
4
71
3
72
8
73
4
40
0
40
0
40
0
40
0
40
1
40
1
40
1
40
1
41
1
10
23.2
20
32.1907287038423
30
0
41
1
10
22.6650738268379
20
30.177403285964
30
0
41
1
10
22.1308894020779
20
28.1638631767989
30
0
41
1
10
21.5981177849011
20
26.15
30
0
0
SPLINE
5
11D
100
AcDbEntity
8
1
62
256
6
ByLayer
370
18
48
1
60
0
100
AcDbSpline
70
4
71
3
72
15
73
11
40
0
40
0
40
0
40
0
40
0.25
40
0.5
40
0.5
40
0.625
40
0.625
40
0.750000000000001
40
0.750000000000001
40
1
40
1
40
1
40
1
41
1
10
21.5981177849011
20
26.15
30
0
41
1
10
21.5845200305157
20
26.0986008339012
30
0
41
1
10
21.5573551022576
20
25.9971785995842
30
0
41
1
10
21.5302432391873
20
25.8983908883205
30
0
41
1
10
21.5099315259891
20
25.8253132667307
30
0
41
1
10
21.5031422324074
20
25.8010445015524
30
0
41
1
10
21.4897491620649
20
25.7534850879363
30
0
41
1
10
21.4831316109383
20
25.7301437861638
30
0
41
1
10
21.4635153746523
20
25.6614226335237
30
0
41
1
10
21.4507514759965
20
25.6173375513779
30
0
41
1
10
21.4383186059721
20
25.5750416973527
30
0
0
SPLINE
5
11E
100
AcDbEntity
8
1
62
256
6
ByLayer
370
18
48
1
60
0
100
AcDbSpline
70
4
71
3
72
37
73
33
40
0
40
0
40
0
40
0
40
0.0312499999999961
40
0.0312499999999961
40
0.0624999999999922
40
0.124999999999985
40
0.124999999999985
40
0.24999999999997
40
0.24999999999997
40
0.28124999999997
40
0.28124999999997
40
0.31249999999997
40
0.31249999999997
40
0.37499999999997
40
0.37499999999997
40
0.49999999999997
40
0.49999999999997
40
0.531249999999969
40
0.531249999999969
40
0.562499999999969
40
0.624999999999972
40
0.687499999999975
40
0.687499999999975
40
0.718749999999979
40
0.718749999999979
40
0.749999999999983
40
0.749999999999983
40
0.874999999999991
40
0.874999999999991
40
0.937499999999995
40
0.937499999999995
40
1
40
1
40
1
40
1
41
1
10
25.6984868062153
20
25.15
30
0
41
1
10
25.7166468716129
20
25.15
30
0
41
1
10
25.7348278624924
20
25.1503026441722
30
0
41
1
10
25.7710200736996
20
25.1515199119083
30
0
41
1
10
25.8251478383335
20
25.1542640472837
30
0
41
1
10
25.8787883680967
20
25.1597947877475
30
0
41
1
10
25.9853953408964
20
25.1747115212766
30
0
41
1
10
26.05557332095
20
25.189765193595
30
0
41
1
10
26.142031458404
20
25.2158133132914
30
0
41
1
10
26.1592594397488
20
25.2213869437602
30
0
41
1
10
26.1935824309087
20
25.2332946985862
30
0
41
1
10
26.21071363883
20
25.2396444161246
30
0
41
1
10
26.2614428272271
20
25.2597045787672
30
0
41
1
10
26.2944809288918
20
25.2744529596624
30
0
41
1
10
26.3911903548481
20
25.3229299210571
30
0
41
1
10
26.4524823007789
20
25.3608454472228
30
0
41
1
10
26.5246085743136
20
25.4161384603592
30
0
41
1
10
26.538849498618
20
25.4276328771289
30
0
41
1
10
26.566585671494
20
25.4512217709577
30
0
41
1
10
26.6070982913311
20
25.4875149305458
30
0
41
1
10
26.6691795395501
20
25.552537278287
30
0
41
1
10
26.7129298297723
20
25.6094847263934
30
0
41
1
10
26.7434106235182
20
25.6541388372107
30
0
41
1
10
26.7531814453772
20
25.6693481189725
30
0
41
1
10
26.7719141602584
20
25.7004408782497
30
0
41
1
10
26.7809032250098
20
25.7163769656631
30
0
41
1
10
26.8233963470065
20
25.7971818684974
30
0
41
1
10
26.8492094126672
20
25.864454657233
30
0
41
1
10
26.8755873026105
20
25.9693294913391
30
0
41
1
10
26.8823058864933
20
26.0049542040871
30
0
41
1
10
26.8913457640989
20
26.0776165715645
30
0
41
1
10
26.8935668832217
20
26.1138773293824
30
0
41
1
10
26.8935668832217
20
26.15
30
0
0
SPLINE
5
11F
100
AcDbEntity
8
1
62
256
6
ByLayer
370
18
48
1
60
0
100
AcDbSpline
70
4
71
3
72
34
73
30
40
0
40
0
40
0
40
0
40
0.125
40
0.125
40
0.250000000000001
40
0.250000000000001
40
0.375000000000001
40
0.375000000000001
40
0.437500000000001
40
0.437500000000001
40
0.453125000000001
40
0.453125000000001
40
0.468750000000001
40
0.468750000000001
40
0.500000000000001
40
0.500000000000001
40
0.625000000000001
40
0.625000000000001
40
0.750000000000001
40
0.750000000000001
40
0.812500000000001
40
0.875000000000001
40
0.875000000000001
40
0.906250000000001
40
0.906250000000001
40
0.921875000000001
40
0.921875000000001
40
0.937500000000001
40
1
40
1
40
1
40
1
41
1
10
27.795287516519
20
43.8804275189427
30
0
41
1
10
27.5504270268614
20
43.1515292739755
30
0
41
1
10
27.3096473075637
20
42.4549309460721
30
0
41
1
10
26.8369939269916
20
41.1243514302519
30
0
41
1
10
26.6051149474936
20
40.4903738876489
30
0
41
1
10
26.1517876862238
20
39.284735225166
30
0
41
1
10
25.9303299261199
20
38.7130697028682
30
0
41
1
10
25.6078615680178
20
37.9033350248738
30
0
41
1
10
25.5020005452236
20
37.6413975251844
30
0
41
1
10
25.3719851399482
20
37.3241615162177
30
0
41
1
10
25.3460978312554
20
37.2612239238832
30
0
41
1
10
25.2945625904995
20
37.1363747164106
30
0
41
1
10
25.2689449731318
20
37.0745367238925
30
0
41
1
10
25.1926515392043
20
36.8910206492269
30
0
41
1
10
25.1424926586751
20
36.7712375533621
30
0
41
1
10
24.8953199048372
20
36.1850159447268
30
0
41
1
10
24.7091228404847
20
35.7565661514175
30
0
41
1
10
24.3632546758705
20
34.9793954990753
30
0
41
1
10
24.2035829322389
20
34.630672907311
30
0
41
1
10
23.9874870371488
20
34.1681675164317
30
0
41
1
10
23.8512465897163
20
33.8800611959344
30
0
41
1
10
23.7320594388582
20
33.6331487897591
30
0
41
1
10
23.6496473212653
20
33.4638206149797
30
0
41
1
10
23.6233402298581
20
33.4100220173127
30
0
41
1
10
23.5857029195838
20
33.3333551535096
30
0
41
1
10
23.573461104179
20
33.3084716386865
30
0
41
1
10
23.549674081926
20
33.2602130648921
30
0
41
1
10
23.4918956235583
20
33.1432329417495
30
0
41
1
10
23.4426155602912
20
33.044470972996
30
0
41
1
10
23.4087552566584
20
32.9769345738421
30
0
0
SPLINE
5
120
100
AcDbEntity
8
1
62
256
6
ByLayer
370
18
48
1
60
0
100
AcDbSpline
70
4
71
3
72
8
73
4
40
0
40
0
40
0
40
0
40
1
40
1
40
1
40
1
41
1
10
23.4087552566584
20
32.9769345738421
30
0
41
1
10
23.339229435984
20
32.7149251563585
30
0
41
1
10
23.2696454243772
20
32.4528562836325
30
0
41
1
10
23.2
20
32.1907287038423
30
0
0
SPLINE
5
121
100
AcDbEntity
8
1
62
256
6
ByLayer
370
18
48
1
60
0
100
AcDbSpline
70
4
71
3
72
30
73
26
40
0
40
0
40
0
40
0
40
0.125000000000009
40
0.250000000000018
40
0.250000000000018
40
0.281250000000019
40
0.281250000000019
40
0.31250000000002
40
0.37500000000002
40
0.37500000000002
40
0.50000000000002
40
0.50000000000002
40
0.562500000000019
40
0.562500000000019
40
0.593750000000019
40
0.593750000000019
40
0.625000000000019
40
0.625000000000019
40
0.750000000000012
40
0.750000000000012
40
0.875000000000006
40
0.875000000000006
40
0.937500000000003
40
0.937500000000003
40
1
40
1
40
1
40
1
41
1
10
23.4087552566584
20
32.9769345738421
30
0
41
1
10
23.5885355542417
20
32.9756491212822
30
0
41
1
10
23.9441455508699
20
32.9697867797241
30
0
41
1
10
24.2920334817976
20
32.9577694451313
30
0
41
1
10
24.5069877105833
20
32.948471356569
30
0
41
1
10
24.5498878498548
20
32.9465208003117
30
0
41
1
10
24.6352925286109
20
32.9424514528096
30
0
41
1
10
24.7623141076608
20
32.9361189718592
30
0
41
1
10
24.8861337402114
20
32.929141359727
30
0
41
1
10
25.1295953725357
20
32.9144292401379
30
0
41
1
10
25.2863496494044
20
32.9036120165656
30
0
41
1
10
25.5132010328051
20
32.8862733739693
30
0
41
1
10
25.5874339630191
20
32.8803082751766
30
0
41
1
10
25.6966745020985
20
32.8711330414094
30
0
41
1
10
25.7327362626648
20
32.8680367109823
30
0
41
1
10
25.8041473767057
20
32.8617768734073
30
0
41
1
10
25.8395097460601
20
32.8586119144146
30
0
41
1
10
26.0132686260965
20
32.8427574182774
30
0
41
1
10
26.1435768879857
20
32.8298912002298
30
0
41
1
10
26.3873837906675
20
32.8044199050693
30
0
41
1
10
26.5008812587901
20
32.7918130771674
30
0
41
1
10
26.6583183844426
20
32.7735577695693
30
0
41
1
10
26.7086854722674
20
32.7675783355104
30
0
41
1
10
26.8048972481854
20
32.7559329480062
30
0
41
1
10
26.8504897008327
20
32.7502978462039
30
0
41
1
10
26.8935668832217
20
32.744885243562
30
0
0
SPLINE
5
122
100
AcDbEntity
8
1
62
256
6
ByLayer
370
18
48
1
60
0
100
AcDbSpline
70
4
71
3
72
33
73
29
40
0
40
0
40
0
40
0
40
0.124999999999984
40
0.124999999999984
40
0.187499999999979
40
0.187499999999979
40
0.249999999999974
40
0.31249999999997
40
0.31249999999997
40
0.343749999999969
40
0.343749999999969
40
0.374999999999968
40
0.374999999999968
40
0.499999999999956
40
0.499999999999956
40
0.562499999999954
40
0.562499999999954
40
0.593749999999955
40
0.593749999999955
40
0.624999999999957
40
0.624999999999957
40
0.749999999999963
40
0.749999999999963
40
0.81249999999997
40
0.81249999999997
40
0.874999999999978
40
0.874999999999978
40
1
40
1
40
1
40
1
41
1
10
27.2793648984702
20
26.15
30
0
41
1
10
27.2793648984702
20
26.0832443206102
30
0
41
1
10
27.2725521363895
20
26.0171014793863
30
0
41
1
10
27.2520589225316
20
25.9188114157819
30
0
41
1
10
27.2434410153431
20
25.8860561542408
30
0
41
1
10
27.2230838595617
20
25.822255435287
30
0
41
1
10
27.1995792992072
20
25.759883714225
30
0
41
1
10
27.1699348839129
20
25.7002996359849
30
0
41
1
10
27.145387868138
20
25.6566620550862
30
0
41
1
10
27.1368192075823
20
25.6422915943132
30
0
41
1
10
27.1188986620477
20
25.6139062756216
30
0
41
1
10
27.1095201599144
20
25.5998559011808
30
0
41
1
10
27.061116717457
20
25.5311832008786
30
0
41
1
10
27.0174441191799
20
25.4809283792606
30
0
41
1
10
26.9448305430945
20
25.4122683008918
30
0
41
1
10
26.9194330677675
20
25.3905103281784
30
0
41
1
10
26.8795095621403
20
25.3596022780687
30
0
41
1
10
26.8659334234069
20
25.349619348987
30
0
41
1
10
26.8384547427218
20
25.3304289201637
30
0
41
1
10
26.8245228466501
20
25.3211984177274
30
0
41
1
10
26.7539197954091
20
25.27683308478
30
0
41
1
10
26.6944431525739
20
25.2470120143587
30
0
41
1
10
26.6007892711745
20
25.2106879811654
30
0
41
1
10
26.5687060793496
20
25.1999701931858
30
0
41
1
10
26.5042891595964
20
25.1817653714511
30
0
41
1
10
26.4718276816379
20
25.1742169369051
30
0
41
1
10
26.37370710971
20
25.1560928164737
30
0
41
1
10
26.3073055799086
20
25.15
30
0
41
1
10
26.2399371662701
20
25.15
30
0
0
SPLINE
5
123
100
AcDbEntity
8
1
62
256
6
ByLayer
370
18
48
1
60
0
100
AcDbSpline
70
4
71
3
72
10
73
6
40
0
40
0
40
0
40
0
40
0.487137893337535
40
0.487137893337535
40
1
40
1
40
1
40
1
41
1
10
45.4000137130124
20
25.7864273048292
30
0
41
1
10
45.4001850386264
20
25.8017328990619
30
0
41
1
10
45.4019275381173
20
25.8170385567817
30
0
41
1
10
45.4047633660917
20
25.8484580857068
30
0
41
1
10
45.405812237142
20
25.8645719192264
30
0
41
1
10
45.4057307824421
20
25.8806861843456
30
0
0
SPLINE
5
124
100
AcDbEntity
8
1
62
256
6
ByLayer
370
18
48
1
60
0
100
AcDbSpline
70
4
71
3
72
12
73
8
40
0
40
0
40
0
40
0
40
0.500000000000002
40
0.500000000000002
40
0.750000000000001
40
0.750000000000001
40
1
40
1
40
1
40
1
41
1
10
56.785665173321
20
29.4564384041466
30
0
41
1
10
56.7509859572758
20
29.1079413972105
30
0
41
1
10
56.7161862218111
20
28.7594718687619
30
0
41
1
10
56.6634020569227
20
28.2369008564459
30
0
41
1
10
56.6457085125124
20
28.0627335447594
30
0
41
1
10
56.6098979313885
20
27.7144988051675
30
0
41
1
10
56.5918051614769
20
27.5404255575013
30
0
41
1
10
56.5731607309757
20
27.3664821398148
30
0
0
SPLINE
5
125
100
AcDbEntity
8
1
62
256
6
ByLayer
370
18
48
1
60
0
100
AcDbSpline
70
4
71
3
72
8
73
4
40
0
40
0
40
0
40
0
40
1
40
1
40
1
40
1
41
1
10
56.9417305933328
20
29.5467239773917
30
0
41
1
10
56.8897578606779
20
29.5164356170612
30
0
41
1
10
56.8377538074513
20
29.4862705433887
30
0
41
1
10
56.7856651733233
20
29.4564384041461
30
0
0
SPLINE
5
126
100
AcDbEntity
8
1
62
256
6
ByLayer
370
18
48
1
60
0
100
AcDbSpline
70
4
71
3
72
18
73
14
40
0
40
0
40
0
40
0
40
0.250000000000044
40
0.250000000000044
40
0.500000000000087
40
0.500000000000087
40
0.625000000000065
40
0.625000000000065
40
0.750000000000044
40
0.750000000000044
40
0.875000000000022
40
0.875000000000022
40
1
40
1
40
1
40
1
41
1
10
57.0056084741248
20
29.6902838957999
30
0
41
1
10
57.0059225386053
20
29.6748489755738
30
0
41
1
10
57.0046507362934
20
29.6596241940852
30
0
41
1
10
56.998924863986
20
29.6298539769394
30
0
41
1
10
56.9946133643527
20
29.6160036409715
30
0
41
1
10
56.9860032871493
20
29.5967588531311
30
0
41
1
10
56.982813386585
20
29.590711216007
30
0
41
1
10
56.9759088882314
20
29.5794910789739
30
0
41
1
10
56.9721811542745
20
29.574289172742
30
0
41
1
10
56.9641675956297
20
29.5647122356779
30
0
41
1
10
56.9598919302174
20
29.5603640724603
30
0
41
1
10
56.9510658802377
20
29.5527752386397
30
0
41
1
10
56.946483033355
20
29.5494935761502
30
0
41
1
10
56.9417305933328
20
29.5467239773917
30
0
0
SPLINE
5
127
100
AcDbEntity
8
1
62
256
6
ByLayer
370
18
48
1
60
0
100
AcDbSpline
70
4
71
3
72
20
73
16
40
0
40
0
40
0
40
0
40
0.125000000000008
40
0.125000000000008
40
0.250000000000016
40
0.250000000000016
40
0.375000000000024
40
0.375000000000024
40
0.500000000000032
40
0.500000000000032
40
0.750000000000003
40
0.750000000000003
40
0.875000000000002
40
0.875000000000002
40
1
40
1
40
1
40
1
41
1
10
56.9244125281242
20
30.3783933172321
30
0
41
1
10
56.9292767294434
20
30.3760138965484
30
0
41
1
10
56.9339983519622
20
30.3731111880554
30
0
41
1
10
56.9431539177121
20
30.3662499404402
30
0
41
1
10
56.9476234343752
20
30.3622498433807
30
0
41
1
10
56.9560290762965
20
30.3533635280215
30
0
41
1
10
56.9599737212601
20
30.348484795734
30
0
41
1
10
56.9673509517121
20
30.3378634239498
30
0
41
1
10
56.970795944569
20
30.3320966733332
30
0
41
1
10
56.980236241887
20
30.3135764139952
30
0
41
1
10
56.9851380597049
20
30.3000926278011
30
0
41
1
10
56.9903753192888
20
30.2781387387471
30
0
41
1
10
56.9917336658156
20
30.2706235431335
30
0
41
1
10
56.9936419839545
20
30.2555040950754
30
0
41
1
10
56.9942031164764
20
30.2478545567469
30
0
41
1
10
56.9943622839539
20
30.2401131614966
30
0
0
SPLINE
5
128
100
AcDbEntity
8
1
62
256
6
ByLayer
370
18
48
1
60
0
100
AcDbSpline
70
4
71
3
72
8
73
4
40
0
40
0
40
0
40
0
40
1
40
1
40
1
40
1
41
1
10
56.763489039527
20
30.456173056484
30
0
41
1
10
56.817212215959
20
30.4306324605852
30
0
41
1
10
56.8708316212017
20
30.4046034820297
30
0
41
1
10
56.9244125281242
20
30.3783933172321
30
0
0
SPLINE
5
129
100
AcDbEntity
8
1
62
256
6
ByLayer
370
18
48
1
60
0
100
AcDbSpline
70
4
71
3
72
16
73
12
40
0
40
0
40
0
40
0
40
0.125000000000007
40
0.125000000000007
40
0.250000000000014
40
0.250000000000014
40
0.500000000000017
40
0.500000000000017
40
0.750000000000009
40
0.750000000000009
40
1
40
1
40
1
40
1
41
1
10
56.5080247538354
20
32.0541239337604
30
0
41
1
10
56.520561308186
20
31.9882731634093
30
0
41
1
10
56.5325523079099
20
31.9222066078196
30
0
41
1
10
56.5558746686621
20
31.789812587308
30
0
41
1
10
56.5671999175205
20
31.723482704817
30
0
41
1
10
56.600502802338
20
31.5242269178452
30
0
41
1
10
56.6218239809333
20
31.3910380978773
30
0
41
1
10
56.6635369909698
20
31.1243632656459
30
0
41
1
10
56.6839144514316
20
30.9908595709325
30
0
41
1
10
56.724092016018
20
30.7236517784307
30
0
41
1
10
56.7438871429149
20
30.5899459530235
30
0
41
1
10
56.763489039527
20
30.456173056484
30
0
0
SPLINE
5
12A
100
AcDbEntity
8
1
62
256
6
ByLayer
370
18
48
1
60
0
100
AcDbSpline
70
4
71
3
72
12
73
8
40
0
40
0
40
0
40
0
40
0.578285662534257
40
0.578285662534257
40
0.867428493801385
40
0.867428493801385
40
1
40
1
40
1
40
1
41
1
10
24.0655657881742
20
-13.5043582417366
30
0
41
1
10
23.9378797315672
20
-13.5043582417366
30
0
41
1
10
23.8115755332726
20
-13.5104560827273
30
0
41
1
10
23.6240816543289
20
-13.528300755244
30
0
41
1
10
23.5619125424552
20
-13.5357016053226
30
0
41
1
10
23.4717200021473
20
-13.5485817714939
30
0
41
1
10
23.4433663471385
20
-13.5529441484836
30
0
41
1
10
23.4153076364096
20
-13.5575666430627
30
0
0
SPLINE
5
12B
100
AcDbEntity
8
1
62
256
6
ByLayer
370
18
48
1
60
0
100
AcDbSpline
70
4
71
3
72
8
73
4
40
0
40
0
40
0
40
0
40
1
40
1
40
1
40
1
41
1
10
56.5731607309752
20
27.366482139817
30
0
41
1
10
56.5521904187725
20
27.3662261199133
30
0
41
1
10
56.5308476335935
20
27.3661043219115
30
0
41
1
10
56.5091184099204
20
27.366119869065
30
0
0
SPLINE
5
12C
100
AcDbEntity
8
1
62
256
6
ByLayer
370
18
48
1
60
0
100
AcDbSpline
70
4
71
3
72
9
73
5
40
0
40
0
40
0
40
0
40
0.5
40
1
40
1
40
1
40
1
41
1
10
27.2793648984701
20
32.6938873953422
30
0
41
1
10
27.3195654801978
20
32.6883067324797
30
0
41
1
10
27.3796646926672
20
32.6798011824548
30
0
41
1
10
27.4
20
32.6768515720758
30
0
41
1
10
27.4
20
32.6768278106353
30
0
0
SPLINE
5
12D
100
AcDbEntity
8
1
62
256
6
ByLayer
370
18
48
1
60
0
100
AcDbSpline
70
4
71
3
72
37
73
33
40
0
40
0
40
0
40
0
40
0.125000000000011
40
0.125000000000011
40
0.187500000000016
40
0.187500000000016
40
0.218750000000019
40
0.218750000000019
40
0.250000000000021
40
0.250000000000021
40
0.375000000000032
40
0.375000000000032
40
0.406250000000033
40
0.406250000000033
40
0.437500000000035
40
0.437500000000035
40
0.500000000000034
40
0.500000000000034
40
0.625000000000027
40
0.625000000000027
40
0.656250000000026
40
0.656250000000026
40
0.687500000000024
40
0.687500000000024
40
0.75000000000002
40
0.812500000000016
40
0.812500000000016
40
0.843750000000013
40
0.843750000000013
40
0.87500000000001
40
0.87500000000001
40
1
40
1
40
1
40
1
41
1
10
45.4
20
25.7854111915066
30
0
41
1
10
45.4
20
25.8901825874939
30
0
41
1
10
45.4103346474004
20
25.9932129907516
30
0
41
1
10
45.4407141457529
20
26.1452523014438
30
0
41
1
10
45.4533385832535
20
26.1955112646731
30
0
41
1
10
45.4761083084981
20
26.2702539840277
30
0
41
1
10
45.4843544496447
20
26.2951049767416
30
0
41
1
10
45.5020826949568
20
26.3443854921945
30
0
41
1
10
45.5115240729945
20
26.3687093337366
30
0
41
1
10
45.5615593343132
20
26.4887782009399
30
0
41
1
10
45.6105580144137
20
26.5799162297244
30
0
41
1
10
45.6829279130619
20
26.687742611282
30
0
41
1
10
45.6979629636078
20
26.7090003428004
30
0
41
1
10
45.7291733277555
20
26.7508907831926
30
0
41
1
10
45.7453915749086
20
26.7715746651506
30
0
41
1
10
45.7954722971231
20
26.8322779239095
30
0
41
1
10
45.8306115316372
20
26.8708000986185
30
0
41
1
10
45.9411234407244
20
26.9807066797942
30
0
41
1
10
46.0215420689487
20
27.0464847538219
30
0
41
1
10
46.1307029123637
20
27.1191105435096
30
0
41
1
10
46.1530354134678
20
27.1331886392213
30
0
41
1
10
46.1982108751385
20
27.1601297255539
30
0
41
1
10
46.2210496350317
20
27.1729958496965
30
0
41
1
10
46.2903051276353
20
27.2098143709885
30
0
41
1
10
46.3846135171366
20
27.2541678944489
30
0
41
1
10
46.4827981572811
20
27.2891883165973
30
0
41
1
10
46.5579101701135
20
27.3119057124303
30
0
41
1
10
46.5831935319268
20
27.3188858092007
30
0
41
1
10
46.6342611351088
20
27.3316400023908
30
0
41
1
10
46.6600997990212
20
27.3374230730656
30
0
41
1
10
46.7894954106043
20
27.3630500810567
30
0
41
1
10
46.8941661854092
20
27.3732986444255
30
0
41
1
10
46.9999999999998
20
27.3732164043985
30
0
0
SPLINE
5
12E
100
AcDbEntity
8
1
62
256
6
ByLayer
370
18
48
1
60
0
100
AcDbSpline
70
4
71
3
72
46
73
42
40
0
40
0
40
0
40
0
40
0.0312500000000018
40
0.0312500000000018
40
0.0625000000000037
40
0.0625000000000037
40
0.125000000000012
40
0.125000000000012
40
0.156250000000016
40
0.156250000000016
40
0.187500000000021
40
0.187500000000021
40
0.250000000000032
40
0.312500000000043
40
0.312500000000043
40
0.343750000000047
40
0.343750000000047
40
0.375000000000051
40
0.375000000000051
40
0.437500000000053
40
0.437500000000053
40
0.468750000000053
40
0.468750000000053
40
0.500000000000053
40
0.500000000000053
40
0.562500000000055
40
0.562500000000055
40
0.625000000000056
40
0.625000000000056
40
0.656250000000054
40
0.656250000000054
40
0.687500000000052
40
0.687500000000052
40
0.750000000000046
40
0.750000000000046
40
0.875000000000029
40
0.875000000000029
40
0.90625000000002
40
0.90625000000002
40
0.937500000000011
40
1
40
1
40
1
40
1
41
1
10
45.4
20
27.8596917995801
30
0
41
1
10
45.4
20
27.8881984048056
30
0
41
1
10
45.4006482620217
20
27.91663474375
30
0
41
1
10
45.4032612441957
20
27.9731832851285
30
0
41
1
10
45.4052258874833
20
28.00132445234
30
0
41
1
10
45.4131405617321
20
28.0853392823858
30
0
41
1
10
45.4211040834279
20
28.1408057405965
30
0
41
1
10
45.4373817482628
20
28.2231292549707
30
0
41
1
10
45.4435313963442
20
28.2504240545914
30
0
41
1
10
45.4573526249015
20
28.3047058610542
30
0
41
1
10
45.4650552402653
20
28.3317756829779
30
0
41
1
10
45.490177277423
20
28.4112901380491
30
0
41
1
10
45.5291583886879
20
28.51344671723
30
0
41
1
10
45.5791133436119
20
28.6078752880631
30
0
41
1
10
45.620836366565
20
28.6756989845635
30
0
41
1
10
45.6354555891373
20
28.697807070302
30
0
41
1
10
45.6661565475325
20
28.7409882079594
30
0
41
1
10
45.6820421349645
20
28.7617856069317
30
0
41
1
10
45.7312439790424
20
28.8218875899891
30
0
41
1
10
45.7661010462516
20
28.858908291273
30
0
41
1
10
45.8213180832286
20
28.9100941908526
30
0
41
1
10
45.840213462328
20
28.926430294201
30
0
41
1
10
45.8789706278269
20
28.957670033427
30
0
41
1
10
45.8988767954881
20
28.9726042061424
30
0
41
1
10
45.9597356248575
20
29.0150626642342
30
0
41
1
10
46.0014138802218
20
29.0399867269188
30
0
41
1
10
46.0867630641646
20
29.0837406485577
30
0
41
1
10
46.1304349764801
20
29.1025674989442
30
0
41
1
10
46.1973362376712
20
29.1265463537154
30
0
41
1
10
46.2199159009456
20
29.133840497729
30
0
41
1
10
46.2653123932524
20
29.1469779422895
30
0
41
1
10
46.2880530265003
20
29.1528029861515
30
0
41
1
10
46.3563941149173
20
29.1681869613281
30
0
41
1
10
46.402113379748
20
29.175661385968
30
0
41
1
10
46.5396998269785
20
29.1905639794893
30
0
41
1
10
46.6319920963297
20
29.1905340294281
30
0
41
1
10
46.7479854796189
20
29.1794775609756
30
0
41
1
10
46.7711823757424
20
29.1767115471167
30
0
41
1
10
46.8173544771317
20
29.1701369340846
30
0
41
1
10
46.8863774723188
20
29.158700771947
30
0
41
1
10
46.9547221978461
20
29.1427239775791
30
0
41
1
10
47.0000000000001
20
29.1301625363399
30
0
0
SPLINE
5
12F
100
AcDbEntity
8
1
62
256
6
ByLayer
370
18
48
1
60
0
100
AcDbSpline
70
4
71
3
72
10
73
6
40
0
40
0
40
0
40
0
40
0.5
40
0.5
40
1
40
1
40
1
40
1
41
1
10
21.4383186059721
20
25.15
30
0
41
1
10
21.5063183054324
20
25.15
30
0
41
1
10
21.5910997445424
20
25.15
30
0
41
1
10
21.7907791582374
20
25.15
30
0
41
1
10
21.9056581049493
20
25.15
30
0
41
1
10
22.0336019269129
20
25.15
30
0
0
SPLINE
5
130
100
AcDbEntity
8
1
62
256
6
ByLayer
370
18
48
1
60
0
100
AcDbSpline
70
4
71
3
72
32
73
28
40
0
40
0
40
0
40
0
40
0.0237284652058721
40
0.0355926978088084
40
0.0415248141102765
40
0.0415248141102765
40
0.0444908722610105
40
0.0444908722610105
40
0.0474569304117446
40
0.0949138608234889
40
0.189827721646978
40
0.189827721646978
40
0.379655443293956
40
0.379655443293956
40
0.474569304117445
40
0.474569304117445
40
0.569483164940934
40
0.569483164940934
40
0.664397025764423
40
0.664397025764423
40
0.759310886587912
40
0.759310886587912
40
0.854224747411401
40
0.854224747411401
40
0.949138608234889
40
0.949138608234889
40
1
40
1
40
1
40
1
41
1
10
21.4383186059721
20
25.15
30
0
41
1
10
21.4351842543878
20
25.15
30
0
41
1
10
21.4302516720071
20
25.15
30
0
41
1
10
21.4241145368199
20
25.15
30
0
41
1
10
21.4214046572051
20
25.15
30
0
41
1
10
21.4200366262598
20
25.15
30
0
41
1
10
21.4195880955077
20
25.15
30
0
41
1
10
21.4186780556334
20
25.15
30
0
41
1
10
21.4109069627966
20
25.15
30
0
41
1
10
21.3867699316942
20
25.15
30
0
41
1
10
21.3588711371113
20
25.15
30
0
41
1
10
21.2987802812049
20
25.15
30
0
41
1
10
21.2529612520721
20
25.15
30
0
41
1
10
21.1811676967884
20
25.15
30
0
41
1
10
21.15673039877
20
25.15
30
0
41
1
10
21.1079328244778
20
25.15
30
0
41
1
10
21.0835703385809
20
25.15
30
0
41
1
10
21.0362282487431
20
25.15
30
0
41
1
10
21.0132471309798
20
25.15
30
0
41
1
10
20.9702586678519
20
25.15
30
0
41
1
10
20.9502547722194
20
25.15
30
0
41
1
10
20.9150861445062
20
25.15
30
0
41
1
10
20.8999353541895
20
25.15
30
0
41
1
10
20.8763724209665
20
25.15
30
0
41
1
10
20.8679838220301
20
25.15
30
0
41
1
10
20.8613135894076
20
25.15
30
0
41
1
10
20.8601523741127
20
25.15
30
0
41
1
10
20.8601658374326
20
25.15
30
0
0
SPLINE
5
131
100
AcDbEntity
8
1
62
256
6
ByLayer
370
18
48
1
60
0
100
AcDbSpline
70
4
71
3
72
26
73
22
40
0
40
0
40
0
40
0
40
0.125000000000002
40
0.125000000000002
40
0.250000000000004
40
0.250000000000004
40
0.312500000000004
40
0.312500000000004
40
0.375000000000005
40
0.375000000000005
40
0.500000000000003
40
0.500000000000003
40
0.625
40
0.625
40
0.687499999999999
40
0.687499999999999
40
0.749999999999998
40
0.749999999999998
40
0.874999999999999
40
0.874999999999999
40
1
40
1
40
1
40
1
41
1
10
21.1295453851925
20
25.15
30
0
41
1
10
21.1348645905574
20
25.15
30
0
41
1
10
21.1426920775952
20
25.1526606020495
30
0
41
1
10
21.1620743861773
20
25.1627271916051
30
0
41
1
10
21.1736288056367
20
25.1701368338864
30
0
41
1
10
21.1929251702172
20
25.1846730644385
30
0
41
1
10
21.1996862197474
20
25.1900914158629
30
0
41
1
10
21.2137441154154
20
25.2020805078289
30
0
41
1
10
21.221004813602
20
25.2086222070029
30
0
41
1
10
21.2431563267311
20
25.2297297641711
30
0
41
1
10
21.2584668609502
20
25.2458169809094
30
0
41
1
10
21.2893494980641
20
25.2820151802159
30
0
41
1
10
21.3049257498736
20
25.3021262381479
30
0
41
1
10
21.3279743277307
20
25.3355086406327
30
0
41
1
10
21.335580113006
20
25.3471417297753
30
0
41
1
10
21.3504425064151
20
25.371249088535
30
0
41
1
10
21.3577171125888
20
25.3837489081565
30
0
41
1
10
21.3789658763067
20
25.4226093094441
30
0
41
1
10
21.3923665165571
20
25.4503241083748
30
0
41
1
10
21.4170728836006
20
25.5096409157456
30
0
41
1
10
21.4283825758984
20
25.5412399382442
30
0
41
1
10
21.4383186059721
20
25.5750416973527
30
0
0
SPLINE
5
132
100
AcDbEntity
8
1
62
256
6
ByLayer
370
18
48
1
60
0
100
AcDbSpline
70
4
71
3
72
61
73
57
40
0
40
0
40
0
40
0
40
0.0312499999999997
40
0.0312499999999997
40
0.0468749999999995
40
0.0468749999999995
40
0.0624999999999994
40
0.0624999999999994
40
0.125
40
0.125
40
0.187500000000001
40
0.187500000000001
40
0.218750000000002
40
0.218750000000002
40
0.250000000000002
40
0.250000000000002
40
0.312500000000003
40
0.312500000000003
40
0.375000000000003
40
0.375000000000003
40
0.437500000000003
40
0.437500000000003
40
0.453125000000003
40
0.453125000000003
40
0.468750000000004
40
0.500000000000003
40
0.500000000000003
40
0.562500000000003
40
0.562500000000003
40
0.625000000000002
40
0.625000000000002
40
0.687500000000001
40
0.687500000000001
40
0.75
40
0.75
40
0.8125
40
0.8125
40
0.843749999999999
40
0.843749999999999
40
0.874999999999999
40
0.874999999999999
40
0.906249999999998
40
0.906249999999998
40
0.921874999999998
40
0.921874999999998
40
0.937499999999998
40
0.937499999999998
40
0.953124999999998
40
0.953124999999998
40
0.968749999999998
40
0.968749999999998
40
0.976562499999999
40
0.976562499999999
40
0.984374999999999
40
0.984374999999999
40
1
40
1
40
1
40
1
41
1
10
23.4
20
-13.560119128598
30
0
41
1
10
23.3320788222272
20
-13.571580404378
30
0
41
1
10
23.264623261679
20
-13.5847662801083
30
0
41
1
10
23.1641309231435
20
-13.607103733341
30
0
41
1
10
23.1307487032913
20
-13.6149762102835
30
0
41
1
10
23.0642141778065
20
-13.6315723554277
30
0
41
1
10
23.0310075633707
20
-13.6403112860769
30
0
41
1
10
22.8662128357038
20
-13.6859467877131
30
0
41
1
10
22.7392428399741
20
-13.7283578184372
30
0
41
1
10
22.493966305876
20
-13.8236807460954
30
0
41
1
10
22.375665040303
20
-13.8765990880605
30
0
41
1
10
22.2042163353347
20
-13.9632456385992
30
0
41
1
10
22.1480236948635
20
-13.9933687622245
30
0
41
1
10
22.0377811631057
20
-14.0558651912581
30
0
41
1
10
21.9841116275526
20
-14.0880188983403
30
0
41
1
10
21.8271563208979
20
-14.1870058659961
30
0
41
1
10
21.7279097643298
20
-14.2563562529528
30
0
41
1
10
21.5390135144862
20
-14.4010235492998
30
0
41
1
10
21.4493690068654
20
-14.4763437791568
30
0
41
1
10
21.2789006570094
20
-14.6324504035786
30
0
41
1
10
21.198079673985
20
-14.7132387163328
30
0
41
1
10
21.1022529246802
20
-14.8174309214857
30
0
41
1
10
21.0833660182003
20
-14.8384114925173
30
0
41
1
10
21.0462540512438
20
-14.8805167501562
30
0
41
1
10
20.9915256250055
20
-14.9439488008098
30
0
41
1
10
20.939535296141
20
-15.0081775457207
30
0
41
1
10
20.8390241277643
20
-15.1376373602693
30
0
41
1
10
20.7766344625613
20
-15.2252785791273
30
0
41
1
10
20.6603591143969
20
-15.4029680157244
30
0
41
1
10
20.6064757773653
20
-15.4930176312045
30
0
41
1
10
20.5067236407383
20
-15.6753045727352
30
0
41
1
10
20.4608561886313
20
-15.7675439802567
30
0
41
1
10
20.3768273495974
20
-15.9539828653576
30
0
41
1
10
20.338666641333
20
-16.0481872822125
30
0
41
1
10
20.269894425965
20
-16.2382263275221
30
0
41
1
10
20.2394667606028
20
-16.3335749673736
30
0
41
1
10
20.1996041590859
20
-16.4763589744704
30
0
41
1
10
20.1872775282517
20
-16.5239200466922
30
0
41
1
10
20.1645243225615
20
-16.6187768705884
30
0
41
1
10
20.1540962796806
20
-16.6660845136464
30
0
41
1
10
20.1351358101892
20
-16.7600352290344
30
0
41
1
10
20.1266149490037
20
-16.8066332864412
30
0
41
1
10
20.1152689767668
20
-16.8753164637508
30
0
41
1
10
20.1117263582742
20
-16.8980041753412
30
0
41
1
10
20.1051226595784
20
-16.9427518703126
30
0
41
1
10
20.1020614562012
20
-16.9648153585937
30
0
41
1
10
20.096428182812
20
-17.0079513702912
30
0
41
1
10
20.0938579001009
20
-17.0290194596609
30
0
41
1
10
20.0892464129445
20
-17.0692780972786
30
0
41
1
10
20.087201559237
20
-17.0885081053277
30
0
41
1
10
20.0845583183602
20
-17.1149255212385
30
0
41
1
10
20.0837481663846
20
-17.1233198967942
30
0
41
1
10
20.0822812790856
20
-17.13897308445
30
0
41
1
10
20.0816291374781
20
-17.1461834205879
30
0
41
1
10
20.0799510737651
20
-17.1651870381494
30
0
41
1
10
20.0791919028646
20
-17.174452749482
30
0
41
1
10
20.0788826499502
20
-17.1782331807544
30
0
0
SPLINE
5
133
100
AcDbEntity
8
1
62
256
6
ByLayer
370
18
48
1
60
0
100
AcDbSpline
70
4
71
3
72
10
73
6
40
0
40
0
40
0
40
0
40
0.5
40
0.5
40
1
40
1
40
1
40
1
41
1
10
22.0336019269129
20
25.15
30
0
41
1
10
21.9306170913699
20
24.6898114530623
30
0
41
1
10
21.8293308564099
20
24.2300613510825
30
0
41
1
10
21.6307003739152
20
23.3114085062077
30
0
41
1
10
21.5333549591117
20
22.8525055451955
30
0
41
1
10
21.4383186059721
20
22.3940162596008
30
0
0
SPLINE
5
134
100
AcDbEntity
8
1
62
256
6
ByLayer
370
18
48
1
60
0
100
AcDbSpline
70
4
71
3
72
30
73
26
40
0
40
0
40
0
40
0
40
0.125000000000003
40
0.125000000000003
40
0.250000000000006
40
0.250000000000006
40
0.375000000000008
40
0.375000000000008
40
0.500000000000011
40
0.500000000000011
40
0.562500000000012
40
0.562500000000012
40
0.625000000000013
40
0.625000000000013
40
0.750000000000014
40
0.750000000000014
40
0.812500000000012
40
0.812500000000012
40
0.875000000000011
40
0.875000000000011
40
0.906250000000008
40
0.906250000000008
40
0.937500000000006
40
0.937500000000006
40
1
40
1
40
1
40
1
41
1
10
20.2792076144253
20
20.1884424221862
30
0
41
1
10
20.3127988538199
20
20.2629914878228
30
0
41
1
10
20.3504205109583
20
20.3368824978923
30
0
41
1
10
20.4329685929929
20
20.4852723787467
30
0
41
1
10
20.4778968316945
20
20.5597728021816
30
0
41
1
10
20.573913718225
20
20.7115880291003
30
0
41
1
10
20.6250048594271
20
20.7889022351626
30
0
41
1
10
20.7317504502826
20
20.9488095278627
30
0
41
1
10
20.7874097720542
20
21.0313978546148
30
0
41
1
10
20.8727068519852
20
21.1613345356024
30
0
41
1
10
20.9014358259126
20
21.2056587330222
30
0
41
1
10
20.9591479818136
20
21.2967314010574
30
0
41
1
10
20.9881491498711
20
21.3435082832154
30
0
41
1
10
21.0748277592731
20
21.4879739477421
30
0
41
1
10
21.1312662433203
20
21.5882277997908
30
0
41
1
10
21.2108971245592
20
21.7463258984969
30
0
41
1
10
21.2365979249405
20
21.8003145584118
30
0
41
1
10
21.2857075680956
20
21.9112531022756
30
0
41
1
10
21.3091189508956
20
21.9682005407558
30
0
41
1
10
21.341964215412
20
22.0562152931973
30
0
41
1
10
21.3525234724148
20
22.0859701440408
30
0
41
1
10
21.3726189267935
20
22.1459382356798
30
0
41
1
10
21.3821760919799
20
22.1762059397928
30
0
41
1
10
21.409224095302
20
22.2679163991147
30
0
41
1
10
21.4251031238965
20
22.3302600575212
30
0
41
1
10
21.4383186059721
20
22.3940162596008
30
0
0
SPLINE
5
135
100
AcDbEntity
8
1
62
256
6
ByLayer
370
18
48
1
60
0
100
AcDbSpline
70
4
71
3
72
26
73
22
40
0
40
0
40
0
40
0
40
0.0624999999999989
40
0.0624999999999989
40
0.0937499999999976
40
0.0937499999999976
40
0.124999999999996
40
0.124999999999996
40
0.249999999999996
40
0.249999999999996
40
0.374999999999997
40
0.374999999999997
40
0.437499999999998
40
0.437499999999998
40
0.499999999999999
40
0.499999999999999
40
0.625000000000001
40
0.625000000000001
40
0.75
40
0.75
40
1
40
1
40
1
40
1
41
1
10
11.4613248654052
20
23.8391299750502
30
0
41
1
10
11.4772013120199
20
23.8391299750502
30
0
41
1
10
11.4927843117432
20
23.8386381480423
30
0
41
1
10
11.5157579869923
20
23.8372273769848
30
0
41
1
10
11.5233488813096
20
23.8366445991221
30
0
41
1
10
11.5384012334117
20
23.8352611656444
30
0
41
1
10
11.5458956692735
20
23.8344558067494
30
0
41
1
10
11.582404000511
20
23.8299833264009
30
0
41
1
10
11.6089650834003
20
23.8249896713849
30
0
41
1
10
11.6582924559948
20
23.813005969379
30
0
41
1
10
11.6801688454703
20
23.8062336877525
30
0
41
1
10
11.7102266942346
20
23.7952700628808
30
0
41
1
10
11.719773612984
20
23.7914778883489
30
0
41
1
10
11.7380555263963
20
23.7836514357395
30
0
41
1
10
11.7468017366172
20
23.7796095569562
30
0
41
1
10
11.7716769242357
20
23.7673085978343
30
0
41
1
10
11.7865761040498
20
23.7588292909636
30
0
41
1
10
11.8138519277098
20
23.7414211400326
30
0
41
1
10
11.8262196262291
20
23.7324910902464
30
0
41
1
10
11.8602443227467
20
23.7051129235882
30
0
41
1
10
11.8788862370737
20
23.686033116806
30
0
41
1
10
11.8943375672975
20
23.6665017920808
30
0
0
SPLINE
5
136
100
AcDbEntity
8
1
62
256
6
ByLayer
370
18
48
1
60
0
100
AcDbSpline
70
4
71
3
72
30
73
26
40
0
40
0
40
0
40
0
40
0.250000000000004
40
0.250000000000004
40
0.375000000000002
40
0.375000000000002
40
0.437500000000002
40
0.437500000000002
40
0.500000000000001
40
0.500000000000001
40
0.624999999999997
40
0.624999999999997
40
0.687499999999993
40
0.687499999999993
40
0.74999999999999
40
0.74999999999999
40
0.812499999999987
40
0.812499999999987
40
0.843749999999989
40
0.843749999999989
40
0.874999999999991
40
0.874999999999991
40
0.937499999999995
40
0.937499999999995
40
1
40
1
40
1
40
1
41
1
10
11.8943375672973
20
8.05584836782793
30
0
41
1
10
11.8788923030149
20
7.9984916943493
30
0
41
1
10
11.8604037172645
20
7.94218253951274
30
0
41
1
10
11.8264575712212
20
7.85991012495438
30
0
41
1
10
11.8140962699691
20
7.83285506058513
30
0
41
1
10
11.7935837333005
20
7.79297622996174
30
0
41
1
10
11.7864159259844
20
7.77980127287401
30
0
41
1
10
11.7713191828915
20
7.75372482186648
30
0
41
1
10
11.763382436815
20
7.74081492713998
30
0
41
1
10
11.7384769785308
20
7.70292805784948
30
0
41
1
10
11.7203772593316
20
7.67866353751202
30
0
41
1
10
11.6901125047557
20
7.64434849039861
30
0
41
1
10
11.6794995583258
20
7.63327217102551
30
0
41
1
10
11.6573691354905
20
7.6123213786517
30
0
41
1
10
11.6458165560481
20
7.60240297286816
30
0
41
1
10
11.6215461384038
20
7.58390025536215
30
0
41
1
10
11.6088302857937
20
7.57531366225038
30
0
41
1
10
11.5886665813883
20
7.56368345606458
30
0
41
1
10
11.5817366894217
20
7.56000567013081
30
0
41
1
10
11.5676991017994
20
7.55323657194805
30
0
41
1
10
11.5605721090663
20
7.55013193108829
30
0
41
1
10
11.53884494046
20
7.54171396614049
30
0
41
1
10
11.5239007732521
20
7.53729092133955
30
0
41
1
10
11.4929356027573
20
7.53123335639168
30
0
41
1
10
11.477175816822
20
7.52966679426498
30
0
41
1
10
11.4613248654053
20
7.52966679426498
30
0
0
SPLINE
5
137
100
AcDbEntity
8
1
62
256
6
ByLayer
370
18
48
1
60
0
100
AcDbSpline
70
4
71
3
72
26
73
22
40
0
40
0
40
0
40
0
40
0.0625000000000004
40
0.0625000000000004
40
0.0937500000000001
40
0.0937500000000001
40
0.125
40
0.125
40
0.250000000000002
40
0.250000000000002
40
0.375000000000004
40
0.375000000000004
40
0.437500000000005
40
0.437500000000005
40
0.500000000000005
40
0.500000000000005
40
0.625000000000005
40
0.625000000000005
40
0.750000000000004
40
0.750000000000004
40
1
40
1
40
1
40
1
41
1
10
8.53867513459488
20
7.52966679426521
30
0
41
1
10
8.52279868798016
20
7.52966679426521
30
0
41
1
10
8.50721568825682
20
7.53122440152964
30
0
41
1
10
8.48424201300779
20
7.53568798536671
30
0
41
1
10
8.47665111869043
20
7.53753139400649
30
0
41
1
10
8.46159876658839
20
7.54190496002269
30
0
41
1
10
8.45410433072652
20
7.54444995843585
30
0
41
1
10
8.41759599948901
20
7.55857361750122
30
0
41
1
10
8.39103491659975
20
7.57431556968126
30
0
41
1
10
8.34170754400523
20
7.61190750686279
30
0
41
1
10
8.31983115452977
20
7.63307325241217
30
0
41
1
10
8.28977330576541
20
7.66715495165658
30
0
41
1
10
8.28022638701603
20
7.67891539799638
30
0
41
1
10
8.26194447360368
20
7.70312184666889
30
0
41
1
10
8.25319826338284
20
7.71559105034081
30
0
41
1
10
8.22832307576431
20
7.75343444963914
30
0
41
1
10
8.21342389595023
20
7.77938351245621
30
0
41
1
10
8.18614807229017
20
7.83234954293016
30
0
41
1
10
8.17378037377094
20
7.85937042586596
30
0
41
1
10
8.13975567725336
20
7.94172327888202
30
0
41
1
10
8.12111376292629
20
7.99846916820718
30
0
41
1
10
8.10566243270253
20
8.05584836782782
30
0
0
SPLINE
5
138
100
AcDbEntity
8
1
62
256
6
ByLayer
370
18
48
1
60
0
100
AcDbSpline
70
4
71
3
72
30
73
26
40
0
40
0
40
0
40
0
40
0.250000000000009
40
0.250000000000009
40
0.375000000000011
40
0.375000000000011
40
0.43750000000001
40
0.43750000000001
40
0.50000000000001
40
0.50000000000001
40
0.625000000000005
40
0.625000000000005
40
0.687500000000004
40
0.687500000000004
40
0.750000000000003
40
0.750000000000003
40
0.812500000000002
40
0.812500000000002
40
0.843750000000004
40
0.843750000000004
40
0.875000000000007
40
0.875000000000007
40
0.937500000000003
40
0.937500000000003
40
1
40
1
40
1
40
1
41
1
10
8.10566243270267
20
23.6665017920808
30
0
41
1
10
8.12110769698509
20
23.6860254491251
30
0
41
1
10
8.13959628273551
20
23.704958919593
30
0
41
1
10
8.1735424287788
20
23.7323123198157
30
0
41
1
10
8.18590373003096
20
23.7412544902041
30
0
41
1
10
8.20641626669956
20
23.7543620682907
30
0
41
1
10
8.21358407401564
20
23.7586801045418
30
0
41
1
10
8.22868081710854
20
23.7672030231185
30
0
41
1
10
8.23661756318495
20
23.7714105724815
30
0
41
1
10
8.2615230214692
20
23.7837256270429
30
0
41
1
10
8.2796227406684
20
23.7915679133937
30
0
41
1
10
8.30988749524428
20
23.8026065911347
30
0
41
1
10
8.3205004416742
20
23.8061604830514
30
0
41
1
10
8.34263086450954
20
23.8128680383081
30
0
41
1
10
8.35418344395194
20
23.816035844018
30
0
41
1
10
8.3784538615962
20
23.8219342456095
30
0
41
1
10
8.39116971420628
20
23.8246655611124
30
0
41
1
10
8.41133341861178
20
23.8283593459882
30
0
41
1
10
8.41826331057831
20
23.8295263669799
30
0
41
1
10
8.43230089820059
20
23.8316728303992
30
0
41
1
10
8.43942789093373
20
23.8326565134122
30
0
41
1
10
8.46115505954
20
23.8353222152631
30
0
41
1
10
8.47609922674792
20
23.8367207404254
30
0
41
1
10
8.50706439724274
20
23.838635326325
30
0
41
1
10
8.52282418317802
20
23.8391299750504
30
0
41
1
10
8.5386751345948
20
23.8391299750504
30
0
0
SPLINE
5
139
100
AcDbEntity
8
1
62
256
6
ByLayer
370
18
48
1
60
0
100
AcDbSpline
70
4
71
3
72
26
73
22
40
0
40
0
40
0
40
0
40
0.0625000000000065
40
0.0625000000000065
40
0.0937500000000059
40
0.0937500000000059
40
0.125000000000005
40
0.125000000000005
40
0.250000000000002
40
0.250000000000002
40
0.374999999999999
40
0.374999999999999
40
0.437499999999999
40
0.437499999999999
40
0.499999999999998
40
0.499999999999998
40
0.624999999999998
40
0.624999999999998
40
0.749999999999997
40
0.749999999999997
40
1
40
1
40
1
40
1
41
1
10
8.53867513459488
20
-23.8391299750502
30
0
41
1
10
8.52279868798016
20
-23.8391299750502
30
0
41
1
10
8.50721568825682
20
-23.8386381480423
30
0
41
1
10
8.48424201300779
20
-23.8372273769848
30
0
41
1
10
8.47665111869043
20
-23.8366445991221
30
0
41
1
10
8.46159876658839
20
-23.8352611656444
30
0
41
1
10
8.45410433072652
20
-23.8344558067494
30
0
41
1
10
8.41759599948898
20
-23.8299833264009
30
0
41
1
10
8.39103491659975
20
-23.8249896713849
30
0
41
1
10
8.34170754400523
20
-23.813005969379
30
0
41
1
10
8.31983115452977
20
-23.8062336877526
30
0
41
1
10
8.28977330576541
20
-23.7952700628808
30
0
41
1
10
8.28022638701603
20
-23.7914778883489
30
0
41
1
10
8.26194447360368
20
-23.7836514357395
30
0
41
1
10
8.25319826338284
20
-23.7796095569563
30
0
41
1
10
8.22832307576431
20
-23.7673085978343
30
0
41
1
10
8.21342389595023
20
-23.7588292909636
30
0
41
1
10
8.18614807229017
20
-23.7414211400326
30
0
41
1
10
8.17378037377094
20
-23.7324910902464
30
0
41
1
10
8.13975567725336
20
-23.7051129235882
30
0
41
1
10
8.12111376292626
20
-23.686033116806
30
0
41
1
10
8.10566243270253
20
-23.6665017920808
30
0
0
SPLINE
5
13A
100
AcDbEntity
8
1
62
256
6
ByLayer
370
18
48
1
60
0
100
AcDbSpline
70
4
71
3
72
30
73
26
40
0
40
0
40
0
40
0
40
0.250000000000018
40
0.250000000000018
40
0.375000000000027
40
0.375000000000027
40
0.437500000000028
40
0.437500000000028
40
0.500000000000029
40
0.500000000000029
40
0.625000000000036
40
0.625000000000036
40
0.687500000000037
40
0.687500000000037
40
0.750000000000037
40
0.750000000000037
40
0.812500000000038
40
0.812500000000038
40
0.843750000000035
40
0.843750000000035
40
0.875000000000032
40
0.875000000000032
40
0.937500000000016
40
0.937500000000016
40
1
40
1
40
1
40
1
41
1
10
8.10566243270267
20
-8.05584836782788
30
0
41
1
10
8.12110769698509
20
-7.99849169434927
30
0
41
1
10
8.13959628273551
20
-7.94218253951266
30
0
41
1
10
8.1735424287788
20
-7.8599101249543
30
0
41
1
10
8.18590373003096
20
-7.83285506058505
30
0
41
1
10
8.20641626669956
20
-7.79297622996165
30
0
41
1
10
8.21358407401564
20
-7.77980127287393
30
0
41
1
10
8.22868081710854
20
-7.7537248218664
30
0
41
1
10
8.23661756318498
20
-7.74081492713989
30
0
41
1
10
8.2615230214692
20
-7.70292805784939
30
0
41
1
10
8.27962274066843
20
-7.67866353751194
30
0
41
1
10
8.30988749524428
20
-7.64434849039853
30
0
41
1
10
8.3205004416742
20
-7.63327217102542
30
0
41
1
10
8.34263086450954
20
-7.61232137865161
30
0
41
1
10
8.35418344395194
20
-7.60240297286808
30
0
41
1
10
8.3784538615962
20
-7.58390025536207
30
0
41
1
10
8.39116971420628
20
-7.5753136622503
30
0
41
1
10
8.41133341861178
20
-7.5636834560645
30
0
41
1
10
8.41826331057831
20
-7.56000567013072
30
0
41
1
10
8.43230089820059
20
-7.55323657194796
30
0
41
1
10
8.43942789093373
20
-7.5501319310882
30
0
41
1
10
8.46115505954
20
-7.54171396614041
30
0
41
1
10
8.47609922674792
20
-7.53729092133943
30
0
41
1
10
8.50706439724274
20
-7.5312333563916
30
0
41
1
10
8.52282418317802
20
-7.5296667942649
30
0
41
1
10
8.5386751345948
20
-7.5296667942649
30
0
0
SPLINE
5
13B
100
AcDbEntity
8
1
62
256
6
ByLayer
370
18
48
1
60
0
100
AcDbSpline
70
4
71
3
72
26
73
22
40
0
40
0
40
0
40
0
40
0.0624999999999973
40
0.0624999999999973
40
0.0937499999999966
40
0.0937499999999966
40
0.124999999999996
40
0.124999999999996
40
0.249999999999989
40
0.249999999999989
40
0.374999999999982
40
0.374999999999982
40
0.43749999999998
40
0.43749999999998
40
0.499999999999979
40
0.499999999999979
40
0.624999999999986
40
0.624999999999986
40
0.749999999999994
40
0.749999999999994
40
1
40
1
40
1
40
1
41
1
10
11.4613248654052
20
-7.52966679426527
30
0
41
1
10
11.4772013120199
20
-7.52966679426527
30
0
41
1
10
11.4927843117432
20
-7.5312244015297
30
0
41
1
10
11.5157579869923
20
-7.53568798536676
30
0
41
1
10
11.5233488813096
20
-7.53753139400655
30
0
41
1
10
11.5384012334116
20
-7.54190496002275
30
0
41
1
10
11.5458956692735
20
-7.54444995843591
30
0
41
1
10
11.582404000511
20
-7.55857361750128
30
0
41
1
10
11.6089650834003
20
-7.57431556968132
30
0
41
1
10
11.6582924559948
20
-7.61190750686282
30
0
41
1
10
11.6801688454702
20
-7.6330732524122
30
0
41
1
10
11.7102266942346
20
-7.66715495165664
30
0
41
1
10
11.719773612984
20
-7.67891539799641
30
0
41
1
10
11.7380555263963
20
-7.70312184666892
30
0
41
1
10
11.7468017366172
20
-7.71559105034083
30
0
41
1
10
11.7716769242357
20
-7.75343444963914
30
0
41
1
10
11.7865761040498
20
-7.77938351245621
30
0
41
1
10
11.8138519277098
20
-7.83234954293013
30
0
41
1
10
11.826219626229
20
-7.85937042586593
30
0
41
1
10
11.8602443227466
20
-7.94172327888199
30
0
41
1
10
11.8788862370737
20
-7.99846916820724
30
0
41
1
10
11.8943375672975
20
-8.05584836782785
30
0
0
SPLINE
5
13C
100
AcDbEntity
8
1
62
256
6
ByLayer
370
18
48
1
60
0
100
AcDbSpline
70
4
71
3
72
30
73
26
40
0
40
0
40
0
40
0
40
0.249999999999997
40
0.249999999999997
40
0.374999999999995
40
0.374999999999995
40
0.437499999999993
40
0.437499999999993
40
0.499999999999992
40
0.499999999999992
40
0.624999999999992
40
0.624999999999992
40
0.687499999999993
40
0.687499999999993
40
0.749999999999994
40
0.749999999999994
40
0.812499999999995
40
0.812499999999995
40
0.843749999999995
40
0.843749999999995
40
0.874999999999995
40
0.874999999999995
40
0.937499999999998
40
0.937499999999998
40
1
40
1
40
1
40
1
41
1
10
11.8943375672973
20
-23.6665017920808
30
0
41
1
10
11.8788923030149
20
-23.6860254491251
30
0
41
1
10
11.8604037172645
20
-23.704958919593
30
0
41
1
10
11.8264575712212
20
-23.7323123198157
30
0
41
1
10
11.814096269969
20
-23.7412544902041
30
0
41
1
10
11.7935837333004
20
-23.7543620682907
30
0
41
1
10
11.7864159259844
20
-23.7586801045418
30
0
41
1
10
11.7713191828915
20
-23.7672030231185
30
0
41
1
10
11.763382436815
20
-23.7714105724815
30
0
41
1
10
11.7384769785308
20
-23.7837256270429
30
0
41
1
10
11.7203772593316
20
-23.7915679133937
30
0
41
1
10
11.6901125047557
20
-23.8026065911346
30
0
41
1
10
11.6794995583258
20
-23.8061604830514
30
0
41
1
10
11.6573691354905
20
-23.812868038308
30
0
41
1
10
11.6458165560481
20
-23.816035844018
30
0
41
1
10
11.6215461384038
20
-23.8219342456095
30
0
41
1
10
11.6088302857937
20
-23.8246655611124
30
0
41
1
10
11.5886665813882
20
-23.8283593459881
30
0
41
1
10
11.5817366894217
20
-23.8295263669799
30
0
41
1
10
11.5676991017994
20
-23.8316728303992
30
0
41
1
10
11.5605721090663
20
-23.8326565134122
30
0
41
1
10
11.53884494046
20
-23.8353222152631
30
0
41
1
10
11.5239007732521
20
-23.8367207404254
30
0
41
1
10
11.4929356027573
20
-23.8386353263249
30
0
41
1
10
11.477175816822
20
-23.8391299750504
30
0
41
1
10
11.4613248654053
20
-23.8391299750504
30
0
0
SPLINE
5
13D
100
AcDbEntity
8
1
62
256
6
ByLayer
370
18
48
1
60
0
100
AcDbSpline
70
4
71
3
72
10
73
6
40
0
40
0
40
0
40
0
40
0.5
40
0.5
40
1
40
1
40
1
40
1
41
1
10
20.2792076144253
20
20.1884424221862
30
0
41
1
10
20.2120987104337
20
20.0395075755232
30
0
41
1
10
20.1631972556668
20
19.8861545090241
30
0
41
1
10
20.0974516419998
20
19.5706397220274
30
0
41
1
10
20.0806358300676
20
19.4084770295202
30
0
41
1
10
20.0788826499502
20
19.2418366754539
30
0
0
SPLINE
5
13E
100
AcDbEntity
8
SK1
62
256
6
ByLayer
370
18
48
1
60
0
100
AcDbSpline
70
4
71
3
72
45
73
41
40
0
40
0
40
0
40
0
40
0.0236943065561043
40
0.0517123102464108
40
0.0797303139367173
40
0.107748317627024
40
0.163784325007637
40
0.21982033238825
40
0.247838336078556
40
0.275856339768863
40
0.303874343459169
40
0.331892347149476
40
0.359910350839783
40
0.387928354530089
40
0.415946358220395
40
0.429955360065549
40
0.443964361910702
40
0.471982365601008
40
0.485991367446162
40
0.492995868368738
40
0.500000369291315
40
0.507004870213892
40
0.514009371136468
40
0.528018372981621
40
0.556036376671928
40
0.570045378517081
40
0.584054380362234
40
0.612072384052541
40
0.640090387742847
40
0.668108391433154
40
0.69612639512346
40
0.724144398813767
40
0.752162402504074
40
0.78018040619438
40
0.836216413574993
40
0.892252420955606
40
0.920270424645913
40
0.948288428336219
40
0.976306432026525
40
1
40
1
40
1
40
1
41
1
10
-30
20
-15.9931892299932
30
0
41
1
10
-30
20
-15.9976541737548
30
0
41
1
10
-30
20
-15.9670776502877
30
0
41
1
10
-30
20
-15.7965331178349
30
0
41
1
10
-30
20
-15.4890632796305
30
0
41
1
10
-30
20
-14.9202435431778
30
0
41
1
10
-30
20
-13.9430327235571
30
0
41
1
10
-30
20
-12.6450678356931
30
0
41
1
10
-30
20
-11.42137036219
30
0
41
1
10
-30
20
-10.4224345134304
30
0
41
1
10
-30
20
-9.34179268341308
30
0
41
1
10
-30
20
-8.18272261240929
30
0
41
1
10
-30
20
-6.94914665451273
30
0
41
1
10
-30
20
-5.64597210397025
30
0
41
1
10
-30
20
-4.51272453462846
30
0
41
1
10
-30
20
-3.56968201835696
30
0
41
1
10
-30
20
-2.61530592334967
30
0
41
1
10
-30
20
-1.67591474804155
30
0
41
1
10
-30
20
-0.833341855678952
30
0
41
1
10
-30
20
-0.354131622770439
30
0
41
1
10
-30
20
4.002277763E-07
30
0
41
1
10
-30
20
0.354131996183753
30
0
41
1
10
-30
20
0.8333415404785
30
0
41
1
10
-30
20
1.675914880346
30
0
41
1
10
-30
20
2.61530613672116
30
0
41
1
10
-30
20
3.56968220154852
30
0
41
1
10
-30
20
4.51272494557483
30
0
41
1
10
-30
20
5.64597176408017
30
0
41
1
10
-30
20
6.94914704263559
30
0
41
1
10
-30
20
8.18272269843541
30
0
41
1
10
-30
20
9.34179238961872
30
0
41
1
10
-30
20
10.4224348167646
30
0
41
1
10
-30
20
11.4213703912989
30
0
41
1
10
-30
20
12.6450674903883
30
0
41
1
10
-30
20
13.9430330734595
30
0
41
1
10
-30
20
14.9202427964398
30
0
41
1
10
-30
20
15.4890634139888
30
0
41
1
10
-30
20
15.7965327535813
30
0
41
1
10
-30
20
15.9670755116619
30
0
41
1
10
-30
20
15.9976531636208
30
0
41
1
10
-30
20
15.9931895364583
30
0
0
SPLINE
5
13F
100
AcDbEntity
8
SK1
62
256
6
ByLayer
370
18
48
1
60
0
100
AcDbSpline
70
4
71
3
72
38
73
34
40
0
40
0
40
0
40
0
40
0.249999999999998
40
0.249999999999998
40
0.375000000000001
40
0.375000000000001
40
0.500000000000003
40
0.500000000000003
40
0.625000000000006
40
0.625000000000006
40
0.687500000000004
40
0.687500000000004
40
0.750000000000002
40
0.750000000000002
40
0.8125
40
0.8125
40
0.843749999999999
40
0.843749999999999
40
0.874999999999998
40
0.874999999999998
40
0.906249999999997
40
0.906249999999997
40
0.921874999999998
40
0.921874999999998
40
0.937499999999998
40
0.937499999999998
40
0.953124999999999
40
0.953124999999999
40
0.968749999999999
40
0.968749999999999
40
0.984375
40
0.984375
40
1
40
1
40
1
40
1
41
1
10
-0.200000000000017
20
-6.07843116862739
30
0
41
1
10
-0.200329859654715
20
-6.01357702681145
30
0
41
1
10
-0.201930655445096
20
-5.94848814748187
30
0
41
1
10
-0.20706282051475
20
-5.85044931358604
30
0
41
1
10
-0.209234214279519
20
-5.81770188154789
30
0
41
1
10
-0.214779228537793
20
-5.7520569459719
30
0
41
1
10
-0.218149341071353
20
-5.71913713924792
30
0
41
1
10
-0.226581907125791
20
-5.65322539656964
30
0
41
1
10
-0.231616433421522
20
-5.620292949023
30
0
41
1
10
-0.241184891539973
20
-5.57099638970087
30
0
41
1
10
-0.244723140953255
20
-5.55455058376108
30
0
41
1
10
-0.252718404682355
20
-5.52188785992811
30
0
41
1
10
-0.257164394743938
20
-5.50568135296518
30
0
41
1
10
-0.267422418729041
20
-5.47365965349914
30
0
41
1
10
-0.273206407019217
20
-5.45783596374676
30
0
41
1
10
-0.283724888362031
20
-5.43464123738514
30
0
41
1
10
-0.287542348293499
20
-5.42700107315446
30
0
41
1
10
-0.296164698039092
20
-5.41201401791534
30
0
41
1
10
-0.301003751719009
20
-5.4046119981478
30
0
41
1
10
-0.312019326339538
20
-5.39094692539047
30
0
41
1
10
-0.31824990755598
20
-5.3846016561252
30
0
41
1
10
-0.328982330604276
20
-5.37709874944116
30
0
41
1
10
-0.332865959292434
20
-5.37490714744831
30
0
41
1
10
-0.340905624745261
20
-5.37162929612282
30
0
41
1
10
-0.345153788553745
20
-5.37051023807425
30
0
41
1
10
-0.353672033871192
20
-5.36955188220813
30
0
41
1
10
-0.357904387099609
20
-5.36969675293608
30
0
41
1
10
-0.366271728735967
20
-5.37110702101791
30
0
41
1
10
-0.370241250613816
20
-5.37233602993433
30
0
41
1
10
-0.377868038063696
20
-5.37555831609177
30
0
41
1
10
-0.381539373885118
20
-5.37756780385982
30
0
41
1
10
-0.388473887026265
20
-5.38206549938215
30
0
41
1
10
-0.39176092894752
20
-5.3845619683195
30
0
41
1
10
-0.394913799811292
20
-5.38724256160015
30
0
0
SPLINE
5
140
100
AcDbEntity
8
SK1
62
256
6
ByLayer
370
18
48
1
60
0
100
AcDbSpline
70
4
71
3
72
38
73
34
40
0
40
0
40
0
40
0
40
0.0156249999999985
40
0.0156249999999985
40
0.031249999999997
40
0.031249999999997
40
0.0468749999999954
40
0.0468749999999954
40
0.0624999999999939
40
0.0624999999999939
40
0.0781249999999924
40
0.0781249999999924
40
0.0937499999999909
40
0.0937499999999909
40
0.124999999999989
40
0.124999999999989
40
0.156249999999988
40
0.156249999999988
40
0.187499999999987
40
0.187499999999987
40
0.249999999999987
40
0.249999999999987
40
0.312499999999986
40
0.312499999999986
40
0.374999999999986
40
0.374999999999986
40
0.499999999999989
40
0.499999999999989
40
0.624999999999992
40
0.624999999999992
40
0.749999999999995
40
0.749999999999995
40
1
40
1
40
1
40
1
41
1
10
-0.394913799809103
20
5.38724490303883
30
0
41
1
10
-0.391781832950699
20
5.38458208568073
30
0
41
1
10
-0.388519962703811
20
5.3821033059937
30
0
41
1
10
-0.381650196472521
20
5.37763658736256
30
0
41
1
10
-0.378006935713103
20
5.375632334519
30
0
41
1
10
-0.370423579197194
20
5.37240298219777
30
0
41
1
10
-0.366503702076471
20
5.37117873901857
30
0
41
1
10
-0.358331183030117
20
5.36974313779842
30
0
41
1
10
-0.354015865513219
20
5.36955368909108
30
0
41
1
10
-0.345568573158801
20
5.37043109064084
30
0
41
1
10
-0.341321667103017
20
5.37150405183556
30
0
41
1
10
-0.333263890221957
20
5.37470929745368
30
0
41
1
10
-0.329419339218276
20
5.37683593115611
30
0
41
1
10
-0.318577749103383
20
5.38430052549947
30
0
41
1
10
-0.312400979321552
20
5.3905410449475
30
0
41
1
10
-0.301354650858144
20
5.40411801099182
30
0
41
1
10
-0.296591327986192
20
5.41134235290909
30
0
41
1
10
-0.287922394076219
20
5.42628126698924
30
0
41
1
10
-0.284017391060843
20
5.43403466061338
30
0
41
1
10
-0.273296210573392
20
5.45757128507671
30
0
41
1
10
-0.267463037667568
20
5.47353830586394
30
0
41
1
10
-0.25714417824588
20
5.50574351678881
30
0
41
1
10
-0.252692130238955
20
5.52198910291142
30
0
41
1
10
-0.244699800125972
20
5.55465646091182
30
0
41
1
10
-0.241167183894703
20
5.57107991706769
30
0
41
1
10
-0.231573562776504
20
5.6205357075076
30
0
41
1
10
-0.226533735280697
20
5.65356559342112
30
0
41
1
10
-0.218124597314073
20
5.71937115218196
30
0
41
1
10
-0.214765406462988
20
5.75220767186599
30
0
41
1
10
-0.209230735864509
20
5.81775962891592
30
0
41
1
10
-0.207061534202325
20
5.85047499196546
30
0
41
1
10
-0.201932717755426
20
5.94845143863401
30
0
41
1
10
-0.200330038101583
20
6.01354333629556
30
0
41
1
10
-0.199999999999989
20
6.0784324458115
30
0
0
SPLINE
5
141
100
AcDbEntity
8
SK1
62
256
6
ByLayer
370
13
48
1
60
0
100
AcDbSpline
70
4
71
3
72
20
73
16
40
0
40
0
40
0
40
0
40
0.0453685402495223
40
0.113618264805388
40
0.181867989361254
40
0.25011771391712
40
0.318367438472986
40
0.386617163028852
40
0.454866887584718
40
0.59136633669645
40
0.727865785808182
40
0.796115510364047
40
0.864365234919913
40
0.932614959475779
40
1
40
1
40
1
40
1
41
1
10
-0.394913799811292
20
-5.38724256160785
30
0
41
1
10
-0.394913799811292
20
-5.7190547501427
30
0
41
1
10
-0.394913799811292
20
-6.5348354946259
30
0
41
1
10
-0.394913799811292
20
-7.7796880789966
30
0
41
1
10
-0.394913799811292
20
-9.09679923539034
30
0
41
1
10
-0.394913799811292
20
-10.3283869583107
30
0
41
1
10
-0.394913799811292
20
-11.4729576347282
30
0
41
1
10
-0.394913799811292
20
-12.5286533763275
30
0
41
1
10
-0.394913799811292
20
-13.8156305223415
30
0
41
1
10
-0.394913799811292
20
-15.1889742433629
30
0
41
1
10
-0.394913799811292
20
-16.224825355641
30
0
41
1
10
-0.394913799811292
20
-16.8259463034278
30
0
41
1
10
-0.394913799811292
20
-17.1536380024563
30
0
41
1
10
-0.394913799811292
20
-17.345659644148
30
0
41
1
10
-0.394913799811292
20
-17.3741382159833
30
0
41
1
10
-0.394913799811292
20
-17.3602188928388
30
0
0
SPLINE
5
142
100
AcDbEntity
8
SK1
62
256
6
ByLayer
370
18
48
1
60
0
100
AcDbSpline
70
4
71
3
72
50
73
46
40
0
40
0
40
0
40
0
40
0.0312500000000015
40
0.0312500000000015
40
0.0468750000000022
40
0.0468750000000022
40
0.0625000000000029
40
0.0625000000000029
40
0.0781250000000036
40
0.0781250000000036
40
0.0937500000000043
40
0.0937500000000043
40
0.109375000000005
40
0.109375000000005
40
0.125000000000006
40
0.125000000000006
40
0.140625000000006
40
0.140625000000006
40
0.156250000000007
40
0.156250000000007
40
0.187500000000007
40
0.187500000000007
40
0.218750000000006
40
0.218750000000006
40
0.250000000000006
40
0.250000000000006
40
0.281250000000005
40
0.281250000000005
40
0.312500000000005
40
0.312500000000005
40
0.375000000000004
40
0.375000000000004
40
0.437500000000003
40
0.437500000000003
40
0.500000000000001
40
0.500000000000001
40
0.625
40
0.625
40
0.6875
40
0.6875
40
0.75
40
0.75
40
0.875
40
0.875
40
1
40
1
40
1
40
1
41
1
10
-0.394913799811292
20
-5.38724256160785
30
0
41
1
10
-0.411056331481689
20
-5.40096705709072
30
0
41
1
10
-0.428167571421085
20
-5.41359596702645
30
0
41
1
10
-0.455974774655147
20
-5.43013648208
30
0
41
1
10
-0.465658214706991
20
-5.43526409556435
30
0
41
1
10
-0.485484698823484
20
-5.44430592701531
30
0
41
1
10
-0.495657428995088
20
-5.44824432393753
30
0
41
1
10
-0.516608715435041
20
-5.45476351226009
30
0
41
1
10
-0.527386860231815
20
-5.45734523281897
30
0
41
1
10
-0.549664818445279
20
-5.46089328829356
30
0
41
1
10
-0.560930035443761
20
-5.46180969649637
30
0
41
1
10
-0.58336584661788
20
-5.4618713105761
30
0
41
1
10
-0.594591467840019
20
-5.46102572365922
30
0
41
1
10
-0.617058166617738
20
-5.45757599588921
30
0
41
1
10
-0.627999143283205
20
-5.45501931647436
30
0
41
1
10
-0.649331735085582
20
-5.44848807488125
30
0
41
1
10
-0.659758151599817
20
-5.44449947952501
30
0
41
1
10
-0.680036525045011
20
-5.43533205618732
30
0
41
1
10
-0.689742098894556
20
-5.43022628481572
30
0
41
1
10
-0.717826906306101
20
-5.41366379171245
30
0
41
1
10
-0.735187935399324
20
-5.40097830060952
30
0
41
1
10
-0.768034946557918
20
-5.3733304614868
30
0
41
1
10
-0.783237057424145
20
-5.35859529837754
30
0
41
1
10
-0.811836627358673
20
-5.32802442998909
30
0
41
1
10
-0.825257514875972
20
-5.31215335693128
30
0
41
1
10
-0.85080730255018
20
-5.27953884086708
30
0
41
1
10
-0.862932209486871
20
-5.26279281423712
30
0
41
1
10
-0.8861698860768
20
-5.22860723544375
30
0
41
1
10
-0.897260448987026
20
-5.21119248410571
30
0
41
1
10
-0.929029640850729
20
-5.15857889561175
30
0
41
1
10
-0.948347177186207
20
-5.12284414993096
30
0
41
1
10
-0.984487535026432
20
-5.05043807526351
30
0
41
1
10
-1.00129416978024
20
-5.013761649543
30
0
41
1
10
-1.03304457478234
20
-4.93966608077309
30
0
41
1
10
-1.04798244371665
20
-4.90224508459647
30
0
41
1
10
-1.09059413059555
20
-4.78904752584498
30
0
41
1
10
-1.11609621830422
20
-4.71234577760799
30
0
41
1
10
-1.15135515985602
20
-4.5958383808707
30
0
41
1
10
-1.16260343866753
20
-4.55673847320071
30
0
41
1
10
-1.18417456263643
20
-4.47826299864514
30
0
41
1
10
-1.19450305218302
20
-4.4388689467043
30
0
41
1
10
-1.22429462395718
20
-4.32024366329264
30
0
41
1
10
-1.24257202444835
20
-4.24057073726357
30
0
41
1
10
-1.27661859809459
20
-4.08013408760161
30
0
41
1
10
-1.29238372607517
20
-3.99936988902869
30
0
41
1
10
-1.30710678118655
20
-3.91808269248796
30
0
0
SPLINE
5
143
100
AcDbEntity
8
SK1
62
256
6
ByLayer
370
18
48
1
60
0
100
AcDbSpline
70
4
71
3
72
38
73
34
40
0
40
0
40
0
40
0
40
0.0624999999999996
40
0.0624999999999996
40
0.124999999999999
40
0.124999999999999
40
0.249999999999999
40
0.249999999999999
40
0.374999999999998
40
0.374999999999998
40
0.390624999999998
40
0.390624999999998
40
0.406249999999998
40
0.406249999999998
40
0.437499999999998
40
0.437499999999998
40
0.499999999999998
40
0.499999999999998
40
0.562499999999998
40
0.562499999999998
40
0.624999999999999
40
0.624999999999999
40
0.749999999999999
40
0.749999999999999
40
0.781249999999999
40
0.781249999999999
40
0.812499999999999
40
0.812499999999999
40
0.874999999999999
40
0.874999999999999
40
0.9375
40
0.9375
40
1
40
1
40
1
40
1
41
1
10
-1.30710678118655
20
-3.91808269248796
30
0
41
1
10
-1.33526487251859
20
-3.76261955749285
30
0
41
1
10
-1.36267126502631
20
-3.6063109858577
30
0
41
1
10
-1.41562242099803
20
-3.29187611045597
30
0
41
1
10
-1.44117770353176
20
-3.13375373985022
30
0
41
1
10
-1.51435013598103
20
-2.65639932915295
30
0
41
1
10
-1.55846884179033
20
-2.33418302861881
30
0
41
1
10
-1.63296978491243
20
-1.68004719877027
30
0
41
1
10
-1.66337509736468
20
-1.34813830750838
30
0
41
1
10
-1.68707319146449
20
-0.968091690681803
30
0
41
1
10
-1.68955923537888
20
-0.925771372654197
30
0
41
1
10
-1.69422507481971
20
-0.840939584978429
30
0
41
1
10
-1.6964065979426
20
-0.798386309984579
30
0
41
1
10
-1.70245250680873
20
-0.670897601193616
30
0
41
1
10
-1.70582437938029
20
-0.586052568901891
30
0
41
1
10
-1.71388361409092
20
-0.331968562037986
30
0
41
1
10
-1.71646782396985
20
-0.163187101305908
30
0
41
1
10
-1.71636335941631
20
0.173213348331899
30
0
41
1
10
-1.71367008139578
20
0.34083166255536
30
0
41
1
10
-1.70293626023371
20
0.674902568806147
30
0
41
1
10
-1.69494665814693
20
0.841362289300548
30
0
41
1
10
-1.66399327242203
20
1.33914312869118
30
0
41
1
10
-1.63408221528164
20
1.66887252592326
30
0
41
1
10
-1.5876007265538
20
2.07872253566578
30
0
41
1
10
-1.57784909269048
20
2.16057674059007
30
0
41
1
10
-1.5574977199426
20
2.32406172494171
30
0
41
1
10
-1.54688933197929
20
2.40575612114199
30
0
41
1
10
-1.51394731043965
20
2.65007047288915
30
0
41
1
10
-1.49055743488208
20
2.81150726182861
30
0
41
1
10
-1.44149329508792
20
3.13180385741538
30
0
41
1
10
-1.41582315096537
20
3.29066553946589
30
0
41
1
10
-1.36271475580057
20
3.60607338167011
30
0
41
1
10
-1.33526589565594
20
3.76261441071909
30
0
41
1
10
-1.30710678118655
20
3.91808311129771
30
0
0
SPLINE
5
144
100
AcDbEntity
8
SK1
62
256
6
ByLayer
370
18
48
1
60
0
100
AcDbSpline
70
4
71
3
72
53
73
49
40
0
40
0
40
0
40
0
40
0.125000000000001
40
0.125000000000001
40
0.250000000000003
40
0.250000000000003
40
0.312500000000002
40
0.312500000000002
40
0.375000000000001
40
0.375000000000001
40
0.499999999999999
40
0.499999999999999
40
0.562499999999999
40
0.562499999999999
40
0.624999999999998
40
0.624999999999998
40
0.687499999999997
40
0.687499999999997
40
0.718749999999997
40
0.718749999999997
40
0.749999999999997
40
0.749999999999997
40
0.781249999999997
40
0.781249999999997
40
0.812499999999997
40
0.812499999999997
40
0.843749999999997
40
0.843749999999997
40
0.859374999999997
40
0.859374999999997
40
0.874999999999998
40
0.874999999999998
40
0.890624999999998
40
0.890624999999998
40
0.898437499999998
40
0.898437499999998
40
0.906249999999998
40
0.906249999999998
40
0.921874999999998
40
0.929687499999998
40
0.929687499999998
40
0.937499999999998
40
0.937499999999998
40
0.968749999999999
40
0.968749999999999
40
0.984374999999999
40
0.984374999999999
40
1
40
1
40
1
40
1
41
1
10
-1.30710678118655
20
3.91808311129773
30
0
41
1
10
-1.29239108240532
20
3.99932964943406
30
0
41
1
10
-1.27663490881506
20
4.08005058420358
30
0
41
1
10
-1.24261095077244
20
4.24039497937329
30
0
41
1
10
-1.22434718173434
20
4.32001891689725
30
0
41
1
10
-1.19458151328425
20
4.43856580615747
30
0
41
1
10
-1.18426257821704
20
4.47793290560355
30
0
41
1
10
-1.16271294340757
20
4.55635268985432
30
0
41
1
10
-1.1514750174868
20
4.5954305661744
30
0
41
1
10
-1.11622081339451
20
4.71196262616607
30
0
41
1
10
-1.09072783956066
20
4.78866062339225
30
0
41
1
10
-1.04815216411876
20
4.90181336669082
30
0
41
1
10
-1.03323011355693
20
4.93921284702577
30
0
41
1
10
-1.00152410230021
20
5.01324987497111
30
0
41
1
10
-0.984745886096874
20
5.04988928444075
30
0
41
1
10
-0.948685190430894
20
5.12220258194967
30
0
41
1
10
-0.929418355061557
20
5.15788155457773
30
0
41
1
10
-0.897760317588421
20
5.21039425330486
30
0
41
1
10
-0.886742970836565
20
5.22772922691752
30
0
41
1
10
-0.863513824307972
20
5.26197522516884
30
0
41
1
10
-0.851357742368606
20
5.27880041053592
30
0
41
1
10
-0.825828436847473
20
5.31146357138681
30
0
41
1
10
-0.812437519911811
20
5.32733553299153
30
0
41
1
10
-0.783971777383869
20
5.35785904442616
30
0
41
1
10
-0.768905931142399
20
5.37251692611162
30
0
41
1
10
-0.736341322354491
20
5.40008757388526
30
0
41
1
10
-0.718704728837935
20
5.41307616107983
30
0
41
1
10
-0.690494000998513
20
5.42981903443433
30
0
41
1
10
-0.680770506186064
20
5.43496537787155
30
0
41
1
10
-0.660532703009267
20
5.4441860527954
30
0
41
1
10
-0.650045797817
20
5.44823342219186
30
0
41
1
10
-0.628779113836032
20
5.45481846069106
30
0
41
1
10
-0.617932285477195
20
5.4573891634796
30
0
41
1
10
-0.601299914959753
20
5.46002170773141
30
0
41
1
10
-0.595695338837032
20
5.46069496960084
30
0
41
1
10
-0.584356912700144
20
5.46160478770395
30
0
41
1
10
-0.578637021974231
20
5.46183701163628
30
0
41
1
10
-0.561675487241928
20
5.46185622962994
30
0
41
1
10
-0.544917445528739
20
5.46054034675203
30
0
41
1
10
-0.528445210270377
20
5.45734844847985
30
0
41
1
10
-0.517525389033324
20
5.45481548249097
30
0
41
1
10
-0.512078734988165
20
5.4533397528954
30
0
41
1
10
-0.48545098532486
20
5.44513209892818
30
0
41
1
10
-0.465729936503919
20
5.43590631685376
30
0
41
1
10
-0.437770416117502
20
5.4193273215547
30
0
41
1
10
-0.428743917867394
20
5.41334179407008
30
0
41
1
10
-0.411386251483435
20
5.40075705360888
30
0
41
1
10
-0.403020392727001
20
5.39413717786437
30
0
41
1
10
-0.394913799811292
20
5.38724490303858
30
0
0
SPLINE
5
145
100
AcDbEntity
8
SK1
62
256
6
ByLayer
370
13
48
1
60
0
100
AcDbSpline
70
4
71
3
72
20
73
16
40
0
40
0
40
0
40
0
40
0.0673842633228366
40
0.135634051965265
40
0.203883840607693
40
0.272133629250122
40
0.408633206534979
40
0.545132783819836
40
0.613382572462264
40
0.681632361104693
40
0.749882149747121
40
0.81813193838955
40
0.886381727031978
40
0.954631515674407
40
1
40
1
40
1
40
1
41
1
10
-0.394913799811292
20
17.3602193111435
30
0
41
1
10
-0.394913799811292
20
17.3741378070127
30
0
41
1
10
-0.394913799811292
20
17.34565824939
30
0
41
1
10
-0.394913799811292
20
17.1536376810083
30
0
41
1
10
-0.394913799811292
20
16.8259464323311
30
0
41
1
10
-0.394913799811292
20
16.2248245878661
30
0
41
1
10
-0.394913799811292
20
15.1889746622834
30
0
41
1
10
-0.394913799811292
20
13.8156301488903
30
0
41
1
10
-0.394913799811292
20
12.5286535254346
30
0
41
1
10
-0.394913799811292
20
11.4729578043957
30
0
41
1
10
-0.394913799811292
20
10.3283867090429
30
0
41
1
10
-0.394913799811292
20
9.09679950047928
30
0
41
1
10
-0.394913799811292
20
7.77968825069564
30
0
41
1
10
-0.394913799811292
20
6.53483606378791
30
0
41
1
10
-0.394913799811292
20
5.71905630139054
30
0
41
1
10
-0.394913799811292
20
5.38724490303878
30
0
0
SPLINE
5
146
100
AcDbEntity
8
SK1
62
256
6
ByLayer
370
13
48
1
60
0
100
AcDbSpline
70
4
71
3
72
45
73
41
40
0
40
0
40
0
40
0
40
0.0139247372717523
40
0.0425174010050457
40
0.0711100647383391
40
0.0997027284716324
40
0.156888055938219
40
0.214073383404806
40
0.242666047138099
40
0.271258710871393
40
0.299851374604686
40
0.32844403833798
40
0.357036702071273
40
0.385629365804566
40
0.41422202953786
40
0.428518361404506
40
0.442814693271153
40
0.471407357004446
40
0.485703688871093
40
0.492851854804416
40
0.50000002073774
40
0.507148186671063
40
0.514296352604386
40
0.528592684471033
40
0.557185348204326
40
0.571481680070973
40
0.58577801193762
40
0.614370675670913
40
0.642963339404207
40
0.6715560031375
40
0.700148666870793
40
0.728741330604087
40
0.75733399433738
40
0.785926658070674
40
0.84311198553726
40
0.900297313003847
40
0.92888997673714
40
0.957482640470434
40
0.986075304203727
40
1
40
1
40
1
40
1
41
1
10
-1.99503997793928
20
17.3200454235263
30
0
41
1
10
-1.99503997793928
20
17.3133442644717
30
0
41
1
10
-1.99503997793928
20
17.2734193797399
30
0
41
1
10
-1.99503997793928
20
17.1138751154123
30
0
41
1
10
-1.99503997793928
20
16.7867763596001
30
0
41
1
10
-1.99503997793928
20
16.1866009265939
30
0
41
1
10
-1.99503997793928
20
15.1524691326423
30
0
41
1
10
-1.99503997793928
20
13.7813331880937
30
0
41
1
10
-1.99503997793928
20
12.4962106263157
30
0
41
1
10
-1.99503997793928
20
11.4421779521075
30
0
41
1
10
-1.99503997793928
20
10.2994799380558
30
0
41
1
10
-1.99503997793928
20
9.07001746022104
30
0
41
1
10
-1.99503997793928
20
7.75535376586828
30
0
41
1
10
-1.99503997793928
20
6.35676341745574
30
0
41
1
10
-1.99503997793928
20
5.12318926412425
30
0
41
1
10
-1.99503997793928
20
4.09531236648536
30
0
41
1
10
-1.99503997793928
20
3.04236295320669
30
0
41
1
10
-1.99503997793928
20
1.95640625727882
30
0
41
1
10
-1.99503997793928
20
0.981337226851394
30
0
41
1
10
-1.99503997793928
20
0.420771319084707
30
0
41
1
10
-1.99503997793928
20
6.88173714E-08
30
0
41
1
10
-1.99503997793928
20
-0.420771221994357
30
0
41
1
10
-1.99503997793928
20
-0.981337209960486
30
0
41
1
10
-1.99503997793928
20
-1.95640624898675
30
0
41
1
10
-1.99503997793928
20
-3.04236280324244
30
0
41
1
10
-1.99503997793928
20
-4.0953123914187
30
0
41
1
10
-1.99503997793928
20
-5.12318891405303
30
0
41
1
10
-1.99503997793928
20
-6.35676356337376
30
0
41
1
10
-1.99503997793928
20
-7.7553535878281
30
0
41
1
10
-1.99503997793928
20
-9.07001720037854
30
0
41
1
10
-1.99503997793928
20
-10.2994801886281
30
0
41
1
10
-1.99503997793928
20
-11.4421777785236
30
0
41
1
10
-1.99503997793928
20
-12.4962104807245
30
0
41
1
10
-1.99503997793928
20
-13.7813335607202
30
0
41
1
10
-1.99503997793928
20
-15.152468715744
30
0
41
1
10
-1.99503997793928
20
-16.1866016937524
30
0
41
1
10
-1.99503997793928
20
-16.786776230537
30
0
41
1
10
-1.99503997793928
20
-17.1138754381145
30
0
41
1
10
-1.99503997793928
20
-17.2734198420475
30
0
41
1
10
-1.99503997793928
20
-17.3133444714012
30
0
41
1
10
-1.99503997793928
20
-17.3200455757142
30
0
0
SPLINE
5
147
100
AcDbEntity
8
SK1
62
256
6
ByLayer
370
18
48
1
60
0
100
AcDbSpline
70
4
71
3
72
45
73
41
40
0
40
0
40
0
40
0
40
0.0138970645957734
40
0.0424913609078387
40
0.071085657219904
40
0.0996799535319693
40
0.1568685461561
40
0.21405713878023
40
0.242651435092296
40
0.271245731404361
40
0.299840027716426
40
0.328434324028491
40
0.357028620340557
40
0.385622916652622
40
0.414217212964687
40
0.42851436112072
40
0.442811509276753
40
0.471405805588818
40
0.485702953744851
40
0.492851527822867
40
0.500000101900883
40
0.507148675978899
40
0.514297250056916
40
0.528594398212948
40
0.557188694525014
40
0.571485842681046
40
0.585782990837079
40
0.614377287149144
40
0.64297158346121
40
0.671565879773275
40
0.70016017608534
40
0.728754472397405
40
0.757348768709471
40
0.785943065021536
40
0.843131657645667
40
0.900320250269797
40
0.928914546581862
40
0.957508842893928
40
0.986103139205993
40
1
40
1
40
1
40
1
41
1
10
-2.19999999999999
20
17.5147945426073
30
0
41
1
10
-2.19999999999999
20
17.5080193392145
30
0
41
1
10
-2.2
20
17.4676802391502
30
0
41
1
10
-2.2
20
17.3066644250431
30
0
41
1
10
-2.2
20
16.9766929599708
30
0
41
1
10
-2.2
20
16.3719288388599
30
0
41
1
10
-2.2
20
15.3294666616432
30
0
41
1
10
-2.2
20
13.9476224427057
30
0
41
1
10
-2.2
20
12.6535104390874
30
0
41
1
10
-2.2
20
11.5914144609754
30
0
41
1
10
-2.2
20
10.4396347881955
30
0
41
1
10
-2.2
20
9.19987052615136
30
0
41
1
10
-2.2
20
7.87333982787851
30
0
41
1
10
-2.2
20
6.4607857552443
30
0
41
1
10
-2.2
20
5.21252898167785
30
0
41
1
10
-2.2
20
4.17223684682958
30
0
41
1
10
-2.2
20
3.10486150423552
30
0
41
1
10
-2.2
20
1.99745537289451
30
0
41
1
10
-2.2
20
1.00299597482069
30
0
41
1
10
-2.2
20
0.430523794544825
30
0
41
1
10
-2.2
20
2.03164063E-08
30
0
41
1
10
-2.2
20
-0.430523737893537
30
0
41
1
10
-2.2
20
-1.00299590932914
30
0
41
1
10
-2.2
20
-1.99745538275133
30
0
41
1
10
-2.2
20
-3.10486136355075
30
0
41
1
10
-2.2
20
-4.17223690222141
30
0
41
1
10
-2.2
20
-5.21252864051553
30
0
41
1
10
-2.2
20
-6.46078587277509
30
0
41
1
10
-2.2
20
-7.87333968058334
30
0
41
1
10
-2.2
20
-9.19987024087132
30
0
41
1
10
-2.2
20
-10.4396350324424
30
0
41
1
10
-2.2
20
-11.5914143063801
30
0
41
1
10
-2.2
20
-12.6535102764493
30
0
41
1
10
-2.2
20
-13.9476228193307
30
0
41
1
10
-2.2
20
-15.3294662349403
30
0
41
1
10
-2.2
20
-16.3719296090069
30
0
41
1
10
-2.2
20
-16.9766928316826
30
0
41
1
10
-2.2
20
-17.3066647416643
30
0
41
1
10
-2.2
20
-17.4676803358727
30
0
41
1
10
-2.20000000000002
20
-17.5080192381458
30
0
41
1
10
-2.20000000000002
20
-17.5147944569667
30
0
0
SPLINE
5
148
100
AcDbEntity
8
SK1
62
256
6
ByLayer
370
18
48
1
60
0
100
AcDbSpline
70
4
71
3
72
45
73
41
40
0
40
0
40
0
40
0
40
0.0275256180107093
40
0.0553182313428752
40
0.0831108446750412
40
0.110903458007207
40
0.166488684671539
40
0.222073911335871
40
0.249866524668037
40
0.277659138000203
40
0.305451751332369
40
0.333244364664534
40
0.3610369779967
40
0.388829591328866
40
0.416622204661032
40
0.430518511327115
40
0.444414817993198
40
0.472207431325364
40
0.486103737991447
40
0.493051891324489
40
0.50000004465753
40
0.506948197990572
40
0.513896351323613
40
0.527792657989696
40
0.555585271321862
40
0.569481577987945
40
0.583377884654028
40
0.611170497986194
40
0.638963111318359
40
0.666755724650525
40
0.694548337982691
40
0.722340951314857
40
0.750133564647023
40
0.777926177979189
40
0.833511404643521
40
0.889096631307853
40
0.916889244640019
40
0.944681857972185
40
0.972474471304351
40
1
40
1
40
1
40
1
41
1
10
-28.5
20
16.8545102409257
30
0
41
1
10
-28.5
20
16.8681141430174
30
0
41
1
10
-28.5
20
16.8405420081415
30
0
41
1
10
-28.5
20
16.6531187925377
30
0
41
1
10
-28.5
20
16.3328856609547
30
0
41
1
10
-28.5
20
15.7436769514769
30
0
41
1
10
-28.5
20
14.7294543359372
30
0
41
1
10
-28.5
20
13.3839106046769
30
0
41
1
10
-28.5
20
12.1202723366856
30
0
41
1
10
-28.5
20
11.0855105352455
30
0
41
1
10
-28.5
20
9.96451720849825
30
0
41
1
10
-28.5
20
8.75967545377557
30
0
41
1
10
-28.5
20
7.47337327542297
30
0
41
1
10
-28.5
20
6.10815549439155
30
0
41
1
10
-28.5
20
4.9096720321497
30
0
41
1
10
-28.5
20
3.9114668992739
30
0
41
1
10
-28.5
20
2.89299469927084
30
0
41
1
10
-28.5
20
1.85830102725041
30
0
41
1
10
-28.5
20
0.929573956929886
30
0
41
1
10
-28.5
20
0.39746341502854
30
0
41
1
10
-28.5
20
1.847321585E-07
30
0
41
1
10
-28.5
20
-0.397463221290906
30
0
41
1
10
-28.5
20
-0.929574056191939
30
0
41
1
10
-28.5
20
-1.85830097558352
30
0
41
1
10
-28.5
20
-2.89299452712916
30
0
41
1
10
-28.5
20
-3.91146685141305
30
0
41
1
10
-28.5
20
-4.90967166078667
30
0
41
1
10
-28.5
20
-6.10815570815362
30
0
41
1
10
-28.5
20
-7.47337302390386
30
0
41
1
10
-28.5
20
-8.75967525472745
30
0
41
1
10
-28.5
20
-9.96451747418803
30
0
41
1
10
-28.5
20
-11.0855103162798
30
0
41
1
10
-28.5
20
-12.1202722318355
30
0
41
1
10
-28.5
20
-13.3839109677473
30
0
41
1
10
-28.5
20
-14.7294539424715
30
0
41
1
10
-28.5
20
-15.7436777114932
30
0
41
1
10
-28.5
20
-16.3328855300396
30
0
41
1
10
-28.5
20
-16.653119129773
30
0
41
1
10
-28.5
20
-16.8405423973687
30
0
41
1
10
-28.5
20
-16.868114113034
30
0
41
1
10
-28.5
20
-16.8545104803775
30
0
0
SPLINE
5
149
100
AcDbEntity
8
1
62
256
6
ByLayer
370
18
48
1
60
0
100
AcDbSpline
70
4
71
3
72
19
73
15
40
0
40
0
40
0
40
0
40
0.105598795309638
40
0.20713305676808
40
0.304606247524357
40
0.398022283830745
40
0.487385615464931
40
0.572701326119365
40
0.653975258965589
40
0.731214174678347
40
0.804425952125406
40
0.873619846082973
40
0.938806822394142
40
1
40
1
40
1
40
1
41
1
10
59.48236683062
20
30.4483272520713
30
0
41
1
10
59.4761086181707
20
30.4488960113941
30
0
41
1
10
59.463833074016
20
30.4500116382983
30
0
41
1
10
59.4458128004535
20
30.4519527015203
30
0
41
1
10
59.428539119221
20
30.4540342609094
30
0
41
1
10
59.4120140189838
20
30.4562621139829
30
0
41
1
10
59.3962369707864
20
30.4586171259506
30
0
41
1
10
59.3812080910702
20
30.4610868936921
30
0
41
1
10
59.3669272661601
20
30.4636575663964
30
0
41
1
10
59.3533946416573
20
30.466316893912
30
0
41
1
10
59.3406095573258
20
30.4690502291206
30
0
41
1
10
59.3285740432231
20
30.4718528329524
30
0
41
1
10
59.3172808603108
20
30.4746882031083
30
0
41
1
10
59.3100347419719
20
30.4767133496268
30
0
41
1
10
59.3065261768
20
30.4776939240821
30
0
0
SPLINE
5
14A
100
AcDbEntity
8
1
62
256
6
ByLayer
370
18
48
1
60
0
100
AcDbSpline
70
4
71
3
72
16
73
12
40
0
40
0
40
0
40
0
40
0.118227901208892
40
0.234676362797894
40
0.349345481218901
40
0.462235357483961
40
0.573346097457496
40
0.682677812172249
40
0.790230618171219
40
0.896004637878218
40
1
40
1
40
1
40
1
41
1
10
60.1702887043917
20
30.3985530051327
30
0
41
1
10
60.1431521268268
20
30.4001552561577
30
0
41
1
10
60.0892874023701
20
30.4033356428428
30
0
41
1
10
60.0091247133961
20
30.4084008156968
30
0
41
1
10
59.9302034041844
20
30.4136261711236
30
0
41
1
10
59.8525249527702
20
30.4190258537731
30
0
41
1
10
59.7760890095594
20
30.4245852544964
30
0
41
1
10
59.7008955277781
20
30.430295525141
30
0
41
1
10
59.626945020838
20
30.4361534500795
30
0
41
1
10
59.5542355274137
20
30.4421290666968
30
0
41
1
10
59.5061872606909
20
30.4462729022972
30
0
41
1
10
59.48236683059
20
30.4483272520792
30
0
0
SPLINE
5
14B
100
AcDbEntity
8
1
62
256
6
ByLayer
370
18
48
1
60
0
100
AcDbSpline
70
4
71
2
72
10
73
7
40
0
40
0
40
0
40
0.5
40
0.5
40
0.75
40
0.75
40
1
40
1
40
1
41
1
10
60.1703211835004
20
30.3985511180157
30
0
41
1
10
60.4005090492969
20
30.3851481866921
30
0
41
1
10
60.5813994958523
20
30.3504204411539
30
0
41
1
10
60.6977168199743
20
30.3280895855963
30
0
41
1
10
60.7815407125726
20
30.2988260394782
30
0
41
1
10
60.9246417322624
20
30.2488684061659
30
0
41
1
10
60.9499902265207
20
30.1879683066058
30
0
0
SPLINE
5
14C
100
AcDbEntity
8
1
62
256
6
ByLayer
370
18
48
1
60
0
100
AcDbSpline
70
4
71
2
72
6
73
3
40
0
40
0
40
0
40
1
40
1
40
1
41
1
10
60.9499902266708
20
30.187968306693
30
0
41
1
10
60.9884919085573
20
30.0931921591994
30
0
41
1
10
60.9886043049807
20
29.9976600320196
30
0
0
SPLINE
5
14D
100
AcDbEntity
8
1
62
256
6
ByLayer
370
18
48
1
60
0
100
AcDbSpline
70
4
71
3
72
24
73
20
40
0
40
0
40
0
40
0
40
0.0615883759047666
40
0.122688254024854
40
0.183326299851815
40
0.243529792548024
40
0.303326606004158
40
0.362745186445466
40
0.421814526539193
40
0.480564136000293
40
0.539024008730876
40
0.597224586585082
40
0.65519671989421
40
0.712971624940713
40
0.770580838619308
40
0.828056170570651
40
0.885429653119908
40
0.942733489390597
40
1
40
1
40
1
40
1
41
1
10
60.94999022667
20
29.7667538814286
30
0
41
1
10
60.9514760409687
20
29.77048935321
30
0
41
1
10
60.9544358845988
20
29.7779306682973
30
0
41
1
10
60.9585659721737
20
29.7891666143714
30
0
41
1
10
60.9624450214134
20
29.8003979134307
30
0
41
1
10
60.966052645609
20
29.811632765424
30
0
41
1
10
60.9693942359552
20
29.8228685640574
30
0
41
1
10
60.9724683525928
20
29.8341055657762
30
0
41
1
10
60.9752753669341
20
29.8453432670073
30
0
41
1
10
60.9778151708743
20
29.8565813649159
30
0
41
1
10
60.9800877810841
20
29.8678195024446
30
0
41
1
10
60.9820931925112
20
29.8790573361664
30
0
41
1
10
60.9838313661184
20
29.8902945179057
30
0
41
1
10
60.9853024227051
20
29.9015307012166
30
0
41
1
10
60.9865058842008
20
29.9127655341356
30
0
41
1
10
60.9874435045144
20
29.9239986821169
30
0
41
1
10
60.9881087368338
20
29.9352297443409
30
0
41
1
10
60.9885259471521
20
29.9464585654911
30
0
41
1
10
60.9885781913776
20
29.9539432663357
30
0
41
1
10
60.98860430498
20
29.9576843975447
30
0
0
SPLINE
5
14E
100
AcDbEntity
8
1
62
256
6
ByLayer
370
18
48
1
60
0
100
AcDbSpline
70
4
71
3
72
43
73
39
40
0
40
0
40
0
40
0
40
0.0409973406366455
40
0.0809092982715818
40
0.119736159842836
40
0.157478237047556
40
0.194135869264794
40
0.229709426921881
40
0.264199315386286
40
0.297605979485285
40
0.329929908777832
40
0.361171643733661
40
0.391331783012886
40
0.420410992088522
40
0.448410013519423
40
0.475329679265267
40
0.50117092554812
40
0.572592867093696
40
0.638080914696127
40
0.697670982799364
40
0.751410812475232
40
0.772779913618549
40
0.793234602755291
40
0.812782181749366
40
0.831431018019194
40
0.849190749344523
40
0.866072536338501
40
0.882089374987177
40
0.897256484840497
40
0.911591792130991
40
0.925116531009035
40
0.937855989439949
40
0.94984042740295
40
0.961106190504018
40
0.971697025976506
40
0.981665570834285
40
0.991074911407364
40
1
40
1
40
1
40
1
41
1
10
60.1703211835
20
29.5436071967328
30
0
41
1
10
60.1815955433722
20
29.5444706612212
30
0
41
1
10
60.2038457803767
20
29.5461747304303
30
0
41
1
10
60.2367474852616
20
29.5490414598775
30
0
41
1
10
60.268734387051
20
29.5520771440588
30
0
41
1
10
60.2998047803203
20
29.555291163479
30
0
41
1
10
60.3299591078148
20
29.5586632021854
30
0
41
1
10
60.3591972610569
20
29.5621809401409
30
0
41
1
10
60.3875192737298
20
29.5658304012353
30
0
41
1
10
60.4149251441988
20
29.5695984544309
30
0
41
1
10
60.4414148802485
20
29.5734721966404
30
0
41
1
10
60.4669884910949
20
29.5774391234877
30
0
41
1
10
60.4916459782106
20
29.5814871220463
30
0
41
1
10
60.5153873786587
20
29.5856044117161
30
0
41
1
10
60.538212610891
20
29.5897798288858
30
0
41
1
10
60.5601220206574
20
29.594001845719
30
0
41
1
10
60.5937486984551
20
29.6008260329212
30
0
41
1
10
60.637660265658
20
29.6106045909961
30
0
41
1
10
60.690314785579
20
29.6240735196976
30
0
41
1
10
60.7378060332942
20
29.6380171247635
30
0
41
1
10
60.7731644417988
20
29.6499572119166
30
0
41
1
10
60.7979490400554
20
29.6593016550008
30
0
41
1
10
60.8137384431464
20
29.6656525326004
30
0
41
1
10
60.8286893772276
20
29.672078125866
30
0
41
1
10
60.8428019685624
20
29.678572371014
30
0
41
1
10
60.8560763753171
20
29.6851290406735
30
0
41
1
10
60.8685127830692
20
29.691742028386
30
0
41
1
10
60.8801114087742
20
29.6984052995763
30
0
41
1
10
60.8908725094797
20
29.7051129277692
30
0
41
1
10
60.9007963582658
20
29.7118591289102
30
0
41
1
10
60.9098833178299
20
29.7186382644854
30
0
41
1
10
60.9181335453682
20
29.7254450038558
30
0
41
1
10
60.9255478947299
20
29.7322739772847
30
0
41
1
10
60.9321246317881
20
29.7391211949098
30
0
41
1
10
60.937870243827
20
29.7459794413558
30
0
41
1
10
60.9427620013417
20
29.7528540907323
30
0
41
1
10
60.9468749657509
20
29.7597089224172
30
0
41
1
10
60.9489702532908
20
29.7644472785638
30
0
41
1
10
60.94999022652
20
29.7667538815133
30
0
0
SPLINE
5
14F
100
AcDbEntity
8
1
62
256
6
ByLayer
370
18
48
1
60
0
100
AcDbSpline
70
4
71
2
72
6
73
3
40
0
40
0
40
0
40
1
40
1
40
1
41
1
10
60.1702887043921
20
29.543604786233
30
0
41
1
10
59.819552783945
20
29.5175651355731
30
0
41
1
10
59.4823668305908
20
29.4827451135067
30
0
0
SPLINE
5
150
100
AcDbEntity
8
1
62
256
6
ByLayer
370
18
48
1
60
0
100
AcDbSpline
70
4
71
2
72
6
73
3
40
0
40
0
40
0
40
1
40
1
40
1
41
1
10
59.4823668306203
20
29.4827451135149
30
0
41
1
10
59.3769907517283
20
29.4718109462589
30
0
41
1
10
59.3065261768005
20
29.4505448806135
30
0
0
LINE
5
7D
100
AcDbEntity
8
1
62
256
6
ByLayer
370
18
48
1
60
0
100
AcDbLine
10
20.279208
20
25
30
0
11
0.3
21
25
31
0
39
0
210
0
220
0
230
1
0
LINE
5
7E
100
AcDbEntity
8
1
62
256
6
ByLayer
370
18
48
1
60
0
100
AcDbLine
10
0.3
20
-25
30
0
11
20
21
-25
31
0
39
0
210
0
220
0
230
1
0
LINE
5
7F
100
AcDbEntity
8
1
62
256
6
ByLayer
370
18
48
1
60
0
100
AcDbLine
10
0
20
-24.7
30
0
11
0.3
21
-25
31
0
39
0
210
0
220
0
230
1
0
LINE
5
80
100
AcDbEntity
8
1
62
256
6
ByLayer
370
18
48
1
60
0
100
AcDbLine
10
0.3
20
25
30
0
11
0
21
24.7
31
0
39
0
210
0
220
0
230
1
0
LINE
5
81
100
AcDbEntity
8
81
62
256
6
ByLayer
370
18
48
1
60
0
100
AcDbLine
10
65
20
33
30
0
11
70
21
33
31
0
39
0
210
0
220
0
230
1
0
LINE
5
82
100
AcDbEntity
8
80
62
256
6
ByLayer
370
18
48
1
60
0
100
AcDbLine
10
0
20
0
30
0
11
-5
21
0
31
0
39
0
210
0
220
0
230
1
0
LINE
5
83
100
AcDbEntity
8
1
62
256
6
ByLayer
370
18
48
1
60
0
100
AcDbLine
10
55.337532
20
32.812003
30
0
11
55.337995
21
33.07292
31
0
39
0
210
0
220
0
230
1
0
LINE
5
84
100
AcDbEntity
8
1
62
256
6
ByLayer
370
18
48
1
60
0
100
AcDbLine
10
64
20
32.982594
30
0
11
64
21
33.064543
31
0
39
0
210
0
220
0
230
1
0
LINE
5
85
100
AcDbEntity
8
1
62
256
6
ByLayer
370
18
48
1
60
0
100
AcDbLine
10
57.807082
20
32.763273
30
0
11
57.807617
21
33.064543
31
0
39
0
210
0
220
0
230
1
0
LINE
5
86
100
AcDbEntity
8
1
62
256
6
ByLayer
370
13
48
1
60
0
100
AcDbLine
10
21.598118
20
26.15
30
0
11
23.2
21
26.15
31
0
39
0
210
0
220
0
230
1
0
LINE
5
87
100
AcDbEntity
8
1
62
256
6
ByLayer
370
13
48
1
60
0
100
AcDbLine
10
23.2
20
26.15
30
0
11
23.2
21
25.15
31
0
39
0
210
0
220
0
230
1
0
LINE
5
88
100
AcDbEntity
8
1
62
256
6
ByLayer
370
18
48
1
60
0
100
AcDbLine
10
64
20
34.064263
30
0
11
64
21
33.064543
31
0
39
0
210
0
220
0
230
1
0
LINE
5
89
100
AcDbEntity
8
1
62
256
6
ByLayer
370
18
48
1
60
0
100
AcDbLine
10
54.163449
20
43.880428
30
0
11
27.795288
21
43.880428
31
0
39
0
210
0
220
0
230
1
0
LINE
5
8A
100
AcDbEntity
8
1
62
256
6
ByLayer
370
18
48
1
60
0
100
AcDbLine
10
27.400157
20
32.744885
30
0
11
26.893567
21
32.744885
31
0
39
0
210
0
220
0
230
1
0
LINE
5
8B
100
AcDbEntity
8
1
62
256
6
ByLayer
370
18
48
1
60
0
100
AcDbLine
10
53.569398
20
33.07292
30
0
11
55.337995
21
33.07292
31
0
39
0
210
0
220
0
230
1
0
LINE
5
8C
100
AcDbEntity
8
1
62
256
6
ByLayer
370
18
48
1
60
0
100
AcDbLine
10
57.807617
20
33.064543
30
0
11
64
21
33.064543
31
0
39
0
210
0
220
0
230
1
0
LINE
5
8D
100
AcDbEntity
8
1
62
256
6
ByLayer
370
13
48
1
60
0
100
AcDbLine
10
23.2
20
26.15
30
0
11
23.2
21
32.190729
31
0
39
0
210
0
220
0
230
1
0
LINE
5
8E
100
AcDbEntity
8
1
62
256
6
ByLayer
370
13
48
1
60
0
100
AcDbLine
10
23.2
20
26.15
30
0
11
26.893567
21
26.15
31
0
39
0
210
0
220
0
230
1
0
LINE
5
8F
100
AcDbEntity
8
1
62
256
6
ByLayer
370
18
48
1
60
0
100
AcDbLine
10
26.893567
20
26.15
30
0
11
26.893567
21
32.744885
31
0
39
0
210
0
220
0
230
1
0
LINE
5
90
100
AcDbEntity
8
1
62
256
6
ByLayer
370
18
48
1
60
0
100
AcDbLine
10
27.279365
20
32.693887
30
0
11
27.279365
21
26.15
31
0
39
0
210
0
220
0
230
1
0
LINE
5
91
100
AcDbEntity
8
1
62
256
6
ByLayer
370
13
48
1
60
0
100
AcDbLine
10
27.4
20
26.15
30
0
11
27.279365
21
26.15
31
0
39
0
210
0
220
0
230
1
0
LINE
5
92
100
AcDbEntity
8
1
62
256
6
ByLayer
370
18
48
1
60
0
100
AcDbLine
10
56.380757
20
32.722622
30
0
11
56.508025
21
32.054124
31
0
39
0
210
0
220
0
230
1
0
LINE
5
93
100
AcDbEntity
8
1
62
256
6
ByLayer
370
18
48
1
60
0
100
AcDbLine
10
24.399843
20
25.15
30
0
11
23.400157
21
25.15
31
0
39
0
210
0
220
0
230
1
0
LINE
5
94
100
AcDbEntity
8
1
62
256
6
ByLayer
370
18
48
1
60
0
100
AcDbLine
10
24.400012
20
-13.504358
30
0
11
24.065566
21
-13.504358
31
0
39
0
210
0
220
0
230
1
0
LINE
5
95
100
AcDbEntity
8
1
62
256
6
ByLayer
370
18
48
1
60
0
100
AcDbLine
10
27.279365
20
32.693887
30
0
11
27.400165
21
32.693887
31
0
39
0
210
0
220
0
230
1
0
LINE
5
96
100
AcDbEntity
8
1
62
256
6
ByLayer
370
13
48
1
60
0
100
AcDbLine
10
47
20
29.130163
30
0
11
47
21
27.373216
31
0
39
0
210
0
220
0
230
1
0
LINE
5
97
100
AcDbEntity
8
1
62
256
6
ByLayer
370
18
48
1
60
0
100
AcDbLine
10
45.4
20
27.326828
30
0
11
45.4
21
25.787124
31
0
39
0
210
0
220
0
230
1
0
LINE
5
98
100
AcDbEntity
8
1
62
256
6
ByLayer
370
18
48
1
60
0
100
AcDbLine
10
24.4
20
25.15
30
0
11
26.4
21
25.15
31
0
39
0
210
0
220
0
230
1
0
LINE
5
99
100
AcDbEntity
8
1
62
256
6
ByLayer
370
18
48
1
60
0
100
AcDbLine
10
24.4
20
-13.504358
30
0
11
24.4
21
25.15
31
0
39
0
210
0
220
0
230
1
0
LINE
5
9A
100
AcDbEntity
8
1
62
256
6
ByLayer
370
18
48
1
60
0
100
AcDbLine
10
33.9
20
-13.504358
30
0
11
24.4
21
-13.504358
31
0
39
0
210
0
220
0
230
1
0
LINE
5
9B
100
AcDbEntity
8
1
62
256
6
ByLayer
370
18
48
1
60
0
100
AcDbLine
10
27.4
20
34.420384
30
0
11
43.369894
21
34.420384
31
0
39
0
210
0
220
0
230
1
0
LINE
5
9C
100
AcDbEntity
8
1
62
256
6
ByLayer
370
18
48
1
60
0
100
AcDbLine
10
27.4
20
26.15
30
0
11
27.4
21
34.420384
31
0
39
0
210
0
220
0
230
1
0
LINE
5
9D
100
AcDbEntity
8
1
62
256
6
ByLayer
370
18
48
1
60
0
100
AcDbLine
10
33.9
20
-13.504358
30
0
11
45.4
21
13.345642
31
0
39
0
210
0
220
0
230
1
0
LINE
5
9E
100
AcDbEntity
8
1
62
256
6
ByLayer
370
18
48
1
60
0
100
AcDbLine
10
45.4
20
13.345642
30
0
11
45.4
21
25.787124
31
0
39
0
210
0
220
0
230
1
0
LINE
5
9F
100
AcDbEntity
8
1
62
256
6
ByLayer
370
18
48
1
60
0
100
AcDbLine
10
45.4
20
27.326828
30
0
11
45.4
21
27.859692
31
0
39
0
210
0
220
0
230
1
0
LINE
5
A0
100
AcDbEntity
8
1
62
256
6
ByLayer
370
18
48
1
60
0
100
AcDbLine
10
53.5
20
33.085993
30
0
11
53.5
21
27.798419
31
0
39
0
210
0
220
0
230
1
0
LINE
5
A1
100
AcDbEntity
8
1
62
256
6
ByLayer
370
18
48
1
60
0
100
AcDbLine
10
46.22445
20
34.420384
30
0
11
43.369894
21
34.420384
31
0
39
0
210
0
220
0
230
1
0
LINE
5
A2
100
AcDbEntity
8
1
62
256
6
ByLayer
370
18
48
1
60
0
100
AcDbLine
10
43.369894
20
27.326828
30
0
11
43.369894
21
34.420384
31
0
39
0
210
0
220
0
230
1
0
LINE
5
A3
100
AcDbEntity
8
1
62
256
6
ByLayer
370
13
48
1
60
0
100
AcDbLine
10
43.369894
20
27.326828
30
0
11
45.4
21
27.326828
31
0
39
0
210
0
220
0
230
1
0
LINE
5
A4
100
AcDbEntity
8
1
62
256
6
ByLayer
370
13
48
1
60
0
100
AcDbLine
10
21.438319
20
25.15
30
0
11
21.438319
21
22.394016
31
0
39
0
210
0
220
0
230
1
0
LINE
5
A5
100
AcDbEntity
8
1
62
256
6
ByLayer
370
18
48
1
60
0
100
AcDbLine
10
23.4
20
-13.560119
30
0
11
23.4
21
25.15
31
0
39
0
210
0
220
0
230
1
0
LINE
5
A6
100
AcDbEntity
8
1
62
256
6
ByLayer
370
18
48
1
60
0
100
AcDbLine
10
23.4
20
25.15
30
0
11
22.033602
21
25.15
31
0
39
0
210
0
220
0
230
1
0
LINE
5
A7
100
AcDbEntity
8
1
62
256
6
ByLayer
370
13
48
1
60
0
100
AcDbLine
10
11.461325
20
-7.529667
30
0
11
11.461325
21
-23.83913
31
0
39
0
210
0
220
0
230
1
0
LINE
5
A8
100
AcDbEntity
8
1
62
256
6
ByLayer
370
13
48
1
60
0
100
AcDbLine
10
11.894338
20
-8.055848
30
0
11
11.894338
21
-23.666502
31
0
39
0
210
0
220
0
230
1
0
LINE
5
A9
100
AcDbEntity
8
1
62
256
6
ByLayer
370
13
48
1
60
0
100
AcDbLine
10
8.105662
20
23.666502
30
0
11
8.105662
21
8.055848
31
0
39
0
210
0
220
0
230
1
0
LINE
5
AA
100
AcDbEntity
8
1
62
256
6
ByLayer
370
13
48
1
60
0
100
AcDbLine
10
8.538675
20
23.83913
30
0
11
8.538675
21
7.529667
31
0
39
0
210
0
220
0
230
1
0
LINE
5
AB
100
AcDbEntity
8
1
62
256
6
ByLayer
370
13
48
1
60
0
100
AcDbLine
10
8.105662
20
-8.055848
30
0
11
8.105662
21
-23.666502
31
0
39
0
210
0
220
0
230
1
0
LINE
5
AC
100
AcDbEntity
8
1
62
256
6
ByLayer
370
13
48
1
60
0
100
AcDbLine
10
8.538675
20
-7.529667
30
0
11
8.538675
21
-23.83913
31
0
39
0
210
0
220
0
230
1
0
LINE
5
AD
100
AcDbEntity
8
1
62
256
6
ByLayer
370
13
48
1
60
0
100
AcDbLine
10
11.461325
20
23.83913
30
0
11
11.461325
21
7.529667
31
0
39
0
210
0
220
0
230
1
0
LINE
5
AE
100
AcDbEntity
8
1
62
256
6
ByLayer
370
13
48
1
60
0
100
AcDbLine
10
11.894338
20
23.666502
30
0
11
11.894338
21
8.055848
31
0
39
0
210
0
220
0
230
1
0
LINE
5
AF
100
AcDbEntity
8
1
62
256
6
ByLayer
370
18
48
1
60
0
100
AcDbLine
10
11.461325
20
7.529667
30
0
11
8.538675
21
7.529667
31
0
39
0
210
0
220
0
230
1
0
LINE
5
B0
100
AcDbEntity
8
1
62
256
6
ByLayer
370
18
48
1
60
0
100
AcDbLine
10
8.538675
20
23.83913
30
0
11
11.461325
21
23.83913
31
0
39
0
210
0
220
0
230
1
0
LINE
5
B1
100
AcDbEntity
8
1
62
256
6
ByLayer
370
18
48
1
60
0
100
AcDbLine
10
8.538675
20
-7.529667
30
0
11
11.461325
21
-7.529667
31
0
39
0
210
0
220
0
230
1
0
LINE
5
B2
100
AcDbEntity
8
1
62
256
6
ByLayer
370
18
48
1
60
0
100
AcDbLine
10
11.461325
20
-23.83913
30
0
11
8.538675
21
-23.83913
31
0
39
0
210
0
220
0
230
1
0
LINE
5
B3
100
AcDbEntity
8
1
62
256
6
ByLayer
370
18
48
1
60
0
100
AcDbLine
10
20.063901
20
-17.67767
30
0
11
20
21
-25
31
0
39
0
210
0
220
0
230
1
0
LINE
5
B4
100
AcDbEntity
8
1
62
256
6
ByLayer
370
13
48
1
60
0
100
AcDbLine
10
20.279208
20
25
30
0
11
20.279208
21
20.188442
31
0
39
0
210
0
220
0
230
1
0
LINE
5
B5
100
AcDbEntity
8
1
62
256
6
ByLayer
370
18
48
1
60
0
100
AcDbLine
10
0.3
20
-25
30
0
11
0.3
21
25
31
0
39
0
210
0
220
0
230
1
0
LINE
5
B6
100
AcDbEntity
8
1
62
256
6
ByLayer
370
18
48
1
60
0
100
AcDbLine
10
0
20
-24.7
30
0
11
0
21
24.7
31
0
39
0
210
0
220
0
230
1
0
LINE
5
B7
100
AcDbEntity
8
1
62
256
6
ByLayer
370
18
48
1
60
0
100
AcDbLine
10
20.065718
20
-17.469452
30
0
11
20.063901
21
-17.67767
31
0
39
0
210
0
220
0
230
1
0
LINE
5
B8
100
AcDbEntity
8
1
62
256
6
ByLayer
370
13
48
1
60
0
100
AcDbLine
10
20.078883
20
-17.178233
30
0
11
20.078883
21
19.241837
31
0
39
0
210
0
220
0
230
1
0
LINE
5
B9
100
AcDbEntity
8
SK1
62
256
6
ByLayer
370
18
48
1
60
0
100
AcDbLine
10
-0.2
20
-6.078431
30
0
11
-0.2
21
-17.833485
31
0
39
0
210
0
220
0
230
1
0
LINE
5
BB
100
AcDbEntity
8
SK1
62
256
6
ByLayer
370
18
48
1
60
0
100
AcDbLine
10
-0.2
20
17.833485
30
0
11
-0.2
21
6.078432
31
0
39
0
210
0
220
0
230
1
0
LINE
5
BC
100
AcDbEntity
8
SK1
62
256
6
ByLayer
370
13
48
1
60
0
100
AcDbLine
10
-1.307107
20
3.918083
30
0
11
-1.307107
21
-3.918083
31
0
39
0
210
0
220
0
230
1
0
LINE
5
BD
100
AcDbEntity
8
SK1
62
256
6
ByLayer
370
18
48
1
60
0
100
AcDbLine
10
-1.99504
20
17.325269
30
0
11
-1.99504
21
17.320045
31
0
39
0
210
0
220
0
230
1
0
LINE
5
BE
100
AcDbEntity
8
SK1
62
256
6
ByLayer
370
18
48
1
60
0
100
AcDbLine
10
-1.99504
20
-17.320045
30
0
11
-1.99504
21
-17.325269
31
0
39
0
210
0
220
0
230
1
0
LINE
5
BF
100
AcDbEntity
8
1
62
256
6
ByLayer
370
18
48
1
60
0
100
AcDbLine
10
64.576744
20
33.016187
30
0
11
62.568682
21
32.899314
31
0
39
0
210
0
220
0
230
1
0
LINE
5
C0
100
AcDbEntity
8
1
62
256
6
ByLayer
370
18
48
1
60
0
100
AcDbLine
10
64.576744
20
26.987468
30
0
11
62.568682
21
27.104341
31
0
39
0
210
0
220
0
230
1
0
LINE
5
C1
100
AcDbEntity
8
1
62
256
6
ByLayer
370
18
48
1
60
0
100
AcDbLine
10
65
20
32.617107
30
0
11
65
21
27.386548
31
0
39
0
210
0
220
0
230
1
0
LINE
5
C2
100
AcDbEntity
8
1
62
256
6
ByLayer
370
18
48
1
60
0
100
AcDbLine
10
62.568682
20
32.899314
30
0
11
62.143073
21
32.906272
31
0
39
0
210
0
220
0
230
1
0
LINE
5
C3
100
AcDbEntity
8
1
62
256
6
ByLayer
370
18
48
1
60
0
100
AcDbLine
10
62.568682
20
27.104341
30
0
11
62.143073
21
27.067676
31
0
39
0
210
0
220
0
230
1
0
LINE
5
C4
100
AcDbEntity
8
1
62
256
6
ByLayer
370
18
48
1
60
0
100
AcDbLine
10
62.568682
20
32.899314
30
0
11
62.568682
21
27.104341
31
0
39
0
210
0
220
0
230
1
0
LINE
5
C5
100
AcDbEntity
8
1
62
256
6
ByLayer
370
13
48
1
60
0
100
AcDbLine
10
57.000021
20
29.957684
30
0
11
60.988604
21
29.957684
31
0
39
0
210
0
220
0
230
1
0
LINE
5
C6
100
AcDbEntity
8
1
62
256
6
ByLayer
370
13
48
1
60
0
100
AcDbLine
10
56.999226
20
29.99766
30
0
11
60.988604
21
29.99766
31
0
39
0
210
0
220
0
230
1
0
LINE
5
C7
100
AcDbEntity
8
1
62
256
6
ByLayer
370
13
48
1
60
0
100
AcDbLine
10
57.003977
20
29.766754
30
0
11
60.94999
21
29.766754
31
0
39
0
210
0
220
0
230
1
0
LINE
5
C8
100
AcDbEntity
8
1
62
256
6
ByLayer
370
13
48
1
60
0
100
AcDbLine
10
56.995395
20
30.187968
30
0
11
60.94999
21
30.187968
31
0
39
0
210
0
220
0
230
1
0
LINE
5
C9
100
AcDbEntity
8
1
62
256
6
ByLayer
370
13
48
1
60
0
100
AcDbLine
10
60.170287
20
29.543607
30
0
11
56.936302
21
29.543607
31
0
39
0
210
0
220
0
230
1
0
LINE
5
CA
100
AcDbEntity
8
1
62
256
6
ByLayer
370
13
48
1
60
0
100
AcDbLine
10
60.170287
20
30.398551
30
0
11
56.88261
21
30.398551
31
0
39
0
210
0
220
0
230
1
0
LINE
5
CB
100
AcDbEntity
8
1
62
256
6
ByLayer
370
13
48
1
60
0
100
AcDbLine
10
59.482367
20
29.482745
30
0
11
56.831031
21
29.482745
31
0
39
0
210
0
220
0
230
1
0
LINE
5
CC
100
AcDbEntity
8
1
62
256
6
ByLayer
370
13
48
1
60
0
100
AcDbLine
10
59.482367
20
30.448327
30
0
11
56.779645
21
30.448327
31
0
39
0
210
0
220
0
230
1
0
LINE
5
CD
100
AcDbEntity
8
1
62
256
6
ByLayer
370
13
48
1
60
0
100
AcDbLine
10
56.785027
20
29.450545
30
0
11
59.306526
21
29.450545
31
0
39
0
210
0
220
0
230
1
0
LINE
5
CE
100
AcDbEntity
8
1
62
256
6
ByLayer
370
13
48
1
60
0
100
AcDbLine
10
58.995391
20
29.356317
30
0
11
56.775591
21
29.356317
31
0
39
0
210
0
220
0
230
1
0
LINE
5
CF
100
AcDbEntity
8
1
62
256
6
ByLayer
370
13
48
1
60
0
100
AcDbLine
10
56.760141
20
30.477694
30
0
11
59.306526
21
30.477694
31
0
39
0
210
0
220
0
230
1
0
LINE
5
D0
100
AcDbEntity
8
1
62
256
6
ByLayer
370
13
48
1
60
0
100
AcDbLine
10
58.995391
20
30.566908
30
0
11
56.746565
21
30.566908
31
0
39
0
210
0
220
0
230
1
0
LINE
5
D1
100
AcDbEntity
8
1
62
256
6
ByLayer
370
13
48
1
60
0
100
AcDbLine
10
58.90992
20
29.311386
30
0
11
56.77101
21
29.311386
31
0
39
0
210
0
220
0
230
1
0
LINE
5
D2
100
AcDbEntity
8
1
62
256
6
ByLayer
370
18
48
1
60
0
100
AcDbLine
10
57.611484
20
27.352046
30
0
11
47.388516
21
27.352046
31
0
39
0
210
0
220
0
230
1
0
LINE
5
D3
100
AcDbEntity
8
1
62
256
6
ByLayer
370
13
48
1
60
0
100
AcDbLine
10
57.611484
20
27.59315
30
0
11
56.596535
21
27.59315
31
0
39
0
210
0
220
0
230
1
0
LINE
5
D4
100
AcDbEntity
8
1
62
256
6
ByLayer
370
13
48
1
60
0
100
AcDbLine
10
57.618068
20
27.610557
30
0
11
56.598293
21
27.610557
31
0
39
0
210
0
220
0
230
1
0
LINE
5
D5
100
AcDbEntity
8
1
62
256
6
ByLayer
370
13
48
1
60
0
100
AcDbLine
10
58.90992
20
30.610462
30
0
11
56.739761
21
30.610462
31
0
39
0
210
0
220
0
230
1
0
LINE
5
D6
100
AcDbEntity
8
1
62
256
6
ByLayer
370
13
48
1
60
0
100
AcDbLine
10
57.618068
20
32.290473
30
0
11
56.462984
21
32.290473
31
0
39
0
210
0
220
0
230
1
0
LINE
5
D7
100
AcDbEntity
8
1
62
256
6
ByLayer
370
18
48
1
60
0
100
AcDbLine
10
46.84549
20
27.356421
30
0
11
47.388516
21
27.352046
31
0
39
0
210
0
220
0
230
1
0
LINE
5
D8
100
AcDbEntity
8
1
62
256
6
ByLayer
370
18
48
1
60
0
100
AcDbLine
10
47.388516
20
27.372917
30
0
11
47.388516
21
27.352046
31
0
39
0
210
0
220
0
230
1
0
LINE
5
D9
100
AcDbEntity
8
1
62
256
6
ByLayer
370
18
48
1
60
0
100
AcDbLine
10
59.407164
20
32.763287
30
0
11
55.837
21
32.763287
31
0
39
0
210
0
220
0
230
1
0
LINE
5
DA
100
AcDbEntity
8
1
62
256
6
ByLayer
370
18
48
1
60
0
100
AcDbLine
10
57.611484
20
32.548878
30
0
11
56.413799
21
32.548878
31
0
39
0
210
0
220
0
230
1
0
LINE
5
DB
100
AcDbEntity
8
1
62
256
6
ByLayer
370
13
48
1
60
0
100
AcDbLine
10
57.611484
20
32.307774
30
0
11
56.459643
21
32.307774
31
0
39
0
210
0
220
0
230
1
0
LINE
5
DC
100
AcDbEntity
8
1
62
256
6
ByLayer
370
18
48
1
60
0
100
AcDbLine
10
58.90992
20
30.610462
30
0
11
57.618066
21
32.290471
31
0
39
0
210
0
220
0
230
1
0
LINE
5
DD
100
AcDbEntity
8
1
62
256
6
ByLayer
370
18
48
1
60
0
100
AcDbLine
10
59.306526
20
30.477694
30
0
11
58.995391
21
30.566908
31
0
39
0
210
0
220
0
230
1
0
LINE
5
DE
100
AcDbEntity
8
1
62
256
6
ByLayer
370
18
48
1
60
0
100
AcDbLine
10
60.988604
20
29.99766
30
0
11
60.988604
21
29.957684
31
0
39
0
210
0
220
0
230
1
0
LINE
5
DF
100
AcDbEntity
8
1
62
256
6
ByLayer
370
18
48
1
60
0
100
AcDbLine
10
59.306526
20
29.450545
30
0
11
58.995391
21
29.356317
31
0
39
0
210
0
220
0
230
1
0
LINE
5
E0
100
AcDbEntity
8
1
62
256
6
ByLayer
370
18
48
1
60
0
100
AcDbLine
10
58.90992
20
29.311386
30
0
11
57.618066
21
27.610559
31
0
39
0
210
0
220
0
230
1
0
LINE
5
E1
100
AcDbEntity
8
1
62
256
6
ByLayer
370
18
48
1
60
0
100
AcDbLine
10
57.611484
20
27.59315
30
0
11
57.611484
21
27.352046
31
0
39
0
210
0
220
0
230
1
0
LINE
5
E2
100
AcDbEntity
8
1
62
256
6
ByLayer
370
18
48
1
60
0
100
AcDbLine
10
59.039855
20
27.363555
30
0
11
57.611484
21
27.352046
31
0
39
0
210
0
220
0
230
1
0
LINE
5
E3
100
AcDbEntity
8
1
62
256
6
ByLayer
370
18
48
1
60
0
100
AcDbLine
10
59.467511
20
27.134233
30
0
11
59.039855
21
27.363555
31
0
39
0
210
0
220
0
230
1
0
LINE
5
E4
100
AcDbEntity
8
1
62
256
6
ByLayer
370
18
48
1
60
0
100
AcDbLine
10
59.467511
20
27.134233
30
0
11
62.143073
21
27.067676
31
0
39
0
210
0
220
0
230
1
0
LINE
5
E5
100
AcDbEntity
8
1
62
256
6
ByLayer
370
18
48
1
60
0
100
AcDbLine
10
62.143073
20
27.067676
30
0
11
62.143073
21
32.906272
31
0
39
0
210
0
220
0
230
1
0
LINE
5
E6
100
AcDbEntity
8
1
62
256
6
ByLayer
370
18
48
1
60
0
100
AcDbLine
10
59.467511
20
32.7966
30
0
11
62.143073
21
32.906272
31
0
39
0
210
0
220
0
230
1
0
LINE
5
E7
100
AcDbEntity
8
1
62
256
6
ByLayer
370
18
48
1
60
0
100
AcDbLine
10
59.467511
20
32.7966
30
0
11
59.039855
21
32.560387
31
0
39
0
210
0
220
0
230
1
0
LINE
5
E8
100
AcDbEntity
8
1
62
256
6
ByLayer
370
18
48
1
60
0
100
AcDbLine
10
59.039855
20
32.560387
30
0
11
57.611484
21
32.548878
31
0
39
0
210
0
220
0
230
1
0
LINE
5
E9
100
AcDbEntity
8
1
62
256
6
ByLayer
370
18
48
1
60
0
100
AcDbLine
10
57.611484
20
32.307774
30
0
11
57.611484
21
32.548878
31
0
39
0
210
0
220
0
230
1
0
LINE
5
EA
100
AcDbEntity
8
SK2
62
256
6
ByLayer
370
18
48
1
60
0
100
AcDbLine
10
-39.975
20
-25
30
0
11
-39.975
21
25
31
0
39
0
210
0
220
0
230
1
0
LINE
5
EC
100
AcDbEntity
8
SK2
62
256
6
ByLayer
370
18
48
1
60
0
100
AcDbLine
10
-1.2875
20
25
30
0
11
-41.975
21
25
31
0
39
0
210
0
220
0
230
1
0
LINE
5
ED
100
AcDbEntity
8
SK2
62
256
6
ByLayer
370
18
48
1
60
0
100
AcDbLine
10
-1.2875
20
-25
30
0
11
-41.975
21
-25
31
0
39
0
210
0
220
0
230
1
0
LINE
5
EE
100
AcDbEntity
8
1
62
256
6
ByLayer
370
18
48
1
60
1
100
AcDbLine
10
-39.975
20
25
30
0
11
-39.514216
21
21.500002
31
0
39
0
210
0
220
0
230
1
0
LINE
5
EF
100
AcDbEntity
8
1
62
256
6
ByLayer
370
18
48
1
60
1
100
AcDbLine
10
-39.514216
20
21.500002
30
0
11
-40.435784
21
21.499998
31
0
39
0
210
0
220
0
230
1
0
LINE
5
F0
100
AcDbEntity
8
1
62
256
6
ByLayer
370
18
48
1
60
1
100
AcDbLine
10
-40.435784
20
21.499998
30
0
11
-39.975
21
25
31
0
39
0
210
0
220
0
230
1
0
LINE
5
F1
100
AcDbEntity
8
1
62
256
6
ByLayer
370
18
48
1
60
1
100
AcDbLine
10
-39.975
20
-25
30
0
11
-40.435784
21
-21.500002
31
0
39
0
210
0
220
0
230
1
0
LINE
5
F2
100
AcDbEntity
8
1
62
256
6
ByLayer
370
18
48
1
60
1
100
AcDbLine
10
-40.435784
20
-21.500002
30
0
11
-39.514216
21
-21.499998
31
0
39
0
210
0
220
0
230
1
0
LINE
5
F3
100
AcDbEntity
8
1
62
256
6
ByLayer
370
18
48
1
60
1
100
AcDbLine
10
-39.514216
20
-21.499998
30
0
11
-39.975
21
-25
31
0
39
0
210
0
220
0
230
1
0
LINE
5
155
100
AcDbEntity
8
1
62
256
6
ByLayer
370
18
48
1
60
1
100
AcDbLine
10
-39.975
20
25
30
0
11
-39.514216
21
21.500002
31
0
39
0
210
0
220
0
230
1
0
LINE
5
156
100
AcDbEntity
8
1
62
256
6
ByLayer
370
18
48
1
60
1
100
AcDbLine
10
-39.514216
20
21.500002
30
0
11
-40.435784
21
21.499998
31
0
39
0
210
0
220
0
230
1
0
LINE
5
157
100
AcDbEntity
8
1
62
256
6
ByLayer
370
18
48
1
60
1
100
AcDbLine
10
-40.435784
20
21.499998
30
0
11
-39.975
21
25
31
0
39
0
210
0
220
0
230
1
0
LINE
5
159
100
AcDbEntity
8
1
62
256
6
ByLayer
370
18
48
1
60
1
100
AcDbLine
10
-39.975
20
-25
30
0
11
-40.435784
21
-21.500002
31
0
39
0
210
0
220
0
230
1
0
LINE
5
15A
100
AcDbEntity
8
1
62
256
6
ByLayer
370
18
48
1
60
1
100
AcDbLine
10
-40.435784
20
-21.500002
30
0
11
-39.514216
21
-21.499998
31
0
39
0
210
0
220
0
230
1
0
LINE
5
15B
100
AcDbEntity
8
1
62
256
6
ByLayer
370
18
48
1
60
1
100
AcDbLine
10
-39.514216
20
-21.499998
30
0
11
-39.975
21
-25
31
0
39
0
210
0
220
0
230
1
0
MTEXT
5
151
100
AcDbEntity
8
SK2
62
256
6
ByLayer
370
18
48
1
60
0
100
AcDbMText
10
-41.539634
20
-4.530622
30
0
210
0
220
0
230
1
1
%%c
40
3.5
41
0
44
1.084337
50
90
71
7
72
5
7
iso_b_vert
0
MTEXT
5
154
100
AcDbEntity
8
SK2
62
256
6
ByLayer
370
18
48
1
60
0
100
AcDbMText
10
-41.539634
20
2.442034
30
0
210
0
220
0
230
1
1
\W0.6740;50
40
3.5
41
0
44
1.084337
50
90
71
7
72
5
7
iso_b_vert
0
MTEXT
5
15D
100
AcDbEntity
8
SK6
62
256
6
ByLayer
370
18
48
1
60
0
100
AcDbMText
10
-14.8145
20
-43.827687
30
0
210
0
220
0
230
1
1
\W0.7588;C2A-CC5-RFK18B-040CB
40
3.5
41
0
44
1.084337
50
0
71
7
72
5
7
iso_b_vert
0
HATCH
5
158
100
AcDbEntity
8
SK2
62
256
6
ByLayer
370
13
48
1
60
0
100
AcDbHatch
10
0
20
0
30
0
210
0
220
0
230
1
2
ANSI31
70
0
71
0
91
1
92
5
93
3
72
1
10
-39.9750000000001
20
25
11
-39.5142162584473
21
21.5000016925532
72
1
10
-39.5142162584473
20
21.5000016925532
11
-40.4357837415529
21
21.4999983074468
72
1
10
-40.4357837415529
20
21.4999983074468
11
-39.9750000000001
21
25
97
0
75
0
76
1
52
0
41
0.0062
77
0
78
1
53
45
43
0
44
0
45
-0.0139193969876572
46
0.0139193969876572
79
0
47
0
98
1
10
0
20
0
0
HATCH
5
15C
100
AcDbEntity
8
SK2
62
256
6
ByLayer
370
13
48
1
60
0
100
AcDbHatch
10
0
20
0
30
0
210
0
220
0
230
1
2
ANSI31
70
0
71
0
91
1
92
5
93
3
72
1
10
-39.9750000000001
20
-25
11
-40.4357837415529
21
-21.5000016925532
72
1
10
-40.4357837415529
20
-21.5000016925532
11
-39.5142162584473
21
-21.4999983074468
72
1
10
-39.5142162584473
20
-21.4999983074468
11
-39.9750000000001
21
-25
97
0
75
0
76
1
52
0
41
0.0062
77
0
78
1
53
45
43
0
44
0
45
-0.0139193969876572
46
0.0139193969876572
79
0
47
0
98
1
10
0
20
0
0
DIMENSION
5
160
100
AcDbEntity
8
2
62
256
6
ByLayer
370
18
48
1
60
0
100
AcDbDimension
2
_U0
10
96.1
20
0
30
0
11
96.1
21
16.5
31
0
70
32
71
1
72
1
41
1
210
0
220
0
230
1
3
Standard
100
AcDbAlignedDimension
13
65
23
33
33
0
14
0
24
0
34
0
50
90
100
AcDbRotatedDimension
1001
ACAD
1000
DSTYLE
1002
{
1070
   371
1070
    13
1070
   372
1070
    13
1070
   170
1070
     0
1070
   144
1040
1.0
1070
   277
1070
     2
1070
   284
1070
     8
1070
   278
1070
    46
1070
   146
1040
1.0
1070
   345
1005
16
1070
   347
1005
16
1070
   346
1005
16
1070
   344
1005
0
1070
   343
1005
0
1070
   172
1070
     1
1070
    76
1070
     0
1070
    75
1070
     0
1070
   282
1070
     0
1070
   281
1070
     0
1070
    71
1070
     0
1070
    74
1070
     0
1070
   279
1070
     0
1070
   173
1070
     1
1070
   340
1005
152
1070
   271
1070
     1
1070
   272
1070
     2
1070
    77
1070
     1
1070
    73
1070
     0
1070
   171
1070
     3
1070
   274
1070
     4
1070
   177
1070
     2
1070
   176
1070
     2
1070
   178
1070
     2
1070
    78
1070
     8
1070
    48
1040
-0.1
1070
    41
1040
3.5
1070
   147
1040
1.75
1070
    42
1040
1.5875
1070
    44
1040
2.0
1070
   140
1040
3.5
1002
}
1001
ACAD_DSTYLE_DIM_LINETYPE
1070
   380
1005
16
1001
ACAD_DSTYLE_DIM_EXT1_LINETYPE
1070
   381
1005
16
1001
ACAD_DSTYLE_DIM_EXT2_LINETYPE
1070
   382
1005
16
0
DIMENSION
5
17A
100
AcDbEntity
8
2
62
256
6
ByLayer
370
18
48
1
60
0
100
AcDbDimension
2
_U1
10
85.1
20
33
30
0
11
85.1
21
30
31
0
70
32
71
1
72
1
41
1
210
0
220
0
230
1
3
Standard
100
AcDbAlignedDimension
13
65
23
27
33
0
14
65
24
33
34
0
50
90
100
AcDbRotatedDimension
1001
ACAD
1000
DSTYLE
1002
{
1070
   371
1070
    13
1070
   372
1070
    13
1070
   170
1070
     0
1070
   144
1040
1.0
1070
   277
1070
     2
1070
   284
1070
     8
1070
   278
1070
    46
1070
   146
1040
1.0
1070
   345
1005
16
1070
   347
1005
16
1070
   346
1005
16
1070
   344
1005
0
1070
   343
1005
0
1070
   172
1070
     1
1070
    76
1070
     0
1070
    75
1070
     0
1070
   282
1070
     0
1070
   281
1070
     0
1070
    71
1070
     0
1070
    74
1070
     0
1070
   279
1070
     0
1070
   173
1070
     1
1070
   340
1005
152
1070
   271
1070
     1
1070
   272
1070
     2
1070
    77
1070
     1
1070
    73
1070
     0
1070
   171
1070
     3
1070
   274
1070
     4
1070
   177
1070
     2
1070
   176
1070
     2
1070
   178
1070
     2
1070
    78
1070
     8
1070
    48
1040
-0.1
1070
    41
1040
3.5
1070
   147
1040
1.75
1070
    42
1040
1.5875
1070
    44
1040
2.0
1070
   140
1040
3.5
1002
}
1001
ACAD_DSTYLE_DIM_LINETYPE
1070
   380
1005
16
1001
ACAD_DSTYLE_DIM_EXT1_LINETYPE
1070
   381
1005
16
1001
ACAD_DSTYLE_DIM_EXT2_LINETYPE
1070
   382
1005
16
0
DIMENSION
5
193
100
AcDbEntity
8
2
62
256
6
ByLayer
370
18
48
1
60
0
100
AcDbDimension
2
_U2
10
65
20
-24.423172
30
0
11
56
21
-24.423172
31
0
70
32
71
1
72
1
41
1
210
0
220
0
230
1
3
Standard
100
AcDbAlignedDimension
13
47
23
27.326828
33
0
14
65
24
27
34
0
50
0
100
AcDbRotatedDimension
1001
ACAD
1000
DSTYLE
1002
{
1070
   371
1070
    13
1070
   372
1070
    13
1070
   170
1070
     0
1070
   144
1040
1.0
1070
   277
1070
     2
1070
   284
1070
     8
1070
   278
1070
    46
1070
   146
1040
1.0
1070
   345
1005
16
1070
   347
1005
16
1070
   346
1005
16
1070
   344
1005
0
1070
   343
1005
0
1070
   172
1070
     1
1070
    76
1070
     0
1070
    75
1070
     0
1070
   282
1070
     0
1070
   281
1070
     0
1070
    71
1070
     0
1070
    74
1070
     0
1070
   279
1070
     0
1070
   173
1070
     1
1070
   340
1005
152
1070
   271
1070
     1
1070
   272
1070
     2
1070
    77
1070
     1
1070
    73
1070
     1
1070
   171
1070
     3
1070
   274
1070
     4
1070
   177
1070
     2
1070
   176
1070
     2
1070
   178
1070
     2
1070
    78
1070
     8
1070
    48
1040
-0.1
1070
    41
1040
3.5
1070
   147
1040
1.75
1070
    42
1040
1.5875
1070
    44
1040
2.0
1070
   140
1040
3.5
1002
}
1001
ACAD_DSTYLE_DIM_LINETYPE
1070
   380
1005
16
1001
ACAD_DSTYLE_DIM_EXT1_LINETYPE
1070
   381
1005
16
1001
ACAD_DSTYLE_DIM_EXT2_LINETYPE
1070
   382
1005
16
0
DIMENSION
5
1AB
100
AcDbEntity
8
2
62
256
6
ByLayer
370
18
48
1
60
0
100
AcDbDimension
2
_U3
10
65
20
47.25
30
0
11
32.5
21
47.25
31
0
70
32
71
1
72
1
41
1
210
0
220
0
230
1
3
Standard
100
AcDbAlignedDimension
13
0
23
0
33
0
14
65
24
33
34
0
50
0
100
AcDbRotatedDimension
1001
ACAD
1000
DSTYLE
1002
{
1070
   371
1070
    13
1070
   372
1070
    13
1070
   170
1070
     0
1070
   144
1040
1.0
1070
   277
1070
     2
1070
   284
1070
     8
1070
   278
1070
    46
1070
   146
1040
1.0
1070
   345
1005
16
1070
   347
1005
16
1070
   346
1005
16
1070
   344
1005
0
1070
   343
1005
0
1070
   172
1070
     1
1070
    76
1070
     0
1070
    75
1070
     0
1070
   282
1070
     0
1070
   281
1070
     0
1070
    71
1070
     0
1070
    74
1070
     0
1070
   279
1070
     0
1070
   173
1070
     1
1070
   340
1005
152
1070
   271
1070
     1
1070
   272
1070
     2
1070
    77
1070
     1
1070
    73
1070
     1
1070
   171
1070
     3
1070
   274
1070
     4
1070
   177
1070
     2
1070
   176
1070
     2
1070
   178
1070
     2
1070
    78
1070
     8
1070
    48
1040
-0.1
1070
    41
1040
3.5
1070
   147
1040
1.75
1070
    42
1040
1.5875
1070
    44
1040
2.0
1070
   140
1040
3.5
1002
}
1001
ACAD_DSTYLE_DIM_LINETYPE
1070
   380
1005
16
1001
ACAD_DSTYLE_DIM_EXT1_LINETYPE
1070
   381
1005
16
1001
ACAD_DSTYLE_DIM_EXT2_LINETYPE
1070
   382
1005
16
0
ENDSEC
0
SECTION
2
OBJECTS
0
DICTIONARY
5
232
330
0
100
AcDbDictionary
280
0
281
1
3
ACAD_GROUP
350
233
3
ACAD_MLINESTYLE
350
234
0
DICTIONARY
5
233
330
0
100
AcDbDictionary
280
0
281
1
0
DICTIONARY
5
234
330
0
100
AcDbDictionary
280
0
281
1
3
Standard
350
18
0
MLINESTYLE
5
18
330
234
100
AcDbMlineStyle
2
Standard
70
0
3

62
256
51
90
52
90
71
2
49
-0.5
62
256
6
ByLayer
49
0.5
62
256
6
ByLayer
0
RASTERVARIABLES
5
221
330

100
AcDbRasterVariables
90
0
70
1
71
1
72
1
0
ENDSEC
0
EOF
