0
SECTION
2
HEADER
9
$ACADVER
1
AC1015
9
$DWGCODEPAGE
3
ANSI_1252
9
$HANDSEED
5
23c
9
$ANGBASE
50
0
9
$ANGDIR
70
0
9
$ATTMODE
70
1
9
$AUNITS
70
0
9
$AUPREC
70
0
9
$CECOLOR
62
256
9
$CELTSCALE
40
1
9
$CELTYPE
6
ByLayer
9
$CELWEIGHT
370
18
9
$CLAYER
8
0
9
$CMLJUST
70
0
9
$CMLSCALE
40
1
9
$CMLSTYLE
2
Standard
9
$DIMSTYLE
2
Standard
9
$TEXTSIZE
40
0.2
9
$TEXTSTYLE
7
Standard
9
$LUNITS
70
2
9
$LUPREC
70
4
9
$EXTNAMES
290
1
9
$INSUNITS
70
4
9
$LTSCALE
40
1
9
$LWDISPLAY
290
1
9
$PDMODE
70
0
9
$PDSIZE
40
0
9
$PLINEGEN
70
0
0
ENDSEC
0
SECTION
2
CLASSES
0
CLASS
1
RASTERVARIABLES
2
AcDbRasterVariables
3
ISM
90
0
280
0
281
0
0
ENDSEC
0
SECTION
2
TABLES
0
TABLE
2
VPORT
5
232
100
AcDbSymbolTable
0
VPORT
5
1
100
AcDbSymbolTableRecord
100
AcDbViewportTableRecord
2
*Active
70
0
10
0
20
0
11
1
21
1
12
-1
22
1
13
0
23
0
14
0.5
24
0.5
15
10
25
10
16
0
26
0
36
1
17
0
27
0
37
0
0
ENDTAB
0
TABLE
2
LTYPE
5
233
100
AcDbSymbolTable
0
LTYPE
5
14
100
AcDbSymbolTableRecord
100
AcDbLinetypeTableRecord
70
0
2
ByBlock
3

72
65
73
0
40
0
0
LTYPE
5
15
100
AcDbSymbolTableRecord
100
AcDbLinetypeTableRecord
70
0
2
ByLayer
3

72
65
73
0
40
0
0
LTYPE
5
16
100
AcDbSymbolTableRecord
100
AcDbLinetypeTableRecord
70
0
2
Continuous
3
Solid line
72
65
73
0
40
0
0
LTYPE
5
6E
100
AcDbSymbolTableRecord
100
AcDbLinetypeTableRecord
70
0
2
CENTER
3
____ _ ____ _ ____ _ ____
72
65
73
4
40
47.5
49
22
74
0
49
-8.5
74
0
49
8.5
74
0
49
-8.5
74
0
0
LTYPE
5
6F
100
AcDbSymbolTableRecord
100
AcDbLinetypeTableRecord
70
0
2
DASHED
3
__ __ __ __ __ __ __ __ __
72
65
73
2
40
25.72
49
12.86
74
0
49
-12.86
74
0
0
ENDTAB
0
TABLE
2
LAYER
5
234
100
AcDbSymbolTable
0
LAYER
5
10
100
AcDbSymbolTableRecord
100
AcDbLayerTableRecord
2
0
70
0
62
7
6
Continuous
290
1
370
-3
390
0
0
LAYER
5
71
100
AcDbSymbolTableRecord
100
AcDbLayerTableRecord
2
81
70
0
62
-3
6
Continuous
290
1
370
-3
390
0
0
LAYER
5
73
100
AcDbSymbolTableRecord
100
AcDbLayerTableRecord
2
80
70
0
62
-6
6
Continuous
290
1
370
-3
390
0
0
LAYER
5
75
100
AcDbSymbolTableRecord
100
AcDbLayerTableRecord
2
1
70
0
62
4
6
Continuous
290
1
370
-3
390
0
0
LAYER
5
160
100
AcDbSymbolTableRecord
100
AcDbLayerTableRecord
2
Defpoints
70
0
62
7
6
Continuous
290
0
370
-3
390
0
0
LAYER
5
16D
100
AcDbSymbolTableRecord
100
AcDbLayerTableRecord
2
2
70
0
62
7
6
Continuous
290
1
370
-3
390
0
0
LAYER
5
21f
100
AcDbSymbolTableRecord
100
AcDbLayerTableRecord
2
SK1
70
0
62
4
6
Continuous
290
1
370
-3
390
0
0
LAYER
5
220
100
AcDbSymbolTableRecord
100
AcDbLayerTableRecord
2
SK2
70
0
62
7
6
Continuous
290
1
370
-3
390
0
0
LAYER
5
221
100
AcDbSymbolTableRecord
100
AcDbLayerTableRecord
2
SK6
70
0
62
5
6
Continuous
290
1
370
-3
390
0
0
ENDTAB
0
TABLE
2
STYLE
5
235
100
AcDbSymbolTable
0
STYLE
5
11
100
AcDbSymbolTableRecord
100
AcDbTextStyleTableRecord
2
Standard
3
txt
70
0
71
0
40
0
41
1
42
0
50
0
0
STYLE
5
14F
100
AcDbSymbolTableRecord
100
AcDbTextStyleTableRecord
2
iso_b_vert
3
simplex.shx
70
0
71
0
40
0
41
1
42
0
50
0
0
STYLE
5
150
100
AcDbSymbolTableRecord
100
AcDbTextStyleTableRecord
2
DWGDirectTextStyle
3
simplex
70
0
71
0
40
0
41
1
42
0
50
0
0
ENDTAB
0
TABLE
2
DIMSTYLE
5
236
100
AcDbSymbolTable
100
AcDbDimStyleTable
0
DIMSTYLE
105
27
100
AcDbSymbolTableRecord
100
AcDbDimStyleTableRecord
2
Standard
70
0
3
<>
41
0.18
42
0.0625
44
0.18
140
0.18
147
0.09
73
0
74
0
77
1
271
2
275
0
278
52
280
0
340
11
0
ENDTAB
0
TABLE
2
VIEW
5
237
100
AcDbSymbolTable
0
ENDTAB
0
TABLE
2
UCS
5
238
100
AcDbSymbolTable
0
ENDTAB
0
TABLE
2
APPID
5
239
100
AcDbSymbolTable
0
APPID
5
12
100
AcDbSymbolTableRecord
100
AcDbRegAppTableRecord
2
ACAD
70
0
0
APPID
5
15C
100
AcDbSymbolTableRecord
100
AcDbRegAppTableRecord
2
ACAD_DSTYLE_DIMBREAK
70
0
0
APPID
5
1DE
100
AcDbSymbolTableRecord
100
AcDbRegAppTableRecord
2
ACAD_DSTYLE_DIM_LINETYPE
70
0
0
APPID
5
1DF
100
AcDbSymbolTableRecord
100
AcDbRegAppTableRecord
2
ACAD_DSTYLE_DIM_EXT1_LINETYPE
70
0
0
APPID
5
1E0
100
AcDbSymbolTableRecord
100
AcDbRegAppTableRecord
2
ACAD_DSTYLE_DIM_EXT2_LINETYPE
70
0
0
APPID
5
21B
100
AcDbSymbolTableRecord
100
AcDbRegAppTableRecord
2
ACAD_MLEADERVER
70
0
0
ENDTAB
0
TABLE
2
BLOCK_RECORD
5
23a
100
AcDbSymbolTable
0
BLOCK_RECORD
5
1F
100
AcDbSymbolTableRecord
100
AcDbBlockTableRecord
2
*Model_Space
340
0
70
0
0
BLOCK_RECORD
5
1B
100
AcDbSymbolTableRecord
100
AcDbBlockTableRecord
2
*Paper_Space
340
0
70
0
0
BLOCK_RECORD
5
23
100
AcDbSymbolTableRecord
100
AcDbBlockTableRecord
2
*Paper_Space0
340
0
70
0
0
BLOCK_RECORD
5
161
100
AcDbSymbolTableRecord
100
AcDbBlockTableRecord
2
*D1
340
0
70
0
0
BLOCK_RECORD
5
16E
100
AcDbSymbolTableRecord
100
AcDbBlockTableRecord
2
_U0
340
0
70
0
0
BLOCK_RECORD
5
17A
100
AcDbSymbolTableRecord
100
AcDbBlockTableRecord
2
*D3
340
0
70
0
0
BLOCK_RECORD
5
187
100
AcDbSymbolTableRecord
100
AcDbBlockTableRecord
2
_U1
340
0
70
0
0
BLOCK_RECORD
5
193
100
AcDbSymbolTableRecord
100
AcDbBlockTableRecord
2
*D5
340
0
70
0
0
BLOCK_RECORD
5
19F
100
AcDbSymbolTableRecord
100
AcDbBlockTableRecord
2
_U2
340
0
70
0
0
BLOCK_RECORD
5
1AB
100
AcDbSymbolTableRecord
100
AcDbBlockTableRecord
2
*D7
340
0
70
0
0
BLOCK_RECORD
5
1B7
100
AcDbSymbolTableRecord
100
AcDbBlockTableRecord
2
_U3
340
0
70
0
0
ENDTAB
0
ENDSEC
0
SECTION
2
BLOCKS
0
BLOCK
5
20
100
AcDbEntity
8
0
100
AcDbBlockBegin
2
*Model_Space
70
0
10
0
20
0
30
0
3
*Model_Space
0
ENDBLK
5
21
100
AcDbEntity
8
0
100
AcDbBlockEnd
0
BLOCK
5
1C
100
AcDbEntity
8
0
100
AcDbBlockBegin
2
*Paper_Space
70
0
10
0
20
0
30
0
3
*Paper_Space
0
ENDBLK
5
1D
100
AcDbEntity
8
0
100
AcDbBlockEnd
0
BLOCK
5
24
100
AcDbEntity
8
0
100
AcDbBlockBegin
2
*Paper_Space0
70
0
10
0
20
0
30
0
3
*Paper_Space0
0
ENDBLK
5
25
100
AcDbEntity
8
0
100
AcDbBlockEnd
0
BLOCK
5
162
100
AcDbEntity
8
0
100
AcDbBlockBegin
2
*D1
70
1
10
0
20
0
30
0
3
*D1
0
LINE
5
164
100
AcDbEntity
8
0
62
256
6
ByLayer
370
-2
48
1
60
0
100
AcDbLine
10
66.5875
20
-33
30
0
11
98.1
21
-33
31
0
39
0
210
0
220
0
230
1
0
LINE
5
165
100
AcDbEntity
8
0
62
256
6
ByLayer
370
-2
48
1
60
0
100
AcDbLine
10
1.5875
20
0
30
0
11
98.1
21
0
31
0
39
0
210
0
220
0
230
1
0
LINE
5
166
100
AcDbEntity
8
0
62
256
6
ByLayer
370
-2
48
1
60
0
100
AcDbLine
10
96.1
20
-29.5
30
0
11
96.1
21
-3.5
31
0
39
0
210
0
220
0
230
1
0
SOLID
5
167
100
AcDbEntity
8
0
62
256
6
ByLayer
370
-1
48
1
60
0
100
AcDbTrace
10
95.516667
20
-29.5
30
0
11
96.683333
21
-29.5
31
0
12
96.1
22
-33
32
0
13
96.1
23
-33
33
0
39
0
210
0
220
0
230
1
0
SOLID
5
168
100
AcDbEntity
8
0
62
256
6
ByLayer
370
-1
48
1
60
0
100
AcDbTrace
10
96.683333
20
-3.5
30
0
11
95.516667
21
-3.5
31
0
12
96.1
22
0
32
0
13
96.1
23
0
33
0
39
0
210
0
220
0
230
1
0
MTEXT
5
169
100
AcDbEntity
8
0
62
256
6
ByLayer
370
18
48
1
60
0
100
AcDbMText
10
89.1
20
-16.5
30
0
210
0
220
0
230
1
1
\A1;33
40
3.5
41
0
44
1
50
90
71
5
72
5
7
iso_b_vert
0
POINT
5
16A
100
AcDbEntity
8
Defpoints
62
0
6
ByLayer
370
-1
48
1
60
0
100
AcDbPoint
10
65
20
-33
30
0
39
0
210
0
220
0
230
1
50
360
0
POINT
5
16B
100
AcDbEntity
8
Defpoints
62
0
6
ByLayer
370
-1
48
1
60
0
100
AcDbPoint
10
0
20
0
30
0
39
0
210
0
220
0
230
1
50
360
0
POINT
5
16C
100
AcDbEntity
8
Defpoints
62
0
6
ByLayer
370
-1
48
1
60
0
100
AcDbPoint
10
96.1
20
0
30
0
39
0
210
0
220
0
230
1
50
360
0
ENDBLK
5
163
100
AcDbEntity
8
0
100
AcDbBlockEnd
0
BLOCK
5
175
100
AcDbEntity
8
0
100
AcDbBlockBegin
2
_U0
70
0
10
0
20
0
30
0
3
_U0
0
MTEXT
5
16F
100
AcDbEntity
8
2
62
256
6
ByLayer
370
18
48
1
60
0
100
AcDbMText
10
95.410366
20
-18.432966
30
0
210
0
220
0
230
1
1
\W0.6740;33
40
3.5
41
0
44
1.084337
50
90
71
7
72
5
7
iso_b_vert
0
LINE
5
170
100
AcDbEntity
8
2
62
256
6
ByLayer
370
13
48
1
60
0
100
AcDbLine
10
66.5875
20
-33
30
0
11
98.1
21
-33
31
0
39
0
210
0
220
0
230
1
0
LINE
5
171
100
AcDbEntity
8
2
62
256
6
ByLayer
370
13
48
1
60
0
100
AcDbLine
10
1.5875
20
0
30
0
11
98.1
21
0
31
0
39
0
210
0
220
0
230
1
0
LINE
5
172
100
AcDbEntity
8
2
62
256
6
ByLayer
370
13
48
1
60
0
100
AcDbLine
10
96.1
20
-33
30
0
11
96.1
21
0
31
0
39
0
210
0
220
0
230
1
0
SOLID
5
173
100
AcDbEntity
8
2
62
256
6
ByLayer
370
18
48
1
60
0
100
AcDbTrace
10
96.1
20
-33
30
0
11
95.639216
21
-29.500002
31
0
12
96.560784
22
-29.499998
32
0
13
96.560784
23
-29.499998
33
0
39
0
210
0
220
0
230
1
0
SOLID
5
174
100
AcDbEntity
8
2
62
256
6
ByLayer
370
18
48
1
60
0
100
AcDbTrace
10
96.1
20
0
30
0
11
96.560784
21
-3.499998
31
0
12
95.639216
22
-3.500002
32
0
13
95.639216
23
-3.500002
33
0
39
0
210
0
220
0
230
1
0
ENDBLK
5
176
100
AcDbEntity
8
0
100
AcDbBlockEnd
0
BLOCK
5
17B
100
AcDbEntity
8
0
100
AcDbBlockBegin
2
*D3
70
1
10
0
20
0
30
0
3
*D3
0
LINE
5
17D
100
AcDbEntity
8
0
62
256
6
ByLayer
370
-2
48
1
60
0
100
AcDbLine
10
66.5875
20
-27
30
0
11
87.1
21
-27
31
0
39
0
210
0
220
0
230
1
0
LINE
5
17E
100
AcDbEntity
8
0
62
256
6
ByLayer
370
-2
48
1
60
0
100
AcDbLine
10
66.5875
20
-33
30
0
11
87.1
21
-33
31
0
39
0
210
0
220
0
230
1
0
LINE
5
17F
100
AcDbEntity
8
0
62
256
6
ByLayer
370
-2
48
1
60
0
100
AcDbLine
10
85.1
20
-23.5
30
0
11
85.1
21
-20
31
0
39
0
210
0
220
0
230
1
0
LINE
5
180
100
AcDbEntity
8
0
62
256
6
ByLayer
370
-2
48
1
60
0
100
AcDbLine
10
85.1
20
-36.5
30
0
11
85.1
21
-40
31
0
39
0
210
0
220
0
230
1
0
SOLID
5
181
100
AcDbEntity
8
0
62
256
6
ByLayer
370
-1
48
1
60
0
100
AcDbTrace
10
84.516667
20
-23.5
30
0
11
85.683333
21
-23.5
31
0
12
85.1
22
-27
32
0
13
85.1
23
-27
33
0
39
0
210
0
220
0
230
1
0
SOLID
5
182
100
AcDbEntity
8
0
62
256
6
ByLayer
370
-1
48
1
60
0
100
AcDbTrace
10
85.683333
20
-36.5
30
0
11
84.516667
21
-36.5
31
0
12
85.1
22
-33
32
0
13
85.1
23
-33
33
0
39
0
210
0
220
0
230
1
0
MTEXT
5
183
100
AcDbEntity
8
0
62
256
6
ByLayer
370
18
48
1
60
0
100
AcDbMText
10
78.1
20
-30
30
0
210
0
220
0
230
1
1
\A1;6
40
3.5
41
0
44
1
50
90
71
5
72
5
7
iso_b_vert
0
POINT
5
184
100
AcDbEntity
8
Defpoints
62
0
6
ByLayer
370
-1
48
1
60
0
100
AcDbPoint
10
65
20
-27
30
0
39
0
210
0
220
0
230
1
50
360
0
POINT
5
185
100
AcDbEntity
8
Defpoints
62
0
6
ByLayer
370
-1
48
1
60
0
100
AcDbPoint
10
65
20
-33
30
0
39
0
210
0
220
0
230
1
50
360
0
POINT
5
186
100
AcDbEntity
8
Defpoints
62
0
6
ByLayer
370
-1
48
1
60
0
100
AcDbPoint
10
85.1
20
-33
30
0
39
0
210
0
220
0
230
1
50
360
0
ENDBLK
5
17C
100
AcDbEntity
8
0
100
AcDbBlockEnd
0
BLOCK
5
18E
100
AcDbEntity
8
0
100
AcDbBlockBegin
2
_U1
70
0
10
0
20
0
30
0
3
_U1
0
MTEXT
5
188
100
AcDbEntity
8
2
62
256
6
ByLayer
370
18
48
1
60
0
100
AcDbMText
10
84.410366
20
-30.625233
30
0
210
0
220
0
230
1
1
\W0.5404;6
40
3.5
41
0
44
1.084337
50
90
71
7
72
5
7
iso_b_vert
0
LINE
5
189
100
AcDbEntity
8
2
62
256
6
ByLayer
370
13
48
1
60
0
100
AcDbLine
10
66.5875
20
-27
30
0
11
87.1
21
-27
31
0
39
0
210
0
220
0
230
1
0
LINE
5
18A
100
AcDbEntity
8
2
62
256
6
ByLayer
370
13
48
1
60
0
100
AcDbLine
10
66.5875
20
-33
30
0
11
87.1
21
-33
31
0
39
0
210
0
220
0
230
1
0
LINE
5
18B
100
AcDbEntity
8
2
62
256
6
ByLayer
370
13
48
1
60
0
100
AcDbLine
10
85.1
20
-18.25
30
0
11
85.1
21
-41.75
31
0
39
0
210
0
220
0
230
1
0
SOLID
5
18C
100
AcDbEntity
8
2
62
256
6
ByLayer
370
18
48
1
60
0
100
AcDbTrace
10
85.1
20
-27
30
0
11
84.639216
21
-23.500002
31
0
12
85.560784
22
-23.499998
32
0
13
85.560784
23
-23.499998
33
0
39
0
210
0
220
0
230
1
0
SOLID
5
18D
100
AcDbEntity
8
2
62
256
6
ByLayer
370
18
48
1
60
0
100
AcDbTrace
10
85.1
20
-33
30
0
11
85.560784
21
-36.499998
31
0
12
84.639216
22
-36.500002
32
0
13
84.639216
23
-36.500002
33
0
39
0
210
0
220
0
230
1
0
ENDBLK
5
18F
100
AcDbEntity
8
0
100
AcDbBlockEnd
0
BLOCK
5
194
100
AcDbEntity
8
0
100
AcDbBlockBegin
2
*D5
70
1
10
0
20
0
30
0
3
*D5
0
LINE
5
196
100
AcDbEntity
8
0
62
256
6
ByLayer
370
-2
48
1
60
0
100
AcDbLine
10
47
20
-25.7375
30
0
11
47
21
22.925
31
0
39
0
210
0
220
0
230
1
0
LINE
5
197
100
AcDbEntity
8
0
62
256
6
ByLayer
370
-2
48
1
60
0
100
AcDbLine
10
65
20
-25.4125
30
0
11
65
21
22.925
31
0
39
0
210
0
220
0
230
1
0
LINE
5
198
100
AcDbEntity
8
0
62
256
6
ByLayer
370
-2
48
1
60
0
100
AcDbLine
10
50.5
20
20.925
30
0
11
61.5
21
20.925
31
0
39
0
210
0
220
0
230
1
0
SOLID
5
199
100
AcDbEntity
8
0
62
256
6
ByLayer
370
-1
48
1
60
0
100
AcDbTrace
10
50.5
20
21.508333
30
0
11
50.5
21
20.341667
31
0
12
47
22
20.925
32
0
13
47
23
20.925
33
0
39
0
210
0
220
0
230
1
0
SOLID
5
19A
100
AcDbEntity
8
0
62
256
6
ByLayer
370
-1
48
1
60
0
100
AcDbTrace
10
61.5
20
20.341667
30
0
11
61.5
21
21.508333
31
0
12
65
22
20.925
32
0
13
65
23
20.925
33
0
39
0
210
0
220
0
230
1
0
MTEXT
5
19B
100
AcDbEntity
8
0
62
256
6
ByLayer
370
18
48
1
60
0
100
AcDbMText
10
56
20
27.925
30
0
210
0
220
0
230
1
1
\A1;18
40
3.5
41
0
44
1
50
0
71
5
72
5
7
iso_b_vert
0
POINT
5
19C
100
AcDbEntity
8
Defpoints
62
0
6
ByLayer
370
-1
48
1
60
0
100
AcDbPoint
10
47
20
-27.325
30
0
39
0
210
0
220
0
230
1
50
360
0
POINT
5
19D
100
AcDbEntity
8
Defpoints
62
0
6
ByLayer
370
-1
48
1
60
0
100
AcDbPoint
10
65
20
-27
30
0
39
0
210
0
220
0
230
1
50
360
0
POINT
5
19E
100
AcDbEntity
8
Defpoints
62
0
6
ByLayer
370
-1
48
1
60
0
100
AcDbPoint
10
65
20
20.925
30
0
39
0
210
0
220
0
230
1
50
360
0
ENDBLK
5
195
100
AcDbEntity
8
0
100
AcDbBlockEnd
0
BLOCK
5
1A6
100
AcDbEntity
8
0
100
AcDbBlockBegin
2
_U2
70
0
10
0
20
0
30
0
3
_U2
0
MTEXT
5
1A0
100
AcDbEntity
8
2
62
256
6
ByLayer
370
18
48
1
60
0
100
AcDbMText
10
54.532467
20
21.957634
30
0
210
0
220
0
230
1
1
\W0.5321;18
40
3.5
41
0
44
1.084337
50
0
71
7
72
5
7
iso_b_vert
0
LINE
5
1A1
100
AcDbEntity
8
2
62
256
6
ByLayer
370
13
48
1
60
0
100
AcDbLine
10
47
20
-25.7375
30
0
11
47
21
22.925
31
0
39
0
210
0
220
0
230
1
0
LINE
5
1A2
100
AcDbEntity
8
2
62
256
6
ByLayer
370
13
48
1
60
0
100
AcDbLine
10
65
20
-25.4125
30
0
11
65
21
22.925
31
0
39
0
210
0
220
0
230
1
0
LINE
5
1A3
100
AcDbEntity
8
2
62
256
6
ByLayer
370
13
48
1
60
0
100
AcDbLine
10
47
20
20.925
30
0
11
65
21
20.925
31
0
39
0
210
0
220
0
230
1
0
SOLID
5
1A4
100
AcDbEntity
8
2
62
256
6
ByLayer
370
18
48
1
60
0
100
AcDbTrace
10
47
20
20.925
30
0
11
50.499998
21
21.385784
31
0
12
50.500002
22
20.464216
32
0
13
50.500002
23
20.464216
33
0
39
0
210
0
220
0
230
1
0
SOLID
5
1A5
100
AcDbEntity
8
2
62
256
6
ByLayer
370
18
48
1
60
0
100
AcDbTrace
10
65
20
20.925
30
0
11
61.500002
21
20.464216
31
0
12
61.499998
22
21.385784
32
0
13
61.499998
23
21.385784
33
0
39
0
210
0
220
0
230
1
0
ENDBLK
5
1A7
100
AcDbEntity
8
0
100
AcDbBlockEnd
0
BLOCK
5
1AC
100
AcDbEntity
8
0
100
AcDbBlockBegin
2
*D7
70
1
10
0
20
0
30
0
3
*D7
0
LINE
5
1AE
100
AcDbEntity
8
0
62
256
6
ByLayer
370
-2
48
1
60
0
100
AcDbLine
10
0
20
-1.5875
30
0
11
0
21
-52.75
31
0
39
0
210
0
220
0
230
1
0
LINE
5
1AF
100
AcDbEntity
8
0
62
256
6
ByLayer
370
-2
48
1
60
0
100
AcDbLine
10
65
20
-34.5875
30
0
11
65
21
-52.75
31
0
39
0
210
0
220
0
230
1
0
LINE
5
1B0
100
AcDbEntity
8
0
62
256
6
ByLayer
370
-2
48
1
60
0
100
AcDbLine
10
3.5
20
-50.75
30
0
11
61.5
21
-50.75
31
0
39
0
210
0
220
0
230
1
0
SOLID
5
1B1
100
AcDbEntity
8
0
62
256
6
ByLayer
370
-1
48
1
60
0
100
AcDbTrace
10
3.5
20
-50.166667
30
0
11
3.5
21
-51.333333
31
0
12
0
22
-50.75
32
0
13
0
23
-50.75
33
0
39
0
210
0
220
0
230
1
0
SOLID
5
1B2
100
AcDbEntity
8
0
62
256
6
ByLayer
370
-1
48
1
60
0
100
AcDbTrace
10
61.5
20
-51.333333
30
0
11
61.5
21
-50.166667
31
0
12
65
22
-50.75
32
0
13
65
23
-50.75
33
0
39
0
210
0
220
0
230
1
0
MTEXT
5
1B3
100
AcDbEntity
8
0
62
256
6
ByLayer
370
18
48
1
60
0
100
AcDbMText
10
32.5
20
-43.75
30
0
210
0
220
0
230
1
1
\A1;65
40
3.5
41
0
44
1
50
0
71
5
72
5
7
iso_b_vert
0
POINT
5
1B4
100
AcDbEntity
8
Defpoints
62
0
6
ByLayer
370
-1
48
1
60
0
100
AcDbPoint
10
0
20
0
30
0
39
0
210
0
220
0
230
1
50
360
0
POINT
5
1B5
100
AcDbEntity
8
Defpoints
62
0
6
ByLayer
370
-1
48
1
60
0
100
AcDbPoint
10
65
20
-33
30
0
39
0
210
0
220
0
230
1
50
360
0
POINT
5
1B6
100
AcDbEntity
8
Defpoints
62
0
6
ByLayer
370
-1
48
1
60
0
100
AcDbPoint
10
65
20
-50.75
30
0
39
0
210
0
220
0
230
1
50
360
0
ENDBLK
5
1AD
100
AcDbEntity
8
0
100
AcDbBlockEnd
0
BLOCK
5
1BE
100
AcDbEntity
8
0
100
AcDbBlockBegin
2
_U3
70
0
10
0
20
0
30
0
3
_U3
0
MTEXT
5
1B8
100
AcDbEntity
8
2
62
256
6
ByLayer
370
18
48
1
60
0
100
AcDbMText
10
30.595034
20
-49.717366
30
0
210
0
220
0
230
1
1
\W0.6740;65
40
3.5
41
0
44
1.084337
50
0
71
7
72
5
7
iso_b_vert
0
LINE
5
1B9
100
AcDbEntity
8
2
62
256
6
ByLayer
370
13
48
1
60
0
100
AcDbLine
10
0
20
-1.5875
30
0
11
0
21
-52.75
31
0
39
0
210
0
220
0
230
1
0
LINE
5
1BA
100
AcDbEntity
8
2
62
256
6
ByLayer
370
13
48
1
60
0
100
AcDbLine
10
65
20
-34.5875
30
0
11
65
21
-52.75
31
0
39
0
210
0
220
0
230
1
0
LINE
5
1BB
100
AcDbEntity
8
2
62
256
6
ByLayer
370
13
48
1
60
0
100
AcDbLine
10
0
20
-50.75
30
0
11
65
21
-50.75
31
0
39
0
210
0
220
0
230
1
0
SOLID
5
1BC
100
AcDbEntity
8
2
62
256
6
ByLayer
370
18
48
1
60
0
100
AcDbTrace
10
0
20
-50.75
30
0
11
3.499998
21
-50.289216
31
0
12
3.500002
22
-51.210784
32
0
13
3.500002
23
-51.210784
33
0
39
0
210
0
220
0
230
1
0
SOLID
5
1BD
100
AcDbEntity
8
2
62
256
6
ByLayer
370
18
48
1
60
0
100
AcDbTrace
10
65
20
-50.75
30
0
11
61.500002
21
-51.210784
31
0
12
61.499998
22
-50.289216
32
0
13
61.499998
23
-50.289216
33
0
39
0
210
0
220
0
230
1
0
ENDBLK
5
1BF
100
AcDbEntity
8
0
100
AcDbBlockEnd
0
ENDSEC
0
SECTION
2
ENTITIES
0
ARC
5
F1
100
AcDbEntity
8
1
62
256
6
ByLayer
370
18
48
1
60
0
100
AcDbCircle
39
0
10
47
20
-25.725
30
0
40
1.6
210
0
220
0
230
1
100
AcDbArc
50
180
51
184.449102
0
ARC
5
F2
100
AcDbEntity
8
1
62
256
6
ByLayer
370
18
48
1
60
0
100
AcDbCircle
39
0
10
20.279208
20
-26.2
30
0
40
1.2
210
0
220
0
230
1
100
AcDbArc
50
60.713759
51
90
0
ARC
5
F3
100
AcDbEntity
8
SK1
62
256
6
ByLayer
370
18
48
1
60
0
100
AcDbCircle
39
0
10
-0.6
20
18.75
30
0
40
0.999999999999998
210
0
220
0
230
1
100
AcDbArc
50
293.578178
51
306.869898
0
ARC
5
F4
100
AcDbEntity
8
SK1
62
256
6
ByLayer
370
18
48
1
60
0
100
AcDbCircle
39
0
10
-0.6
20
-18.75
30
0
40
0.999999999999998
210
0
220
0
230
1
100
AcDbArc
50
53.130102
51
66.421822
0
ARC
5
F8
100
AcDbEntity
8
1
62
256
6
ByLayer
370
18
48
1
60
0
100
AcDbCircle
39
0
10
26.4
20
-26.15
30
0
40
1
210
0
220
0
230
1
100
AcDbArc
50
360
51
90
0
ARC
5
F9
100
AcDbEntity
8
1
62
256
6
ByLayer
370
18
48
1
60
0
100
AcDbCircle
39
0
10
40.4
20
-32.616874
30
0
40
0.4
210
0
220
0
230
1
100
AcDbArc
50
233.250877
51
273.332999
0
ARC
5
FA
100
AcDbEntity
8
1
62
256
6
ByLayer
370
18
48
1
60
0
100
AcDbCircle
39
0
10
64.6
20
-27.383126
30
0
40
0.4
210
0
220
0
230
1
100
AcDbArc
50
0
51
93.332999
0
ARC
5
FB
100
AcDbEntity
8
1
62
256
6
ByLayer
370
18
48
1
60
0
100
AcDbCircle
39
0
10
64.6
20
-32.616874
30
0
40
0.4
210
0
220
0
230
1
100
AcDbArc
50
266.667001
51
0
0
CIRCLE
5
F5
100
AcDbEntity
8
1
62
256
6
ByLayer
370
18
48
1
60
0
100
AcDbCircle
10
38.65
20
-19.1
30
0
40
2.55
39
0
210
0
220
0
230
1
0
CIRCLE
5
F6
100
AcDbEntity
8
1
62
256
6
ByLayer
370
18
48
1
60
0
100
AcDbCircle
10
38.65
20
-19.1
30
0
40
3.3
39
0
210
0
220
0
230
1
0
CIRCLE
5
F7
100
AcDbEntity
8
1
62
256
6
ByLayer
370
18
48
1
60
0
100
AcDbCircle
10
38.65
20
-19.1
30
0
40
5.75
39
0
210
0
220
0
230
1
0
ELLIPSE
5
FC
100
AcDbEntity
8
1
62
256
6
ByLayer
370
18
48
1
60
0
100
AcDbEllipse
10
70.192308
20
-227.2
30
0
11
1.19108275505075E-14
21
194.525000026827
31
0
210
0
220
0
230
1
40
0.692308
41
0.0518692266258982
42
0.120919748796183
0
ELLIPSE
5
FD
100
AcDbEntity
8
1
62
256
6
ByLayer
370
18
48
1
60
0
100
AcDbEllipse
10
55.430138
20
-30.039752
30
0
11
0.0334495523351562
21
0.999488059309127
31
0
210
0
220
0
230
1
40
0.962333
41
0
42
6.28318530717959
0
ELLIPSE
5
FE
100
AcDbEntity
8
1
62
256
6
ByLayer
370
18
48
1
60
0
100
AcDbEllipse
10
57.929864
20
-117.000001
30
0
11
5.49082877862712E-15
21
89.6750006479803
31
0
210
0
220
0
230
1
40
0.885973
41
0.0181771188539282
42
0.0557858300106
0
ELLIPSE
5
FF
100
AcDbEntity
8
1
62
256
6
ByLayer
370
18
48
1
60
0
100
AcDbEllipse
10
-1033.98429
20
-117.596834
30
0
11
6979.6419494658
21
15.7192057967758
31
0
210
0
220
0
230
1
40
0.012736
41
1.4138891310013
42
1.41526494257195
0
ELLIPSE
5
100
100
AcDbEntity
8
1
62
256
6
ByLayer
370
18
48
1
60
0
100
AcDbEllipse
10
57.929864
20
-227.200127
30
0
11
1.19108353334603E-14
21
194.525127136289
31
0
210
0
220
0
230
1
40
0.885972
41
0.00839907063013008
42
0.0257064598064067
0
ELLIPSE
5
101
100
AcDbEntity
8
1
62
256
6
ByLayer
370
18
48
1
60
0
100
AcDbEllipse
10
60.64074
20
-117
30
0
11
128.069172405883
21
1.50027319052516E-13
31
0
210
0
220
0
230
1
40
0.700208
41
1.62658215704936
42
1.67750946973869
0
ELLIPSE
5
102
100
AcDbEntity
8
1
62
256
6
ByLayer
370
18
48
1
60
0
100
AcDbEllipse
10
60.64074
20
-227.200013
30
0
11
277.810500323744
21
3.25442600941605E-13
31
0
210
0
220
0
230
1
40
0.700208
41
1.59650279414319
42
1.62274102876052
0
ELLIPSE
5
103
100
AcDbEntity
8
1
62
256
6
ByLayer
370
18
48
1
60
0
100
AcDbEllipse
10
46.149664
20
-27.325
30
0
11
-2.78951487299375
21
3.41605763755017E-16
31
0
210
0
220
0
230
1
40
0.573576
41
-1.298708010067
42
0
0
ELLIPSE
5
104
100
AcDbEntity
8
1
62
256
6
ByLayer
370
18
48
1
60
0
100
AcDbEllipse
10
24.065604
20
17.5
30
0
11
4.00000003493297
21
4.68582149925251E-15
31
0
210
0
220
0
230
1
40
1
41
-3.13286600736738
42
-3.06292784751485
0
ELLIPSE
5
105
100
AcDbEntity
8
1
62
256
6
ByLayer
370
18
48
1
60
0
100
AcDbEllipse
10
21.056258
20
0
30
0
11
11.7092723497276
21
24.6771864409377
31
0
210
0
220
0
230
1
40
0.341999
41
2.05975995310054
42
2.97437958168082
0
ELLIPSE
5
106
100
AcDbEntity
8
1
62
256
6
ByLayer
370
18
48
1
60
0
100
AcDbEllipse
10
-1.056258
20
0
30
0
11
11.7092723497271
21
-24.6771864409373
31
0
210
0
220
0
230
1
40
0.341999
41
0.167213071908987
42
1.08183270048928
0
ELLIPSE
5
107
100
AcDbEntity
8
1
62
256
6
ByLayer
370
18
48
1
60
0
100
AcDbEllipse
10
-1.056258
20
0
30
0
11
11.7092723497277
21
24.6771864409382
31
0
210
0
220
0
230
1
40
0.341999
41
-1.08183270048925
42
-0.167213071908983
0
ELLIPSE
5
108
100
AcDbEntity
8
1
62
256
6
ByLayer
370
18
48
1
60
0
100
AcDbEllipse
10
21.056258
20
0
30
0
11
11.7092723497277
21
-24.6771864409377
31
0
210
0
220
0
230
1
40
0.341999
41
-2.97437958168081
42
-2.05975995310053
0
ELLIPSE
5
109
100
AcDbEntity
8
1
62
256
6
ByLayer
370
18
48
1
60
0
100
AcDbEllipse
10
20.218172
20
0
30
0
11
1.53075794227785E-15
21
24.999999999998
31
0
210
0
220
0
230
1
40
0.008727
41
0.785398163397366
42
2.44370093476737
0
ELLIPSE
5
10A
100
AcDbEntity
8
1
62
256
6
ByLayer
370
18
48
1
60
0
100
AcDbEllipse
10
58.044631
20
-27.641251
30
0
11
0.43314758762564
21
5.07413065180035E-16
31
0
210
0
220
0
230
1
40
0.230868
41
3.14159265358979
42
-2.96704007732986
0
ELLIPSE
5
10B
100
AcDbEntity
8
1
62
256
6
ByLayer
370
18
48
1
60
0
100
AcDbEllipse
10
59.336487
20
-29.332701
30
0
11
0.433147587380486
21
5.07413064892848E-16
31
0
210
0
220
0
230
1
40
0.230868
41
-2.96705972839553
42
-2.47750918243523
0
ELLIPSE
5
10C
100
AcDbEntity
8
1
62
256
6
ByLayer
370
18
48
1
60
0
100
AcDbEllipse
10
59.336487
20
-30.667299
30
0
11
0.433147587380486
21
5.07413064892848E-16
31
0
210
0
220
0
230
1
40
0.230868
41
2.47750918243523
42
2.96705972839553
0
ELLIPSE
5
10D
100
AcDbEntity
8
1
62
256
6
ByLayer
370
18
48
1
60
0
100
AcDbEllipse
10
58.044631
20
-32.358749
30
0
11
0.433147587138691
21
5.07413064609595E-16
31
0
210
0
220
0
230
1
40
0.230868
41
2.96704007723132
42
3.14159265358979
0
POINT
5
70
100
AcDbEntity
8
81
62
256
6
ByLayer
370
18
48
1
60
0
100
AcDbPoint
10
65
20
-33
30
0
39
0
210
0
220
0
230
1
50
360
0
POINT
5
72
100
AcDbEntity
8
80
62
256
6
ByLayer
370
18
48
1
60
0
100
AcDbPoint
10
0
20
0
30
0
39
0
210
0
220
0
230
1
50
360
0
POINT
5
74
100
AcDbEntity
8
1
62
256
6
ByLayer
370
18
48
1
60
1
100
AcDbPoint
10
65
20
-33
30
0
39
0
210
0
220
0
230
1
50
360
0
POINT
5
76
100
AcDbEntity
8
1
62
256
6
ByLayer
370
18
48
1
60
1
100
AcDbPoint
10
0
20
0
30
0
39
0
210
0
220
0
230
1
50
360
0
POINT
5
77
100
AcDbEntity
8
1
62
256
6
ByLayer
370
18
48
1
60
1
100
AcDbPoint
10
65
20
-27
30
0
39
0
210
0
220
0
230
1
50
360
0
POINT
5
78
100
AcDbEntity
8
1
62
256
6
ByLayer
370
18
48
1
60
1
100
AcDbPoint
10
65
20
-33
30
0
39
0
210
0
220
0
230
1
50
360
0
POINT
5
79
100
AcDbEntity
8
1
62
256
6
ByLayer
370
18
48
1
60
1
100
AcDbPoint
10
47
20
-27.325
30
0
39
0
210
0
220
0
230
1
50
360
0
POINT
5
7A
100
AcDbEntity
8
1
62
256
6
ByLayer
370
18
48
1
60
1
100
AcDbPoint
10
65
20
-27
30
0
39
0
210
0
220
0
230
1
50
360
0
POINT
5
7B
100
AcDbEntity
8
1
62
256
6
ByLayer
370
18
48
1
60
1
100
AcDbPoint
10
0
20
0
30
0
39
0
210
0
220
0
230
1
50
360
0
POINT
5
7C
100
AcDbEntity
8
1
62
256
6
ByLayer
370
18
48
1
60
1
100
AcDbPoint
10
65
20
-33
30
0
39
0
210
0
220
0
230
1
50
360
0
SPLINE
5
10E
100
AcDbEntity
8
SK1
62
256
6
ByLayer
370
18
48
1
60
0
100
AcDbSpline
70
4
71
3
72
11
73
7
40
0
40
0
40
0
40
0
40
0.238912427191381
40
0.497455281052467
40
0.757410045821389
40
1
40
1
40
1
40
1
41
1
10
-0.394913799811292
20
-17.359780267379
30
0
41
1
10
-0.369683795840189
20
-17.3607068368228
30
0
41
1
10
-0.321113897423771
20
-17.3707504109673
30
0
41
1
10
-0.255179720944142
20
-17.4139496110851
30
0
41
1
10
-0.211248315226243
20
-17.4799022728818
30
0
41
1
10
-0.200957889270342
20
-17.5289140231062
30
0
41
1
10
-0.199999999999989
20
-17.5545583467655
30
0
0
SPLINE
5
10F
100
AcDbEntity
8
SK1
62
256
6
ByLayer
370
18
48
1
60
0
100
AcDbSpline
70
4
71
3
72
11
73
7
40
0
40
0
40
0
40
0
40
0.242589954254914
40
0.502544719057463
40
0.761087572886858
40
1
40
1
40
1
40
1
41
1
10
-0.199999999999989
20
17.5545582060014
30
0
41
1
10
-0.200957889268722
20
17.5289138828004
30
0
41
1
10
-0.211248315224566
20
17.4799021334559
30
0
41
1
10
-0.255179720936354
20
17.4139494728386
30
0
41
1
10
-0.321113897416438
20
17.3707502735068
30
0
41
1
10
-0.369683795838398
20
17.3607066995757
30
0
41
1
10
-0.394913799811292
20
17.3597801301672
30
0
0
SPLINE
5
110
100
AcDbEntity
8
SK1
62
256
6
ByLayer
370
18
48
1
60
0
100
AcDbSpline
70
4
71
2
72
6
73
3
40
0
40
0
40
0
40
1
40
1
40
1
41
1
10
-30
20
-15.9931873508859
30
0
41
1
10
-29.2499999297871
20
-16.4259984461422
30
0
41
1
10
-28.5
20
-16.8588088260863
30
0
0
SPLINE
5
111
100
AcDbEntity
8
SK1
62
256
6
ByLayer
370
18
48
1
60
0
100
AcDbSpline
70
4
71
2
72
6
73
3
40
0
40
0
40
0
40
1
40
1
40
1
41
1
10
-28.5
20
16.8588088951667
30
0
41
1
10
-29.2499999297894
20
16.425998517687
30
0
41
1
10
-30
20
15.9931874249212
30
0
0
SPLINE
5
112
100
AcDbEntity
8
SK1
62
256
6
ByLayer
370
18
48
1
60
0
100
AcDbSpline
70
4
71
2
72
6
73
3
40
0
40
0
40
0
40
1
40
1
40
1
41
1
10
-0.394913799811292
20
17.3602212447177
30
0
41
1
10
-1.19497688886898
20
17.340134563042
30
0
41
1
10
-1.99503997793928
20
17.3200478774323
30
0
0
SPLINE
5
113
100
AcDbEntity
8
SK1
62
256
6
ByLayer
370
18
48
1
60
0
100
AcDbSpline
70
4
71
2
72
6
73
3
40
0
40
0
40
0
40
1
40
1
40
1
41
1
10
-1.99503997793928
20
-17.3200475850767
30
0
41
1
10
-1.19497688886898
20
-17.3401342706943
30
0
41
1
10
-0.394913799811292
20
-17.3602209523781
30
0
0
SPLINE
5
114
100
AcDbEntity
8
SK1
62
256
6
ByLayer
370
18
48
1
60
0
100
AcDbSpline
70
4
71
3
72
13
73
9
40
0
40
0
40
0
40
0
40
0.239505988259609
40
0.36842653894641
40
0.500072261928253
40
0.631705988457419
40
0.760593443657081
40
1
40
1
40
1
40
1
41
1
10
-1.99503997793928
20
17.3252688086104
30
0
41
1
10
-2.0211092598112
20
17.3248666993254
30
0
41
1
10
-2.05883863807624
20
17.3310363194718
30
0
41
1
10
-2.10627567684702
20
17.3540697297104
30
0
41
1
10
-2.13886243910255
20
17.379225724067
30
0
41
1
10
-2.16563490775661
20
17.4104934409328
30
0
41
1
10
-2.19103207709688
20
17.4566916816953
30
0
41
1
10
-2.19909121920765
20
17.494049013599
30
0
41
1
10
-2.2
20
17.5200962264206
30
0
0
SPLINE
5
115
100
AcDbEntity
8
SK1
62
256
6
ByLayer
370
18
48
1
60
0
100
AcDbSpline
70
4
71
3
72
13
73
9
40
0
40
0
40
0
40
0
40
0.239406556947036
40
0.368294012345134
40
0.499927738941635
40
0.631573461844287
40
0.7604940123269
40
1
40
1
40
1
40
1
41
1
10
-2.2
20
-17.5200961072231
30
0
41
1
10
-2.19909121921685
20
-17.4940488942773
30
0
41
1
10
-2.19103207710596
20
-17.4566915621889
30
0
41
1
10
-2.16563490776916
20
-17.4104933211739
30
0
41
1
10
-2.13886243911927
20
-17.3792256041407
30
0
41
1
10
-2.10627567686485
20
-17.3540696096461
30
0
41
1
10
-2.05883863809936
20
-17.3310361992814
30
0
41
1
10
-2.02110925982341
20
-17.3248665791032
30
0
41
1
10
-1.99503997793928
20
-17.3252686883829
30
0
0
SPLINE
5
116
100
AcDbEntity
8
SK1
62
256
6
ByLayer
370
18
48
1
60
0
100
AcDbSpline
70
4
71
2
72
6
73
3
40
0
40
0
40
0
40
1
40
1
40
1
41
1
10
-2.2
20
17.5148290000611
30
0
41
1
10
-15.3499999982428
20
17.1846808487114
30
0
41
1
10
-28.5
20
16.8545316091351
30
0
0
SPLINE
5
117
100
AcDbEntity
8
SK1
62
256
6
ByLayer
370
18
48
1
60
0
100
AcDbSpline
70
4
71
2
72
6
73
3
40
0
40
0
40
0
40
1
40
1
40
1
41
1
10
-28.5
20
-16.8545313165689
30
0
41
1
10
-15.3499999982432
20
-17.1846805562453
30
0
41
1
10
-2.2
20
-17.5148287077807
30
0
0
SPLINE
5
118
100
AcDbEntity
8
1
62
256
6
ByLayer
370
18
48
1
60
0
100
AcDbSpline
70
4
71
3
72
8
73
4
40
0
40
0
40
0
40
0
40
1
40
1
40
1
40
1
41
1
10
21.5937415683672
20
-26.15
30
0
41
1
10
22.1280302025394
20
-28.1683520932433
30
0
41
1
10
22.6636590818646
20
-30.1863513003528
30
0
41
1
10
23.2
20
-32.2041595710552
30
0
0
SPLINE
5
119
100
AcDbEntity
8
1
62
256
6
ByLayer
370
18
48
1
60
0
100
AcDbSpline
70
4
71
3
72
16
73
12
40
0
40
0
40
0
40
0
40
0.250000000000008
40
0.250000000000008
40
0.375000000000013
40
0.375000000000013
40
0.500000000000017
40
0.500000000000017
40
0.750000000000008
40
0.750000000000008
40
1
40
1
40
1
40
1
41
1
10
21.4383186059721
20
-25.589659530439
30
0
41
1
10
21.45046715232
20
-25.6312140525811
30
0
41
1
10
21.4629220190385
20
-25.674422949395
30
0
41
1
10
21.4820417238425
20
-25.7416442760654
30
0
41
1
10
21.4884882148788
20
-25.7644544496638
30
0
41
1
10
21.501528166244
20
-25.8108890873348
30
0
41
1
10
21.5081174763668
20
-25.8345000631933
30
0
41
1
10
21.5278304001528
20
-25.9055680925487
30
0
41
1
10
21.5409897794192
20
-25.9535806104733
30
0
41
1
10
21.5673406201506
20
-26.0508462588363
30
0
41
1
10
21.5805320755465
20
-26.1000992426564
30
0
41
1
10
21.5937415683672
20
-26.15
30
0
0
SPLINE
5
11A
100
AcDbEntity
8
1
62
256
6
ByLayer
370
18
48
1
60
0
100
AcDbSpline
70
4
71
3
72
37
73
33
40
0
40
0
40
0
40
0
40
0.0312500000000011
40
0.0312500000000011
40
0.0625000000000021
40
0.125000000000004
40
0.125000000000004
40
0.250000000000006
40
0.250000000000006
40
0.281250000000006
40
0.281250000000006
40
0.312500000000006
40
0.312500000000006
40
0.375
40
0.375
40
0.499999999999983
40
0.499999999999983
40
0.53124999999998
40
0.53124999999998
40
0.562499999999978
40
0.624999999999978
40
0.687499999999978
40
0.687499999999978
40
0.718749999999978
40
0.718749999999978
40
0.749999999999978
40
0.749999999999978
40
0.874999999999986
40
0.874999999999986
40
0.937499999999993
40
0.937499999999993
40
1
40
1
40
1
40
1
41
1
10
25.6979991993593
20
-25.15
30
0
41
1
10
25.716159662557
20
-25.15
30
0
41
1
10
25.7343436715721
20
-25.1503025762777
30
0
41
1
10
25.7705404692686
20
-25.1515196643775
30
0
41
1
10
25.8246748030338
20
-25.1542634146374
30
0
41
1
10
25.8783209647337
20
-25.1597933881372
30
0
41
1
10
25.9849379288975
20
-25.1747079219338
30
0
41
1
10
26.0551208774945
20
-25.1897592794783
30
0
41
1
10
26.1415829778381
20
-25.2158024637559
30
0
41
1
10
26.1588116390369
20
-25.2213750019034
30
0
41
1
10
26.1931357597246
20
-25.2332803218201
30
0
41
1
10
26.2102683325627
20
-25.2396289977521
30
0
41
1
10
26.2610060787218
20
-25.2596878790594
30
0
41
1
10
26.2940493017973
20
-25.2744353258394
30
0
41
1
10
26.3907724756647
20
-25.3229089218058
30
0
41
1
10
26.4520714248128
20
-25.3608215019205
30
0
41
1
10
26.5242042253867
20
-25.4161083927452
30
0
41
1
10
26.5384465541441
20
-25.4276015592398
30
0
41
1
10
26.5661892927071
20
-25.4511913425105
30
0
41
1
10
26.6067111080115
20
-25.4874857382757
30
0
41
1
10
26.6688047152749
20
-25.5525094185346
30
0
41
1
10
26.7125622959425
20
-25.6094566175086
30
0
41
1
10
26.7430477949145
20
-25.6541098054289
30
0
41
1
10
26.7528200581636
20
-25.6693186563508
30
0
41
1
10
26.7715554404667
20
-25.7004102576542
30
0
41
1
10
26.7805452052648
20
-25.7163445309867
30
0
41
1
10
26.8230509325826
20
-25.7971584961779
30
0
41
1
10
26.8488697960025
20
-25.8644367321645
30
0
41
1
10
26.8752531168167
20
-25.9693159907482
30
0
41
1
10
26.8819729542626
20
-26.0049415512714
30
0
41
1
10
26.8910147230196
20
-26.0776041037324
30
0
41
1
10
26.8932370625239
20
-26.1138738724258
30
0
41
1
10
26.8932370625239
20
-26.15
30
0
0
SPLINE
5
11B
100
AcDbEntity
8
1
62
256
6
ByLayer
370
18
48
1
60
0
100
AcDbSpline
70
4
71
3
72
12
73
8
40
0
40
0
40
0
40
0
40
0.202635200369248
40
0.202635200369248
40
0.601317600183737
40
0.601317600183737
40
1
40
1
40
1
40
1
41
1
10
55.337690047141
20
-32.7339714751437
30
0
41
1
10
55.5045015084202
20
-32.7338879339207
30
0
41
1
10
55.6713129697441
20
-32.7338044818863
30
0
41
1
10
56.1663240411196
20
-32.7335571036022
30
0
41
1
10
56.4945236512994
20
-32.7333934334056
30
0
41
1
10
57.1509228720037
20
-32.7330667834466
30
0
41
1
10
57.4791224825285
20
-32.7329038036843
30
0
41
1
10
57.8073220932242
20
-32.7327411691177
30
0
0
SPLINE
5
11C
100
AcDbEntity
8
1
62
256
6
ByLayer
370
18
48
1
60
0
100
AcDbSpline
70
4
71
3
72
16
73
12
40
0
40
0
40
0
40
0
40
0.125
40
0.125
40
0.25
40
0.25
40
0.5
40
0.5
40
0.75
40
0.75
40
1
40
1
40
1
40
1
41
1
10
23.3365679099398
20
-32.7181658056207
30
0
41
1
10
23.3680806332889
20
-32.7352342481122
30
0
41
1
10
23.4087679098412
20
-32.7573567217379
30
0
41
1
10
23.5077155936492
20
-32.8116884595168
30
0
41
1
10
23.5659735665553
20
-32.8438977100565
30
0
41
1
10
23.7655807642957
20
-32.9556335970858
30
0
41
1
10
23.9317981800451
20
-33.0502648221076
30
0
41
1
10
24.3207655066048
20
-33.2797745795448
30
0
41
1
10
24.543453025128
20
-33.414653192612
30
0
41
1
10
25.0351067941454
20
-33.7247358710574
30
0
41
1
10
25.3040420002232
20
-33.8999401374832
30
0
41
1
10
25.5915360519159
20
-34.0954
30
0
0
SPLINE
5
11D
100
AcDbEntity
8
1
62
256
6
ByLayer
370
18
48
1
60
0
100
AcDbSpline
70
4
71
3
72
8
73
4
40
0
40
0
40
0
40
0
40
1
40
1
40
1
40
1
41
1
10
23.3365679099398
20
-32.7181658056207
30
0
41
1
10
23.2910643962347
20
-32.5468322222139
30
0
41
1
10
23.2455420532621
20
-32.3754967348436
30
0
41
1
10
23.2
20
-32.2041595710552
30
0
0
SPLINE
5
11E
100
AcDbEntity
8
1
62
256
6
ByLayer
370
18
48
1
60
0
100
AcDbSpline
70
4
71
3
72
31
73
27
40
0
40
0
40
0
40
0
40
0.0624999999999991
40
0.0624999999999991
40
0.124999999999998
40
0.124999999999998
40
0.249999999999997
40
0.249999999999997
40
0.374999999999995
40
0.374999999999995
40
0.406249999999995
40
0.406249999999995
40
0.437499999999994
40
0.437499999999994
40
0.499999999999994
40
0.499999999999994
40
0.624999999999994
40
0.624999999999994
40
0.687499999999994
40
0.687499999999994
40
0.718749999999994
40
0.718749999999994
40
0.749999999999995
40
0.749999999999995
40
0.874999999999997
40
1
40
1
40
1
40
1
41
1
10
26.8932370625239
20
-32.6842792342995
30
0
41
1
10
26.8494205021926
20
-32.6850695750325
30
0
41
1
10
26.8029634073486
20
-32.6858960401326
30
0
41
1
10
26.7049483892549
20
-32.6876068613121
30
0
41
1
10
26.6536565652097
20
-32.6884865630152
30
0
41
1
10
26.4931053984809
20
-32.6911792469826
30
0
41
1
10
26.377197686477
20
-32.6930457548716
30
0
41
1
10
26.127876695983
20
-32.6968229301713
30
0
41
1
10
25.9944651772315
20
-32.6987338785534
30
0
41
1
10
25.8163467648884
20
-32.7010879272639
30
0
41
1
10
25.7801803355743
20
-32.701556583881
30
0
41
1
10
25.7072397282153
20
-32.7024819823808
30
0
41
1
10
25.6704020578427
20
-32.7029395710036
30
0
41
1
10
25.5588007665233
20
-32.7042949482087
30
0
41
1
10
25.4829500273453
20
-32.7051753392823
30
0
41
1
10
25.251115006209
20
-32.7077309210438
30
0
41
1
10
25.0908657398762
20
-32.7093205574532
30
0
41
1
10
24.8418922893624
20
-32.7114709889865
30
0
41
1
10
24.7574634607448
20
-32.712148798049
30
0
41
1
10
24.6286140921561
20
-32.7130989376611
30
0
41
1
10
24.5852155944723
20
-32.7134050733919
30
0
41
1
10
24.498194625776
20
-32.7139903220401
30
0
41
1
10
24.4545561747844
20
-32.7142696145733
30
0
41
1
10
24.2357328738792
20
-32.7155980500098
30
0
41
1
10
23.8815930159234
20
-32.7172880099656
30
0
41
1
10
23.5195903838707
20
-32.7180403462789
30
0
41
1
10
23.3365679099398
20
-32.7181658056207
30
0
0
SPLINE
5
11F
100
AcDbEntity
8
1
62
256
6
ByLayer
370
18
48
1
60
0
100
AcDbSpline
70
4
71
3
72
33
73
29
40
0
40
0
40
0
40
0
40
0.125000000000016
40
0.125000000000016
40
0.18750000000002
40
0.18750000000002
40
0.250000000000025
40
0.250000000000025
40
0.375000000000037
40
0.375000000000037
40
0.406250000000039
40
0.406250000000039
40
0.437500000000041
40
0.437500000000041
40
0.50000000000004
40
0.50000000000004
40
0.625000000000038
40
0.625000000000038
40
0.656250000000036
40
0.656250000000036
40
0.687500000000034
40
0.687500000000034
40
0.750000000000027
40
0.81250000000002
40
0.81250000000002
40
0.875000000000014
40
0.875000000000014
40
1
40
1
40
1
40
1
41
1
10
26.2397368307142
20
-25.15
30
0
41
1
10
26.3071055833143
20
-25.15
30
0
41
1
10
26.3735131192457
20
-25.1560926942454
30
0
41
1
10
26.4716360317391
20
-25.1742157749747
30
0
41
1
10
26.5040980234737
20
-25.1817637186531
30
0
41
1
10
26.5685154439817
20
-25.1999671223375
30
0
41
1
10
26.600599587541
20
-25.2106842391689
30
0
41
1
10
26.6942590621149
20
-25.2470074317023
30
0
41
1
10
26.7537383245528
20
-25.2768276981421
30
0
41
1
10
26.8243435742831
20
-25.3211910993284
30
0
41
1
10
26.8382758559522
20
-25.3304211683923
30
0
41
1
10
26.8657552067244
20
-25.3496106169166
30
0
41
1
10
26.879331242548
20
-25.3595926841259
30
0
41
1
10
26.9192581400242
20
-25.3905010109516
30
0
41
1
10
26.9446575523051
20
-25.412259099656
30
0
41
1
10
27.0172761539375
20
-25.4809191664988
30
0
41
1
10
27.0609510550854
20
-25.5311735123727
30
0
41
1
10
27.1093565962303
20
-25.5998444499674
30
0
41
1
10
27.1187359240042
20
-25.6138950568287
30
0
41
1
10
27.1366582573285
20
-25.6422812788688
30
0
41
1
10
27.1452277297467
20
-25.6566521540257
30
0
41
1
10
27.1697769675525
20
-25.7002908544577
30
0
41
1
10
27.1994237772518
20
-25.7598760962957
30
0
41
1
10
27.2229298975619
20
-25.8222481913133
30
0
41
1
10
27.243288334735
20
-25.8860488117296
30
0
41
1
10
27.2519070702788
20
-25.918804833698
30
0
41
1
10
27.2724024636134
20
-26.017099031744
30
0
41
1
10
27.2792156108743
20
-26.0832436260867
30
0
41
1
10
27.2792156108743
20
-26.15
30
0
0
SPLINE
5
120
100
AcDbEntity
8
1
62
256
6
ByLayer
370
18
48
1
60
0
100
AcDbSpline
70
4
71
3
72
16
73
12
40
0
40
0
40
0
40
0
40
0.124999999999999
40
0.124999999999999
40
0.249999999999998
40
0.249999999999998
40
0.500000000000005
40
0.500000000000005
40
0.750000000000002
40
0.750000000000002
40
1
40
1
40
1
40
1
41
1
10
56.5089628852597
20
-32.5135106916889
30
0
41
1
10
56.5221215524373
20
-32.4302635812013
30
0
41
1
10
56.534532497863
20
-32.3467615405898
30
0
41
1
10
56.5586165783789
20
-32.1795617638014
30
0
41
1
10
56.5702745422051
20
-32.0958458509786
30
0
41
1
10
56.6045770571937
20
-31.84449529852
30
0
41
1
10
56.6265680489295
20
-31.6766632271941
30
0
41
1
10
56.6697950764571
20
-31.3407710223005
30
0
41
1
10
56.6910052482336
20
-31.1727030755546
30
0
41
1
10
56.7329948656762
20
-30.836437065381
30
0
41
1
10
56.7537679946922
20
-30.6682362885407
30
0
41
1
10
56.774406808652
20
-30.5
30
0
0
SPLINE
5
121
100
AcDbEntity
8
1
62
256
6
ByLayer
370
18
48
1
60
0
100
AcDbSpline
70
4
71
3
72
8
73
4
40
0
40
0
40
0
40
0
40
1
40
1
40
1
40
1
41
1
10
56.9330397954621
20
-30.4159227623864
30
0
41
1
10
56.8802175315189
20
-30.444186305517
30
0
41
1
10
56.8273598960423
20
-30.4722980163781
30
0
41
1
10
56.774406808652
20
-30.5
30
0
0
SPLINE
5
122
100
AcDbEntity
8
1
62
256
6
ByLayer
370
18
48
1
60
0
100
AcDbSpline
70
4
71
3
72
20
73
16
40
0
40
0
40
0
40
0
40
0.125000000000004
40
0.125000000000004
40
0.250000000000008
40
0.250000000000008
40
0.375000000000012
40
0.375000000000012
40
0.500000000000017
40
0.500000000000017
40
0.625000000000021
40
0.625000000000021
40
0.750000000000025
40
0.750000000000025
40
1
40
1
40
1
40
1
41
1
10
57.0000000000113
20
-30.2749688692704
30
0
41
1
10
57.0000000000112
20
-30.2827395802012
30
0
41
1
10
56.9995937631251
20
-30.2904457315629
30
0
41
1
10
56.9979798151933
20
-30.3057306632175
30
0
41
1
10
56.9967642469955
20
-30.3133082123662
30
0
41
1
10
56.9936086504077
20
-30.3279014713725
30
0
41
1
10
56.9916642630196
20
-30.334975103544
30
0
41
1
10
56.9870434392173
20
-30.3486770600967
30
0
41
1
10
56.9843397653764
20
-30.3553511564102
30
0
41
1
10
56.9783611160119
20
-30.3678241997689
30
0
41
1
10
56.9750781767345
20
-30.3736667010935
30
0
41
1
10
56.9679371835433
20
-30.3845799203337
30
0
41
1
10
56.964047082971
20
-30.3896850163107
30
0
41
1
10
56.9517092968702
20
-30.4035295253539
30
0
41
1
10
56.9427422487556
20
-30.410731282759
30
0
41
1
10
56.9330397954621
20
-30.4159227623864
30
0
0
SPLINE
5
123
100
AcDbEntity
8
1
62
256
6
ByLayer
370
18
48
1
60
0
100
AcDbSpline
70
4
71
3
72
20
73
16
40
0
40
0
40
0
40
0
40
0.125000000000009
40
0.125000000000009
40
0.250000000000019
40
0.250000000000019
40
0.375000000000028
40
0.375000000000028
40
0.500000000000038
40
0.500000000000038
40
0.625000000000048
40
0.625000000000048
40
0.750000000000057
40
0.750000000000057
40
1
40
1
40
1
40
1
41
1
10
56.933039795462
20
-29.5840772376136
30
0
41
1
10
56.9378909441321
20
-29.5866729357044
30
0
41
1
10
56.9425740123838
20
-29.5897898375514
30
0
41
1
10
56.9516060515023
20
-29.5970596501623
30
0
41
1
10
56.9559769729611
20
-29.6012441397309
30
0
41
1
10
56.9641534857343
20
-29.6104500648764
30
0
41
1
10
56.9679840522906
20
-29.6154842294121
30
0
41
1
10
56.9751283008422
20
-29.6264174806153
30
0
41
1
10
56.9784667668225
20
-29.6323726527538
30
0
41
1
10
56.9844457620998
20
-29.6448943918017
30
0
41
1
10
56.9870887035604
20
-29.6514438932602
30
0
41
1
10
56.9916895717912
20
-29.6651134158443
30
0
41
1
10
56.9936571096376
20
-29.6722794185904
30
0
41
1
10
56.9984050459487
20
-29.6943684079368
30
0
41
1
10
57
20
-29.7094958819082
30
0
41
1
10
57
20
-29.7250311307315
30
0
0
SPLINE
5
124
100
AcDbEntity
8
1
62
256
6
ByLayer
370
18
48
1
60
0
100
AcDbSpline
70
4
71
3
72
8
73
4
40
0
40
0
40
0
40
0
40
1
40
1
40
1
40
1
41
1
10
56.774406808652
20
-29.5
30
0
41
1
10
56.8273535334487
20
-29.5276986550821
30
0
41
1
10
56.8802128688876
20
-29.5558111996547
30
0
41
1
10
56.933039795462
20
-29.5840772376136
30
0
0
SPLINE
5
125
100
AcDbEntity
8
1
62
256
6
ByLayer
370
18
48
1
60
0
100
AcDbSpline
70
4
71
3
72
16
73
12
40
0
40
0
40
0
40
0
40
0.125000000000002
40
0.125000000000002
40
0.250000000000004
40
0.250000000000004
40
0.500000000000002
40
0.500000000000002
40
0.750000000000001
40
0.750000000000001
40
1
40
1
40
1
40
1
41
1
10
56.5089628852596
20
-27.4864893083111
30
0
41
1
10
56.5221196492082
20
-27.5697243781934
30
0
41
1
10
56.534526509157
20
-27.6531980304052
30
0
41
1
10
56.5586081043348
20
-27.8203782606718
30
0
41
1
10
56.5702657031628
20
-27.9040902906809
30
0
41
1
10
56.6045684163416
20
-28.1554395680445
30
0
41
1
10
56.6265616395949
20
-28.3232874346548
30
0
41
1
10
56.6697925519956
20
-28.6592088965822
30
0
41
1
10
56.6910037398417
20
-28.8272849008389
30
0
41
1
10
56.7329945036594
20
-29.1635599793913
30
0
41
1
10
56.7537676482612
20
-29.3317608875312
30
0
41
1
10
56.7744068086535
20
-29.4999999999996
30
0
0
SPLINE
5
126
100
AcDbEntity
8
1
62
256
6
ByLayer
370
18
48
1
60
0
100
AcDbSpline
70
4
71
3
72
76
73
72
40
0
40
0
40
0
40
0
40
0.0156006619890144
40
0.0234133551478321
40
0.0234133551478321
40
0.0312260483066499
40
0.0312260483066499
40
0.0624768209419206
40
0.0624768209419206
40
0.124978366212462
40
0.124978366212462
40
0.140603752530097
40
0.140603752530097
40
0.156229138847732
40
0.156229138847732
40
0.187479911483001
40
0.187479911483001
40
0.249981456753541
40
0.249981456753541
40
0.265606843071176
40
0.265606843071176
40
0.281232229388811
40
0.281232229388811
40
0.31248300202408
40
0.34373377465935
40
0.34373377465935
40
0.359359160976985
40
0.359359160976985
40
0.374984547294619
40
0.374984547294619
40
0.437486092565157
40
0.437486092565157
40
0.445298785723974
40
0.445298785723974
40
0.453111478882792
40
0.453111478882792
40
0.468736865200426
40
0.468736865200426
40
0.499987637835696
40
0.499987637835696
40
0.562489183106236
40
0.562489183106236
40
0.570301876265053
40
0.570301876265053
40
0.578114569423871
40
0.593739955741506
40
0.593739955741506
40
0.624990728376776
40
0.656241501012045
40
0.656241501012045
40
0.67186688732968
40
0.67186688732968
40
0.687492273647314
40
0.687492273647314
40
0.74999381891785
40
0.74999381891785
40
0.781244591553118
40
0.781244591553118
40
0.796869977870752
40
0.796869977870752
40
0.812495364188387
40
0.812495364188387
40
0.874996909458926
40
0.874996909458926
40
0.89062229577656
40
0.89062229577656
40
0.906247682094194
40
0.906247682094194
40
0.937498454729463
40
0.937498454729463
40
1
40
1
40
1
40
1
41
1
10
23.399856497521
20
13.5557915242743
30
0
41
1
10
23.3696741491727
20
13.5608860362113
30
0
41
1
10
23.3246163787042
20
13.5690260870031
30
0
41
1
10
23.2799186105728
20
13.5778922451928
30
0
41
1
10
23.2501690457503
20
13.5839692777688
30
0
41
1
10
23.235311817081
20
13.5870927896155
30
0
41
1
10
23.1615740623556
20
13.6030303309865
30
0
41
1
10
23.1043080993928
20
13.6168024580588
30
0
41
1
10
22.9373157124683
20
13.660701052808
30
0
41
1
10
22.8323553471518
20
13.6934104308387
30
0
41
1
10
22.7085938628021
20
13.7371270161613
30
0
41
1
10
22.6842167547325
20
13.7460118542995
30
0
41
1
10
22.6362127464181
20
13.7640264480697
30
0
41
1
10
22.612540438792
20
13.773175057277
30
0
41
1
10
22.5432623528626
20
13.8006830565079
30
0
41
1
10
22.4992312561382
20
13.8191606389639
30
0
41
1
10
22.3733143649406
20
13.8744569978232
30
0
41
1
10
22.2975407694032
20
13.9111647657377
30
0
41
1
10
22.2130670335622
20
13.9547963346774
30
0
41
1
10
22.1966693515554
20
13.9634194261744
30
0
41
1
10
22.1652007797072
20
13.9802291996747
30
0
41
1
10
22.1500955925367
20
13.9884331756963
30
0
41
1
10
22.1066520749861
20
14.012364496204
30
0
41
1
10
22.0537093267033
20
14.0424608079926
30
0
41
1
10
22.0108107989828
20
14.0680456508644
30
0
41
1
10
21.9825615911369
20
14.0851711140935
30
0
41
1
10
21.9737833740289
20
14.0905460782349
30
0
41
1
10
21.9577395977301
20
14.1004416105568
30
0
41
1
10
21.9504544675298
20
14.1049737861736
30
0
41
1
10
21.9176810824344
20
14.1254801153753
30
0
41
1
10
21.9030455275734
20
14.1349812264352
30
0
41
1
10
21.9000959147006
20
14.1368800712045
30
0
41
1
10
21.8999576438537
20
14.1369691296005
30
0
41
1
10
21.9000648168145
20
14.1369001172728
30
0
41
1
10
21.9003113371246
20
14.1367413530295
30
0
41
1
10
21.9016254568771
20
14.1358955544075
30
0
41
1
10
21.9032638624288
20
14.1348411810574
30
0
41
1
10
21.910395561038
20
14.1302656986936
30
0
41
1
10
21.9180998860267
20
14.1253322761841
30
0
41
1
10
21.9497135997203
20
14.1053527176357
30
0
41
1
10
21.9820437012273
20
14.0851276112853
30
0
41
1
10
22.0311612828635
20
14.0560075771991
30
0
41
1
10
22.0368047630406
20
14.0526793873346
30
0
41
1
10
22.0483824156299
20
14.0458918914105
30
0
41
1
10
22.0662034780283
20
14.0355028767803
30
0
41
1
10
22.0853659019203
20
14.0245298056201
30
0
41
1
10
22.1254359581853
20
14.001901969858
30
0
41
1
10
22.1835070203473
20
13.9699173195459
30
0
41
1
10
22.2506572194319
20
13.9352317609174
30
0
41
1
10
22.3044591665434
20
13.9085141731086
30
0
41
1
10
22.3229674563083
20
13.8994908520489
30
0
41
1
10
22.3611522536351
20
13.8812581635868
30
0
41
1
10
22.3808528143608
20
13.8720377837362
30
0
41
1
10
22.4820885672362
20
13.8257092871333
30
0
41
1
10
22.5702528372856
20
13.7886237842951
30
0
41
1
10
22.7134669546824
20
13.7351198043512
30
0
41
1
10
22.7630460125683
20
13.7176349655995
30
0
41
1
10
22.8403259852775
20
13.6921883255634
30
0
41
1
10
22.8666187851308
20
13.683822048479
30
0
41
1
10
22.9199982735118
20
13.6674594322328
30
0
41
1
10
22.9469971424092
20
13.6594889869755
30
0
41
1
10
23.0835411442014
20
13.6207674969675
30
0
41
1
10
23.1976946872961
20
13.5934007631182
30
0
41
1
10
23.346996394937
20
13.5649615812184
30
0
41
1
10
23.3771898386507
20
13.5595628818726
30
0
41
1
10
23.4382657595037
20
13.5493791057952
30
0
41
1
10
23.469186290046
20
13.5445908337304
30
0
41
1
10
23.5619463220597
20
13.5313438920988
30
0
41
1
10
23.6241160878735
20
13.5239429036278
30
0
41
1
10
23.8116117763201
20
13.5060979164939
30
0
41
1
10
23.937916979337
20
13.5
30
0
41
1
10
24.0656038219736
20
13.5
30
0
0
SPLINE
5
127
100
AcDbEntity
8
1
62
256
6
ByLayer
370
18
48
1
60
0
100
AcDbSpline
70
4
71
3
72
9
73
5
40
0
40
0
40
0
40
0
40
0.0071906655539053
40
1
40
1
40
1
40
1
41
1
10
27.3701302515374
20
-32.6754112753029
30
0
41
1
10
27.3699854940099
20
-32.6754137579335
30
0
41
1
10
27.3497815401665
20
-32.6757605602559
30
0
41
1
10
27.3194768696829
20
-32.6763221419634
30
0
41
1
10
27.2792156108743
20
-32.6770820057441
30
0
0
SPLINE
5
128
100
AcDbEntity
8
1
62
256
6
ByLayer
370
18
48
1
60
0
100
AcDbSpline
70
4
71
3
72
36
73
32
40
0
40
0
40
0
40
0
40
0.0625000000000115
40
0.0625000000000115
40
0.125000000000023
40
0.125000000000023
40
0.250000000000047
40
0.250000000000047
40
0.312500000000059
40
0.312500000000059
40
0.343750000000061
40
0.343750000000061
40
0.375000000000063
40
0.375000000000063
40
0.500000000000067
40
0.500000000000067
40
0.531250000000063
40
0.531250000000063
40
0.562500000000058
40
0.562500000000058
40
0.625000000000046
40
0.625000000000046
40
0.750000000000027
40
0.750000000000027
40
0.781250000000025
40
0.781250000000025
40
0.812500000000023
40
0.812500000000023
40
0.875000000000016
40
0.875000000000016
40
1
40
1
40
1
40
1
41
1
10
46.9999999999999
20
-27.3421496126793
30
0
41
1
10
46.9489922340815
20
-27.3421626285458
30
0
41
1
10
46.8981707164792
20
-27.3397498958305
30
0
41
1
10
46.796897124259
20
-27.33011270477
30
0
41
1
10
46.7462870366325
20
-27.3228446395435
30
0
41
1
10
46.5971853639001
20
-27.2941796016161
30
0
41
1
10
46.5008362435061
20
-27.2659894781979
30
0
41
1
10
46.3607919929966
20
-27.2103773813599
30
0
41
1
10
46.3148620975159
20
-27.1896041378395
30
0
41
1
10
46.2471282150362
20
-27.154990256977
30
0
41
1
10
46.2248023313439
20
-27.1429017496454
30
0
41
1
10
46.1810037334738
20
-27.1178318020112
30
0
41
1
10
46.1594777122232
20
-27.1048235625078
30
0
41
1
10
46.0536820464835
20
-27.0374565421925
30
0
41
1
10
45.9748676178695
20
-26.9761812844711
30
0
41
1
10
45.8836117650938
20
-26.890379745168
30
0
41
1
10
45.8657267062815
20
-26.872755257067
30
0
41
1
10
45.8307007488531
20
-26.836562786248
30
0
41
1
10
45.8135362785342
20
-26.8179635600059
30
0
41
1
10
45.7636982494304
20
-26.761327617187
30
0
41
1
10
45.7325027545533
20
-26.7222863834507
30
0
41
1
10
45.6448234965224
20
-26.6014262059323
30
0
41
1
10
45.5941960562758
20
-26.5159029837667
30
0
41
1
10
45.5408785818055
20
-26.4026946763794
30
0
41
1
10
45.5306933750656
20
-26.3796750464671
30
0
41
1
10
45.5114808391781
20
-26.3333103335765
30
0
41
1
10
45.5024600081109
20
-26.309990793385
30
0
41
1
10
45.4771199837278
20
-26.2396285516267
30
0
41
1
10
45.4625195277287
20
-26.1921831032682
30
0
41
1
10
45.4254691097387
20
-26.0482648274171
30
0
41
1
10
45.4097092766892
20
-25.950224321175
30
0
41
1
10
45.4032689572776
20
-25.85
30
0
0
SPLINE
5
129
100
AcDbEntity
8
1
62
256
6
ByLayer
370
18
48
1
60
0
100
AcDbSpline
70
4
71
3
72
9
73
5
40
0
40
0
40
0
40
0
40
0.5
40
1
40
1
40
1
40
1
41
1
10
45.4045483279019
20
-25.85
30
0
41
1
10
45.4049136135949
20
-25.85
30
0
41
1
10
45.4050628026742
20
-25.85
30
0
41
1
10
45.4039695616989
20
-25.85
30
0
41
1
10
45.4032689572776
20
-25.85
30
0
0
SPLINE
5
12A
100
AcDbEntity
8
1
62
256
6
ByLayer
370
18
48
1
60
0
100
AcDbSpline
70
4
71
3
72
27
73
23
40
0
40
0
40
0
40
0
40
0.124999999999979
40
0.124999999999979
40
0.249999999999958
40
0.249999999999958
40
0.312499999999953
40
0.312499999999953
40
0.374999999999947
40
0.374999999999947
40
0.499999999999947
40
0.499999999999947
40
0.624999999999946
40
0.624999999999946
40
0.656249999999946
40
0.656249999999946
40
0.687499999999947
40
0.749999999999956
40
0.749999999999956
40
0.874999999999978
40
0.874999999999978
40
1
40
1
40
1
40
1
41
1
10
47
20
-27.8351114097511
30
0
41
1
10
46.9434035571321
20
-27.8393564983722
30
0
41
1
10
46.8868348553412
20
-27.8406146920944
30
0
41
1
10
46.7737537490595
20
-27.8370695225991
30
0
41
1
10
46.7172413340245
20
-27.8322672946746
30
0
41
1
10
46.6325170749277
20
-27.8202873184974
30
0
41
1
10
46.6042594831948
20
-27.8154878621207
30
0
41
1
10
46.5482129262165
20
-27.8043337312223
30
0
41
1
10
46.5203696358462
20
-27.7979730405119
30
0
41
1
10
46.4373859088115
20
-27.7765131875722
30
0
41
1
10
46.3827897047655
20
-27.7590445665661
30
0
41
1
10
46.275125252256
20
-27.7174549710506
30
0
41
1
10
46.222056268023
20
-27.6933371999052
30
0
41
1
10
46.156765152133
20
-27.6586398075992
30
0
41
1
10
46.143756669017
20
-27.6514694182043
30
0
41
1
10
46.1179969243837
20
-27.6367469660745
30
0
41
1
10
46.0796868535284
20
-27.6140613856795
30
0
41
1
10
46.0423705681852
20
-27.5895606974863
30
0
41
1
10
45.9690897635201
20
-27.5380903768283
30
0
41
1
10
45.9220324060737
20
-27.5004955748636
30
0
41
1
10
45.8317789002329
20
-27.4182536336075
30
0
41
1
10
45.7885797006572
20
-27.3736120671716
30
0
41
1
10
45.7475543808475
20
-27.3249999999906
30
0
0
SPLINE
5
12B
100
AcDbEntity
8
1
62
256
6
ByLayer
370
18
48
1
60
0
100
AcDbSpline
70
4
71
3
72
17
73
13
40
0
40
0
40
0
40
0
40
0.249999999999979
40
0.249999999999979
40
0.37499999999997
40
0.437499999999972
40
0.437499999999972
40
0.499999999999974
40
0.499999999999974
40
0.749999999999987
40
0.749999999999987
40
1
40
1
40
1
40
1
41
1
10
45.4
20
-26.3946164668948
30
0
41
1
10
45.4
20
-26.4697241232553
30
0
41
1
10
45.4063781570767
20
-26.5474992732225
30
0
41
1
10
45.4268703612829
20
-26.6664935763398
30
0
41
1
10
45.4398477562372
20
-26.7265779244039
30
0
41
1
10
45.4571990623696
20
-26.7872442914075
30
0
41
1
10
45.4697725756514
20
-26.8277836444827
30
0
41
1
10
45.4765717128112
20
-26.8481271932001
30
0
41
1
10
45.5130669838806
20
-26.9497068167982
30
0
41
1
10
45.5496981506221
20
-27.029058121072
30
0
41
1
10
45.637608036645
20
-27.18194013547
30
0
41
1
10
45.6888877635536
20
-27.2554842581416
30
0
41
1
10
45.7475543808495
20
-27.324999999993
30
0
0
SPLINE
5
12C
100
AcDbEntity
8
1
62
256
6
ByLayer
370
18
48
1
60
0
100
AcDbSpline
70
4
71
3
72
10
73
6
40
0
40
0
40
0
40
0
40
0.5
40
0.5
40
1
40
1
40
1
40
1
41
1
10
21.4383186059721
20
-25.15
30
0
41
1
10
21.5073454624157
20
-25.15
30
0
41
1
10
21.5936649915302
20
-25.15
30
0
41
1
10
21.7972762663648
20
-25.15
30
0
41
1
10
21.9145475700807
20
-25.15
30
0
41
1
10
22.0452164507293
20
-25.15
30
0
0
SPLINE
5
12D
100
AcDbEntity
8
1
62
256
6
ByLayer
370
18
48
1
60
0
100
AcDbSpline
70
4
71
3
72
26
73
22
40
0
40
0
40
0
40
0
40
0.125000000000008
40
0.125000000000008
40
0.250000000000016
40
0.250000000000016
40
0.375000000000024
40
0.375000000000024
40
0.437500000000024
40
0.437500000000024
40
0.500000000000023
40
0.500000000000023
40
0.62500000000002
40
0.62500000000002
40
0.687500000000016
40
0.687500000000016
40
0.750000000000012
40
0.750000000000012
40
0.875000000000006
40
0.875000000000006
40
1
40
1
40
1
40
1
41
1
10
21.4383186059721
20
-25.589659530439
30
0
41
1
10
21.4280993217987
20
-25.5547041161612
30
0
41
1
10
21.4164250425089
20
-25.5220606024185
30
0
41
1
10
21.3908676442061
20
-25.4608112468156
30
0
41
1
10
21.3769801014244
20
-25.4322089639123
30
0
41
1
10
21.3475766188662
20
-25.3787417223382
30
0
41
1
10
21.3320569967699
20
-25.3538776642512
30
0
41
1
10
21.3079972754771
20
-25.3193159187441
30
0
41
1
10
21.2998971034367
20
-25.3083247595893
30
0
41
1
10
21.2836932181025
20
-25.2874520260504
30
0
41
1
10
21.275578493945
20
-25.277554796389
30
0
41
1
10
21.2513358761467
20
-25.2494367389821
30
0
41
1
10
21.2353023835193
20
-25.2327802464766
30
0
41
1
10
21.2120964141049
20
-25.2109178346418
30
0
41
1
10
21.2045033255989
20
-25.2041529907878
30
0
41
1
10
21.1897363033316
20
-25.1916973046665
30
0
41
1
10
21.1826336751786
20
-25.1860663760904
30
0
41
1
10
21.162374395983
20
-25.1709589861924
30
0
41
1
10
21.1502559577502
20
-25.1632534201059
30
0
41
1
10
21.1300054568013
20
-25.1527760292951
30
0
41
1
10
21.1218738751806
20
-25.15
30
0
41
1
10
21.11644918328
20
-25.15
30
0
0
SPLINE
5
12E
100
AcDbEntity
8
1
62
256
6
ByLayer
370
18
48
1
60
0
100
AcDbSpline
70
4
71
3
72
31
73
27
40
0
40
0
40
0
40
0
40
0.0234755079350065
40
0.0234755079350065
40
0.0293443849187581
40
0.0293443849187581
40
0.0352132619025097
40
0.0469510158700129
40
0.0939020317400264
40
0.187804063480053
40
0.187804063480053
40
0.375608126960107
40
0.375608126960107
40
0.469510158700134
40
0.469510158700134
40
0.563412190440161
40
0.563412190440161
40
0.657314222180188
40
0.657314222180188
40
0.751216253920216
40
0.751216253920216
40
0.845118285660243
40
0.845118285660243
40
0.93902031740027
40
0.93902031740027
40
1
40
1
40
1
40
1
41
1
10
21.4383186059721
20
-25.15
30
0
41
1
10
21.4352764904254
20
-25.15
30
0
41
1
10
21.432089395682
20
-25.15
30
0
41
1
10
21.4279338744324
20
-25.15
30
0
41
1
10
21.4270854740373
20
-25.15
30
0
41
1
10
21.4253754180396
20
-25.15
30
0
41
1
10
21.422784669936
20
-25.15
30
0
41
1
10
21.4130069032097
20
-25.15
30
0
41
1
10
21.3877658048805
20
-25.15
30
0
41
1
10
21.3602831824582
20
-25.15
30
0
41
1
10
21.301077194839
20
-25.15
30
0
41
1
10
21.2559208195015
20
-25.15
30
0
41
1
10
21.1850417331747
20
-25.15
30
0
41
1
10
21.1608954295142
20
-25.15
30
0
41
1
10
21.1126090080194
20
-25.15
30
0
41
1
10
21.0884667435637
20
-25.15
30
0
41
1
10
21.0414356399343
20
-25.15
30
0
41
1
10
21.0185451573696
20
-25.15
30
0
41
1
10
20.9755352241285
20
-25.15
30
0
41
1
10
20.9554183968521
20
-25.15
30
0
41
1
10
20.9197454728762
20
-25.15
30
0
41
1
10
20.9042014715544
20
-25.15
30
0
41
1
10
20.8795352807617
20
-25.15
30
0
41
1
10
20.8704350840159
20
-25.15
30
0
41
1
10
20.8618842602957
20
-25.15
30
0
41
1
10
20.86017609151
20
-25.15
30
0
41
1
10
20.8601636059712
20
-25.15
30
0
0
SPLINE
5
12F
100
AcDbEntity
8
1
62
256
6
ByLayer
370
18
48
1
60
0
100
AcDbSpline
70
4
71
3
72
61
73
57
40
0
40
0
40
0
40
0
40
0.0156249999999992
40
0.0156249999999992
40
0.0234374999999989
40
0.0234374999999989
40
0.0312499999999986
40
0.0312499999999986
40
0.0468749999999978
40
0.0468749999999978
40
0.0624999999999971
40
0.0624999999999971
40
0.0937499999999968
40
0.0937499999999968
40
0.124999999999996
40
0.124999999999996
40
0.156249999999996
40
0.156249999999996
40
0.187499999999996
40
0.187499999999996
40
0.249999999999996
40
0.249999999999996
40
0.312499999999996
40
0.312499999999996
40
0.374999999999996
40
0.374999999999996
40
0.437499999999996
40
0.437499999999996
40
0.499999999999996
40
0.499999999999996
40
0.531249999999996
40
0.546874999999996
40
0.546874999999996
40
0.562499999999996
40
0.562499999999996
40
0.624999999999997
40
0.624999999999997
40
0.687499999999999
40
0.687499999999999
40
0.75
40
0.75
40
0.781250000000001
40
0.781250000000001
40
0.796875000000001
40
0.796875000000001
40
0.8125
40
0.8125
40
0.875
40
0.875
40
0.937499999999999
40
0.937499999999999
40
0.953124999999999
40
0.953124999999999
40
0.96875
40
0.96875
40
1
40
1
40
1
40
1
41
1
10
20.077973744624
20
17.1856652004364
30
0
41
1
10
20.0782833840517
20
17.18173713553
30
0
41
1
10
20.0790422834235
20
17.1721313950096
30
0
41
1
10
20.0807125571893
20
17.1526035570968
30
0
41
1
10
20.0813607706145
20
17.1452156909491
30
0
41
1
10
20.0828186912572
20
17.1292073344895
30
0
41
1
10
20.0836234064486
20
17.1206410927857
30
0
41
1
10
20.0862480178867
20
17.0937338004348
30
0
41
1
10
20.0882774046319
20
17.0742119606892
30
0
41
1
10
20.0928541544716
20
17.0334370740542
30
0
41
1
10
20.0954049613862
20
17.012144750492
30
0
41
1
10
20.1037940915949
20
16.9468358212932
30
0
41
1
10
20.1103601830094
20
16.901479990178
30
0
41
1
10
20.125402778749
20
16.8093523440309
30
0
41
1
10
20.1338809349976
20
16.7625244934837
30
0
41
1
10
20.1527574843076
20
16.6681655690606
30
0
41
1
10
20.1631450681696
20
16.6206767519171
30
0
41
1
10
20.1858199834413
20
16.5254893196972
30
0
41
1
10
20.1981089077088
20
16.4777782636632
30
0
41
1
10
20.2378629611352
20
16.3345744714207
30
0
41
1
10
20.2682185183511
20
16.2390013055807
30
0
41
1
10
20.3368833433241
20
16.0484847766575
30
0
41
1
10
20.3749980238827
20
15.9540638504604
30
0
41
1
10
20.458949103066
20
15.7672185729477
30
0
41
1
10
20.5047848189075
20
15.6747895402123
30
0
41
1
10
20.6044869621591
20
15.4921416190819
30
0
41
1
10
20.658352041149
20
15.4019207458957
30
0
41
1
10
20.7746038381532
20
15.22390238326
30
0
41
1
10
20.8369882092196
20
15.1361035374011
30
0
41
1
10
20.9375010157429
20
15.0064154017052
30
0
41
1
10
20.9894945624029
20
14.9420745439354
30
0
41
1
10
21.0442298157768
20
14.8785331826108
30
0
41
1
10
21.0813471403978
20
14.8363556509053
30
0
41
1
10
21.1002353339217
20
14.8153411280671
30
0
41
1
10
21.196101252241
20
14.7109479281358
30
0
41
1
10
21.2769613083256
20
14.6300068255253
30
0
41
1
10
21.4475231366091
20
14.4736091766962
30
0
41
1
10
21.5372220451443
20
14.398150717263
30
0
41
1
10
21.726242939305
20
14.2532209741255
30
0
41
1
10
21.8255597284093
20
14.1837463672678
30
0
41
1
10
21.9826333019614
20
14.0845838120091
30
0
41
1
10
22.0363444205531
20
14.0523733730021
30
0
41
1
10
22.1190921560817
20
14.0054187512799
30
0
41
1
10
22.1469722526985
20
13.9900327774407
30
0
41
1
10
22.2031798382598
20
13.9598878680264
30
0
41
1
10
22.2315312370221
20
13.9451153048827
30
0
41
1
10
22.3745451308206
20
13.8727752230833
30
0
41
1
10
22.4929658167456
20
13.8197607766531
30
0
41
1
10
22.7384971042966
20
13.7242697664631
30
0
41
1
10
22.8656024136678
20
13.6817867347527
30
0
41
1
10
23.0305776725185
20
13.6360780138735
30
0
41
1
10
23.0638236176502
20
13.6273245965004
30
0
41
1
10
23.1304353764729
20
13.6107020765715
30
0
41
1
10
23.1638563765091
20
13.6028174484725
30
0
41
1
10
23.2644655429174
20
13.5804466275912
30
0
41
1
10
23.3319996376254
20
13.5672426170971
30
0
41
1
10
23.4
20
13.5557673050168
30
0
0
SPLINE
5
130
100
AcDbEntity
8
1
62
256
6
ByLayer
370
18
48
1
60
0
100
AcDbSpline
70
4
71
3
72
26
73
22
40
0
40
0
40
0
40
0
40
0.0625000000000007
40
0.0625000000000007
40
0.0937500000000007
40
0.0937500000000007
40
0.125000000000001
40
0.125000000000001
40
0.250000000000001
40
0.250000000000001
40
0.375000000000001
40
0.375000000000001
40
0.5
40
0.5
40
0.625
40
0.625
40
0.75
40
0.75
40
0.875
40
0.875
40
1
40
1
40
1
40
1
41
1
10
21.4383186059721
20
-22.3337405327215
30
0
41
1
10
21.4251087737332
20
-22.2697900235484
30
0
41
1
10
21.4092357602441
20
-22.2072335426144
30
0
41
1
10
21.3821947961361
20
-22.1151812768342
30
0
41
1
10
21.3726396686351
20
-22.0847958438382
30
0
41
1
10
21.3525474478783
20
-22.0245852907082
30
0
41
1
10
21.3419894424996
20
-21.9947068927049
30
0
41
1
10
21.2873228981266
20
-21.8475651537303
30
0
41
1
10
21.2375943351222
20
-21.7366141466075
30
0
41
1
10
21.131488493698
20
-21.5247948365914
30
0
41
1
10
21.0750527748138
20
-21.4239471729721
30
0
41
1
10
20.9595068649615
20
-21.2301457438596
30
0
41
1
10
20.9014564295983
20
-21.1389257528605
30
0
41
1
10
20.7877561403076
20
-20.9644728392687
30
0
41
1
10
20.7320953656148
20
-20.8812537011921
30
0
41
1
10
20.6253234688502
20
-20.7200458097035
30
0
41
1
10
20.5742075667729
20
-20.642061665901
30
0
41
1
10
20.4781261880455
20
-20.4888789659664
30
0
41
1
10
20.4331582702033
20
-20.4136809203025
30
0
41
1
10
20.3505216716455
20
-20.2638762053675
30
0
41
1
10
20.312851200709
20
-20.1892679334587
30
0
41
1
10
20.2792076144253
20
-20.113995121038
30
0
0
SPLINE
5
131
100
AcDbEntity
8
1
62
256
6
ByLayer
370
18
48
1
60
0
100
AcDbSpline
70
4
71
3
72
10
73
6
40
0
40
0
40
0
40
0
40
0.5
40
0.5
40
1
40
1
40
1
40
1
41
1
10
22.0452164507293
20
-25.15
30
0
41
1
10
21.9401268744199
20
-24.6797499617203
30
0
41
1
10
21.8368097834279
20
-24.2099479615162
30
0
41
1
10
21.6342961592223
20
-23.2712050855947
30
0
41
1
10
21.5350983866006
20
-22.8022639883483
30
0
41
1
10
21.4383186059721
20
-22.3337405327215
30
0
0
SPLINE
5
132
100
AcDbEntity
8
1
62
256
6
ByLayer
370
18
48
1
60
0
100
AcDbSpline
70
4
71
3
72
26
73
22
40
0
40
0
40
0
40
0
40
0.250000000000008
40
0.250000000000008
40
0.375000000000009
40
0.375000000000009
40
0.500000000000013
40
0.500000000000013
40
0.562500000000015
40
0.562500000000015
40
0.625000000000018
40
0.625000000000018
40
0.750000000000018
40
0.750000000000018
40
0.875000000000018
40
0.875000000000018
40
0.906250000000015
40
0.906250000000015
40
0.937500000000013
40
0.937500000000013
40
1
40
1
40
1
40
1
41
1
10
11.8943375672975
20
-23.6665017920808
30
0
41
1
10
11.8788862370737
20
-23.686033116806
30
0
41
1
10
11.8602443227467
20
-23.7051129235882
30
0
41
1
10
11.8262196262291
20
-23.7324910902464
30
0
41
1
10
11.8138519277098
20
-23.7414211400326
30
0
41
1
10
11.7865761040498
20
-23.7588292909636
30
0
41
1
10
11.7716769242357
20
-23.7673085978343
30
0
41
1
10
11.7468017366172
20
-23.7796095569563
30
0
41
1
10
11.7380555263963
20
-23.7836514357395
30
0
41
1
10
11.719773612984
20
-23.7914778883489
30
0
41
1
10
11.7102266942346
20
-23.7952700628808
30
0
41
1
10
11.6801688454703
20
-23.8062336877525
30
0
41
1
10
11.6582924559948
20
-23.813005969379
30
0
41
1
10
11.6089650834003
20
-23.8249896713849
30
0
41
1
10
11.582404000511
20
-23.8299833264009
30
0
41
1
10
11.5458956692735
20
-23.8344558067494
30
0
41
1
10
11.5384012334117
20
-23.8352611656444
30
0
41
1
10
11.5233488813096
20
-23.8366445991221
30
0
41
1
10
11.5157579869923
20
-23.8372273769848
30
0
41
1
10
11.4927843117432
20
-23.8386381480423
30
0
41
1
10
11.4772013120199
20
-23.8391299750502
30
0
41
1
10
11.4613248654052
20
-23.8391299750502
30
0
0
SPLINE
5
133
100
AcDbEntity
8
1
62
256
6
ByLayer
370
18
48
1
60
0
100
AcDbSpline
70
4
71
3
72
30
73
26
40
0
40
0
40
0
40
0
40
0.0625000000000058
40
0.0625000000000058
40
0.125000000000011
40
0.125000000000011
40
0.156250000000012
40
0.156250000000012
40
0.187500000000012
40
0.187500000000012
40
0.250000000000007
40
0.250000000000007
40
0.312500000000003
40
0.312500000000003
40
0.374999999999998
40
0.374999999999998
40
0.499999999999992
40
0.499999999999992
40
0.562499999999992
40
0.562499999999992
40
0.624999999999993
40
0.624999999999993
40
0.749999999999994
40
0.749999999999994
40
1
40
1
40
1
40
1
41
1
10
8.5386751345948
20
-23.8391299750504
30
0
41
1
10
8.52282418317805
20
-23.8391299750504
30
0
41
1
10
8.50706439724274
20
-23.838635326325
30
0
41
1
10
8.47609922674792
20
-23.8367207404254
30
0
41
1
10
8.46115505954
20
-23.8353222152631
30
0
41
1
10
8.4394278909337
20
-23.8326565134122
30
0
41
1
10
8.43230089820059
20
-23.8316728303992
30
0
41
1
10
8.41826331057831
20
-23.8295263669799
30
0
41
1
10
8.41133341861178
20
-23.8283593459882
30
0
41
1
10
8.39116971420628
20
-23.8246655611124
30
0
41
1
10
8.3784538615962
20
-23.8219342456095
30
0
41
1
10
8.35418344395194
20
-23.816035844018
30
0
41
1
10
8.34263086450954
20
-23.812868038308
30
0
41
1
10
8.3205004416742
20
-23.8061604830514
30
0
41
1
10
8.30988749524428
20
-23.8026065911347
30
0
41
1
10
8.2796227406684
20
-23.7915679133937
30
0
41
1
10
8.2615230214692
20
-23.7837256270429
30
0
41
1
10
8.23661756318495
20
-23.7714105724815
30
0
41
1
10
8.22868081710851
20
-23.7672030231185
30
0
41
1
10
8.21358407401564
20
-23.7586801045418
30
0
41
1
10
8.20641626669956
20
-23.7543620682907
30
0
41
1
10
8.18590373003096
20
-23.7412544902041
30
0
41
1
10
8.17354242877877
20
-23.7323123198157
30
0
41
1
10
8.13959628273548
20
-23.7049589195931
30
0
41
1
10
8.12110769698509
20
-23.6860254491251
30
0
41
1
10
8.10566243270267
20
-23.6665017920808
30
0
0
SPLINE
5
134
100
AcDbEntity
8
1
62
256
6
ByLayer
370
18
48
1
60
0
100
AcDbSpline
70
4
71
3
72
26
73
22
40
0
40
0
40
0
40
0
40
0.249999999999996
40
0.249999999999996
40
0.374999999999995
40
0.374999999999995
40
0.499999999999995
40
0.499999999999995
40
0.562499999999995
40
0.562499999999995
40
0.624999999999996
40
0.624999999999996
40
0.749999999999998
40
0.749999999999998
40
0.875
40
0.875
40
0.90625
40
0.90625
40
0.9375
40
0.9375
40
1
40
1
40
1
40
1
41
1
10
8.10566243270253
20
-8.05584836782782
30
0
41
1
10
8.12111376292626
20
-7.99846916820718
30
0
41
1
10
8.13975567725333
20
-7.94172327888202
30
0
41
1
10
8.17378037377094
20
-7.85937042586596
30
0
41
1
10
8.18614807229017
20
-7.83234954293013
30
0
41
1
10
8.21342389595023
20
-7.77938351245621
30
0
41
1
10
8.22832307576431
20
-7.75343444963914
30
0
41
1
10
8.25319826338284
20
-7.71559105034081
30
0
41
1
10
8.26194447360368
20
-7.70312184666889
30
0
41
1
10
8.28022638701603
20
-7.67891539799638
30
0
41
1
10
8.28977330576541
20
-7.66715495165658
30
0
41
1
10
8.31983115452977
20
-7.63307325241217
30
0
41
1
10
8.3417075440052
20
-7.61190750686276
30
0
41
1
10
8.39103491659975
20
-7.57431556968126
30
0
41
1
10
8.41759599948901
20
-7.55857361750122
30
0
41
1
10
8.45410433072652
20
-7.54444995843585
30
0
41
1
10
8.46159876658839
20
-7.54190496002269
30
0
41
1
10
8.47665111869043
20
-7.53753139400649
30
0
41
1
10
8.48424201300779
20
-7.53568798536671
30
0
41
1
10
8.50721568825682
20
-7.53122440152964
30
0
41
1
10
8.52279868798016
20
-7.52966679426521
30
0
41
1
10
8.53867513459488
20
-7.52966679426521
30
0
0
SPLINE
5
135
100
AcDbEntity
8
1
62
256
6
ByLayer
370
18
48
1
60
0
100
AcDbSpline
70
4
71
3
72
30
73
26
40
0
40
0
40
0
40
0
40
0.062500000000005
40
0.062500000000005
40
0.12500000000001
40
0.12500000000001
40
0.156250000000012
40
0.156250000000012
40
0.187500000000014
40
0.187500000000014
40
0.250000000000013
40
0.250000000000013
40
0.312500000000012
40
0.312500000000012
40
0.375000000000011
40
0.375000000000011
40
0.500000000000011
40
0.500000000000011
40
0.56250000000001
40
0.56250000000001
40
0.62500000000001
40
0.62500000000001
40
0.750000000000009
40
0.750000000000009
40
1
40
1
40
1
40
1
41
1
10
11.4613248654052
20
-7.52966679426495
30
0
41
1
10
11.477175816822
20
-7.52966679426495
30
0
41
1
10
11.4929356027573
20
-7.53123335639165
30
0
41
1
10
11.5239007732521
20
-7.53729092133952
30
0
41
1
10
11.53884494046
20
-7.54171396614046
30
0
41
1
10
11.5605721090663
20
-7.55013193108826
30
0
41
1
10
11.5676991017995
20
-7.55323657194805
30
0
41
1
10
11.5817366894217
20
-7.56000567013078
30
0
41
1
10
11.5886665813883
20
-7.56368345606458
30
0
41
1
10
11.6088302857938
20
-7.57531366225038
30
0
41
1
10
11.6215461384038
20
-7.58390025536215
30
0
41
1
10
11.6458165560481
20
-7.60240297286813
30
0
41
1
10
11.6573691354905
20
-7.61232137865167
30
0
41
1
10
11.6794995583259
20
-7.63327217102551
30
0
41
1
10
11.6901125047557
20
-7.64434849039861
30
0
41
1
10
11.7203772593316
20
-7.67866353751199
30
0
41
1
10
11.7384769785308
20
-7.70292805784945
30
0
41
1
10
11.7633824368151
20
-7.74081492713995
30
0
41
1
10
11.7713191828915
20
-7.75372482186646
30
0
41
1
10
11.7864159259844
20
-7.77980127287398
30
0
41
1
10
11.7935837333005
20
-7.79297622996174
30
0
41
1
10
11.8140962699691
20
-7.8328550605851
30
0
41
1
10
11.8264575712212
20
-7.85991012495435
30
0
41
1
10
11.8604037172645
20
-7.94218253951274
30
0
41
1
10
11.8788923030149
20
-7.9984916943493
30
0
41
1
10
11.8943375672973
20
-8.05584836782791
30
0
0
SPLINE
5
136
100
AcDbEntity
8
1
62
256
6
ByLayer
370
18
48
1
60
0
100
AcDbSpline
70
4
71
3
72
26
73
22
40
0
40
0
40
0
40
0
40
0.249999999999999
40
0.249999999999999
40
0.375
40
0.375
40
0.499999999999998
40
0.499999999999998
40
0.562499999999999
40
0.562499999999999
40
0.625
40
0.625
40
0.750000000000003
40
0.750000000000003
40
0.875000000000007
40
0.875000000000007
40
0.906250000000006
40
0.906250000000006
40
0.937500000000006
40
0.937500000000006
40
1
40
1
40
1
40
1
41
1
10
8.1056624327025
20
23.6665017920808
30
0
41
1
10
8.12111376292626
20
23.686033116806
30
0
41
1
10
8.13975567725333
20
23.7051129235882
30
0
41
1
10
8.17378037377097
20
23.7324910902464
30
0
41
1
10
8.18614807229017
20
23.7414211400326
30
0
41
1
10
8.21342389595023
20
23.7588292909636
30
0
41
1
10
8.22832307576431
20
23.7673085978343
30
0
41
1
10
8.25319826338284
20
23.7796095569563
30
0
41
1
10
8.26194447360365
20
23.7836514357395
30
0
41
1
10
8.280226387016
20
23.7914778883489
30
0
41
1
10
8.28977330576541
20
23.7952700628808
30
0
41
1
10
8.31983115452977
20
23.8062336877526
30
0
41
1
10
8.3417075440052
20
23.813005969379
30
0
41
1
10
8.39103491659972
20
23.8249896713849
30
0
41
1
10
8.41759599948898
20
23.8299833264009
30
0
41
1
10
8.45410433072652
20
23.8344558067494
30
0
41
1
10
8.46159876658837
20
23.8352611656444
30
0
41
1
10
8.4766511186904
20
23.8366445991221
30
0
41
1
10
8.48424201300776
20
23.8372273769848
30
0
41
1
10
8.50721568825679
20
23.8386381480423
30
0
41
1
10
8.52279868798016
20
23.8391299750503
30
0
41
1
10
8.53867513459488
20
23.8391299750502
30
0
0
SPLINE
5
137
100
AcDbEntity
8
1
62
256
6
ByLayer
370
18
48
1
60
0
100
AcDbSpline
70
4
71
3
72
30
73
26
40
0
40
0
40
0
40
0
40
0.0624999999999983
40
0.0624999999999983
40
0.124999999999997
40
0.124999999999997
40
0.156249999999996
40
0.156249999999996
40
0.187499999999996
40
0.187499999999996
40
0.249999999999998
40
0.249999999999998
40
0.312499999999999
40
0.312499999999999
40
0.375000000000001
40
0.375000000000001
40
0.500000000000005
40
0.500000000000005
40
0.562500000000005
40
0.562500000000005
40
0.625000000000005
40
0.625000000000005
40
0.750000000000002
40
0.750000000000002
40
1
40
1
40
1
40
1
41
1
10
11.4613248654052
20
23.8391299750504
30
0
41
1
10
11.477175816822
20
23.8391299750504
30
0
41
1
10
11.4929356027573
20
23.8386353263249
30
0
41
1
10
11.5239007732521
20
23.8367207404254
30
0
41
1
10
11.53884494046
20
23.8353222152631
30
0
41
1
10
11.5605721090663
20
23.8326565134122
30
0
41
1
10
11.5676991017994
20
23.8316728303992
30
0
41
1
10
11.5817366894217
20
23.8295263669799
30
0
41
1
10
11.5886665813883
20
23.8283593459882
30
0
41
1
10
11.6088302857937
20
23.8246655611124
30
0
41
1
10
11.6215461384038
20
23.8219342456095
30
0
41
1
10
11.6458165560481
20
23.816035844018
30
0
41
1
10
11.6573691354905
20
23.812868038308
30
0
41
1
10
11.6794995583258
20
23.8061604830514
30
0
41
1
10
11.6901125047557
20
23.8026065911346
30
0
41
1
10
11.7203772593316
20
23.7915679133937
30
0
41
1
10
11.7384769785308
20
23.7837256270429
30
0
41
1
10
11.763382436815
20
23.7714105724815
30
0
41
1
10
11.7713191828915
20
23.7672030231185
30
0
41
1
10
11.7864159259844
20
23.7586801045418
30
0
41
1
10
11.7935837333004
20
23.7543620682907
30
0
41
1
10
11.814096269969
20
23.7412544902041
30
0
41
1
10
11.8264575712212
20
23.7323123198157
30
0
41
1
10
11.8604037172645
20
23.7049589195931
30
0
41
1
10
11.8788923030149
20
23.6860254491251
30
0
41
1
10
11.8943375672973
20
23.6665017920808
30
0
0
SPLINE
5
138
100
AcDbEntity
8
1
62
256
6
ByLayer
370
18
48
1
60
0
100
AcDbSpline
70
4
71
3
72
26
73
22
40
0
40
0
40
0
40
0
40
0.250000000000011
40
0.250000000000011
40
0.375000000000014
40
0.375000000000014
40
0.500000000000017
40
0.500000000000017
40
0.562500000000015
40
0.562500000000015
40
0.625000000000013
40
0.625000000000013
40
0.750000000000009
40
0.750000000000009
40
0.875000000000005
40
0.875000000000005
40
0.906250000000004
40
0.906250000000004
40
0.937500000000003
40
0.937500000000003
40
1
40
1
40
1
40
1
41
1
10
11.8943375672975
20
8.05584836782785
30
0
41
1
10
11.8788862370737
20
7.99846916820721
30
0
41
1
10
11.8602443227466
20
7.94172327888199
30
0
41
1
10
11.8262196262291
20
7.85937042586593
30
0
41
1
10
11.8138519277098
20
7.83234954293013
30
0
41
1
10
11.7865761040498
20
7.77938351245621
30
0
41
1
10
11.7716769242357
20
7.75343444963914
30
0
41
1
10
11.7468017366172
20
7.71559105034081
30
0
41
1
10
11.7380555263963
20
7.70312184666892
30
0
41
1
10
11.719773612984
20
7.67891539799638
30
0
41
1
10
11.7102266942346
20
7.66715495165661
30
0
41
1
10
11.6801688454702
20
7.6330732524122
30
0
41
1
10
11.6582924559948
20
7.61190750686279
30
0
41
1
10
11.6089650834003
20
7.57431556968129
30
0
41
1
10
11.582404000511
20
7.55857361750125
30
0
41
1
10
11.5458956692735
20
7.54444995843588
30
0
41
1
10
11.5384012334116
20
7.54190496002272
30
0
41
1
10
11.5233488813096
20
7.53753139400652
30
0
41
1
10
11.5157579869922
20
7.53568798536674
30
0
41
1
10
11.4927843117432
20
7.53122440152967
30
0
41
1
10
11.4772013120199
20
7.52966679426524
30
0
41
1
10
11.4613248654052
20
7.52966679426524
30
0
0
SPLINE
5
139
100
AcDbEntity
8
1
62
256
6
ByLayer
370
18
48
1
60
0
100
AcDbSpline
70
4
71
3
72
30
73
26
40
0
40
0
40
0
40
0
40
0.0625000000000028
40
0.0625000000000028
40
0.125000000000006
40
0.125000000000006
40
0.156250000000003
40
0.156250000000003
40
0.1875
40
0.1875
40
0.250000000000001
40
0.250000000000001
40
0.312500000000002
40
0.312500000000002
40
0.375000000000003
40
0.375000000000003
40
0.499999999999999
40
0.499999999999999
40
0.562499999999999
40
0.562499999999999
40
0.624999999999998
40
0.624999999999998
40
0.75
40
0.75
40
1
40
1
40
1
40
1
41
1
10
8.5386751345948
20
7.5296667942649
30
0
41
1
10
8.52282418317805
20
7.5296667942649
30
0
41
1
10
8.50706439724271
20
7.5312333563916
30
0
41
1
10
8.47609922674792
20
7.53729092133946
30
0
41
1
10
8.46115505954
20
7.54171396614041
30
0
41
1
10
8.4394278909337
20
7.5501319310882
30
0
41
1
10
8.43230089820059
20
7.55323657194796
30
0
41
1
10
8.41826331057831
20
7.56000567013072
30
0
41
1
10
8.41133341861178
20
7.5636834560645
30
0
41
1
10
8.39116971420628
20
7.5753136622503
30
0
41
1
10
8.3784538615962
20
7.58390025536207
30
0
41
1
10
8.35418344395194
20
7.60240297286808
30
0
41
1
10
8.34263086450954
20
7.61232137865161
30
0
41
1
10
8.3205004416742
20
7.63327217102542
30
0
41
1
10
8.30988749524428
20
7.64434849039853
30
0
41
1
10
8.2796227406684
20
7.67866353751194
30
0
41
1
10
8.2615230214692
20
7.70292805784939
30
0
41
1
10
8.23661756318495
20
7.74081492713989
30
0
41
1
10
8.22868081710851
20
7.7537248218664
30
0
41
1
10
8.21358407401564
20
7.77980127287393
30
0
41
1
10
8.20641626669956
20
7.79297622996165
30
0
41
1
10
8.18590373003096
20
7.83285506058505
30
0
41
1
10
8.1735424287788
20
7.8599101249543
30
0
41
1
10
8.13959628273551
20
7.94218253951269
30
0
41
1
10
8.12110769698506
20
7.99849169434927
30
0
41
1
10
8.10566243270267
20
8.05584836782788
30
0
0
SPLINE
5
13A
100
AcDbEntity
8
1
62
256
6
ByLayer
370
18
48
1
60
0
100
AcDbSpline
70
4
71
3
72
10
73
6
40
0
40
0
40
0
40
0
40
0.5
40
0.5
40
1
40
1
40
1
40
1
41
1
10
20.077973744624
20
-19.1549669624732
30
0
41
1
10
20.0797300588642
20
-19.3237565632347
30
0
41
1
10
20.0966029574405
20
-19.4880304671092
30
0
41
1
10
20.1626283825148
20
-19.8076877351775
30
0
41
1
10
20.2117517757231
20
-19.9630721293427
30
0
41
1
10
20.2792076144253
20
-20.113995121038
30
0
0
SPLINE
5
13B
100
AcDbEntity
8
SK1
62
256
6
ByLayer
370
18
48
1
60
0
100
AcDbSpline
70
4
71
3
72
45
73
41
40
0
40
0
40
0
40
0
40
0.0236931883370592
40
0.0517111920368354
40
0.0797291957366116
40
0.107747199436388
40
0.16378320683594
40
0.219819214235492
40
0.247837217935269
40
0.275855221635045
40
0.303873225334821
40
0.331891229034597
40
0.359909232734373
40
0.38792723643415
40
0.415945240133926
40
0.429954241983814
40
0.443963243833702
40
0.471981247533478
40
0.485990249383366
40
0.49299475030831
40
0.499999251233254
40
0.507003752158198
40
0.514008253083142
40
0.52801725493303
40
0.556035258632807
40
0.570044260482695
40
0.584053262332583
40
0.612071266032359
40
0.640089269732135
40
0.668107273431911
40
0.696125277131688
40
0.724143280831464
40
0.75216128453124
40
0.780179288231016
40
0.836215295630569
40
0.892251303030121
40
0.920269306729897
40
0.948287310429673
40
0.976305314129449
40
1
40
1
40
1
40
1
41
1
10
-30
20
-15.9931897510075
30
0
41
1
10
-30
20
-15.9976527146402
30
0
41
1
10
-30
20
-15.9670746995968
30
0
41
1
10
-30
20
-15.7965327535813
30
0
41
1
10
-30
20
-15.4890634139888
30
0
41
1
10
-30
20
-14.9202427964398
30
0
41
1
10
-30
20
-13.9430330734595
30
0
41
1
10
-30
20
-12.6450674903883
30
0
41
1
10
-30
20
-11.4213703912989
30
0
41
1
10
-30
20
-10.4224348167646
30
0
41
1
10
-30
20
-9.34179238961872
30
0
41
1
10
-30
20
-8.18272269843541
30
0
41
1
10
-30
20
-6.94914704263559
30
0
41
1
10
-30
20
-5.64597176408017
30
0
41
1
10
-30
20
-4.51272494557483
30
0
41
1
10
-30
20
-3.56968220154852
30
0
41
1
10
-30
20
-2.61530613672116
30
0
41
1
10
-30
20
-1.675914880346
30
0
41
1
10
-30
20
-0.8333415404785
30
0
41
1
10
-30
20
-0.354131996183753
30
0
41
1
10
-30
20
-4.002277763E-07
30
0
41
1
10
-30
20
0.354131622770439
30
0
41
1
10
-30
20
0.833341855678952
30
0
41
1
10
-30
20
1.67591474804155
30
0
41
1
10
-30
20
2.61530592334967
30
0
41
1
10
-30
20
3.56968201835696
30
0
41
1
10
-30
20
4.51272453462846
30
0
41
1
10
-30
20
5.64597210397025
30
0
41
1
10
-30
20
6.94914665451276
30
0
41
1
10
-30
20
8.18272261240929
30
0
41
1
10
-30
20
9.34179268341308
30
0
41
1
10
-30
20
10.4224345134304
30
0
41
1
10
-30
20
11.42137036219
30
0
41
1
10
-30
20
12.6450678356931
30
0
41
1
10
-30
20
13.9430327235571
30
0
41
1
10
-30
20
14.9202435431778
30
0
41
1
10
-30
20
15.4890632796305
30
0
41
1
10
-30
20
15.7965331178349
30
0
41
1
10
-30
20
15.9670784616308
30
0
41
1
10
-30
20
15.9976546223041
30
0
41
1
10
-30
20
15.9931890155501
30
0
0
SPLINE
5
13C
100
AcDbEntity
8
SK1
62
256
6
ByLayer
370
18
48
1
60
0
100
AcDbSpline
70
4
71
3
72
38
73
34
40
0
40
0
40
0
40
0
40
0.0156249999999994
40
0.0156249999999994
40
0.0312499999999989
40
0.0312499999999989
40
0.0468749999999983
40
0.0468749999999983
40
0.0624999999999978
40
0.0624999999999978
40
0.0781249999999972
40
0.0781249999999972
40
0.0937499999999967
40
0.0937499999999967
40
0.124999999999996
40
0.124999999999996
40
0.156249999999996
40
0.156249999999996
40
0.187499999999995
40
0.187499999999995
40
0.249999999999994
40
0.249999999999994
40
0.312499999999993
40
0.312499999999993
40
0.374999999999993
40
0.374999999999993
40
0.499999999999994
40
0.499999999999994
40
0.624999999999995
40
0.624999999999995
40
0.749999999999996
40
0.749999999999996
40
1
40
1
40
1
40
1
41
1
10
-0.394913799811292
20
5.38724256160012
30
0
41
1
10
-0.391760928947491
20
5.38456196831947
30
0
41
1
10
-0.388473887026265
20
5.38206549938212
30
0
41
1
10
-0.38153937388509
20
5.37756780385979
30
0
41
1
10
-0.377868038063696
20
5.37555831609174
30
0
41
1
10
-0.370241250613816
20
5.3723360299343
30
0
41
1
10
-0.366271728735939
20
5.37110702101791
30
0
41
1
10
-0.357904387099552
20
5.36969675293611
30
0
41
1
10
-0.353672033871135
20
5.36955188220819
30
0
41
1
10
-0.34515378855366
20
5.37051023807433
30
0
41
1
10
-0.340905624745204
20
5.37162929612282
30
0
41
1
10
-0.332865959292377
20
5.37490714744834
30
0
41
1
10
-0.328982330604219
20
5.37709874944122
30
0
41
1
10
-0.318249907555923
20
5.38460165612528
30
0
41
1
10
-0.312019326339481
20
5.39094692539055
30
0
41
1
10
-0.301003751718952
20
5.40461199814789
30
0
41
1
10
-0.296164698039007
20
5.41201401791545
30
0
41
1
10
-0.287542348293414
20
5.4270010731546
30
0
41
1
10
-0.283724888361974
20
5.43464123738531
30
0
41
1
10
-0.27320640701916
20
5.45783596374696
30
0
41
1
10
-0.267422418729012
20
5.47365965349934
30
0
41
1
10
-0.257164394743881
20
5.50568135296541
30
0
41
1
10
-0.252718404682298
20
5.5218878599284
30
0
41
1
10
-0.244723140953198
20
5.55455058376137
30
0
41
1
10
-0.241184891539916
20
5.57099638970121
30
0
41
1
10
-0.231616433421465
20
5.62029294902339
30
0
41
1
10
-0.226581907125762
20
5.65322539657006
30
0
41
1
10
-0.218149341071296
20
5.71913713924843
30
0
41
1
10
-0.214779228537765
20
5.75205694597241
30
0
41
1
10
-0.20923421427949
20
5.81770188154849
30
0
41
1
10
-0.207062820514693
20
5.85044931358669
30
0
41
1
10
-0.201930655445068
20
5.94848814748264
30
0
41
1
10
-0.200329859654715
20
6.01357702681216
30
0
41
1
10
-0.199999999999989
20
6.07843116862819
30
0
0
SPLINE
5
13D
100
AcDbEntity
8
SK1
62
256
6
ByLayer
370
18
48
1
60
0
100
AcDbSpline
70
4
71
3
72
38
73
34
40
0
40
0
40
0
40
0
40
0.250000000000001
40
0.250000000000001
40
0.375
40
0.375
40
0.499999999999999
40
0.499999999999999
40
0.624999999999997
40
0.624999999999997
40
0.687499999999997
40
0.687499999999997
40
0.749999999999996
40
0.749999999999996
40
0.812499999999996
40
0.812499999999996
40
0.843749999999997
40
0.843749999999997
40
0.874999999999998
40
0.874999999999998
40
0.906249999999999
40
0.906249999999999
40
0.921874999999999
40
0.921874999999999
40
0.9375
40
0.9375
40
0.953125
40
0.953125
40
0.96875
40
0.96875
40
0.984375
40
0.984375
40
1
40
1
40
1
40
1
41
1
10
-0.199999999999989
20
-6.07843244581235
30
0
41
1
10
-0.200330038101583
20
-6.01354333629638
30
0
41
1
10
-0.201932717755398
20
-5.94845143863458
30
0
41
1
10
-0.207061534202296
20
-5.85047499196594
30
0
41
1
10
-0.20923073586448
20
-5.81775962891638
30
0
41
1
10
-0.214765406462959
20
-5.75220767186642
30
0
41
1
10
-0.218124597314045
20
-5.71937115218233
30
0
41
1
10
-0.22653373528064
20
-5.65356559342146
30
0
41
1
10
-0.231573562776475
20
-5.62053570750788
30
0
41
1
10
-0.241167183894675
20
-5.57107991706795
30
0
41
1
10
-0.244699800125915
20
-5.55465646091204
30
0
41
1
10
-0.252692130238899
20
-5.52198910291162
30
0
41
1
10
-0.257144178245824
20
-5.50574351678898
30
0
41
1
10
-0.267463037667511
20
-5.47353830586408
30
0
41
1
10
-0.273296210573335
20
-5.45757128507682
30
0
41
1
10
-0.284017391060786
20
-5.43403466061349
30
0
41
1
10
-0.28792239407619
20
-5.42628126698935
30
0
41
1
10
-0.296591327986164
20
-5.41134235290917
30
0
41
1
10
-0.301354650858116
20
-5.40411801099191
30
0
41
1
10
-0.312400979321524
20
-5.39054104494755
30
0
41
1
10
-0.318577749103326
20
-5.38430052549953
30
0
41
1
10
-0.329419339218219
20
-5.37683593115614
30
0
41
1
10
-0.333263890221929
20
-5.37470929745373
30
0
41
1
10
-0.341321667102989
20
-5.37150405183561
30
0
41
1
10
-0.345568573158772
20
-5.37043109064084
30
0
41
1
10
-0.35401586551319
20
-5.36955368909105
30
0
41
1
10
-0.358331183030089
20
-5.36974313779842
30
0
41
1
10
-0.366503702076443
20
-5.37117873901857
30
0
41
1
10
-0.370423579197166
20
-5.3724029821978
30
0
41
1
10
-0.378006935713074
20
-5.37563233451903
30
0
41
1
10
-0.381650196472492
20
-5.37763658736259
30
0
41
1
10
-0.388519962703782
20
-5.3821033059937
30
0
41
1
10
-0.391781832950699
20
-5.38458208568073
30
0
41
1
10
-0.394913799809103
20
-5.38724490303883
30
0
0
SPLINE
5
13E
100
AcDbEntity
8
SK1
62
256
6
ByLayer
370
13
48
1
60
0
100
AcDbSpline
70
4
71
3
72
20
73
16
40
0
40
0
40
0
40
0
40
0.06738504073868
40
0.135634765278852
40
0.203884489819023
40
0.272134214359195
40
0.408633663439538
40
0.545133112519881
40
0.613382837060053
40
0.681632561600224
40
0.749882286140396
40
0.818132010680567
40
0.886381735220739
40
0.95463145976091
40
1
40
1
40
1
40
1
41
1
10
-0.394913799811349
20
17.3602188926963
30
0
41
1
10
-0.394913799811235
20
17.3741382160798
30
0
41
1
10
-0.394913799811292
20
17.3456596443646
30
0
41
1
10
-0.394913799811292
20
17.1536380024563
30
0
41
1
10
-0.394913799811292
20
16.8259463034278
30
0
41
1
10
-0.394913799811292
20
16.224825355641
30
0
41
1
10
-0.394913799811292
20
15.1889742433629
30
0
41
1
10
-0.394913799811292
20
13.8156305223415
30
0
41
1
10
-0.394913799811292
20
12.5286533763275
30
0
41
1
10
-0.394913799811292
20
11.4729576347282
30
0
41
1
10
-0.394913799811292
20
10.3283869583107
30
0
41
1
10
-0.394913799811292
20
9.09679923539034
30
0
41
1
10
-0.394913799811292
20
7.7796880789966
30
0
41
1
10
-0.394913799811292
20
6.5348354946259
30
0
41
1
10
-0.394913799811292
20
5.7190547501427
30
0
41
1
10
-0.394913799811292
20
5.38724256160785
30
0
0
SPLINE
5
13F
100
AcDbEntity
8
SK1
62
256
6
ByLayer
370
13
48
1
60
0
100
AcDbSpline
70
4
71
3
72
20
73
16
40
0
40
0
40
0
40
0
40
0.0453684843286251
40
0.113618272975615
40
0.181868061622604
40
0.250117850269594
40
0.318367638916584
40
0.386617427563574
40
0.454867216210563
40
0.591366793504543
40
0.727866370798522
40
0.796116159445512
40
0.864365948092502
40
0.932615736739491
40
1
40
1
40
1
40
1
41
1
10
-0.394913799811292
20
-5.38724490303881
30
0
41
1
10
-0.394913799811292
20
-5.71905630139054
30
0
41
1
10
-0.394913799811292
20
-6.53483606378791
30
0
41
1
10
-0.394913799811292
20
-7.77968825069564
30
0
41
1
10
-0.394913799811292
20
-9.09679950047928
30
0
41
1
10
-0.394913799811292
20
-10.3283867090429
30
0
41
1
10
-0.394913799811292
20
-11.4729578043957
30
0
41
1
10
-0.394913799811292
20
-12.5286535254346
30
0
41
1
10
-0.394913799811292
20
-13.8156301488903
30
0
41
1
10
-0.394913799811292
20
-15.1889746622834
30
0
41
1
10
-0.394913799811292
20
-16.2248245878661
30
0
41
1
10
-0.394913799811292
20
-16.8259464323311
30
0
41
1
10
-0.394913799811292
20
-17.1536376810083
30
0
41
1
10
-0.394913799811292
20
-17.3456582493271
30
0
41
1
10
-0.394913799811292
20
-17.3741378069846
30
0
41
1
10
-0.394913799811263
20
-17.360219311185
30
0
0
SPLINE
5
140
100
AcDbEntity
8
SK1
62
256
6
ByLayer
370
18
48
1
60
0
100
AcDbSpline
70
4
71
3
72
53
73
49
40
0
40
0
40
0
40
0
40
0.0156250000000009
40
0.0156250000000009
40
0.0312500000000018
40
0.0312500000000018
40
0.0625000000000042
40
0.0625000000000042
40
0.070312500000004
40
0.070312500000004
40
0.0781250000000039
40
0.0937500000000039
40
0.0937500000000039
40
0.101562500000004
40
0.101562500000004
40
0.109375000000004
40
0.109375000000004
40
0.125000000000004
40
0.125000000000004
40
0.140625000000004
40
0.140625000000004
40
0.156250000000004
40
0.156250000000004
40
0.187500000000004
40
0.187500000000004
40
0.218750000000004
40
0.218750000000004
40
0.250000000000004
40
0.250000000000004
40
0.281250000000004
40
0.281250000000004
40
0.312500000000004
40
0.312500000000004
40
0.375000000000003
40
0.375000000000003
40
0.437500000000003
40
0.437500000000003
40
0.500000000000002
40
0.500000000000002
40
0.625
40
0.625
40
0.687499999999999
40
0.687499999999999
40
0.749999999999998
40
0.749999999999998
40
0.874999999999999
40
0.874999999999999
40
1
40
1
40
1
40
1
41
1
10
-0.394913799811292
20
-5.38724490303878
30
0
41
1
10
-0.403020392727001
20
-5.39413717786459
30
0
41
1
10
-0.411386251483464
20
-5.40075705360886
30
0
41
1
10
-0.428743917867422
20
-5.41334179407005
30
0
41
1
10
-0.437770416117502
20
-5.41932732155468
30
0
41
1
10
-0.465729936503891
20
-5.43590631685376
30
0
41
1
10
-0.48545098532486
20
-5.44513209892818
30
0
41
1
10
-0.512078734988137
20
-5.4533397528954
30
0
41
1
10
-0.517525389033295
20
-5.45481548249097
30
0
41
1
10
-0.528445210270348
20
-5.45734844847985
30
0
41
1
10
-0.544917445528711
20
-5.460540346752
30
0
41
1
10
-0.561675487241871
20
-5.46185622962997
30
0
41
1
10
-0.578637021974174
20
-5.46183701163628
30
0
41
1
10
-0.584356912700059
20
-5.46160478770398
30
0
41
1
10
-0.595695338836947
20
-5.46069496960087
30
0
41
1
10
-0.601299914959668
20
-5.46002170773141
30
0
41
1
10
-0.617932285477139
20
-5.4573891634796
30
0
41
1
10
-0.628779113835947
20
-5.45481846069112
30
0
41
1
10
-0.650045797816915
20
-5.44823342219192
30
0
41
1
10
-0.660532703009153
20
-5.44418605279546
30
0
41
1
10
-0.680770506185979
20
-5.43496537787163
30
0
41
1
10
-0.690494000998427
20
-5.42981903443436
30
0
41
1
10
-0.718704728837821
20
-5.41307616107991
30
0
41
1
10
-0.736341322354406
20
-5.40008757388534
30
0
41
1
10
-0.768905931142342
20
-5.3725169261117
30
0
41
1
10
-0.783971777383812
20
-5.35785904442625
30
0
41
1
10
-0.812437519911725
20
-5.32733553299158
30
0
41
1
10
-0.825828436847388
20
-5.3114635713869
30
0
41
1
10
-0.851357742368549
20
-5.27880041053604
30
0
41
1
10
-0.863513824307887
20
-5.26197522516898
30
0
41
1
10
-0.886742970836508
20
-5.22772922691763
30
0
41
1
10
-0.897760317588364
20
-5.21039425330497
30
0
41
1
10
-0.9294183550615
20
-5.15788155457784
30
0
41
1
10
-0.948685190430837
20
-5.12220258194975
30
0
41
1
10
-0.984745886096846
20
-5.04988928444084
30
0
41
1
10
-1.00152410230015
20
-5.01324987497119
30
0
41
1
10
-1.0332301135569
20
-4.93921284702586
30
0
41
1
10
-1.0481521641187
20
-4.90181336669085
30
0
41
1
10
-1.09072783956063
20
-4.7886606233923
30
0
41
1
10
-1.11622081339451
20
-4.71196262616613
30
0
41
1
10
-1.15147501748677
20
-4.59543056617446
30
0
41
1
10
-1.16271294340757
20
-4.55635268985438
30
0
41
1
10
-1.18426257821704
20
-4.47793290560358
30
0
41
1
10
-1.19458151328425
20
-4.4385658061575
30
0
41
1
10
-1.22434718173432
20
-4.32001891689728
30
0
41
1
10
-1.24261095077244
20
-4.24039497937332
30
0
41
1
10
-1.27663490881506
20
-4.08005058420358
30
0
41
1
10
-1.29239108240535
20
-3.99932964943406
30
0
41
1
10
-1.30710678118655
20
-3.91808311129773
30
0
0
SPLINE
5
141
100
AcDbEntity
8
SK1
62
256
6
ByLayer
370
18
48
1
60
0
100
AcDbSpline
70
4
71
3
72
38
73
34
40
0
40
0
40
0
40
0
40
0.0625000000000006
40
0.0625000000000006
40
0.125000000000001
40
0.125000000000001
40
0.187500000000002
40
0.187500000000002
40
0.218750000000002
40
0.218750000000002
40
0.250000000000002
40
0.250000000000002
40
0.375000000000002
40
0.375000000000002
40
0.437500000000002
40
0.437500000000002
40
0.500000000000002
40
0.500000000000002
40
0.562500000000002
40
0.562500000000002
40
0.593750000000002
40
0.593750000000002
40
0.609375000000002
40
0.609375000000002
40
0.625000000000002
40
0.625000000000002
40
0.750000000000001
40
0.750000000000001
40
0.875000000000001
40
0.875000000000001
40
0.9375
40
0.9375
40
1
40
1
40
1
40
1
41
1
10
-1.30710678118655
20
-3.91808311129768
30
0
41
1
10
-1.33526589565594
20
-3.76261441071907
30
0
41
1
10
-1.36271475580057
20
-3.60607338167009
30
0
41
1
10
-1.41582315096537
20
-3.29066553946589
30
0
41
1
10
-1.44149329508792
20
-3.13180385741538
30
0
41
1
10
-1.49055743488208
20
-2.81150726182858
30
0
41
1
10
-1.51394731043968
20
-2.65007047288915
30
0
41
1
10
-1.54688933197929
20
-2.40575612114199
30
0
41
1
10
-1.55749771994263
20
-2.32406172494169
30
0
41
1
10
-1.57784909269048
20
-2.16057674059007
30
0
41
1
10
-1.5876007265538
20
-2.07872253566575
30
0
41
1
10
-1.63408221528164
20
-1.66887252592323
30
0
41
1
10
-1.66399327242203
20
-1.33914312869115
30
0
41
1
10
-1.69494665814693
20
-0.84136228930052
30
0
41
1
10
-1.70293626023371
20
-0.674902568806118
30
0
41
1
10
-1.71367008139578
20
-0.340831662555303
30
0
41
1
10
-1.71636335941631
20
-0.173213348331842
30
0
41
1
10
-1.71646782396985
20
0.163187101305937
30
0
41
1
10
-1.71388361409092
20
0.331968562038014
30
0
41
1
10
-1.70582437938029
20
0.58605256890192
30
0
41
1
10
-1.70245250680873
20
0.670897601193644
30
0
41
1
10
-1.69640659794263
20
0.798386309984636
30
0
41
1
10
-1.69422507481974
20
0.840939584978486
30
0
41
1
10
-1.68955923537888
20
0.925771372654225
30
0
41
1
10
-1.68707319146449
20
0.968091690681831
30
0
41
1
10
-1.66337509736468
20
1.34813830750841
30
0
41
1
10
-1.63296978491243
20
1.6800471987703
30
0
41
1
10
-1.55846884179033
20
2.33418302861884
30
0
41
1
10
-1.51435013598103
20
2.65639932915298
30
0
41
1
10
-1.44117770353176
20
3.13375373985022
30
0
41
1
10
-1.41562242099803
20
3.29187611045597
30
0
41
1
10
-1.36267126502631
20
3.60631098585768
30
0
41
1
10
-1.33526487251859
20
3.76261955749285
30
0
41
1
10
-1.30710678118655
20
3.91808269248793
30
0
0
SPLINE
5
142
100
AcDbEntity
8
SK1
62
256
6
ByLayer
370
18
48
1
60
0
100
AcDbSpline
70
4
71
3
72
50
73
46
40
0
40
0
40
0
40
0
40
0.124999999999999
40
0.124999999999999
40
0.249999999999997
40
0.249999999999997
40
0.312499999999997
40
0.312499999999997
40
0.374999999999997
40
0.374999999999997
40
0.499999999999997
40
0.499999999999997
40
0.562499999999997
40
0.562499999999997
40
0.624999999999998
40
0.624999999999998
40
0.687499999999998
40
0.687499999999998
40
0.718749999999998
40
0.718749999999998
40
0.749999999999998
40
0.749999999999998
40
0.781249999999998
40
0.781249999999998
40
0.812499999999999
40
0.812499999999999
40
0.843749999999999
40
0.843749999999999
40
0.859374999999999
40
0.859374999999999
40
0.874999999999999
40
0.874999999999999
40
0.890624999999999
40
0.890624999999999
40
0.906249999999999
40
0.906249999999999
40
0.921874999999999
40
0.921874999999999
40
0.937499999999999
40
0.937499999999999
40
0.953125
40
0.953125
40
0.96875
40
0.96875
40
1
40
1
40
1
40
1
41
1
10
-1.30710678118655
20
3.91808269248796
30
0
41
1
10
-1.29238372607517
20
3.99936988902869
30
0
41
1
10
-1.27661859809459
20
4.08013408760158
30
0
41
1
10
-1.24257202444835
20
4.24057073726354
30
0
41
1
10
-1.22429462395718
20
4.32024366329264
30
0
41
1
10
-1.19450305218299
20
4.43886894670428
30
0
41
1
10
-1.18417456263643
20
4.47826299864514
30
0
41
1
10
-1.16260343866753
20
4.55673847320068
30
0
41
1
10
-1.15135515985605
20
4.5958383808707
30
0
41
1
10
-1.11609621830422
20
4.71234577760799
30
0
41
1
10
-1.09059413059555
20
4.78904752584498
30
0
41
1
10
-1.04798244371665
20
4.90224508459647
30
0
41
1
10
-1.03304457478234
20
4.93966608077309
30
0
41
1
10
-1.00129416978024
20
5.01376164954297
30
0
41
1
10
-0.98448753502646
20
5.05043807526349
30
0
41
1
10
-0.948347177186236
20
5.12284414993096
30
0
41
1
10
-0.9290296408507
20
5.15857889561173
30
0
41
1
10
-0.897260448987026
20
5.21119248410568
30
0
41
1
10
-0.8861698860768
20
5.22860723544372
30
0
41
1
10
-0.862932209486871
20
5.26279281423709
30
0
41
1
10
-0.85080730255018
20
5.27953884086708
30
0
41
1
10
-0.825257514876
20
5.31215335693128
30
0
41
1
10
-0.811836627358673
20
5.32802442998909
30
0
41
1
10
-0.783237057424145
20
5.35859529837754
30
0
41
1
10
-0.768034946557918
20
5.3733304614868
30
0
41
1
10
-0.735187935399324
20
5.40097830060952
30
0
41
1
10
-0.717826906306072
20
5.41366379171245
30
0
41
1
10
-0.689742098894556
20
5.43022628481569
30
0
41
1
10
-0.68003652504504
20
5.43533205618729
30
0
41
1
10
-0.659758151599817
20
5.44449947952498
30
0
41
1
10
-0.649331735085582
20
5.44848807488123
30
0
41
1
10
-0.627999143283205
20
5.45501931647436
30
0
41
1
10
-0.617058166617738
20
5.45757599588921
30
0
41
1
10
-0.594591467840047
20
5.46102572365922
30
0
41
1
10
-0.58336584661788
20
5.4618713105761
30
0
41
1
10
-0.560930035443761
20
5.46180969649637
30
0
41
1
10
-0.549664818445279
20
5.46089328829356
30
0
41
1
10
-0.527386860231843
20
5.45734523281897
30
0
41
1
10
-0.516608715435041
20
5.45476351226009
30
0
41
1
10
-0.495657428995088
20
5.44824432393753
30
0
41
1
10
-0.485484698823484
20
5.44430592701531
30
0
41
1
10
-0.465658214706991
20
5.43526409556435
30
0
41
1
10
-0.455974774655147
20
5.43013648208
30
0
41
1
10
-0.428167571421085
20
5.41359596702645
30
0
41
1
10
-0.411056331481689
20
5.40096705709072
30
0
41
1
10
-0.394913799811292
20
5.38724256160785
30
0
0
SPLINE
5
143
100
AcDbEntity
8
SK1
62
256
6
ByLayer
370
13
48
1
60
0
100
AcDbSpline
70
4
71
3
72
45
73
41
40
0
40
0
40
0
40
0
40
0.0139246996823576
40
0.042517363399252
40
0.0711100271161465
40
0.0997026908330409
40
0.15688801826683
40
0.214073345700619
40
0.242666009417513
40
0.271258673134407
40
0.299851336851302
40
0.328444000568196
40
0.357036664285091
40
0.385629328001985
40
0.41422199171888
40
0.428518323577327
40
0.442814655435774
40
0.471407319152669
40
0.485703651011116
40
0.492851816940339
40
0.499999982869563
40
0.507148148798787
40
0.51429631472801
40
0.528592646586457
40
0.557185310303352
40
0.571481642161799
40
0.585777974020246
40
0.614370637737141
40
0.642963301454035
40
0.67155596517093
40
0.700148628887824
40
0.728741292604718
40
0.757333956321613
40
0.785926620038507
40
0.843111947472296
40
0.900297274906085
40
0.92888993862298
40
0.957482602339874
40
0.986075266056768
40
1
40
1
40
1
40
1
41
1
10
-1.99503997793928
20
17.3200455813361
30
0
41
1
10
-1.99503997793928
20
17.3133444787144
30
0
41
1
10
-1.99503997793928
20
17.2734198507844
30
0
41
1
10
-1.99503997793928
20
17.1138754381145
30
0
41
1
10
-1.99503997793928
20
16.786776230537
30
0
41
1
10
-1.99503997793928
20
16.1866016937524
30
0
41
1
10
-1.99503997793928
20
15.152468715744
30
0
41
1
10
-1.99503997793928
20
13.7813335607202
30
0
41
1
10
-1.99503997793928
20
12.4962104807245
30
0
41
1
10
-1.99503997793928
20
11.4421777785236
30
0
41
1
10
-1.99503997793928
20
10.2994801886281
30
0
41
1
10
-1.99503997793928
20
9.07001720037854
30
0
41
1
10
-1.99503997793928
20
7.7553535878281
30
0
41
1
10
-1.99503997793928
20
6.35676356337376
30
0
41
1
10
-1.99503997793928
20
5.12318891405303
30
0
41
1
10
-1.99503997793928
20
4.0953123914187
30
0
41
1
10
-1.99503997793928
20
3.04236280324244
30
0
41
1
10
-1.99503997793928
20
1.95640624898675
30
0
41
1
10
-1.99503997793928
20
0.981337209960486
30
0
41
1
10
-1.99503997793928
20
0.420771221994357
30
0
41
1
10
-1.99503997793928
20
-6.88173714E-08
30
0
41
1
10
-1.99503997793928
20
-0.420771319084707
30
0
41
1
10
-1.99503997793928
20
-0.981337226851394
30
0
41
1
10
-1.99503997793928
20
-1.95640625727882
30
0
41
1
10
-1.99503997793928
20
-3.04236295320669
30
0
41
1
10
-1.99503997793928
20
-4.09531236648536
30
0
41
1
10
-1.99503997793928
20
-5.12318926412425
30
0
41
1
10
-1.99503997793928
20
-6.35676341745574
30
0
41
1
10
-1.99503997793928
20
-7.75535376586828
30
0
41
1
10
-1.99503997793928
20
-9.07001746022104
30
0
41
1
10
-1.99503997793928
20
-10.2994799380558
30
0
41
1
10
-1.99503997793928
20
-11.4421779521075
30
0
41
1
10
-1.99503997793928
20
-12.4962106263157
30
0
41
1
10
-1.99503997793928
20
-13.7813331880937
30
0
41
1
10
-1.99503997793928
20
-15.1524691326423
30
0
41
1
10
-1.99503997793928
20
-16.1866009265939
30
0
41
1
10
-1.99503997793928
20
-16.7867763596001
30
0
41
1
10
-1.99503997793928
20
-17.1138751154123
30
0
41
1
10
-1.99503997793928
20
-17.2734193722899
30
0
41
1
10
-1.99503997793928
20
-17.3133442582356
30
0
41
1
10
-1.99503997793928
20
-17.3200454187323
30
0
0
SPLINE
5
144
100
AcDbEntity
8
SK1
62
256
6
ByLayer
370
18
48
1
60
0
100
AcDbSpline
70
4
71
3
72
45
73
41
40
0
40
0
40
0
40
0
40
0.0138970887395149
40
0.0424913850482926
40
0.0710856813570702
40
0.0996799776658479
40
0.156868570283403
40
0.214057162900959
40
0.242651459209736
40
0.271245755518514
40
0.299840051827292
40
0.328434348136069
40
0.357028644444847
40
0.385622940753625
40
0.414217237062402
40
0.428514385216791
40
0.44281153337118
40
0.471405829679957
40
0.485702977834346
40
0.492851551911541
40
0.500000125988735
40
0.507148700065929
40
0.514297274143124
40
0.528594422297513
40
0.55718871860629
40
0.571485866760679
40
0.585783014915068
40
0.614377311223846
40
0.642971607532623
40
0.671565903841401
40
0.700160200150179
40
0.728754496458956
40
0.757348792767734
40
0.785943089076512
40
0.843131681694067
40
0.900320274311622
40
0.9289145706204
40
0.957508866929178
40
0.986103163237955
40
1
40
1
40
1
40
1
41
1
10
-2.20000000000002
20
17.5147947903587
30
0
41
1
10
-2.2
20
17.5080196709465
30
0
41
1
10
-2.2
20
17.4676808521955
30
0
41
1
10
-2.2
20
17.3066647416643
30
0
41
1
10
-2.2
20
16.9766928316826
30
0
41
1
10
-2.2
20
16.3719296090069
30
0
41
1
10
-2.2
20
15.3294662349403
30
0
41
1
10
-2.2
20
13.9476228193307
30
0
41
1
10
-2.2
20
12.6535102764493
30
0
41
1
10
-2.2
20
11.5914143063801
30
0
41
1
10
-2.2
20
10.4396350324424
30
0
41
1
10
-2.2
20
9.19987024087132
30
0
41
1
10
-2.2
20
7.87333968058334
30
0
41
1
10
-2.2
20
6.46078587277509
30
0
41
1
10
-2.2
20
5.21252864051553
30
0
41
1
10
-2.2
20
4.17223690222141
30
0
41
1
10
-2.2
20
3.10486136355075
30
0
41
1
10
-2.2
20
1.99745538275133
30
0
41
1
10
-2.2
20
1.00299590932914
30
0
41
1
10
-2.2
20
0.430523737893537
30
0
41
1
10
-2.2
20
-2.03164063E-08
30
0
41
1
10
-2.2
20
-0.430523794544825
30
0
41
1
10
-2.2
20
-1.00299597482069
30
0
41
1
10
-2.2
20
-1.99745537289451
30
0
41
1
10
-2.2
20
-3.10486150423552
30
0
41
1
10
-2.2
20
-4.17223684682958
30
0
41
1
10
-2.2
20
-5.21252898167785
30
0
41
1
10
-2.2
20
-6.4607857552443
30
0
41
1
10
-2.2
20
-7.87333982787851
30
0
41
1
10
-2.2
20
-9.19987052615136
30
0
41
1
10
-2.2
20
-10.4396347881955
30
0
41
1
10
-2.2
20
-11.5914144609754
30
0
41
1
10
-2.2
20
-12.6535104390874
30
0
41
1
10
-2.2
20
-13.9476224427057
30
0
41
1
10
-2.2
20
-15.3294666616432
30
0
41
1
10
-2.2
20
-16.3719288388599
30
0
41
1
10
-2.2
20
-16.9766929599708
30
0
41
1
10
-2.2
20
-17.3066644250431
30
0
41
1
10
-2.20000000000002
20
-17.4676797230887
30
0
41
1
10
-2.20000000000002
20
-17.5080189066288
30
0
41
1
10
-2.20000000000002
20
-17.5147942093787
30
0
0
SPLINE
5
145
100
AcDbEntity
8
SK1
62
256
6
ByLayer
370
18
48
1
60
0
100
AcDbSpline
70
4
71
3
72
45
73
41
40
0
40
0
40
0
40
0
40
0.0275257069477095
40
0.0553183202858633
40
0.083110933624017
40
0.110903546962171
40
0.166488773638478
40
0.222074000314786
40
0.249866613652939
40
0.277659226991093
40
0.305451840329247
40
0.333244453667401
40
0.361037067005554
40
0.388829680343708
40
0.416622293681862
40
0.430518600350939
40
0.444414907020016
40
0.472207520358169
40
0.486103827027246
40
0.493051980361785
40
0.500000133696323
40
0.506948287030862
40
0.5138964403654
40
0.527792747034477
40
0.555585360372631
40
0.569481667041707
40
0.583377973710784
40
0.611170587048938
40
0.638963200387092
40
0.666755813725246
40
0.694548427063399
40
0.722341040401553
40
0.750133653739707
40
0.777926267077861
40
0.833511493754168
40
0.889096720430476
40
0.916889333768629
40
0.944681947106783
40
0.972474560444937
40
1
40
1
40
1
40
1
41
1
10
-28.5
20
16.8545102160964
30
0
41
1
10
-28.5
20
16.8681142907162
30
0
41
1
10
-28.5
20
16.840542799332
30
0
41
1
10
-28.5
20
16.653119129773
30
0
41
1
10
-28.5
20
16.3328855300396
30
0
41
1
10
-28.5
20
15.7436777114932
30
0
41
1
10
-28.5
20
14.7294539424714
30
0
41
1
10
-28.5
20
13.3839109677473
30
0
41
1
10
-28.5
20
12.1202722318355
30
0
41
1
10
-28.5
20
11.0855103162798
30
0
41
1
10
-28.5
20
9.96451747418803
30
0
41
1
10
-28.5
20
8.75967525472745
30
0
41
1
10
-28.5
20
7.47337302390386
30
0
41
1
10
-28.5
20
6.10815570815362
30
0
41
1
10
-28.5
20
4.90967166078667
30
0
41
1
10
-28.5
20
3.91146685141305
30
0
41
1
10
-28.5
20
2.89299452712916
30
0
41
1
10
-28.5
20
1.85830097558352
30
0
41
1
10
-28.5
20
0.929574056191939
30
0
41
1
10
-28.5
20
0.397463221290906
30
0
41
1
10
-28.5
20
-1.847321585E-07
30
0
41
1
10
-28.5
20
-0.39746341502854
30
0
41
1
10
-28.5
20
-0.929573956929886
30
0
41
1
10
-28.5
20
-1.85830102725041
30
0
41
1
10
-28.5
20
-2.89299469927084
30
0
41
1
10
-28.5
20
-3.9114668992739
30
0
41
1
10
-28.5
20
-4.9096720321497
30
0
41
1
10
-28.5
20
-6.10815549439155
30
0
41
1
10
-28.5
20
-7.47337327542297
30
0
41
1
10
-28.5
20
-8.75967545377557
30
0
41
1
10
-28.5
20
-9.96451720849825
30
0
41
1
10
-28.5
20
-11.0855105352455
30
0
41
1
10
-28.5
20
-12.1202723366856
30
0
41
1
10
-28.5
20
-13.3839106046769
30
0
41
1
10
-28.5
20
-14.7294543359372
30
0
41
1
10
-28.5
20
-15.7436769514769
30
0
41
1
10
-28.5
20
-16.3328856609547
30
0
41
1
10
-28.5
20
-16.6531187925377
30
0
41
1
10
-28.5
20
-16.8405416056929
30
0
41
1
10
-28.5
20
-16.868113965116
30
0
41
1
10
-28.5
20
-16.8545105055238
30
0
0
SPLINE
5
146
100
AcDbEntity
8
1
62
256
6
ByLayer
370
18
48
1
60
0
100
AcDbSpline
70
4
71
3
72
19
73
15
40
0
40
0
40
0
40
0
40
0.105598795309645
40
0.20713305676808
40
0.304606247524351
40
0.398022283830726
40
0.487385615464933
40
0.572701326119359
40
0.653975258965578
40
0.731214174678341
40
0.804425952125404
40
0.873619846082965
40
0.938806822394137
40
1
40
1
40
1
40
1
41
1
10
59.48236683062
20
-29.5169146481781
30
0
41
1
10
59.4761086181707
20
-29.5162950509147
30
0
41
1
10
59.463833074016
20
-29.5150797048991
30
0
41
1
10
59.4458128004535
20
-29.5129917878763
30
0
41
1
10
59.428539119221
20
-29.5107692859052
30
0
41
1
10
59.4120140189838
20
-29.508406487872
30
0
41
1
10
59.3962369707864
20
-29.5059226125369
30
0
41
1
10
59.3812080910702
20
-29.5033301067006
30
0
41
1
10
59.3669272661601
20
-29.500642836653
30
0
41
1
10
59.3533946416573
20
-29.4978730398514
30
0
41
1
10
59.3406095573258
20
-29.4950353238248
30
0
41
1
10
59.3285740432231
20
-29.4921343681174
30
0
41
1
10
59.3172808603108
20
-29.4892065803664
30
0
41
1
10
59.3100347419719
20
-29.4871218545511
30
0
41
1
10
59.3065261768
20
-29.4861124318441
30
0
0
SPLINE
5
147
100
AcDbEntity
8
1
62
256
6
ByLayer
370
18
48
1
60
0
100
AcDbSpline
70
4
71
3
72
16
73
12
40
0
40
0
40
0
40
0
40
0.118227901208894
40
0.234676362797896
40
0.349345481218906
40
0.462235357483962
40
0.573346097457497
40
0.68267781217225
40
0.79023061817122
40
0.896004637878217
40
1
40
1
40
1
40
1
41
1
10
60.1702887043916
20
-29.5722653261451
30
0
41
1
10
60.1431521268268
20
-29.570443316241
30
0
41
1
10
60.0892874023701
20
-29.5668267193723
30
0
41
1
10
60.009124713396
20
-29.5611121390679
30
0
41
1
10
59.9302034041844
20
-29.5552472925334
30
0
41
1
10
59.8525249527702
20
-29.5492180470503
30
0
41
1
10
59.7760890095594
20
-29.5430390245208
30
0
41
1
10
59.7008955277781
20
-29.5367190776925
30
0
41
1
10
59.6269450208379
20
-29.5302614208823
30
0
41
1
10
59.5542355274137
20
-29.5236960106469
30
0
41
1
10
59.5061872606909
20
-29.5191622883528
30
0
41
1
10
59.48236683059
20
-29.51691464817
30
0
0
SPLINE
5
148
100
AcDbEntity
8
1
62
256
6
ByLayer
370
18
48
1
60
0
100
AcDbSpline
70
4
71
2
72
10
73
7
40
0
40
0
40
0
40
0.5
40
0.5
40
0.75
40
0.75
40
1
40
1
40
1
41
1
10
60.1703211835004
20
-29.572267476262
30
0
41
1
10
60.4005090492969
20
-29.5875343736815
30
0
41
1
10
60.5813994958523
20
-29.6237416432629
30
0
41
1
10
60.6977168199743
20
-29.6470238717702
30
0
41
1
10
60.7815407125726
20
-29.6769810514917
30
0
41
1
10
60.9246417322624
20
-29.7281228301935
30
0
41
1
10
60.9499902265207
20
-29.789264413028
30
0
0
SPLINE
5
149
100
AcDbEntity
8
1
62
256
6
ByLayer
370
18
48
1
60
0
100
AcDbSpline
70
4
71
2
72
6
73
3
40
0
40
0
40
0
40
1
40
1
40
1
41
1
10
60.9499902266708
20
-29.789264412942
30
0
41
1
10
60.9884919085573
20
-29.8844087349086
30
0
41
1
10
60.9886043049807
20
-29.9799999993024
30
0
0
SPLINE
5
14A
100
AcDbEntity
8
1
62
256
6
ByLayer
370
18
48
1
60
0
100
AcDbSpline
70
4
71
3
72
24
73
20
40
0
40
0
40
0
40
0
40
0.0615883759049881
40
0.122688254024702
40
0.183326299851637
40
0.243529792548001
40
0.303326606004208
40
0.362745186445283
40
0.42181452653921
40
0.480564136000295
40
0.539024008730902
40
0.597224586585081
40
0.655196719894217
40
0.712971624940744
40
0.770580838619323
40
0.828056170570643
40
0.885429653119928
40
0.94273348939061
40
1
40
1
40
1
40
1
41
1
10
60.94999022667
20
-30.210735587058
30
0
41
1
10
60.9514760409687
20
-30.2070098201942
30
0
41
1
10
60.9544358845988
20
-30.1995878379662
30
0
41
1
10
60.9585659721736
20
-30.1883783496833
30
0
41
1
10
60.9624450214135
20
-30.1771714868724
30
0
41
1
10
60.966052645609
20
-30.16595887988
30
0
41
1
10
60.9693942359552
20
-30.1547431796984
30
0
41
1
10
60.9724683525928
20
-30.1435241178479
30
0
41
1
10
60.9752753669341
20
-30.1323022009938
30
0
41
1
10
60.9778151708742
20
-30.1210777311409
30
0
41
1
10
60.9800877810841
20
-30.1098510656213
30
0
41
1
10
60.9820931925112
20
-30.0986225480182
30
0
41
1
10
60.9838313661183
20
-30.0873925264579
30
0
41
1
10
60.9853024227051
20
-30.0761613486895
30
0
41
1
10
60.9865058842008
20
-30.064929363221
30
0
41
1
10
60.9874435045144
20
-30.0536969191887
30
0
41
1
10
60.9881087368338
20
-30.0424643651982
30
0
41
1
10
60.9885259471521
20
-30.031232053448
30
0
41
1
10
60.9885781913775
20
-30.0237432050217
30
0
41
1
10
60.98860430498
20
-30.0200000006976
30
0
0
SPLINE
5
14B
100
AcDbEntity
8
1
62
256
6
ByLayer
370
18
48
1
60
0
100
AcDbSpline
70
4
71
3
72
43
73
39
40
0
40
0
40
0
40
0
40
0.0409973406366472
40
0.0809092982715809
40
0.119736159842839
40
0.157478237047552
40
0.194135869264796
40
0.229709426921878
40
0.264199315386283
40
0.297605979485287
40
0.329929908777829
40
0.361171643733668
40
0.391331783012885
40
0.420410992088529
40
0.448410013519415
40
0.475329679265274
40
0.501170925548111
40
0.572592867093687
40
0.638080914696129
40
0.697670982799365
40
0.751410812475232
40
0.772779913618552
40
0.793234602755295
40
0.812782181749364
40
0.831431018019196
40
0.849190749344523
40
0.866072536338499
40
0.882089374987178
40
0.897256484840493
40
0.911591792130992
40
0.92511653100903
40
0.937855989439944
40
0.949840427402957
40
0.96110619050402
40
0.971697025976509
40
0.981665570834291
40
0.991074911407353
40
1
40
1
40
1
40
1
41
1
10
60.1703211835
20
-30.427732523738
30
0
41
1
10
60.1815955433722
20
-30.4269594666407
30
0
41
1
10
60.2038457803768
20
-30.4254338187256
30
0
41
1
10
60.2367474852616
20
-30.4228310595287
30
0
41
1
10
60.268734387051
20
-30.4200519476305
30
0
41
1
10
60.2998047803203
20
-30.4170870102301
30
0
41
1
10
60.3299591078148
20
-30.4139564894663
30
0
41
1
10
60.3591972610569
20
-30.4106726572971
30
0
41
1
10
60.3875192737298
20
-30.4072494639607
30
0
41
1
10
60.4149251441988
20
-30.4037000360555
30
0
41
1
10
60.4414148802485
20
-30.4000372922653
30
0
41
1
10
60.4669884910949
20
-30.3962737711221
30
0
41
1
10
60.4916459782106
20
-30.3924216377357
30
0
41
1
10
60.5153873786588
20
-30.3884927389845
30
0
41
1
10
60.538212610891
20
-30.3844983270722
30
0
41
1
10
60.5601220206573
20
-30.3804500062245
30
0
41
1
10
60.5937486984552
20
-30.3738926336811
30
0
41
1
10
60.637660265658
20
-30.3644624374581
30
0
41
1
10
60.690314785579
20
-30.3514098214847
30
0
41
1
10
60.7378060332943
20
-30.3378403912217
30
0
41
1
10
60.7731644417988
20
-30.32617796038
30
0
41
1
10
60.7979490400554
20
-30.317027896295
30
0
41
1
10
60.8137384431464
20
-30.3108006967103
30
0
41
1
10
60.8286893772276
20
-30.3044920122776
30
0
41
1
10
60.8428019685624
20
-30.2981078739192
30
0
41
1
10
60.8560763753171
20
-30.2916544837686
30
0
41
1
10
60.8685127830692
20
-30.285137929982
30
0
41
1
10
60.8801114087742
20
-30.2785642357987
30
0
41
1
10
60.8908725094797
20
-30.2719393232201
30
0
41
1
10
60.9007963582658
20
-30.2652689783529
30
0
41
1
10
60.9098833178299
20
-30.258558848725
30
0
41
1
10
60.9181335453682
20
-30.2518142783929
30
0
41
1
10
60.9255478947299
20
-30.2450406620661
30
0
41
1
10
60.9321246317882
20
-30.238241999332
30
0
41
1
10
60.937870243827
20
-30.231425587599
30
0
41
1
10
60.9427620013418
20
-30.2245859033483
30
0
41
1
10
60.9468749657509
20
-30.2177598166444
30
0
41
1
10
60.9489702532908
20
-30.213035402863
30
0
41
1
10
60.94999022652
20
-30.210735586972
30
0
0
SPLINE
5
14C
100
AcDbEntity
8
1
62
256
6
ByLayer
370
18
48
1
60
0
100
AcDbSpline
70
4
71
2
72
6
73
3
40
0
40
0
40
0
40
1
40
1
40
1
41
1
10
60.1702887043921
20
-30.4277346738575
30
0
41
1
10
59.819552783945
20
-30.4509625305676
30
0
41
1
10
59.4823668305908
20
-30.48308535183
30
0
0
SPLINE
5
14D
100
AcDbEntity
8
1
62
256
6
ByLayer
370
18
48
1
60
0
100
AcDbSpline
70
4
71
2
72
6
73
3
40
0
40
0
40
0
40
1
40
1
40
1
41
1
10
59.4823668306203
20
-30.483085351822
30
0
41
1
10
59.3769907517283
20
-30.4931766319907
30
0
41
1
10
59.3065261768005
20
-30.513887568156
30
0
0
LINE
5
7D
100
AcDbEntity
8
1
62
256
6
ByLayer
370
18
48
1
60
0
100
AcDbLine
10
0
20
-24.7
30
0
11
0.3
21
-25
31
0
39
0
210
0
220
0
230
1
0
LINE
5
7E
100
AcDbEntity
8
1
62
256
6
ByLayer
370
18
48
1
60
0
100
AcDbLine
10
0.3
20
25
30
0
11
0
21
24.7
31
0
39
0
210
0
220
0
230
1
0
LINE
5
7F
100
AcDbEntity
8
1
62
256
6
ByLayer
370
18
48
1
60
0
100
AcDbLine
10
20
20
25
30
0
11
0.3
21
25
31
0
39
0
210
0
220
0
230
1
0
LINE
5
80
100
AcDbEntity
8
1
62
256
6
ByLayer
370
18
48
1
60
0
100
AcDbLine
10
0.3
20
-25
30
0
11
20.279208
21
-25
31
0
39
0
210
0
220
0
230
1
0
LINE
5
81
100
AcDbEntity
8
80
62
256
6
ByLayer
370
18
48
1
60
0
100
AcDbLine
10
0
20
0
30
0
11
-5
21
0
31
0
39
0
210
0
220
0
230
1
0
LINE
5
82
100
AcDbEntity
8
81
62
256
6
ByLayer
370
18
48
1
60
0
100
AcDbLine
10
65
20
-33
30
0
11
70
21
-33
31
0
39
0
210
0
220
0
230
1
0
LINE
5
83
100
AcDbEntity
8
1
62
256
6
ByLayer
370
18
48
1
60
0
100
AcDbLine
10
57.807322
20
-32.732741
30
0
11
57.807085
21
-32.599998
31
0
39
0
210
0
220
0
230
1
0
LINE
5
84
100
AcDbEntity
8
1
62
256
6
ByLayer
370
18
48
1
60
0
100
AcDbLine
10
55.33769
20
-32.733971
30
0
11
55.337624
21
-32.696971
31
0
39
0
210
0
220
0
230
1
0
LINE
5
85
100
AcDbEntity
8
1
62
256
6
ByLayer
370
13
48
1
60
0
100
AcDbLine
10
23.2
20
-26.15
30
0
11
21.593742
21
-26.15
31
0
39
0
210
0
220
0
230
1
0
LINE
5
86
100
AcDbEntity
8
1
62
256
6
ByLayer
370
13
48
1
60
0
100
AcDbLine
10
23.2
20
-25.15
30
0
11
23.2
21
-26.15
31
0
39
0
210
0
220
0
230
1
0
LINE
5
87
100
AcDbEntity
8
1
62
256
6
ByLayer
370
18
48
1
60
0
100
AcDbLine
10
59.283598
20
-32.732741
30
0
11
57.807322
21
-32.732741
31
0
39
0
210
0
220
0
230
1
0
LINE
5
88
100
AcDbEntity
8
1
62
256
6
ByLayer
370
18
48
1
60
0
100
AcDbLine
10
55.33769
20
-32.733971
30
0
11
53.686532
21
-32.733971
31
0
39
0
210
0
220
0
230
1
0
LINE
5
89
100
AcDbEntity
8
1
62
256
6
ByLayer
370
18
48
1
60
0
100
AcDbLine
10
26.893237
20
-32.684279
30
0
11
27.400095
21
-32.684279
31
0
39
0
210
0
220
0
230
1
0
LINE
5
8A
100
AcDbEntity
8
1
62
256
6
ByLayer
370
18
48
1
60
0
100
AcDbLine
10
25.591536
20
-34.0954
30
0
11
53.947561
21
-34.0954
31
0
39
0
210
0
220
0
230
1
0
LINE
5
8B
100
AcDbEntity
8
1
62
256
6
ByLayer
370
18
48
1
60
0
100
AcDbLine
10
26.893237
20
-32.684279
30
0
11
26.893237
21
-26.15
31
0
39
0
210
0
220
0
230
1
0
LINE
5
8C
100
AcDbEntity
8
1
62
256
6
ByLayer
370
13
48
1
60
0
100
AcDbLine
10
26.893237
20
-26.15
30
0
11
23.2
21
-26.15
31
0
39
0
210
0
220
0
230
1
0
LINE
5
8D
100
AcDbEntity
8
1
62
256
6
ByLayer
370
13
48
1
60
0
100
AcDbLine
10
23.2
20
-32.20416
30
0
11
23.2
21
-26.15
31
0
39
0
210
0
220
0
230
1
0
LINE
5
8E
100
AcDbEntity
8
1
62
256
6
ByLayer
370
18
48
1
60
0
100
AcDbLine
10
27.279216
20
-26.15
30
0
11
27.279216
21
-32.677082
31
0
39
0
210
0
220
0
230
1
0
LINE
5
8F
100
AcDbEntity
8
1
62
256
6
ByLayer
370
13
48
1
60
0
100
AcDbLine
10
27.4
20
-26.15
30
0
11
27.279216
21
-26.15
31
0
39
0
210
0
220
0
230
1
0
LINE
5
90
100
AcDbEntity
8
1
62
256
6
ByLayer
370
18
48
1
60
0
100
AcDbLine
10
56.508963
20
-32.513511
30
0
11
56.482352
21
-32.681861
31
0
39
0
210
0
220
0
230
1
0
LINE
5
91
100
AcDbEntity
8
1
62
256
6
ByLayer
370
18
48
1
60
0
100
AcDbLine
10
57
20
-29.725031
30
0
11
57
21
-30.274969
31
0
39
0
210
0
220
0
230
1
0
LINE
5
92
100
AcDbEntity
8
1
62
256
6
ByLayer
370
18
48
1
60
0
100
AcDbLine
10
56.485778
20
-27.339814
30
0
11
56.508963
21
-27.486489
31
0
39
0
210
0
220
0
230
1
0
LINE
5
93
100
AcDbEntity
8
1
62
256
6
ByLayer
370
18
48
1
60
0
100
AcDbLine
10
24.399843
20
-25.15
30
0
11
23.400157
21
-25.15
31
0
39
0
210
0
220
0
230
1
0
LINE
5
94
100
AcDbEntity
8
1
62
256
6
ByLayer
370
18
48
1
60
0
100
AcDbLine
10
24.400047
20
13.5
30
0
11
24.065604
21
13.5
31
0
39
0
210
0
220
0
230
1
0
LINE
5
95
100
AcDbEntity
8
1
62
256
6
ByLayer
370
18
48
1
60
0
100
AcDbLine
10
27.400017
20
-32.677082
30
0
11
27.279216
21
-32.677082
31
0
39
0
210
0
220
0
230
1
0
LINE
5
96
100
AcDbEntity
8
1
62
256
6
ByLayer
370
13
48
1
60
0
100
AcDbLine
10
47
20
-27.34215
30
0
11
47
21
-27.835111
31
0
39
0
210
0
220
0
230
1
0
LINE
5
97
100
AcDbEntity
8
1
62
256
6
ByLayer
370
18
48
1
60
0
100
AcDbLine
10
43.360149
20
-32.93738
30
0
11
46.216445
21
-32.93738
31
0
39
0
210
0
220
0
230
1
0
LINE
5
98
100
AcDbEntity
8
1
62
256
6
ByLayer
370
18
48
1
60
0
100
AcDbLine
10
53.5
20
-27.464501
30
0
11
53.5
21
-32.73927
31
0
39
0
210
0
220
0
230
1
0
LINE
5
99
100
AcDbEntity
8
1
62
256
6
ByLayer
370
18
48
1
60
0
100
AcDbLine
10
45.4
20
-25.783861
30
0
11
45.4
21
-26.394616
31
0
39
0
210
0
220
0
230
1
0
LINE
5
9A
100
AcDbEntity
8
1
62
256
6
ByLayer
370
13
48
1
60
0
100
AcDbLine
10
45.747554
20
-27.325
30
0
11
43.360149
21
-27.325
31
0
39
0
210
0
220
0
230
1
0
LINE
5
9B
100
AcDbEntity
8
1
62
256
6
ByLayer
370
18
48
1
60
0
100
AcDbLine
10
26.4
20
-25.15
30
0
11
24.4
21
-25.15
31
0
39
0
210
0
220
0
230
1
0
LINE
5
9C
100
AcDbEntity
8
1
62
256
6
ByLayer
370
18
48
1
60
0
100
AcDbLine
10
45.4
20
-25.783861
30
0
11
45.4
21
-13.35
31
0
39
0
210
0
220
0
230
1
0
LINE
5
9D
100
AcDbEntity
8
1
62
256
6
ByLayer
370
18
48
1
60
0
100
AcDbLine
10
24.4
20
13.5
30
0
11
33.9
21
13.5
31
0
39
0
210
0
220
0
230
1
0
LINE
5
9E
100
AcDbEntity
8
1
62
256
6
ByLayer
370
18
48
1
60
0
100
AcDbLine
10
24.4
20
-25.15
30
0
11
24.4
21
13.5
31
0
39
0
210
0
220
0
230
1
0
LINE
5
9F
100
AcDbEntity
8
1
62
256
6
ByLayer
370
18
48
1
60
0
100
AcDbLine
10
27.4
20
-32.93738
30
0
11
27.4
21
-26.15
31
0
39
0
210
0
220
0
230
1
0
LINE
5
A0
100
AcDbEntity
8
1
62
256
6
ByLayer
370
18
48
1
60
0
100
AcDbLine
10
43.360149
20
-32.93738
30
0
11
27.4
21
-32.93738
31
0
39
0
210
0
220
0
230
1
0
LINE
5
A1
100
AcDbEntity
8
1
62
256
6
ByLayer
370
18
48
1
60
0
100
AcDbLine
10
43.360149
20
-32.93738
30
0
11
43.360149
21
-27.325
31
0
39
0
210
0
220
0
230
1
0
LINE
5
A2
100
AcDbEntity
8
1
62
256
6
ByLayer
370
18
48
1
60
0
100
AcDbLine
10
45.4
20
-13.35
30
0
11
33.9
21
13.5
31
0
39
0
210
0
220
0
230
1
0
LINE
5
A3
100
AcDbEntity
8
1
62
256
6
ByLayer
370
13
48
1
60
0
100
AcDbLine
10
21.438319
20
-22.333741
30
0
11
21.438319
21
-25.15
31
0
39
0
210
0
220
0
230
1
0
LINE
5
A4
100
AcDbEntity
8
1
62
256
6
ByLayer
370
18
48
1
60
0
100
AcDbLine
10
23.4
20
-25.15
30
0
11
23.4
21
13.555767
31
0
39
0
210
0
220
0
230
1
0
LINE
5
A5
100
AcDbEntity
8
1
62
256
6
ByLayer
370
18
48
1
60
0
100
AcDbLine
10
22.045216
20
-25.15
30
0
11
23.4
21
-25.15
31
0
39
0
210
0
220
0
230
1
0
LINE
5
A6
100
AcDbEntity
8
1
62
256
6
ByLayer
370
13
48
1
60
0
100
AcDbLine
10
11.461325
20
23.83913
30
0
11
11.461325
21
7.529667
31
0
39
0
210
0
220
0
230
1
0
LINE
5
A7
100
AcDbEntity
8
1
62
256
6
ByLayer
370
13
48
1
60
0
100
AcDbLine
10
11.894338
20
23.666502
30
0
11
11.894338
21
8.055848
31
0
39
0
210
0
220
0
230
1
0
LINE
5
A8
100
AcDbEntity
8
1
62
256
6
ByLayer
370
13
48
1
60
0
100
AcDbLine
10
8.105662
20
-8.055848
30
0
11
8.105662
21
-23.666502
31
0
39
0
210
0
220
0
230
1
0
LINE
5
A9
100
AcDbEntity
8
1
62
256
6
ByLayer
370
13
48
1
60
0
100
AcDbLine
10
8.538675
20
-7.529667
30
0
11
8.538675
21
-23.83913
31
0
39
0
210
0
220
0
230
1
0
LINE
5
AA
100
AcDbEntity
8
1
62
256
6
ByLayer
370
13
48
1
60
0
100
AcDbLine
10
8.105662
20
23.666502
30
0
11
8.105662
21
8.055848
31
0
39
0
210
0
220
0
230
1
0
LINE
5
AB
100
AcDbEntity
8
1
62
256
6
ByLayer
370
13
48
1
60
0
100
AcDbLine
10
8.538675
20
23.83913
30
0
11
8.538675
21
7.529667
31
0
39
0
210
0
220
0
230
1
0
LINE
5
AC
100
AcDbEntity
8
1
62
256
6
ByLayer
370
13
48
1
60
0
100
AcDbLine
10
11.461325
20
-7.529667
30
0
11
11.461325
21
-23.83913
31
0
39
0
210
0
220
0
230
1
0
LINE
5
AD
100
AcDbEntity
8
1
62
256
6
ByLayer
370
13
48
1
60
0
100
AcDbLine
10
11.894338
20
-8.055848
30
0
11
11.894338
21
-23.666502
31
0
39
0
210
0
220
0
230
1
0
LINE
5
AE
100
AcDbEntity
8
1
62
256
6
ByLayer
370
18
48
1
60
0
100
AcDbLine
10
0
20
24.7
30
0
11
0
21
-24.7
31
0
39
0
210
0
220
0
230
1
0
LINE
5
AF
100
AcDbEntity
8
1
62
256
6
ByLayer
370
18
48
1
60
0
100
AcDbLine
10
20.063901
20
17.67767
30
0
11
20.065756
21
17.465094
31
0
39
0
210
0
220
0
230
1
0
LINE
5
B0
100
AcDbEntity
8
1
62
256
6
ByLayer
370
13
48
1
60
0
100
AcDbLine
10
20.077974
20
-19.154967
30
0
11
20.077974
21
17.185665
31
0
39
0
210
0
220
0
230
1
0
LINE
5
B1
100
AcDbEntity
8
1
62
256
6
ByLayer
370
18
48
1
60
0
100
AcDbLine
10
0.3
20
25
30
0
11
0.3
21
-25
31
0
39
0
210
0
220
0
230
1
0
LINE
5
B2
100
AcDbEntity
8
1
62
256
6
ByLayer
370
18
48
1
60
0
100
AcDbLine
10
11.461325
20
-23.83913
30
0
11
8.538675
21
-23.83913
31
0
39
0
210
0
220
0
230
1
0
LINE
5
B3
100
AcDbEntity
8
1
62
256
6
ByLayer
370
18
48
1
60
0
100
AcDbLine
10
8.538675
20
-7.529667
30
0
11
11.461325
21
-7.529667
31
0
39
0
210
0
220
0
230
1
0
LINE
5
B4
100
AcDbEntity
8
1
62
256
6
ByLayer
370
18
48
1
60
0
100
AcDbLine
10
8.538675
20
23.83913
30
0
11
11.461325
21
23.83913
31
0
39
0
210
0
220
0
230
1
0
LINE
5
B5
100
AcDbEntity
8
1
62
256
6
ByLayer
370
18
48
1
60
0
100
AcDbLine
10
11.461325
20
7.529667
30
0
11
8.538675
21
7.529667
31
0
39
0
210
0
220
0
230
1
0
LINE
5
B6
100
AcDbEntity
8
1
62
256
6
ByLayer
370
18
48
1
60
0
100
AcDbLine
10
20
20
25
30
0
11
20.063901
21
17.67767
31
0
39
0
210
0
220
0
230
1
0
LINE
5
B7
100
AcDbEntity
8
1
62
256
6
ByLayer
370
13
48
1
60
0
100
AcDbLine
10
20.279208
20
-25
30
0
11
20.279208
21
-20.113995
31
0
39
0
210
0
220
0
230
1
0
LINE
5
B8
100
AcDbEntity
8
SK1
62
256
6
ByLayer
370
18
48
1
60
0
100
AcDbLine
10
-0.2
20
-17.833485
30
0
11
-0.2
21
-6.078432
31
0
39
0
210
0
220
0
230
1
0
LINE
5
BA
100
AcDbEntity
8
SK1
62
256
6
ByLayer
370
18
48
1
60
0
100
AcDbLine
10
-0.2
20
17.833485
30
0
11
-0.2
21
6.078431
31
0
39
0
210
0
220
0
230
1
0
LINE
5
BB
100
AcDbEntity
8
SK1
62
256
6
ByLayer
370
13
48
1
60
0
100
AcDbLine
10
-1.307107
20
3.918083
30
0
11
-1.307107
21
-3.918083
31
0
39
0
210
0
220
0
230
1
0
LINE
5
BC
100
AcDbEntity
8
SK1
62
256
6
ByLayer
370
18
48
1
60
0
100
AcDbLine
10
-1.99504
20
17.325269
30
0
11
-1.99504
21
17.320045
31
0
39
0
210
0
220
0
230
1
0
LINE
5
BD
100
AcDbEntity
8
SK1
62
256
6
ByLayer
370
18
48
1
60
0
100
AcDbLine
10
-1.99504
20
-17.320045
30
0
11
-1.99504
21
-17.325269
31
0
39
0
210
0
220
0
230
1
0
LINE
5
BE
100
AcDbEntity
8
1
62
256
6
ByLayer
370
18
48
1
60
0
100
AcDbLine
10
40.423256
20
-33.016197
30
0
11
41.776627
21
-32.93738
31
0
39
0
210
0
220
0
230
1
0
LINE
5
BF
100
AcDbEntity
8
1
62
256
6
ByLayer
370
18
48
1
60
0
100
AcDbLine
10
64.576744
20
-26.983803
30
0
11
62.568682
21
-27.100747
31
0
39
0
210
0
220
0
230
1
0
LINE
5
C0
100
AcDbEntity
8
1
62
256
6
ByLayer
370
18
48
1
60
0
100
AcDbLine
10
64.576744
20
-33.016197
30
0
11
62.568682
21
-32.899253
31
0
39
0
210
0
220
0
230
1
0
LINE
5
C1
100
AcDbEntity
8
1
62
256
6
ByLayer
370
18
48
1
60
0
100
AcDbLine
10
65
20
-27.383126
30
0
11
65
21
-32.616874
31
0
39
0
210
0
220
0
230
1
0
LINE
5
C2
100
AcDbEntity
8
1
62
256
6
ByLayer
370
18
48
1
60
0
100
AcDbLine
10
62.568682
20
-27.100747
30
0
11
62.143073
21
-27.078922
31
0
39
0
210
0
220
0
230
1
0
LINE
5
C3
100
AcDbEntity
8
1
62
256
6
ByLayer
370
18
48
1
60
0
100
AcDbLine
10
62.568682
20
-32.899253
30
0
11
62.143073
21
-32.921078
31
0
39
0
210
0
220
0
230
1
0
LINE
5
C4
100
AcDbEntity
8
1
62
256
6
ByLayer
370
18
48
1
60
0
100
AcDbLine
10
62.568682
20
-27.100747
30
0
11
62.568682
21
-32.899253
31
0
39
0
210
0
220
0
230
1
0
LINE
5
C5
100
AcDbEntity
8
1
62
256
6
ByLayer
370
13
48
1
60
0
100
AcDbLine
10
56.999889
20
-30.02
30
0
11
60.988604
21
-30.02
31
0
39
0
210
0
220
0
230
1
0
LINE
5
C6
100
AcDbEntity
8
1
62
256
6
ByLayer
370
13
48
1
60
0
100
AcDbLine
10
56.999889
20
-29.98
30
0
11
60.988604
21
-29.98
31
0
39
0
210
0
220
0
230
1
0
LINE
5
C7
100
AcDbEntity
8
1
62
256
6
ByLayer
370
13
48
1
60
0
100
AcDbLine
10
56.999884
20
-29.789264
30
0
11
60.94999
21
-29.789264
31
0
39
0
210
0
220
0
230
1
0
LINE
5
C8
100
AcDbEntity
8
1
62
256
6
ByLayer
370
13
48
1
60
0
100
AcDbLine
10
56.999884
20
-30.210736
30
0
11
60.94999
21
-30.210736
31
0
39
0
210
0
220
0
230
1
0
LINE
5
C9
100
AcDbEntity
8
1
62
256
6
ByLayer
370
13
48
1
60
0
100
AcDbLine
10
60.170287
20
-30.427733
30
0
11
56.910655
21
-30.427733
31
0
39
0
210
0
220
0
230
1
0
LINE
5
CA
100
AcDbEntity
8
1
62
256
6
ByLayer
370
13
48
1
60
0
100
AcDbLine
10
60.170287
20
-29.572267
30
0
11
56.910655
21
-29.572267
31
0
39
0
210
0
220
0
230
1
0
LINE
5
CB
100
AcDbEntity
8
1
62
256
6
ByLayer
370
13
48
1
60
0
100
AcDbLine
10
59.482367
20
-30.483085
30
0
11
56.806266
21
-30.483085
31
0
39
0
210
0
220
0
230
1
0
LINE
5
CC
100
AcDbEntity
8
1
62
256
6
ByLayer
370
13
48
1
60
0
100
AcDbLine
10
59.482367
20
-29.516915
30
0
11
56.806266
21
-29.516915
31
0
39
0
210
0
220
0
230
1
0
LINE
5
CD
100
AcDbEntity
8
1
62
256
6
ByLayer
370
13
48
1
60
0
100
AcDbLine
10
56.77269
20
-30.513888
30
0
11
59.306526
21
-30.513888
31
0
39
0
210
0
220
0
230
1
0
LINE
5
CE
100
AcDbEntity
8
1
62
256
6
ByLayer
370
13
48
1
60
0
100
AcDbLine
10
56.772584
20
-29.486112
30
0
11
59.306526
21
-29.486112
31
0
39
0
210
0
220
0
230
1
0
LINE
5
CF
100
AcDbEntity
8
1
62
256
6
ByLayer
370
13
48
1
60
0
100
AcDbLine
10
58.995391
20
-29.394335
30
0
11
56.760976
21
-29.394335
31
0
39
0
210
0
220
0
230
1
0
LINE
5
D0
100
AcDbEntity
8
1
62
256
6
ByLayer
370
13
48
1
60
0
100
AcDbLine
10
58.995391
20
-30.605665
30
0
11
56.761382
21
-30.605665
31
0
39
0
210
0
220
0
230
1
0
LINE
5
D1
100
AcDbEntity
8
1
62
256
6
ByLayer
370
13
48
1
60
0
100
AcDbLine
10
58.90992
20
-30.649934
30
0
11
56.755786
21
-30.649934
31
0
39
0
210
0
220
0
230
1
0
LINE
5
D2
100
AcDbEntity
8
1
62
256
6
ByLayer
370
13
48
1
60
0
100
AcDbLine
10
58.90992
20
-29.350066
30
0
11
56.755586
21
-29.350066
31
0
39
0
210
0
220
0
230
1
0
LINE
5
D3
100
AcDbEntity
8
1
62
256
6
ByLayer
370
18
48
1
60
0
100
AcDbLine
10
57.611484
20
-27.4
30
0
11
56.495264
21
-27.4
31
0
39
0
210
0
220
0
230
1
0
LINE
5
D4
100
AcDbEntity
8
1
62
256
6
ByLayer
370
18
48
1
60
0
100
AcDbLine
10
57.611484
20
-32.6
30
0
11
56.495264
21
-32.6
31
0
39
0
210
0
220
0
230
1
0
LINE
5
D5
100
AcDbEntity
8
1
62
256
6
ByLayer
370
13
48
1
60
0
100
AcDbLine
10
57.618068
20
-27.658616
30
0
11
56.532878
21
-27.658616
31
0
39
0
210
0
220
0
230
1
0
LINE
5
D6
100
AcDbEntity
8
1
62
256
6
ByLayer
370
13
48
1
60
0
100
AcDbLine
10
57.611484
20
-27.641251
30
0
11
56.530405
21
-27.641251
31
0
39
0
210
0
220
0
230
1
0
LINE
5
D7
100
AcDbEntity
8
1
62
256
6
ByLayer
370
13
48
1
60
0
100
AcDbLine
10
57.611484
20
-32.358749
30
0
11
56.529926
21
-32.358749
31
0
39
0
210
0
220
0
230
1
0
LINE
5
D8
100
AcDbEntity
8
1
62
256
6
ByLayer
370
13
48
1
60
0
100
AcDbLine
10
57.618068
20
-32.341384
30
0
11
56.532238
21
-32.341384
31
0
39
0
210
0
220
0
230
1
0
LINE
5
D9
100
AcDbEntity
8
1
62
256
6
ByLayer
370
18
48
1
60
0
100
AcDbLine
10
58.90992
20
-29.350066
30
0
11
57.618066
21
-27.658618
31
0
39
0
210
0
220
0
230
1
0
LINE
5
DA
100
AcDbEntity
8
1
62
256
6
ByLayer
370
18
48
1
60
0
100
AcDbLine
10
59.306526
20
-29.486112
30
0
11
58.995391
21
-29.394335
31
0
39
0
210
0
220
0
230
1
0
LINE
5
DB
100
AcDbEntity
8
1
62
256
6
ByLayer
370
18
48
1
60
0
100
AcDbLine
10
60.988604
20
-29.98
30
0
11
60.988604
21
-30.02
31
0
39
0
210
0
220
0
230
1
0
LINE
5
DC
100
AcDbEntity
8
1
62
256
6
ByLayer
370
18
48
1
60
0
100
AcDbLine
10
59.306526
20
-30.513888
30
0
11
58.995391
21
-30.605665
31
0
39
0
210
0
220
0
230
1
0
LINE
5
DD
100
AcDbEntity
8
1
62
256
6
ByLayer
370
18
48
1
60
0
100
AcDbLine
10
58.90992
20
-30.649934
30
0
11
57.618066
21
-32.341382
31
0
39
0
210
0
220
0
230
1
0
LINE
5
DE
100
AcDbEntity
8
1
62
256
6
ByLayer
370
18
48
1
60
0
100
AcDbLine
10
57.611484
20
-32.358749
30
0
11
57.611484
21
-32.6
31
0
39
0
210
0
220
0
230
1
0
LINE
5
DF
100
AcDbEntity
8
1
62
256
6
ByLayer
370
18
48
1
60
0
100
AcDbLine
10
59.039855
20
-32.6
30
0
11
57.611484
21
-32.6
31
0
39
0
210
0
220
0
230
1
0
LINE
5
E0
100
AcDbEntity
8
1
62
256
6
ByLayer
370
18
48
1
60
0
100
AcDbLine
10
59.467511
20
-32.832909
30
0
11
59.039855
21
-32.6
31
0
39
0
210
0
220
0
230
1
0
LINE
5
E1
100
AcDbEntity
8
1
62
256
6
ByLayer
370
18
48
1
60
0
100
AcDbLine
10
59.467511
20
-32.832909
30
0
11
62.143073
21
-32.921078
31
0
39
0
210
0
220
0
230
1
0
LINE
5
E2
100
AcDbEntity
8
1
62
256
6
ByLayer
370
18
48
1
60
0
100
AcDbLine
10
62.143073
20
-32.921078
30
0
11
62.143073
21
-27.078922
31
0
39
0
210
0
220
0
230
1
0
LINE
5
E3
100
AcDbEntity
8
1
62
256
6
ByLayer
370
18
48
1
60
0
100
AcDbLine
10
59.467511
20
-27.167091
30
0
11
62.143073
21
-27.078922
31
0
39
0
210
0
220
0
230
1
0
LINE
5
E4
100
AcDbEntity
8
1
62
256
6
ByLayer
370
18
48
1
60
0
100
AcDbLine
10
59.467511
20
-27.167091
30
0
11
59.039855
21
-27.4
31
0
39
0
210
0
220
0
230
1
0
LINE
5
E5
100
AcDbEntity
8
1
62
256
6
ByLayer
370
18
48
1
60
0
100
AcDbLine
10
59.039855
20
-27.4
30
0
11
57.611484
21
-27.4
31
0
39
0
210
0
220
0
230
1
0
LINE
5
E6
100
AcDbEntity
8
1
62
256
6
ByLayer
370
18
48
1
60
0
100
AcDbLine
10
57.611484
20
-27.641251
30
0
11
57.611484
21
-27.4
31
0
39
0
210
0
220
0
230
1
0
LINE
5
E7
100
AcDbEntity
8
SK2
62
256
6
ByLayer
370
18
48
1
60
0
100
AcDbLine
10
-39.975
20
-25
30
0
11
-39.975
21
25
31
0
39
0
210
0
220
0
230
1
0
LINE
5
E9
100
AcDbEntity
8
SK2
62
256
6
ByLayer
370
18
48
1
60
0
100
AcDbLine
10
-1.2875
20
25
30
0
11
-41.975
21
25
31
0
39
0
210
0
220
0
230
1
0
LINE
5
EA
100
AcDbEntity
8
SK2
62
256
6
ByLayer
370
18
48
1
60
0
100
AcDbLine
10
-1.2875
20
-25
30
0
11
-41.975
21
-25
31
0
39
0
210
0
220
0
230
1
0
LINE
5
EB
100
AcDbEntity
8
1
62
256
6
ByLayer
370
18
48
1
60
1
100
AcDbLine
10
-39.975
20
25
30
0
11
-39.514216
21
21.500002
31
0
39
0
210
0
220
0
230
1
0
LINE
5
EC
100
AcDbEntity
8
1
62
256
6
ByLayer
370
18
48
1
60
1
100
AcDbLine
10
-39.514216
20
21.500002
30
0
11
-40.435784
21
21.499998
31
0
39
0
210
0
220
0
230
1
0
LINE
5
ED
100
AcDbEntity
8
1
62
256
6
ByLayer
370
18
48
1
60
1
100
AcDbLine
10
-40.435784
20
21.499998
30
0
11
-39.975
21
25
31
0
39
0
210
0
220
0
230
1
0
LINE
5
EE
100
AcDbEntity
8
1
62
256
6
ByLayer
370
18
48
1
60
1
100
AcDbLine
10
-39.975
20
-25
30
0
11
-40.435784
21
-21.500002
31
0
39
0
210
0
220
0
230
1
0
LINE
5
EF
100
AcDbEntity
8
1
62
256
6
ByLayer
370
18
48
1
60
1
100
AcDbLine
10
-40.435784
20
-21.500002
30
0
11
-39.514216
21
-21.499998
31
0
39
0
210
0
220
0
230
1
0
LINE
5
F0
100
AcDbEntity
8
1
62
256
6
ByLayer
370
18
48
1
60
1
100
AcDbLine
10
-39.514216
20
-21.499998
30
0
11
-39.975
21
-25
31
0
39
0
210
0
220
0
230
1
0
LINE
5
152
100
AcDbEntity
8
1
62
256
6
ByLayer
370
18
48
1
60
1
100
AcDbLine
10
-39.975
20
25
30
0
11
-39.514216
21
21.500002
31
0
39
0
210
0
220
0
230
1
0
LINE
5
153
100
AcDbEntity
8
1
62
256
6
ByLayer
370
18
48
1
60
1
100
AcDbLine
10
-39.514216
20
21.500002
30
0
11
-40.435784
21
21.499998
31
0
39
0
210
0
220
0
230
1
0
LINE
5
154
100
AcDbEntity
8
1
62
256
6
ByLayer
370
18
48
1
60
1
100
AcDbLine
10
-40.435784
20
21.499998
30
0
11
-39.975
21
25
31
0
39
0
210
0
220
0
230
1
0
LINE
5
156
100
AcDbEntity
8
1
62
256
6
ByLayer
370
18
48
1
60
1
100
AcDbLine
10
-39.975
20
-25
30
0
11
-40.435784
21
-21.500002
31
0
39
0
210
0
220
0
230
1
0
LINE
5
157
100
AcDbEntity
8
1
62
256
6
ByLayer
370
18
48
1
60
1
100
AcDbLine
10
-40.435784
20
-21.500002
30
0
11
-39.514216
21
-21.499998
31
0
39
0
210
0
220
0
230
1
0
LINE
5
158
100
AcDbEntity
8
1
62
256
6
ByLayer
370
18
48
1
60
1
100
AcDbLine
10
-39.514216
20
-21.499998
30
0
11
-39.975
21
-25
31
0
39
0
210
0
220
0
230
1
0
MTEXT
5
14E
100
AcDbEntity
8
SK2
62
256
6
ByLayer
370
18
48
1
60
0
100
AcDbMText
10
-41.539634
20
-4.530622
30
0
210
0
220
0
230
1
1
%%c
40
3.5
41
0
44
1.084337
50
90
71
7
72
5
7
iso_b_vert
0
MTEXT
5
151
100
AcDbEntity
8
SK2
62
256
6
ByLayer
370
18
48
1
60
0
100
AcDbMText
10
-41.539634
20
2.442034
30
0
210
0
220
0
230
1
1
\W0.6740;50
40
3.5
41
0
44
1.084337
50
90
71
7
72
5
7
iso_b_vert
0
MTEXT
5
15A
100
AcDbEntity
8
SK6
62
256
6
ByLayer
370
18
48
1
60
0
100
AcDbMText
10
-14.8145
20
-59.65779
30
0
210
0
220
0
230
1
1
\W0.7424;C2A-CC5-LFK18B-168CB
40
3.5
41
0
44
1.084337
50
0
71
7
72
5
7
iso_b_vert
0
HATCH
5
155
100
AcDbEntity
8
SK2
62
256
6
ByLayer
370
13
48
1
60
0
100
AcDbHatch
10
0
20
0
30
0
210
0
220
0
230
1
2
ANSI31
70
0
71
0
91
1
92
5
93
3
72
1
10
-39.9750000000001
20
25
11
-39.5142162584474
21
21.5000016925532
72
1
10
-39.5142162584474
20
21.5000016925532
11
-40.4357837415529
21
21.4999983074468
72
1
10
-40.4357837415529
20
21.4999983074468
11
-39.9750000000001
21
25
97
0
75
0
76
1
52
0
41
0.0062
77
0
78
1
53
45
43
0
44
0
45
-0.0139193969876572
46
0.0139193969876572
79
0
47
0
98
1
10
0
20
0
0
HATCH
5
159
100
AcDbEntity
8
SK2
62
256
6
ByLayer
370
13
48
1
60
0
100
AcDbHatch
10
0
20
0
30
0
210
0
220
0
230
1
2
ANSI31
70
0
71
0
91
1
92
5
93
3
72
1
10
-39.9750000000001
20
-25
11
-40.4357837415529
21
-21.5000016925532
72
1
10
-40.4357837415529
20
-21.5000016925532
11
-39.5142162584474
21
-21.4999983074468
72
1
10
-39.5142162584474
20
-21.4999983074468
11
-39.9750000000001
21
-25
97
0
75
0
76
1
52
0
41
0.0062
77
0
78
1
53
45
43
0
44
0
45
-0.0139193969876572
46
0.0139193969876572
79
0
47
0
98
1
10
0
20
0
0
DIMENSION
5
15D
100
AcDbEntity
8
2
62
256
6
ByLayer
370
18
48
1
60
0
100
AcDbDimension
2
_U0
10
96.1
20
0
30
0
11
96.1
21
-16.5
31
0
70
32
71
1
72
1
41
1
210
0
220
0
230
1
3
Standard
100
AcDbAlignedDimension
13
65
23
-33
33
0
14
0
24
0
34
0
50
90
100
AcDbRotatedDimension
1001
ACAD
1000
DSTYLE
1002
{
1070
   371
1070
    13
1070
   372
1070
    13
1070
   170
1070
     0
1070
   144
1040
1.0
1070
   277
1070
     2
1070
   284
1070
     8
1070
   278
1070
    46
1070
   146
1040
1.0
1070
   345
1005
16
1070
   347
1005
16
1070
   346
1005
16
1070
   344
1005
0
1070
   343
1005
0
1070
   172
1070
     1
1070
    76
1070
     0
1070
    75
1070
     0
1070
   282
1070
     0
1070
   281
1070
     0
1070
    71
1070
     0
1070
    74
1070
     0
1070
   279
1070
     0
1070
   173
1070
     1
1070
   340
1005
14F
1070
   271
1070
     1
1070
   272
1070
     2
1070
    77
1070
     1
1070
    73
1070
     0
1070
   171
1070
     3
1070
   274
1070
     4
1070
   177
1070
     2
1070
   176
1070
     2
1070
   178
1070
     2
1070
    78
1070
     8
1070
    48
1040
-0.1
1070
    41
1040
3.5
1070
   147
1040
1.75
1070
    42
1040
1.5875
1070
    44
1040
2.0
1070
   140
1040
3.5
1002
}
1001
ACAD_DSTYLE_DIM_LINETYPE
1070
   380
1005
16
1001
ACAD_DSTYLE_DIM_EXT1_LINETYPE
1070
   381
1005
16
1001
ACAD_DSTYLE_DIM_EXT2_LINETYPE
1070
   382
1005
16
0
DIMENSION
5
177
100
AcDbEntity
8
2
62
256
6
ByLayer
370
18
48
1
60
0
100
AcDbDimension
2
_U1
10
85.1
20
-33
30
0
11
85.1
21
-30
31
0
70
32
71
1
72
1
41
1
210
0
220
0
230
1
3
Standard
100
AcDbAlignedDimension
13
65
23
-27
33
0
14
65
24
-33
34
0
50
90
100
AcDbRotatedDimension
1001
ACAD
1000
DSTYLE
1002
{
1070
   371
1070
    13
1070
   372
1070
    13
1070
   170
1070
     0
1070
   144
1040
1.0
1070
   277
1070
     2
1070
   284
1070
     8
1070
   278
1070
    46
1070
   146
1040
1.0
1070
   345
1005
16
1070
   347
1005
16
1070
   346
1005
16
1070
   344
1005
0
1070
   343
1005
0
1070
   172
1070
     1
1070
    76
1070
     0
1070
    75
1070
     0
1070
   282
1070
     0
1070
   281
1070
     0
1070
    71
1070
     0
1070
    74
1070
     0
1070
   279
1070
     0
1070
   173
1070
     1
1070
   340
1005
14F
1070
   271
1070
     1
1070
   272
1070
     2
1070
    77
1070
     1
1070
    73
1070
     0
1070
   171
1070
     3
1070
   274
1070
     4
1070
   177
1070
     2
1070
   176
1070
     2
1070
   178
1070
     2
1070
    78
1070
     8
1070
    48
1040
-0.1
1070
    41
1040
3.5
1070
   147
1040
1.75
1070
    42
1040
1.5875
1070
    44
1040
2.0
1070
   140
1040
3.5
1002
}
1001
ACAD_DSTYLE_DIM_LINETYPE
1070
   380
1005
16
1001
ACAD_DSTYLE_DIM_EXT1_LINETYPE
1070
   381
1005
16
1001
ACAD_DSTYLE_DIM_EXT2_LINETYPE
1070
   382
1005
16
0
DIMENSION
5
190
100
AcDbEntity
8
2
62
256
6
ByLayer
370
18
48
1
60
0
100
AcDbDimension
2
_U2
10
65
20
20.925
30
0
11
56
21
20.925
31
0
70
32
71
1
72
1
41
1
210
0
220
0
230
1
3
Standard
100
AcDbAlignedDimension
13
47
23
-27.325
33
0
14
65
24
-27
34
0
50
0
100
AcDbRotatedDimension
1001
ACAD
1000
DSTYLE
1002
{
1070
   371
1070
    13
1070
   372
1070
    13
1070
   170
1070
     0
1070
   144
1040
1.0
1070
   277
1070
     2
1070
   284
1070
     8
1070
   278
1070
    46
1070
   146
1040
1.0
1070
   345
1005
16
1070
   347
1005
16
1070
   346
1005
16
1070
   344
1005
0
1070
   343
1005
0
1070
   172
1070
     1
1070
    76
1070
     0
1070
    75
1070
     0
1070
   282
1070
     0
1070
   281
1070
     0
1070
    71
1070
     0
1070
    74
1070
     0
1070
   279
1070
     0
1070
   173
1070
     1
1070
   340
1005
14F
1070
   271
1070
     1
1070
   272
1070
     2
1070
    77
1070
     1
1070
    73
1070
     1
1070
   171
1070
     3
1070
   274
1070
     4
1070
   177
1070
     2
1070
   176
1070
     2
1070
   178
1070
     2
1070
    78
1070
     8
1070
    48
1040
-0.1
1070
    41
1040
3.5
1070
   147
1040
1.75
1070
    42
1040
1.5875
1070
    44
1040
2.0
1070
   140
1040
3.5
1002
}
1001
ACAD_DSTYLE_DIM_LINETYPE
1070
   380
1005
16
1001
ACAD_DSTYLE_DIM_EXT1_LINETYPE
1070
   381
1005
16
1001
ACAD_DSTYLE_DIM_EXT2_LINETYPE
1070
   382
1005
16
0
DIMENSION
5
1A8
100
AcDbEntity
8
2
62
256
6
ByLayer
370
18
48
1
60
0
100
AcDbDimension
2
_U3
10
65
20
-50.75
30
0
11
32.5
21
-50.75
31
0
70
32
71
1
72
1
41
1
210
0
220
0
230
1
3
Standard
100
AcDbAlignedDimension
13
0
23
0
33
0
14
65
24
-33
34
0
50
0
100
AcDbRotatedDimension
1001
ACAD
1000
DSTYLE
1002
{
1070
   371
1070
    13
1070
   372
1070
    13
1070
   170
1070
     0
1070
   144
1040
1.0
1070
   277
1070
     2
1070
   284
1070
     8
1070
   278
1070
    46
1070
   146
1040
1.0
1070
   345
1005
16
1070
   347
1005
16
1070
   346
1005
16
1070
   344
1005
0
1070
   343
1005
0
1070
   172
1070
     1
1070
    76
1070
     0
1070
    75
1070
     0
1070
   282
1070
     0
1070
   281
1070
     0
1070
    71
1070
     0
1070
    74
1070
     0
1070
   279
1070
     0
1070
   173
1070
     1
1070
   340
1005
14F
1070
   271
1070
     1
1070
   272
1070
     2
1070
    77
1070
     1
1070
    73
1070
     1
1070
   171
1070
     3
1070
   274
1070
     4
1070
   177
1070
     2
1070
   176
1070
     2
1070
   178
1070
     2
1070
    78
1070
     8
1070
    48
1040
-0.1
1070
    41
1040
3.5
1070
   147
1040
1.75
1070
    42
1040
1.5875
1070
    44
1040
2.0
1070
   140
1040
3.5
1002
}
1001
ACAD_DSTYLE_DIM_LINETYPE
1070
   380
1005
16
1001
ACAD_DSTYLE_DIM_EXT1_LINETYPE
1070
   381
1005
16
1001
ACAD_DSTYLE_DIM_EXT2_LINETYPE
1070
   382
1005
16
0
ENDSEC
0
SECTION
2
OBJECTS
0
DICTIONARY
5
22f
330
0
100
AcDbDictionary
280
0
281
1
3
ACAD_GROUP
350
230
3
ACAD_MLINESTYLE
350
231
0
DICTIONARY
5
230
330
0
100
AcDbDictionary
280
0
281
1
0
DICTIONARY
5
231
330
0
100
AcDbDictionary
280
0
281
1
3
Standard
350
18
0
MLINESTYLE
5
18
330
231
100
AcDbMlineStyle
2
Standard
70
0
3

62
256
51
90
52
90
71
2
49
-0.5
62
256
6
ByLayer
49
0.5
62
256
6
ByLayer
0
RASTERVARIABLES
5
21e
330

100
AcDbRasterVariables
90
0
70
1
71
1
72
1
0
ENDSEC
0
EOF
