0
SECTION
2
HEADER
9
$ACADVER
1
AC1015
9
$DWGCODEPAGE
3
ANSI_1252
9
$HANDSEED
5
23f
9
$ANGBASE
50
0
9
$ANGDIR
70
0
9
$ATTMODE
70
1
9
$AUNITS
70
0
9
$AUPREC
70
0
9
$CECOLOR
62
256
9
$CELTSCALE
40
1
9
$CELTYPE
6
ByLayer
9
$CELWEIGHT
370
18
9
$CLAYER
8
0
9
$CMLJUST
70
0
9
$CMLSCALE
40
1
9
$CMLSTYLE
2
Standard
9
$DIMSTYLE
2
Standard
9
$TEXTSIZE
40
0.2
9
$TEXTSTYLE
7
Standard
9
$LUNITS
70
2
9
$LUPREC
70
4
9
$EXTNAMES
290
1
9
$INSUNITS
70
4
9
$LTSCALE
40
1
9
$LWDISPLAY
290
1
9
$PDMODE
70
0
9
$PDSIZE
40
0
9
$PLINEGEN
70
0
0
ENDSEC
0
SECTION
2
CLASSES
0
CLASS
1
RASTERVARIABLES
2
AcDbRasterVariables
3
ISM
90
0
280
0
281
0
0
ENDSEC
0
SECTION
2
TABLES
0
TABLE
2
VPORT
5
235
100
AcDbSymbolTable
0
VPORT
5
1
100
AcDbSymbolTableRecord
100
AcDbViewportTableRecord
2
*Active
70
0
10
0
20
0
11
1
21
1
12
-1
22
1
13
0
23
0
14
0.5
24
0.5
15
10
25
10
16
0
26
0
36
1
17
0
27
0
37
0
0
ENDTAB
0
TABLE
2
LTYPE
5
236
100
AcDbSymbolTable
0
LTYPE
5
14
100
AcDbSymbolTableRecord
100
AcDbLinetypeTableRecord
70
0
2
ByBlock
3

72
65
73
0
40
0
0
LTYPE
5
15
100
AcDbSymbolTableRecord
100
AcDbLinetypeTableRecord
70
0
2
ByLayer
3

72
65
73
0
40
0
0
LTYPE
5
16
100
AcDbSymbolTableRecord
100
AcDbLinetypeTableRecord
70
0
2
Continuous
3
Solid line
72
65
73
0
40
0
0
LTYPE
5
6E
100
AcDbSymbolTableRecord
100
AcDbLinetypeTableRecord
70
0
2
CENTER
3
____ _ ____ _ ____ _ ____
72
65
73
4
40
47.5
49
22
74
0
49
-8.5
74
0
49
8.5
74
0
49
-8.5
74
0
0
LTYPE
5
6F
100
AcDbSymbolTableRecord
100
AcDbLinetypeTableRecord
70
0
2
DASHED
3
__ __ __ __ __ __ __ __ __
72
65
73
2
40
25.72
49
12.86
74
0
49
-12.86
74
0
0
ENDTAB
0
TABLE
2
LAYER
5
237
100
AcDbSymbolTable
0
LAYER
5
10
100
AcDbSymbolTableRecord
100
AcDbLayerTableRecord
2
0
70
0
62
7
6
Continuous
290
1
370
-3
390
0
0
LAYER
5
71
100
AcDbSymbolTableRecord
100
AcDbLayerTableRecord
2
81
70
0
62
-3
6
Continuous
290
1
370
-3
390
0
0
LAYER
5
73
100
AcDbSymbolTableRecord
100
AcDbLayerTableRecord
2
80
70
0
62
-6
6
Continuous
290
1
370
-3
390
0
0
LAYER
5
75
100
AcDbSymbolTableRecord
100
AcDbLayerTableRecord
2
1
70
0
62
4
6
Continuous
290
1
370
-3
390
0
0
LAYER
5
163
100
AcDbSymbolTableRecord
100
AcDbLayerTableRecord
2
Defpoints
70
0
62
7
6
Continuous
290
0
370
-3
390
0
0
LAYER
5
170
100
AcDbSymbolTableRecord
100
AcDbLayerTableRecord
2
2
70
0
62
7
6
Continuous
290
1
370
-3
390
0
0
LAYER
5
222
100
AcDbSymbolTableRecord
100
AcDbLayerTableRecord
2
SK1
70
0
62
4
6
Continuous
290
1
370
-3
390
0
0
LAYER
5
223
100
AcDbSymbolTableRecord
100
AcDbLayerTableRecord
2
SK2
70
0
62
7
6
Continuous
290
1
370
-3
390
0
0
LAYER
5
224
100
AcDbSymbolTableRecord
100
AcDbLayerTableRecord
2
SK6
70
0
62
5
6
Continuous
290
1
370
-3
390
0
0
ENDTAB
0
TABLE
2
STYLE
5
238
100
AcDbSymbolTable
0
STYLE
5
11
100
AcDbSymbolTableRecord
100
AcDbTextStyleTableRecord
2
Standard
3
txt
70
0
71
0
40
0
41
1
42
0
50
0
0
STYLE
5
152
100
AcDbSymbolTableRecord
100
AcDbTextStyleTableRecord
2
iso_b_vert
3
simplex.shx
70
0
71
0
40
0
41
1
42
0
50
0
0
STYLE
5
153
100
AcDbSymbolTableRecord
100
AcDbTextStyleTableRecord
2
DWGDirectTextStyle
3
simplex
70
0
71
0
40
0
41
1
42
0
50
0
0
ENDTAB
0
TABLE
2
DIMSTYLE
5
239
100
AcDbSymbolTable
100
AcDbDimStyleTable
0
DIMSTYLE
105
27
100
AcDbSymbolTableRecord
100
AcDbDimStyleTableRecord
2
Standard
70
0
3
<>
41
0.18
42
0.0625
44
0.18
140
0.18
147
0.09
73
0
74
0
77
1
271
2
275
0
278
52
280
0
340
11
0
ENDTAB
0
TABLE
2
VIEW
5
23a
100
AcDbSymbolTable
0
ENDTAB
0
TABLE
2
UCS
5
23b
100
AcDbSymbolTable
0
ENDTAB
0
TABLE
2
APPID
5
23c
100
AcDbSymbolTable
0
APPID
5
12
100
AcDbSymbolTableRecord
100
AcDbRegAppTableRecord
2
ACAD
70
0
0
APPID
5
15F
100
AcDbSymbolTableRecord
100
AcDbRegAppTableRecord
2
ACAD_DSTYLE_DIMBREAK
70
0
0
APPID
5
1E1
100
AcDbSymbolTableRecord
100
AcDbRegAppTableRecord
2
ACAD_DSTYLE_DIM_LINETYPE
70
0
0
APPID
5
1E2
100
AcDbSymbolTableRecord
100
AcDbRegAppTableRecord
2
ACAD_DSTYLE_DIM_EXT1_LINETYPE
70
0
0
APPID
5
1E3
100
AcDbSymbolTableRecord
100
AcDbRegAppTableRecord
2
ACAD_DSTYLE_DIM_EXT2_LINETYPE
70
0
0
APPID
5
21E
100
AcDbSymbolTableRecord
100
AcDbRegAppTableRecord
2
ACAD_MLEADERVER
70
0
0
ENDTAB
0
TABLE
2
BLOCK_RECORD
5
23d
100
AcDbSymbolTable
0
BLOCK_RECORD
5
1F
100
AcDbSymbolTableRecord
100
AcDbBlockTableRecord
2
*Model_Space
340
0
70
0
0
BLOCK_RECORD
5
1B
100
AcDbSymbolTableRecord
100
AcDbBlockTableRecord
2
*Paper_Space
340
0
70
0
0
BLOCK_RECORD
5
23
100
AcDbSymbolTableRecord
100
AcDbBlockTableRecord
2
*Paper_Space0
340
0
70
0
0
BLOCK_RECORD
5
164
100
AcDbSymbolTableRecord
100
AcDbBlockTableRecord
2
*D1
340
0
70
0
0
BLOCK_RECORD
5
171
100
AcDbSymbolTableRecord
100
AcDbBlockTableRecord
2
_U0
340
0
70
0
0
BLOCK_RECORD
5
17D
100
AcDbSymbolTableRecord
100
AcDbBlockTableRecord
2
*D3
340
0
70
0
0
BLOCK_RECORD
5
18A
100
AcDbSymbolTableRecord
100
AcDbBlockTableRecord
2
_U1
340
0
70
0
0
BLOCK_RECORD
5
196
100
AcDbSymbolTableRecord
100
AcDbBlockTableRecord
2
*D5
340
0
70
0
0
BLOCK_RECORD
5
1A2
100
AcDbSymbolTableRecord
100
AcDbBlockTableRecord
2
_U2
340
0
70
0
0
BLOCK_RECORD
5
1AE
100
AcDbSymbolTableRecord
100
AcDbBlockTableRecord
2
*D7
340
0
70
0
0
BLOCK_RECORD
5
1BA
100
AcDbSymbolTableRecord
100
AcDbBlockTableRecord
2
_U3
340
0
70
0
0
ENDTAB
0
ENDSEC
0
SECTION
2
BLOCKS
0
BLOCK
5
20
100
AcDbEntity
8
0
100
AcDbBlockBegin
2
*Model_Space
70
0
10
0
20
0
30
0
3
*Model_Space
0
ENDBLK
5
21
100
AcDbEntity
8
0
100
AcDbBlockEnd
0
BLOCK
5
1C
100
AcDbEntity
8
0
100
AcDbBlockBegin
2
*Paper_Space
70
0
10
0
20
0
30
0
3
*Paper_Space
0
ENDBLK
5
1D
100
AcDbEntity
8
0
100
AcDbBlockEnd
0
BLOCK
5
24
100
AcDbEntity
8
0
100
AcDbBlockBegin
2
*Paper_Space0
70
0
10
0
20
0
30
0
3
*Paper_Space0
0
ENDBLK
5
25
100
AcDbEntity
8
0
100
AcDbBlockEnd
0
BLOCK
5
165
100
AcDbEntity
8
0
100
AcDbBlockBegin
2
*D1
70
1
10
0
20
0
30
0
3
*D1
0
LINE
5
167
100
AcDbEntity
8
0
62
256
6
ByLayer
370
-2
48
1
60
0
100
AcDbLine
10
66.5875
20
-27
30
0
11
98.1
21
-27
31
0
39
0
210
0
220
0
230
1
0
LINE
5
168
100
AcDbEntity
8
0
62
256
6
ByLayer
370
-2
48
1
60
0
100
AcDbLine
10
1.5875
20
0
30
0
11
98.1
21
0
31
0
39
0
210
0
220
0
230
1
0
LINE
5
169
100
AcDbEntity
8
0
62
256
6
ByLayer
370
-2
48
1
60
0
100
AcDbLine
10
96.1
20
-23.5
30
0
11
96.1
21
-3.5
31
0
39
0
210
0
220
0
230
1
0
SOLID
5
16A
100
AcDbEntity
8
0
62
256
6
ByLayer
370
-1
48
1
60
0
100
AcDbTrace
10
95.516667
20
-23.5
30
0
11
96.683333
21
-23.5
31
0
12
96.1
22
-27
32
0
13
96.1
23
-27
33
0
39
0
210
0
220
0
230
1
0
SOLID
5
16B
100
AcDbEntity
8
0
62
256
6
ByLayer
370
-1
48
1
60
0
100
AcDbTrace
10
96.683333
20
-3.5
30
0
11
95.516667
21
-3.5
31
0
12
96.1
22
0
32
0
13
96.1
23
0
33
0
39
0
210
0
220
0
230
1
0
MTEXT
5
16C
100
AcDbEntity
8
0
62
256
6
ByLayer
370
18
48
1
60
0
100
AcDbMText
10
89.1
20
-13.5
30
0
210
0
220
0
230
1
1
\A1;27
40
3.5
41
0
44
1
50
90
71
5
72
5
7
iso_b_vert
0
POINT
5
16D
100
AcDbEntity
8
Defpoints
62
0
6
ByLayer
370
-1
48
1
60
0
100
AcDbPoint
10
65
20
-27
30
0
39
0
210
0
220
0
230
1
50
360
0
POINT
5
16E
100
AcDbEntity
8
Defpoints
62
0
6
ByLayer
370
-1
48
1
60
0
100
AcDbPoint
10
0
20
0
30
0
39
0
210
0
220
0
230
1
50
360
0
POINT
5
16F
100
AcDbEntity
8
Defpoints
62
0
6
ByLayer
370
-1
48
1
60
0
100
AcDbPoint
10
96.1
20
0
30
0
39
0
210
0
220
0
230
1
50
360
0
ENDBLK
5
166
100
AcDbEntity
8
0
100
AcDbBlockEnd
0
BLOCK
5
178
100
AcDbEntity
8
0
100
AcDbBlockBegin
2
_U0
70
0
10
0
20
0
30
0
3
_U0
0
MTEXT
5
172
100
AcDbEntity
8
2
62
256
6
ByLayer
370
18
48
1
60
0
100
AcDbMText
10
95.410366
20
-15.432966
30
0
210
0
220
0
230
1
1
\W0.6740;27
40
3.5
41
0
44
1.084337
50
90
71
7
72
5
7
iso_b_vert
0
LINE
5
173
100
AcDbEntity
8
2
62
256
6
ByLayer
370
13
48
1
60
0
100
AcDbLine
10
66.5875
20
-27
30
0
11
98.1
21
-27
31
0
39
0
210
0
220
0
230
1
0
LINE
5
174
100
AcDbEntity
8
2
62
256
6
ByLayer
370
13
48
1
60
0
100
AcDbLine
10
1.5875
20
0
30
0
11
98.1
21
0
31
0
39
0
210
0
220
0
230
1
0
LINE
5
175
100
AcDbEntity
8
2
62
256
6
ByLayer
370
13
48
1
60
0
100
AcDbLine
10
96.1
20
-27
30
0
11
96.1
21
0
31
0
39
0
210
0
220
0
230
1
0
SOLID
5
176
100
AcDbEntity
8
2
62
256
6
ByLayer
370
18
48
1
60
0
100
AcDbTrace
10
96.1
20
-27
30
0
11
95.639216
21
-23.500002
31
0
12
96.560784
22
-23.499998
32
0
13
96.560784
23
-23.499998
33
0
39
0
210
0
220
0
230
1
0
SOLID
5
177
100
AcDbEntity
8
2
62
256
6
ByLayer
370
18
48
1
60
0
100
AcDbTrace
10
96.1
20
0
30
0
11
96.560784
21
-3.499998
31
0
12
95.639216
22
-3.500002
32
0
13
95.639216
23
-3.500002
33
0
39
0
210
0
220
0
230
1
0
ENDBLK
5
179
100
AcDbEntity
8
0
100
AcDbBlockEnd
0
BLOCK
5
17E
100
AcDbEntity
8
0
100
AcDbBlockBegin
2
*D3
70
1
10
0
20
0
30
0
3
*D3
0
LINE
5
180
100
AcDbEntity
8
0
62
256
6
ByLayer
370
-2
48
1
60
0
100
AcDbLine
10
66.5875
20
-22
30
0
11
87.1
21
-22
31
0
39
0
210
0
220
0
230
1
0
LINE
5
181
100
AcDbEntity
8
0
62
256
6
ByLayer
370
-2
48
1
60
0
100
AcDbLine
10
66.5875
20
-27
30
0
11
87.1
21
-27
31
0
39
0
210
0
220
0
230
1
0
LINE
5
182
100
AcDbEntity
8
0
62
256
6
ByLayer
370
-2
48
1
60
0
100
AcDbLine
10
85.1
20
-18.5
30
0
11
85.1
21
-15
31
0
39
0
210
0
220
0
230
1
0
LINE
5
183
100
AcDbEntity
8
0
62
256
6
ByLayer
370
-2
48
1
60
0
100
AcDbLine
10
85.1
20
-30.5
30
0
11
85.1
21
-34
31
0
39
0
210
0
220
0
230
1
0
SOLID
5
184
100
AcDbEntity
8
0
62
256
6
ByLayer
370
-1
48
1
60
0
100
AcDbTrace
10
84.516667
20
-18.5
30
0
11
85.683333
21
-18.5
31
0
12
85.1
22
-22
32
0
13
85.1
23
-22
33
0
39
0
210
0
220
0
230
1
0
SOLID
5
185
100
AcDbEntity
8
0
62
256
6
ByLayer
370
-1
48
1
60
0
100
AcDbTrace
10
85.683333
20
-30.5
30
0
11
84.516667
21
-30.5
31
0
12
85.1
22
-27
32
0
13
85.1
23
-27
33
0
39
0
210
0
220
0
230
1
0
MTEXT
5
186
100
AcDbEntity
8
0
62
256
6
ByLayer
370
18
48
1
60
0
100
AcDbMText
10
78.1
20
-24.5
30
0
210
0
220
0
230
1
1
\A1;5
40
3.5
41
0
44
1
50
90
71
5
72
5
7
iso_b_vert
0
POINT
5
187
100
AcDbEntity
8
Defpoints
62
0
6
ByLayer
370
-1
48
1
60
0
100
AcDbPoint
10
65
20
-22
30
0
39
0
210
0
220
0
230
1
50
360
0
POINT
5
188
100
AcDbEntity
8
Defpoints
62
0
6
ByLayer
370
-1
48
1
60
0
100
AcDbPoint
10
65
20
-27
30
0
39
0
210
0
220
0
230
1
50
360
0
POINT
5
189
100
AcDbEntity
8
Defpoints
62
0
6
ByLayer
370
-1
48
1
60
0
100
AcDbPoint
10
85.1
20
-27
30
0
39
0
210
0
220
0
230
1
50
360
0
ENDBLK
5
17F
100
AcDbEntity
8
0
100
AcDbBlockEnd
0
BLOCK
5
191
100
AcDbEntity
8
0
100
AcDbBlockBegin
2
_U1
70
0
10
0
20
0
30
0
3
_U1
0
MTEXT
5
18B
100
AcDbEntity
8
2
62
256
6
ByLayer
370
18
48
1
60
0
100
AcDbMText
10
84.410366
20
-25.125233
30
0
210
0
220
0
230
1
1
\W0.5404;5
40
3.5
41
0
44
1.084337
50
90
71
7
72
5
7
iso_b_vert
0
LINE
5
18C
100
AcDbEntity
8
2
62
256
6
ByLayer
370
13
48
1
60
0
100
AcDbLine
10
66.5875
20
-22
30
0
11
87.1
21
-22
31
0
39
0
210
0
220
0
230
1
0
LINE
5
18D
100
AcDbEntity
8
2
62
256
6
ByLayer
370
13
48
1
60
0
100
AcDbLine
10
66.5875
20
-27
30
0
11
87.1
21
-27
31
0
39
0
210
0
220
0
230
1
0
LINE
5
18E
100
AcDbEntity
8
2
62
256
6
ByLayer
370
13
48
1
60
0
100
AcDbLine
10
85.1
20
-13.25
30
0
11
85.1
21
-35.75
31
0
39
0
210
0
220
0
230
1
0
SOLID
5
18F
100
AcDbEntity
8
2
62
256
6
ByLayer
370
18
48
1
60
0
100
AcDbTrace
10
85.1
20
-22
30
0
11
84.639216
21
-18.500002
31
0
12
85.560784
22
-18.499998
32
0
13
85.560784
23
-18.499998
33
0
39
0
210
0
220
0
230
1
0
SOLID
5
190
100
AcDbEntity
8
2
62
256
6
ByLayer
370
18
48
1
60
0
100
AcDbTrace
10
85.1
20
-27
30
0
11
85.560784
21
-30.499998
31
0
12
84.639216
22
-30.500002
32
0
13
84.639216
23
-30.500002
33
0
39
0
210
0
220
0
230
1
0
ENDBLK
5
192
100
AcDbEntity
8
0
100
AcDbBlockEnd
0
BLOCK
5
197
100
AcDbEntity
8
0
100
AcDbBlockBegin
2
*D5
70
1
10
0
20
0
30
0
3
*D5
0
LINE
5
199
100
AcDbEntity
8
0
62
256
6
ByLayer
370
-2
48
1
60
0
100
AcDbLine
10
47
20
-20.7375
30
0
11
47
21
17.925
31
0
39
0
210
0
220
0
230
1
0
LINE
5
19A
100
AcDbEntity
8
0
62
256
6
ByLayer
370
-2
48
1
60
0
100
AcDbLine
10
65
20
-20.4125
30
0
11
65
21
17.925
31
0
39
0
210
0
220
0
230
1
0
LINE
5
19B
100
AcDbEntity
8
0
62
256
6
ByLayer
370
-2
48
1
60
0
100
AcDbLine
10
50.5
20
15.925
30
0
11
61.5
21
15.925
31
0
39
0
210
0
220
0
230
1
0
SOLID
5
19C
100
AcDbEntity
8
0
62
256
6
ByLayer
370
-1
48
1
60
0
100
AcDbTrace
10
50.5
20
16.508333
30
0
11
50.5
21
15.341667
31
0
12
47
22
15.925
32
0
13
47
23
15.925
33
0
39
0
210
0
220
0
230
1
0
SOLID
5
19D
100
AcDbEntity
8
0
62
256
6
ByLayer
370
-1
48
1
60
0
100
AcDbTrace
10
61.5
20
15.341667
30
0
11
61.5
21
16.508333
31
0
12
65
22
15.925
32
0
13
65
23
15.925
33
0
39
0
210
0
220
0
230
1
0
MTEXT
5
19E
100
AcDbEntity
8
0
62
256
6
ByLayer
370
18
48
1
60
0
100
AcDbMText
10
56
20
22.925
30
0
210
0
220
0
230
1
1
\A1;18
40
3.5
41
0
44
1
50
0
71
5
72
5
7
iso_b_vert
0
POINT
5
19F
100
AcDbEntity
8
Defpoints
62
0
6
ByLayer
370
-1
48
1
60
0
100
AcDbPoint
10
47
20
-22.325
30
0
39
0
210
0
220
0
230
1
50
360
0
POINT
5
1A0
100
AcDbEntity
8
Defpoints
62
0
6
ByLayer
370
-1
48
1
60
0
100
AcDbPoint
10
65
20
-22
30
0
39
0
210
0
220
0
230
1
50
360
0
POINT
5
1A1
100
AcDbEntity
8
Defpoints
62
0
6
ByLayer
370
-1
48
1
60
0
100
AcDbPoint
10
65
20
15.925
30
0
39
0
210
0
220
0
230
1
50
360
0
ENDBLK
5
198
100
AcDbEntity
8
0
100
AcDbBlockEnd
0
BLOCK
5
1A9
100
AcDbEntity
8
0
100
AcDbBlockBegin
2
_U2
70
0
10
0
20
0
30
0
3
_U2
0
MTEXT
5
1A3
100
AcDbEntity
8
2
62
256
6
ByLayer
370
18
48
1
60
0
100
AcDbMText
10
54.532467
20
16.957634
30
0
210
0
220
0
230
1
1
\W0.5321;18
40
3.5
41
0
44
1.084337
50
0
71
7
72
5
7
iso_b_vert
0
LINE
5
1A4
100
AcDbEntity
8
2
62
256
6
ByLayer
370
13
48
1
60
0
100
AcDbLine
10
47
20
-20.7375
30
0
11
47
21
17.925
31
0
39
0
210
0
220
0
230
1
0
LINE
5
1A5
100
AcDbEntity
8
2
62
256
6
ByLayer
370
13
48
1
60
0
100
AcDbLine
10
65
20
-20.4125
30
0
11
65
21
17.925
31
0
39
0
210
0
220
0
230
1
0
LINE
5
1A6
100
AcDbEntity
8
2
62
256
6
ByLayer
370
13
48
1
60
0
100
AcDbLine
10
47
20
15.925
30
0
11
65
21
15.925
31
0
39
0
210
0
220
0
230
1
0
SOLID
5
1A7
100
AcDbEntity
8
2
62
256
6
ByLayer
370
18
48
1
60
0
100
AcDbTrace
10
47
20
15.925
30
0
11
50.499998
21
16.385784
31
0
12
50.500002
22
15.464216
32
0
13
50.500002
23
15.464216
33
0
39
0
210
0
220
0
230
1
0
SOLID
5
1A8
100
AcDbEntity
8
2
62
256
6
ByLayer
370
18
48
1
60
0
100
AcDbTrace
10
65
20
15.925
30
0
11
61.500002
21
15.464216
31
0
12
61.499998
22
16.385784
32
0
13
61.499998
23
16.385784
33
0
39
0
210
0
220
0
230
1
0
ENDBLK
5
1AA
100
AcDbEntity
8
0
100
AcDbBlockEnd
0
BLOCK
5
1AF
100
AcDbEntity
8
0
100
AcDbBlockBegin
2
*D7
70
1
10
0
20
0
30
0
3
*D7
0
LINE
5
1B1
100
AcDbEntity
8
0
62
256
6
ByLayer
370
-2
48
1
60
0
100
AcDbLine
10
0
20
-1.5875
30
0
11
0
21
-47.75
31
0
39
0
210
0
220
0
230
1
0
LINE
5
1B2
100
AcDbEntity
8
0
62
256
6
ByLayer
370
-2
48
1
60
0
100
AcDbLine
10
65
20
-28.5875
30
0
11
65
21
-47.75
31
0
39
0
210
0
220
0
230
1
0
LINE
5
1B3
100
AcDbEntity
8
0
62
256
6
ByLayer
370
-2
48
1
60
0
100
AcDbLine
10
3.5
20
-45.75
30
0
11
61.5
21
-45.75
31
0
39
0
210
0
220
0
230
1
0
SOLID
5
1B4
100
AcDbEntity
8
0
62
256
6
ByLayer
370
-1
48
1
60
0
100
AcDbTrace
10
3.5
20
-45.166667
30
0
11
3.5
21
-46.333333
31
0
12
0
22
-45.75
32
0
13
0
23
-45.75
33
0
39
0
210
0
220
0
230
1
0
SOLID
5
1B5
100
AcDbEntity
8
0
62
256
6
ByLayer
370
-1
48
1
60
0
100
AcDbTrace
10
61.5
20
-46.333333
30
0
11
61.5
21
-45.166667
31
0
12
65
22
-45.75
32
0
13
65
23
-45.75
33
0
39
0
210
0
220
0
230
1
0
MTEXT
5
1B6
100
AcDbEntity
8
0
62
256
6
ByLayer
370
18
48
1
60
0
100
AcDbMText
10
32.5
20
-38.75
30
0
210
0
220
0
230
1
1
\A1;65
40
3.5
41
0
44
1
50
0
71
5
72
5
7
iso_b_vert
0
POINT
5
1B7
100
AcDbEntity
8
Defpoints
62
0
6
ByLayer
370
-1
48
1
60
0
100
AcDbPoint
10
0
20
0
30
0
39
0
210
0
220
0
230
1
50
360
0
POINT
5
1B8
100
AcDbEntity
8
Defpoints
62
0
6
ByLayer
370
-1
48
1
60
0
100
AcDbPoint
10
65
20
-27
30
0
39
0
210
0
220
0
230
1
50
360
0
POINT
5
1B9
100
AcDbEntity
8
Defpoints
62
0
6
ByLayer
370
-1
48
1
60
0
100
AcDbPoint
10
65
20
-45.75
30
0
39
0
210
0
220
0
230
1
50
360
0
ENDBLK
5
1B0
100
AcDbEntity
8
0
100
AcDbBlockEnd
0
BLOCK
5
1C1
100
AcDbEntity
8
0
100
AcDbBlockBegin
2
_U3
70
0
10
0
20
0
30
0
3
_U3
0
MTEXT
5
1BB
100
AcDbEntity
8
2
62
256
6
ByLayer
370
18
48
1
60
0
100
AcDbMText
10
30.595034
20
-44.717366
30
0
210
0
220
0
230
1
1
\W0.6740;65
40
3.5
41
0
44
1.084337
50
0
71
7
72
5
7
iso_b_vert
0
LINE
5
1BC
100
AcDbEntity
8
2
62
256
6
ByLayer
370
13
48
1
60
0
100
AcDbLine
10
0
20
-1.5875
30
0
11
0
21
-47.75
31
0
39
0
210
0
220
0
230
1
0
LINE
5
1BD
100
AcDbEntity
8
2
62
256
6
ByLayer
370
13
48
1
60
0
100
AcDbLine
10
65
20
-28.5875
30
0
11
65
21
-47.75
31
0
39
0
210
0
220
0
230
1
0
LINE
5
1BE
100
AcDbEntity
8
2
62
256
6
ByLayer
370
13
48
1
60
0
100
AcDbLine
10
0
20
-45.75
30
0
11
65
21
-45.75
31
0
39
0
210
0
220
0
230
1
0
SOLID
5
1BF
100
AcDbEntity
8
2
62
256
6
ByLayer
370
18
48
1
60
0
100
AcDbTrace
10
0
20
-45.75
30
0
11
3.499998
21
-45.289216
31
0
12
3.500002
22
-46.210784
32
0
13
3.500002
23
-46.210784
33
0
39
0
210
0
220
0
230
1
0
SOLID
5
1C0
100
AcDbEntity
8
2
62
256
6
ByLayer
370
18
48
1
60
0
100
AcDbTrace
10
65
20
-45.75
30
0
11
61.500002
21
-46.210784
31
0
12
61.499998
22
-45.289216
32
0
13
61.499998
23
-45.289216
33
0
39
0
210
0
220
0
230
1
0
ENDBLK
5
1C2
100
AcDbEntity
8
0
100
AcDbBlockEnd
0
ENDSEC
0
SECTION
2
ENTITIES
0
ARC
5
E9
100
AcDbEntity
8
1
62
256
6
ByLayer
370
18
48
1
60
0
100
AcDbCircle
39
0
10
47
20
-20.725
30
0
40
1.6
210
0
220
0
230
1
100
AcDbArc
50
180
51
193.539452
0
ARC
5
EA
100
AcDbEntity
8
1
62
256
6
ByLayer
370
18
48
1
60
0
100
AcDbCircle
39
0
10
20.279208
20
-21.2
30
0
40
1.2
210
0
220
0
230
1
100
AcDbArc
50
60.662139
51
90
0
ARC
5
EB
100
AcDbEntity
8
SK1
62
256
6
ByLayer
370
18
48
1
60
0
100
AcDbCircle
39
0
10
-0.6
20
15
30
0
40
0.999999999999994
210
0
220
0
230
1
100
AcDbArc
50
293.578178
51
306.869898
0
ARC
5
EC
100
AcDbEntity
8
SK1
62
256
6
ByLayer
370
18
48
1
60
0
100
AcDbCircle
39
0
10
-0.6
20
-15
30
0
40
0.999999999999994
210
0
220
0
230
1
100
AcDbArc
50
53.130102
51
66.421822
0
ARC
5
F0
100
AcDbEntity
8
1
62
256
6
ByLayer
370
18
48
1
60
0
100
AcDbCircle
39
0
10
26.4
20
-21.15
30
0
40
1
210
0
220
0
230
1
100
AcDbArc
50
360
51
90
0
ARC
5
F1
100
AcDbEntity
8
1
62
256
6
ByLayer
370
18
48
1
60
0
100
AcDbCircle
39
0
10
64.7
20
-26.7
30
0
40
0.3
210
0
220
0
230
1
100
AcDbArc
50
267.5
51
0
0
ARC
5
F2
100
AcDbEntity
8
1
62
256
6
ByLayer
370
18
48
1
60
0
100
AcDbCircle
39
0
10
64.7
20
-22.3
30
0
40
0.3
210
0
220
0
230
1
100
AcDbArc
50
0
51
92.5
0
ARC
5
F3
100
AcDbEntity
8
1
62
256
6
ByLayer
370
18
48
1
60
0
100
AcDbCircle
39
0
10
57.55644
20
-23.832701
30
0
40
0.100000000032474
210
0
220
0
230
1
100
AcDbArc
50
190.000001
51
218.049181
0
ARC
5
F4
100
AcDbEntity
8
1
62
256
6
ByLayer
370
18
48
1
60
0
100
AcDbCircle
39
0
10
57.55644
20
-25.167299
30
0
40
0.100000000032474
210
0
220
0
230
1
100
AcDbArc
50
141.950819
51
169.999999
0
CIRCLE
5
ED
100
AcDbEntity
8
1
62
256
6
ByLayer
370
18
48
1
60
0
100
AcDbCircle
10
38.65
20
-14.35
30
0
40
2.55
39
0
210
0
220
0
230
1
0
CIRCLE
5
EE
100
AcDbEntity
8
1
62
256
6
ByLayer
370
18
48
1
60
0
100
AcDbCircle
10
38.65
20
-14.35
30
0
40
3.3
39
0
210
0
220
0
230
1
0
CIRCLE
5
EF
100
AcDbEntity
8
1
62
256
6
ByLayer
370
18
48
1
60
0
100
AcDbCircle
10
38.65
20
-14.35
30
0
40
5.75
39
0
210
0
220
0
230
1
0
ELLIPSE
5
F5
100
AcDbEntity
8
1
62
256
6
ByLayer
370
18
48
1
60
0
100
AcDbEllipse
10
71.428571
20
-87.2
30
0
11
3.70596497819813E-15
21
60.5249999990717
31
0
210
0
220
0
230
1
40
0.857143
41
0.143685418075979
42
0.330733667428293
0
ELLIPSE
5
F6
100
AcDbEntity
8
1
62
256
6
ByLayer
370
18
48
1
60
0
100
AcDbEllipse
10
936.011994
20
-96.895082
30
0
11
3286.74146454266
21
-13.8691911800508
31
0
210
0
220
0
230
1
40
0.020944
41
1.84136713220014
42
1.84214695707786
0
ELLIPSE
5
F7
100
AcDbEntity
8
1
62
256
6
ByLayer
370
18
48
1
60
0
100
AcDbEllipse
10
55.430138
20
-24.592136
30
0
11
0.0769831663775888
21
0.997288112012367
31
0
210
0
220
0
230
1
40
0.961947
41
0
42
6.28318530717959
0
ELLIPSE
5
F8
100
AcDbEntity
8
1
62
256
6
ByLayer
370
18
48
1
60
0
100
AcDbEllipse
10
57.929864
20
-87.2
30
0
11
3.7059649827046E-15
21
60.5250000726704
31
0
210
0
220
0
230
1
40
0.885973
41
0.0256172724987849
42
0.0827047436790497
0
ELLIPSE
5
F9
100
AcDbEntity
8
1
62
256
6
ByLayer
370
18
48
1
60
0
100
AcDbEllipse
10
57.929864
20
-69.5
30
0
11
2.88854023804585E-15
21
47.1750000157981
31
0
210
0
220
0
230
1
40
0.885973
41
0.0327169412649564
42
0.106187788316388
0
ELLIPSE
5
FA
100
AcDbEntity
8
1
62
256
6
ByLayer
370
18
48
1
60
0
100
AcDbEllipse
10
-461.055845
20
-69.503107
30
0
11
3659.42387937645
21
8.19454988580966
31
0
210
0
220
0
230
1
40
0.012696
41
1.42885889434747
42
1.43148304581092
0
ELLIPSE
5
FB
100
AcDbEntity
8
1
62
256
6
ByLayer
370
18
48
1
60
0
100
AcDbEllipse
10
60.64074
20
-87.2
30
0
11
86.4386582276272
21
1.01259029888069E-13
31
0
210
0
220
0
230
1
40
0.700208
41
1.6535010704121
42
1.70502806134008
0
ELLIPSE
5
FC
100
AcDbEntity
8
1
62
256
6
ByLayer
370
18
48
1
60
0
100
AcDbEllipse
10
60.64074
20
-69.5
30
0
11
67.3728822374751
21
7.89243243244768E-14
31
0
210
0
220
0
230
1
40
0.700208
41
1.67698411510057
42
1.7746720821421
0
ELLIPSE
5
FD
100
AcDbEntity
8
1
62
256
6
ByLayer
370
18
48
1
60
0
100
AcDbEllipse
10
16.948929
20
0
30
0
11
9.36741787978128
21
19.7417491527497
31
0
210
0
220
0
230
1
40
0.341999
41
2.04527312608987
42
2.98886640869144
0
ELLIPSE
5
FE
100
AcDbEntity
8
1
62
256
6
ByLayer
370
18
48
1
60
0
100
AcDbEllipse
10
-0.948929
20
0
30
0
11
9.36741787978225
21
-19.7417491527502
31
0
210
0
220
0
230
1
40
0.341999
41
0.152726244898341
42
1.09631952749989
0
ELLIPSE
5
FF
100
AcDbEntity
8
1
62
256
6
ByLayer
370
18
48
1
60
0
100
AcDbEllipse
10
-0.948929
20
0
30
0
11
9.36741787978194
21
19.7417491527498
31
0
210
0
220
0
230
1
40
0.341999
41
-1.0963195274999
42
-0.152726244898351
0
ELLIPSE
5
100
100
AcDbEntity
8
1
62
256
6
ByLayer
370
18
48
1
60
0
100
AcDbEllipse
10
16.948929
20
0
30
0
11
9.36741787978144
21
-19.7417491527498
31
0
210
0
220
0
230
1
40
0.341999
41
-2.98886640869144
42
-2.04527312608987
0
ELLIPSE
5
101
100
AcDbEntity
8
1
62
256
6
ByLayer
370
18
48
1
60
0
100
AcDbEllipse
10
20.174537
20
0
30
0
11
1.22460635382213E-15
21
19.9999999999959
31
0
210
0
220
0
230
1
40
0.008727
41
0.779965219575176
42
2.36162743401466
0
ELLIPSE
5
102
100
AcDbEntity
8
1
62
256
6
ByLayer
370
18
48
1
60
0
100
AcDbEllipse
10
57.346355
20
-22.641251
30
0
11
0.0355033580216751
21
-0.093485354799441
31
0
210
0
220
0
230
1
40
1
41
-1.93374631440851
42
-1.75921338920283
0
ELLIPSE
5
103
100
AcDbEntity
8
1
62
256
6
ByLayer
370
18
48
1
60
0
100
AcDbEllipse
10
57.346355
20
-26.358749
30
0
11
0.0355033580216751
21
0.093485354799441
31
0
210
0
220
0
230
1
40
1
41
1.75921338920283
42
1.93374631440851
0
POINT
5
70
100
AcDbEntity
8
81
62
256
6
ByLayer
370
18
48
1
60
0
100
AcDbPoint
10
65
20
-27
30
0
39
0
210
0
220
0
230
1
50
360
0
POINT
5
72
100
AcDbEntity
8
80
62
256
6
ByLayer
370
18
48
1
60
0
100
AcDbPoint
10
0
20
0
30
0
39
0
210
0
220
0
230
1
50
360
0
POINT
5
74
100
AcDbEntity
8
1
62
256
6
ByLayer
370
18
48
1
60
1
100
AcDbPoint
10
65
20
-27
30
0
39
0
210
0
220
0
230
1
50
360
0
POINT
5
76
100
AcDbEntity
8
1
62
256
6
ByLayer
370
18
48
1
60
1
100
AcDbPoint
10
0
20
0
30
0
39
0
210
0
220
0
230
1
50
360
0
POINT
5
77
100
AcDbEntity
8
1
62
256
6
ByLayer
370
18
48
1
60
1
100
AcDbPoint
10
65
20
-22
30
0
39
0
210
0
220
0
230
1
50
360
0
POINT
5
78
100
AcDbEntity
8
1
62
256
6
ByLayer
370
18
48
1
60
1
100
AcDbPoint
10
65
20
-27
30
0
39
0
210
0
220
0
230
1
50
360
0
POINT
5
79
100
AcDbEntity
8
1
62
256
6
ByLayer
370
18
48
1
60
1
100
AcDbPoint
10
47
20
-22.325
30
0
39
0
210
0
220
0
230
1
50
360
0
POINT
5
7A
100
AcDbEntity
8
1
62
256
6
ByLayer
370
18
48
1
60
1
100
AcDbPoint
10
65
20
-22
30
0
39
0
210
0
220
0
230
1
50
360
0
POINT
5
7B
100
AcDbEntity
8
1
62
256
6
ByLayer
370
18
48
1
60
1
100
AcDbPoint
10
0
20
0
30
0
39
0
210
0
220
0
230
1
50
360
0
POINT
5
7C
100
AcDbEntity
8
1
62
256
6
ByLayer
370
18
48
1
60
1
100
AcDbPoint
10
65
20
-27
30
0
39
0
210
0
220
0
230
1
50
360
0
SPLINE
5
104
100
AcDbEntity
8
SK1
62
256
6
ByLayer
370
18
48
1
60
0
100
AcDbSpline
70
4
71
2
72
6
73
3
40
0
40
0
40
0
40
1
40
1
40
1
41
1
10
-1.4950399779393
20
-13.7130167789402
30
0
41
1
10
-0.94497688887391
20
-13.7267321696587
30
0
41
1
10
-0.394913799811292
20
-13.740447551665
30
0
0
SPLINE
5
105
100
AcDbEntity
8
SK1
62
256
6
ByLayer
370
18
48
1
60
0
100
AcDbSpline
70
4
71
2
72
6
73
3
40
0
40
0
40
0
40
1
40
1
40
1
41
1
10
-0.394913799811292
20
13.7404477916605
30
0
41
1
10
-0.94497688887391
20
13.7267324097107
30
0
41
1
10
-1.4950399779393
20
13.7130170190491
30
0
0
SPLINE
5
106
100
AcDbEntity
8
SK1
62
256
6
ByLayer
370
18
48
1
60
0
100
AcDbSpline
70
4
71
2
72
6
73
3
40
0
40
0
40
0
40
1
40
1
40
1
41
1
10
-24
20
-12.6317156240216
30
0
41
1
10
-23.249999936895
20
-13.0645339427607
30
0
41
1
10
-22.5
20
-13.4973518251592
30
0
0
SPLINE
5
107
100
AcDbEntity
8
SK1
62
256
6
ByLayer
370
18
48
1
60
0
100
AcDbSpline
70
4
71
2
72
6
73
3
40
0
40
0
40
0
40
1
40
1
40
1
41
1
10
-22.5
20
13.4973518870616
30
0
41
1
10
-23.2499999368976
20
13.0645340070691
30
0
41
1
10
-24
20
12.6317156907499
30
0
0
SPLINE
5
108
100
AcDbEntity
8
SK1
62
256
6
ByLayer
370
18
48
1
60
0
100
AcDbSpline
70
4
71
3
72
13
73
9
40
0
40
0
40
0
40
0
40
0.239505896267058
40
0.368426445719716
40
0.500072184804663
40
0.631705935597398
40
0.760593415643758
40
1
40
1
40
1
40
1
41
1
10
-1.4950399779393
20
13.8252671707288
30
0
41
1
10
-1.52110926509485
20
13.8248650525742
30
0
41
1
10
-1.55883864918067
20
13.8310346548635
30
0
41
1
10
-1.60627567892249
20
13.8540680395026
30
0
41
1
10
-1.63886244003068
20
13.8792240145368
30
0
41
1
10
-1.66563490778343
20
13.9104917120148
30
0
41
1
10
-1.69103207617425
20
13.956689925787
30
0
41
1
10
-1.69909121849834
20
13.9940472396764
30
0
41
1
10
-1.7
20
14.020094440518
30
0
0
SPLINE
5
109
100
AcDbEntity
8
SK1
62
256
6
ByLayer
370
18
48
1
60
0
100
AcDbSpline
70
4
71
3
72
13
73
9
40
0
40
0
40
0
40
0
40
0.239406584968136
40
0.368294065212519
40
0.499927816069781
40
0.631573555071368
40
0.760494104316207
40
1
40
1
40
1
40
1
41
1
10
-1.7
20
-14.0200943498873
30
0
41
1
10
-1.69909121850789
20
-13.9940471489176
30
0
41
1
10
-1.6910320761837
20
-13.9566898348375
30
0
41
1
10
-1.66563490779619
20
-13.9104916208042
30
0
41
1
10
-1.6388624400475
20
-13.8792239231524
30
0
41
1
10
-1.60627567894025
20
-13.8540679479736
30
0
41
1
10
-1.55883864920244
20
-13.8310345631992
30
0
41
1
10
-1.52110926510643
20
-13.8248649608707
30
0
41
1
10
-1.4950399779393
20
-13.825267079015
30
0
0
SPLINE
5
10A
100
AcDbEntity
8
SK1
62
256
6
ByLayer
370
18
48
1
60
0
100
AcDbSpline
70
4
71
2
72
6
73
3
40
0
40
0
40
0
40
1
40
1
40
1
41
1
10
-1.7
20
14.0158108591592
30
0
41
1
10
-12.0999999986036
20
13.7547063780669
30
0
41
1
10
-22.5
20
13.4936010331935
30
0
0
SPLINE
5
10B
100
AcDbEntity
8
SK1
62
256
6
ByLayer
370
18
48
1
60
0
100
AcDbSpline
70
4
71
2
72
6
73
3
40
0
40
0
40
0
40
1
40
1
40
1
41
1
10
-22.5
20
-13.4936007996938
30
0
41
1
10
-12.0999999986039
20
-13.7547061446862
30
0
41
1
10
-1.7
20
-14.0158106259661
30
0
0
SPLINE
5
10C
100
AcDbEntity
8
1
62
256
6
ByLayer
370
18
48
1
60
0
100
AcDbSpline
70
4
71
3
72
8
73
4
40
0
40
0
40
0
40
0
40
1
40
1
40
1
40
1
41
1
10
21.6136424361939
20
-21.15
30
0
41
1
10
22.1104097772092
20
-23.0384748358006
30
0
41
1
10
22.6093392127301
20
-24.9263944046776
30
0
41
1
10
23.1093181143308
20
-26.8140279121053
30
0
0
SPLINE
5
10D
100
AcDbEntity
8
1
62
256
6
ByLayer
370
18
48
1
60
0
100
AcDbSpline
70
4
71
3
72
16
73
12
40
0
40
0
40
0
40
0
40
0.249999999999963
40
0.249999999999963
40
0.374999999999944
40
0.437499999999942
40
0.437499999999942
40
0.49999999999994
40
0.49999999999994
40
0.74999999999997
40
1
40
1
40
1
40
1
41
1
10
21.4383186059722
20
-20.5256956333767
30
0
41
1
10
21.4518153600693
20
-20.5702290696228
30
0
41
1
10
21.4657197370956
20
-20.6170812692177
30
0
41
1
10
21.4871420894401
20
-20.6906700751526
30
0
41
1
10
21.4979956569014
20
-20.7282968668316
30
0
41
1
10
21.5090622754009
20
-20.7671818677564
30
0
41
1
10
21.5164878470326
20
-20.7933886947865
30
0
41
1
10
21.5202328231476
20
-20.8066633458203
30
0
41
1
10
21.5389651123965
20
-20.8733515396753
30
0
41
1
10
21.5688954649434
20
-20.981732713439
30
0
41
1
10
21.5987397790381
20
-21.0933471351645
30
0
41
1
10
21.6136424361939
20
-21.15
30
0
0
SPLINE
5
10E
100
AcDbEntity
8
1
62
256
6
ByLayer
370
18
48
1
60
0
100
AcDbSpline
70
4
71
3
72
37
73
33
40
0
40
0
40
0
40
0
40
0.0312499999999985
40
0.0312499999999985
40
0.0624999999999971
40
0.124999999999988
40
0.124999999999988
40
0.249999999999968
40
0.249999999999968
40
0.281249999999967
40
0.281249999999967
40
0.312499999999966
40
0.312499999999966
40
0.374999999999968
40
0.374999999999968
40
0.499999999999965
40
0.499999999999965
40
0.531249999999968
40
0.531249999999968
40
0.562499999999971
40
0.624999999999978
40
0.687499999999984
40
0.687499999999984
40
0.718749999999984
40
0.718749999999984
40
0.749999999999983
40
0.749999999999983
40
0.874999999999992
40
0.874999999999992
40
0.937499999999996
40
0.937499999999996
40
1
40
1
40
1
40
1
41
1
10
25.6979991993593
20
-20.15
30
0
41
1
10
25.716159662568
20
-20.15
30
0
41
1
10
25.7343436694247
20
-20.1503025762288
30
0
41
1
10
25.7705404672865
20
-20.1515196642874
30
0
41
1
10
25.824674801288
20
-20.1542634144927
30
0
41
1
10
25.8783209631892
20
-20.1597933879563
30
0
41
1
10
25.9849379277087
20
-20.174707921697
30
0
41
1
10
26.0551208764809
20
-20.1897592792263
30
0
41
1
10
26.141582976962
20
-20.2158024634787
30
0
41
1
10
26.1588116381842
20
-20.2213750016207
30
0
41
1
10
26.1931357589105
20
-20.2332803215246
30
0
41
1
10
26.2102683317634
20
-20.239628997449
30
0
41
1
10
26.2610060779745
20
-20.2596878787379
30
0
41
1
10
26.2940493010843
20
-20.2744353255076
30
0
41
1
10
26.3907724750532
20
-20.3229089214483
30
0
41
1
10
26.4520714242674
20
-20.3608215015534
30
0
41
1
10
26.5242042249219
20
-20.4161083923762
30
0
41
1
10
26.5384465536953
20
-20.4276015588709
30
0
41
1
10
26.5661892922902
20
-20.4511913421433
30
0
41
1
10
26.6067111076418
20
-20.4874857379126
30
0
41
1
10
26.6688047149807
20
-20.5525094181877
30
0
41
1
10
26.7125622957049
20
-20.6094566171854
30
0
41
1
10
26.7430477947175
20
-20.6541098051279
30
0
41
1
10
26.7528200579798
20
-20.669318656058
30
0
41
1
10
26.7715554403085
20
-20.7004102573793
30
0
41
1
10
26.7805452051199
20
-20.7163445307234
30
0
41
1
10
26.8230509324871
20
-20.7971584959476
30
0
41
1
10
26.8488697959412
20
-20.8644367319707
30
0
41
1
10
26.8752531167924
20
-20.9693159906267
30
0
41
1
10
26.8819729542482
20
-21.004941551177
30
0
41
1
10
26.8910147230181
20
-21.0776041036989
30
0
41
1
10
26.8932370625239
20
-21.1138738724028
30
0
41
1
10
26.8932370625239
20
-21.15
30
0
0
SPLINE
5
10F
100
AcDbEntity
8
1
62
256
6
ByLayer
370
18
48
1
60
0
100
AcDbSpline
70
4
71
3
72
14
73
10
40
0
40
0
40
0
40
0
40
0.25
40
0.25
40
0.5
40
0.5
40
0.75
40
0.75
40
1
40
1
40
1
40
1
41
1
10
23.1093181143308
20
-26.8140279121053
30
0
41
1
10
23.1879323127156
20
-26.905294657214
30
0
41
1
10
23.3034233556935
20
-27.0406707371168
30
0
41
1
10
23.5962182771125
20
-27.3965138662679
30
0
41
1
10
23.7734245153252
20
-27.6169871376817
30
0
41
1
10
24.1771580758626
20
-28.1415436950578
30
0
41
1
10
24.4036412466503
20
-28.4456321999485
30
0
41
1
10
24.8953155867024
20
-29.1373934836016
30
0
41
1
10
25.1605012237597
20
-29.525068371294
30
0
41
1
10
25.4410081485315
20
-29.9551917693232
30
0
0
SPLINE
5
110
100
AcDbEntity
8
1
62
256
6
ByLayer
370
18
48
1
60
0
100
AcDbSpline
70
4
71
3
72
31
73
27
40
0
40
0
40
0
40
0
40
0.0312499999999992
40
0.0312499999999992
40
0.0624999999999986
40
0.0624999999999986
40
0.124999999999996
40
0.124999999999996
40
0.249999999999993
40
0.249999999999993
40
0.312499999999991
40
0.34374999999999
40
0.34374999999999
40
0.374999999999989
40
0.374999999999989
40
0.499999999999989
40
0.499999999999989
40
0.624999999999989
40
0.624999999999989
40
0.68749999999999
40
0.68749999999999
40
0.749999999999991
40
0.749999999999991
40
0.874999999999996
40
0.874999999999996
40
1
40
1
40
1
40
1
41
1
10
26.8932370625239
20
-26.7048297382345
30
0
41
1
10
26.8706508563595
20
-26.7061396841803
30
0
41
1
10
26.8473709082549
20
-26.7074800588634
30
0
41
1
10
26.7994256984582
20
-26.7102167419789
30
0
41
1
10
26.7747429316626
20
-26.7116140314327
30
0
41
1
10
26.6987296518636
20
-26.7158758760714
30
0
41
1
10
26.6456314181045
20
-26.7187994564549
30
0
41
1
10
26.4792592160916
20
-26.7277494678905
30
0
41
1
10
26.3589386183972
20
-26.7339550225537
30
0
41
1
10
26.1645160118148
20
-26.743361667671
30
0
41
1
10
26.0638075455077
20
-26.7480897022762
30
0
41
1
10
25.957777112092
20
-26.7528057617934
30
0
41
1
10
25.8858912351621
20
-26.7559415471958
30
0
41
1
10
25.8493214270756
20
-26.7575064794331
30
0
41
1
10
25.6637233228462
20
-26.7652839612886
30
0
41
1
10
25.508966579222
20
-26.7712502247094
30
0
41
1
10
25.1873776691428
20
-26.7823665997718
30
0
41
1
10
25.0205441312482
20
-26.787517616991
30
0
41
1
10
24.7610962878794
20
-26.794410695137
30
0
41
1
10
24.6730386260548
20
-26.7965702862951
30
0
41
1
10
24.4939099850858
20
-26.8005697054307
30
0
41
1
10
24.4037980005449
20
-26.802388143704
30
0
41
1
10
24.1318624921346
20
-26.8072764025858
30
0
41
1
10
23.9484463382214
20
-26.8097790503606
30
0
41
1
10
23.5774156009989
20
-26.8131546323469
30
0
41
1
10
23.3898015588374
20
-26.8140279121053
30
0
41
1
10
23.2
20
-26.8140279121053
30
0
0
SPLINE
5
111
100
AcDbEntity
8
1
62
256
6
ByLayer
370
18
48
1
60
0
100
AcDbSpline
70
4
71
3
72
33
73
29
40
0
40
0
40
0
40
0
40
0.125000000000016
40
0.125000000000016
40
0.18750000000002
40
0.18750000000002
40
0.250000000000025
40
0.250000000000025
40
0.375000000000037
40
0.375000000000037
40
0.406250000000039
40
0.406250000000039
40
0.437500000000041
40
0.437500000000041
40
0.50000000000004
40
0.50000000000004
40
0.625000000000038
40
0.625000000000038
40
0.656250000000036
40
0.656250000000036
40
0.687500000000034
40
0.687500000000034
40
0.750000000000027
40
0.81250000000002
40
0.81250000000002
40
0.875000000000014
40
0.875000000000014
40
1
40
1
40
1
40
1
41
1
10
26.2397368307141
20
-20.15
30
0
41
1
10
26.3071055833143
20
-20.15
30
0
41
1
10
26.3735131192457
20
-20.1560926942454
30
0
41
1
10
26.4716360317391
20
-20.1742157749747
30
0
41
1
10
26.5040980234737
20
-20.1817637186531
30
0
41
1
10
26.5685154439817
20
-20.1999671223374
30
0
41
1
10
26.600599587541
20
-20.2106842391689
30
0
41
1
10
26.6942590621149
20
-20.2470074317023
30
0
41
1
10
26.7537383245528
20
-20.2768276981421
30
0
41
1
10
26.8243435742831
20
-20.3211910993284
30
0
41
1
10
26.8382758559522
20
-20.3304211683923
30
0
41
1
10
26.8657552067244
20
-20.3496106169166
30
0
41
1
10
26.879331242548
20
-20.3595926841259
30
0
41
1
10
26.9192581400242
20
-20.3905010109516
30
0
41
1
10
26.9446575523051
20
-20.412259099656
30
0
41
1
10
27.0172761539375
20
-20.4809191664987
30
0
41
1
10
27.0609510550854
20
-20.5311735123727
30
0
41
1
10
27.1093565962302
20
-20.5998444499673
30
0
41
1
10
27.1187359240042
20
-20.6138950568287
30
0
41
1
10
27.1366582573285
20
-20.6422812788688
30
0
41
1
10
27.1452277297467
20
-20.6566521540257
30
0
41
1
10
27.1697769675525
20
-20.7002908544577
30
0
41
1
10
27.1994237772518
20
-20.7598760962957
30
0
41
1
10
27.2229298975619
20
-20.8222481913133
30
0
41
1
10
27.243288334735
20
-20.8860488117296
30
0
41
1
10
27.2519070702788
20
-20.918804833698
30
0
41
1
10
27.2724024636134
20
-21.017099031744
30
0
41
1
10
27.2792156108743
20
-21.0832436260867
30
0
41
1
10
27.2792156108743
20
-21.15
30
0
0
SPLINE
5
112
100
AcDbEntity
8
1
62
256
6
ByLayer
370
18
48
1
60
0
100
AcDbSpline
70
4
71
3
72
12
73
8
40
0
40
0
40
0
40
0
40
0.25
40
0.25
40
0.5
40
0.5
40
1
40
1
40
1
40
1
41
1
10
56.556326143822
20
-26.6948585177192
30
0
41
1
10
56.5762461123477
20
-26.5541418555593
30
0
41
1
10
56.5952639877099
20
-26.4131558101398
30
0
41
1
10
56.6325104172016
20
-26.13094801202
30
0
41
1
10
56.6507129678684
20
-25.9897184941599
30
0
41
1
10
56.7046371134758
20
-25.5658258317496
30
0
41
1
10
56.7396936362796
20
-25.2829627368519
30
0
41
1
10
56.774406808652
20
-25
30
0
0
SPLINE
5
113
100
AcDbEntity
8
1
62
256
6
ByLayer
370
18
48
1
60
0
100
AcDbSpline
70
4
71
3
72
8
73
4
40
0
40
0
40
0
40
0
40
1
40
1
40
1
40
1
41
1
10
56.9330397954621
20
-24.9159227623864
30
0
41
1
10
56.8802175315189
20
-24.944186305517
30
0
41
1
10
56.8273598960423
20
-24.9722980163781
30
0
41
1
10
56.774406808652
20
-25
30
0
0
SPLINE
5
114
100
AcDbEntity
8
1
62
256
6
ByLayer
370
18
48
1
60
0
100
AcDbSpline
70
4
71
3
72
20
73
16
40
0
40
0
40
0
40
0
40
0.124999999999996
40
0.124999999999996
40
0.249999999999992
40
0.249999999999992
40
0.374999999999988
40
0.374999999999988
40
0.499999999999984
40
0.499999999999984
40
0.62499999999998
40
0.62499999999998
40
0.749999999999976
40
0.749999999999976
40
1
40
1
40
1
40
1
41
1
10
57.0000000000113
20
-24.7749688692703
30
0
41
1
10
57.0000000000112
20
-24.7827395802011
30
0
41
1
10
56.9995937631251
20
-24.7904457315629
30
0
41
1
10
56.9979798151933
20
-24.8057306632174
30
0
41
1
10
56.9967642469955
20
-24.8133082123662
30
0
41
1
10
56.9936086504077
20
-24.8279014713725
30
0
41
1
10
56.9916642630197
20
-24.834975103544
30
0
41
1
10
56.9870434392173
20
-24.8486770600966
30
0
41
1
10
56.9843397653764
20
-24.8553511564102
30
0
41
1
10
56.9783611160119
20
-24.8678241997689
30
0
41
1
10
56.9750781767345
20
-24.8736667010934
30
0
41
1
10
56.9679371835434
20
-24.8845799203337
30
0
41
1
10
56.964047082971
20
-24.8896850163107
30
0
41
1
10
56.9517092968702
20
-24.9035295253539
30
0
41
1
10
56.9427422487556
20
-24.910731282759
30
0
41
1
10
56.9330397954621
20
-24.9159227623864
30
0
0
SPLINE
5
115
100
AcDbEntity
8
1
62
256
6
ByLayer
370
18
48
1
60
0
100
AcDbSpline
70
4
71
3
72
20
73
16
40
0
40
0
40
0
40
0
40
0.12499999999999
40
0.12499999999999
40
0.249999999999981
40
0.249999999999981
40
0.374999999999972
40
0.374999999999972
40
0.499999999999962
40
0.499999999999962
40
0.624999999999952
40
0.624999999999952
40
0.749999999999943
40
0.749999999999943
40
1
40
1
40
1
40
1
41
1
10
56.933039795462
20
-24.0840772376136
30
0
41
1
10
56.937890944132
20
-24.0866729357043
30
0
41
1
10
56.9425740123838
20
-24.0897898375514
30
0
41
1
10
56.9516060515023
20
-24.0970596501623
30
0
41
1
10
56.9559769729611
20
-24.1012441397309
30
0
41
1
10
56.9641534857343
20
-24.1104500648764
30
0
41
1
10
56.9679840522906
20
-24.1154842294121
30
0
41
1
10
56.9751283008422
20
-24.1264174806153
30
0
41
1
10
56.9784667668224
20
-24.1323726527538
30
0
41
1
10
56.9844457620998
20
-24.1448943918016
30
0
41
1
10
56.9870887035604
20
-24.1514438932602
30
0
41
1
10
56.9916895717912
20
-24.1651134158443
30
0
41
1
10
56.9936571096376
20
-24.1722794185904
30
0
41
1
10
56.9984050459487
20
-24.1943684079368
30
0
41
1
10
57
20
-24.2094958819082
30
0
41
1
10
57
20
-24.2250311307314
30
0
0
SPLINE
5
116
100
AcDbEntity
8
1
62
256
6
ByLayer
370
18
48
1
60
0
100
AcDbSpline
70
4
71
3
72
8
73
4
40
0
40
0
40
0
40
0
40
1
40
1
40
1
40
1
41
1
10
56.774406808652
20
-24
30
0
41
1
10
56.8273535334487
20
-24.0276986550821
30
0
41
1
10
56.8802128688877
20
-24.0558111996547
30
0
41
1
10
56.933039795462
20
-24.0840772376136
30
0
0
SPLINE
5
117
100
AcDbEntity
8
1
62
256
6
ByLayer
370
18
48
1
60
0
100
AcDbSpline
70
4
71
3
72
12
73
8
40
0
40
0
40
0
40
0
40
0.500000000000003
40
0.500000000000003
40
0.750000000000001
40
0.750000000000001
40
1
40
1
40
1
40
1
41
1
10
56.774406808652
20
-24
30
0
41
1
10
56.7406216570148
20
-23.7246019790512
30
0
41
1
10
56.706507172346
20
-23.4492925097593
30
0
41
1
10
56.6540969413495
20
-23.0366985199563
30
0
41
1
10
56.6364159945599
20
-22.8992295884294
30
0
41
1
10
56.6002961945782
20
-22.6245159971988
30
0
41
1
10
56.58187719306
20
-22.4872654631932
30
0
41
1
10
56.5626780973556
20
-22.3502457665904
30
0
0
SPLINE
5
118
100
AcDbEntity
8
1
62
256
6
ByLayer
370
18
48
1
60
0
100
AcDbSpline
70
4
71
3
72
12
73
8
40
0
40
0
40
0
40
0
40
0.0957043653722643
40
0.0957043653722643
40
0.397136243581509
40
0.397136243581509
40
1
40
1
40
1
40
1
41
1
10
23.3931078357406
20
15.0476813899434
30
0
41
1
10
23.412308097282
20
15.0446901921158
30
0
41
1
10
23.4315998131706
20
15.041827651016
30
0
41
1
10
23.5116801108269
20
15.0305465289778
30
0
41
1
10
23.5728654158572
20
15.0233533506473
30
0
41
1
10
23.7576286022301
20
15.0059820410429
30
0
41
1
10
23.88240453532
20
15
30
0
41
1
10
24.0088791813337
20
15
30
0
0
SPLINE
5
119
100
AcDbEntity
8
1
62
256
6
ByLayer
370
18
48
1
60
0
100
AcDbSpline
70
4
71
3
72
9
73
5
40
0
40
0
40
0
40
0
40
0.0072275825674291
40
1
40
1
40
1
40
1
41
1
10
27.3701310606465
20
-26.6763217911635
30
0
41
1
10
27.3699855564309
20
-26.6763298115334
30
0
41
1
10
27.3497807434054
20
-26.6774444918248
30
0
41
1
10
27.3194749640581
20
-26.6792495187608
30
0
41
1
10
27.2792156108742
20
-26.6816918197477
30
0
0
SPLINE
5
11A
100
AcDbEntity
8
1
62
256
6
ByLayer
370
18
48
1
60
0
100
AcDbSpline
70
4
71
3
72
8
73
4
40
0
40
0
40
0
40
0
40
1
40
1
40
1
40
1
41
1
10
56.5626780973556
20
-22.3502457665904
30
0
41
1
10
56.5446913045172
20
-22.350162424999
30
0
41
1
10
56.5265088738044
20
-22.3501239902451
30
0
41
1
10
56.5081235806089
20
-22.3501318044499
30
0
0
SPLINE
5
11B
100
AcDbEntity
8
1
62
256
6
ByLayer
370
18
48
1
60
0
100
AcDbSpline
70
4
71
3
72
25
73
21
40
0
40
0
40
0
40
0
40
0.124999999999998
40
0.124999999999998
40
0.187499999999997
40
0.187499999999997
40
0.249999999999996
40
0.249999999999996
40
0.375000000000001
40
0.375000000000001
40
0.437500000000003
40
0.437500000000003
40
0.500000000000005
40
0.500000000000005
40
0.625000000000003
40
0.625000000000003
40
0.750000000000002
40
0.750000000000002
40
0.875000000000001
40
1
40
1
40
1
40
1
41
1
10
47
20
-22.3543345866401
30
0
41
1
10
46.908137877569
20
-22.3543767522015
30
0
41
1
10
46.8176586429092
20
-22.3466103831923
30
0
41
1
10
46.6839211290803
20
-22.3237731195499
30
0
41
1
10
46.6396740863157
20
-22.3142853205798
30
0
41
1
10
46.5518508029805
20
-22.2915220095424
30
0
41
1
10
46.5082456434921
20
-22.2782365869456
30
0
41
1
10
46.3786451444562
20
-22.2325778499312
30
0
41
1
10
46.2961766144996
20
-22.1952739574226
30
0
41
1
10
46.1780995041089
20
-22.1294959496993
30
0
41
1
10
46.1396834925984
20
-22.105923471283
30
0
41
1
10
46.0647545954204
20
-22.0554557501828
30
0
41
1
10
46.0282130706676
20
-22.0285377467843
30
0
41
1
10
45.9217073893468
20
-21.9427846396738
30
0
41
1
10
45.8566732847976
20
-21.8804804295457
30
0
41
1
10
45.7379958859756
20
-21.7460729650405
30
0
41
1
10
45.6843356351851
20
-21.6739407381349
30
0
41
1
10
45.5889389684596
20
-21.5195937862312
30
0
41
1
10
45.5081295570121
20
-21.3594966514657
30
0
41
1
10
45.4552043706853
20
-21.1884077714853
30
0
41
1
10
45.4360055721641
20
-21.1
30
0
0
SPLINE
5
11C
100
AcDbEntity
8
1
62
256
6
ByLayer
370
18
48
1
60
0
100
AcDbSpline
70
4
71
3
72
10
73
6
40
0
40
0
40
0
40
0
40
0.5
40
0.5
40
1
40
1
40
1
40
1
41
1
10
45.4360055721641
20
-21.1
30
0
41
1
10
45.439973913825
20
-21.1
30
0
41
1
10
45.4427778937721
20
-21.1
30
0
41
1
10
45.445100943472
20
-21.1
30
0
41
1
10
45.4446186079419
20
-21.1
30
0
41
1
10
45.442572545322
20
-21.1
30
0
0
SPLINE
5
11D
100
AcDbEntity
8
1
62
256
6
ByLayer
370
18
48
1
60
0
100
AcDbSpline
70
4
71
3
72
35
73
31
40
0
40
0
40
0
40
0
40
0.0312500000000029
40
0.0312500000000029
40
0.0625000000000059
40
0.125000000000012
40
0.125000000000012
40
0.250000000000016
40
0.250000000000016
40
0.312500000000019
40
0.312500000000019
40
0.343750000000024
40
0.343750000000024
40
0.375000000000029
40
0.375000000000029
40
0.500000000000043
40
0.625000000000057
40
0.625000000000057
40
0.656250000000056
40
0.656250000000056
40
0.687500000000055
40
0.687500000000055
40
0.75000000000005
40
0.75000000000005
40
0.875000000000025
40
0.875000000000025
40
0.937500000000012
40
0.968750000000006
40
0.968750000000006
40
1
40
1
40
1
40
1
41
1
10
45.4
20
-21.7821770718739
30
0
41
1
10
45.4
20
-21.8002490482496
30
0
41
1
10
45.4002943646238
20
-21.8183638766301
30
0
41
1
10
45.4014643651513
20
-21.8544221781769
30
0
41
1
10
45.404090792329
20
-21.9083522608872
30
0
41
1
10
45.4092954735716
20
-21.9618167404866
30
0
41
1
10
45.4230901249457
20
-22.0681343553421
30
0
41
1
10
45.4367858415769
20
-22.1382002464554
30
0
41
1
10
45.4641350899738
20
-22.242070056563
30
0
41
1
10
45.4743893596472
20
-22.2764878433007
30
0
41
1
10
45.4915187760255
20
-22.3277988525141
30
0
41
1
10
45.4975308156212
20
-22.3448781291654
30
0
41
1
10
45.5100948532971
20
-22.3787877526261
30
0
41
1
10
45.5166368489861
20
-22.3955944124633
30
0
41
1
10
45.5506298410578
20
-22.4788965661761
30
0
41
1
10
45.6131967920019
20
-22.6075195570812
30
0
41
1
10
45.6918102083129
20
-22.7269982175835
30
0
41
1
10
45.7461292003143
20
-22.7987172808849
30
0
41
1
10
45.7572533737919
20
-22.8129127147165
30
0
41
1
10
45.7800313470577
20
-22.8410017665054
30
0
41
1
10
45.7916730693149
20
-22.8548784353859
30
0
41
1
10
45.8271295621261
20
-22.8957424523693
30
0
41
1
10
45.8515561531987
20
-22.9220660124016
30
0
41
1
10
45.9271600587175
20
-22.9983290328811
30
0
41
1
10
45.9806514419568
20
-23.0455725578949
30
0
41
1
10
46.065538198801
20
-23.1110208749019
30
0
41
1
10
46.1091477572036
20
-23.1423864109044
30
0
41
1
10
46.1545453601624
20
-23.1716688400044
30
0
41
1
10
46.1852147667281
20
-23.1907193978065
30
0
41
1
10
46.2007809664418
20
-23.2000254661908
30
0
41
1
10
46.2164451656144
20
-23.2090308086683
30
0
0
SPLINE
5
11E
100
AcDbEntity
8
1
62
256
6
ByLayer
370
18
48
1
60
0
100
AcDbSpline
70
4
71
3
72
16
73
12
40
0
40
0
40
0
40
0
40
0.125000000000007
40
0.125000000000007
40
0.250000000000013
40
0.250000000000013
40
0.500000000000009
40
0.500000000000009
40
0.750000000000004
40
0.750000000000004
40
1
40
1
40
1
40
1
41
1
10
47
20
-23.3020308096614
30
0
41
1
10
46.9668814930084
20
-23.3068252659266
30
0
41
1
10
46.9336694554879
20
-23.3106025396129
30
0
41
1
10
46.8670537819754
20
-23.3160733756067
30
0
41
1
10
46.8337123182614
20
-23.3177573868078
30
0
41
1
10
46.7342104721823
20
-23.3196040983817
30
0
41
1
10
46.6683303255008
20
-23.3165969026491
30
0
41
1
10
46.5375090585171
20
-23.3018242411552
30
0
41
1
10
46.4725674889476
20
-23.2900629656965
30
0
41
1
10
46.343704153605
20
-23.2570287362754
30
0
41
1
10
46.2797812351427
20
-23.2357665334096
30
0
41
1
10
46.2164451656144
20
-23.2090308086683
30
0
0
SPLINE
5
11F
100
AcDbEntity
8
1
62
256
6
ByLayer
370
18
48
1
60
0
100
AcDbSpline
70
4
71
3
72
10
73
6
40
0
40
0
40
0
40
0
40
0.5
40
0.5
40
1
40
1
40
1
40
1
41
1
10
21.4383186059721
20
-20.15
30
0
41
1
10
21.4993873687563
20
-20.15
30
0
41
1
10
21.5738549208881
20
-20.15
30
0
41
1
10
21.746636967167
20
-20.15
30
0
41
1
10
21.8449363119609
20
-20.15
30
0
41
1
10
21.9535094518299
20
-20.15
30
0
0
SPLINE
5
120
100
AcDbEntity
8
1
62
256
6
ByLayer
370
18
48
1
60
0
100
AcDbSpline
70
4
71
3
72
14
73
10
40
0
40
0
40
0
40
0
40
0.25
40
0.25
40
0.5
40
0.5
40
0.75
40
0.75
40
1
40
1
40
1
40
1
41
1
10
20.9016434511125
20
16.4810545625527
30
0
41
1
10
20.839350409373
20
16.5578959113805
30
0
41
1
10
20.7777351994983
20
16.6398031400836
30
0
41
1
10
20.6594289834942
20
16.8109353547456
30
0
41
1
10
20.6027350486066
20
16.9001547062651
30
0
41
1
10
20.4966090786156
20
17.082937967596
30
0
41
1
10
20.4471726604821
20
17.176493002264
30
0
41
1
10
20.3567754841619
20
17.3650474940926
30
0
41
1
10
20.315807604408
20
17.4600391123963
30
0
41
1
10
20.2792076144253
20
17.5544724136169
30
0
0
SPLINE
5
121
100
AcDbEntity
8
1
62
256
6
ByLayer
370
18
48
1
60
0
100
AcDbSpline
70
4
71
3
72
26
73
22
40
0
40
0
40
0
40
0
40
0.124999999999992
40
0.124999999999992
40
0.249999999999985
40
0.249999999999985
40
0.312499999999982
40
0.312499999999982
40
0.37499999999998
40
0.37499999999998
40
0.499999999999981
40
0.499999999999981
40
0.624999999999981
40
0.624999999999981
40
0.687499999999984
40
0.687499999999984
40
0.749999999999987
40
0.749999999999987
40
0.874999999999993
40
0.874999999999993
40
1
40
1
40
1
40
1
41
1
10
21.4383186059721
20
-20.5256956333767
30
0
41
1
10
21.4292208494652
20
-20.4956769817464
30
0
41
1
10
21.4189675547236
20
-20.467542760792
30
0
41
1
10
21.3966837188804
20
-20.4146855888546
30
0
41
1
10
21.3846504497372
20
-20.3899642480968
30
0
41
1
10
21.3656227022779
20
-20.3553122433401
30
0
41
1
10
21.3591019501017
20
-20.344144015859
30
0
41
1
10
21.3458702296443
20
-20.3227329306734
30
0
41
1
10
21.3391725336526
20
-20.3125079362788
30
0
41
1
10
21.3189371670791
20
-20.2832168042524
30
0
41
1
10
21.3052550326586
20
-20.2655283557773
30
0
41
1
10
21.2780830566766
20
-20.2336801197685
30
0
41
1
10
21.2645902830749
20
-20.2195198311205
30
0
41
1
10
21.2450014170567
20
-20.2009673945125
30
0
41
1
10
21.2385800225237
20
-20.1952342460637
30
0
41
1
10
21.2262019761704
20
-20.1848075699971
30
0
41
1
10
21.2202260448297
20
-20.1800950663712
30
0
41
1
10
21.2030811683837
20
-20.1674564106304
30
0
41
1
10
21.1926910326366
20
-20.1610211516405
30
0
41
1
10
21.1748457719776
20
-20.1522942288503
30
0
41
1
10
21.1673904791431
20
-20.15
30
0
41
1
10
21.1618966327773
20
-20.15
30
0
0
SPLINE
5
122
100
AcDbEntity
8
1
62
256
6
ByLayer
370
18
48
1
60
0
100
AcDbSpline
70
4
71
3
72
32
73
28
40
0
40
0
40
0
40
0
40
0.0975432056731579
40
0.0975432056731579
40
0.100591430850444
40
0.100591430850444
40
0.103639656027729
40
0.109736106382301
40
0.121929007091444
40
0.146314808509731
40
0.195086411346305
40
0.195086411346305
40
0.390172822692601
40
0.390172822692601
40
0.487716028365749
40
0.487716028365749
40
0.585259234038897
40
0.585259234038897
40
0.682802439712045
40
0.682802439712045
40
0.780345645385193
40
0.780345645385193
40
0.877888851058341
40
0.877888851058341
40
0.975432056731488
40
0.975432056731488
40
1
40
1
40
1
40
1
41
1
10
21.4383186059722
20
-20.15
30
0
41
1
10
21.4254487119374
20
-20.15
30
0
41
1
10
21.409989855534
20
-20.15
30
0
41
1
10
21.3919470420963
20
-20.15
30
0
41
1
10
21.3914097084251
20
-20.15
30
0
41
1
10
21.390322733563
20
-20.15
30
0
41
1
10
21.3886865267292
20
-20.15
30
0
41
1
10
21.3848288242608
20
-20.15
30
0
41
1
10
21.3769564650118
20
-20.15
30
0
41
1
10
21.3606045315588
20
-20.15
30
0
41
1
10
21.3456174736023
20
-20.15
30
0
41
1
10
21.2938071639227
20
-20.15
30
0
41
1
10
21.2463916824526
20
-20.15
30
0
41
1
10
21.172352392228
20
-20.15
30
0
41
1
10
21.1471927484463
20
-20.15
30
0
41
1
10
21.09711509364
20
-20.15
30
0
41
1
10
21.0721917021965
20
-20.15
30
0
41
1
10
21.0240579281405
20
-20.15
30
0
41
1
10
21.0008458625466
20
-20.15
30
0
41
1
10
20.9579281962498
20
-20.15
30
0
41
1
10
20.9382286984798
20
-20.15
30
0
41
1
10
20.9044055326008
20
-20.15
30
0
41
1
10
20.8903011964134
20
-20.15
30
0
41
1
10
20.8696501672513
20
-20.15
30
0
41
1
10
20.8631303474313
20
-20.15
30
0
41
1
10
20.8604229613545
20
-20.15
30
0
41
1
10
20.8601552339726
20
-20.15
30
0
41
1
10
20.8601618449316
20
-20.15
30
0
0
SPLINE
5
123
100
AcDbEntity
8
1
62
256
6
ByLayer
370
18
48
1
60
0
100
AcDbSpline
70
4
71
3
72
31
73
27
40
0
40
0
40
0
40
0
40
0.0624999999999992
40
0.0624999999999992
40
0.124999999999998
40
0.124999999999998
40
0.249999999999998
40
0.249999999999998
40
0.374999999999998
40
0.374999999999998
40
0.499999999999998
40
0.499999999999998
40
0.531249999999997
40
0.531249999999997
40
0.562499999999996
40
0.562499999999996
40
0.624999999999996
40
0.624999999999996
40
0.749999999999997
40
0.749999999999997
40
0.812499999999998
40
0.843749999999999
40
0.843749999999999
40
0.875000000000001
40
0.875000000000001
40
1
40
1
40
1
40
1
41
1
10
20.9016434511128
20
16.4810545625523
30
0
41
1
10
20.9356692466416
20
16.4390821696436
30
0
41
1
10
20.9708534598023
20
16.3974179324202
30
0
41
1
10
21.0436656034312
20
16.3147547336235
30
0
41
1
10
21.0813345738127
20
16.2737200370694
30
0
41
1
10
21.1972333322718
20
16.1526982807114
30
0
41
1
10
21.27862071104
20
16.0744641034634
30
0
41
1
10
21.4501814985168
20
15.9232910822631
30
0
41
1
10
21.5403518476063
20
15.8503499758718
30
0
41
1
10
21.7303017159843
20
15.7103180691362
30
0
41
1
10
21.8300756858749
20
15.6432236034415
30
0
41
1
10
21.9615679501552
20
15.5635101483185
30
0
41
1
10
21.9882064079953
20
15.547775955376
30
0
41
1
10
22.0421883326652
20
15.5167405469942
30
0
41
1
10
22.0695399361339
20
15.5014363740095
30
0
41
1
10
22.1522083564856
20
15.4564551561378
30
0
41
1
10
22.2082896414076
20
15.4276198769615
30
0
41
1
10
22.379532015027
20
15.3446863950221
30
0
41
1
10
22.4976809082438
20
15.2941478018727
30
0
41
1
10
22.6814194519684
20
15.2261272079398
30
0
41
1
10
22.77492124079
20
15.1940681415836
30
0
41
1
10
22.8710127647373
20
15.1651086661553
30
0
41
1
10
22.9356684371525
20
15.1465145357755
30
0
41
1
10
22.9683534621381
20
15.1375586391839
30
0
41
1
10
23.1322309041313
20
15.094895595905
30
0
41
1
10
23.2651762129549
20
15.0673781612656
30
0
41
1
10
23.4
20
15.0466133325289
30
0
0
SPLINE
5
124
100
AcDbEntity
8
1
62
256
6
ByLayer
370
18
48
1
60
0
100
AcDbSpline
70
4
71
3
72
18
73
14
40
0
40
0
40
0
40
0
40
0.125
40
0.125
40
0.1875
40
0.1875
40
0.25
40
0.25
40
0.5
40
0.5
40
0.750000000000001
40
0.750000000000001
40
1
40
1
40
1
40
1
41
1
10
20.901643451111
20
16.481054562552
30
0
41
1
10
20.8710544198989
20
16.4307459427406
30
0
41
1
10
20.8404870190925
20
16.3813642806016
30
0
41
1
10
20.7949949542972
20
16.308420155669
30
0
41
1
10
20.7798981290862
20
16.2843059576776
30
0
41
1
10
20.7499781035131
20
16.236576508205
30
0
41
1
10
20.7351417072294
20
16.2129400911197
30
0
41
1
10
20.6616782393579
20
16.0957669069187
30
0
41
1
10
20.6052365856802
20
16.0052402180489
30
0
41
1
10
20.4990764998977
20
15.8275037056461
30
0
41
1
10
20.4493535730297
20
15.7402953477308
30
0
41
1
10
20.3580069316037
20
15.5664775021541
30
0
41
1
10
20.3163800506086
20
15.4798664448923
30
0
41
1
10
20.2792076144253
20
15.3923889233801
30
0
0
SPLINE
5
125
100
AcDbEntity
8
1
62
256
6
ByLayer
370
18
48
1
60
0
100
AcDbSpline
70
4
71
3
72
28
73
24
40
0
40
0
40
0
40
0
40
0.0624999999999991
40
0.0624999999999991
40
0.124999999999998
40
0.124999999999998
40
0.249999999999996
40
0.249999999999996
40
0.312499999999995
40
0.312499999999995
40
0.343749999999996
40
0.343749999999996
40
0.374999999999997
40
0.374999999999997
40
0.499999999999997
40
0.499999999999997
40
0.624999999999998
40
0.624999999999998
40
0.749999999999998
40
0.749999999999998
40
0.874999999999998
40
0.874999999999998
40
1
40
1
40
1
40
1
41
1
10
21.4383186059739
20
-17.7139778294043
30
0
41
1
10
21.4251740884689
20
-17.6490380801224
30
0
41
1
10
21.4093636185785
20
-17.5852825537825
30
0
41
1
10
21.3733817150058
20
-17.4598077548642
30
0
41
1
10
21.3533853450768
20
-17.3987062239629
30
0
41
1
10
21.2888129038011
20
-17.2198102574768
30
0
41
1
10
21.239654689933
20
-17.1062582008698
30
0
41
1
10
21.1605815345636
20
-16.942432337331
30
0
41
1
10
21.133320201828
20
-16.8889180944357
30
0
41
1
10
21.0914649821442
20
-16.8100903863787
30
0
41
1
10
21.0773399027711
20
-16.7840342561219
30
0
41
1
10
21.0490106894068
20
-16.7326956300557
30
0
41
1
10
21.0347856486387
20
-16.7073727994645
30
0
41
1
10
20.9634987057906
20
-16.5823520261176
30
0
41
1
10
20.9059876265464
20
-16.4874075949327
30
0
41
1
10
20.792949982429
20
-16.3046197771667
30
0
41
1
10
20.7374144264428
20
-16.2167870028439
30
0
41
1
10
20.6305158903876
20
-16.0456630309135
30
0
41
1
10
20.5791491514709
20
-15.962374995424
30
0
41
1
10
20.4822266240623
20
-15.7980346781437
30
0
41
1
10
20.4366689768665
20
-15.7169821714612
30
0
41
1
10
20.3525269878651
20
-15.5550292864246
30
0
41
1
10
20.3139411607664
20
-15.4741270298702
30
0
41
1
10
20.2792076144253
20
-15.3923889233801
30
0
0
SPLINE
5
126
100
AcDbEntity
8
1
62
256
6
ByLayer
370
18
48
1
60
0
100
AcDbSpline
70
4
71
3
72
8
73
4
40
0
40
0
40
0
40
0
40
1
40
1
40
1
40
1
41
1
10
21.9535094518299
20
-20.15
30
0
41
1
10
21.7749318933156
20
-19.3370973701274
30
0
41
1
10
21.6025197197716
20
-18.5252041949129
30
0
41
1
10
21.4383186059721
20
-17.7139778294051
30
0
0
SPLINE
5
127
100
AcDbEntity
8
1
62
256
6
ByLayer
370
18
48
1
60
0
100
AcDbSpline
70
4
71
3
72
12
73
8
40
0
40
0
40
0
40
0
40
0.500000000000001
40
0.500000000000001
40
0.750000000000001
40
0.750000000000001
40
1
40
1
40
1
40
1
41
1
10
20.0517931412518
20
-14.2187599587822
30
0
41
1
10
20.0536312300547
20
-14.4271078000371
30
0
41
1
10
20.0720302056982
20
-14.629056168313
30
0
41
1
10
20.1275045829328
20
-14.9224648927294
30
0
41
1
10
20.1506604277937
20
-15.0186804781582
30
0
41
1
10
20.2070878566688
20
-15.2079285880827
30
0
41
1
10
20.2403566151262
20
-15.3009612561112
30
0
41
1
10
20.2792076144253
20
-15.3923889233801
30
0
0
SPLINE
5
128
100
AcDbEntity
8
1
62
256
6
ByLayer
370
18
48
1
60
0
100
AcDbSpline
70
4
71
3
72
12
73
8
40
0
40
0
40
0
40
0
40
0.249999999999999
40
0.249999999999999
40
0.499999999999999
40
0.499999999999999
40
1
40
1
40
1
40
1
41
1
10
20.2792076144253
20
15.3923889233801
30
0
41
1
10
20.2403566151262
20
15.3009612561112
30
0
41
1
10
20.2070878566688
20
15.2079285880827
30
0
41
1
10
20.1506604277937
20
15.0186804781582
30
0
41
1
10
20.1275045829329
20
14.9224648927294
30
0
41
1
10
20.0720302056982
20
14.629056168313
30
0
41
1
10
20.0536312300547
20
14.4271078000371
30
0
41
1
10
20.0517931412518
20
14.2187599587822
30
0
0
SPLINE
5
129
100
AcDbEntity
8
1
62
256
6
ByLayer
370
18
48
1
60
0
100
AcDbSpline
70
4
71
3
72
14
73
10
40
0
40
0
40
0
40
0
40
0.25
40
0.25
40
0.499999999999999
40
0.499999999999999
40
0.75
40
0.75
40
1
40
1
40
1
40
1
41
1
10
20.009031489077
20
18.9650938580065
30
0
41
1
10
20.0098538092763
20
18.8708652963928
30
0
41
1
10
20.0140412700175
20
18.7706425008102
30
0
41
1
10
20.0318979812089
20
18.558462533891
30
0
41
1
10
20.0455598863306
20
18.4465047827357
30
0
41
1
10
20.0856313692891
20
18.2110872069956
30
0
41
1
10
20.1120276170517
20
18.0876264793781
30
0
41
1
10
20.1816534449692
20
17.8294357266309
30
0
41
1
10
20.224857325194
20
17.6947040704241
30
0
41
1
10
20.2792076144253
20
17.5544724136169
30
0
0
SPLINE
5
12A
100
AcDbEntity
8
1
62
256
6
ByLayer
370
18
48
1
60
0
100
AcDbSpline
70
4
71
3
72
25
73
21
40
0
40
0
40
0
40
0
40
0.249999999999986
40
0.249999999999986
40
0.374999999999983
40
0.374999999999983
40
0.499999999999979
40
0.499999999999979
40
0.562499999999983
40
0.562499999999983
40
0.624999999999986
40
0.68749999999999
40
0.68749999999999
40
0.749999999999993
40
0.749999999999993
40
0.874999999999991
40
0.874999999999991
40
0.937499999999996
40
0.937499999999996
40
1
40
1
40
1
40
1
41
1
10
9.33660254037861
20
-19.0245744101322
30
0
41
1
10
9.32720842156829
20
-19.0356185274184
30
0
41
1
10
9.31588453947575
20
-19.0464153092313
30
0
41
1
10
9.29525647265243
20
-19.0619278372253
30
0
41
1
10
9.28776218432895
20
-19.0669920754349
30
0
41
1
10
9.27124506170023
20
-19.0768715139989
30
0
41
1
10
9.26222766550282
20
-19.0816874304591
30
0
41
1
10
9.24718147390908
20
-19.0886774015103
30
0
41
1
10
9.24190585527097
20
-19.0909686533589
30
0
41
1
10
9.23090181997068
20
-19.095399659777
30
0
41
1
10
9.21941536169066
20
-19.0996940974827
30
0
41
1
10
9.20680755935996
20
-19.1036766400565
30
0
41
1
10
9.19352784170755
20
-19.1074753109817
30
0
41
1
10
9.1865295196101
20
-19.109288210346
30
0
41
1
10
9.16442417341895
20
-19.1143521510704
30
0
41
1
10
9.14859952398743
20
-19.1171586755843
30
0
41
1
10
9.12253667740623
20
-19.1201714845572
30
0
41
1
10
9.11355518087368
20
-19.1209563802606
30
0
41
1
10
9.09541273714802
20
-19.1220079254874
30
0
41
1
10
9.08618793610023
20
-19.1222825906925
30
0
41
1
10
9.07679491924327
20
-19.1222825906925
30
0
0
SPLINE
5
12B
100
AcDbEntity
8
1
62
256
6
ByLayer
370
18
48
1
60
0
100
AcDbSpline
70
4
71
3
72
26
73
22
40
0
40
0
40
0
40
0
40
0.0624999999999999
40
0.0624999999999999
40
0.125
40
0.125
40
0.1875
40
0.1875
40
0.25
40
0.25
40
0.3125
40
0.3125
40
0.375
40
0.375
40
0.500000000000001
40
0.500000000000001
40
0.625000000000002
40
0.625000000000002
40
0.750000000000004
40
0.750000000000004
40
1
40
1
40
1
40
1
41
1
10
6.92320508075687
20
-19.1222825906926
30
0
41
1
10
6.91382447246664
20
-19.1222825906926
30
0
41
1
10
6.90445612562743
20
-19.1220042459418
30
0
41
1
10
6.88616578647202
20
-19.1209361972228
30
0
41
1
10
6.877306029935
20
-19.1201548450203
30
0
41
1
10
6.86008230329932
20
-19.1181607182976
30
0
41
1
10
6.85165205969534
20
-19.1169347436763
30
0
41
1
10
6.83564492760419
20
-19.1141675067423
30
0
41
1
10
6.82805305136273
20
-19.1126296584783
30
0
41
1
10
6.81353466302775
20
-19.1093020671091
30
0
41
1
10
6.80660916084835
20
-19.1075119510364
30
0
41
1
10
6.79332109685251
20
-19.1037159413756
30
0
41
1
10
6.78693692536262
20
-19.1017017213015
30
0
41
1
10
6.76873667859329
20
-19.0954500347066
30
0
41
1
10
6.75782269201741
20
-19.0910025433169
30
0
41
1
10
6.73776606630176
20
-19.0816841489935
30
0
41
1
10
6.72865815863287
20
-19.07681905156
30
0
41
1
10
6.712104492701
20
-19.0669068299453
30
0
41
1
10
6.70461359775268
20
-19.061836585657
30
0
41
1
10
6.68402554771032
20
-19.0463346141653
30
0
41
1
10
6.67278813956517
20
-19.0356144845435
30
0
41
1
10
6.66339745962154
20
-19.0245744101322
30
0
0
SPLINE
5
12C
100
AcDbEntity
8
1
62
256
6
ByLayer
370
18
48
1
60
0
100
AcDbSpline
70
4
71
3
72
25
73
21
40
0
40
0
40
0
40
0
40
0.249999999999997
40
0.249999999999997
40
0.374999999999989
40
0.374999999999989
40
0.499999999999981
40
0.499999999999981
40
0.562499999999982
40
0.562499999999982
40
0.624999999999983
40
0.687499999999984
40
0.687499999999984
40
0.749999999999985
40
0.749999999999985
40
0.874999999999995
40
0.874999999999995
40
0.937499999999998
40
0.937499999999998
40
1
40
1
40
1
40
1
41
1
10
6.66339745962154
20
-6.16973001948571
30
0
41
1
10
6.67279157843183
20
-6.13567510453117
30
0
41
1
10
6.68411546052437
20
-6.10206728171741
30
0
41
1
10
6.70474352734769
20
-6.05336249030208
30
0
41
1
10
6.71223781567116
20
-6.03739036016586
30
0
41
1
10
6.72875493829989
20
-6.00610043240181
30
0
41
1
10
6.73777233449729
20
-5.99078025293949
30
0
41
1
10
6.75281852609103
20
-5.96845506553063
30
0
41
1
10
6.75809414472914
20
-5.96112164449841
30
0
41
1
10
6.76909818002943
20
-5.9469124104387
30
0
41
1
10
6.78058463830945
20
-5.93311315635253
30
0
41
1
10
6.79319244064015
20
-5.9202685823868
30
0
41
1
10
6.80647215829256
20
-5.90799699523123
30
0
41
1
10
6.81347048039001
20
-5.90212985895329
30
0
41
1
10
6.83557582658116
20
-5.88571770958595
30
0
41
1
10
6.85140047601269
20
-5.87658838136372
30
0
41
1
10
6.87746332259391
20
-5.86677544388641
30
0
41
1
10
6.88644481912644
20
-5.8642160875483
30
0
41
1
10
6.90458726285212
20
-5.8607863051715
30
0
41
1
10
6.91381206389988
20
-5.85988980456938
30
0
41
1
10
6.92320508075687
20
-5.85988980456938
30
0
0
SPLINE
5
12D
100
AcDbEntity
8
1
62
256
6
ByLayer
370
18
48
1
60
0
100
AcDbSpline
70
4
71
3
72
26
73
22
40
0
40
0
40
0
40
0
40
0.0624999999999997
40
0.0624999999999997
40
0.124999999999999
40
0.124999999999999
40
0.187499999999999
40
0.187499999999999
40
0.249999999999999
40
0.249999999999999
40
0.312499999999998
40
0.312499999999998
40
0.374999999999998
40
0.374999999999998
40
0.499999999999998
40
0.499999999999998
40
0.624999999999999
40
0.624999999999999
40
0.749999999999999
40
0.749999999999999
40
1
40
1
40
1
40
1
41
1
10
9.07679491924327
20
-5.85988980456941
30
0
41
1
10
9.0861755275335
20
-5.85988980456941
30
0
41
1
10
9.09554387437268
20
-5.86079831910379
30
0
41
1
10
9.11383421352809
20
-5.86428190495297
30
0
41
1
10
9.12269397006511
20
-5.86682965857773
30
0
41
1
10
9.13991769670079
20
-5.8733246368358
30
0
41
1
10
9.1483479403048
20
-5.87731470491121
30
0
41
1
10
9.16435507239592
20
-5.88630806692444
30
0
41
1
10
9.17194694863738
20
-5.89130031342685
30
0
41
1
10
9.18646533697236
20
-5.90208491578252
30
0
41
1
10
9.19339083915176
20
-5.90787848896434
30
0
41
1
10
9.2066789031476
20
-5.92014175764382
30
0
41
1
10
9.21306307463749
20
-5.92663822853584
30
0
41
1
10
9.23126332140683
20
-5.94676259304853
30
0
41
1
10
9.24217730798267
20
-5.96102885758611
30
0
41
1
10
9.26223393369835
20
-5.99079069805944
30
0
41
1
10
9.27134184136725
20
-6.00626721095978
30
0
41
1
10
9.28789550729911
20
-6.0376597182682
30
0
41
1
10
9.29538640224743
20
-6.05364979751815
30
0
41
1
10
9.31597445228977
20
-6.10231901184949
30
0
41
1
10
9.32721186043494
20
-6.13568757087467
30
0
41
1
10
9.33660254037858
20
-6.16973001948574
30
0
0
SPLINE
5
12E
100
AcDbEntity
8
1
62
256
6
ByLayer
370
18
48
1
60
0
100
AcDbSpline
70
4
71
3
72
25
73
21
40
0
40
0
40
0
40
0
40
0.250000000000006
40
0.250000000000006
40
0.375000000000002
40
0.375000000000002
40
0.499999999999997
40
0.499999999999997
40
0.562499999999998
40
0.562499999999998
40
0.624999999999999
40
0.6875
40
0.6875
40
0.750000000000001
40
0.750000000000001
40
0.874999999999999
40
0.874999999999999
40
0.9375
40
0.9375
40
1
40
1
40
1
40
1
41
1
10
6.66339745962154
20
19.0245744101322
30
0
41
1
10
6.67279157843183
20
19.0356185274184
30
0
41
1
10
6.68411546052437
20
19.0464153092313
30
0
41
1
10
6.70474352734769
20
19.0619278372253
30
0
41
1
10
6.71223781567116
20
19.0669920754349
30
0
41
1
10
6.72875493829989
20
19.0768715139989
30
0
41
1
10
6.73777233449729
20
19.0816874304591
30
0
41
1
10
6.75281852609103
20
19.0886774015103
30
0
41
1
10
6.75809414472914
20
19.0909686533589
30
0
41
1
10
6.76909818002946
20
19.095399659777
30
0
41
1
10
6.78058463830945
20
19.0996940974827
30
0
41
1
10
6.79319244064015
20
19.1036766400565
30
0
41
1
10
6.80647215829256
20
19.1074753109818
30
0
41
1
10
6.81347048039001
20
19.109288210346
30
0
41
1
10
6.83557582658119
20
19.1143521510704
30
0
41
1
10
6.85140047601269
20
19.1171586755844
30
0
41
1
10
6.87746332259388
20
19.1201714845572
30
0
41
1
10
6.88644481912644
20
19.1209563802606
30
0
41
1
10
6.90458726285212
20
19.1220079254874
30
0
41
1
10
6.91381206389988
20
19.1222825906925
30
0
41
1
10
6.92320508075687
20
19.1222825906925
30
0
0
SPLINE
5
12F
100
AcDbEntity
8
1
62
256
6
ByLayer
370
18
48
1
60
0
100
AcDbSpline
70
4
71
3
72
26
73
22
40
0
40
0
40
0
40
0
40
0.0624999999999977
40
0.0624999999999977
40
0.124999999999995
40
0.124999999999995
40
0.187499999999993
40
0.187499999999993
40
0.249999999999991
40
0.249999999999991
40
0.312499999999989
40
0.312499999999989
40
0.374999999999986
40
0.374999999999986
40
0.499999999999987
40
0.499999999999987
40
0.624999999999987
40
0.624999999999987
40
0.749999999999988
40
0.749999999999988
40
1
40
1
40
1
40
1
41
1
10
9.07679491924327
20
19.1222825906926
30
0
41
1
10
9.0861755275335
20
19.1222825906926
30
0
41
1
10
9.09554387437268
20
19.1220042459417
30
0
41
1
10
9.11383421352812
20
19.1209361972228
30
0
41
1
10
9.12269397006514
20
19.1201548450203
30
0
41
1
10
9.13991769670082
20
19.1181607182976
30
0
41
1
10
9.14834794030483
20
19.1169347436763
30
0
41
1
10
9.16435507239595
20
19.1141675067423
30
0
41
1
10
9.17194694863741
20
19.1126296584783
30
0
41
1
10
9.18646533697239
20
19.1093020671091
30
0
41
1
10
9.19339083915179
20
19.1075119510364
30
0
41
1
10
9.20667890314763
20
19.1037159413756
30
0
41
1
10
9.21306307463752
20
19.1017017213015
30
0
41
1
10
9.23126332140686
20
19.0954500347066
30
0
41
1
10
9.24217730798273
20
19.0910025433169
30
0
41
1
10
9.26223393369838
20
19.0816841489935
30
0
41
1
10
9.27134184136727
20
19.07681905156
30
0
41
1
10
9.28789550729917
20
19.0669068299453
30
0
41
1
10
9.29538640224746
20
19.061836585657
30
0
41
1
10
9.31597445228982
20
19.0463346141653
30
0
41
1
10
9.32721186043506
20
19.0356144845434
30
0
41
1
10
9.33660254037869
20
19.0245744101321
30
0
0
SPLINE
5
130
100
AcDbEntity
8
1
62
256
6
ByLayer
370
18
48
1
60
0
100
AcDbSpline
70
4
71
3
72
25
73
21
40
0
40
0
40
0
40
0
40
0.249999999999976
40
0.249999999999976
40
0.374999999999968
40
0.374999999999968
40
0.499999999999958
40
0.499999999999958
40
0.562499999999959
40
0.562499999999959
40
0.62499999999996
40
0.687499999999961
40
0.687499999999961
40
0.749999999999962
40
0.749999999999962
40
0.874999999999977
40
0.874999999999977
40
0.937499999999988
40
0.937499999999988
40
1
40
1
40
1
40
1
41
1
10
9.33660254037869
20
6.16973001948611
30
0
41
1
10
9.32720842156843
20
6.13567510453157
30
0
41
1
10
9.31588453947577
20
6.10206728171747
30
0
41
1
10
9.29525647265245
20
6.05336249030211
30
0
41
1
10
9.28776218432898
20
6.03739036016592
30
0
41
1
10
9.27124506170026
20
6.00610043240187
30
0
41
1
10
9.26222766550285
20
5.99078025293954
30
0
41
1
10
9.24718147390911
20
5.96845506553066
30
0
41
1
10
9.241905855271
20
5.96112164449843
30
0
41
1
10
9.23090181997071
20
5.94691241043876
30
0
41
1
10
9.2194147994463
20
5.93311363814723
30
0
41
1
10
9.20680755935999
20
5.92026858238683
30
0
41
1
10
9.19352784170758
20
5.90799699523126
30
0
41
1
10
9.1865295196101
20
5.90212985895334
30
0
41
1
10
9.16442417341895
20
5.88571770958598
30
0
41
1
10
9.14859952398746
20
5.87658838136372
30
0
41
1
10
9.12253667740623
20
5.86677544388644
30
0
41
1
10
9.1135551808737
20
5.8642160875483
30
0
41
1
10
9.09541273714802
20
5.86078630517153
30
0
41
1
10
9.08618793610023
20
5.85988980456943
30
0
41
1
10
9.07679491924327
20
5.85988980456941
30
0
0
SPLINE
5
131
100
AcDbEntity
8
1
62
256
6
ByLayer
370
18
48
1
60
0
100
AcDbSpline
70
4
71
3
72
26
73
22
40
0
40
0
40
0
40
0
40
0.0624999999999992
40
0.0624999999999992
40
0.124999999999998
40
0.124999999999998
40
0.187499999999998
40
0.187499999999998
40
0.249999999999997
40
0.249999999999997
40
0.312499999999996
40
0.312499999999996
40
0.374999999999995
40
0.374999999999995
40
0.499999999999995
40
0.499999999999995
40
0.624999999999994
40
0.624999999999994
40
0.749999999999994
40
0.749999999999994
40
1
40
1
40
1
40
1
41
1
10
6.92320508075687
20
5.85988980456935
30
0
41
1
10
6.91382447246664
20
5.85988980456935
30
0
41
1
10
6.90445612562743
20
5.86079831910374
30
0
41
1
10
6.88616578647202
20
5.86428190495292
30
0
41
1
10
6.87730602993503
20
5.86682965857767
30
0
41
1
10
6.86008230329932
20
5.87332463683575
30
0
41
1
10
6.85165205969534
20
5.87731470491119
30
0
41
1
10
6.83564492760419
20
5.88630806692441
30
0
41
1
10
6.82805305136273
20
5.8913003134268
30
0
41
1
10
6.81353466302775
20
5.90208491578247
30
0
41
1
10
6.80660916084838
20
5.90787848896431
30
0
41
1
10
6.79332109685251
20
5.92014175764379
30
0
41
1
10
6.78693692536262
20
5.92663822853581
30
0
41
1
10
6.76873667859329
20
5.9467625930485
30
0
41
1
10
6.75782269201744
20
5.96102885758609
30
0
41
1
10
6.73776606630176
20
5.99079069805941
30
0
41
1
10
6.72865815863287
20
6.00626721095975
30
0
41
1
10
6.712104492701
20
6.03765971826817
30
0
41
1
10
6.70461359775271
20
6.05364979751812
30
0
41
1
10
6.68402554771035
20
6.10231901184949
30
0
41
1
10
6.67278813956517
20
6.13568757087467
30
0
41
1
10
6.66339745962154
20
6.16973001948571
30
0
0
SPLINE
5
132
100
AcDbEntity
8
SK1
62
256
6
ByLayer
370
13
48
1
60
0
100
AcDbSpline
70
4
71
3
72
18
73
14
40
0
40
0
40
0
40
0
40
0.0047272517206294
40
0.0849380751976194
40
0.165148898674609
40
0.325570545628589
40
0.405781369105579
40
0.485992192582569
40
0.646413839536549
40
0.806835486490529
40
0.887046309967519
40
0.967257133444509
40
1
40
1
40
1
40
1
41
1
10
-0.394913799811292
20
-5.00116108217654
30
0
41
1
10
-0.394913799811292
20
-5.02384266526144
30
0
41
1
10
-0.394913799811292
20
-5.43069780454795
30
0
41
1
10
-0.394913799811292
20
-6.19788950405021
30
0
41
1
10
-0.394913799811292
20
-7.59985122616763
30
0
41
1
10
-0.394913799811292
20
-8.86359092653058
30
0
41
1
10
-0.394913799811292
20
-9.98771978618731
30
0
41
1
10
-0.394913799811292
20
-11.015314225612
30
0
41
1
10
-0.394913799811292
20
-12.1118907902116
30
0
41
1
10
-0.394913799811292
20
-12.9393754432253
30
0
41
1
10
-0.394913799811292
20
-13.4200270263956
30
0
41
1
10
-0.394913799811306
20
-13.6305385249142
30
0
41
1
10
-0.394913799811306
20
-13.7181012197611
30
0
41
1
10
-0.394913799811306
20
-13.7403540821443
30
0
0
SPLINE
5
133
100
AcDbEntity
8
SK1
62
256
6
ByLayer
370
18
48
1
60
0
100
AcDbSpline
70
4
71
3
72
9
73
5
40
0
40
0
40
0
40
0
40
0.601387697304246
40
1
40
1
40
1
40
1
41
1
10
-0.394913799811278
20
-13.7403545290091
30
0
41
1
10
-0.394913799811292
20
-13.7726147175034
30
0
41
1
10
-0.394913799811292
20
-13.8153202987696
30
0
41
1
10
-0.394913799811292
20
-13.8386282511807
30
0
41
1
10
-0.394913799811292
20
-13.8446595289407
30
0
0
SPLINE
5
134
100
AcDbEntity
8
SK1
62
256
6
ByLayer
370
18
48
1
60
0
100
AcDbSpline
70
4
71
3
72
9
73
5
40
0
40
0
40
0
40
0
40
0.398611407755369
40
1
40
1
40
1
40
1
41
1
10
-0.394913799811292
20
13.8446596982822
30
0
41
1
10
-0.394913799811292
20
13.8386284705405
30
0
41
1
10
-0.394913799811306
20
13.8153206302248
30
0
41
1
10
-0.394913799811306
20
13.7726150014335
30
0
41
1
10
-0.394913799811306
20
13.7403546982823
30
0
0
SPLINE
5
135
100
AcDbEntity
8
SK1
62
256
6
ByLayer
370
13
48
1
60
0
100
AcDbSpline
70
4
71
3
72
18
73
14
40
0
40
0
40
0
40
0
40
0.0327429338818551
40
0.112953748809463
40
0.193164563737071
40
0.353586193592287
40
0.514007823447503
40
0.594218638375111
40
0.674429453302719
40
0.834851083157935
40
0.915061898085543
40
0.995272713013151
40
1
40
1
40
1
40
1
41
1
10
-0.394913799811306
20
13.7403545625554
30
0
41
1
10
-0.394913799811306
20
13.7181016404688
30
0
41
1
10
-0.394913799811292
20
13.6305387837842
30
0
41
1
10
-0.394913799811292
20
13.4200269261686
30
0
41
1
10
-0.394913799811292
20
12.9393760577865
30
0
41
1
10
-0.394913799811292
20
12.1118904563386
30
0
41
1
10
-0.394913799811292
20
11.0153145242408
30
0
41
1
10
-0.394913799811292
20
9.98771966705354
30
0
41
1
10
-0.394913799811292
20
8.86359091499725
30
0
41
1
10
-0.394913799811292
20
7.59985108367658
30
0
41
1
10
-0.394913799811292
20
6.19788936064779
30
0
41
1
10
-0.394913799811292
20
5.43069766104711
30
0
41
1
10
-0.394913799811292
20
5.02384231959817
30
0
41
1
10
-0.394913799811292
20
5.00116056257954
30
0
0
SPLINE
5
136
100
AcDbEntity
8
SK1
62
256
6
ByLayer
370
18
48
1
60
0
100
AcDbSpline
70
4
71
3
72
38
73
34
40
0
40
0
40
0
40
0
40
0.0156249999999996
40
0.0156249999999996
40
0.0312499999999992
40
0.0312499999999992
40
0.0468749999999988
40
0.0468749999999988
40
0.0624999999999983
40
0.0624999999999983
40
0.078124999999998
40
0.078124999999998
40
0.0937499999999976
40
0.0937499999999976
40
0.124999999999999
40
0.124999999999999
40
0.156249999999999
40
0.156249999999999
40
0.1875
40
0.1875
40
0.25
40
0.25
40
0.312499999999999
40
0.312499999999999
40
0.374999999999998
40
0.374999999999998
40
0.499999999999998
40
0.499999999999998
40
0.624999999999998
40
0.624999999999998
40
0.749999999999998
40
0.749999999999998
40
1
40
1
40
1
40
1
41
1
10
-0.394913799807412
20
5.0011605625827
30
0
41
1
10
-0.391748910596064
20
4.99861131394746
30
0
41
1
10
-0.388451589186346
20
4.99624657017242
30
0
41
1
10
-0.381503554974344
20
4.99201030025074
30
0
41
1
10
-0.377826935749411
20
4.99013013351933
30
0
41
1
10
-0.370199866879304
20
4.9871503845547
30
0
41
1
10
-0.3662371079634
20
4.9860363417142
30
0
41
1
10
-0.357908257096042
20
4.98482371680851
30
0
41
1
10
-0.353680105344097
20
4.98475614855749
30
0
41
1
10
-0.345215229647565
20
4.98581465317102
30
0
41
1
10
-0.340970311890757
20
4.98696063906132
30
0
41
1
10
-0.332955447380499
20
4.99024185405489
30
0
41
1
10
-0.329074985885242
20
4.99241446107197
30
0
41
1
10
-0.318315705389409
20
4.99984728402768
30
0
41
1
10
-0.312085221061153
20
5.00607580183632
30
0
41
1
10
-0.301009391388092
20
5.0195415451586
30
0
41
1
10
-0.296146757253467
20
5.02681840776788
30
0
41
1
10
-0.287438460226014
20
5.04163217306021
30
0
41
1
10
-0.283588617018012
20
5.04917503165311
30
0
41
1
10
-0.272989810767697
20
5.0720552884666
30
0
41
1
10
-0.267174521639589
20
5.08763962812168
30
0
41
1
10
-0.256872941279781
20
5.11914471875505
30
0
41
1
10
-0.252415474864932
20
5.13507348952746
30
0
41
1
10
-0.244408671816387
20
5.1671511226622
30
0
41
1
10
-0.240869472301739
20
5.1832943458636
30
0
41
1
10
-0.231309806286348
20
5.2316498923106
30
0
41
1
10
-0.226295439932073
20
5.26391096451732
30
0
41
1
10
-0.217912063161606
20
5.32841102024764
30
0
41
1
10
-0.214571990692121
20
5.3605854115099
30
0
41
1
10
-0.20908613471444
20
5.42467998239266
30
0
41
1
10
-0.206944102194669
20
5.45662122321775
30
0
41
1
10
-0.201889292857544
20
5.55215860517754
30
0
41
1
10
-0.200325582586331
20
5.61546983787082
30
0
41
1
10
-0.199999999999349
20
5.67845150386444
30
0
0
SPLINE
5
137
100
AcDbEntity
8
SK1
62
256
6
ByLayer
370
18
48
1
60
0
100
AcDbSpline
70
4
71
3
72
51
73
47
40
0
40
0
40
0
40
0
40
0.125
40
0.125
40
0.250000000000001
40
0.250000000000001
40
0.375000000000001
40
0.375000000000001
40
0.500000000000001
40
0.500000000000001
40
0.562500000000002
40
0.562500000000002
40
0.625000000000003
40
0.625000000000003
40
0.656250000000003
40
0.656250000000003
40
0.687500000000004
40
0.687500000000004
40
0.750000000000003
40
0.750000000000003
40
0.781250000000003
40
0.781250000000003
40
0.796875000000003
40
0.796875000000003
40
0.812500000000003
40
0.812500000000003
40
0.843750000000002
40
0.843750000000002
40
0.859375000000002
40
0.859375000000002
40
0.875000000000001
40
0.882812500000001
40
0.882812500000001
40
0.890625000000001
40
0.890625000000001
40
0.906250000000001
40
0.914062500000001
40
0.914062500000001
40
0.921875000000001
40
0.921875000000001
40
0.9375
40
0.953125
40
0.953125
40
0.96875
40
0.96875
40
1
40
1
40
1
40
1
41
1
10
-1.30710678118751
20
3.62853202212813
30
0
41
1
10
-1.2919061364086
20
3.70556358522939
30
0
41
1
10
-1.27564950878531
20
3.7820205106818
30
0
41
1
10
-1.2406084132062
20
3.93375870314148
30
0
41
1
10
-1.22181063294732
20
4.00910669461106
30
0
41
1
10
-1.18115763731655
20
4.15813319978361
30
0
41
1
10
-1.15931218721892
20
4.23182333008765
30
0
41
1
10
-1.11159177403967
20
4.37733091027962
30
0
41
1
10
-1.08574263925135
20
4.44915525032008
30
0
41
1
10
-1.04258655138119
20
4.55515277213792
30
0
41
1
10
-1.02746285247525
20
4.59019333091888
30
0
41
1
10
-0.99531723437029
20
4.65958274004282
30
0
41
1
10
-0.978301889811419
20
4.69393335632202
30
0
41
1
10
-0.950840081220846
20
4.74480636515824
30
0
41
1
10
-0.941360422010973
20
4.76165452150423
30
0
41
1
10
-0.921612206817855
20
4.79509560720325
30
0
41
1
10
-0.911330345780556
20
4.81170689277053
30
0
41
1
10
-0.879296662789443
20
4.86066233047501
30
0
41
1
10
-0.856343638951387
20
4.89227865327604
30
0
41
1
10
-0.818026122235793
20
4.93731968624948
30
0
41
1
10
-0.804596803075
20
4.95193103239396
30
0
41
1
10
-0.78309303822293
20
4.97302905184745
30
0
41
1
10
-0.775696659387535
20
4.9799241664696
30
0
41
1
10
-0.760349771776134
20
4.99338317091983
30
0
41
1
10
-0.752392350049959
20
4.999948849948
30
0
41
1
10
-0.727880800919934
20
5.01875181169186
30
0
41
1
10
-0.710603681718212
20
5.03020967742904
30
0
41
1
10
-0.68262925493238
20
5.04504465543113
30
0
41
1
10
-0.672891603682132
20
5.04961808259611
30
0
41
1
10
-0.652894042393314
20
5.05762851177528
30
0
41
1
10
-0.637551053482454
20
5.06277719842694
30
0
41
1
10
-0.621612371118459
20
5.06644388397413
30
0
41
1
10
-0.610843200204997
20
5.06853179751513
30
0
41
1
10
-0.605373228252517
20
5.06939770112723
30
0
41
1
10
-0.589024240534243
20
5.07139043996949
30
0
41
1
10
-0.572669010460388
20
5.07220433725334
30
0
41
1
10
-0.556304392511265
20
5.07124292633216
30
0
41
1
10
-0.545392549087381
20
5.07020599311227
30
0
41
1
10
-0.539919309159174
20
5.06948506381411
30
0
41
1
10
-0.523814898152125
20
5.06678978581303
30
0
41
1
10
-0.50297983481218
20
5.06177117057427
30
0
41
1
10
-0.483228911030722
20
5.05432574420999
30
0
41
1
10
-0.463947967840667
20
5.04582591451216
30
0
41
1
10
-0.45453441672953
20
5.04103707702356
30
0
41
1
10
-0.427464692677432
20
5.02563245237855
30
0
41
1
10
-0.410735023483483
20
5.01390421017646
30
0
41
1
10
-0.394913799810496
20
5.00116056255814
30
0
0
SPLINE
5
138
100
AcDbEntity
8
SK1
62
256
6
ByLayer
370
18
48
1
60
0
100
AcDbSpline
70
4
71
3
72
51
73
47
40
0
40
0
40
0
40
0
40
0.0312499999999998
40
0.0312499999999998
40
0.0468749999999998
40
0.0468749999999998
40
0.0624999999999999
40
0.0624999999999999
40
0.0781250000000002
40
0.0859375000000003
40
0.0859375000000003
40
0.0937500000000004
40
0.0937500000000004
40
0.125000000000001
40
0.125000000000001
40
0.132812500000001
40
0.132812500000001
40
0.140625000000001
40
0.140625000000001
40
0.156250000000001
40
0.156250000000001
40
0.171875000000001
40
0.171875000000001
40
0.1875
40
0.1875
40
0.21875
40
0.21875
40
0.250000000000001
40
0.250000000000001
40
0.312500000000001
40
0.312500000000001
40
0.375000000000001
40
0.375000000000001
40
0.437500000000001
40
0.437500000000001
40
0.500000000000001
40
0.500000000000001
40
0.562500000000002
40
0.562500000000002
40
0.625000000000002
40
0.625000000000002
40
0.750000000000001
40
0.750000000000001
40
0.875
40
0.875
40
1
40
1
40
1
40
1
41
1
10
-0.394913799811292
20
-5.00116108217659
30
0
41
1
10
-0.41066538649504
20
-5.01384862569722
30
0
41
1
10
-0.427444682539473
20
-5.02560401094567
30
0
41
1
10
-0.454225812702376
20
-5.04087055985525
30
0
41
1
10
-0.463438908679222
20
-5.04557564745028
30
0
41
1
10
-0.482560235211096
20
-5.05405619211425
30
0
41
1
10
-0.492542658095473
20
-5.05785401853598
30
0
41
1
10
-0.512988129699522
20
-5.06417699720825
30
0
41
1
10
-0.52860623913692
20
-5.06795442924033
30
0
41
1
10
-0.544698986354931
20
-5.07012184570777
30
0
41
1
10
-0.555539481232216
20
-5.07118703454174
30
0
41
1
10
-0.561044214178409
20
-5.0715296778481
30
0
41
1
10
-0.588380278389167
20
-5.07223202598755
30
0
41
1
10
-0.609788395540534
20
-5.06961980113229
30
0
41
1
10
-0.636038898961743
20
-5.06284104440826
30
0
41
1
10
-0.641273399804732
20
-5.06130432437081
30
0
41
1
10
-0.651523728611267
20
-5.05794894419779
30
0
41
1
10
-0.656561241457752
20
-5.05612553121156
30
0
41
1
10
-0.671435209911536
20
-5.05025831011366
30
0
41
1
10
-0.681034016074321
20
-5.04581904881579
30
0
41
1
10
-0.699699693093564
20
-5.0360533513589
30
0
41
1
10
-0.708803295444653
20
-5.03069978836885
30
0
41
1
10
-0.726275289417984
20
-5.01942067172476
30
0
41
1
10
-0.734670547069527
20
-5.01348585979886
30
0
41
1
10
-0.7590283536763
20
-4.99496074537163
30
0
41
1
10
-0.774172797668427
20
-4.98165817730296
30
0
41
1
10
-0.802914827069742
20
-4.95369126459417
30
0
41
1
10
-0.81654709362823
20
-4.93896729549496
30
0
41
1
10
-0.855145617589443
20
-4.89385654551648
30
0
41
1
10
-0.878053724810229
20
-4.86240606869328
30
0
41
1
10
-0.920529370906081
20
-4.79779601403041
30
0
41
1
10
-0.940052913520788
20
-4.76461628090829
30
0
41
1
10
-0.976740804435948
20
-4.69698582221125
30
0
41
1
10
-0.993913112071084
20
-4.66248133856587
30
0
41
1
10
-1.02632348400364
20
-4.59277716864142
30
0
41
1
10
-1.04157111619293
20
-4.55755616008759
30
0
41
1
10
-1.07057669597754
20
-4.48649265752218
30
0
41
1
10
-1.08433177378575
20
-4.4506493409462
30
0
41
1
10
-1.11062583028021
20
-4.37841416747673
30
0
41
1
10
-1.12316712175577
20
-4.34200882575533
30
0
41
1
10
-1.15918165202707
20
-4.23227919141885
30
0
41
1
10
-1.18109081197508
20
-4.1583703791232
30
0
41
1
10
-1.22178607754874
20
-4.0092085502001
30
0
41
1
10
-1.24056171778477
20
-3.9339536596444
30
0
41
1
10
-1.27561460874023
20
-3.78218340304136
30
0
41
1
10
-1.29188624779786
20
-3.70566670397201
30
0
41
1
10
-1.30710678118655
20
-3.62853433720645
30
0
0
SPLINE
5
139
100
AcDbEntity
8
SK1
62
256
6
ByLayer
370
18
48
1
60
0
100
AcDbSpline
70
4
71
3
72
40
73
36
40
0
40
0
40
0
40
0
40
0.249999999999998
40
0.249999999999998
40
0.374999999999997
40
0.374999999999997
40
0.499999999999996
40
0.499999999999996
40
0.624999999999995
40
0.624999999999995
40
0.687499999999996
40
0.687499999999996
40
0.749999999999997
40
0.749999999999997
40
0.812499999999998
40
0.812499999999998
40
0.843749999999998
40
0.843749999999998
40
0.874999999999999
40
0.874999999999999
40
0.890624999999999
40
0.890624999999999
40
0.906249999999999
40
0.906249999999999
40
0.921874999999999
40
0.921874999999999
40
0.937499999999999
40
0.937499999999999
40
0.953125
40
0.953125
40
0.96875
40
0.96875
40
0.984375
40
0.984375
40
1
40
1
40
1
40
1
41
1
10
-0.200000000000003
20
-5.67845201642962
30
0
41
1
10
-0.200325540023954
20
-5.61547854140437
30
0
41
1
10
-0.201889470916583
20
-5.5522215486582
30
0
41
1
10
-0.206929588208141
20
-5.45686315009974
30
0
41
1
10
-0.209064130076868
20
-5.42499801712538
30
0
41
1
10
-0.214523044028127
20
-5.36109790788328
30
0
41
1
10
-0.217841153282237
20
-5.32906305985333
30
0
41
1
10
-0.226165642229006
20
-5.26480643303958
30
0
41
1
10
-0.231149880121436
20
-5.23258507573854
30
0
41
1
10
-0.240700146478545
20
-5.18409077433588
30
0
41
1
10
-0.244243877237125
20
-5.16786639775964
30
0
41
1
10
-0.252257427302894
20
-5.13565463294324
30
0
41
1
10
-0.25672321424554
20
-5.1196426801294
30
0
41
1
10
-0.267068575155221
20
-5.0879254663663
30
0
41
1
10
-0.272916655032205
20
-5.07221259840796
30
0
41
1
10
-0.283630596953614
20
-5.04908544639636
30
0
41
1
10
-0.287559273211841
20
-5.04140704567578
30
0
41
1
10
-0.296286725692681
20
-5.02660153595323
30
0
41
1
10
-0.301074093098109
20
-5.01945615581229
30
0
41
1
10
-0.309349269610564
20
-5.00940629678661
30
0
41
1
10
-0.312316306979511
20
-5.00615011165598
30
0
41
1
10
-0.318616604997246
20
-5.00011766639525
30
0
41
1
10
-0.321954234540087
20
-4.99732874567789
30
0
41
1
10
-0.329143040072353
20
-4.99237354459822
30
0
41
1
10
-0.333015725026712
20
-4.99021187411824
30
0
41
1
10
-0.341034463404824
20
-4.9869408469134
30
0
41
1
10
-0.345285948994132
20
-4.98580083402234
30
0
41
1
10
-0.353728848469103
20
-4.98475618750666
30
0
41
1
10
-0.358001975899754
20
-4.98483227377295
30
0
41
1
10
-0.366274570071312
20
-4.98604804966439
30
0
41
1
10
-0.370231991198082
20
-4.98716039898099
30
0
41
1
10
-0.377874829705561
20
-4.99015247985739
30
0
41
1
10
-0.381540018186669
20
-4.99203141004628
30
0
41
1
10
-0.388463488029387
20
-4.99625601274579
30
0
41
1
10
-0.391753438827735
20
-4.99861548354417
30
0
41
1
10
-0.394913799811292
20
-5.00116108217654
30
0
0
SPLINE
5
13A
100
AcDbEntity
8
SK1
62
256
6
ByLayer
370
18
48
1
60
0
100
AcDbSpline
70
4
71
3
72
38
73
34
40
0
40
0
40
0
40
0
40
0.0156249999999999
40
0.0156249999999999
40
0.0312499999999999
40
0.0312499999999999
40
0.046875
40
0.046875
40
0.0625
40
0.0625
40
0.078125
40
0.078125
40
0.09375
40
0.09375
40
0.125
40
0.125
40
0.15625
40
0.15625
40
0.187500000000001
40
0.187500000000001
40
0.250000000000001
40
0.250000000000001
40
0.312500000000001
40
0.312500000000001
40
0.375000000000001
40
0.375000000000001
40
0.5
40
0.5
40
0.625
40
0.625
40
0.75
40
0.75
40
1
40
1
40
1
40
1
41
1
10
-0.394913799814603
20
-13.8446595289409
30
0
41
1
10
-0.391749296202065
20
-13.844842490927
30
0
41
1
10
-0.388452375608779
20
-13.8450961903932
30
0
41
1
10
-0.381505168769735
20
-13.8457938151623
30
0
41
1
10
-0.377829013893788
20
-13.846241915681
30
0
41
1
10
-0.37020286020072
20
-13.8473733313911
30
0
41
1
10
-0.366240526544658
20
-13.8480563938372
30
0
41
1
10
-0.357912392007805
20
-13.849739303977
30
0
41
1
10
-0.35368463570066
20
-13.8507136617023
30
0
41
1
10
-0.345220189226779
20
-13.8529238754024
30
0
41
1
10
-0.340975528995884
20
-13.854165851519
30
0
41
1
10
-0.332960961810869
20
-13.8567502285021
30
0
41
1
10
-0.329080600695065
20
-13.8581264595614
30
0
41
1
10
-0.318321797663032
20
-13.8622381003803
30
0
41
1
10
-0.312091372528215
20
-13.865022403485
30
0
41
1
10
-0.301015966388746
20
-13.8704509077418
30
0
41
1
10
-0.29615341995715
20
-13.8731079755536
30
0
41
1
10
-0.287445517218671
20
-13.8782073044309
30
0
41
1
10
-0.283595780474954
20
-13.8806523483052
30
0
41
1
10
-0.272997114041203
20
-13.887771829979
30
0
41
1
10
-0.267181679795726
20
-13.8922335922221
30
0
41
1
10
-0.256879537942368
20
-13.9007947938235
30
0
41
1
10
-0.252421658911786
20
-13.9048892296203
30
0
41
1
10
-0.244413939321575
20
-13.9127918287046
30
0
41
1
10
-0.240874255815299
20
-13.9165963734792
30
0
41
1
10
-0.231313142997905
20
-13.9275805879124
30
0
41
1
10
-0.226297832831563
20
-13.9343664914099
30
0
41
1
10
-0.217912944663453
20
-13.947127348993
30
0
41
1
10
-0.214572317075465
20
-13.9530845047233
30
0
41
1
10
-0.209085750971354
20
-13.964280444998
30
0
41
1
10
-0.206943565198614
20
-13.9695217949656
30
0
41
1
10
-0.201888714477079
20
-13.9843134154886
30
0
41
1
10
-0.200325526921617
20
-13.992937784021
30
0
41
1
10
-0.200000000000003
20
-14.0005306290776
30
0
0
SPLINE
5
13B
100
AcDbEntity
8
SK1
62
256
6
ByLayer
370
18
48
1
60
0
100
AcDbSpline
70
4
71
3
72
40
73
36
40
0
40
0
40
0
40
0
40
0.249999999999996
40
0.249999999999996
40
0.374999999999994
40
0.374999999999994
40
0.499999999999993
40
0.499999999999993
40
0.62499999999999
40
0.62499999999999
40
0.68749999999999
40
0.68749999999999
40
0.74999999999999
40
0.74999999999999
40
0.812499999999991
40
0.812499999999991
40
0.843749999999991
40
0.843749999999991
40
0.874999999999992
40
0.874999999999992
40
0.890624999999993
40
0.890624999999993
40
0.906249999999994
40
0.906249999999994
40
0.921874999999995
40
0.921874999999995
40
0.937499999999996
40
0.937499999999996
40
0.953124999999997
40
0.953124999999997
40
0.968749999999998
40
0.968749999999998
40
0.984374999999999
40
0.984374999999999
40
1
40
1
40
1
40
1
41
1
10
-0.200000000000003
20
14.0005308360297
30
0
41
1
10
-0.200325484931824
20
13.9929389755075
30
0
41
1
10
-0.201888899753485
20
13.984321015747
30
0
41
1
10
-0.206929064368964
20
13.9695604951636
30
0
41
1
10
-0.209063760504833
20
13.9643331642488
30
0
41
1
10
-0.214523379010927
20
13.9531770452386
30
0
41
1
10
-0.217842040597958
20
13.9472498215878
30
0
41
1
10
-0.22616799926196
20
13.9345502713768
30
0
41
1
10
-0.231153161037895
20
13.9277833881154
30
0
41
1
10
-0.240704867227109
20
13.9167821274841
30
0
41
1
10
-0.244249097570204
20
13.9129633802222
30
0
41
1
10
-0.252263586587105
20
13.9050370743236
30
0
41
1
10
-0.256729802109732
20
13.9009261566768
30
0
41
1
10
-0.267075773720634
20
13.8923152006563
30
0
41
1
10
-0.272924030069319
20
13.8878208927885
30
0
41
1
10
-0.2836379135897
20
13.8806243248759
30
0
41
1
10
-0.287566520738551
20
13.8781327420571
30
0
41
1
10
-0.296293809253299
20
13.8730299294695
30
0
41
1
10
-0.301081039190592
20
13.8704177140821
30
0
41
1
10
-0.309355911672156
20
13.866364075454
30
0
41
1
10
-0.312322841306013
20
13.8649804039333
30
0
41
1
10
-0.31862294414502
20
13.8622234641578
30
0
41
1
10
-0.321960461861963
20
13.8608465411072
30
0
41
1
10
-0.329149016141258
20
13.858101654615
30
0
41
1
10
-0.333021571763879
20
13.8567295936368
30
0
41
1
10
-0.341039973310558
20
13.8541465128493
30
0
41
1
10
-0.345291253771677
20
13.8529042812469
30
0
41
1
10
-0.353733594241362
20
13.8507022641717
30
0
41
1
10
-0.358006392495966
20
13.8497192387353
30
0
41
1
10
-0.366278137943922
20
13.8480502152413
30
0
41
1
10
-0.370235109341735
20
13.8473680380174
30
0
41
1
10
-0.377877027729255
20
13.846235641883
30
0
41
1
10
-0.381541736392833
20
13.8457899488977
30
0
41
1
10
-0.388464315595584
20
13.845095524037
30
0
41
1
10
-0.391753842527152
20
13.8448423969163
30
0
41
1
10
-0.394913799811292
20
13.8446596982822
30
0
0
SPLINE
5
13C
100
AcDbEntity
8
SK1
62
256
6
ByLayer
370
18
48
1
60
0
100
AcDbSpline
70
4
71
3
72
39
73
35
40
0
40
0
40
0
40
0
40
0.0233594650677182
40
0.0513972062918341
40
0.07943494751595
40
0.107472688740066
40
0.163548171188298
40
0.219623653636529
40
0.247661394860645
40
0.275699136084761
40
0.331774618532993
40
0.359812359757109
40
0.387850100981224
40
0.41588784220534
40
0.443925583429456
40
0.471963324653572
40
0.48598219526563
40
0.500001065877688
40
0.514019936489746
40
0.528038807101804
40
0.55607654832592
40
0.584114289550036
40
0.612152030774151
40
0.640189771998267
40
0.668227513222383
40
0.724302995670615
40
0.752340736894731
40
0.780378478118846
40
0.836453960567078
40
0.89252944301531
40
0.920567184239426
40
0.948604925463542
40
0.976642666687658
40
1
40
1
40
1
40
1
41
1
10
-24
20
-12.6317140946244
30
0
41
1
10
-24
20
-12.6344703708965
30
0
41
1
10
-24
20
-12.6094822630483
30
0
41
1
10
-24
20
-12.4743689830171
30
0
41
1
10
-24
20
-12.230146179188
30
0
41
1
10
-24
20
-11.778244241418
30
0
41
1
10
-24
20
-11.0029092636263
30
0
41
1
10
-24
20
-9.97333247862687
30
0
41
1
10
-24
20
-9.00198713477033
30
0
41
1
10
-24
20
-7.94098140173097
30
0
41
1
10
-24
20
-6.76812921007328
30
0
41
1
10
-24
20
-5.45799637564653
30
0
41
1
10
-24
20
-4.42753733029454
30
0
41
1
10
-24
20
-3.35000222974921
30
0
41
1
10
-24
20
-2.23771741989395
30
0
41
1
10
-24
20
-1.30515932004789
30
0
41
1
10
-24
20
-0.551100854738877
30
0
41
1
10
-24
20
-2.454147534E-07
30
0
41
1
10
-24
20
0.551100895559586
30
0
41
1
10
-24
20
1.30515943417129
30
0
41
1
10
-24
20
2.23771697460674
30
0
41
1
10
-24
20
3.35000208235883
30
0
41
1
10
-24
20
4.4275375451636
30
0
41
1
10
-24
20
5.45799609225458
30
0
41
1
10
-24
20
6.76812911518888
30
0
41
1
10
-24
20
7.94098139760015
30
0
41
1
10
-24
20
9.00198709358403
30
0
41
1
10
-24
20
9.97333275207075
30
0
41
1
10
-24
20
11.0029089912388
30
0
41
1
10
-24
20
11.7782448377074
30
0
41
1
10
-24
20
12.2301460729139
30
0
41
1
10
-24
20
12.4743692733745
30
0
41
1
10
-24
20
12.609479089534
30
0
41
1
10
-24
20
12.6344684106683
30
0
41
1
10
-24
20
12.6317149366365
30
0
0
SPLINE
5
13D
100
AcDbEntity
8
SK1
62
256
6
ByLayer
370
18
48
1
60
0
100
AcDbSpline
70
4
71
3
72
9
73
5
40
0
40
0
40
0
40
0
40
0.558773211007086
40
1
40
1
40
1
40
1
41
1
10
-1.49503997793928
20
13.825267052709
30
0
41
1
10
-1.49503997793928
20
13.8253385764261
30
0
41
1
10
-1.49503997793928
20
13.8032101876707
30
0
41
1
10
-1.49503997793928
20
13.745176793103
30
0
41
1
10
-1.49503997793928
20
13.7130156697897
30
0
0
SPLINE
5
13E
100
AcDbEntity
8
SK1
62
256
6
ByLayer
370
13
48
1
60
0
100
AcDbSpline
70
4
71
3
72
20
73
16
40
0
40
0
40
0
40
0
40
0.0283171876762818
40
0.0975854516746785
40
0.166853715673075
40
0.305390243669869
40
0.443926771666663
40
0.513195035665059
40
0.582463299663456
40
0.72099982766025
40
0.790268091658646
40
0.859536355657043
40
0.92880461965544
40
0.998072883653837
40
1
40
1
40
1
40
1
41
1
10
-1.49503997793928
20
13.7130156697879
30
0
41
1
10
-1.49503997793927
20
13.6907766312434
30
0
41
1
10
-1.4950399779393
20
13.6033357132692
30
0
41
1
10
-1.4950399779393
20
13.3930993868039
30
0
41
1
10
-1.4950399779393
20
12.9130991355629
30
0
41
1
10
-1.4950399779393
20
12.0867937065467
30
0
41
1
10
-1.4950399779393
20
10.9917340076615
30
0
41
1
10
-1.4950399779393
20
9.96541209516295
30
0
41
1
10
-1.4950399779393
20
8.84271184628204
30
0
41
1
10
-1.4950399779393
20
7.58102884110858
30
0
41
1
10
-1.4950399779393
20
6.18114524290198
30
0
41
1
10
-1.4950399779393
20
5.06527592408099
30
0
41
1
10
-1.4950399779393
20
3.88412508952482
30
0
41
1
10
-1.4950399779393
20
3.04345441166049
30
0
41
1
10
-1.4950399779393
20
2.60753527399982
30
0
41
1
10
-1.4950399779393
20
2.59572866980201
30
0
0
SPLINE
5
13F
100
AcDbEntity
8
SK1
62
256
6
ByLayer
370
13
48
1
60
0
100
AcDbSpline
70
4
71
3
72
20
73
16
40
0
40
0
40
0
40
0
40
0.0019270700262407
40
0.0711953294820094
40
0.140463588937778
40
0.209731848393547
40
0.279000107849316
40
0.417536626760853
40
0.486804886216622
40
0.556073145672391
40
0.694609664583928
40
0.833146183495466
40
0.902414442951234
40
0.971682702407003
40
1
40
1
40
1
40
1
41
1
10
-1.4950399779393
20
-2.59572959682796
30
0
41
1
10
-1.4950399779393
20
-2.60753591899177
30
0
41
1
10
-1.4950399779393
20
-3.04345481646683
30
0
41
1
10
-1.4950399779393
20
-3.88412534084222
30
0
41
1
10
-1.4950399779393
20
-5.0652758228772
30
0
41
1
10
-1.4950399779393
20
-6.18114538947242
30
0
41
1
10
-1.4950399779393
20
-7.58102898252227
30
0
41
1
10
-1.4950399779393
20
-8.84271185764786
30
0
41
1
10
-1.4950399779393
20
-9.96541221253273
30
0
41
1
10
-1.4950399779393
20
-10.9917337096027
30
0
41
1
10
-1.4950399779393
20
-12.0867940390283
30
0
41
1
10
-1.4950399779393
20
-12.9130985214152
30
0
41
1
10
-1.4950399779393
20
-13.3930994871677
30
0
41
1
10
-1.4950399779393
20
-13.6033356716522
30
0
41
1
10
-1.4950399779393
20
-13.6907765202355
30
0
41
1
10
-1.4950399779393
20
-13.7130155968264
30
0
0
SPLINE
5
140
100
AcDbEntity
8
SK1
62
256
6
ByLayer
370
18
48
1
60
0
100
AcDbSpline
70
4
71
3
72
9
73
5
40
0
40
0
40
0
40
0
40
0.442559206805943
40
1
40
1
40
1
40
1
41
1
10
-1.4950399779393
20
-13.713015034218
30
0
41
1
10
-1.4950399779393
20
-13.7451762618101
30
0
41
1
10
-1.4950399779393
20
-13.8030351400036
30
0
41
1
10
-1.4950399779393
20
-13.8252049411527
30
0
41
1
10
-1.4950399779393
20
-13.8252670342175
30
0
0
SPLINE
5
141
100
AcDbEntity
8
SK1
62
256
6
ByLayer
370
18
48
1
60
0
100
AcDbSpline
70
4
71
3
72
50
73
46
40
0
40
0
40
0
40
0
40
0.125000000000012
40
0.125000000000012
40
0.250000000000024
40
0.250000000000024
40
0.312500000000031
40
0.312500000000031
40
0.375000000000038
40
0.375000000000038
40
0.437500000000045
40
0.437500000000045
40
0.468750000000048
40
0.468750000000048
40
0.48437500000005
40
0.48437500000005
40
0.500000000000052
40
0.500000000000052
40
0.515625000000054
40
0.515625000000054
40
0.523437500000057
40
0.523437500000057
40
0.531250000000059
40
0.531250000000059
40
0.535156250000059
40
0.535156250000059
40
0.539062500000059
40
0.539062500000059
40
0.546875000000059
40
0.546875000000059
40
0.562500000000056
40
0.562500000000056
40
0.578125000000054
40
0.578125000000054
40
0.593750000000052
40
0.593750000000052
40
0.625000000000048
40
0.625000000000048
40
0.68750000000004
40
0.68750000000004
40
0.750000000000032
40
0.750000000000032
40
0.875000000000016
40
0.875000000000016
40
1
40
1
40
1
40
1
41
1
10
-1.4950399779393
20
-2.59572959682799
30
0
41
1
10
-1.50259580380231
20
-2.54970538090487
30
0
41
1
10
-1.51044407919379
20
-2.5037485497009
30
0
41
1
10
-1.52696140207523
20
-2.41209242042987
30
0
41
1
10
-1.53561964544302
20
-2.36637992038092
30
0
41
1
10
-1.5496214994392
20
-2.29823508774663
30
0
41
1
10
-1.55445799280432
20
-2.27560423600821
30
0
41
1
10
-1.56462503300465
20
-2.23061031941455
30
0
41
1
10
-1.56994933734997
20
-2.20824327444524
30
0
41
1
10
-1.58141440210635
20
-2.1639829941042
30
0
41
1
10
-1.58752132339228
20
-2.14206819971534
30
0
41
1
10
-1.59800183776959
20
-2.11000295822438
30
0
41
1
10
-1.60173135359587
20
-2.09941136011767
30
0
41
1
10
-1.60792208521562
20
-2.0840854996479
30
0
41
1
10
-1.61008417279068
20
-2.0790771956942
30
0
41
1
10
-1.61471614069212
20
-2.06937654210969
30
0
41
1
10
-1.61717970743425
20
-2.06467763004105
30
0
41
1
10
-1.62266900676535
20
-2.05586039978144
30
0
41
1
10
-1.62570082643286
20
-2.05168607565219
30
0
41
1
10
-1.63098239203809
20
-2.04685996014615
30
0
41
1
10
-1.6329019457323
20
-2.04547928392895
30
0
41
1
10
-1.63699263810763
20
-2.04373469956386
30
0
41
1
10
-1.63921911624004
20
-2.04338149066749
30
0
41
1
10
-1.64253578152041
20
-2.04402974687966
30
0
41
1
10
-1.64365346396515
20
-2.04444453700538
30
0
41
1
10
-1.64576913847839
20
-2.04559596629972
30
0
41
1
10
-1.64678471429062
20
-2.04633307019134
30
0
41
1
10
-1.64972344115721
20
-2.04895713823333
30
0
41
1
10
-1.65146277058666
20
-2.05118187975825
30
0
41
1
10
-1.65615085025311
20
-2.05848683766303
30
0
41
1
10
-1.6585367992972
20
-2.06399527606521
30
0
41
1
10
-1.66277344227467
20
-2.07547629075165
30
0
41
1
10
-1.66455510466849
20
-2.0813878802806
30
0
41
1
10
-1.66776761506961
20
-2.09338046474815
30
0
41
1
10
-1.66917976470286
20
-2.09942277841125
30
0
41
1
10
-1.67305217630947
20
-2.11760538297838
30
0
41
1
10
-1.6751594901484
20
-2.12981712458023
30
0
41
1
10
-1.68075232756121
20
-2.16659121971193
30
0
41
1
10
-1.68351230038941
20
-2.19134004598717
30
0
41
1
10
-1.68813273270565
20
-2.24066381962933
30
0
41
1
10
-1.68996451253322
20
-2.26528111364473
30
0
41
1
10
-1.69458987013775
20
-2.33904299616424
30
0
41
1
10
-1.6965250123217
20
-2.38809848078017
30
0
41
1
10
-1.69914629015307
20
-2.48605219520391
30
0
41
1
10
-1.69980283176194
20
-2.53494813104055
30
0
41
1
10
-1.7
20
-2.58377808521789
30
0
0
SPLINE
5
142
100
AcDbEntity
8
SK1
62
256
6
ByLayer
370
18
48
1
60
0
100
AcDbSpline
70
4
71
3
72
8
73
4
40
0
40
0
40
0
40
0
40
1
40
1
40
1
40
1
41
1
10
-1.30710678118655
20
-3.62853433720642
30
0
41
1
10
-1.37356947571648
20
-3.29172452904805
30
0
41
1
10
-1.43720049720228
20
-2.94804273884375
30
0
41
1
10
-1.4950399779393
20
-2.59572959682799
30
0
0
SPLINE
5
143
100
AcDbEntity
8
SK1
62
256
6
ByLayer
370
18
48
1
60
0
100
AcDbSpline
70
4
71
3
72
8
73
4
40
0
40
0
40
0
40
0
40
1
40
1
40
1
40
1
41
1
10
-1.4950399779393
20
2.59572866974992
30
0
41
1
10
-1.43720046286556
20
2.94804131885212
30
0
41
1
10
-1.37356940710868
20
3.29172262772087
30
0
41
1
10
-1.30710678118655
20
3.62853202212773
30
0
0
SPLINE
5
144
100
AcDbEntity
8
SK1
62
256
6
ByLayer
370
18
48
1
60
0
100
AcDbSpline
70
4
71
3
72
50
73
46
40
0
40
0
40
0
40
0
40
0.125000000000011
40
0.125000000000011
40
0.250000000000021
40
0.250000000000021
40
0.312500000000027
40
0.312500000000027
40
0.375000000000032
40
0.375000000000032
40
0.406250000000035
40
0.406250000000035
40
0.421875000000036
40
0.421875000000036
40
0.437500000000038
40
0.437500000000038
40
0.453125000000039
40
0.453125000000039
40
0.460937500000039
40
0.460937500000039
40
0.468750000000038
40
0.468750000000038
40
0.476562500000038
40
0.476562500000038
40
0.484375000000037
40
0.484375000000037
40
0.492187500000037
40
0.492187500000037
40
0.500000000000036
40
0.500000000000036
40
0.515625000000035
40
0.515625000000035
40
0.531250000000034
40
0.531250000000034
40
0.562500000000032
40
0.562500000000032
40
0.625000000000028
40
0.625000000000028
40
0.687500000000023
40
0.687500000000023
40
0.750000000000019
40
0.750000000000019
40
0.87500000000001
40
0.87500000000001
40
1
40
1
40
1
40
1
41
1
10
-1.7
20
2.58377729734613
30
0
41
1
10
-1.69980436369318
20
2.53532682713825
30
0
41
1
10
-1.69915633746155
20
2.48678291130128
30
0
41
1
10
-1.69657077641125
20
2.38945991149225
30
0
41
1
10
-1.69465688317244
20
2.34062742639441
30
0
41
1
10
-1.69011547560279
20
2.26744567235394
30
0
41
1
10
-1.68832031406806
20
2.24305704289955
30
0
41
1
10
-1.68382251839573
20
2.19430149785723
30
0
41
1
10
-1.6811538035131
20
2.16993349213547
30
0
41
1
10
-1.67575012136615
20
2.13342095957782
30
0
41
1
10
-1.67370679113651
20
2.12121687034826
30
0
41
1
10
-1.66999109272727
20
2.10307013790924
30
0
41
1
10
-1.6686459486251
20
2.09706546109075
30
0
41
1
10
-1.66562961649734
20
2.08519083778748
30
0
41
1
10
-1.66396430018823
20
2.07931848353303
30
0
41
1
10
-1.6600558123808
20
2.06781172737621
30
0
41
1
10
-1.65780271049239
20
2.06209889338854
30
0
41
1
10
-1.65360265881839
20
2.05440095769973
30
0
41
1
10
-1.65203540861354
20
2.05194214116116
30
0
41
1
10
-1.64851622596237
20
2.04772090624601
30
0
41
1
10
-1.64651873271588
20
2.04593477970201
30
0
41
1
10
-1.64226262858723
20
2.043768326699
30
0
41
1
10
-1.63997873447313
20
2.04341449775865
30
0
41
1
10
-1.6356843696697
20
2.04410116240959
30
0
41
1
10
-1.63361913581856
20
2.0450986814044
30
0
41
1
10
-1.62982987335099
20
2.04777834300637
30
0
41
1
10
-1.62808309003236
20
2.04945955976308
30
0
41
1
10
-1.62484301170014
20
2.0531239146128
30
0
41
1
10
-1.62333314102943
20
2.05512691093279
30
0
41
1
10
-1.61901669792691
20
2.06146559975113
30
0
41
1
10
-1.61642392925381
20
2.06612103362772
30
0
41
1
10
-1.61160259165956
20
2.07573673930193
30
0
41
1
10
-1.60936320218998
20
2.08073614174975
30
0
41
1
10
-1.60299914819286
20
2.09599696577877
30
0
41
1
10
-1.59920684184681
20
2.10654042134561
30
0
41
1
10
-1.58850203306027
20
2.13871110702169
30
0
41
1
10
-1.58228349561369
20
2.16081267675321
30
0
41
1
10
-1.57063755711233
20
2.20542457669759
30
0
41
1
10
-1.56523752837914
20
2.22799607735607
30
0
41
1
10
-1.55494638829134
20
2.27335583269641
30
0
41
1
10
-1.55006067855432
20
2.29615277543081
30
0
41
1
10
-1.53593092606574
20
2.36476035150477
30
0
41
1
10
-1.52720389146864
20
2.41078220609728
30
0
41
1
10
-1.510557364089
20
2.5030840028657
30
0
41
1
10
-1.50265060758178
20
2.54937072424823
30
0
41
1
10
-1.4950399779393
20
2.59572866980201
30
0
0
SPLINE
5
145
100
AcDbEntity
8
SK1
62
256
6
ByLayer
370
18
48
1
60
0
100
AcDbSpline
70
4
71
3
72
21
73
17
40
0
40
0
40
0
40
0
40
0.00534719091415
40
0.0675275880678515
40
0.129707985221553
40
0.191888382375254
40
0.254068779528956
40
0.378429573836359
40
0.44060997099006
40
0.502790368143762
40
0.627151162451165
40
0.751511956758568
40
0.813692353912269
40
0.875872751065971
40
0.938053148219672
40
1
40
1
40
1
40
1
41
1
10
-1.7
20
-2.58377808521789
30
0
41
1
10
-1.7
20
-2.6211130853342
30
0
41
1
10
-1.7
20
-3.09163207213675
30
0
41
1
10
-1.7
20
-3.97134131573901
30
0
41
1
10
-1.7
20
-5.16941096177055
30
0
41
1
10
-1.7
20
-6.29922705440438
30
0
41
1
10
-1.7
20
-7.71376588282689
30
0
41
1
10
-1.7
20
-8.98995375595479
30
0
41
1
10
-1.7
20
-10.1227281115305
30
0
41
1
10
-1.7
20
-11.1580265629749
30
0
41
1
10
-1.7
20
-12.2637795792515
30
0
41
1
10
-1.7
20
-13.0984067777707
30
0
41
1
10
-1.7
20
-13.5829959818305
30
0
41
1
10
-1.7
20
-13.8477062499051
30
0
41
1
10
-1.7
20
-14.0038343026694
30
0
41
1
10
-1.69999999999999
20
-14.0272338769474
30
0
41
1
10
-1.69999999999997
20
-14.0158119585229
30
0
0
SPLINE
5
146
100
AcDbEntity
8
SK1
62
256
6
ByLayer
370
18
48
1
60
0
100
AcDbSpline
70
4
71
3
72
28
73
24
40
0
40
0
40
0
40
0
40
0.0625
40
0.0625
40
0.125
40
0.125
40
0.25
40
0.25
40
0.375
40
0.375
40
0.5
40
0.5
40
0.53125
40
0.53125
40
0.5625
40
0.5625
40
0.625
40
0.625
40
0.75
40
0.75
40
0.875
40
0.875
40
1
40
1
40
1
40
1
41
1
10
-1.7
20
-2.58377808521789
30
0
41
1
10
-1.71653480458672
20
-2.4797818566588
30
0
41
1
10
-1.73252928227532
20
-2.37518275958956
30
0
41
1
10
-1.76321329032666
20
-2.16467276723154
30
0
41
1
10
-1.7779104307611
20
-2.05868937391003
30
0
41
1
10
-1.8194991935238
20
-1.74011907259904
30
0
41
1
10
-1.84395869573467
20
-1.52647783394633
30
0
41
1
10
-1.88456941336776
20
-1.09633072422011
30
0
41
1
10
-1.90073152159664
20
-0.879827175945792
30
0
41
1
10
-1.92269285742202
20
-0.443534065874189
30
0
41
1
10
-1.9285260192795
20
-0.2237512458141
30
0
41
1
10
-1.92857376506791
20
0.0532112388235646
30
0
41
1
10
-1.92821915648835
20
0.108715900509111
30
0
41
1
10
-1.92678890529307
20
0.219949147197781
30
0
41
1
10
-1.92571062209051
20
0.275747908317783
30
0
41
1
10
-1.92143351430276
20
0.442459814342243
30
0
41
1
10
-1.91719408999322
20
0.552958450347262
30
0
41
1
10
-1.90057185673113
20
0.882620801089502
30
0
41
1
10
-1.88427766240595
20
1.09995043784016
30
0
41
1
10
-1.84353399204588
20
1.53043779083347
30
0
41
1
10
-1.81907192909576
20
1.7435914590406
30
0
41
1
10
-1.76383853333438
20
2.16627904107367
30
0
41
1
10
-1.7330653294344
20
2.37581216989977
30
0
41
1
10
-1.7
20
2.58377729734613
30
0
0
SPLINE
5
147
100
AcDbEntity
8
SK1
62
256
6
ByLayer
370
18
48
1
60
0
100
AcDbSpline
70
4
71
3
72
21
73
17
40
0
40
0
40
0
40
0
40
0.0619470341118938
40
0.124127416806867
40
0.18630779950184
40
0.248488182196813
40
0.372848947586758
40
0.497209712976704
40
0.559390095671677
40
0.62157047836665
40
0.745931243756595
40
0.808111626451568
40
0.870292009146541
40
0.932472391841514
40
0.994652774536487
40
1
40
1
40
1
40
1
41
1
10
-1.7
20
14.0158119279533
30
0
41
1
10
-1.7
20
14.0272339860674
30
0
41
1
10
-1.69999999999999
20
14.0038349660026
30
0
41
1
10
-1.7
20
13.8477064954836
30
0
41
1
10
-1.7
20
13.5829958824317
30
0
41
1
10
-1.7
20
13.0984073948343
30
0
41
1
10
-1.7
20
12.2637792369573
30
0
41
1
10
-1.7
20
11.158026865053
30
0
41
1
10
-1.7
20
10.1227279817209
30
0
41
1
10
-1.7
20
8.9899537434076
30
0
41
1
10
-1.7
20
7.71376573381551
30
0
41
1
10
-1.7
20
6.29922693017525
30
0
41
1
10
-1.7
20
5.16941104441418
30
0
41
1
10
-1.7
20
3.97134104745157
30
0
41
1
10
-1.7
20
3.09163174208075
30
0
41
1
10
-1.7
20
2.62111254506641
30
0
41
1
10
-1.7
20
2.58377729734613
30
0
0
SPLINE
5
148
100
AcDbEntity
8
SK1
62
256
6
ByLayer
370
18
48
1
60
0
100
AcDbSpline
70
4
71
3
72
39
73
35
40
0
40
0
40
0
40
0
40
0.0277680116773887
40
0.0555463624113621
40
0.0833247131453355
40
0.111103063879309
40
0.166659765347256
40
0.222216466815202
40
0.249994817549176
40
0.277773168283149
40
0.333329869751096
40
0.36110822048507
40
0.388886571219043
40
0.416664921953017
40
0.44444327268699
40
0.472221623420963
40
0.48611079878795
40
0.499999974154937
40
0.513889149521923
40
0.52777832488891
40
0.555556675622884
40
0.583335026356857
40
0.61111337709083
40
0.638891727824804
40
0.666670078558777
40
0.722226780026724
40
0.750005130760697
40
0.777783481494671
40
0.833340182962618
40
0.888896884430564
40
0.916675235164538
40
0.944453585898511
40
0.972231936632485
40
1
40
1
40
1
40
1
41
1
10
-22.5
20
13.4936008035056
30
0
41
1
10
-22.5
20
13.5046599456837
30
0
41
1
10
-22.5
20
13.4821972908877
30
0
41
1
10
-22.5
20
13.3308795934982
30
0
41
1
10
-22.5
20
13.0738789920944
30
0
41
1
10
-22.5
20
12.6015916721314
30
0
41
1
10
-22.5
20
11.7892769425394
30
0
41
1
10
-22.5
20
10.7121918739409
30
0
41
1
10
-22.5
20
9.70096045673193
30
0
41
1
10
-22.5
20
8.5951948167403
30
0
41
1
10
-22.5
20
7.35789505897995
30
0
41
1
10
-22.5
20
5.98264719956148
30
0
41
1
10
-22.5
20
4.89022238185544
30
0
41
1
10
-22.5
20
3.73751305004353
30
0
41
1
10
-22.5
20
2.52988134516508
30
0
41
1
10
-22.5
20
1.48826022368627
30
0
41
1
10
-22.5
20
0.637225639727404
30
0
41
1
10
-22.5
20
-1.01300202E-07
30
0
41
1
10
-22.5
20
-0.63722566300541
30
0
41
1
10
-22.5
20
-1.48826017841199
30
0
41
1
10
-22.5
20
-2.52988151772914
30
0
41
1
10
-22.5
20
-3.73751327283387
30
0
41
1
10
-22.5
20
-4.89022224945154
30
0
41
1
10
-22.5
20
-5.98264738368823
30
0
41
1
10
-22.5
20
-7.35789518762175
30
0
41
1
10
-22.5
20
-8.59519482612015
30
0
41
1
10
-22.5
20
-9.70096055319001
30
0
41
1
10
-22.5
20
-10.7121915826386
30
0
41
1
10
-22.5
20
-11.7892772585257
30
0
41
1
10
-22.5
20
-12.6015910628856
30
0
41
1
10
-22.5
20
-13.0738790940806
30
0
41
1
10
-22.5
20
-13.3308793310681
30
0
41
1
10
-22.5
20
-13.4821968998428
30
0
41
1
10
-22.5
20
-13.5046599488825
30
0
41
1
10
-22.5
20
-13.4936006587516
30
0
0
SPLINE
5
149
100
AcDbEntity
8
1
62
256
6
ByLayer
370
18
48
1
60
0
100
AcDbSpline
70
4
71
3
72
18
73
14
40
0
40
0
40
0
40
0
40
0.106502320877339
40
0.209819720887758
40
0.309970050663161
40
0.406972922398925
40
0.500849920824623
40
0.591624858695461
40
0.679324076625608
40
0.763976789998202
40
0.845615488386716
40
0.924276395493017
40
1
40
1
40
1
40
1
41
1
10
57.59011863841
20
-24.0169146481771
30
0
41
1
10
57.5885415273357
20
-24.0162356963494
30
0
41
1
10
57.5854344682343
20
-24.0148980965508
30
0
41
1
10
57.5809243323186
20
-24.0125950376113
30
0
41
1
10
57.5766153234624
20
-24.0101336525213
30
0
41
1
10
57.5725126225172
20
-24.0075098420596
30
0
41
1
10
57.5686149102104
20
-24.0047475341627
30
0
41
1
10
57.5649224452296
20
-24.0018629608243
30
0
41
1
10
57.561435372045
20
-23.9988731471595
30
0
41
1
10
57.558152836714
20
-23.9957956455299
30
0
41
1
10
57.5550778698625
20
-23.9926415847493
30
0
41
1
10
57.5521996835922
20
-23.9894420074179
30
0
41
1
10
57.5504035869187
20
-23.9872081231617
30
0
41
1
10
57.54952262475
20
-23.9861124318507
30
0
0
SPLINE
5
14A
100
AcDbEntity
8
1
62
256
6
ByLayer
370
18
48
1
60
0
100
AcDbSpline
70
4
71
3
72
16
73
12
40
0
40
0
40
0
40
0
40
0.117319552095937
40
0.2330858532417
40
0.347299362202341
40
0.459960556706211
40
0.571069934503125
40
0.68062801449573
40
0.788635337949902
40
0.895092469791811
40
1
40
1
40
1
40
1
41
1
10
57.74894541545
20
-24.072267476298
30
0
41
1
10
57.7426777667176
20
-24.0704446731315
30
0
41
1
10
57.7302254497209
20
-24.0668231997813
30
0
41
1
10
57.7117192560503
20
-24.061108591244
30
0
41
1
10
57.6934972967516
20
-24.0552431101975
30
0
41
1
10
57.6755628434144
20
-24.0492133266253
30
0
41
1
10
57.6579151154146
20
-24.043033730945
30
0
41
1
10
57.6405540289178
20
-24.036713079835
30
0
41
1
10
57.6234806581604
20
-24.0302550550605
30
0
41
1
10
57.6066908752728
20
-24.0236879439501
30
0
41
1
10
57.5956156516848
20
-24.0191613513233
30
0
41
1
10
57.59011863841
20
-24.01691464817
30
0
0
SPLINE
5
14B
100
AcDbEntity
8
1
62
256
6
ByLayer
370
18
48
1
60
0
100
AcDbSpline
70
4
71
2
72
10
73
7
40
0
40
0
40
0
40
0.5
40
0.5
40
0.75
40
0.75
40
1
40
1
40
1
41
1
10
57.7489454154405
20
-24.072267476262
30
0
41
1
10
57.816539241663
20
-24.0917621635149
30
0
41
1
10
57.8642354827661
20
-24.1434857110098
30
0
41
1
10
57.8902224727179
20
-24.1716669529261
30
0
41
1
10
57.9068593747274
20
-24.2075223538962
30
0
41
1
10
57.9248252361493
20
-24.2462418922267
30
0
41
1
10
57.92894619708
20
-24.289264413028
30
0
0
SPLINE
5
14C
100
AcDbEntity
8
1
62
256
6
ByLayer
370
18
48
1
60
0
100
AcDbSpline
70
4
71
2
72
6
73
3
40
0
40
0
40
0
40
1
40
1
40
1
41
1
10
57.928946197118
20
-24.289264412942
30
0
41
1
10
57.93783748929
20
-24.3844834459669
30
0
41
1
10
57.9378609595285
20
-24.4799999993024
30
0
0
SPLINE
5
14D
100
AcDbEntity
8
1
62
256
6
ByLayer
370
18
48
1
60
0
100
AcDbSpline
70
4
71
3
72
17
73
13
40
0
40
0
40
0
40
0
40
0.100317411816891
40
0.200541310293383
40
0.300680278273351
40
0.400742920447322
40
0.500737861201729
40
0.600673742442649
40
0.700559221399154
40
0.800402968404828
40
0.900213664663546
40
1
40
1
40
1
40
1
41
1
10
57.92894619712
20
-24.710735587058
30
0
41
1
10
57.9295231228817
20
-24.7043912298246
30
0
41
1
10
57.9306764366097
20
-24.6917084294062
30
0
41
1
10
57.9321818251213
20
-24.6726539472122
30
0
41
1
10
57.9335216262512
20
-24.6535914790205
30
0
41
1
10
57.9346798037512
20
-24.6345196957169
30
0
41
1
10
57.9356607269913
20
-24.6154410706663
30
0
41
1
10
57.9364629358429
20
-24.5963570587512
30
0
41
1
10
57.9370879043616
20
-24.5772693864805
30
0
41
1
10
57.937531197509
20
-24.558179706331
30
0
41
1
10
57.9378090731845
20
-24.5390896896565
30
0
41
1
10
57.9378436654888
20
-24.5263627125725
30
0
41
1
10
57.93786095953
20
-24.5200000006976
30
0
0
SPLINE
5
14E
100
AcDbEntity
8
1
62
256
6
ByLayer
370
18
48
1
60
0
100
AcDbSpline
70
4
71
3
72
38
73
34
40
0
40
0
40
0
40
0
40
0.0320161803190612
40
0.0634137556494077
40
0.0941938978101462
40
0.124357850627719
40
0.153906935790673
40
0.18284255929264
40
0.21116621853408
40
0.238879510162465
40
0.265984138740202
40
0.292481926343994
40
0.31837482321179
40
0.343664919571541
40
0.368354458804058
40
0.392445852114302
40
0.415941694911062
40
0.438844785123642
40
0.461158143716725
40
0.482885037704955
40
0.504029006008838
40
0.551366811163275
40
0.597409666800361
40
0.642207857910831
40
0.685815975457089
40
0.728293199079294
40
0.769703557231233
40
0.81011614964302
40
0.849605314210611
40
0.888250718110504
40
0.926137351649328
40
0.963355403684625
40
1
40
1
40
1
40
1
41
1
10
57.74894541544
20
-24.927732523738
30
0
41
1
10
57.7515736233647
20
-24.9269514392853
30
0
41
1
10
57.7567792579366
20
-24.9254043622095
30
0
41
1
10
57.7644507904016
20
-24.9227682841384
30
0
41
1
10
57.7719249095612
20
-24.9199441000576
30
0
41
1
10
57.7791975153447
20
-24.9169210898556
30
0
41
1
10
57.7862696764341
20
-24.913718365909
30
0
41
1
10
57.7931411178627
20
-24.9103470598276
30
0
41
1
10
57.7998119140345
20
-24.9068201212977
30
0
41
1
10
57.8062820488617
20
-24.9031497437464
30
0
41
1
10
57.8125515300007
20
-24.8993480072664
30
0
41
1
10
57.8186203592441
20
-24.8954266889419
30
0
41
1
10
57.8244885401618
20
-24.8913972918287
30
0
41
1
10
57.8301560763662
20
-24.887271019817
30
0
41
1
10
57.8356229711866
20
-24.8830587686786
30
0
41
1
10
57.8408892306567
20
-24.878771116109
30
0
41
1
10
57.8459548524153
20
-24.8744183110036
30
0
41
1
10
57.8508198658018
20
-24.8700102765188
30
0
41
1
10
57.8554841879102
20
-24.8655565701334
30
0
41
1
10
57.8599481402178
20
-24.8610665051893
30
0
41
1
10
57.8660095567998
20
-24.8546419695072
30
0
41
1
10
57.8734588192033
20
-24.8460531831906
30
0
41
1
10
57.8820027422796
20
-24.8349799163681
30
0
41
1
10
57.8898489226435
20
-24.823530558693
30
0
41
1
10
57.8969976055378
20
-24.8117506191721
30
0
41
1
10
57.9034486190906
20
-24.7996846186177
30
0
41
1
10
57.9092017357357
20
-24.7873766525567
30
0
41
1
10
57.9142571546107
20
-24.7748701653714
30
0
41
1
10
57.918613296107
20
-24.7622074528299
30
0
41
1
10
57.9222748801838
20
-24.7494310234887
30
0
41
1
10
57.9252236999947
20
-24.7365780883646
30
0
41
1
10
57.9275246334318
20
-24.7237000583366
30
0
41
1
10
57.928474801506
20
-24.7150346518979
30
0
41
1
10
57.92894619708
20
-24.710735586972
30
0
0
SPLINE
5
14F
100
AcDbEntity
8
1
62
256
6
ByLayer
370
18
48
1
60
0
100
AcDbSpline
70
4
71
2
72
6
73
3
40
0
40
0
40
0
40
1
40
1
40
1
41
1
10
57.748945415449
20
-24.927732523702
30
0
41
1
10
57.6679467190096
20
-24.9509847566732
30
0
41
1
10
57.5901186384095
20
-24.98308535183
30
0
0
SPLINE
5
150
100
AcDbEntity
8
1
62
256
6
ByLayer
370
18
48
1
60
0
100
AcDbSpline
70
4
71
2
72
6
73
3
40
0
40
0
40
0
40
1
40
1
40
1
41
1
10
57.5901186384085
20
-24.983085351823
30
0
41
1
10
57.5658197594152
20
-24.9932546708635
30
0
41
1
10
57.549522624748
20
-25.013887568149
30
0
0
LINE
5
7D
100
AcDbEntity
8
1
62
256
6
ByLayer
370
18
48
1
60
0
100
AcDbLine
10
0
20
-19.7
30
0
11
0.3
21
-20
31
0
39
0
210
0
220
0
230
1
0
LINE
5
7E
100
AcDbEntity
8
1
62
256
6
ByLayer
370
18
48
1
60
0
100
AcDbLine
10
0.3
20
20
30
0
11
0
21
19.7
31
0
39
0
210
0
220
0
230
1
0
LINE
5
7F
100
AcDbEntity
8
1
62
256
6
ByLayer
370
18
48
1
60
0
100
AcDbLine
10
20
20
20
30
0
11
0.3
21
20
31
0
39
0
210
0
220
0
230
1
0
LINE
5
80
100
AcDbEntity
8
1
62
256
6
ByLayer
370
18
48
1
60
0
100
AcDbLine
10
0.3
20
-20
30
0
11
20.279208
21
-20
31
0
39
0
210
0
220
0
230
1
0
LINE
5
81
100
AcDbEntity
8
80
62
256
6
ByLayer
370
18
48
1
60
0
100
AcDbLine
10
0
20
0
30
0
11
-5
21
0
31
0
39
0
210
0
220
0
230
1
0
LINE
5
82
100
AcDbEntity
8
81
62
256
6
ByLayer
370
18
48
1
60
0
100
AcDbLine
10
65
20
-27
30
0
11
70
21
-27
31
0
39
0
210
0
220
0
230
1
0
LINE
5
83
100
AcDbEntity
8
1
62
256
6
ByLayer
370
18
48
1
60
0
100
AcDbLine
10
55.337022
20
-26.859597
30
0
11
55.336819
21
-26.745784
31
0
39
0
210
0
220
0
230
1
0
LINE
5
84
100
AcDbEntity
8
1
62
256
6
ByLayer
370
18
48
1
60
0
100
AcDbLine
10
57.806649
20
-26.85565
30
0
11
57.806193
21
-26.599976
31
0
39
0
210
0
220
0
230
1
0
LINE
5
85
100
AcDbEntity
8
1
62
256
6
ByLayer
370
13
48
1
60
0
100
AcDbLine
10
23.2
20
-21.15
30
0
11
21.613642
21
-21.15
31
0
39
0
210
0
220
0
230
1
0
LINE
5
86
100
AcDbEntity
8
1
62
256
6
ByLayer
370
13
48
1
60
0
100
AcDbLine
10
23.2
20
-20.15
30
0
11
23.2
21
-21.15
31
0
39
0
210
0
220
0
230
1
0
LINE
5
87
100
AcDbEntity
8
1
62
256
6
ByLayer
370
18
48
1
60
0
100
AcDbLine
10
54.581679
20
-29.955192
30
0
11
25.441008
21
-29.955192
31
0
39
0
210
0
220
0
230
1
0
LINE
5
88
100
AcDbEntity
8
1
62
256
6
ByLayer
370
18
48
1
60
0
100
AcDbLine
10
64
20
-26.969728
30
0
11
64
21
-27.29871
31
0
39
0
210
0
220
0
230
1
0
LINE
5
89
100
AcDbEntity
8
1
62
256
6
ByLayer
370
18
48
1
60
0
100
AcDbLine
10
61.387277
20
-26.85565
30
0
11
57.806649
21
-26.85565
31
0
39
0
210
0
220
0
230
1
0
LINE
5
8A
100
AcDbEntity
8
1
62
256
6
ByLayer
370
18
48
1
60
0
100
AcDbLine
10
55.337022
20
-26.859597
30
0
11
53.744983
21
-26.859597
31
0
39
0
210
0
220
0
230
1
0
LINE
5
8B
100
AcDbEntity
8
1
62
256
6
ByLayer
370
18
48
1
60
0
100
AcDbLine
10
26.893237
20
-26.70483
30
0
11
27.400095
21
-26.70483
31
0
39
0
210
0
220
0
230
1
0
LINE
5
8C
100
AcDbEntity
8
1
62
256
6
ByLayer
370
18
48
1
60
0
100
AcDbLine
10
23.2
20
-26.814028
30
0
11
23.109318
21
-26.814028
31
0
39
0
210
0
220
0
230
1
0
LINE
5
8D
100
AcDbEntity
8
1
62
256
6
ByLayer
370
18
48
1
60
0
100
AcDbLine
10
26.893237
20
-26.70483
30
0
11
26.893237
21
-21.15
31
0
39
0
210
0
220
0
230
1
0
LINE
5
8E
100
AcDbEntity
8
1
62
256
6
ByLayer
370
13
48
1
60
0
100
AcDbLine
10
26.893237
20
-21.15
30
0
11
23.2
21
-21.15
31
0
39
0
210
0
220
0
230
1
0
LINE
5
8F
100
AcDbEntity
8
1
62
256
6
ByLayer
370
13
48
1
60
0
100
AcDbLine
10
23.2
20
-26.814028
30
0
11
23.2
21
-21.15
31
0
39
0
210
0
220
0
230
1
0
LINE
5
90
100
AcDbEntity
8
1
62
256
6
ByLayer
370
18
48
1
60
0
100
AcDbLine
10
27.279216
20
-21.15
30
0
11
27.279216
21
-26.681692
31
0
39
0
210
0
220
0
230
1
0
LINE
5
91
100
AcDbEntity
8
1
62
256
6
ByLayer
370
13
48
1
60
0
100
AcDbLine
10
27.4
20
-21.15
30
0
11
27.279216
21
-21.15
31
0
39
0
210
0
220
0
230
1
0
LINE
5
92
100
AcDbEntity
8
1
62
256
6
ByLayer
370
18
48
1
60
0
100
AcDbLine
10
57
20
-24.225031
30
0
11
57
21
-24.774969
31
0
39
0
210
0
220
0
230
1
0
LINE
5
93
100
AcDbEntity
8
1
62
256
6
ByLayer
370
18
48
1
60
0
100
AcDbLine
10
24.399843
20
-20.15
30
0
11
23.400157
21
-20.15
31
0
39
0
210
0
220
0
230
1
0
LINE
5
94
100
AcDbEntity
8
1
62
256
6
ByLayer
370
18
48
1
60
0
100
AcDbLine
10
24.400039
20
15
30
0
11
24.008879
21
15
31
0
39
0
210
0
220
0
230
1
0
LINE
5
95
100
AcDbEntity
8
1
62
256
6
ByLayer
370
18
48
1
60
0
100
AcDbLine
10
27.400017
20
-26.681692
30
0
11
27.279216
21
-26.681692
31
0
39
0
210
0
220
0
230
1
0
LINE
5
96
100
AcDbEntity
8
1
62
256
6
ByLayer
370
13
48
1
60
0
100
AcDbLine
10
47
20
-22.354335
30
0
11
47
21
-23.302031
31
0
39
0
210
0
220
0
230
1
0
LINE
5
97
100
AcDbEntity
8
1
62
256
6
ByLayer
370
18
48
1
60
0
100
AcDbLine
10
26.4
20
-20.15
30
0
11
24.4
21
-20.15
31
0
39
0
210
0
220
0
230
1
0
LINE
5
98
100
AcDbEntity
8
1
62
256
6
ByLayer
370
18
48
1
60
0
100
AcDbLine
10
27.4
20
-27.219456
30
0
11
27.4
21
-21.15
31
0
39
0
210
0
220
0
230
1
0
LINE
5
99
100
AcDbEntity
8
1
62
256
6
ByLayer
370
18
48
1
60
0
100
AcDbLine
10
46.216445
20
-27.219456
30
0
11
27.4
21
-27.219456
31
0
39
0
210
0
220
0
230
1
0
LINE
5
9A
100
AcDbEntity
8
1
62
256
6
ByLayer
370
18
48
1
60
0
100
AcDbLine
10
24.4
20
15
30
0
11
33.9
21
15
31
0
39
0
210
0
220
0
230
1
0
LINE
5
9B
100
AcDbEntity
8
1
62
256
6
ByLayer
370
18
48
1
60
0
100
AcDbLine
10
24.4
20
-20.15
30
0
11
24.4
21
15
31
0
39
0
210
0
220
0
230
1
0
LINE
5
9C
100
AcDbEntity
8
1
62
256
6
ByLayer
370
18
48
1
60
0
100
AcDbLine
10
45.4
20
-21.782177
30
0
11
45.4
21
-8.6
31
0
39
0
210
0
220
0
230
1
0
LINE
5
9D
100
AcDbEntity
8
1
62
256
6
ByLayer
370
18
48
1
60
0
100
AcDbLine
10
45.4
20
-8.6
30
0
11
33.9
21
15
31
0
39
0
210
0
220
0
230
1
0
LINE
5
9E
100
AcDbEntity
8
1
62
256
6
ByLayer
370
18
48
1
60
0
100
AcDbLine
10
46.216445
20
-27.219456
30
0
11
49.072741
21
-27.219456
31
0
39
0
210
0
220
0
230
1
0
LINE
5
9F
100
AcDbEntity
8
1
62
256
6
ByLayer
370
18
48
1
60
0
100
AcDbLine
10
53.5
20
-22.590719
30
0
11
53.5
21
-26.88188
31
0
39
0
210
0
220
0
230
1
0
LINE
5
A0
100
AcDbEntity
8
1
62
256
6
ByLayer
370
18
48
1
60
0
100
AcDbLine
10
46.216445
20
-27.219456
30
0
11
46.216445
21
-23.209031
31
0
39
0
210
0
220
0
230
1
0
LINE
5
A1
100
AcDbEntity
8
1
62
256
6
ByLayer
370
13
48
1
60
0
100
AcDbLine
10
21.438319
20
-17.713978
30
0
11
21.438319
21
-20.15
31
0
39
0
210
0
220
0
230
1
0
LINE
5
A2
100
AcDbEntity
8
1
62
256
6
ByLayer
370
18
48
1
60
0
100
AcDbLine
10
23.4
20
-20.15
30
0
11
23.4
21
15.046613
31
0
39
0
210
0
220
0
230
1
0
LINE
5
A3
100
AcDbEntity
8
1
62
256
6
ByLayer
370
18
48
1
60
0
100
AcDbLine
10
21.953509
20
-20.15
30
0
11
23.4
21
-20.15
31
0
39
0
210
0
220
0
230
1
0
LINE
5
A4
100
AcDbEntity
8
1
62
256
6
ByLayer
370
13
48
1
60
0
100
AcDbLine
10
9.076795
20
19.122283
30
0
11
9.076795
21
5.85989
31
0
39
0
210
0
220
0
230
1
0
LINE
5
A5
100
AcDbEntity
8
1
62
256
6
ByLayer
370
13
48
1
60
0
100
AcDbLine
10
9.336603
20
19.024574
30
0
11
9.336603
21
6.16973
31
0
39
0
210
0
220
0
230
1
0
LINE
5
A6
100
AcDbEntity
8
1
62
256
6
ByLayer
370
13
48
1
60
0
100
AcDbLine
10
6.663397
20
-6.16973
30
0
11
6.663397
21
-19.024574
31
0
39
0
210
0
220
0
230
1
0
LINE
5
A7
100
AcDbEntity
8
1
62
256
6
ByLayer
370
13
48
1
60
0
100
AcDbLine
10
6.923205
20
-5.85989
30
0
11
6.923205
21
-19.122283
31
0
39
0
210
0
220
0
230
1
0
LINE
5
A8
100
AcDbEntity
8
1
62
256
6
ByLayer
370
13
48
1
60
0
100
AcDbLine
10
9.076795
20
-5.85989
30
0
11
9.076795
21
-19.122283
31
0
39
0
210
0
220
0
230
1
0
LINE
5
A9
100
AcDbEntity
8
1
62
256
6
ByLayer
370
13
48
1
60
0
100
AcDbLine
10
9.336603
20
-6.16973
30
0
11
9.336603
21
-19.024574
31
0
39
0
210
0
220
0
230
1
0
LINE
5
AA
100
AcDbEntity
8
1
62
256
6
ByLayer
370
13
48
1
60
0
100
AcDbLine
10
6.663397
20
19.024574
30
0
11
6.663397
21
6.16973
31
0
39
0
210
0
220
0
230
1
0
LINE
5
AB
100
AcDbEntity
8
1
62
256
6
ByLayer
370
13
48
1
60
0
100
AcDbLine
10
6.923205
20
19.122283
30
0
11
6.923205
21
5.85989
31
0
39
0
210
0
220
0
230
1
0
LINE
5
AC
100
AcDbEntity
8
1
62
256
6
ByLayer
370
18
48
1
60
0
100
AcDbLine
10
0
20
19.7
30
0
11
0
21
-19.7
31
0
39
0
210
0
220
0
230
1
0
LINE
5
AD
100
AcDbEntity
8
1
62
256
6
ByLayer
370
13
48
1
60
0
100
AcDbLine
10
20.279208
20
17.554472
30
0
11
20.279208
21
15.392389
31
0
39
0
210
0
220
0
230
1
0
LINE
5
AE
100
AcDbEntity
8
1
62
256
6
ByLayer
370
18
48
1
60
0
100
AcDbLine
10
20.009031
20
18.965094
30
0
11
20
21
20
31
0
39
0
210
0
220
0
230
1
0
LINE
5
AF
100
AcDbEntity
8
1
62
256
6
ByLayer
370
13
48
1
60
0
100
AcDbLine
10
20.279208
20
-20
30
0
11
20.279208
21
-15.392389
31
0
39
0
210
0
220
0
230
1
0
LINE
5
B0
100
AcDbEntity
8
1
62
256
6
ByLayer
370
18
48
1
60
0
100
AcDbLine
10
0.3
20
20
30
0
11
0.3
21
-20
31
0
39
0
210
0
220
0
230
1
0
LINE
5
B1
100
AcDbEntity
8
1
62
256
6
ByLayer
370
18
48
1
60
0
100
AcDbLine
10
9.076795
20
-19.122283
30
0
11
6.923205
21
-19.122283
31
0
39
0
210
0
220
0
230
1
0
LINE
5
B2
100
AcDbEntity
8
1
62
256
6
ByLayer
370
18
48
1
60
0
100
AcDbLine
10
6.923205
20
-5.85989
30
0
11
9.076795
21
-5.85989
31
0
39
0
210
0
220
0
230
1
0
LINE
5
B3
100
AcDbEntity
8
1
62
256
6
ByLayer
370
18
48
1
60
0
100
AcDbLine
10
6.923205
20
19.122283
30
0
11
9.076795
21
19.122283
31
0
39
0
210
0
220
0
230
1
0
LINE
5
B4
100
AcDbEntity
8
1
62
256
6
ByLayer
370
18
48
1
60
0
100
AcDbLine
10
9.076795
20
5.85989
30
0
11
6.923205
21
5.85989
31
0
39
0
210
0
220
0
230
1
0
LINE
5
B5
100
AcDbEntity
8
1
62
256
6
ByLayer
370
13
48
1
60
0
100
AcDbLine
10
20.051793
20
-14.21876
30
0
11
20.051793
21
14.21876
31
0
39
0
210
0
220
0
230
1
0
LINE
5
B6
100
AcDbEntity
8
SK1
62
256
6
ByLayer
370
18
48
1
60
0
100
AcDbLine
10
-0.2
20
-14.083485
30
0
11
-0.2
21
-5.678452
31
0
39
0
210
0
220
0
230
1
0
LINE
5
B8
100
AcDbEntity
8
SK1
62
256
6
ByLayer
370
18
48
1
60
0
100
AcDbLine
10
-0.2
20
14.083485
30
0
11
-0.2
21
5.678452
31
0
39
0
210
0
220
0
230
1
0
LINE
5
B9
100
AcDbEntity
8
SK1
62
256
6
ByLayer
370
13
48
1
60
0
100
AcDbLine
10
-1.307107
20
3.628532
30
0
11
-1.307107
21
-3.628534
31
0
39
0
210
0
220
0
230
1
0
LINE
5
BA
100
AcDbEntity
8
1
62
256
6
ByLayer
370
18
48
1
60
0
100
AcDbLine
10
58.63
20
-26.6
30
0
11
60.124301
21
-26.6
31
0
39
0
210
0
220
0
230
1
0
LINE
5
BB
100
AcDbEntity
8
1
62
256
6
ByLayer
370
18
48
1
60
0
100
AcDbLine
10
58.63
20
-22.4
30
0
11
60.124301
21
-22.4
31
0
39
0
210
0
220
0
230
1
0
LINE
5
BC
100
AcDbEntity
8
1
62
256
6
ByLayer
370
18
48
1
60
0
100
AcDbLine
10
65
20
-26.7
30
0
11
65
21
-22.3
31
0
39
0
210
0
220
0
230
1
0
LINE
5
BD
100
AcDbEntity
8
1
62
256
6
ByLayer
370
18
48
1
60
0
100
AcDbLine
10
60.5
20
-26.81691
30
0
11
60.124301
21
-26.6
31
0
39
0
210
0
220
0
230
1
0
LINE
5
BE
100
AcDbEntity
8
1
62
256
6
ByLayer
370
18
48
1
60
0
100
AcDbLine
10
64.686914
20
-26.999714
30
0
11
60.5
21
-26.81691
31
0
39
0
210
0
220
0
230
1
0
LINE
5
BF
100
AcDbEntity
8
1
62
256
6
ByLayer
370
18
48
1
60
0
100
AcDbLine
10
64.686914
20
-22.000286
30
0
11
60.5
21
-22.18309
31
0
39
0
210
0
220
0
230
1
0
LINE
5
C0
100
AcDbEntity
8
1
62
256
6
ByLayer
370
18
48
1
60
0
100
AcDbLine
10
60.5
20
-22.18309
30
0
11
60.124301
21
-22.4
31
0
39
0
210
0
220
0
230
1
0
LINE
5
C1
100
AcDbEntity
8
1
62
256
6
ByLayer
370
13
48
1
60
0
100
AcDbLine
10
57
20
-24.48
30
0
11
57.937861
21
-24.48
31
0
39
0
210
0
220
0
230
1
0
LINE
5
C2
100
AcDbEntity
8
1
62
256
6
ByLayer
370
13
48
1
60
0
100
AcDbLine
10
57
20
-24.52
30
0
11
57.937861
21
-24.52
31
0
39
0
210
0
220
0
230
1
0
LINE
5
C3
100
AcDbEntity
8
1
62
256
6
ByLayer
370
13
48
1
60
0
100
AcDbLine
10
56.999918
20
-24.289264
30
0
11
57.928946
21
-24.289264
31
0
39
0
210
0
220
0
230
1
0
LINE
5
C4
100
AcDbEntity
8
1
62
256
6
ByLayer
370
13
48
1
60
0
100
AcDbLine
10
56.999918
20
-24.710736
30
0
11
57.928946
21
-24.710736
31
0
39
0
210
0
220
0
230
1
0
LINE
5
C5
100
AcDbEntity
8
1
62
256
6
ByLayer
370
13
48
1
60
0
100
AcDbLine
10
56.910754
20
-24.927733
30
0
11
57.748945
21
-24.927733
31
0
39
0
210
0
220
0
230
1
0
LINE
5
C6
100
AcDbEntity
8
1
62
256
6
ByLayer
370
13
48
1
60
0
100
AcDbLine
10
56.910754
20
-24.072267
30
0
11
57.748945
21
-24.072267
31
0
39
0
210
0
220
0
230
1
0
LINE
5
C7
100
AcDbEntity
8
1
62
256
6
ByLayer
370
13
48
1
60
0
100
AcDbLine
10
57.590119
20
-24.983085
30
0
11
56.80632
21
-24.983085
31
0
39
0
210
0
220
0
230
1
0
LINE
5
C8
100
AcDbEntity
8
1
62
256
6
ByLayer
370
13
48
1
60
0
100
AcDbLine
10
57.590119
20
-24.016915
30
0
11
56.80632
21
-24.016915
31
0
39
0
210
0
220
0
230
1
0
LINE
5
C9
100
AcDbEntity
8
1
62
256
6
ByLayer
370
13
48
1
60
0
100
AcDbLine
10
56.772685
20
-23.986112
30
0
11
57.549523
21
-23.986112
31
0
39
0
210
0
220
0
230
1
0
LINE
5
CA
100
AcDbEntity
8
1
62
256
6
ByLayer
370
13
48
1
60
0
100
AcDbLine
10
56.772685
20
-25.013888
30
0
11
57.549523
21
-25.013888
31
0
39
0
210
0
220
0
230
1
0
LINE
5
CB
100
AcDbEntity
8
1
62
256
6
ByLayer
370
13
48
1
60
0
100
AcDbLine
10
56.761215
20
-25.105665
30
0
11
57.477691
21
-25.105665
31
0
39
0
210
0
220
0
230
1
0
LINE
5
CC
100
AcDbEntity
8
1
62
256
6
ByLayer
370
13
48
1
60
0
100
AcDbLine
10
56.76137
20
-23.894335
30
0
11
57.477691
21
-23.894335
31
0
39
0
210
0
220
0
230
1
0
LINE
5
CD
100
AcDbEntity
8
1
62
256
6
ByLayer
370
13
48
1
60
0
100
AcDbLine
10
56.755478
20
-25.149934
30
0
11
57.457959
21
-25.149934
31
0
39
0
210
0
220
0
230
1
0
LINE
5
CE
100
AcDbEntity
8
1
62
256
6
ByLayer
370
13
48
1
60
0
100
AcDbLine
10
56.755788
20
-23.850066
30
0
11
57.457959
21
-23.850066
31
0
39
0
210
0
220
0
230
1
0
LINE
5
CF
100
AcDbEntity
8
1
62
256
6
ByLayer
370
13
48
1
60
0
100
AcDbLine
10
56.601866
20
-26.341384
30
0
11
57.247874
21
-26.341384
31
0
39
0
210
0
220
0
230
1
0
LINE
5
D0
100
AcDbEntity
8
1
62
256
6
ByLayer
370
18
48
1
60
0
100
AcDbLine
10
56.568516
20
-26.6
30
0
11
57.246355
21
-26.6
31
0
39
0
210
0
220
0
230
1
0
LINE
5
D1
100
AcDbEntity
8
1
62
256
6
ByLayer
370
13
48
1
60
0
100
AcDbLine
10
56.599516
20
-26.358749
30
0
11
57.246355
21
-26.358749
31
0
39
0
210
0
220
0
230
1
0
LINE
5
D2
100
AcDbEntity
8
1
62
256
6
ByLayer
370
13
48
1
60
0
100
AcDbLine
10
56.602608
20
-22.658616
30
0
11
57.247874
21
-22.658616
31
0
39
0
210
0
220
0
230
1
0
LINE
5
D3
100
AcDbEntity
8
1
62
256
6
ByLayer
370
18
48
1
60
0
100
AcDbLine
10
57.246355
20
-26.6
30
0
11
58.63
21
-26.6
31
0
39
0
210
0
220
0
230
1
0
LINE
5
D4
100
AcDbEntity
8
1
62
256
6
ByLayer
370
18
48
1
60
0
100
AcDbLine
10
58.63
20
-26.6
30
0
11
58.63
21
-22.4
31
0
39
0
210
0
220
0
230
1
0
LINE
5
D5
100
AcDbEntity
8
1
62
256
6
ByLayer
370
18
48
1
60
0
100
AcDbLine
10
57.246355
20
-22.4
30
0
11
58.63
21
-22.4
31
0
39
0
210
0
220
0
230
1
0
LINE
5
D6
100
AcDbEntity
8
1
62
256
6
ByLayer
370
18
48
1
60
0
100
AcDbLine
10
57.457959
20
-23.850066
30
0
11
57.247874
21
-22.658616
31
0
39
0
210
0
220
0
230
1
0
LINE
5
D7
100
AcDbEntity
8
1
62
256
6
ByLayer
370
18
48
1
60
0
100
AcDbLine
10
57.549523
20
-23.986112
30
0
11
57.477691
21
-23.894335
31
0
39
0
210
0
220
0
230
1
0
LINE
5
D8
100
AcDbEntity
8
1
62
256
6
ByLayer
370
18
48
1
60
0
100
AcDbLine
10
57.937861
20
-24.52
30
0
11
57.937861
21
-24.48
31
0
39
0
210
0
220
0
230
1
0
LINE
5
D9
100
AcDbEntity
8
1
62
256
6
ByLayer
370
18
48
1
60
0
100
AcDbLine
10
57.549523
20
-25.013888
30
0
11
57.477691
21
-25.105665
31
0
39
0
210
0
220
0
230
1
0
LINE
5
DA
100
AcDbEntity
8
1
62
256
6
ByLayer
370
18
48
1
60
0
100
AcDbLine
10
57.457959
20
-25.149934
30
0
11
57.247874
21
-26.341384
31
0
39
0
210
0
220
0
230
1
0
LINE
5
DB
100
AcDbEntity
8
1
62
256
6
ByLayer
370
18
48
1
60
0
100
AcDbLine
10
57.246355
20
-26.358749
30
0
11
57.246355
21
-26.6
31
0
39
0
210
0
220
0
230
1
0
LINE
5
DC
100
AcDbEntity
8
1
62
256
6
ByLayer
370
13
48
1
60
0
100
AcDbLine
10
56.600257
20
-22.641251
30
0
11
57.246355
21
-22.641251
31
0
39
0
210
0
220
0
230
1
0
LINE
5
DD
100
AcDbEntity
8
1
62
256
6
ByLayer
370
18
48
1
60
0
100
AcDbLine
10
57.246355
20
-22.641251
30
0
11
57.246355
21
-22.4
31
0
39
0
210
0
220
0
230
1
0
LINE
5
DE
100
AcDbEntity
8
1
62
256
6
ByLayer
370
18
48
1
60
0
100
AcDbLine
10
56.569109
20
-22.4
30
0
11
57.246355
21
-22.4
31
0
39
0
210
0
220
0
230
1
0
LINE
5
DF
100
AcDbEntity
8
SK2
62
256
6
ByLayer
370
18
48
1
60
0
100
AcDbLine
10
-33.975
20
-20
30
0
11
-33.975
21
20
31
0
39
0
210
0
220
0
230
1
0
LINE
5
E1
100
AcDbEntity
8
SK2
62
256
6
ByLayer
370
18
48
1
60
0
100
AcDbLine
10
-1.2875
20
20
30
0
11
-35.975
21
20
31
0
39
0
210
0
220
0
230
1
0
LINE
5
E2
100
AcDbEntity
8
SK2
62
256
6
ByLayer
370
18
48
1
60
0
100
AcDbLine
10
-1.2875
20
-20
30
0
11
-35.975
21
-20
31
0
39
0
210
0
220
0
230
1
0
LINE
5
E3
100
AcDbEntity
8
1
62
256
6
ByLayer
370
18
48
1
60
1
100
AcDbLine
10
-33.975
20
20
30
0
11
-33.514216
21
16.500002
31
0
39
0
210
0
220
0
230
1
0
LINE
5
E4
100
AcDbEntity
8
1
62
256
6
ByLayer
370
18
48
1
60
1
100
AcDbLine
10
-33.514216
20
16.500002
30
0
11
-34.435784
21
16.499998
31
0
39
0
210
0
220
0
230
1
0
LINE
5
E5
100
AcDbEntity
8
1
62
256
6
ByLayer
370
18
48
1
60
1
100
AcDbLine
10
-34.435784
20
16.499998
30
0
11
-33.975
21
20
31
0
39
0
210
0
220
0
230
1
0
LINE
5
E6
100
AcDbEntity
8
1
62
256
6
ByLayer
370
18
48
1
60
1
100
AcDbLine
10
-33.975
20
-20
30
0
11
-34.435784
21
-16.500002
31
0
39
0
210
0
220
0
230
1
0
LINE
5
E7
100
AcDbEntity
8
1
62
256
6
ByLayer
370
18
48
1
60
1
100
AcDbLine
10
-34.435784
20
-16.500002
30
0
11
-33.514216
21
-16.499998
31
0
39
0
210
0
220
0
230
1
0
LINE
5
E8
100
AcDbEntity
8
1
62
256
6
ByLayer
370
18
48
1
60
1
100
AcDbLine
10
-33.514216
20
-16.499998
30
0
11
-33.975
21
-20
31
0
39
0
210
0
220
0
230
1
0
LINE
5
155
100
AcDbEntity
8
1
62
256
6
ByLayer
370
18
48
1
60
1
100
AcDbLine
10
-33.975
20
20
30
0
11
-33.514216
21
16.500002
31
0
39
0
210
0
220
0
230
1
0
LINE
5
156
100
AcDbEntity
8
1
62
256
6
ByLayer
370
18
48
1
60
1
100
AcDbLine
10
-33.514216
20
16.500002
30
0
11
-34.435784
21
16.499998
31
0
39
0
210
0
220
0
230
1
0
LINE
5
157
100
AcDbEntity
8
1
62
256
6
ByLayer
370
18
48
1
60
1
100
AcDbLine
10
-34.435784
20
16.499998
30
0
11
-33.975
21
20
31
0
39
0
210
0
220
0
230
1
0
LINE
5
159
100
AcDbEntity
8
1
62
256
6
ByLayer
370
18
48
1
60
1
100
AcDbLine
10
-33.975
20
-20
30
0
11
-34.435784
21
-16.500002
31
0
39
0
210
0
220
0
230
1
0
LINE
5
15A
100
AcDbEntity
8
1
62
256
6
ByLayer
370
18
48
1
60
1
100
AcDbLine
10
-34.435784
20
-16.500002
30
0
11
-33.514216
21
-16.499998
31
0
39
0
210
0
220
0
230
1
0
LINE
5
15B
100
AcDbEntity
8
1
62
256
6
ByLayer
370
18
48
1
60
1
100
AcDbLine
10
-33.514216
20
-16.499998
30
0
11
-33.975
21
-20
31
0
39
0
210
0
220
0
230
1
0
MTEXT
5
151
100
AcDbEntity
8
SK2
62
256
6
ByLayer
370
18
48
1
60
0
100
AcDbMText
10
-35.539634
20
-4.714889
30
0
210
0
220
0
230
1
1
%%c
40
3.5
41
0
44
1.084337
50
90
71
7
72
5
7
iso_b_vert
0
MTEXT
5
154
100
AcDbEntity
8
SK2
62
256
6
ByLayer
370
18
48
1
60
0
100
AcDbMText
10
-35.539634
20
2.257767
30
0
210
0
220
0
230
1
1
\W0.7361;40
40
3.5
41
0
44
1.084337
50
90
71
7
72
5
7
iso_b_vert
0
MTEXT
5
15D
100
AcDbEntity
8
SK6
62
256
6
ByLayer
370
18
48
1
60
0
100
AcDbMText
10
-11.8145
20
-60.451883
30
0
210
0
220
0
230
1
1
\W0.7587;C2A-CC4-LFJ18B-085CB
40
3.5
41
0
44
1.084337
50
0
71
7
72
5
7
iso_b_vert
0
HATCH
5
158
100
AcDbEntity
8
SK2
62
256
6
ByLayer
370
13
48
1
60
0
100
AcDbHatch
10
0
20
0
30
0
210
0
220
0
230
1
2
ANSI31
70
0
71
0
91
1
92
5
93
3
72
1
10
-33.9750000000001
20
20
11
-33.5142162584473
21
16.5000016925532
72
1
10
-33.5142162584473
20
16.5000016925532
11
-34.4357837415529
21
16.4999983074468
72
1
10
-34.4357837415529
20
16.4999983074468
11
-33.9750000000001
21
20
97
0
75
0
76
1
52
0
41
0.0062
77
0
78
1
53
45
43
0
44
0
45
-0.0139193969876572
46
0.0139193969876572
79
0
47
0
98
1
10
0
20
0
0
HATCH
5
15C
100
AcDbEntity
8
SK2
62
256
6
ByLayer
370
13
48
1
60
0
100
AcDbHatch
10
0
20
0
30
0
210
0
220
0
230
1
2
ANSI31
70
0
71
0
91
1
92
5
93
3
72
1
10
-33.9750000000001
20
-20
11
-34.4357837415529
21
-16.5000016925532
72
1
10
-34.4357837415529
20
-16.5000016925532
11
-33.5142162584473
21
-16.4999983074468
72
1
10
-33.5142162584473
20
-16.4999983074468
11
-33.9750000000001
21
-20
97
0
75
0
76
1
52
0
41
0.0062
77
0
78
1
53
45
43
0
44
0
45
-0.0139193969876572
46
0.0139193969876572
79
0
47
0
98
1
10
0
20
0
0
DIMENSION
5
160
100
AcDbEntity
8
2
62
256
6
ByLayer
370
18
48
1
60
0
100
AcDbDimension
2
_U0
10
96.1
20
0
30
0
11
96.1
21
-13.5
31
0
70
32
71
1
72
1
41
1
210
0
220
0
230
1
3
Standard
100
AcDbAlignedDimension
13
65
23
-27
33
0
14
0
24
0
34
0
50
90
100
AcDbRotatedDimension
1001
ACAD
1000
DSTYLE
1002
{
1070
   371
1070
    13
1070
   372
1070
    13
1070
   170
1070
     0
1070
   144
1040
1.0
1070
   277
1070
     2
1070
   284
1070
     8
1070
   278
1070
    46
1070
   146
1040
1.0
1070
   345
1005
16
1070
   347
1005
16
1070
   346
1005
16
1070
   344
1005
0
1070
   343
1005
0
1070
   172
1070
     1
1070
    76
1070
     0
1070
    75
1070
     0
1070
   282
1070
     0
1070
   281
1070
     0
1070
    71
1070
     0
1070
    74
1070
     0
1070
   279
1070
     0
1070
   173
1070
     1
1070
   340
1005
152
1070
   271
1070
     1
1070
   272
1070
     2
1070
    77
1070
     1
1070
    73
1070
     0
1070
   171
1070
     3
1070
   274
1070
     4
1070
   177
1070
     2
1070
   176
1070
     2
1070
   178
1070
     2
1070
    78
1070
     8
1070
    48
1040
-0.1
1070
    41
1040
3.5
1070
   147
1040
1.75
1070
    42
1040
1.5875
1070
    44
1040
2.0
1070
   140
1040
3.5
1002
}
1001
ACAD_DSTYLE_DIM_LINETYPE
1070
   380
1005
16
1001
ACAD_DSTYLE_DIM_EXT1_LINETYPE
1070
   381
1005
16
1001
ACAD_DSTYLE_DIM_EXT2_LINETYPE
1070
   382
1005
16
0
DIMENSION
5
17A
100
AcDbEntity
8
2
62
256
6
ByLayer
370
18
48
1
60
0
100
AcDbDimension
2
_U1
10
85.1
20
-27
30
0
11
85.1
21
-24.5
31
0
70
32
71
1
72
1
41
1
210
0
220
0
230
1
3
Standard
100
AcDbAlignedDimension
13
65
23
-22
33
0
14
65
24
-27
34
0
50
90
100
AcDbRotatedDimension
1001
ACAD
1000
DSTYLE
1002
{
1070
   371
1070
    13
1070
   372
1070
    13
1070
   170
1070
     0
1070
   144
1040
1.0
1070
   277
1070
     2
1070
   284
1070
     8
1070
   278
1070
    46
1070
   146
1040
1.0
1070
   345
1005
16
1070
   347
1005
16
1070
   346
1005
16
1070
   344
1005
0
1070
   343
1005
0
1070
   172
1070
     1
1070
    76
1070
     0
1070
    75
1070
     0
1070
   282
1070
     0
1070
   281
1070
     0
1070
    71
1070
     0
1070
    74
1070
     0
1070
   279
1070
     0
1070
   173
1070
     1
1070
   340
1005
152
1070
   271
1070
     1
1070
   272
1070
     2
1070
    77
1070
     1
1070
    73
1070
     0
1070
   171
1070
     3
1070
   274
1070
     4
1070
   177
1070
     2
1070
   176
1070
     2
1070
   178
1070
     2
1070
    78
1070
     8
1070
    48
1040
-0.1
1070
    41
1040
3.5
1070
   147
1040
1.75
1070
    42
1040
1.5875
1070
    44
1040
2.0
1070
   140
1040
3.5
1002
}
1001
ACAD_DSTYLE_DIM_LINETYPE
1070
   380
1005
16
1001
ACAD_DSTYLE_DIM_EXT1_LINETYPE
1070
   381
1005
16
1001
ACAD_DSTYLE_DIM_EXT2_LINETYPE
1070
   382
1005
16
0
DIMENSION
5
193
100
AcDbEntity
8
2
62
256
6
ByLayer
370
18
48
1
60
0
100
AcDbDimension
2
_U2
10
65
20
15.925
30
0
11
56
21
15.925
31
0
70
32
71
1
72
1
41
1
210
0
220
0
230
1
3
Standard
100
AcDbAlignedDimension
13
47
23
-22.325
33
0
14
65
24
-22
34
0
50
0
100
AcDbRotatedDimension
1001
ACAD
1000
DSTYLE
1002
{
1070
   371
1070
    13
1070
   372
1070
    13
1070
   170
1070
     0
1070
   144
1040
1.0
1070
   277
1070
     2
1070
   284
1070
     8
1070
   278
1070
    46
1070
   146
1040
1.0
1070
   345
1005
16
1070
   347
1005
16
1070
   346
1005
16
1070
   344
1005
0
1070
   343
1005
0
1070
   172
1070
     1
1070
    76
1070
     0
1070
    75
1070
     0
1070
   282
1070
     0
1070
   281
1070
     0
1070
    71
1070
     0
1070
    74
1070
     0
1070
   279
1070
     0
1070
   173
1070
     1
1070
   340
1005
152
1070
   271
1070
     1
1070
   272
1070
     2
1070
    77
1070
     1
1070
    73
1070
     1
1070
   171
1070
     3
1070
   274
1070
     4
1070
   177
1070
     2
1070
   176
1070
     2
1070
   178
1070
     2
1070
    78
1070
     8
1070
    48
1040
-0.1
1070
    41
1040
3.5
1070
   147
1040
1.75
1070
    42
1040
1.5875
1070
    44
1040
2.0
1070
   140
1040
3.5
1002
}
1001
ACAD_DSTYLE_DIM_LINETYPE
1070
   380
1005
16
1001
ACAD_DSTYLE_DIM_EXT1_LINETYPE
1070
   381
1005
16
1001
ACAD_DSTYLE_DIM_EXT2_LINETYPE
1070
   382
1005
16
0
DIMENSION
5
1AB
100
AcDbEntity
8
2
62
256
6
ByLayer
370
18
48
1
60
0
100
AcDbDimension
2
_U3
10
65
20
-45.75
30
0
11
32.5
21
-45.75
31
0
70
32
71
1
72
1
41
1
210
0
220
0
230
1
3
Standard
100
AcDbAlignedDimension
13
0
23
0
33
0
14
65
24
-27
34
0
50
0
100
AcDbRotatedDimension
1001
ACAD
1000
DSTYLE
1002
{
1070
   371
1070
    13
1070
   372
1070
    13
1070
   170
1070
     0
1070
   144
1040
1.0
1070
   277
1070
     2
1070
   284
1070
     8
1070
   278
1070
    46
1070
   146
1040
1.0
1070
   345
1005
16
1070
   347
1005
16
1070
   346
1005
16
1070
   344
1005
0
1070
   343
1005
0
1070
   172
1070
     1
1070
    76
1070
     0
1070
    75
1070
     0
1070
   282
1070
     0
1070
   281
1070
     0
1070
    71
1070
     0
1070
    74
1070
     0
1070
   279
1070
     0
1070
   173
1070
     1
1070
   340
1005
152
1070
   271
1070
     1
1070
   272
1070
     2
1070
    77
1070
     1
1070
    73
1070
     1
1070
   171
1070
     3
1070
   274
1070
     4
1070
   177
1070
     2
1070
   176
1070
     2
1070
   178
1070
     2
1070
    78
1070
     8
1070
    48
1040
-0.1
1070
    41
1040
3.5
1070
   147
1040
1.75
1070
    42
1040
1.5875
1070
    44
1040
2.0
1070
   140
1040
3.5
1002
}
1001
ACAD_DSTYLE_DIM_LINETYPE
1070
   380
1005
16
1001
ACAD_DSTYLE_DIM_EXT1_LINETYPE
1070
   381
1005
16
1001
ACAD_DSTYLE_DIM_EXT2_LINETYPE
1070
   382
1005
16
0
ENDSEC
0
SECTION
2
OBJECTS
0
DICTIONARY
5
232
330
0
100
AcDbDictionary
280
0
281
1
3
ACAD_GROUP
350
233
3
ACAD_MLINESTYLE
350
234
0
DICTIONARY
5
233
330
0
100
AcDbDictionary
280
0
281
1
0
DICTIONARY
5
234
330
0
100
AcDbDictionary
280
0
281
1
3
Standard
350
18
0
MLINESTYLE
5
18
330
234
100
AcDbMlineStyle
2
Standard
70
0
3

62
256
51
90
52
90
71
2
49
-0.5
62
256
6
ByLayer
49
0.5
62
256
6
ByLayer
0
RASTERVARIABLES
5
221
330

100
AcDbRasterVariables
90
0
70
1
71
1
72
1
0
ENDSEC
0
EOF
