0
SECTION
2
HEADER
9
$ACADVER
1
AC1015
9
$DWGCODEPAGE
3
ANSI_1252
9
$HANDSEED
5
244
9
$ANGBASE
50
0
9
$ANGDIR
70
0
9
$ATTMODE
70
1
9
$AUNITS
70
0
9
$AUPREC
70
0
9
$CECOLOR
62
256
9
$CELTSCALE
40
1
9
$CELTYPE
6
ByLayer
9
$CELWEIGHT
370
18
9
$CLAYER
8
0
9
$CMLJUST
70
0
9
$CMLSCALE
40
1
9
$CMLSTYLE
2
Standard
9
$DIMSTYLE
2
Standard
9
$TEXTSIZE
40
0.2
9
$TEXTSTYLE
7
Standard
9
$LUNITS
70
2
9
$LUPREC
70
4
9
$EXTNAMES
290
1
9
$INSUNITS
70
4
9
$LTSCALE
40
1
9
$LWDISPLAY
290
1
9
$PDMODE
70
0
9
$PDSIZE
40
0
9
$PLINEGEN
70
0
0
ENDSEC
0
SECTION
2
CLASSES
0
CLASS
1
RASTERVARIABLES
2
AcDbRasterVariables
3
ISM
90
0
280
0
281
0
0
ENDSEC
0
SECTION
2
TABLES
0
TABLE
2
VPORT
5
23a
100
AcDbSymbolTable
0
VPORT
5
1
100
AcDbSymbolTableRecord
100
AcDbViewportTableRecord
2
*Active
70
0
10
0
20
0
11
1
21
1
12
-1
22
1
13
0
23
0
14
0.5
24
0.5
15
10
25
10
16
0
26
0
36
1
17
0
27
0
37
0
0
ENDTAB
0
TABLE
2
LTYPE
5
23b
100
AcDbSymbolTable
0
LTYPE
5
14
100
AcDbSymbolTableRecord
100
AcDbLinetypeTableRecord
70
0
2
ByBlock
3

72
65
73
0
40
0
0
LTYPE
5
15
100
AcDbSymbolTableRecord
100
AcDbLinetypeTableRecord
70
0
2
ByLayer
3

72
65
73
0
40
0
0
LTYPE
5
16
100
AcDbSymbolTableRecord
100
AcDbLinetypeTableRecord
70
0
2
Continuous
3
Solid line
72
65
73
0
40
0
0
LTYPE
5
6E
100
AcDbSymbolTableRecord
100
AcDbLinetypeTableRecord
70
0
2
CENTER
3
____ _ ____ _ ____ _ ____
72
65
73
4
40
47.5
49
22
74
0
49
-8.5
74
0
49
8.5
74
0
49
-8.5
74
0
0
LTYPE
5
6F
100
AcDbSymbolTableRecord
100
AcDbLinetypeTableRecord
70
0
2
DASHED
3
__ __ __ __ __ __ __ __ __
72
65
73
2
40
25.72
49
12.86
74
0
49
-12.86
74
0
0
ENDTAB
0
TABLE
2
LAYER
5
23c
100
AcDbSymbolTable
0
LAYER
5
10
100
AcDbSymbolTableRecord
100
AcDbLayerTableRecord
2
0
70
0
62
7
6
Continuous
290
1
370
-3
390
0
0
LAYER
5
71
100
AcDbSymbolTableRecord
100
AcDbLayerTableRecord
2
81
70
0
62
-3
6
Continuous
290
1
370
-3
390
0
0
LAYER
5
73
100
AcDbSymbolTableRecord
100
AcDbLayerTableRecord
2
80
70
0
62
-6
6
Continuous
290
1
370
-3
390
0
0
LAYER
5
75
100
AcDbSymbolTableRecord
100
AcDbLayerTableRecord
2
1
70
0
62
4
6
Continuous
290
1
370
-3
390
0
0
LAYER
5
168
100
AcDbSymbolTableRecord
100
AcDbLayerTableRecord
2
Defpoints
70
0
62
7
6
Continuous
290
0
370
-3
390
0
0
LAYER
5
175
100
AcDbSymbolTableRecord
100
AcDbLayerTableRecord
2
2
70
0
62
7
6
Continuous
290
1
370
-3
390
0
0
LAYER
5
227
100
AcDbSymbolTableRecord
100
AcDbLayerTableRecord
2
SK1
70
0
62
4
6
Continuous
290
1
370
-3
390
0
0
LAYER
5
228
100
AcDbSymbolTableRecord
100
AcDbLayerTableRecord
2
SK2
70
0
62
7
6
Continuous
290
1
370
-3
390
0
0
LAYER
5
229
100
AcDbSymbolTableRecord
100
AcDbLayerTableRecord
2
SK6
70
0
62
5
6
Continuous
290
1
370
-3
390
0
0
ENDTAB
0
TABLE
2
STYLE
5
23d
100
AcDbSymbolTable
0
STYLE
5
11
100
AcDbSymbolTableRecord
100
AcDbTextStyleTableRecord
2
Standard
3
txt
70
0
71
0
40
0
41
1
42
0
50
0
0
STYLE
5
157
100
AcDbSymbolTableRecord
100
AcDbTextStyleTableRecord
2
iso_b_vert
3
simplex.shx
70
0
71
0
40
0
41
1
42
0
50
0
0
STYLE
5
158
100
AcDbSymbolTableRecord
100
AcDbTextStyleTableRecord
2
DWGDirectTextStyle
3
simplex
70
0
71
0
40
0
41
1
42
0
50
0
0
ENDTAB
0
TABLE
2
DIMSTYLE
5
23e
100
AcDbSymbolTable
100
AcDbDimStyleTable
0
DIMSTYLE
105
27
100
AcDbSymbolTableRecord
100
AcDbDimStyleTableRecord
2
Standard
70
0
3
<>
41
0.18
42
0.0625
44
0.18
140
0.18
147
0.09
73
0
74
0
77
1
271
2
275
0
278
52
280
0
340
11
0
ENDTAB
0
TABLE
2
VIEW
5
23f
100
AcDbSymbolTable
0
ENDTAB
0
TABLE
2
UCS
5
240
100
AcDbSymbolTable
0
ENDTAB
0
TABLE
2
APPID
5
241
100
AcDbSymbolTable
0
APPID
5
12
100
AcDbSymbolTableRecord
100
AcDbRegAppTableRecord
2
ACAD
70
0
0
APPID
5
164
100
AcDbSymbolTableRecord
100
AcDbRegAppTableRecord
2
ACAD_DSTYLE_DIMBREAK
70
0
0
APPID
5
1E6
100
AcDbSymbolTableRecord
100
AcDbRegAppTableRecord
2
ACAD_DSTYLE_DIM_LINETYPE
70
0
0
APPID
5
1E7
100
AcDbSymbolTableRecord
100
AcDbRegAppTableRecord
2
ACAD_DSTYLE_DIM_EXT1_LINETYPE
70
0
0
APPID
5
1E8
100
AcDbSymbolTableRecord
100
AcDbRegAppTableRecord
2
ACAD_DSTYLE_DIM_EXT2_LINETYPE
70
0
0
APPID
5
223
100
AcDbSymbolTableRecord
100
AcDbRegAppTableRecord
2
ACAD_MLEADERVER
70
0
0
ENDTAB
0
TABLE
2
BLOCK_RECORD
5
242
100
AcDbSymbolTable
0
BLOCK_RECORD
5
1F
100
AcDbSymbolTableRecord
100
AcDbBlockTableRecord
2
*Model_Space
340
0
70
0
0
BLOCK_RECORD
5
1B
100
AcDbSymbolTableRecord
100
AcDbBlockTableRecord
2
*Paper_Space
340
0
70
0
0
BLOCK_RECORD
5
23
100
AcDbSymbolTableRecord
100
AcDbBlockTableRecord
2
*Paper_Space0
340
0
70
0
0
BLOCK_RECORD
5
169
100
AcDbSymbolTableRecord
100
AcDbBlockTableRecord
2
*D1
340
0
70
0
0
BLOCK_RECORD
5
176
100
AcDbSymbolTableRecord
100
AcDbBlockTableRecord
2
_U0
340
0
70
0
0
BLOCK_RECORD
5
182
100
AcDbSymbolTableRecord
100
AcDbBlockTableRecord
2
*D3
340
0
70
0
0
BLOCK_RECORD
5
18F
100
AcDbSymbolTableRecord
100
AcDbBlockTableRecord
2
_U1
340
0
70
0
0
BLOCK_RECORD
5
19B
100
AcDbSymbolTableRecord
100
AcDbBlockTableRecord
2
*D5
340
0
70
0
0
BLOCK_RECORD
5
1A7
100
AcDbSymbolTableRecord
100
AcDbBlockTableRecord
2
_U2
340
0
70
0
0
BLOCK_RECORD
5
1B3
100
AcDbSymbolTableRecord
100
AcDbBlockTableRecord
2
*D7
340
0
70
0
0
BLOCK_RECORD
5
1BF
100
AcDbSymbolTableRecord
100
AcDbBlockTableRecord
2
_U3
340
0
70
0
0
ENDTAB
0
ENDSEC
0
SECTION
2
BLOCKS
0
BLOCK
5
20
100
AcDbEntity
8
0
100
AcDbBlockBegin
2
*Model_Space
70
0
10
0
20
0
30
0
3
*Model_Space
0
ENDBLK
5
21
100
AcDbEntity
8
0
100
AcDbBlockEnd
0
BLOCK
5
1C
100
AcDbEntity
8
0
100
AcDbBlockBegin
2
*Paper_Space
70
0
10
0
20
0
30
0
3
*Paper_Space
0
ENDBLK
5
1D
100
AcDbEntity
8
0
100
AcDbBlockEnd
0
BLOCK
5
24
100
AcDbEntity
8
0
100
AcDbBlockBegin
2
*Paper_Space0
70
0
10
0
20
0
30
0
3
*Paper_Space0
0
ENDBLK
5
25
100
AcDbEntity
8
0
100
AcDbBlockEnd
0
BLOCK
5
16A
100
AcDbEntity
8
0
100
AcDbBlockBegin
2
*D1
70
1
10
0
20
0
30
0
3
*D1
0
LINE
5
16C
100
AcDbEntity
8
0
62
256
6
ByLayer
370
-2
48
1
60
0
100
AcDbLine
10
66.5875
20
-27
30
0
11
98.1
21
-27
31
0
39
0
210
0
220
0
230
1
0
LINE
5
16D
100
AcDbEntity
8
0
62
256
6
ByLayer
370
-2
48
1
60
0
100
AcDbLine
10
1.5875
20
0
30
0
11
98.1
21
0
31
0
39
0
210
0
220
0
230
1
0
LINE
5
16E
100
AcDbEntity
8
0
62
256
6
ByLayer
370
-2
48
1
60
0
100
AcDbLine
10
96.1
20
-23.5
30
0
11
96.1
21
-3.5
31
0
39
0
210
0
220
0
230
1
0
SOLID
5
16F
100
AcDbEntity
8
0
62
256
6
ByLayer
370
-1
48
1
60
0
100
AcDbTrace
10
95.516667
20
-23.5
30
0
11
96.683333
21
-23.5
31
0
12
96.1
22
-27
32
0
13
96.1
23
-27
33
0
39
0
210
0
220
0
230
1
0
SOLID
5
170
100
AcDbEntity
8
0
62
256
6
ByLayer
370
-1
48
1
60
0
100
AcDbTrace
10
96.683333
20
-3.5
30
0
11
95.516667
21
-3.5
31
0
12
96.1
22
0
32
0
13
96.1
23
0
33
0
39
0
210
0
220
0
230
1
0
MTEXT
5
171
100
AcDbEntity
8
0
62
256
6
ByLayer
370
18
48
1
60
0
100
AcDbMText
10
89.1
20
-13.5
30
0
210
0
220
0
230
1
1
\A1;27
40
3.5
41
0
44
1
50
90
71
5
72
5
7
iso_b_vert
0
POINT
5
172
100
AcDbEntity
8
Defpoints
62
0
6
ByLayer
370
-1
48
1
60
0
100
AcDbPoint
10
65
20
-27
30
0
39
0
210
0
220
0
230
1
50
360
0
POINT
5
173
100
AcDbEntity
8
Defpoints
62
0
6
ByLayer
370
-1
48
1
60
0
100
AcDbPoint
10
0
20
0
30
0
39
0
210
0
220
0
230
1
50
360
0
POINT
5
174
100
AcDbEntity
8
Defpoints
62
0
6
ByLayer
370
-1
48
1
60
0
100
AcDbPoint
10
96.1
20
0
30
0
39
0
210
0
220
0
230
1
50
360
0
ENDBLK
5
16B
100
AcDbEntity
8
0
100
AcDbBlockEnd
0
BLOCK
5
17D
100
AcDbEntity
8
0
100
AcDbBlockBegin
2
_U0
70
0
10
0
20
0
30
0
3
_U0
0
MTEXT
5
177
100
AcDbEntity
8
2
62
256
6
ByLayer
370
18
48
1
60
0
100
AcDbMText
10
95.410366
20
-15.432966
30
0
210
0
220
0
230
1
1
\W0.6740;27
40
3.5
41
0
44
1.084337
50
90
71
7
72
5
7
iso_b_vert
0
LINE
5
178
100
AcDbEntity
8
2
62
256
6
ByLayer
370
13
48
1
60
0
100
AcDbLine
10
66.5875
20
-27
30
0
11
98.1
21
-27
31
0
39
0
210
0
220
0
230
1
0
LINE
5
179
100
AcDbEntity
8
2
62
256
6
ByLayer
370
13
48
1
60
0
100
AcDbLine
10
1.5875
20
0
30
0
11
98.1
21
0
31
0
39
0
210
0
220
0
230
1
0
LINE
5
17A
100
AcDbEntity
8
2
62
256
6
ByLayer
370
13
48
1
60
0
100
AcDbLine
10
96.1
20
-27
30
0
11
96.1
21
0
31
0
39
0
210
0
220
0
230
1
0
SOLID
5
17B
100
AcDbEntity
8
2
62
256
6
ByLayer
370
18
48
1
60
0
100
AcDbTrace
10
96.1
20
-27
30
0
11
95.639216
21
-23.500002
31
0
12
96.560784
22
-23.499998
32
0
13
96.560784
23
-23.499998
33
0
39
0
210
0
220
0
230
1
0
SOLID
5
17C
100
AcDbEntity
8
2
62
256
6
ByLayer
370
18
48
1
60
0
100
AcDbTrace
10
96.1
20
0
30
0
11
96.560784
21
-3.499998
31
0
12
95.639216
22
-3.500002
32
0
13
95.639216
23
-3.500002
33
0
39
0
210
0
220
0
230
1
0
ENDBLK
5
17E
100
AcDbEntity
8
0
100
AcDbBlockEnd
0
BLOCK
5
183
100
AcDbEntity
8
0
100
AcDbBlockBegin
2
*D3
70
1
10
0
20
0
30
0
3
*D3
0
LINE
5
185
100
AcDbEntity
8
0
62
256
6
ByLayer
370
-2
48
1
60
0
100
AcDbLine
10
66.5875
20
-22
30
0
11
87.1
21
-22
31
0
39
0
210
0
220
0
230
1
0
LINE
5
186
100
AcDbEntity
8
0
62
256
6
ByLayer
370
-2
48
1
60
0
100
AcDbLine
10
66.5875
20
-27
30
0
11
87.1
21
-27
31
0
39
0
210
0
220
0
230
1
0
LINE
5
187
100
AcDbEntity
8
0
62
256
6
ByLayer
370
-2
48
1
60
0
100
AcDbLine
10
85.1
20
-18.5
30
0
11
85.1
21
-15
31
0
39
0
210
0
220
0
230
1
0
LINE
5
188
100
AcDbEntity
8
0
62
256
6
ByLayer
370
-2
48
1
60
0
100
AcDbLine
10
85.1
20
-30.5
30
0
11
85.1
21
-34
31
0
39
0
210
0
220
0
230
1
0
SOLID
5
189
100
AcDbEntity
8
0
62
256
6
ByLayer
370
-1
48
1
60
0
100
AcDbTrace
10
84.516667
20
-18.5
30
0
11
85.683333
21
-18.5
31
0
12
85.1
22
-22
32
0
13
85.1
23
-22
33
0
39
0
210
0
220
0
230
1
0
SOLID
5
18A
100
AcDbEntity
8
0
62
256
6
ByLayer
370
-1
48
1
60
0
100
AcDbTrace
10
85.683333
20
-30.5
30
0
11
84.516667
21
-30.5
31
0
12
85.1
22
-27
32
0
13
85.1
23
-27
33
0
39
0
210
0
220
0
230
1
0
MTEXT
5
18B
100
AcDbEntity
8
0
62
256
6
ByLayer
370
18
48
1
60
0
100
AcDbMText
10
78.1
20
-24.5
30
0
210
0
220
0
230
1
1
\A1;5
40
3.5
41
0
44
1
50
90
71
5
72
5
7
iso_b_vert
0
POINT
5
18C
100
AcDbEntity
8
Defpoints
62
0
6
ByLayer
370
-1
48
1
60
0
100
AcDbPoint
10
65
20
-22
30
0
39
0
210
0
220
0
230
1
50
360
0
POINT
5
18D
100
AcDbEntity
8
Defpoints
62
0
6
ByLayer
370
-1
48
1
60
0
100
AcDbPoint
10
65
20
-27
30
0
39
0
210
0
220
0
230
1
50
360
0
POINT
5
18E
100
AcDbEntity
8
Defpoints
62
0
6
ByLayer
370
-1
48
1
60
0
100
AcDbPoint
10
85.1
20
-27
30
0
39
0
210
0
220
0
230
1
50
360
0
ENDBLK
5
184
100
AcDbEntity
8
0
100
AcDbBlockEnd
0
BLOCK
5
196
100
AcDbEntity
8
0
100
AcDbBlockBegin
2
_U1
70
0
10
0
20
0
30
0
3
_U1
0
MTEXT
5
190
100
AcDbEntity
8
2
62
256
6
ByLayer
370
18
48
1
60
0
100
AcDbMText
10
84.410366
20
-25.125233
30
0
210
0
220
0
230
1
1
\W0.5404;5
40
3.5
41
0
44
1.084337
50
90
71
7
72
5
7
iso_b_vert
0
LINE
5
191
100
AcDbEntity
8
2
62
256
6
ByLayer
370
13
48
1
60
0
100
AcDbLine
10
66.5875
20
-22
30
0
11
87.1
21
-22
31
0
39
0
210
0
220
0
230
1
0
LINE
5
192
100
AcDbEntity
8
2
62
256
6
ByLayer
370
13
48
1
60
0
100
AcDbLine
10
66.5875
20
-27
30
0
11
87.1
21
-27
31
0
39
0
210
0
220
0
230
1
0
LINE
5
193
100
AcDbEntity
8
2
62
256
6
ByLayer
370
13
48
1
60
0
100
AcDbLine
10
85.1
20
-13.25
30
0
11
85.1
21
-35.75
31
0
39
0
210
0
220
0
230
1
0
SOLID
5
194
100
AcDbEntity
8
2
62
256
6
ByLayer
370
18
48
1
60
0
100
AcDbTrace
10
85.1
20
-22
30
0
11
84.639216
21
-18.500002
31
0
12
85.560784
22
-18.499998
32
0
13
85.560784
23
-18.499998
33
0
39
0
210
0
220
0
230
1
0
SOLID
5
195
100
AcDbEntity
8
2
62
256
6
ByLayer
370
18
48
1
60
0
100
AcDbTrace
10
85.1
20
-27
30
0
11
85.560784
21
-30.499998
31
0
12
84.639216
22
-30.500002
32
0
13
84.639216
23
-30.500002
33
0
39
0
210
0
220
0
230
1
0
ENDBLK
5
197
100
AcDbEntity
8
0
100
AcDbBlockEnd
0
BLOCK
5
19C
100
AcDbEntity
8
0
100
AcDbBlockBegin
2
*D5
70
1
10
0
20
0
30
0
3
*D5
0
LINE
5
19E
100
AcDbEntity
8
0
62
256
6
ByLayer
370
-2
48
1
60
0
100
AcDbLine
10
47
20
-20.739023
30
0
11
47
21
17.923477
31
0
39
0
210
0
220
0
230
1
0
LINE
5
19F
100
AcDbEntity
8
0
62
256
6
ByLayer
370
-2
48
1
60
0
100
AcDbLine
10
65
20
-20.4125
30
0
11
65
21
17.923477
31
0
39
0
210
0
220
0
230
1
0
LINE
5
1A0
100
AcDbEntity
8
0
62
256
6
ByLayer
370
-2
48
1
60
0
100
AcDbLine
10
50.5
20
15.923477
30
0
11
61.5
21
15.923477
31
0
39
0
210
0
220
0
230
1
0
SOLID
5
1A1
100
AcDbEntity
8
0
62
256
6
ByLayer
370
-1
48
1
60
0
100
AcDbTrace
10
50.5
20
16.50681
30
0
11
50.5
21
15.340144
31
0
12
47
22
15.923477
32
0
13
47
23
15.923477
33
0
39
0
210
0
220
0
230
1
0
SOLID
5
1A2
100
AcDbEntity
8
0
62
256
6
ByLayer
370
-1
48
1
60
0
100
AcDbTrace
10
61.5
20
15.340144
30
0
11
61.5
21
16.50681
31
0
12
65
22
15.923477
32
0
13
65
23
15.923477
33
0
39
0
210
0
220
0
230
1
0
MTEXT
5
1A3
100
AcDbEntity
8
0
62
256
6
ByLayer
370
18
48
1
60
0
100
AcDbMText
10
56
20
22.923477
30
0
210
0
220
0
230
1
1
\A1;18
40
3.5
41
0
44
1
50
0
71
5
72
5
7
iso_b_vert
0
POINT
5
1A4
100
AcDbEntity
8
Defpoints
62
0
6
ByLayer
370
-1
48
1
60
0
100
AcDbPoint
10
47
20
-22.326523
30
0
39
0
210
0
220
0
230
1
50
360
0
POINT
5
1A5
100
AcDbEntity
8
Defpoints
62
0
6
ByLayer
370
-1
48
1
60
0
100
AcDbPoint
10
65
20
-22
30
0
39
0
210
0
220
0
230
1
50
360
0
POINT
5
1A6
100
AcDbEntity
8
Defpoints
62
0
6
ByLayer
370
-1
48
1
60
0
100
AcDbPoint
10
65
20
15.923477
30
0
39
0
210
0
220
0
230
1
50
360
0
ENDBLK
5
19D
100
AcDbEntity
8
0
100
AcDbBlockEnd
0
BLOCK
5
1AE
100
AcDbEntity
8
0
100
AcDbBlockBegin
2
_U2
70
0
10
0
20
0
30
0
3
_U2
0
MTEXT
5
1A8
100
AcDbEntity
8
2
62
256
6
ByLayer
370
18
48
1
60
0
100
AcDbMText
10
54.532467
20
16.956111
30
0
210
0
220
0
230
1
1
\W0.5321;18
40
3.5
41
0
44
1.084337
50
0
71
7
72
5
7
iso_b_vert
0
LINE
5
1A9
100
AcDbEntity
8
2
62
256
6
ByLayer
370
13
48
1
60
0
100
AcDbLine
10
47
20
-20.739023
30
0
11
47
21
17.923477
31
0
39
0
210
0
220
0
230
1
0
LINE
5
1AA
100
AcDbEntity
8
2
62
256
6
ByLayer
370
13
48
1
60
0
100
AcDbLine
10
65
20
-20.4125
30
0
11
65
21
17.923477
31
0
39
0
210
0
220
0
230
1
0
LINE
5
1AB
100
AcDbEntity
8
2
62
256
6
ByLayer
370
13
48
1
60
0
100
AcDbLine
10
47
20
15.923477
30
0
11
65
21
15.923477
31
0
39
0
210
0
220
0
230
1
0
SOLID
5
1AC
100
AcDbEntity
8
2
62
256
6
ByLayer
370
18
48
1
60
0
100
AcDbTrace
10
47
20
15.923477
30
0
11
50.499998
21
16.384261
31
0
12
50.500002
22
15.462693
32
0
13
50.500002
23
15.462693
33
0
39
0
210
0
220
0
230
1
0
SOLID
5
1AD
100
AcDbEntity
8
2
62
256
6
ByLayer
370
18
48
1
60
0
100
AcDbTrace
10
65
20
15.923477
30
0
11
61.500002
21
15.462693
31
0
12
61.499998
22
16.384261
32
0
13
61.499998
23
16.384261
33
0
39
0
210
0
220
0
230
1
0
ENDBLK
5
1AF
100
AcDbEntity
8
0
100
AcDbBlockEnd
0
BLOCK
5
1B4
100
AcDbEntity
8
0
100
AcDbBlockBegin
2
*D7
70
1
10
0
20
0
30
0
3
*D7
0
LINE
5
1B6
100
AcDbEntity
8
0
62
256
6
ByLayer
370
-2
48
1
60
0
100
AcDbLine
10
0
20
-1.5875
30
0
11
0
21
-47.75
31
0
39
0
210
0
220
0
230
1
0
LINE
5
1B7
100
AcDbEntity
8
0
62
256
6
ByLayer
370
-2
48
1
60
0
100
AcDbLine
10
65
20
-28.5875
30
0
11
65
21
-47.75
31
0
39
0
210
0
220
0
230
1
0
LINE
5
1B8
100
AcDbEntity
8
0
62
256
6
ByLayer
370
-2
48
1
60
0
100
AcDbLine
10
3.5
20
-45.75
30
0
11
61.5
21
-45.75
31
0
39
0
210
0
220
0
230
1
0
SOLID
5
1B9
100
AcDbEntity
8
0
62
256
6
ByLayer
370
-1
48
1
60
0
100
AcDbTrace
10
3.5
20
-45.166667
30
0
11
3.5
21
-46.333333
31
0
12
0
22
-45.75
32
0
13
0
23
-45.75
33
0
39
0
210
0
220
0
230
1
0
SOLID
5
1BA
100
AcDbEntity
8
0
62
256
6
ByLayer
370
-1
48
1
60
0
100
AcDbTrace
10
61.5
20
-46.333333
30
0
11
61.5
21
-45.166667
31
0
12
65
22
-45.75
32
0
13
65
23
-45.75
33
0
39
0
210
0
220
0
230
1
0
MTEXT
5
1BB
100
AcDbEntity
8
0
62
256
6
ByLayer
370
18
48
1
60
0
100
AcDbMText
10
32.5
20
-38.75
30
0
210
0
220
0
230
1
1
\A1;65
40
3.5
41
0
44
1
50
0
71
5
72
5
7
iso_b_vert
0
POINT
5
1BC
100
AcDbEntity
8
Defpoints
62
0
6
ByLayer
370
-1
48
1
60
0
100
AcDbPoint
10
0
20
0
30
0
39
0
210
0
220
0
230
1
50
360
0
POINT
5
1BD
100
AcDbEntity
8
Defpoints
62
0
6
ByLayer
370
-1
48
1
60
0
100
AcDbPoint
10
65
20
-27
30
0
39
0
210
0
220
0
230
1
50
360
0
POINT
5
1BE
100
AcDbEntity
8
Defpoints
62
0
6
ByLayer
370
-1
48
1
60
0
100
AcDbPoint
10
65
20
-45.75
30
0
39
0
210
0
220
0
230
1
50
360
0
ENDBLK
5
1B5
100
AcDbEntity
8
0
100
AcDbBlockEnd
0
BLOCK
5
1C6
100
AcDbEntity
8
0
100
AcDbBlockBegin
2
_U3
70
0
10
0
20
0
30
0
3
_U3
0
MTEXT
5
1C0
100
AcDbEntity
8
2
62
256
6
ByLayer
370
18
48
1
60
0
100
AcDbMText
10
30.595034
20
-44.717366
30
0
210
0
220
0
230
1
1
\W0.6740;65
40
3.5
41
0
44
1.084337
50
0
71
7
72
5
7
iso_b_vert
0
LINE
5
1C1
100
AcDbEntity
8
2
62
256
6
ByLayer
370
13
48
1
60
0
100
AcDbLine
10
0
20
-1.5875
30
0
11
0
21
-47.75
31
0
39
0
210
0
220
0
230
1
0
LINE
5
1C2
100
AcDbEntity
8
2
62
256
6
ByLayer
370
13
48
1
60
0
100
AcDbLine
10
65
20
-28.5875
30
0
11
65
21
-47.75
31
0
39
0
210
0
220
0
230
1
0
LINE
5
1C3
100
AcDbEntity
8
2
62
256
6
ByLayer
370
13
48
1
60
0
100
AcDbLine
10
0
20
-45.75
30
0
11
65
21
-45.75
31
0
39
0
210
0
220
0
230
1
0
SOLID
5
1C4
100
AcDbEntity
8
2
62
256
6
ByLayer
370
18
48
1
60
0
100
AcDbTrace
10
0
20
-45.75
30
0
11
3.499998
21
-45.289216
31
0
12
3.500002
22
-46.210784
32
0
13
3.500002
23
-46.210784
33
0
39
0
210
0
220
0
230
1
0
SOLID
5
1C5
100
AcDbEntity
8
2
62
256
6
ByLayer
370
18
48
1
60
0
100
AcDbTrace
10
65
20
-45.75
30
0
11
61.500002
21
-46.210784
31
0
12
61.499998
22
-45.289216
32
0
13
61.499998
23
-45.289216
33
0
39
0
210
0
220
0
230
1
0
ENDBLK
5
1C7
100
AcDbEntity
8
0
100
AcDbBlockEnd
0
ENDSEC
0
SECTION
2
ENTITIES
0
ARC
5
ED
100
AcDbEntity
8
1
62
256
6
ByLayer
370
18
48
1
60
0
100
AcDbCircle
39
0
10
47
20
-20.726523
30
0
40
1.6
210
0
220
0
230
1
100
AcDbArc
50
180
51
193.372089
0
ARC
5
EE
100
AcDbEntity
8
1
62
256
6
ByLayer
370
18
48
1
60
0
100
AcDbCircle
39
0
10
20.279208
20
-21.2
30
0
40
1.2
210
0
220
0
230
1
100
AcDbArc
50
60.729952
51
90
0
ARC
5
EF
100
AcDbEntity
8
SK1
62
256
6
ByLayer
370
18
48
1
60
0
100
AcDbCircle
39
0
10
-0.6
20
15
30
0
40
0.999999999999994
210
0
220
0
230
1
100
AcDbArc
50
293.578178
51
306.869898
0
ARC
5
F0
100
AcDbEntity
8
SK1
62
256
6
ByLayer
370
18
48
1
60
0
100
AcDbCircle
39
0
10
-0.6
20
-15
30
0
40
0.999999999999994
210
0
220
0
230
1
100
AcDbArc
50
53.130102
51
66.421822
0
ARC
5
F4
100
AcDbEntity
8
1
62
256
6
ByLayer
370
18
48
1
60
0
100
AcDbCircle
39
0
10
26.4
20
-21.15
30
0
40
1
210
0
220
0
230
1
100
AcDbArc
50
360
51
90
0
CIRCLE
5
F1
100
AcDbEntity
8
1
62
256
6
ByLayer
370
18
48
1
60
0
100
AcDbCircle
10
38.65
20
-14.346404
30
0
40
2.55
39
0
210
0
220
0
230
1
0
CIRCLE
5
F2
100
AcDbEntity
8
1
62
256
6
ByLayer
370
18
48
1
60
0
100
AcDbCircle
10
38.65
20
-14.346404
30
0
40
3.3
39
0
210
0
220
0
230
1
0
CIRCLE
5
F3
100
AcDbEntity
8
1
62
256
6
ByLayer
370
18
48
1
60
0
100
AcDbCircle
10
38.65
20
-14.346404
30
0
40
5.75
39
0
210
0
220
0
230
1
0
ELLIPSE
5
F5
100
AcDbEntity
8
1
62
256
6
ByLayer
370
18
48
1
60
0
100
AcDbEllipse
10
71.428571
20
-57.201523
30
0
11
1.86905544752056E-15
21
30.5249999999863
31
0
210
0
220
0
230
1
40
0.857143
41
0.287880184493757
42
0.716346822809809
0
ELLIPSE
5
F6
100
AcDbEntity
8
1
62
256
6
ByLayer
370
18
48
1
60
0
100
AcDbEllipse
10
500.328752
20
-57.174093
30
0
11
1530.22538506595
21
-4.24125810179632
31
0
210
0
220
0
230
1
40
0.019736
41
1.8642290036509
42
1.86591536476639
0
ELLIPSE
5
F7
100
AcDbEntity
8
1
62
256
6
ByLayer
370
18
48
1
60
0
100
AcDbEllipse
10
56.512724
20
-16.038901
30
0
11
0.729844553605419
21
42.1246680538556
31
0
210
0
220
0
230
1
40
0.015338
41
-1.77857957996251
42
-1.76525781960847
0
ELLIPSE
5
F8
100
AcDbEntity
8
1
62
256
6
ByLayer
370
18
48
1
60
0
100
AcDbEllipse
10
55.347532
20
-24.682459
30
0
11
0.143255991280289
21
0.990634701107487
31
0
210
0
220
0
230
1
40
0.959706
41
0
42
6.28318530717959
0
ELLIPSE
5
F9
100
AcDbEntity
8
1
62
256
6
ByLayer
370
18
48
1
60
0
100
AcDbEllipse
10
57.851203
20
-57.201523
30
0
11
1.86905544734921E-15
21
30.5249999971877
31
0
210
0
220
0
230
1
40
0.885147
41
0.0508769966699417
42
0.161746074869272
0
ELLIPSE
5
FA
100
AcDbEntity
8
1
62
256
6
ByLayer
370
18
48
1
60
0
100
AcDbEllipse
10
57.851203
20
-47.001523
30
0
11
1.51085808907337E-15
21
24.6750000007352
31
0
210
0
220
0
230
1
40
0.885147
41
0.0561512991807706
42
0.200563782061113
0
ELLIPSE
5
FB
100
AcDbEntity
8
1
62
256
6
ByLayer
370
18
48
1
60
0
100
AcDbEllipse
10
-104.480841
20
-47.004363
30
0
11
1914.11746985159
21
3.43544226504948
31
0
210
0
220
0
230
1
40
0.012767
41
1.48656791032735
42
1.49155183391244
0
ELLIPSE
5
FC
100
AcDbEntity
8
1
62
256
6
ByLayer
370
18
48
1
60
0
100
AcDbEllipse
10
60.516212
20
-57.201523
30
0
11
43.5676614938044
21
5.10375707792326E-14
31
0
210
0
220
0
230
1
40
0.700634
41
1.73254240163166
42
1.83642501077955
0
ELLIPSE
5
FD
100
AcDbEntity
8
1
62
256
6
ByLayer
370
18
48
1
60
0
100
AcDbEllipse
10
60.516212
20
-47.001523
30
0
11
35.2180850834461
21
4.12564147013267E-14
31
0
210
0
220
0
230
1
40
0.700634
41
1.77136010885885
42
1.96468923198283
0
ELLIPSE
5
FE
100
AcDbEntity
8
1
62
256
6
ByLayer
370
18
48
1
60
0
100
AcDbEllipse
10
20.174537
20
0
30
0
11
1.22460635382231E-15
21
19.9999999999989
31
0
210
0
220
0
230
1
40
0.008727
41
0.773885849398402
42
2.36770680419139
0
ELLIPSE
5
FF
100
AcDbEntity
8
1
62
256
6
ByLayer
370
18
48
1
60
0
100
AcDbEllipse
10
16.948929
20
0
30
0
11
9.36741787978128
21
19.7417491527497
31
0
210
0
220
0
230
1
40
0.341999
41
2.04527312608987
42
2.98886640869144
0
ELLIPSE
5
100
100
AcDbEntity
8
1
62
256
6
ByLayer
370
18
48
1
60
0
100
AcDbEllipse
10
-0.948929
20
0
30
0
11
9.36741787978225
21
-19.7417491527502
31
0
210
0
220
0
230
1
40
0.341999
41
0.152726244898341
42
1.09631952749989
0
ELLIPSE
5
101
100
AcDbEntity
8
1
62
256
6
ByLayer
370
18
48
1
60
0
100
AcDbEllipse
10
-0.948929
20
0
30
0
11
9.36741787978194
21
19.7417491527498
31
0
210
0
220
0
230
1
40
0.341999
41
-1.0963195274999
42
-0.152726244898351
0
ELLIPSE
5
102
100
AcDbEntity
8
1
62
256
6
ByLayer
370
18
48
1
60
0
100
AcDbEllipse
10
16.948929
20
0
30
0
11
9.36741787978144
21
-19.7417491527498
31
0
210
0
220
0
230
1
40
0.341999
41
-2.98886640869144
42
-2.04527312608987
0
ELLIPSE
5
103
100
AcDbEntity
8
1
62
256
6
ByLayer
370
18
48
1
60
0
100
AcDbEllipse
10
64.7
20
-26.700183
30
0
11
0.3
21
0
31
0
210
0
220
0
230
1
40
0.999391
41
-1.61442955806198
42
0
0
ELLIPSE
5
104
100
AcDbEntity
8
1
62
256
6
ByLayer
370
18
48
1
60
0
100
AcDbEllipse
10
64.7
20
-22.302863
30
0
11
-0.3
21
3.67381906146713E-17
31
0
210
0
220
0
230
1
40
0.999391
41
3.14159265358979
42
-1.52716309552782
0
ELLIPSE
5
105
100
AcDbEntity
8
1
62
256
6
ByLayer
370
18
48
1
60
0
100
AcDbEllipse
10
57.346355
20
-22.599108
30
0
11
0.0719339701277276
21
-0.0719339881381593
31
0
210
0
220
0
230
1
40
0.965689
41
-2.37364765832482
42
-2.19911473164566
0
ELLIPSE
5
106
100
AcDbEntity
8
1
62
256
6
ByLayer
370
18
48
1
60
0
100
AcDbEllipse
10
57.55644
20
-23.797164
30
0
11
0.0719339801174705
21
-0.0719339799666708
31
0
210
0
220
0
230
1
40
0.965689
41
-2.19911484944992
42
-1.70956430379185
0
ELLIPSE
5
107
100
AcDbEntity
8
1
62
256
6
ByLayer
370
18
48
1
60
0
100
AcDbEllipse
10
57.55644
20
-25.130948
30
0
11
0.0719339803365334
21
-0.0719339798302572
31
0
210
0
220
0
230
1
40
0.965689
41
-3.03773126613613
42
-2.54818072060999
0
ELLIPSE
5
108
100
AcDbEntity
8
1
62
256
6
ByLayer
370
18
48
1
60
0
100
AcDbEllipse
10
57.346355
20
-26.314341
30
0
11
0.0719339714118401
21
-0.0719339868656428
31
0
210
0
220
0
230
1
40
0.965689
41
-2.54818060092972
42
-2.37364767444964
0
POINT
5
70
100
AcDbEntity
8
81
62
256
6
ByLayer
370
18
48
1
60
0
100
AcDbPoint
10
65
20
-27
30
0
39
0
210
0
220
0
230
1
50
360
0
POINT
5
72
100
AcDbEntity
8
80
62
256
6
ByLayer
370
18
48
1
60
0
100
AcDbPoint
10
0
20
0
30
0
39
0
210
0
220
0
230
1
50
360
0
POINT
5
74
100
AcDbEntity
8
1
62
256
6
ByLayer
370
18
48
1
60
1
100
AcDbPoint
10
65
20
-27
30
0
39
0
210
0
220
0
230
1
50
360
0
POINT
5
76
100
AcDbEntity
8
1
62
256
6
ByLayer
370
18
48
1
60
1
100
AcDbPoint
10
0
20
0
30
0
39
0
210
0
220
0
230
1
50
360
0
POINT
5
77
100
AcDbEntity
8
1
62
256
6
ByLayer
370
18
48
1
60
1
100
AcDbPoint
10
65
20
-22
30
0
39
0
210
0
220
0
230
1
50
360
0
POINT
5
78
100
AcDbEntity
8
1
62
256
6
ByLayer
370
18
48
1
60
1
100
AcDbPoint
10
65
20
-27
30
0
39
0
210
0
220
0
230
1
50
360
0
POINT
5
79
100
AcDbEntity
8
1
62
256
6
ByLayer
370
18
48
1
60
1
100
AcDbPoint
10
47
20
-22.326523
30
0
39
0
210
0
220
0
230
1
50
360
0
POINT
5
7A
100
AcDbEntity
8
1
62
256
6
ByLayer
370
18
48
1
60
1
100
AcDbPoint
10
65
20
-22
30
0
39
0
210
0
220
0
230
1
50
360
0
POINT
5
7B
100
AcDbEntity
8
1
62
256
6
ByLayer
370
18
48
1
60
1
100
AcDbPoint
10
0
20
0
30
0
39
0
210
0
220
0
230
1
50
360
0
POINT
5
7C
100
AcDbEntity
8
1
62
256
6
ByLayer
370
18
48
1
60
1
100
AcDbPoint
10
65
20
-27
30
0
39
0
210
0
220
0
230
1
50
360
0
SPLINE
5
109
100
AcDbEntity
8
SK1
62
256
6
ByLayer
370
18
48
1
60
0
100
AcDbSpline
70
4
71
2
72
6
73
3
40
0
40
0
40
0
40
1
40
1
40
1
41
1
10
-1.4950399779393
20
-13.7130167789402
30
0
41
1
10
-0.94497688887391
20
-13.7267321696587
30
0
41
1
10
-0.394913799811292
20
-13.740447551665
30
0
0
SPLINE
5
10A
100
AcDbEntity
8
SK1
62
256
6
ByLayer
370
18
48
1
60
0
100
AcDbSpline
70
4
71
2
72
6
73
3
40
0
40
0
40
0
40
1
40
1
40
1
41
1
10
-0.394913799811292
20
13.7404477916605
30
0
41
1
10
-0.94497688887391
20
13.7267324097107
30
0
41
1
10
-1.4950399779393
20
13.7130170190491
30
0
0
SPLINE
5
10B
100
AcDbEntity
8
SK1
62
256
6
ByLayer
370
18
48
1
60
0
100
AcDbSpline
70
4
71
2
72
6
73
3
40
0
40
0
40
0
40
1
40
1
40
1
41
1
10
-24
20
-12.6317156240216
30
0
41
1
10
-23.249999936895
20
-13.0645339427607
30
0
41
1
10
-22.5
20
-13.4973518251592
30
0
0
SPLINE
5
10C
100
AcDbEntity
8
SK1
62
256
6
ByLayer
370
18
48
1
60
0
100
AcDbSpline
70
4
71
2
72
6
73
3
40
0
40
0
40
0
40
1
40
1
40
1
41
1
10
-22.5
20
13.4973518870616
30
0
41
1
10
-23.2499999368976
20
13.0645340070691
30
0
41
1
10
-24
20
12.6317156907499
30
0
0
SPLINE
5
10D
100
AcDbEntity
8
SK1
62
256
6
ByLayer
370
18
48
1
60
0
100
AcDbSpline
70
4
71
3
72
13
73
9
40
0
40
0
40
0
40
0
40
0.239505896267058
40
0.368426445719716
40
0.500072184804663
40
0.631705935597398
40
0.760593415643758
40
1
40
1
40
1
40
1
41
1
10
-1.4950399779393
20
13.8252671707288
30
0
41
1
10
-1.52110926509485
20
13.8248650525742
30
0
41
1
10
-1.55883864918067
20
13.8310346548635
30
0
41
1
10
-1.60627567892249
20
13.8540680395026
30
0
41
1
10
-1.63886244003068
20
13.8792240145369
30
0
41
1
10
-1.66563490778343
20
13.9104917120148
30
0
41
1
10
-1.69103207617425
20
13.956689925787
30
0
41
1
10
-1.69909121849834
20
13.9940472396764
30
0
41
1
10
-1.7
20
14.020094440518
30
0
0
SPLINE
5
10E
100
AcDbEntity
8
SK1
62
256
6
ByLayer
370
18
48
1
60
0
100
AcDbSpline
70
4
71
3
72
13
73
9
40
0
40
0
40
0
40
0
40
0.239406584968136
40
0.368294065212519
40
0.499927816069781
40
0.631573555071368
40
0.760494104316207
40
1
40
1
40
1
40
1
41
1
10
-1.7
20
-14.0200943498873
30
0
41
1
10
-1.69909121850789
20
-13.9940471489176
30
0
41
1
10
-1.6910320761837
20
-13.9566898348375
30
0
41
1
10
-1.66563490779619
20
-13.9104916208042
30
0
41
1
10
-1.6388624400475
20
-13.8792239231524
30
0
41
1
10
-1.60627567894025
20
-13.8540679479736
30
0
41
1
10
-1.55883864920244
20
-13.8310345631992
30
0
41
1
10
-1.52110926510643
20
-13.8248649608707
30
0
41
1
10
-1.4950399779393
20
-13.825267079015
30
0
0
SPLINE
5
10F
100
AcDbEntity
8
SK1
62
256
6
ByLayer
370
18
48
1
60
0
100
AcDbSpline
70
4
71
2
72
6
73
3
40
0
40
0
40
0
40
1
40
1
40
1
41
1
10
-1.7
20
14.0158108591592
30
0
41
1
10
-12.0999999986036
20
13.7547063780669
30
0
41
1
10
-22.5
20
13.4936010331935
30
0
0
SPLINE
5
110
100
AcDbEntity
8
SK1
62
256
6
ByLayer
370
18
48
1
60
0
100
AcDbSpline
70
4
71
2
72
6
73
3
40
0
40
0
40
0
40
1
40
1
40
1
41
1
10
-22.5
20
-13.4936007996938
30
0
41
1
10
-12.0999999986039
20
-13.7547061446862
30
0
41
1
10
-1.7
20
-14.0158106259661
30
0
0
SPLINE
5
111
100
AcDbEntity
8
1
62
256
6
ByLayer
370
18
48
1
60
0
100
AcDbSpline
70
4
71
3
72
8
73
4
40
0
40
0
40
0
40
0
40
1
40
1
40
1
40
1
41
1
10
21.6181086208002
20
-21.15
30
0
41
1
10
22.1277208883336
20
-23.0888040411828
30
0
41
1
10
22.6397181691676
20
-25.0270696663532
30
0
41
1
10
23.1528376744539
20
-26.9650025632048
30
0
0
SPLINE
5
112
100
AcDbEntity
8
1
62
256
6
ByLayer
370
18
48
1
60
0
100
AcDbSpline
70
4
71
3
72
13
73
9
40
0
40
0
40
0
40
0
40
0.25
40
0.25
40
0.5
40
0.5
40
0.75
40
1
40
1
40
1
40
1
41
1
10
21.4383186059722
20
-20.5113661490067
30
0
41
1
10
21.4520858948432
20
-20.556472929595
30
0
41
1
10
21.4662924930118
20
-20.6040754389587
30
0
41
1
10
21.4955137475119
20
-20.7040067428623
30
0
41
1
10
21.5105416503094
20
-20.7563824475644
30
0
41
1
10
21.5413680767576
20
-20.8658489427406
30
0
41
1
10
21.5721407599337
20
-20.9771002005136
30
0
41
1
10
21.6028030505248
20
-21.0917704333409
30
0
41
1
10
21.6181086208002
20
-21.15
30
0
0
SPLINE
5
113
100
AcDbEntity
8
1
62
256
6
ByLayer
370
18
48
1
60
0
100
AcDbSpline
70
4
71
3
72
37
73
33
40
0
40
0
40
0
40
0
40
0.0312499999999939
40
0.0312499999999939
40
0.0624999999999878
40
0.124999999999976
40
0.124999999999976
40
0.249999999999952
40
0.249999999999952
40
0.28124999999995
40
0.28124999999995
40
0.312499999999948
40
0.312499999999948
40
0.374999999999944
40
0.374999999999944
40
0.499999999999935
40
0.499999999999935
40
0.531249999999937
40
0.531249999999937
40
0.562499999999939
40
0.624999999999946
40
0.687499999999954
40
0.687499999999954
40
0.71874999999996
40
0.71874999999996
40
0.749999999999967
40
0.749999999999967
40
0.874999999999984
40
0.874999999999984
40
0.937499999999992
40
0.937499999999992
40
1
40
1
40
1
40
1
41
1
10
25.6984868062153
20
-20.15
30
0
41
1
10
25.7166468716129
20
-20.15
30
0
41
1
10
25.7348278624924
20
-20.1503026441722
30
0
41
1
10
25.7710200736996
20
-20.1515199119083
30
0
41
1
10
25.8251478383336
20
-20.1542640472837
30
0
41
1
10
25.8787883680968
20
-20.1597947877475
30
0
41
1
10
25.9853953408964
20
-20.1747115212766
30
0
41
1
10
26.05557332095
20
-20.1897651935949
30
0
41
1
10
26.142031458404
20
-20.2158133132914
30
0
41
1
10
26.1592594397488
20
-20.2213869437602
30
0
41
1
10
26.1935824309087
20
-20.2332946985862
30
0
41
1
10
26.21071363883
20
-20.2396444161246
30
0
41
1
10
26.2614428272271
20
-20.2597045787672
30
0
41
1
10
26.2944809288918
20
-20.2744529596624
30
0
41
1
10
26.3911903548482
20
-20.3229299210571
30
0
41
1
10
26.452482300779
20
-20.3608454472228
30
0
41
1
10
26.5246085743136
20
-20.4161384603592
30
0
41
1
10
26.538849498618
20
-20.4276328771289
30
0
41
1
10
26.566585671494
20
-20.4512217709577
30
0
41
1
10
26.6070982913311
20
-20.4875149305458
30
0
41
1
10
26.6691795395501
20
-20.552537278287
30
0
41
1
10
26.7129298297723
20
-20.6094847263934
30
0
41
1
10
26.7434106235182
20
-20.6541388372107
30
0
41
1
10
26.7531814453772
20
-20.6693481189725
30
0
41
1
10
26.7719141602584
20
-20.7004408782497
30
0
41
1
10
26.7809032250099
20
-20.7163769656631
30
0
41
1
10
26.8233963470065
20
-20.7971818684974
30
0
41
1
10
26.8492094126672
20
-20.864454657233
30
0
41
1
10
26.8755873026105
20
-20.9693294913391
30
0
41
1
10
26.8823058864933
20
-21.0049542040871
30
0
41
1
10
26.8913457640989
20
-21.0776165715645
30
0
41
1
10
26.8935668832217
20
-21.1138773293824
30
0
41
1
10
26.8935668832217
20
-21.15
30
0
0
SPLINE
5
114
100
AcDbEntity
8
1
62
256
6
ByLayer
370
18
48
1
60
0
100
AcDbSpline
70
4
71
3
72
27
73
23
40
0
40
0
40
0
40
0
40
0.125
40
0.125
40
0.250000000000001
40
0.250000000000001
40
0.375000000000001
40
0.375000000000001
40
0.437500000000002
40
0.453125000000002
40
0.453125000000002
40
0.468750000000002
40
0.468750000000002
40
0.500000000000001
40
0.500000000000001
40
0.625000000000001
40
0.625000000000001
40
0.750000000000001
40
0.750000000000001
40
0.875
40
0.875
40
1
40
1
40
1
40
1
41
1
10
23.1528376744539
20
-26.9650025632048
30
0
41
1
10
23.2104255747973
20
-27.0675309985762
30
0
41
1
10
23.2822683404005
20
-27.1966076151034
30
0
41
1
10
23.451380462067
20
-27.506503201097
30
0
41
1
10
23.5486417823585
20
-27.6873246213679
30
0
41
1
10
23.7656417983667
20
-28.1003139226071
30
0
41
1
10
23.8853750775775
20
-28.3324820299459
30
0
41
1
10
24.0798893094112
20
-28.7196285707518
30
0
41
1
10
24.1640481532222
20
-28.8890514826208
30
0
41
1
10
24.2518781789065
20
-29.0687325425295
30
0
41
1
10
24.2873001086552
20
-29.1414290878887
30
0
41
1
10
24.3051636508349
20
-29.178205176218
30
0
41
1
10
24.3591290131396
20
-29.2896622995103
30
0
41
1
10
24.3955569107061
20
-29.3653713830999
30
0
41
1
10
24.5798312195474
20
-29.7508639537151
30
0
41
1
10
24.7340514021099
20
-30.0814554996869
30
0
41
1
10
25.0535324206875
20
-30.7856851831758
30
0
41
1
10
25.2187984611757
20
-31.1593273278195
30
0
41
1
10
25.5585145249102
20
-31.9490955181937
30
0
41
1
10
25.7329686012809
20
-32.3652231104213
30
0
41
1
10
26.0897565343439
20
-33.2400901835078
30
0
41
1
10
26.2720933096707
20
-33.6988291483547
30
0
41
1
10
26.4579419025026
20
-34.1792762311684
30
0
0
SPLINE
5
115
100
AcDbEntity
8
1
62
256
6
ByLayer
370
18
48
1
60
0
100
AcDbSpline
70
4
71
3
72
28
73
24
40
0
40
0
40
0
40
0
40
0.0624999999999996
40
0.0624999999999996
40
0.124999999999999
40
0.124999999999999
40
0.249999999999999
40
0.249999999999999
40
0.374999999999998
40
0.374999999999998
40
0.437499999999999
40
0.437499999999999
40
0.499999999999999
40
0.499999999999999
40
0.624999999999998
40
0.624999999999998
40
0.687499999999998
40
0.687499999999998
40
0.749999999999997
40
0.749999999999997
40
0.874999999999999
40
0.874999999999999
40
1
40
1
40
1
40
1
41
1
10
26.8935668832217
20
-26.7412033954536
30
0
41
1
10
26.8484127876768
20
-26.7466422842203
30
0
41
1
10
26.8004918343802
20
-26.7523188092464
30
0
41
1
10
26.6991343919873
20
-26.7640674665256
30
0
41
1
10
26.6460417042698
20
-26.7700995572285
30
0
41
1
10
26.4797166453977
20
-26.7885354076819
30
0
41
1
10
26.3594684337554
20
-26.8012785337708
30
0
41
1
10
26.1004776739124
20
-26.826984810612
30
0
41
1
10
25.9617375046673
20
-26.8399501173177
30
0
41
1
10
25.7391578520784
20
-26.8590390106784
30
0
41
1
10
25.6633343410406
20
-26.8652733439262
30
0
41
1
10
25.5086747608681
20
-26.8773932342497
30
0
41
1
10
25.4298107198614
20
-26.8832812403138
30
0
41
1
10
25.1886692106527
20
-26.9003172935474
30
0
41
1
10
25.0218628835073
20
-26.9108380792206
30
0
41
1
10
24.7624269522804
20
-26.9249164876972
30
0
41
1
10
24.6744055229711
20
-26.9293254081298
30
0
41
1
10
24.4951853247841
20
-26.9374974038045
30
0
41
1
10
24.4049922432885
20
-26.9412141982295
30
0
41
1
10
24.1328436738985
20
-26.9512037181005
30
0
41
1
10
23.9492649742162
20
-26.9563181922776
30
0
41
1
10
23.5778619452077
20
-26.96321727396
30
0
41
1
10
23.3900381795947
20
-26.9650025632048
30
0
41
1
10
23.2
20
-26.9650025632048
30
0
0
SPLINE
5
116
100
AcDbEntity
8
1
62
256
6
ByLayer
370
18
48
1
60
0
100
AcDbSpline
70
4
71
3
72
33
73
29
40
0
40
0
40
0
40
0
40
0.12499999999999
40
0.12499999999999
40
0.187499999999988
40
0.187499999999988
40
0.249999999999986
40
0.249999999999986
40
0.374999999999973
40
0.374999999999973
40
0.406249999999973
40
0.406249999999973
40
0.437499999999973
40
0.437499999999973
40
0.499999999999974
40
0.499999999999974
40
0.624999999999971
40
0.624999999999971
40
0.656249999999973
40
0.656249999999973
40
0.687499999999974
40
0.687499999999974
40
0.749999999999981
40
0.812499999999987
40
0.812499999999987
40
0.874999999999994
40
0.874999999999994
40
1
40
1
40
1
40
1
41
1
10
26.2399371662701
20
-20.15
30
0
41
1
10
26.3073055799086
20
-20.15
30
0
41
1
10
26.3737071097101
20
-20.1560928164737
30
0
41
1
10
26.471827681638
20
-20.1742169369051
30
0
41
1
10
26.5042891595965
20
-20.1817653714511
30
0
41
1
10
26.5687060793496
20
-20.1999701931858
30
0
41
1
10
26.6007892711745
20
-20.2106879811654
30
0
41
1
10
26.6944431525739
20
-20.2470120143587
30
0
41
1
10
26.7539197954091
20
-20.27683308478
30
0
41
1
10
26.8245228466501
20
-20.3211984177274
30
0
41
1
10
26.8384547427218
20
-20.3304289201637
30
0
41
1
10
26.865933423407
20
-20.349619348987
30
0
41
1
10
26.8795095621403
20
-20.3596022780687
30
0
41
1
10
26.9194330677675
20
-20.3905103281784
30
0
41
1
10
26.9448305430945
20
-20.4122683008918
30
0
41
1
10
27.0174441191799
20
-20.4809283792606
30
0
41
1
10
27.061116717457
20
-20.5311832008786
30
0
41
1
10
27.1095201599144
20
-20.5998559011808
30
0
41
1
10
27.1188986620477
20
-20.6139062756216
30
0
41
1
10
27.1368192075823
20
-20.6422915943132
30
0
41
1
10
27.145387868138
20
-20.6566620550862
30
0
41
1
10
27.1699348839129
20
-20.7002996359849
30
0
41
1
10
27.1995792992072
20
-20.759883714225
30
0
41
1
10
27.2230838595618
20
-20.822255435287
30
0
41
1
10
27.2434410153431
20
-20.8860561542408
30
0
41
1
10
27.2520589225316
20
-20.9188114157819
30
0
41
1
10
27.2725521363895
20
-21.0171014793863
30
0
41
1
10
27.2793648984702
20
-21.0832443206102
30
0
41
1
10
27.2793648984702
20
-21.15
30
0
0
SPLINE
5
117
100
AcDbEntity
8
1
62
256
6
ByLayer
370
18
48
1
60
0
100
AcDbSpline
70
4
71
3
72
10
73
6
40
0
40
0
40
0
40
0
40
0.5
40
0.5
40
1
40
1
40
1
40
1
41
1
10
56.6254470700423
20
-22.3654124603521
30
0
41
1
10
56.6527278359656
20
-22.6303992722796
30
0
41
1
10
56.6795223730133
20
-22.8954992204161
30
0
41
1
10
56.7328082472017
20
-23.4257676188495
30
0
41
1
10
56.7592757061303
20
-23.6909418271753
30
0
41
1
10
56.7856651733233
20
-23.9561338176557
30
0
0
SPLINE
5
118
100
AcDbEntity
8
1
62
256
6
ByLayer
370
18
48
1
60
0
100
AcDbSpline
70
4
71
3
72
16
73
12
40
0
40
0
40
0
40
0
40
0.250000000000001
40
0.250000000000001
40
0.500000000000003
40
0.500000000000003
40
0.750000000000005
40
0.750000000000005
40
0.875000000000002
40
0.875000000000002
40
1
40
1
40
1
40
1
41
1
10
56.7634890395271
20
-24.9558684699935
30
0
41
1
10
56.7438871429149
20
-25.089641366533
30
0
41
1
10
56.7240920160181
20
-25.2233471919403
30
0
41
1
10
56.6839144514316
20
-25.4905549844421
30
0
41
1
10
56.6635369909698
20
-25.6240586791555
30
0
41
1
10
56.6218239809333
20
-25.890733511387
30
0
41
1
10
56.600502802338
20
-26.0239223313549
30
0
41
1
10
56.5671999175206
20
-26.2231781183268
30
0
41
1
10
56.5558746686622
20
-26.2895080008178
30
0
41
1
10
56.5325523079099
20
-26.4219020213293
30
0
41
1
10
56.520561308186
20
-26.487968576919
30
0
41
1
10
56.5080247538354
20
-26.5538193472702
30
0
0
SPLINE
5
119
100
AcDbEntity
8
1
62
256
6
ByLayer
370
18
48
1
60
0
100
AcDbSpline
70
4
71
3
72
8
73
4
40
0
40
0
40
0
40
0
40
1
40
1
40
1
40
1
41
1
10
56.9244125281242
20
-24.8780887307416
30
0
41
1
10
56.8708316212017
20
-24.9042988955392
30
0
41
1
10
56.8172122159591
20
-24.9303278740947
30
0
41
1
10
56.7634890395271
20
-24.9558684699935
30
0
0
SPLINE
5
11A
100
AcDbEntity
8
1
62
256
6
ByLayer
370
18
48
1
60
0
100
AcDbSpline
70
4
71
3
72
20
73
16
40
0
40
0
40
0
40
0
40
0.125000000000051
40
0.125000000000051
40
0.250000000000102
40
0.250000000000102
40
0.500000000000127
40
0.500000000000127
40
0.625000000000096
40
0.625000000000096
40
0.750000000000064
40
0.750000000000064
40
0.875000000000032
40
0.875000000000032
40
1
40
1
40
1
40
1
41
1
10
56.9943622839539
20
-24.7398085750061
30
0
41
1
10
56.9942031164764
20
-24.7475499702564
30
0
41
1
10
56.9936419839545
20
-24.7551995085849
30
0
41
1
10
56.9917336658156
20
-24.770318956643
30
0
41
1
10
56.9903753192888
20
-24.7778341522566
30
0
41
1
10
56.985138059705
20
-24.7997880413107
30
0
41
1
10
56.980236241887
20
-24.8132718275047
30
0
41
1
10
56.9707959445691
20
-24.8317920868427
30
0
41
1
10
56.9673509517121
20
-24.8375588374593
30
0
41
1
10
56.9599737212601
20
-24.8481802092434
30
0
41
1
10
56.9560290762965
20
-24.853058941531
30
0
41
1
10
56.9476234343752
20
-24.8619452568902
30
0
41
1
10
56.9431539177121
20
-24.8659453539497
30
0
41
1
10
56.9339983519623
20
-24.8728066015649
30
0
41
1
10
56.9292767294434
20
-24.8757093100579
30
0
41
1
10
56.9244125281242
20
-24.8780887307416
30
0
0
SPLINE
5
11B
100
AcDbEntity
8
1
62
256
6
ByLayer
370
18
48
1
60
0
100
AcDbSpline
70
4
71
3
72
18
73
14
40
0
40
0
40
0
40
0
40
0.12499999999999
40
0.12499999999999
40
0.24999999999998
40
0.24999999999998
40
0.374999999999969
40
0.374999999999969
40
0.499999999999959
40
0.499999999999959
40
0.74999999999998
40
0.74999999999998
40
1
40
1
40
1
40
1
41
1
10
56.9417305933328
20
-24.0464193909012
30
0
41
1
10
56.946483033355
20
-24.0491889896597
30
0
41
1
10
56.9510658802377
20
-24.0524706521493
30
0
41
1
10
56.9598919302174
20
-24.0600594859699
30
0
41
1
10
56.9641675956297
20
-24.0644076491874
30
0
41
1
10
56.9721811542745
20
-24.0739845862516
30
0
41
1
10
56.9759088882314
20
-24.0791864924835
30
0
41
1
10
56.982813386585
20
-24.0904066295165
30
0
41
1
10
56.9860032871493
20
-24.0964542666406
30
0
41
1
10
56.9946133643527
20
-24.115699054481
30
0
41
1
10
56.998924863986
20
-24.1295493904489
30
0
41
1
10
57.0046507362934
20
-24.1593196075947
30
0
41
1
10
57.0059225386053
20
-24.1745443890833
30
0
41
1
10
57.0056084741248
20
-24.1899793093095
30
0
0
SPLINE
5
11C
100
AcDbEntity
8
1
62
256
6
ByLayer
370
18
48
1
60
0
100
AcDbSpline
70
4
71
3
72
8
73
4
40
0
40
0
40
0
40
0
40
1
40
1
40
1
40
1
41
1
10
56.7856651733233
20
-23.9561338176557
30
0
41
1
10
56.8377538074513
20
-23.9859659568982
30
0
41
1
10
56.8897578606779
20
-24.0161310305707
30
0
41
1
10
56.9417305933328
20
-24.0464193909012
30
0
0
SPLINE
5
11D
100
AcDbEntity
8
1
62
256
6
ByLayer
370
18
48
1
60
0
100
AcDbSpline
70
4
71
3
72
12
73
8
40
0
40
0
40
0
40
0
40
0.0957041551383341
40
0.0957041551383341
40
0.39713610342555
40
0.39713610342555
40
1
40
1
40
1
40
1
41
1
10
23.3930813915112
20
15.0512769315628
30
0
41
1
10
23.4122814182976
20
15.0482857948657
30
0
41
1
10
23.4315728948555
20
15.0454233121852
30
0
41
1
10
23.5116523683064
20
15.034142393514
30
0
41
1
10
23.5728371228378
20
15.0269493310882
30
0
41
1
10
23.7575987764697
20
15.009578286374
30
0
41
1
10
23.882373844958
20
15.0035963113631
30
0
41
1
10
24.0088477967999
20
15.0035963113631
30
0
0
SPLINE
5
11E
100
AcDbEntity
8
1
62
256
6
ByLayer
370
18
48
1
60
0
100
AcDbSpline
70
4
71
3
72
9
73
5
40
0
40
0
40
0
40
0
40
0.5
40
1
40
1
40
1
40
1
41
1
10
27.4
20
-26.6765258297017
30
0
41
1
10
27.4
20
-26.6764521821604
30
0
41
1
10
27.3796657114535
20
-26.6791134918514
30
0
41
1
10
27.3195665523581
20
-26.6871507996549
30
0
41
1
10
27.2793648984702
20
-26.6924546260905
30
0
0
SPLINE
5
11F
100
AcDbEntity
8
1
62
256
6
ByLayer
370
18
48
1
60
0
100
AcDbSpline
70
4
71
3
72
12
73
8
40
0
40
0
40
0
40
0
40
0.25
40
0.25
40
0.5
40
0.5
40
1
40
1
40
1
40
1
41
1
10
56.625447070042
20
-22.3654124603524
30
0
41
1
10
56.6160566064381
20
-22.3652439489876
30
0
41
1
10
56.606533518272
20
-22.3650967548886
30
0
41
1
10
56.5872171227034
20
-22.3648450618348
30
0
41
1
10
56.57738747233
20
-22.3647403076269
30
0
41
1
10
56.5477949568084
20
-22.3644940880684
30
0
41
1
10
56.5279453272923
20
-22.3644193873656
30
0
41
1
10
56.5079739193184
20
-22.3644337047824
30
0
0
SPLINE
5
120
100
AcDbEntity
8
1
62
256
6
ByLayer
370
18
48
1
60
0
100
AcDbSpline
70
4
71
3
72
36
73
32
40
0
40
0
40
0
40
0
40
0.031250000000003
40
0.031250000000003
40
0.062500000000006
40
0.062500000000006
40
0.125000000000012
40
0.125000000000012
40
0.250000000000024
40
0.250000000000024
40
0.312500000000025
40
0.312500000000025
40
0.375000000000026
40
0.375000000000026
40
0.500000000000028
40
0.500000000000028
40
0.531250000000024
40
0.531250000000024
40
0.56250000000002
40
0.56250000000002
40
0.625000000000015
40
0.625000000000015
40
0.750000000000009
40
0.750000000000009
40
0.781250000000011
40
0.781250000000011
40
0.812500000000013
40
0.812500000000013
40
0.875000000000009
40
0.875000000000009
40
1
40
1
40
1
40
1
41
1
10
47
20
-22.3715545182071
30
0
41
1
10
46.9762324842288
20
-22.3715730795099
30
0
41
1
10
46.9524811151136
20
-22.3710658111841
30
0
41
1
10
46.9050106344062
20
-22.3690007807867
30
0
41
1
10
46.8812952903867
20
-22.3674411627012
30
0
41
1
10
46.8106176453716
20
-22.3612289622221
30
0
41
1
10
46.7639808505149
20
-22.3550417841635
30
0
41
1
10
46.6254786954725
20
-22.330498895187
30
0
41
1
10
46.5350107801491
20
-22.3062076365676
30
0
41
1
10
46.4021621313241
20
-22.2576518818669
30
0
41
1
10
46.3582099945025
20
-22.2393476142376
30
0
41
1
10
46.2729365880733
20
-22.1993291787262
30
0
41
1
10
46.2314298033596
20
-22.177562750259
30
0
41
1
10
46.110225759892
20
-22.1071060516162
30
0
41
1
10
46.0338190697253
20
-22.0532984014139
30
0
41
1
10
45.9439512998997
20
-21.9772667810084
30
0
41
1
10
45.9262188030444
20
-21.961577466307
30
0
41
1
10
45.8916053759948
20
-21.9295522858206
30
0
41
1
10
45.8747166974493
20
-21.9132142013949
30
0
41
1
10
45.8252825570231
20
-21.8632407587098
30
0
41
1
10
45.7939666215294
20
-21.8286480554767
30
0
41
1
10
45.7048519941399
20
-21.7211066920908
30
0
41
1
10
45.6518483483859
20
-21.6444244696734
30
0
41
1
10
45.593878647997
20
-21.5421208613964
30
0
41
1
10
45.5827056505144
20
-21.521334521456
30
0
41
1
10
45.5614171174714
20
-21.4795267335012
30
0
41
1
10
45.5512715723598
20
-21.4584540436721
30
0
41
1
10
45.522307812205
20
-21.3947374689764
30
0
41
1
10
45.5049596627287
20
-21.3515960298352
30
0
41
1
10
45.4587181727468
20
-21.2202076593475
30
0
41
1
10
45.4355810713221
20
-21.1300124874428
30
0
41
1
10
45.4204677082036
20
-21.0371016235426
30
0
0
SPLINE
5
121
100
AcDbEntity
8
1
62
256
6
ByLayer
370
18
48
1
60
0
100
AcDbSpline
70
4
71
3
72
10
73
6
40
0
40
0
40
0
40
0
40
0.209763249269212
40
0.209763249269212
40
1
40
1
40
1
40
1
41
1
10
45.4433405854185
20
-21.0964098818773
30
0
41
1
10
45.4423552213885
20
-21.0922627124162
30
0
41
1
10
45.4411944744423
20
-21.0881155776402
30
0
41
1
10
45.4349264997329
20
-21.0683455430874
30
0
41
1
10
45.4277007774962
20
-21.0527235816235
30
0
41
1
10
45.4204677082035
20
-21.0371016235426
30
0
0
SPLINE
5
122
100
AcDbEntity
8
1
62
256
6
ByLayer
370
18
48
1
60
0
100
AcDbSpline
70
4
71
3
72
16
73
12
40
0
40
0
40
0
40
0
40
0.250000000000007
40
0.250000000000007
40
0.375000000000011
40
0.375000000000011
40
0.500000000000015
40
0.500000000000015
40
0.750000000000008
40
0.750000000000008
40
1
40
1
40
1
40
1
41
1
10
47.0000000000002
20
-24.2160846435842
30
0
41
1
10
46.9363161522291
20
-24.2346289136748
30
0
41
1
10
46.8720100759099
20
-24.2494100541579
30
0
41
1
10
46.7745288161754
20
-24.2654000088607
30
0
41
1
10
46.7418237480544
20
-24.2696952991664
30
0
41
1
10
46.676646754121
20
-24.2760404506782
30
0
41
1
10
46.6441080027289
20
-24.2781041585957
30
0
41
1
10
46.5466464511301
20
-24.2808468406693
30
0
41
1
10
46.4818774102565
20
-24.2780983988042
30
0
41
1
10
46.3527984305552
20
-24.2623677707081
30
0
41
1
10
46.2884878034213
20
-24.249400927363
30
0
41
1
10
46.2244495430331
20
-24.2303628158282
30
0
0
SPLINE
5
123
100
AcDbEntity
8
1
62
256
6
ByLayer
370
18
48
1
60
0
100
AcDbSpline
70
4
71
3
72
31
73
27
40
0
40
0
40
0
40
0
40
0.124999999999991
40
0.124999999999991
40
0.187499999999986
40
0.187499999999986
40
0.24999999999998
40
0.24999999999998
40
0.374999999999964
40
0.374999999999964
40
0.499999999999948
40
0.499999999999948
40
0.531249999999946
40
0.531249999999946
40
0.562499999999945
40
0.624999999999947
40
0.624999999999947
40
0.749999999999951
40
0.749999999999951
40
0.812499999999959
40
0.812499999999959
40
0.843749999999961
40
0.843749999999961
40
0.874999999999963
40
0.874999999999963
40
1
40
1
40
1
40
1
41
1
10
45.4
20
-22.7093542798927
30
0
41
1
10
45.4
20
-22.7843875108931
30
0
41
1
10
45.4044920438892
20
-22.8594501489584
30
0
41
1
10
45.4181309348798
20
-22.9720892821541
30
0
41
1
10
45.4238570212722
20
-23.009762511837
30
0
41
1
10
45.4375136744908
20
-23.0842487489673
30
0
41
1
10
45.4454431702062
20
-23.1211193283843
30
0
41
1
10
45.4724816245325
20
-23.2306315624833
30
0
41
1
10
45.4948266700169
20
-23.3021784088926
30
0
41
1
10
45.5482106787052
20
-23.4423308416605
30
0
41
1
10
45.5792469966737
20
-23.5109373229352
30
0
41
1
10
45.6238073773585
20
-23.5947450592966
30
0
41
1
10
45.6330096927829
20
-23.6114066556979
30
0
41
1
10
45.6518585346329
20
-23.6442820232083
30
0
41
1
10
45.6808480765109
20
-23.6930185514078
30
0
41
1
10
45.7119694047161
20
-23.7400392345067
30
0
41
1
10
45.7770453607463
20
-23.8318001173324
30
0
41
1
10
45.8241935216286
20
-23.8899442949953
30
0
41
1
10
45.9007620782584
20
-23.9724549437888
30
0
41
1
10
45.9272625761135
20
-23.9991716000337
30
0
41
1
10
45.9685378819153
20
-24.0380194880969
30
0
41
1
10
45.9825506609164
20
-24.0507640663918
30
0
41
1
10
46.0110978837388
20
-24.075833342239
30
0
41
1
10
46.0256337554
20
-24.0881567298825
30
0
41
1
10
46.0990039207692
20
-24.1481843391507
30
0
41
1
10
46.160387018469
20
-24.1915802007406
30
0
41
1
10
46.2244495430331
20
-24.2303628158282
30
0
0
SPLINE
5
124
100
AcDbEntity
8
1
62
256
6
ByLayer
370
18
48
1
60
0
100
AcDbSpline
70
4
71
3
72
10
73
6
40
0
40
0
40
0
40
0
40
0.5
40
0.5
40
1
40
1
40
1
40
1
41
1
10
21.4383186059721
20
-20.15
30
0
41
1
10
21.4984436585684
20
-20.15
30
0
41
1
10
21.5715566557377
20
-20.15
30
0
41
1
10
21.7409476030792
20
-20.15
30
0
41
1
10
21.8372114792833
20
-20.15
30
0
41
1
10
21.9434851968452
20
-20.15
30
0
0
SPLINE
5
125
100
AcDbEntity
8
1
62
256
6
ByLayer
370
18
48
1
60
0
100
AcDbSpline
70
4
71
3
72
14
73
10
40
0
40
0
40
0
40
0
40
0.25
40
0.25
40
0.5
40
0.5
40
0.75
40
0.75
40
1
40
1
40
1
40
1
41
1
10
20.8819111236962
20
16.5091490695079
30
0
41
1
10
20.8214110117406
20
16.5849895265143
30
0
41
1
10
20.7617589174258
20
16.6654945993553
30
0
41
1
10
20.6473364619168
20
16.8332167704299
30
0
41
1
10
20.5925635598766
20
16.920428517526
30
0
41
1
10
20.489985034546
20
17.0988152464756
30
0
41
1
10
20.4421754472999
20
17.1899824144069
30
0
41
1
10
20.354604471203
20
17.3736108104304
30
0
41
1
10
20.3148367809476
20
17.4660652383134
30
0
41
1
10
20.2792076144253
20
17.5579877509234
30
0
0
SPLINE
5
126
100
AcDbEntity
8
1
62
256
6
ByLayer
370
18
48
1
60
0
100
AcDbSpline
70
4
71
3
72
26
73
22
40
0
40
0
40
0
40
0
40
0.125000000000003
40
0.125000000000003
40
0.250000000000006
40
0.250000000000006
40
0.312500000000005
40
0.312500000000005
40
0.375000000000003
40
0.375000000000003
40
0.500000000000003
40
0.500000000000003
40
0.625000000000002
40
0.625000000000002
40
0.687500000000001
40
0.687500000000001
40
0.750000000000001
40
0.750000000000001
40
0.875
40
0.875
40
1
40
1
40
1
40
1
41
1
10
21.4383186059721
20
-20.5113661490067
30
0
41
1
10
21.4294981795986
20
-20.4824671376723
30
0
41
1
10
21.4195948750939
20
-20.4553603948364
30
0
41
1
10
21.3981235119946
20
-20.4044172270096
30
0
41
1
10
21.3865530246166
20
-20.3805821046298
30
0
41
1
10
21.3682870909994
20
-20.3471728106425
30
0
41
1
10
21.3620366706892
20
-20.336414344967
30
0
41
1
10
21.3494091501053
20
-20.3158594681345
30
0
41
1
10
21.3430197199971
20
-20.3060385916787
30
0
41
1
10
21.3237217646951
20
-20.2778963208192
30
0
41
1
10
21.3106815303374
20
-20.2608896574527
30
0
41
1
10
21.2847956135219
20
-20.2302661816026
30
0
41
1
10
21.2719473332661
20
-20.2166487987159
30
0
41
1
10
21.2532973553193
20
-20.1988160734914
30
0
41
1
10
21.2472034197688
20
-20.1933243657128
30
0
41
1
10
21.2354469729348
20
-20.1833308795599
30
0
41
1
10
21.2297693925611
20
-20.1788145048769
30
0
41
1
10
21.2134706972128
20
-20.1667040579423
30
0
41
1
10
21.2035801741949
20
-20.1605414511128
30
0
41
1
10
21.186529475408
20
-20.1521905293297
30
0
41
1
10
21.1793691563599
20
-20.15
30
0
41
1
10
21.1740195692408
20
-20.15
30
0
0
SPLINE
5
127
100
AcDbEntity
8
1
62
256
6
ByLayer
370
18
48
1
60
0
100
AcDbSpline
70
4
71
3
72
34
73
30
40
0
40
0
40
0
40
0
40
0.0985711528726256
40
0.0985711528726256
40
0.110892546981704
40
0.110892546981704
40
0.112432721245339
40
0.112432721245339
40
0.113972895508973
40
0.117053244036242
40
0.12321394109078
40
0.147856729308935
40
0.197142305745243
40
0.197142305745243
40
0.394284611490475
40
0.394284611490475
40
0.492855764363091
40
0.492855764363091
40
0.591426917235707
40
0.591426917235707
40
0.689998070108323
40
0.689998070108323
40
0.788569222980939
40
0.788569222980939
40
0.887140375853555
40
0.887140375853555
40
0.985711528726171
40
0.985711528726171
40
1
40
1
40
1
40
1
41
1
10
21.4383186059721
20
-20.15
30
0
41
1
10
21.4251034005628
20
-20.15
30
0
41
1
10
21.4091471099356
20
-20.15
30
0
41
1
10
21.3887762005976
20
-20.15
30
0
41
1
10
21.3864790795802
20
-20.15
30
0
41
1
10
21.3838581546833
20
-20.15
30
0
41
1
10
21.3835634412572
20
-20.15
30
0
41
1
10
21.3829980934952
20
-20.15
30
0
41
1
10
21.3821486658519
20
-20.15
30
0
41
1
10
21.3801568672441
20
-20.15
30
0
41
1
10
21.3738358393075
20
-20.15
30
0
41
1
10
21.3584220723609
20
-20.15
30
0
41
1
10
21.3432171876299
20
-20.15
30
0
41
1
10
21.2906754640167
20
-20.15
30
0
41
1
10
21.2426542009468
20
-20.15
30
0
41
1
10
21.1678474692225
20
-20.15
30
0
41
1
10
21.1424562137425
20
-20.15
30
0
41
1
10
21.0920065594139
20
-20.15
30
0
41
1
10
21.066941891398
20
-20.15
30
0
41
1
10
21.0186750586655
20
-20.15
30
0
41
1
10
20.995471904518
20
-20.15
30
0
41
1
10
20.9527940027458
20
-20.15
30
0
41
1
10
20.9333265302946
20
-20.15
30
0
41
1
10
20.900255253335
20
-20.15
30
0
41
1
10
20.8866728817065
20
-20.15
30
0
41
1
10
20.8673630892225
20
-20.15
30
0
41
1
10
20.8616632474642
20
-20.15
30
0
41
1
10
20.8602385305036
20
-20.15
30
0
41
1
10
20.8601519045204
20
-20.15
30
0
41
1
10
20.8601582569119
20
-20.15
30
0
0
SPLINE
5
128
100
AcDbEntity
8
1
62
256
6
ByLayer
370
18
48
1
60
0
100
AcDbSpline
70
4
71
3
72
31
73
27
40
0
40
0
40
0
40
0
40
0.0624999999999996
40
0.0624999999999996
40
0.124999999999999
40
0.124999999999999
40
0.25
40
0.25
40
0.375000000000001
40
0.375000000000001
40
0.500000000000002
40
0.500000000000002
40
0.531250000000002
40
0.531250000000002
40
0.562500000000002
40
0.562500000000002
40
0.625
40
0.625
40
0.749999999999998
40
0.749999999999998
40
0.812499999999997
40
0.843749999999997
40
0.843749999999997
40
0.874999999999998
40
0.874999999999998
40
1
40
1
40
1
40
1
41
1
10
20.8819111236961
20
16.509149069508
30
0
41
1
10
20.9158918300564
20
16.4665522508168
30
0
41
1
10
20.9510481988206
20
16.424265748854
30
0
41
1
10
21.0238393088514
20
16.340363527889
30
0
41
1
10
21.0615552165788
20
16.2986653225501
30
0
41
1
10
21.1777872279486
20
16.1755516005844
30
0
41
1
10
21.2594802959317
20
16.0959656585018
30
0
41
1
10
21.4318198231625
20
15.9421808721619
30
0
41
1
10
21.522463165767
20
15.8679796831262
30
0
41
1
10
21.713534033375
20
15.7255275353694
30
0
41
1
10
21.8139558744574
20
15.6572728038522
30
0
41
1
10
21.9463784323067
20
15.5761797050096
30
0
41
1
10
21.9732090030033
20
15.5601731350219
30
0
41
1
10
22.0275876830364
20
15.5286003643463
30
0
41
1
10
22.0551711613953
20
15.5130155238815
30
0
41
1
10
22.1385950176286
20
15.4671883794854
30
0
41
1
10
22.1952016920017
20
15.4378142528492
30
0
41
1
10
22.3680869520789
20
15.3533416107284
30
0
41
1
10
22.4874196439542
20
15.3018796031589
30
0
41
1
10
22.673078899963
20
15.2326436456219
30
0
41
1
10
22.7675774414468
20
15.2000195017061
30
0
41
1
10
22.8647242186617
20
15.1705636967089
30
0
41
1
10
22.9300969710698
20
15.1516546655121
30
0
41
1
10
22.9631518912754
20
15.1425478426045
30
0
41
1
10
23.1289757632401
20
15.0991592861958
30
0
41
1
10
23.2635248277701
20
15.0712228673484
30
0
41
1
10
23.4
20
15.0502048103438
30
0
0
SPLINE
5
129
100
AcDbEntity
8
1
62
256
6
ByLayer
370
18
48
1
60
0
100
AcDbSpline
70
4
71
3
72
16
73
12
40
0
40
0
40
0
40
0
40
0.124999999999999
40
0.124999999999999
40
0.249999999999999
40
0.249999999999999
40
0.499999999999999
40
0.499999999999999
40
0.75
40
0.75
40
1
40
1
40
1
40
1
41
1
10
20.881911123696
20
16.5091490695079
30
0
41
1
10
20.8521477214391
20
16.4609095415348
30
0
41
1
10
20.8224290282898
20
16.4134840370004
30
0
41
1
10
20.7636133619634
20
16.3201593981728
30
0
41
1
10
20.7346267882049
20
16.2744330450706
30
0
41
1
10
20.6493798456072
20
16.1394679303097
30
0
41
1
10
20.594852215497
20
16.0524321608288
30
0
41
1
10
20.4922549929086
20
15.8813916056762
30
0
41
1
10
20.4441815512482
20
15.7973879984733
30
0
41
1
10
20.3557359642869
20
15.6299099400059
30
0
41
1
10
20.3153610637911
20
15.5464341217715
30
0
41
1
10
20.2792076144253
20
15.4621461713903
30
0
0
SPLINE
5
12A
100
AcDbEntity
8
1
62
256
6
ByLayer
370
18
48
1
60
0
100
AcDbSpline
70
4
71
3
72
30
73
26
40
0
40
0
40
0
40
0
40
0.0625000000000027
40
0.0625000000000027
40
0.0937500000000041
40
0.0937500000000041
40
0.125000000000006
40
0.125000000000006
40
0.250000000000007
40
0.250000000000007
40
0.312500000000009
40
0.312500000000009
40
0.343750000000009
40
0.343750000000009
40
0.37500000000001
40
0.37500000000001
40
0.500000000000008
40
0.500000000000008
40
0.625000000000006
40
0.625000000000006
40
0.750000000000003
40
0.750000000000003
40
0.875000000000001
40
0.875000000000001
40
1
40
1
40
1
40
1
41
1
10
21.4383186059745
20
-17.76746997845
30
0
41
1
10
21.4251745726907
20
-17.7027795164568
30
0
41
1
10
21.4093666137572
20
-17.6392918286829
30
0
41
1
10
21.3823883970707
20
-17.5456106303768
30
0
41
1
10
21.3728651825477
20
-17.5147062164373
30
0
41
1
10
21.3529699563655
20
-17.4537862375721
30
0
41
1
10
21.3425844255739
20
-17.4237236814197
30
0
41
1
10
21.2887282585331
20
-17.2752410589704
30
0
41
1
10
21.2395465712483
20
-17.1622551475071
30
0
41
1
10
21.1604675929833
20
-16.999368524865
30
0
41
1
10
21.1332089796181
20
-16.9461827058306
30
0
41
1
10
21.0913644835289
20
-16.8678674338786
30
0
41
1
10
21.0772356656916
20
-16.841969879212
30
0
41
1
10
21.0488839901009
20
-16.7909239531569
30
0
41
1
10
21.0346486701197
20
-16.7657506443262
30
0
41
1
10
20.9633150439016
20
-16.6414917465067
30
0
41
1
10
20.9057819275315
20
-16.547201811496
30
0
41
1
10
20.7927248156857
20
-16.3657848639969
30
0
41
1
10
20.7371916626763
20
-16.2786687371566
30
0
41
1
10
20.6303135457508
20
-16.1090237820282
30
0
41
1
10
20.5789647310451
20
-16.0264982537583
30
0
41
1
10
20.4820859320571
20
-15.8637177692955
30
0
41
1
10
20.4365540393764
20
-15.7834626717415
30
0
41
1
10
20.3524670017595
20
-15.6231306793319
30
0
41
1
10
20.3139103568384
20
-15.5430519516664
30
0
41
1
10
20.2792076144253
20
-15.4621461713903
30
0
0
SPLINE
5
12B
100
AcDbEntity
8
1
62
256
6
ByLayer
370
18
48
1
60
0
100
AcDbSpline
70
4
71
3
72
8
73
4
40
0
40
0
40
0
40
0
40
1
40
1
40
1
40
1
41
1
10
21.9434851968452
20
-20.15
30
0
41
1
10
21.7685547961359
20
-19.3549361410619
30
0
41
1
10
21.599523138588
20
-18.5608638679194
30
0
41
1
10
21.4383186059721
20
-17.7674699784511
30
0
0
SPLINE
5
12C
100
AcDbEntity
8
1
62
256
6
ByLayer
370
18
48
1
60
0
100
AcDbSpline
70
4
71
3
72
12
73
8
40
0
40
0
40
0
40
0
40
0.5
40
0.5
40
0.75
40
0.75
40
1
40
1
40
1
40
1
41
1
10
20.0525497649311
20
-14.3040035912851
30
0
41
1
10
20.0543863960846
20
-14.5096699208973
30
0
41
1
10
20.072757344135
20
-14.7089838339786
30
0
41
1
10
20.1280721833471
20
-14.9985183242038
30
0
41
1
10
20.1511551524548
20
-15.0934554185677
30
0
41
1
10
20.2073815444311
20
-15.2801738059174
30
0
41
1
10
20.2405222108834
20
-15.3719552371529
30
0
41
1
10
20.2792076144253
20
-15.4621461713903
30
0
0
SPLINE
5
12D
100
AcDbEntity
8
1
62
256
6
ByLayer
370
18
48
1
60
0
100
AcDbSpline
70
4
71
3
72
12
73
8
40
0
40
0
40
0
40
0
40
0.25
40
0.25
40
0.5
40
0.5
40
1
40
1
40
1
40
1
41
1
10
20.2792076144253
20
15.4621461713903
30
0
41
1
10
20.2405222108833
20
15.3719552371529
30
0
41
1
10
20.2073815444311
20
15.2801738059174
30
0
41
1
10
20.1511551524548
20
15.0934554185677
30
0
41
1
10
20.1280721833471
20
14.9985183242038
30
0
41
1
10
20.072757344135
20
14.7089838339786
30
0
41
1
10
20.0543863960846
20
14.5096699208973
30
0
41
1
10
20.0525497649311
20
14.3040035912851
30
0
0
SPLINE
5
12E
100
AcDbEntity
8
1
62
256
6
ByLayer
370
18
48
1
60
0
100
AcDbSpline
70
4
71
3
72
14
73
10
40
0
40
0
40
0
40
0
40
0.25
40
0.25
40
0.499999999999999
40
0.499999999999999
40
0.75
40
0.75
40
1
40
1
40
1
40
1
41
1
10
20.0090001045432
20
18.9686901693696
30
0
41
1
10
20.0098219573072
20
18.87451517054
30
0
41
1
10
20.0140052415241
20
18.774330642508
30
0
41
1
10
20.0318518825798
20
18.562197074125
30
0
41
1
10
20.045507877823
20
18.4502474525099
30
0
41
1
10
20.085573114949
20
18.2148162129212
30
0
41
1
10
20.1119689870476
20
18.0913336899321
30
0
41
1
10
20.1816093130385
20
17.8330694484624
30
0
41
1
10
20.224827975309
20
17.6982860949575
30
0
41
1
10
20.2792076144253
20
17.5579877509234
30
0
0
SPLINE
5
12F
100
AcDbEntity
8
1
62
256
6
ByLayer
370
18
48
1
60
0
100
AcDbSpline
70
4
71
3
72
25
73
21
40
0
40
0
40
0
40
0
40
0.249999999999986
40
0.249999999999986
40
0.374999999999983
40
0.374999999999983
40
0.499999999999979
40
0.499999999999979
40
0.562499999999983
40
0.562499999999983
40
0.624999999999986
40
0.68749999999999
40
0.68749999999999
40
0.749999999999993
40
0.749999999999993
40
0.874999999999991
40
0.874999999999991
40
0.937499999999996
40
0.937499999999996
40
1
40
1
40
1
40
1
41
1
10
9.33660254037861
20
-19.0245744101322
30
0
41
1
10
9.32720842156829
20
-19.0356185274184
30
0
41
1
10
9.31588453947575
20
-19.0464153092313
30
0
41
1
10
9.29525647265243
20
-19.0619278372253
30
0
41
1
10
9.28776218432895
20
-19.0669920754349
30
0
41
1
10
9.27124506170023
20
-19.0768715139989
30
0
41
1
10
9.26222766550282
20
-19.0816874304591
30
0
41
1
10
9.24718147390908
20
-19.0886774015103
30
0
41
1
10
9.24190585527097
20
-19.0909686533589
30
0
41
1
10
9.23090181997068
20
-19.095399659777
30
0
41
1
10
9.21941536169066
20
-19.0996940974827
30
0
41
1
10
9.20680755935996
20
-19.1036766400565
30
0
41
1
10
9.19352784170755
20
-19.1074753109818
30
0
41
1
10
9.1865295196101
20
-19.109288210346
30
0
41
1
10
9.16442417341895
20
-19.1143521510704
30
0
41
1
10
9.14859952398743
20
-19.1171586755843
30
0
41
1
10
9.12253667740623
20
-19.1201714845572
30
0
41
1
10
9.11355518087368
20
-19.1209563802606
30
0
41
1
10
9.09541273714802
20
-19.1220079254874
30
0
41
1
10
9.08618793610023
20
-19.1222825906925
30
0
41
1
10
9.07679491924327
20
-19.1222825906925
30
0
0
SPLINE
5
130
100
AcDbEntity
8
1
62
256
6
ByLayer
370
18
48
1
60
0
100
AcDbSpline
70
4
71
3
72
26
73
22
40
0
40
0
40
0
40
0
40
0.0624999999999999
40
0.0624999999999999
40
0.125
40
0.125
40
0.1875
40
0.1875
40
0.25
40
0.25
40
0.3125
40
0.3125
40
0.375
40
0.375
40
0.500000000000001
40
0.500000000000001
40
0.625000000000002
40
0.625000000000002
40
0.750000000000004
40
0.750000000000004
40
1
40
1
40
1
40
1
41
1
10
6.92320508075687
20
-19.1222825906926
30
0
41
1
10
6.91382447246664
20
-19.1222825906926
30
0
41
1
10
6.90445612562743
20
-19.1220042459418
30
0
41
1
10
6.88616578647202
20
-19.1209361972228
30
0
41
1
10
6.877306029935
20
-19.1201548450203
30
0
41
1
10
6.86008230329932
20
-19.1181607182976
30
0
41
1
10
6.85165205969534
20
-19.1169347436763
30
0
41
1
10
6.83564492760419
20
-19.1141675067423
30
0
41
1
10
6.82805305136273
20
-19.1126296584783
30
0
41
1
10
6.81353466302775
20
-19.1093020671091
30
0
41
1
10
6.80660916084835
20
-19.1075119510364
30
0
41
1
10
6.79332109685251
20
-19.1037159413756
30
0
41
1
10
6.78693692536262
20
-19.1017017213015
30
0
41
1
10
6.76873667859329
20
-19.0954500347066
30
0
41
1
10
6.75782269201741
20
-19.0910025433169
30
0
41
1
10
6.73776606630176
20
-19.0816841489935
30
0
41
1
10
6.72865815863287
20
-19.07681905156
30
0
41
1
10
6.712104492701
20
-19.0669068299453
30
0
41
1
10
6.70461359775268
20
-19.061836585657
30
0
41
1
10
6.68402554771032
20
-19.0463346141653
30
0
41
1
10
6.67278813956517
20
-19.0356144845436
30
0
41
1
10
6.66339745962154
20
-19.0245744101322
30
0
0
SPLINE
5
131
100
AcDbEntity
8
1
62
256
6
ByLayer
370
18
48
1
60
0
100
AcDbSpline
70
4
71
3
72
25
73
21
40
0
40
0
40
0
40
0
40
0.249999999999997
40
0.249999999999997
40
0.374999999999989
40
0.374999999999989
40
0.499999999999981
40
0.499999999999981
40
0.562499999999982
40
0.562499999999982
40
0.624999999999983
40
0.687499999999984
40
0.687499999999984
40
0.749999999999985
40
0.749999999999985
40
0.874999999999995
40
0.874999999999995
40
0.937499999999998
40
0.937499999999998
40
1
40
1
40
1
40
1
41
1
10
6.66339745962154
20
-6.16973001948571
30
0
41
1
10
6.67279157843183
20
-6.13567510453117
30
0
41
1
10
6.68411546052437
20
-6.10206728171741
30
0
41
1
10
6.70474352734769
20
-6.05336249030208
30
0
41
1
10
6.71223781567116
20
-6.03739036016586
30
0
41
1
10
6.72875493829989
20
-6.00610043240181
30
0
41
1
10
6.73777233449729
20
-5.99078025293949
30
0
41
1
10
6.75281852609103
20
-5.96845506553063
30
0
41
1
10
6.75809414472914
20
-5.96112164449841
30
0
41
1
10
6.76909818002943
20
-5.9469124104387
30
0
41
1
10
6.78058463830945
20
-5.93311315635253
30
0
41
1
10
6.79319244064015
20
-5.9202685823868
30
0
41
1
10
6.80647215829256
20
-5.90799699523123
30
0
41
1
10
6.81347048039001
20
-5.90212985895329
30
0
41
1
10
6.83557582658116
20
-5.88571770958595
30
0
41
1
10
6.85140047601269
20
-5.87658838136372
30
0
41
1
10
6.87746332259391
20
-5.86677544388641
30
0
41
1
10
6.88644481912644
20
-5.8642160875483
30
0
41
1
10
6.90458726285212
20
-5.8607863051715
30
0
41
1
10
6.91381206389988
20
-5.85988980456938
30
0
41
1
10
6.92320508075687
20
-5.85988980456938
30
0
0
SPLINE
5
132
100
AcDbEntity
8
1
62
256
6
ByLayer
370
18
48
1
60
0
100
AcDbSpline
70
4
71
3
72
26
73
22
40
0
40
0
40
0
40
0
40
0.0624999999999997
40
0.0624999999999997
40
0.124999999999999
40
0.124999999999999
40
0.187499999999999
40
0.187499999999999
40
0.249999999999999
40
0.249999999999999
40
0.312499999999998
40
0.312499999999998
40
0.374999999999998
40
0.374999999999998
40
0.499999999999998
40
0.499999999999998
40
0.624999999999999
40
0.624999999999999
40
0.749999999999999
40
0.749999999999999
40
1
40
1
40
1
40
1
41
1
10
9.07679491924327
20
-5.85988980456941
30
0
41
1
10
9.0861755275335
20
-5.85988980456941
30
0
41
1
10
9.09554387437268
20
-5.86079831910379
30
0
41
1
10
9.11383421352809
20
-5.86428190495297
30
0
41
1
10
9.12269397006511
20
-5.86682965857773
30
0
41
1
10
9.13991769670079
20
-5.8733246368358
30
0
41
1
10
9.1483479403048
20
-5.87731470491121
30
0
41
1
10
9.16435507239592
20
-5.88630806692444
30
0
41
1
10
9.17194694863738
20
-5.89130031342685
30
0
41
1
10
9.18646533697236
20
-5.90208491578252
30
0
41
1
10
9.19339083915176
20
-5.90787848896434
30
0
41
1
10
9.2066789031476
20
-5.92014175764382
30
0
41
1
10
9.21306307463749
20
-5.92663822853584
30
0
41
1
10
9.23126332140683
20
-5.94676259304853
30
0
41
1
10
9.24217730798267
20
-5.96102885758611
30
0
41
1
10
9.26223393369835
20
-5.99079069805944
30
0
41
1
10
9.27134184136725
20
-6.00626721095978
30
0
41
1
10
9.28789550729911
20
-6.0376597182682
30
0
41
1
10
9.29538640224743
20
-6.05364979751815
30
0
41
1
10
9.31597445228977
20
-6.10231901184949
30
0
41
1
10
9.32721186043494
20
-6.13568757087469
30
0
41
1
10
9.33660254037858
20
-6.16973001948574
30
0
0
SPLINE
5
133
100
AcDbEntity
8
1
62
256
6
ByLayer
370
18
48
1
60
0
100
AcDbSpline
70
4
71
3
72
25
73
21
40
0
40
0
40
0
40
0
40
0.250000000000006
40
0.250000000000006
40
0.375000000000002
40
0.375000000000002
40
0.499999999999997
40
0.499999999999997
40
0.562499999999998
40
0.562499999999998
40
0.624999999999999
40
0.6875
40
0.6875
40
0.750000000000001
40
0.750000000000001
40
0.874999999999999
40
0.874999999999999
40
0.9375
40
0.9375
40
1
40
1
40
1
40
1
41
1
10
6.66339745962154
20
19.0245744101322
30
0
41
1
10
6.67279157843183
20
19.0356185274184
30
0
41
1
10
6.68411546052437
20
19.0464153092313
30
0
41
1
10
6.70474352734769
20
19.0619278372253
30
0
41
1
10
6.71223781567116
20
19.0669920754349
30
0
41
1
10
6.72875493829989
20
19.0768715139989
30
0
41
1
10
6.73777233449729
20
19.0816874304591
30
0
41
1
10
6.75281852609103
20
19.0886774015103
30
0
41
1
10
6.75809414472914
20
19.0909686533589
30
0
41
1
10
6.76909818002946
20
19.095399659777
30
0
41
1
10
6.78058463830945
20
19.0996940974827
30
0
41
1
10
6.79319244064015
20
19.1036766400565
30
0
41
1
10
6.80647215829256
20
19.1074753109818
30
0
41
1
10
6.81347048039001
20
19.109288210346
30
0
41
1
10
6.83557582658119
20
19.1143521510704
30
0
41
1
10
6.85140047601269
20
19.1171586755844
30
0
41
1
10
6.87746332259388
20
19.1201714845572
30
0
41
1
10
6.88644481912644
20
19.1209563802606
30
0
41
1
10
6.90458726285212
20
19.1220079254874
30
0
41
1
10
6.91381206389988
20
19.1222825906925
30
0
41
1
10
6.92320508075687
20
19.1222825906925
30
0
0
SPLINE
5
134
100
AcDbEntity
8
1
62
256
6
ByLayer
370
18
48
1
60
0
100
AcDbSpline
70
4
71
3
72
26
73
22
40
0
40
0
40
0
40
0
40
0.0624999999999977
40
0.0624999999999977
40
0.124999999999995
40
0.124999999999995
40
0.187499999999993
40
0.187499999999993
40
0.249999999999991
40
0.249999999999991
40
0.312499999999989
40
0.312499999999989
40
0.374999999999986
40
0.374999999999986
40
0.499999999999987
40
0.499999999999987
40
0.624999999999987
40
0.624999999999987
40
0.749999999999988
40
0.749999999999988
40
1
40
1
40
1
40
1
41
1
10
9.07679491924327
20
19.1222825906925
30
0
41
1
10
9.0861755275335
20
19.1222825906925
30
0
41
1
10
9.09554387437268
20
19.1220042459418
30
0
41
1
10
9.11383421352812
20
19.1209361972228
30
0
41
1
10
9.12269397006514
20
19.1201548450203
30
0
41
1
10
9.13991769670082
20
19.1181607182976
30
0
41
1
10
9.14834794030483
20
19.1169347436763
30
0
41
1
10
9.16435507239595
20
19.1141675067423
30
0
41
1
10
9.17194694863741
20
19.1126296584783
30
0
41
1
10
9.18646533697239
20
19.1093020671091
30
0
41
1
10
9.19339083915179
20
19.1075119510364
30
0
41
1
10
9.20667890314763
20
19.1037159413756
30
0
41
1
10
9.21306307463752
20
19.1017017213015
30
0
41
1
10
9.23126332140686
20
19.0954500347066
30
0
41
1
10
9.24217730798273
20
19.0910025433169
30
0
41
1
10
9.26223393369838
20
19.0816841489935
30
0
41
1
10
9.27134184136727
20
19.07681905156
30
0
41
1
10
9.28789550729917
20
19.0669068299453
30
0
41
1
10
9.29538640224746
20
19.061836585657
30
0
41
1
10
9.31597445228982
20
19.0463346141653
30
0
41
1
10
9.32721186043506
20
19.0356144845434
30
0
41
1
10
9.33660254037869
20
19.0245744101321
30
0
0
SPLINE
5
135
100
AcDbEntity
8
1
62
256
6
ByLayer
370
18
48
1
60
0
100
AcDbSpline
70
4
71
3
72
25
73
21
40
0
40
0
40
0
40
0
40
0.249999999999976
40
0.249999999999976
40
0.374999999999968
40
0.374999999999968
40
0.499999999999958
40
0.499999999999958
40
0.562499999999959
40
0.562499999999959
40
0.62499999999996
40
0.687499999999961
40
0.687499999999961
40
0.749999999999962
40
0.749999999999962
40
0.874999999999977
40
0.874999999999977
40
0.937499999999988
40
0.937499999999988
40
1
40
1
40
1
40
1
41
1
10
9.33660254037869
20
6.16973001948611
30
0
41
1
10
9.32720842156843
20
6.13567510453157
30
0
41
1
10
9.31588453947577
20
6.10206728171747
30
0
41
1
10
9.29525647265245
20
6.05336249030211
30
0
41
1
10
9.28776218432898
20
6.03739036016592
30
0
41
1
10
9.27124506170026
20
6.00610043240187
30
0
41
1
10
9.26222766550285
20
5.99078025293954
30
0
41
1
10
9.24718147390911
20
5.96845506553066
30
0
41
1
10
9.241905855271
20
5.96112164449843
30
0
41
1
10
9.23090181997071
20
5.94691241043876
30
0
41
1
10
9.2194147994463
20
5.93311363814723
30
0
41
1
10
9.20680755935999
20
5.92026858238683
30
0
41
1
10
9.19352784170758
20
5.90799699523126
30
0
41
1
10
9.1865295196101
20
5.90212985895334
30
0
41
1
10
9.16442417341895
20
5.88571770958598
30
0
41
1
10
9.14859952398746
20
5.87658838136372
30
0
41
1
10
9.12253667740623
20
5.86677544388644
30
0
41
1
10
9.1135551808737
20
5.8642160875483
30
0
41
1
10
9.09541273714802
20
5.86078630517153
30
0
41
1
10
9.08618793610023
20
5.85988980456943
30
0
41
1
10
9.07679491924327
20
5.85988980456941
30
0
0
SPLINE
5
136
100
AcDbEntity
8
1
62
256
6
ByLayer
370
18
48
1
60
0
100
AcDbSpline
70
4
71
3
72
26
73
22
40
0
40
0
40
0
40
0
40
0.0624999999999992
40
0.0624999999999992
40
0.124999999999998
40
0.124999999999998
40
0.187499999999998
40
0.187499999999998
40
0.249999999999997
40
0.249999999999997
40
0.312499999999996
40
0.312499999999996
40
0.374999999999995
40
0.374999999999995
40
0.499999999999995
40
0.499999999999995
40
0.624999999999994
40
0.624999999999994
40
0.749999999999994
40
0.749999999999994
40
1
40
1
40
1
40
1
41
1
10
6.92320508075687
20
5.85988980456935
30
0
41
1
10
6.91382447246664
20
5.85988980456935
30
0
41
1
10
6.90445612562743
20
5.86079831910374
30
0
41
1
10
6.88616578647202
20
5.86428190495292
30
0
41
1
10
6.87730602993503
20
5.86682965857767
30
0
41
1
10
6.86008230329932
20
5.87332463683575
30
0
41
1
10
6.85165205969534
20
5.87731470491119
30
0
41
1
10
6.83564492760419
20
5.88630806692441
30
0
41
1
10
6.82805305136273
20
5.8913003134268
30
0
41
1
10
6.81353466302775
20
5.90208491578247
30
0
41
1
10
6.80660916084838
20
5.90787848896431
30
0
41
1
10
6.79332109685251
20
5.92014175764379
30
0
41
1
10
6.78693692536262
20
5.92663822853581
30
0
41
1
10
6.76873667859329
20
5.9467625930485
30
0
41
1
10
6.75782269201744
20
5.96102885758609
30
0
41
1
10
6.73776606630176
20
5.99079069805941
30
0
41
1
10
6.72865815863287
20
6.00626721095975
30
0
41
1
10
6.712104492701
20
6.03765971826817
30
0
41
1
10
6.70461359775271
20
6.05364979751812
30
0
41
1
10
6.68402554771035
20
6.10231901184949
30
0
41
1
10
6.67278813956517
20
6.13568757087467
30
0
41
1
10
6.66339745962154
20
6.16973001948571
30
0
0
SPLINE
5
137
100
AcDbEntity
8
SK1
62
256
6
ByLayer
370
13
48
1
60
0
100
AcDbSpline
70
4
71
3
72
18
73
14
40
0
40
0
40
0
40
0
40
0.004727251720639
40
0.0849380751977932
40
0.165148898674947
40
0.325570545629256
40
0.40578136910641
40
0.485992192583564
40
0.646413839537872
40
0.806835486492181
40
0.887046309969335
40
0.967257133446489
40
1
40
1
40
1
40
1
41
1
10
-0.394913799811292
20
-5.00116108217654
30
0
41
1
10
-0.394913799811292
20
-5.02384266526144
30
0
41
1
10
-0.394913799811292
20
-5.43069780454792
30
0
41
1
10
-0.394913799811292
20
-6.19788950405021
30
0
41
1
10
-0.394913799811292
20
-7.59985122616763
30
0
41
1
10
-0.394913799811292
20
-8.86359092653058
30
0
41
1
10
-0.394913799811292
20
-9.98771978618734
30
0
41
1
10
-0.394913799811292
20
-11.015314225612
30
0
41
1
10
-0.394913799811292
20
-12.1118907902116
30
0
41
1
10
-0.394913799811292
20
-12.9393754432253
30
0
41
1
10
-0.394913799811292
20
-13.4200270263956
30
0
41
1
10
-0.394913799811292
20
-13.630538524912
30
0
41
1
10
-0.394913799811278
20
-13.718101219758
30
0
41
1
10
-0.394913799811278
20
-13.7403540821401
30
0
0
SPLINE
5
138
100
AcDbEntity
8
SK1
62
256
6
ByLayer
370
18
48
1
60
0
100
AcDbSpline
70
4
71
3
72
9
73
5
40
0
40
0
40
0
40
0
40
0.601387697622221
40
1
40
1
40
1
40
1
41
1
10
-0.394913799811306
20
-13.7403545288807
30
0
41
1
10
-0.394913799811292
20
-13.7726147174353
30
0
41
1
10
-0.394913799811292
20
-13.8153202987509
30
0
41
1
10
-0.394913799811292
20
-13.8386282511807
30
0
41
1
10
-0.394913799811292
20
-13.8446595289407
30
0
0
SPLINE
5
139
100
AcDbEntity
8
SK1
62
256
6
ByLayer
370
18
48
1
60
0
100
AcDbSpline
70
4
71
3
72
9
73
5
40
0
40
0
40
0
40
0
40
0.398611407755204
40
1
40
1
40
1
40
1
41
1
10
-0.394913799811292
20
13.8446596982821
30
0
41
1
10
-0.394913799811292
20
13.8386284705405
30
0
41
1
10
-0.394913799811292
20
13.8153206302247
30
0
41
1
10
-0.394913799811292
20
13.7726150014335
30
0
41
1
10
-0.394913799811278
20
13.7403546982822
30
0
0
SPLINE
5
13A
100
AcDbEntity
8
SK1
62
256
6
ByLayer
370
13
48
1
60
0
100
AcDbSpline
70
4
71
3
72
18
73
14
40
0
40
0
40
0
40
0
40
0.0327429338995238
40
0.112953748825667
40
0.193164563751809
40
0.353586193604095
40
0.51400782345638
40
0.594218638382523
40
0.674429453308666
40
0.834851083160951
40
0.915061898087094
40
0.995272713013237
40
1
40
1
40
1
40
1
41
1
10
-0.394913799811306
20
13.7403545625927
30
0
41
1
10
-0.394913799811306
20
13.7181016404971
30
0
41
1
10
-0.394913799811292
20
13.630538783804
30
0
41
1
10
-0.394913799811292
20
13.4200269261686
30
0
41
1
10
-0.394913799811292
20
12.9393760577865
30
0
41
1
10
-0.394913799811292
20
12.1118904563386
30
0
41
1
10
-0.394913799811292
20
11.0153145242408
30
0
41
1
10
-0.394913799811292
20
9.98771966705354
30
0
41
1
10
-0.394913799811292
20
8.86359091499725
30
0
41
1
10
-0.394913799811292
20
7.59985108367658
30
0
41
1
10
-0.394913799811292
20
6.19788936064779
30
0
41
1
10
-0.394913799811292
20
5.43069766104711
30
0
41
1
10
-0.394913799811292
20
5.02384231959817
30
0
41
1
10
-0.394913799811292
20
5.00116056257954
30
0
0
SPLINE
5
13B
100
AcDbEntity
8
SK1
62
256
6
ByLayer
370
18
48
1
60
0
100
AcDbSpline
70
4
71
3
72
38
73
34
40
0
40
0
40
0
40
0
40
0.0156249999999996
40
0.0156249999999996
40
0.0312499999999992
40
0.0312499999999992
40
0.0468749999999988
40
0.0468749999999988
40
0.0624999999999983
40
0.0624999999999983
40
0.078124999999998
40
0.078124999999998
40
0.0937499999999976
40
0.0937499999999976
40
0.124999999999999
40
0.124999999999999
40
0.156249999999999
40
0.156249999999999
40
0.1875
40
0.1875
40
0.25
40
0.25
40
0.312499999999999
40
0.312499999999999
40
0.374999999999998
40
0.374999999999998
40
0.499999999999998
40
0.499999999999998
40
0.624999999999998
40
0.624999999999998
40
0.749999999999998
40
0.749999999999998
40
1
40
1
40
1
40
1
41
1
10
-0.394913799807412
20
5.0011605625827
30
0
41
1
10
-0.391748910596064
20
4.99861131394746
30
0
41
1
10
-0.388451589186346
20
4.99624657017242
30
0
41
1
10
-0.381503554974344
20
4.99201030025074
30
0
41
1
10
-0.377826935749411
20
4.99013013351933
30
0
41
1
10
-0.370199866879304
20
4.9871503845547
30
0
41
1
10
-0.3662371079634
20
4.9860363417142
30
0
41
1
10
-0.357908257096042
20
4.98482371680851
30
0
41
1
10
-0.353680105344097
20
4.98475614855749
30
0
41
1
10
-0.345215229647565
20
4.98581465317102
30
0
41
1
10
-0.340970311890757
20
4.98696063906132
30
0
41
1
10
-0.332955447380499
20
4.99024185405489
30
0
41
1
10
-0.329074985885242
20
4.99241446107195
30
0
41
1
10
-0.318315705389409
20
4.99984728402768
30
0
41
1
10
-0.312085221061153
20
5.00607580183632
30
0
41
1
10
-0.301009391388092
20
5.0195415451586
30
0
41
1
10
-0.296146757253467
20
5.02681840776788
30
0
41
1
10
-0.287438460226014
20
5.04163217306021
30
0
41
1
10
-0.283588617018012
20
5.04917503165311
30
0
41
1
10
-0.272989810767697
20
5.0720552884666
30
0
41
1
10
-0.267174521639589
20
5.08763962812168
30
0
41
1
10
-0.256872941279781
20
5.11914471875505
30
0
41
1
10
-0.252415474864932
20
5.13507348952746
30
0
41
1
10
-0.244408671816387
20
5.1671511226622
30
0
41
1
10
-0.240869472301739
20
5.18329434586363
30
0
41
1
10
-0.231309806286348
20
5.2316498923106
30
0
41
1
10
-0.226295439932073
20
5.26391096451732
30
0
41
1
10
-0.217912063161606
20
5.32841102024764
30
0
41
1
10
-0.214571990692121
20
5.3605854115099
30
0
41
1
10
-0.20908613471444
20
5.42467998239269
30
0
41
1
10
-0.206944102194669
20
5.45662122321775
30
0
41
1
10
-0.201889292857544
20
5.55215860517754
30
0
41
1
10
-0.200325582586331
20
5.61546983787082
30
0
41
1
10
-0.199999999999349
20
5.67845150386444
30
0
0
SPLINE
5
13C
100
AcDbEntity
8
SK1
62
256
6
ByLayer
370
18
48
1
60
0
100
AcDbSpline
70
4
71
3
72
51
73
47
40
0
40
0
40
0
40
0
40
0.125
40
0.125
40
0.250000000000001
40
0.250000000000001
40
0.375000000000001
40
0.375000000000001
40
0.500000000000001
40
0.500000000000001
40
0.562500000000002
40
0.562500000000002
40
0.625000000000003
40
0.625000000000003
40
0.656250000000003
40
0.656250000000003
40
0.687500000000004
40
0.687500000000004
40
0.750000000000003
40
0.750000000000003
40
0.781250000000003
40
0.781250000000003
40
0.796875000000003
40
0.796875000000003
40
0.812500000000003
40
0.812500000000003
40
0.843750000000002
40
0.843750000000002
40
0.859375000000002
40
0.859375000000002
40
0.875000000000001
40
0.882812500000001
40
0.882812500000001
40
0.890625000000001
40
0.890625000000001
40
0.906250000000001
40
0.914062500000001
40
0.914062500000001
40
0.921875000000001
40
0.921875000000001
40
0.9375
40
0.953125
40
0.953125
40
0.96875
40
0.96875
40
1
40
1
40
1
40
1
41
1
10
-1.30710678118751
20
3.62853202212816
30
0
41
1
10
-1.2919061364086
20
3.70556358522939
30
0
41
1
10
-1.27564950878531
20
3.7820205106818
30
0
41
1
10
-1.2406084132062
20
3.93375870314148
30
0
41
1
10
-1.22181063294732
20
4.00910669461106
30
0
41
1
10
-1.18115763731655
20
4.15813319978361
30
0
41
1
10
-1.15931218721892
20
4.23182333008765
30
0
41
1
10
-1.11159177403967
20
4.37733091027962
30
0
41
1
10
-1.08574263925135
20
4.44915525032008
30
0
41
1
10
-1.04258655138119
20
4.55515277213792
30
0
41
1
10
-1.02746285247525
20
4.59019333091888
30
0
41
1
10
-0.99531723437029
20
4.65958274004282
30
0
41
1
10
-0.978301889811419
20
4.69393335632202
30
0
41
1
10
-0.950840081220846
20
4.74480636515827
30
0
41
1
10
-0.941360422010973
20
4.76165452150423
30
0
41
1
10
-0.921612206817855
20
4.79509560720325
30
0
41
1
10
-0.911330345780556
20
4.81170689277053
30
0
41
1
10
-0.879296662789443
20
4.86066233047501
30
0
41
1
10
-0.856343638951387
20
4.89227865327604
30
0
41
1
10
-0.818026122235793
20
4.93731968624948
30
0
41
1
10
-0.804596803075
20
4.95193103239396
30
0
41
1
10
-0.78309303822293
20
4.97302905184745
30
0
41
1
10
-0.775696659387535
20
4.9799241664696
30
0
41
1
10
-0.760349771776134
20
4.99338317091983
30
0
41
1
10
-0.752392350049959
20
4.999948849948
30
0
41
1
10
-0.727880800919934
20
5.01875181169186
30
0
41
1
10
-0.710603681718212
20
5.03020967742904
30
0
41
1
10
-0.68262925493238
20
5.04504465543113
30
0
41
1
10
-0.672891603682132
20
5.04961808259611
30
0
41
1
10
-0.652894042393314
20
5.05762851177528
30
0
41
1
10
-0.637551053482454
20
5.06277719842694
30
0
41
1
10
-0.621612371118459
20
5.06644388397413
30
0
41
1
10
-0.610843200204997
20
5.06853179751513
30
0
41
1
10
-0.605373228252517
20
5.06939770112723
30
0
41
1
10
-0.589024240534243
20
5.07139043996949
30
0
41
1
10
-0.572669010460388
20
5.07220433725334
30
0
41
1
10
-0.556304392511265
20
5.07124292633216
30
0
41
1
10
-0.545392549087381
20
5.07020599311227
30
0
41
1
10
-0.539919309159174
20
5.06948506381411
30
0
41
1
10
-0.523814898152125
20
5.06678978581303
30
0
41
1
10
-0.50297983481218
20
5.06177117057427
30
0
41
1
10
-0.483228911030722
20
5.05432574420999
30
0
41
1
10
-0.463947967840667
20
5.04582591451216
30
0
41
1
10
-0.45453441672953
20
5.04103707702356
30
0
41
1
10
-0.427464692677432
20
5.02563245237855
30
0
41
1
10
-0.410735023483483
20
5.01390421017646
30
0
41
1
10
-0.394913799810496
20
5.00116056255814
30
0
0
SPLINE
5
13D
100
AcDbEntity
8
SK1
62
256
6
ByLayer
370
18
48
1
60
0
100
AcDbSpline
70
4
71
3
72
51
73
47
40
0
40
0
40
0
40
0
40
0.0312499999999998
40
0.0312499999999998
40
0.0468749999999998
40
0.0468749999999998
40
0.0624999999999999
40
0.0624999999999999
40
0.0781250000000002
40
0.0859375000000003
40
0.0859375000000003
40
0.0937500000000004
40
0.0937500000000004
40
0.125000000000001
40
0.125000000000001
40
0.132812500000001
40
0.132812500000001
40
0.140625000000001
40
0.140625000000001
40
0.156250000000001
40
0.156250000000001
40
0.171875000000001
40
0.171875000000001
40
0.1875
40
0.1875
40
0.21875
40
0.21875
40
0.250000000000001
40
0.250000000000001
40
0.312500000000001
40
0.312500000000001
40
0.375000000000001
40
0.375000000000001
40
0.437500000000001
40
0.437500000000001
40
0.500000000000001
40
0.500000000000001
40
0.562500000000002
40
0.562500000000002
40
0.625000000000002
40
0.625000000000002
40
0.750000000000001
40
0.750000000000001
40
0.875
40
0.875
40
1
40
1
40
1
40
1
41
1
10
-0.394913799811292
20
-5.00116108217659
30
0
41
1
10
-0.41066538649504
20
-5.01384862569722
30
0
41
1
10
-0.427444682539473
20
-5.02560401094567
30
0
41
1
10
-0.454225812702376
20
-5.04087055985525
30
0
41
1
10
-0.463438908679222
20
-5.04557564745028
30
0
41
1
10
-0.482560235211096
20
-5.05405619211425
30
0
41
1
10
-0.492542658095473
20
-5.05785401853598
30
0
41
1
10
-0.512988129699522
20
-5.06417699720825
30
0
41
1
10
-0.52860623913692
20
-5.06795442924033
30
0
41
1
10
-0.544698986354931
20
-5.07012184570777
30
0
41
1
10
-0.555539481232216
20
-5.07118703454174
30
0
41
1
10
-0.561044214178409
20
-5.0715296778481
30
0
41
1
10
-0.588380278389167
20
-5.07223202598755
30
0
41
1
10
-0.609788395540534
20
-5.06961980113229
30
0
41
1
10
-0.636038898961743
20
-5.06284104440826
30
0
41
1
10
-0.641273399804732
20
-5.06130432437081
30
0
41
1
10
-0.651523728611267
20
-5.05794894419779
30
0
41
1
10
-0.656561241457752
20
-5.05612553121156
30
0
41
1
10
-0.671435209911536
20
-5.05025831011366
30
0
41
1
10
-0.681034016074321
20
-5.04581904881579
30
0
41
1
10
-0.699699693093564
20
-5.0360533513589
30
0
41
1
10
-0.708803295444653
20
-5.03069978836885
30
0
41
1
10
-0.726275289417984
20
-5.01942067172476
30
0
41
1
10
-0.734670547069527
20
-5.01348585979886
30
0
41
1
10
-0.7590283536763
20
-4.99496074537163
30
0
41
1
10
-0.774172797668427
20
-4.98165817730296
30
0
41
1
10
-0.802914827069742
20
-4.95369126459417
30
0
41
1
10
-0.81654709362823
20
-4.93896729549496
30
0
41
1
10
-0.855145617589443
20
-4.89385654551648
30
0
41
1
10
-0.878053724810229
20
-4.86240606869328
30
0
41
1
10
-0.920529370906081
20
-4.79779601403041
30
0
41
1
10
-0.940052913520788
20
-4.76461628090829
30
0
41
1
10
-0.976740804435948
20
-4.69698582221125
30
0
41
1
10
-0.993913112071084
20
-4.66248133856587
30
0
41
1
10
-1.02632348400364
20
-4.59277716864142
30
0
41
1
10
-1.04157111619293
20
-4.55755616008759
30
0
41
1
10
-1.07057669597754
20
-4.48649265752218
30
0
41
1
10
-1.08433177378575
20
-4.4506493409462
30
0
41
1
10
-1.11062583028021
20
-4.37841416747673
30
0
41
1
10
-1.12316712175577
20
-4.34200882575533
30
0
41
1
10
-1.15918165202707
20
-4.23227919141883
30
0
41
1
10
-1.18109081197508
20
-4.1583703791232
30
0
41
1
10
-1.22178607754874
20
-4.0092085502001
30
0
41
1
10
-1.24056171778477
20
-3.9339536596444
30
0
41
1
10
-1.27561460874023
20
-3.78218340304136
30
0
41
1
10
-1.29188624779786
20
-3.70566670397201
30
0
41
1
10
-1.30710678118655
20
-3.62853433720645
30
0
0
SPLINE
5
13E
100
AcDbEntity
8
SK1
62
256
6
ByLayer
370
18
48
1
60
0
100
AcDbSpline
70
4
71
3
72
40
73
36
40
0
40
0
40
0
40
0
40
0.249999999999998
40
0.249999999999998
40
0.374999999999997
40
0.374999999999997
40
0.499999999999996
40
0.499999999999996
40
0.624999999999995
40
0.624999999999995
40
0.687499999999996
40
0.687499999999996
40
0.749999999999997
40
0.749999999999997
40
0.812499999999998
40
0.812499999999998
40
0.843749999999998
40
0.843749999999998
40
0.874999999999999
40
0.874999999999999
40
0.890624999999999
40
0.890624999999999
40
0.906249999999999
40
0.906249999999999
40
0.921874999999999
40
0.921874999999999
40
0.937499999999999
40
0.937499999999999
40
0.953125
40
0.953125
40
0.96875
40
0.96875
40
0.984375
40
0.984375
40
1
40
1
40
1
40
1
41
1
10
-0.200000000000003
20
-5.67845201642962
30
0
41
1
10
-0.200325540023954
20
-5.61547854140437
30
0
41
1
10
-0.201889470916583
20
-5.5522215486582
30
0
41
1
10
-0.206929588208141
20
-5.45686315009974
30
0
41
1
10
-0.209064130076868
20
-5.42499801712538
30
0
41
1
10
-0.214523044028127
20
-5.36109790788328
30
0
41
1
10
-0.217841153282237
20
-5.32906305985333
30
0
41
1
10
-0.226165642229006
20
-5.26480643303958
30
0
41
1
10
-0.231149880121436
20
-5.23258507573854
30
0
41
1
10
-0.240700146478545
20
-5.18409077433588
30
0
41
1
10
-0.244243877237125
20
-5.16786639775964
30
0
41
1
10
-0.252257427302894
20
-5.13565463294324
30
0
41
1
10
-0.25672321424554
20
-5.1196426801294
30
0
41
1
10
-0.267068575155221
20
-5.0879254663663
30
0
41
1
10
-0.272916655032205
20
-5.07221259840796
30
0
41
1
10
-0.283630596953614
20
-5.04908544639636
30
0
41
1
10
-0.287559273211841
20
-5.04140704567578
30
0
41
1
10
-0.296286725692681
20
-5.02660153595323
30
0
41
1
10
-0.301074093098109
20
-5.01945615581229
30
0
41
1
10
-0.309349269610564
20
-5.00940629678661
30
0
41
1
10
-0.312316306979511
20
-5.00615011165598
30
0
41
1
10
-0.318616604997246
20
-5.00011766639525
30
0
41
1
10
-0.321954234540087
20
-4.99732874567789
30
0
41
1
10
-0.329143040072353
20
-4.99237354459822
30
0
41
1
10
-0.333015725026712
20
-4.99021187411824
30
0
41
1
10
-0.341034463404824
20
-4.9869408469134
30
0
41
1
10
-0.345285948994132
20
-4.98580083402234
30
0
41
1
10
-0.353728848469103
20
-4.98475618750666
30
0
41
1
10
-0.358001975899754
20
-4.98483227377295
30
0
41
1
10
-0.366274570071312
20
-4.98604804966439
30
0
41
1
10
-0.370231991198082
20
-4.98716039898099
30
0
41
1
10
-0.377874829705561
20
-4.99015247985739
30
0
41
1
10
-0.381540018186669
20
-4.99203141004628
30
0
41
1
10
-0.388463488029387
20
-4.99625601274579
30
0
41
1
10
-0.391753438827735
20
-4.99861548354417
30
0
41
1
10
-0.394913799811292
20
-5.00116108217654
30
0
0
SPLINE
5
13F
100
AcDbEntity
8
SK1
62
256
6
ByLayer
370
18
48
1
60
0
100
AcDbSpline
70
4
71
3
72
38
73
34
40
0
40
0
40
0
40
0
40
0.0156249999999999
40
0.0156249999999999
40
0.0312499999999999
40
0.0312499999999999
40
0.046875
40
0.046875
40
0.0625
40
0.0625
40
0.078125
40
0.078125
40
0.09375
40
0.09375
40
0.125
40
0.125
40
0.15625
40
0.15625
40
0.187500000000001
40
0.187500000000001
40
0.250000000000001
40
0.250000000000001
40
0.312500000000001
40
0.312500000000001
40
0.375000000000001
40
0.375000000000001
40
0.5
40
0.5
40
0.625
40
0.625
40
0.75
40
0.75
40
1
40
1
40
1
40
1
41
1
10
-0.394913799814603
20
-13.8446595289409
30
0
41
1
10
-0.391749296202065
20
-13.844842490927
30
0
41
1
10
-0.388452375608779
20
-13.8450961903932
30
0
41
1
10
-0.381505168769735
20
-13.8457938151623
30
0
41
1
10
-0.377829013893788
20
-13.846241915681
30
0
41
1
10
-0.37020286020072
20
-13.8473733313911
30
0
41
1
10
-0.366240526544658
20
-13.8480563938372
30
0
41
1
10
-0.357912392007805
20
-13.849739303977
30
0
41
1
10
-0.35368463570066
20
-13.8507136617023
30
0
41
1
10
-0.345220189226779
20
-13.8529238754024
30
0
41
1
10
-0.340975528995884
20
-13.854165851519
30
0
41
1
10
-0.332960961810869
20
-13.8567502285021
30
0
41
1
10
-0.329080600695065
20
-13.8581264595614
30
0
41
1
10
-0.318321797663032
20
-13.8622381003803
30
0
41
1
10
-0.312091372528215
20
-13.865022403485
30
0
41
1
10
-0.301015966388746
20
-13.8704509077418
30
0
41
1
10
-0.29615341995715
20
-13.8731079755537
30
0
41
1
10
-0.287445517218671
20
-13.8782073044309
30
0
41
1
10
-0.283595780474954
20
-13.8806523483052
30
0
41
1
10
-0.272997114041203
20
-13.887771829979
30
0
41
1
10
-0.267181679795726
20
-13.8922335922221
30
0
41
1
10
-0.256879537942368
20
-13.9007947938235
30
0
41
1
10
-0.252421658911786
20
-13.9048892296203
30
0
41
1
10
-0.244413939321575
20
-13.9127918287046
30
0
41
1
10
-0.240874255815299
20
-13.9165963734792
30
0
41
1
10
-0.231313142997905
20
-13.9275805879124
30
0
41
1
10
-0.226297832831563
20
-13.9343664914099
30
0
41
1
10
-0.217912944663453
20
-13.947127348993
30
0
41
1
10
-0.214572317075465
20
-13.9530845047233
30
0
41
1
10
-0.209085750971354
20
-13.964280444998
30
0
41
1
10
-0.206943565198614
20
-13.9695217949656
30
0
41
1
10
-0.201888714477079
20
-13.9843134154886
30
0
41
1
10
-0.200325526921617
20
-13.992937784021
30
0
41
1
10
-0.200000000000003
20
-14.0005306290776
30
0
0
SPLINE
5
140
100
AcDbEntity
8
SK1
62
256
6
ByLayer
370
18
48
1
60
0
100
AcDbSpline
70
4
71
3
72
40
73
36
40
0
40
0
40
0
40
0
40
0.249999999999996
40
0.249999999999996
40
0.374999999999994
40
0.374999999999994
40
0.499999999999993
40
0.499999999999993
40
0.62499999999999
40
0.62499999999999
40
0.68749999999999
40
0.68749999999999
40
0.74999999999999
40
0.74999999999999
40
0.812499999999991
40
0.812499999999991
40
0.843749999999991
40
0.843749999999991
40
0.874999999999992
40
0.874999999999992
40
0.890624999999993
40
0.890624999999993
40
0.906249999999994
40
0.906249999999994
40
0.921874999999995
40
0.921874999999995
40
0.937499999999996
40
0.937499999999996
40
0.953124999999997
40
0.953124999999997
40
0.968749999999998
40
0.968749999999998
40
0.984374999999999
40
0.984374999999999
40
1
40
1
40
1
40
1
41
1
10
-0.200000000000003
20
14.0005308360297
30
0
41
1
10
-0.200325484931824
20
13.9929389755075
30
0
41
1
10
-0.201888899753485
20
13.984321015747
30
0
41
1
10
-0.206929064368964
20
13.9695604951636
30
0
41
1
10
-0.209063760504833
20
13.9643331642488
30
0
41
1
10
-0.214523379010927
20
13.9531770452386
30
0
41
1
10
-0.217842040597958
20
13.9472498215878
30
0
41
1
10
-0.22616799926196
20
13.9345502713768
30
0
41
1
10
-0.231153161037895
20
13.9277833881154
30
0
41
1
10
-0.240704867227109
20
13.9167821274841
30
0
41
1
10
-0.244249097570204
20
13.9129633802222
30
0
41
1
10
-0.252263586587105
20
13.9050370743236
30
0
41
1
10
-0.256729802109732
20
13.9009261566768
30
0
41
1
10
-0.267075773720634
20
13.8923152006563
30
0
41
1
10
-0.272924030069319
20
13.8878208927885
30
0
41
1
10
-0.2836379135897
20
13.8806243248759
30
0
41
1
10
-0.287566520738551
20
13.8781327420571
30
0
41
1
10
-0.296293809253299
20
13.8730299294695
30
0
41
1
10
-0.301081039190592
20
13.8704177140821
30
0
41
1
10
-0.309355911672156
20
13.866364075454
30
0
41
1
10
-0.312322841306013
20
13.8649804039333
30
0
41
1
10
-0.31862294414502
20
13.8622234641578
30
0
41
1
10
-0.321960461861963
20
13.8608465411072
30
0
41
1
10
-0.329149016141258
20
13.858101654615
30
0
41
1
10
-0.333021571763879
20
13.8567295936368
30
0
41
1
10
-0.341039973310558
20
13.8541465128493
30
0
41
1
10
-0.345291253771677
20
13.8529042812469
30
0
41
1
10
-0.353733594241362
20
13.8507022641717
30
0
41
1
10
-0.358006392495966
20
13.8497192387353
30
0
41
1
10
-0.366278137943922
20
13.8480502152413
30
0
41
1
10
-0.370235109341735
20
13.8473680380174
30
0
41
1
10
-0.377877027729255
20
13.846235641883
30
0
41
1
10
-0.381541736392833
20
13.8457899488977
30
0
41
1
10
-0.388464315595584
20
13.845095524037
30
0
41
1
10
-0.391753842527152
20
13.8448423969163
30
0
41
1
10
-0.394913799811292
20
13.8446596982821
30
0
0
SPLINE
5
141
100
AcDbEntity
8
SK1
62
256
6
ByLayer
370
18
48
1
60
0
100
AcDbSpline
70
4
71
3
72
39
73
35
40
0
40
0
40
0
40
0
40
0.0233594671065617
40
0.0513972083311384
40
0.079434949555715
40
0.107472690780292
40
0.163548173229445
40
0.219623655678598
40
0.247661396903175
40
0.275699138127752
40
0.331774620576905
40
0.359812361801482
40
0.387850103026058
40
0.415887844250635
40
0.443925585475211
40
0.471963326699788
40
0.485982197312076
40
0.500001067924365
40
0.514019938536653
40
0.528038809148941
40
0.556076550373518
40
0.584114291598095
40
0.612152032822671
40
0.640189774047248
40
0.668227515271825
40
0.724302997720978
40
0.752340738945555
40
0.780378480170131
40
0.836453962619284
40
0.892529445068438
40
0.920567186293014
40
0.948604927517591
40
0.976642668742168
40
1
40
1
40
1
40
1
41
1
10
-24
20
-12.6317140939028
30
0
41
1
10
-24
20
-12.6344703728787
30
0
41
1
10
-24
20
-12.6094822665155
30
0
41
1
10
-24
20
-12.4743689830171
30
0
41
1
10
-24
20
-12.230146179188
30
0
41
1
10
-24
20
-11.778244241418
30
0
41
1
10
-24
20
-11.0029092636263
30
0
41
1
10
-24
20
-9.97333247862687
30
0
41
1
10
-24
20
-9.00198713477033
30
0
41
1
10
-24
20
-7.94098140173097
30
0
41
1
10
-24
20
-6.76812921007328
30
0
41
1
10
-24
20
-5.45799637564653
30
0
41
1
10
-24
20
-4.42753733029454
30
0
41
1
10
-24
20
-3.35000222974921
30
0
41
1
10
-24
20
-2.23771741989395
30
0
41
1
10
-24
20
-1.30515932004789
30
0
41
1
10
-24
20
-0.551100854738877
30
0
41
1
10
-24
20
-2.454147534E-07
30
0
41
1
10
-24
20
0.551100895559586
30
0
41
1
10
-24
20
1.30515943417129
30
0
41
1
10
-24
20
2.23771697460674
30
0
41
1
10
-24
20
3.35000208235883
30
0
41
1
10
-24
20
4.4275375451636
30
0
41
1
10
-24
20
5.45799609225458
30
0
41
1
10
-24
20
6.76812911518888
30
0
41
1
10
-24
20
7.94098139760015
30
0
41
1
10
-24
20
9.00198709358403
30
0
41
1
10
-24
20
9.97333275207072
30
0
41
1
10
-24
20
11.0029089912388
30
0
41
1
10
-24
20
11.7782448377074
30
0
41
1
10
-24
20
12.2301460729139
30
0
41
1
10
-24
20
12.4743692733745
30
0
41
1
10
-24
20
12.6094790860387
30
0
41
1
10
-24
20
12.63446840867
30
0
41
1
10
-24
20
12.6317149373632
30
0
0
SPLINE
5
142
100
AcDbEntity
8
SK1
62
256
6
ByLayer
370
18
48
1
60
0
100
AcDbSpline
70
4
71
3
72
9
73
5
40
0
40
0
40
0
40
0
40
0.558773258985891
40
1
40
1
40
1
40
1
41
1
10
-1.4950399779393
20
13.8252670526673
30
0
41
1
10
-1.49503997793927
20
13.8253385812278
30
0
41
1
10
-1.49503997793927
20
13.8032101939715
30
0
41
1
10
-1.49503997793928
20
13.7451767931252
30
0
41
1
10
-1.4950399779393
20
13.7130156698315
30
0
0
SPLINE
5
143
100
AcDbEntity
8
SK1
62
256
6
ByLayer
370
13
48
1
60
0
100
AcDbSpline
70
4
71
3
72
20
73
16
40
0
40
0
40
0
40
0
40
0.0283171876948688
40
0.0975854516919405
40
0.166853715689012
40
0.305390243683156
40
0.443926771677299
40
0.513195035674371
40
0.582463299671443
40
0.720999827665586
40
0.790268091662658
40
0.85953635565973
40
0.928804619656802
40
0.998072883653874
40
1
40
1
40
1
40
1
41
1
10
-1.49503997793927
20
13.713015669833
30
0
41
1
10
-1.49503997793927
20
13.6907766312777
30
0
41
1
10
-1.4950399779393
20
13.6033357132933
30
0
41
1
10
-1.4950399779393
20
13.3930993868039
30
0
41
1
10
-1.4950399779393
20
12.9130991355629
30
0
41
1
10
-1.4950399779393
20
12.0867937065467
30
0
41
1
10
-1.4950399779393
20
10.9917340076615
30
0
41
1
10
-1.4950399779393
20
9.96541209516295
30
0
41
1
10
-1.4950399779393
20
8.84271184628204
30
0
41
1
10
-1.4950399779393
20
7.58102884110858
30
0
41
1
10
-1.4950399779393
20
6.18114524290198
30
0
41
1
10
-1.4950399779393
20
5.06527592408099
30
0
41
1
10
-1.4950399779393
20
3.88412508952482
30
0
41
1
10
-1.4950399779393
20
3.04345441166049
30
0
41
1
10
-1.4950399779393
20
2.60753527399982
30
0
41
1
10
-1.4950399779393
20
2.59572866980201
30
0
0
SPLINE
5
144
100
AcDbEntity
8
SK1
62
256
6
ByLayer
370
13
48
1
60
0
100
AcDbSpline
70
4
71
3
72
20
73
16
40
0
40
0
40
0
40
0
40
0.0019270700262166
40
0.0711953294811216
40
0.140463588936027
40
0.209731848390932
40
0.279000107845837
40
0.417536626755647
40
0.486804886210552
40
0.556073145665456
40
0.694609664575266
40
0.833146183485076
40
0.902414442939981
40
0.971682702394886
40
1
40
1
40
1
40
1
41
1
10
-1.4950399779393
20
-2.59572959682796
30
0
41
1
10
-1.4950399779393
20
-2.60753591899177
30
0
41
1
10
-1.4950399779393
20
-3.04345481646683
30
0
41
1
10
-1.4950399779393
20
-3.88412534084222
30
0
41
1
10
-1.4950399779393
20
-5.0652758228772
30
0
41
1
10
-1.4950399779393
20
-6.18114538947242
30
0
41
1
10
-1.4950399779393
20
-7.58102898252227
30
0
41
1
10
-1.4950399779393
20
-8.84271185764786
30
0
41
1
10
-1.4950399779393
20
-9.96541221253273
30
0
41
1
10
-1.4950399779393
20
-10.9917337096027
30
0
41
1
10
-1.4950399779393
20
-12.0867940390283
30
0
41
1
10
-1.4950399779393
20
-12.9130985214152
30
0
41
1
10
-1.4950399779393
20
-13.3930994871677
30
0
41
1
10
-1.4950399779393
20
-13.6033356716679
30
0
41
1
10
-1.4950399779393
20
-13.6907765202579
30
0
41
1
10
-1.49503997793928
20
-13.7130155968559
30
0
0
SPLINE
5
145
100
AcDbEntity
8
SK1
62
256
6
ByLayer
370
18
48
1
60
0
100
AcDbSpline
70
4
71
3
72
9
73
5
40
0
40
0
40
0
40
0
40
0.442559409112467
40
1
40
1
40
1
40
1
41
1
10
-1.4950399779393
20
-13.7130150340655
30
0
41
1
10
-1.4950399779393
20
-13.7451762617291
30
0
41
1
10
-1.49503997793928
20
-13.8030351135901
30
0
41
1
10
-1.49503997793928
20
-13.8252049209228
30
0
41
1
10
-1.49503997793927
20
-13.825267034065
30
0
0
SPLINE
5
146
100
AcDbEntity
8
SK1
62
256
6
ByLayer
370
18
48
1
60
0
100
AcDbSpline
70
4
71
3
72
21
73
17
40
0
40
0
40
0
40
0
40
0.005347190914325
40
0.0675275880700612
40
0.129707985225797
40
0.191888382381534
40
0.25406877953727
40
0.378429573848742
40
0.440609971004479
40
0.502790368160215
40
0.627151162471688
40
0.75151195678316
40
0.813692353938896
40
0.875872751094632
40
0.938053148250369
40
1
40
1
40
1
40
1
41
1
10
-1.7
20
-2.58377808521789
30
0
41
1
10
-1.7
20
-2.6211130853342
30
0
41
1
10
-1.7
20
-3.09163207213677
30
0
41
1
10
-1.7
20
-3.97134131573901
30
0
41
1
10
-1.7
20
-5.16941096177055
30
0
41
1
10
-1.7
20
-6.29922705440438
30
0
41
1
10
-1.7
20
-7.71376588282689
30
0
41
1
10
-1.7
20
-8.98995375595479
30
0
41
1
10
-1.7
20
-10.1227281115305
30
0
41
1
10
-1.7
20
-11.1580265629749
30
0
41
1
10
-1.7
20
-12.2637795792515
30
0
41
1
10
-1.7
20
-13.0984067777707
30
0
41
1
10
-1.7
20
-13.5829959818305
30
0
41
1
10
-1.7
20
-13.8477062499051
30
0
41
1
10
-1.7
20
-14.003834302642
30
0
41
1
10
-1.7
20
-14.0272338769351
30
0
41
1
10
-1.70000000000002
20
-14.0158119585411
30
0
0
SPLINE
5
147
100
AcDbEntity
8
SK1
62
256
6
ByLayer
370
18
48
1
60
0
100
AcDbSpline
70
4
71
3
72
21
73
17
40
0
40
0
40
0
40
0
40
0.0619470339683764
40
0.124127416672863
40
0.186307799377349
40
0.248488182081835
40
0.372848947490807
40
0.49720971289978
40
0.559390095604266
40
0.621570478308752
40
0.745931243717724
40
0.80811162642221
40
0.870292009126697
40
0.932472391831183
40
0.994652774535669
40
1
40
1
40
1
40
1
41
1
10
-1.7
20
14.015811928038
30
0
41
1
10
-1.7
20
14.0272339860097
30
0
41
1
10
-1.69999999999999
20
14.0038349658744
30
0
41
1
10
-1.7
20
13.8477064954836
30
0
41
1
10
-1.7
20
13.5829958824317
30
0
41
1
10
-1.7
20
13.0984073948343
30
0
41
1
10
-1.7
20
12.2637792369573
30
0
41
1
10
-1.7
20
11.158026865053
30
0
41
1
10
-1.7
20
10.1227279817209
30
0
41
1
10
-1.7
20
8.9899537434076
30
0
41
1
10
-1.7
20
7.71376573381551
30
0
41
1
10
-1.7
20
6.29922693017525
30
0
41
1
10
-1.7
20
5.16941104441418
30
0
41
1
10
-1.7
20
3.97134104745157
30
0
41
1
10
-1.7
20
3.09163174208075
30
0
41
1
10
-1.7
20
2.62111254506641
30
0
41
1
10
-1.7
20
2.58377729734613
30
0
0
SPLINE
5
148
100
AcDbEntity
8
SK1
62
256
6
ByLayer
370
18
48
1
60
0
100
AcDbSpline
70
4
71
3
72
39
73
35
40
0
40
0
40
0
40
0
40
0.0277680106925861
40
0.0555463614288306
40
0.0833247121650752
40
0.11110306290132
40
0.166659764373809
40
0.222216465846298
40
0.249994816582542
40
0.277773167318787
40
0.333329868791276
40
0.36110821952752
40
0.388886570263765
40
0.41666492100001
40
0.444443271736254
40
0.472221622472499
40
0.486110797840621
40
0.499999973208743
40
0.513889148576865
40
0.527778323944988
40
0.555556674681232
40
0.583335025417477
40
0.611113376153721
40
0.638891726889966
40
0.66667007762621
40
0.722226779098699
40
0.750005129834944
40
0.777783480571188
40
0.833340182043678
40
0.888896883516166
40
0.916675234252411
40
0.944453584988656
40
0.9722319357249
40
1
40
1
40
1
40
1
41
1
10
-22.5
20
13.493600804685
30
0
41
1
10
-22.5
20
13.5046599448854
30
0
41
1
10
-22.5
20
13.4821972890952
30
0
41
1
10
-22.5
20
13.3308795934982
30
0
41
1
10
-22.5
20
13.0738789920944
30
0
41
1
10
-22.5
20
12.6015916721314
30
0
41
1
10
-22.5
20
11.7892769425394
30
0
41
1
10
-22.5
20
10.7121918739409
30
0
41
1
10
-22.5
20
9.70096045673193
30
0
41
1
10
-22.5
20
8.5951948167403
30
0
41
1
10
-22.5
20
7.35789505897995
30
0
41
1
10
-22.5
20
5.98264719956148
30
0
41
1
10
-22.5
20
4.89022238185547
30
0
41
1
10
-22.5
20
3.73751305004353
30
0
41
1
10
-22.5
20
2.52988134516508
30
0
41
1
10
-22.5
20
1.48826022368627
30
0
41
1
10
-22.5
20
0.637225639727404
30
0
41
1
10
-22.5
20
-1.01300202E-07
30
0
41
1
10
-22.5
20
-0.63722566300541
30
0
41
1
10
-22.5
20
-1.48826017841199
30
0
41
1
10
-22.5
20
-2.52988151772914
30
0
41
1
10
-22.5
20
-3.73751327283387
30
0
41
1
10
-22.5
20
-4.89022224945154
30
0
41
1
10
-22.5
20
-5.98264738368823
30
0
41
1
10
-22.5
20
-7.35789518762175
30
0
41
1
10
-22.5
20
-8.59519482612015
30
0
41
1
10
-22.5
20
-9.70096055319001
30
0
41
1
10
-22.5
20
-10.7121915826386
30
0
41
1
10
-22.5
20
-11.7892772585257
30
0
41
1
10
-22.5
20
-12.6015910628856
30
0
41
1
10
-22.5
20
-13.0738790940806
30
0
41
1
10
-22.5
20
-13.3308793310681
30
0
41
1
10
-22.5
20
-13.4821969014869
30
0
41
1
10
-22.5
20
-13.5046599496147
30
0
41
1
10
-22.5
20
-13.4936006576699
30
0
0
SPLINE
5
149
100
AcDbEntity
8
SK1
62
256
6
ByLayer
370
18
48
1
60
0
100
AcDbSpline
70
4
71
3
72
50
73
46
40
0
40
0
40
0
40
0
40
0.125000000000012
40
0.125000000000012
40
0.250000000000024
40
0.250000000000024
40
0.312500000000031
40
0.312500000000031
40
0.375000000000038
40
0.375000000000038
40
0.437500000000045
40
0.437500000000045
40
0.468750000000048
40
0.468750000000048
40
0.48437500000005
40
0.48437500000005
40
0.500000000000052
40
0.500000000000052
40
0.515625000000054
40
0.515625000000054
40
0.523437500000057
40
0.523437500000057
40
0.531250000000059
40
0.531250000000059
40
0.535156250000059
40
0.535156250000059
40
0.539062500000059
40
0.539062500000059
40
0.546875000000059
40
0.546875000000059
40
0.562500000000056
40
0.562500000000056
40
0.578125000000054
40
0.578125000000054
40
0.593750000000052
40
0.593750000000052
40
0.625000000000048
40
0.625000000000048
40
0.68750000000004
40
0.68750000000004
40
0.750000000000032
40
0.750000000000032
40
0.875000000000016
40
0.875000000000016
40
1
40
1
40
1
40
1
41
1
10
-1.4950399779393
20
-2.59572959682799
30
0
41
1
10
-1.50259580380231
20
-2.54970538090487
30
0
41
1
10
-1.51044407919379
20
-2.5037485497009
30
0
41
1
10
-1.52696140207523
20
-2.41209242042987
30
0
41
1
10
-1.53561964544302
20
-2.36637992038092
30
0
41
1
10
-1.5496214994392
20
-2.29823508774663
30
0
41
1
10
-1.55445799280432
20
-2.27560423600821
30
0
41
1
10
-1.56462503300465
20
-2.23061031941455
30
0
41
1
10
-1.56994933734997
20
-2.20824327444524
30
0
41
1
10
-1.58141440210635
20
-2.1639829941042
30
0
41
1
10
-1.58752132339228
20
-2.14206819971534
30
0
41
1
10
-1.59800183776959
20
-2.11000295822438
30
0
41
1
10
-1.60173135359587
20
-2.09941136011767
30
0
41
1
10
-1.60792208521562
20
-2.0840854996479
30
0
41
1
10
-1.61008417279068
20
-2.0790771956942
30
0
41
1
10
-1.61471614069212
20
-2.06937654210969
30
0
41
1
10
-1.61717970743425
20
-2.06467763004105
30
0
41
1
10
-1.62266900676535
20
-2.05586039978144
30
0
41
1
10
-1.62570082643286
20
-2.05168607565219
30
0
41
1
10
-1.63098239203809
20
-2.04685996014615
30
0
41
1
10
-1.6329019457323
20
-2.04547928392895
30
0
41
1
10
-1.63699263810763
20
-2.04373469956386
30
0
41
1
10
-1.63921911624004
20
-2.04338149066749
30
0
41
1
10
-1.64253578152041
20
-2.04402974687966
30
0
41
1
10
-1.64365346396515
20
-2.04444453700538
30
0
41
1
10
-1.64576913847839
20
-2.04559596629972
30
0
41
1
10
-1.64678471429062
20
-2.04633307019134
30
0
41
1
10
-1.64972344115721
20
-2.04895713823333
30
0
41
1
10
-1.65146277058666
20
-2.05118187975825
30
0
41
1
10
-1.65615085025311
20
-2.05848683766303
30
0
41
1
10
-1.6585367992972
20
-2.06399527606521
30
0
41
1
10
-1.66277344227467
20
-2.07547629075165
30
0
41
1
10
-1.66455510466849
20
-2.0813878802806
30
0
41
1
10
-1.66776761506961
20
-2.09338046474815
30
0
41
1
10
-1.66917976470286
20
-2.09942277841125
30
0
41
1
10
-1.67305217630947
20
-2.11760538297838
30
0
41
1
10
-1.6751594901484
20
-2.12981712458023
30
0
41
1
10
-1.68075232756121
20
-2.16659121971193
30
0
41
1
10
-1.68351230038941
20
-2.19134004598717
30
0
41
1
10
-1.68813273270565
20
-2.24066381962936
30
0
41
1
10
-1.68996451253322
20
-2.26528111364473
30
0
41
1
10
-1.69458987013775
20
-2.33904299616424
30
0
41
1
10
-1.6965250123217
20
-2.38809848078014
30
0
41
1
10
-1.69914629015307
20
-2.48605219520391
30
0
41
1
10
-1.69980283176194
20
-2.53494813104055
30
0
41
1
10
-1.7
20
-2.58377808521789
30
0
0
SPLINE
5
14A
100
AcDbEntity
8
SK1
62
256
6
ByLayer
370
18
48
1
60
0
100
AcDbSpline
70
4
71
3
72
8
73
4
40
0
40
0
40
0
40
0
40
1
40
1
40
1
40
1
41
1
10
-1.30710678118655
20
-3.62853433720642
30
0
41
1
10
-1.37356947571648
20
-3.29172452904805
30
0
41
1
10
-1.43720049720228
20
-2.94804273884375
30
0
41
1
10
-1.4950399779393
20
-2.59572959682799
30
0
0
SPLINE
5
14B
100
AcDbEntity
8
SK1
62
256
6
ByLayer
370
18
48
1
60
0
100
AcDbSpline
70
4
71
3
72
8
73
4
40
0
40
0
40
0
40
0
40
1
40
1
40
1
40
1
41
1
10
-1.4950399779393
20
2.59572866974992
30
0
41
1
10
-1.43720046286556
20
2.94804131885212
30
0
41
1
10
-1.37356940710868
20
3.29172262772087
30
0
41
1
10
-1.30710678118655
20
3.62853202212773
30
0
0
SPLINE
5
14C
100
AcDbEntity
8
SK1
62
256
6
ByLayer
370
18
48
1
60
0
100
AcDbSpline
70
4
71
3
72
50
73
46
40
0
40
0
40
0
40
0
40
0.125000000000011
40
0.125000000000011
40
0.250000000000021
40
0.250000000000021
40
0.312500000000027
40
0.312500000000027
40
0.375000000000032
40
0.375000000000032
40
0.406250000000035
40
0.406250000000035
40
0.421875000000036
40
0.421875000000036
40
0.437500000000038
40
0.437500000000038
40
0.453125000000039
40
0.453125000000039
40
0.460937500000039
40
0.460937500000039
40
0.468750000000038
40
0.468750000000038
40
0.476562500000038
40
0.476562500000038
40
0.484375000000037
40
0.484375000000037
40
0.492187500000037
40
0.492187500000037
40
0.500000000000036
40
0.500000000000036
40
0.515625000000035
40
0.515625000000035
40
0.531250000000034
40
0.531250000000034
40
0.562500000000032
40
0.562500000000032
40
0.625000000000028
40
0.625000000000028
40
0.687500000000023
40
0.687500000000023
40
0.750000000000019
40
0.750000000000019
40
0.87500000000001
40
0.87500000000001
40
1
40
1
40
1
40
1
41
1
10
-1.7
20
2.58377729734613
30
0
41
1
10
-1.69980436369318
20
2.53532682713825
30
0
41
1
10
-1.69915633746155
20
2.48678291130128
30
0
41
1
10
-1.69657077641125
20
2.38945991149225
30
0
41
1
10
-1.69465688317244
20
2.34062742639441
30
0
41
1
10
-1.69011547560279
20
2.26744567235394
30
0
41
1
10
-1.68832031406806
20
2.24305704289955
30
0
41
1
10
-1.68382251839573
20
2.19430149785723
30
0
41
1
10
-1.6811538035131
20
2.16993349213547
30
0
41
1
10
-1.67575012136615
20
2.13342095957782
30
0
41
1
10
-1.67370679113651
20
2.12121687034826
30
0
41
1
10
-1.66999109272727
20
2.10307013790924
30
0
41
1
10
-1.6686459486251
20
2.09706546109075
30
0
41
1
10
-1.66562961649734
20
2.08519083778748
30
0
41
1
10
-1.66396430018823
20
2.07931848353303
30
0
41
1
10
-1.6600558123808
20
2.06781172737621
30
0
41
1
10
-1.65780271049239
20
2.06209889338854
30
0
41
1
10
-1.65360265881839
20
2.05440095769973
30
0
41
1
10
-1.65203540861354
20
2.05194214116116
30
0
41
1
10
-1.64851622596237
20
2.04772090624601
30
0
41
1
10
-1.64651873271588
20
2.04593477970201
30
0
41
1
10
-1.64226262858723
20
2.043768326699
30
0
41
1
10
-1.63997873447313
20
2.04341449775865
30
0
41
1
10
-1.6356843696697
20
2.04410116240959
30
0
41
1
10
-1.63361913581856
20
2.0450986814044
30
0
41
1
10
-1.62982987335099
20
2.04777834300637
30
0
41
1
10
-1.62808309003236
20
2.04945955976308
30
0
41
1
10
-1.62484301170014
20
2.0531239146128
30
0
41
1
10
-1.62333314102943
20
2.05512691093279
30
0
41
1
10
-1.61901669792691
20
2.06146559975113
30
0
41
1
10
-1.61642392925381
20
2.06612103362772
30
0
41
1
10
-1.61160259165956
20
2.07573673930193
30
0
41
1
10
-1.60936320218998
20
2.08073614174975
30
0
41
1
10
-1.60299914819286
20
2.09599696577877
30
0
41
1
10
-1.59920684184681
20
2.10654042134561
30
0
41
1
10
-1.58850203306027
20
2.13871110702169
30
0
41
1
10
-1.58228349561369
20
2.16081267675321
30
0
41
1
10
-1.57063755711233
20
2.20542457669759
30
0
41
1
10
-1.56523752837914
20
2.22799607735607
30
0
41
1
10
-1.55494638829134
20
2.27335583269641
30
0
41
1
10
-1.55006067855432
20
2.29615277543081
30
0
41
1
10
-1.53593092606574
20
2.36476035150477
30
0
41
1
10
-1.52720389146864
20
2.41078220609728
30
0
41
1
10
-1.510557364089
20
2.5030840028657
30
0
41
1
10
-1.50265060758178
20
2.54937072424823
30
0
41
1
10
-1.4950399779393
20
2.59572866980201
30
0
0
SPLINE
5
14D
100
AcDbEntity
8
SK1
62
256
6
ByLayer
370
18
48
1
60
0
100
AcDbSpline
70
4
71
3
72
28
73
24
40
0
40
0
40
0
40
0
40
0.0625
40
0.0625
40
0.125
40
0.125
40
0.25
40
0.25
40
0.375
40
0.375
40
0.5
40
0.5
40
0.53125
40
0.53125
40
0.5625
40
0.5625
40
0.625
40
0.625
40
0.75
40
0.75
40
0.875
40
0.875
40
1
40
1
40
1
40
1
41
1
10
-1.7
20
-2.58377808521789
30
0
41
1
10
-1.71653480458672
20
-2.4797818566588
30
0
41
1
10
-1.73252928227532
20
-2.37518275958956
30
0
41
1
10
-1.76321329032666
20
-2.16467276723154
30
0
41
1
10
-1.7779104307611
20
-2.05868937391003
30
0
41
1
10
-1.8194991935238
20
-1.74011907259904
30
0
41
1
10
-1.84395869573467
20
-1.52647783394633
30
0
41
1
10
-1.88456941336776
20
-1.09633072422011
30
0
41
1
10
-1.90073152159664
20
-0.879827175945792
30
0
41
1
10
-1.92269285742202
20
-0.443534065874189
30
0
41
1
10
-1.9285260192795
20
-0.2237512458141
30
0
41
1
10
-1.92857376506791
20
0.0532112388235646
30
0
41
1
10
-1.92821915648835
20
0.108715900509111
30
0
41
1
10
-1.92678890529307
20
0.219949147197781
30
0
41
1
10
-1.92571062209051
20
0.275747908317783
30
0
41
1
10
-1.92143351430276
20
0.442459814342243
30
0
41
1
10
-1.91719408999322
20
0.552958450347262
30
0
41
1
10
-1.90057185673113
20
0.882620801089502
30
0
41
1
10
-1.88427766240595
20
1.09995043784016
30
0
41
1
10
-1.84353399204588
20
1.53043779083347
30
0
41
1
10
-1.81907192909576
20
1.7435914590406
30
0
41
1
10
-1.76383853333438
20
2.16627904107367
30
0
41
1
10
-1.7330653294344
20
2.37581216989977
30
0
41
1
10
-1.7
20
2.58377729734613
30
0
0
SPLINE
5
14E
100
AcDbEntity
8
1
62
256
6
ByLayer
370
18
48
1
60
0
100
AcDbSpline
70
4
71
3
72
18
73
14
40
0
40
0
40
0
40
0
40
0.106502320877198
40
0.209819720887745
40
0.309970050663103
40
0.406972922399073
40
0.500849920824631
40
0.591624858695377
40
0.679324076625696
40
0.763976789998232
40
0.845615488386782
40
0.924276395493016
40
1
40
1
40
1
40
1
41
1
10
57.59011863841
20
-23.9824405270232
30
0
41
1
10
57.5885415273358
20
-23.9817068980685
30
0
41
1
10
57.5854344682343
20
-23.9802615791193
30
0
41
1
10
57.5809243323186
20
-23.9778020598849
30
0
41
1
10
57.5766153234624
20
-23.9751913338199
30
0
41
1
10
57.5725126225172
20
-23.9724255733562
30
0
41
1
10
57.5686149102104
20
-23.9695287313198
30
0
41
1
10
57.5649224452297
20
-23.9665170689627
30
0
41
1
10
57.561435372045
20
-23.9634075972062
30
0
41
1
10
57.5581528367141
20
-23.960217784305
30
0
41
1
10
57.5550778698626
20
-23.9569587675964
30
0
41
1
10
57.5521996835922
20
-23.9536611174662
30
0
41
1
10
57.5504035869187
20
-23.9513660131083
30
0
41
1
10
57.54952262475
20
-23.9502402941298
30
0
0
SPLINE
5
14F
100
AcDbEntity
8
1
62
256
6
ByLayer
370
18
48
1
60
0
100
AcDbSpline
70
4
71
3
72
16
73
12
40
0
40
0
40
0
40
0
40
0.117319552095894
40
0.233085853241696
40
0.347299362202338
40
0.459960556706212
40
0.571069934503118
40
0.680628014495723
40
0.7886353379499
40
0.895092469791809
40
1
40
1
40
1
40
1
41
1
10
57.74894541545
20
-24.0433026102784
30
0
41
1
10
57.7426777667177
20
-24.0412621741004
30
0
41
1
10
57.730225449721
20
-24.037208316077
30
0
41
1
10
57.7117192560503
20
-24.0308512888338
30
0
41
1
10
57.6934972967516
20
-24.0243534071991
30
0
41
1
10
57.6755628434144
20
-24.0177013721934
30
0
41
1
10
57.6579151154146
20
-24.0109096448287
30
0
41
1
10
57.6405540289178
20
-24.0039869730995
30
0
41
1
10
57.6234806581604
20
-23.9969370666498
30
0
41
1
10
57.6066908752728
20
-23.9897880429099
30
0
41
1
10
57.5956156516848
20
-23.9848776990612
30
0
41
1
10
57.59011863841
20
-23.9824405270162
30
0
0
SPLINE
5
150
100
AcDbEntity
8
1
62
256
6
ByLayer
370
18
48
1
60
0
100
AcDbSpline
70
4
71
2
72
10
73
7
40
0
40
0
40
0
40
0.5
40
0.5
40
0.75
40
0.75
40
1
40
1
40
1
41
1
10
57.7489454154405
20
-24.0433026102422
30
0
41
1
10
57.816539241663
20
-24.0651444123737
30
0
41
1
10
57.8642354827661
20
-24.1185010260901
30
0
41
1
10
57.8902224727179
20
-24.1475720336254
30
0
41
1
10
57.9068593747274
20
-24.1839862119609
30
0
41
1
10
57.9248252361494
20
-24.2233091629162
30
0
41
1
10
57.92894619708
20
-24.2664492950227
30
0
0
SPLINE
5
151
100
AcDbEntity
8
1
62
256
6
ByLayer
370
18
48
1
60
0
100
AcDbSpline
70
4
71
2
72
6
73
3
40
0
40
0
40
0
40
1
40
1
40
1
41
1
10
57.928946197118
20
-24.266449294938
30
0
41
1
10
57.9378374892901
20
-24.3619206247225
30
0
41
1
10
57.9378609595285
20
-24.4573798110541
30
0
0
SPLINE
5
152
100
AcDbEntity
8
1
62
256
6
ByLayer
370
18
48
1
60
0
100
AcDbSpline
70
4
71
3
72
17
73
13
40
0
40
0
40
0
40
0
40
0.100317411816895
40
0.200541310293377
40
0.300680278273343
40
0.400742920447323
40
0.500737861201704
40
0.600673742442667
40
0.700559221399158
40
0.800402968404831
40
0.90021366466352
40
1
40
1
40
1
40
1
41
1
10
57.92894619712
20
-24.6876637202025
30
0
41
1
10
57.9295231228817
20
-24.6813433683135
30
0
41
1
10
57.9306764366097
20
-24.6687085562071
30
0
41
1
10
57.9321818251214
20
-24.649718235078
30
0
41
1
10
57.9335216262512
20
-24.6307141500847
30
0
41
1
10
57.9346798037513
20
-24.6116944121259
30
0
41
1
10
57.9356607269914
20
-24.5926616449342
30
0
41
1
10
57.9364629358429
20
-24.5736172514895
30
0
41
1
10
57.9370879043617
20
-24.5545630091593
30
0
41
1
10
57.9375311975091
20
-24.5355004157127
30
0
41
1
10
57.9378090731845
20
-24.5164317102459
30
0
41
1
10
57.9378436654889
20
-24.5037136830207
30
0
41
1
10
57.93786095953
20
-24.4973554455291
30
0
0
SPLINE
5
153
100
AcDbEntity
8
1
62
256
6
ByLayer
370
18
48
1
60
0
100
AcDbSpline
70
4
71
3
72
38
73
34
40
0
40
0
40
0
40
0
40
0.0320161803190598
40
0.0634137556494164
40
0.0941938978100973
40
0.124357850627719
40
0.153906935790689
40
0.182842559292624
40
0.211166218534065
40
0.238879510162467
40
0.2659841387402
40
0.292481926343991
40
0.318374823211784
40
0.343664919571535
40
0.36835445880406
40
0.392445852114305
40
0.415941694911074
40
0.438844785123646
40
0.461158143716725
40
0.482885037704947
40
0.504029006008832
40
0.551366811163278
40
0.597409666800368
40
0.642207857910831
40
0.685815975457095
40
0.728293199079292
40
0.769703557231235
40
0.81011614964302
40
0.84960531421061
40
0.888250718110488
40
0.926137351649346
40
0.963355403684642
40
1
40
1
40
1
40
1
41
1
10
57.74894541544
20
-24.8982465315252
30
0
41
1
10
57.7515736233647
20
-24.8975577026527
30
0
41
1
10
57.7567792579367
20
-24.8961933542087
30
0
41
1
10
57.7644507904016
20
-24.8938273080269
30
0
41
1
10
57.7719249095613
20
-24.8912665593978
30
0
41
1
10
57.7791975153447
20
-24.8885001648683
30
0
41
1
10
57.7862696764341
20
-24.8855471385576
30
0
41
1
10
57.7931411178628
20
-24.8824185102053
30
0
41
1
10
57.7998119140345
20
-24.8791271562123
30
0
41
1
10
57.8062820488618
20
-24.8756852156664
30
0
41
1
10
57.8125515300007
20
-24.8721047344899
30
0
41
1
10
57.8186203592441
20
-24.8683974741646
30
0
41
1
10
57.8244885401619
20
-24.864574939847
30
0
41
1
10
57.8301560763662
20
-24.8606483541805
30
0
41
1
10
57.8356229711867
20
-24.8566286473592
30
0
41
1
10
57.8408892306567
20
-24.8525264461539
30
0
41
1
10
57.8459548524154
20
-24.8483520623102
30
0
41
1
10
57.8508198658018
20
-24.8441154943199
30
0
41
1
10
57.8554841879102
20
-24.839826387751
30
0
41
1
10
57.8599481402178
20
-24.8354941515583
30
0
41
1
10
57.8660095567998
20
-24.8292845945586
30
0
41
1
10
57.8734588192033
20
-24.8209613275362
30
0
41
1
10
57.8820027422796
20
-24.810194020728
30
0
41
1
10
57.8898489226435
20
-24.7990268026617
30
0
41
1
10
57.8969976055378
20
-24.7875047858817
30
0
41
1
10
57.9034486190907
20
-24.7756722165057
30
0
41
1
10
57.9092017357358
20
-24.7635730028274
30
0
41
1
10
57.9142571546107
20
-24.7512505130346
30
0
41
1
10
57.9186132961071
20
-24.7387469971029
30
0
41
1
10
57.9222748801839
20
-24.7261052155439
30
0
41
1
10
57.9252236999947
20
-24.713361945316
30
0
41
1
10
57.9275246334318
20
-24.7005710251447
30
0
41
1
10
57.928474801506
20
-24.6919438284806
30
0
41
1
10
57.92894619708
20
-24.6876637201152
30
0
0
SPLINE
5
154
100
AcDbEntity
8
1
62
256
6
ByLayer
370
18
48
1
60
0
100
AcDbSpline
70
4
71
2
72
6
73
3
40
0
40
0
40
0
40
1
40
1
40
1
41
1
10
57.748945415449
20
-24.8982465314895
30
0
41
1
10
57.6679467190096
20
-24.9186577860893
30
0
41
1
10
57.5901186384095
20
-24.9480226655886
30
0
0
SPLINE
5
155
100
AcDbEntity
8
1
62
256
6
ByLayer
370
18
48
1
60
0
100
AcDbSpline
70
4
71
2
72
6
73
3
40
0
40
0
40
0
40
1
40
1
40
1
41
1
10
57.5901186384085
20
-24.9480226655816
30
0
41
1
10
57.5658197594152
20
-24.9573377711004
30
0
41
1
10
57.549522624748
20
-24.9773893375848
30
0
0
LINE
5
7D
100
AcDbEntity
8
1
62
256
6
ByLayer
370
18
48
1
60
0
100
AcDbLine
10
0
20
-19.7
30
0
11
0.3
21
-20
31
0
39
0
210
0
220
0
230
1
0
LINE
5
7E
100
AcDbEntity
8
1
62
256
6
ByLayer
370
18
48
1
60
0
100
AcDbLine
10
0.3
20
20
30
0
11
0
21
19.7
31
0
39
0
210
0
220
0
230
1
0
LINE
5
7F
100
AcDbEntity
8
1
62
256
6
ByLayer
370
18
48
1
60
0
100
AcDbLine
10
20
20
20
30
0
11
0.3
21
20
31
0
39
0
210
0
220
0
230
1
0
LINE
5
80
100
AcDbEntity
8
1
62
256
6
ByLayer
370
18
48
1
60
0
100
AcDbLine
10
0.3
20
-20
30
0
11
20.279208
21
-20
31
0
39
0
210
0
220
0
230
1
0
LINE
5
81
100
AcDbEntity
8
80
62
256
6
ByLayer
370
18
48
1
60
0
100
AcDbLine
10
0
20
0
30
0
11
-5
21
0
31
0
39
0
210
0
220
0
230
1
0
LINE
5
82
100
AcDbEntity
8
81
62
256
6
ByLayer
370
18
48
1
60
0
100
AcDbLine
10
65
20
-27
30
0
11
70
21
-27
31
0
39
0
210
0
220
0
230
1
0
LINE
5
83
100
AcDbEntity
8
1
62
256
6
ByLayer
370
18
48
1
60
0
100
AcDbLine
10
64
20
-27.037038
30
0
11
64
21
-26.969738
31
0
39
0
210
0
220
0
230
1
0
LINE
5
84
100
AcDbEntity
8
1
62
256
6
ByLayer
370
18
48
1
60
0
100
AcDbLine
10
57.806681
20
-27.037038
30
0
11
57.80619
21
-26.760184
31
0
39
0
210
0
220
0
230
1
0
LINE
5
85
100
AcDbEntity
8
1
62
256
6
ByLayer
370
18
48
1
60
0
100
AcDbLine
10
55.337058
20
-27.044965
30
0
11
55.336639
21
-26.808997
31
0
39
0
210
0
220
0
230
1
0
LINE
5
86
100
AcDbEntity
8
1
62
256
6
ByLayer
370
13
48
1
60
0
100
AcDbLine
10
23.2
20
-21.15
30
0
11
21.618109
21
-21.15
31
0
39
0
210
0
220
0
230
1
0
LINE
5
87
100
AcDbEntity
8
1
62
256
6
ByLayer
370
13
48
1
60
0
100
AcDbLine
10
23.2
20
-20.15
30
0
11
23.2
21
-21.15
31
0
39
0
210
0
220
0
230
1
0
LINE
5
88
100
AcDbEntity
8
1
62
256
6
ByLayer
370
18
48
1
60
0
100
AcDbLine
10
54.248217
20
-34.179276
30
0
11
26.457942
21
-34.179276
31
0
39
0
210
0
220
0
230
1
0
LINE
5
89
100
AcDbEntity
8
1
62
256
6
ByLayer
370
18
48
1
60
0
100
AcDbLine
10
64
20
-27.037038
30
0
11
64
21
-27.932691
31
0
39
0
210
0
220
0
230
1
0
LINE
5
8A
100
AcDbEntity
8
1
62
256
6
ByLayer
370
18
48
1
60
0
100
AcDbLine
10
64
20
-27.037038
30
0
11
57.806681
21
-27.037038
31
0
39
0
210
0
220
0
230
1
0
LINE
5
8B
100
AcDbEntity
8
1
62
256
6
ByLayer
370
18
48
1
60
0
100
AcDbLine
10
55.337058
20
-27.044965
30
0
11
53.665893
21
-27.044965
31
0
39
0
210
0
220
0
230
1
0
LINE
5
8C
100
AcDbEntity
8
1
62
256
6
ByLayer
370
18
48
1
60
0
100
AcDbLine
10
26.893567
20
-26.741203
30
0
11
27.400061
21
-26.741203
31
0
39
0
210
0
220
0
230
1
0
LINE
5
8D
100
AcDbEntity
8
1
62
256
6
ByLayer
370
18
48
1
60
0
100
AcDbLine
10
23.2
20
-26.965003
30
0
11
23.152838
21
-26.965003
31
0
39
0
210
0
220
0
230
1
0
LINE
5
8E
100
AcDbEntity
8
1
62
256
6
ByLayer
370
18
48
1
60
0
100
AcDbLine
10
26.893567
20
-26.741203
30
0
11
26.893567
21
-21.15
31
0
39
0
210
0
220
0
230
1
0
LINE
5
8F
100
AcDbEntity
8
1
62
256
6
ByLayer
370
13
48
1
60
0
100
AcDbLine
10
26.893567
20
-21.15
30
0
11
23.2
21
-21.15
31
0
39
0
210
0
220
0
230
1
0
LINE
5
90
100
AcDbEntity
8
1
62
256
6
ByLayer
370
13
48
1
60
0
100
AcDbLine
10
23.2
20
-26.965003
30
0
11
23.2
21
-21.15
31
0
39
0
210
0
220
0
230
1
0
LINE
5
91
100
AcDbEntity
8
1
62
256
6
ByLayer
370
18
48
1
60
0
100
AcDbLine
10
27.279365
20
-21.15
30
0
11
27.279365
21
-26.692455
31
0
39
0
210
0
220
0
230
1
0
LINE
5
92
100
AcDbEntity
8
1
62
256
6
ByLayer
370
13
48
1
60
0
100
AcDbLine
10
27.4
20
-21.15
30
0
11
27.279365
21
-21.15
31
0
39
0
210
0
220
0
230
1
0
LINE
5
93
100
AcDbEntity
8
1
62
256
6
ByLayer
370
18
48
1
60
0
100
AcDbLine
10
56.508025
20
-26.553819
30
0
11
56.477145
21
-26.716021
31
0
39
0
210
0
220
0
230
1
0
LINE
5
94
100
AcDbEntity
8
1
62
256
6
ByLayer
370
18
48
1
60
0
100
AcDbLine
10
24.399843
20
-20.15
30
0
11
23.400157
21
-20.15
31
0
39
0
210
0
220
0
230
1
0
LINE
5
95
100
AcDbEntity
8
1
62
256
6
ByLayer
370
18
48
1
60
0
100
AcDbLine
10
24.400011
20
15.003596
30
0
11
24.008848
21
15.003596
31
0
39
0
210
0
220
0
230
1
0
LINE
5
96
100
AcDbEntity
8
1
62
256
6
ByLayer
370
18
48
1
60
0
100
AcDbLine
10
27.400165
20
-26.692455
30
0
11
27.279365
21
-26.692455
31
0
39
0
210
0
220
0
230
1
0
LINE
5
97
100
AcDbEntity
8
1
62
256
6
ByLayer
370
13
48
1
60
0
100
AcDbLine
10
47
20
-22.371555
30
0
11
47
21
-24.216085
31
0
39
0
210
0
220
0
230
1
0
LINE
5
98
100
AcDbEntity
8
1
62
256
6
ByLayer
370
18
48
1
60
0
100
AcDbLine
10
46.22445
20
-27.747106
30
0
11
49.079006
21
-27.747106
31
0
39
0
210
0
220
0
230
1
0
LINE
5
99
100
AcDbEntity
8
1
62
256
6
ByLayer
370
18
48
1
60
0
100
AcDbLine
10
53.5
20
-22.821148
30
0
11
53.5
21
-27.074948
31
0
39
0
210
0
220
0
230
1
0
LINE
5
9A
100
AcDbEntity
8
1
62
256
6
ByLayer
370
18
48
1
60
0
100
AcDbLine
10
26.4
20
-20.15
30
0
11
24.4
21
-20.15
31
0
39
0
210
0
220
0
230
1
0
LINE
5
9B
100
AcDbEntity
8
1
62
256
6
ByLayer
370
18
48
1
60
0
100
AcDbLine
10
27.4
20
-27.747106
30
0
11
27.4
21
-21.15
31
0
39
0
210
0
220
0
230
1
0
LINE
5
9C
100
AcDbEntity
8
1
62
256
6
ByLayer
370
18
48
1
60
0
100
AcDbLine
10
24.4
20
15.003596
30
0
11
33.9
21
15.003596
31
0
39
0
210
0
220
0
230
1
0
LINE
5
9D
100
AcDbEntity
8
1
62
256
6
ByLayer
370
18
48
1
60
0
100
AcDbLine
10
24.4
20
-20.15
30
0
11
24.4
21
15.003596
31
0
39
0
210
0
220
0
230
1
0
LINE
5
9E
100
AcDbEntity
8
1
62
256
6
ByLayer
370
18
48
1
60
0
100
AcDbLine
10
46.22445
20
-27.747106
30
0
11
27.4
21
-27.747106
31
0
39
0
210
0
220
0
230
1
0
LINE
5
9F
100
AcDbEntity
8
1
62
256
6
ByLayer
370
18
48
1
60
0
100
AcDbLine
10
46.22445
20
-27.747106
30
0
11
46.22445
21
-24.230363
31
0
39
0
210
0
220
0
230
1
0
LINE
5
A0
100
AcDbEntity
8
1
62
256
6
ByLayer
370
18
48
1
60
0
100
AcDbLine
10
45.4
20
-22.709354
30
0
11
45.4
21
-8.596404
31
0
39
0
210
0
220
0
230
1
0
LINE
5
A1
100
AcDbEntity
8
1
62
256
6
ByLayer
370
18
48
1
60
0
100
AcDbLine
10
45.4
20
-8.596404
30
0
11
33.9
21
15.003596
31
0
39
0
210
0
220
0
230
1
0
LINE
5
A2
100
AcDbEntity
8
1
62
256
6
ByLayer
370
13
48
1
60
0
100
AcDbLine
10
21.438319
20
-17.76747
30
0
11
21.438319
21
-20.15
31
0
39
0
210
0
220
0
230
1
0
LINE
5
A3
100
AcDbEntity
8
1
62
256
6
ByLayer
370
18
48
1
60
0
100
AcDbLine
10
23.4
20
-20.15
30
0
11
23.4
21
15.050205
31
0
39
0
210
0
220
0
230
1
0
LINE
5
A4
100
AcDbEntity
8
1
62
256
6
ByLayer
370
18
48
1
60
0
100
AcDbLine
10
21.943485
20
-20.15
30
0
11
23.4
21
-20.15
31
0
39
0
210
0
220
0
230
1
0
LINE
5
A5
100
AcDbEntity
8
1
62
256
6
ByLayer
370
13
48
1
60
0
100
AcDbLine
10
9.076795
20
19.122283
30
0
11
9.076795
21
5.85989
31
0
39
0
210
0
220
0
230
1
0
LINE
5
A6
100
AcDbEntity
8
1
62
256
6
ByLayer
370
13
48
1
60
0
100
AcDbLine
10
9.336603
20
19.024574
30
0
11
9.336603
21
6.16973
31
0
39
0
210
0
220
0
230
1
0
LINE
5
A7
100
AcDbEntity
8
1
62
256
6
ByLayer
370
13
48
1
60
0
100
AcDbLine
10
6.663397
20
-6.16973
30
0
11
6.663397
21
-19.024574
31
0
39
0
210
0
220
0
230
1
0
LINE
5
A8
100
AcDbEntity
8
1
62
256
6
ByLayer
370
13
48
1
60
0
100
AcDbLine
10
6.923205
20
-5.85989
30
0
11
6.923205
21
-19.122283
31
0
39
0
210
0
220
0
230
1
0
LINE
5
A9
100
AcDbEntity
8
1
62
256
6
ByLayer
370
13
48
1
60
0
100
AcDbLine
10
9.076795
20
-5.85989
30
0
11
9.076795
21
-19.122283
31
0
39
0
210
0
220
0
230
1
0
LINE
5
AA
100
AcDbEntity
8
1
62
256
6
ByLayer
370
13
48
1
60
0
100
AcDbLine
10
9.336603
20
-6.16973
30
0
11
9.336603
21
-19.024574
31
0
39
0
210
0
220
0
230
1
0
LINE
5
AB
100
AcDbEntity
8
1
62
256
6
ByLayer
370
13
48
1
60
0
100
AcDbLine
10
6.663397
20
19.024574
30
0
11
6.663397
21
6.16973
31
0
39
0
210
0
220
0
230
1
0
LINE
5
AC
100
AcDbEntity
8
1
62
256
6
ByLayer
370
13
48
1
60
0
100
AcDbLine
10
6.923205
20
19.122283
30
0
11
6.923205
21
5.85989
31
0
39
0
210
0
220
0
230
1
0
LINE
5
AD
100
AcDbEntity
8
1
62
256
6
ByLayer
370
13
48
1
60
0
100
AcDbLine
10
20.05255
20
-14.304004
30
0
11
20.05255
21
14.304004
31
0
39
0
210
0
220
0
230
1
0
LINE
5
AE
100
AcDbEntity
8
1
62
256
6
ByLayer
370
18
48
1
60
0
100
AcDbLine
10
0
20
19.7
30
0
11
0
21
-19.7
31
0
39
0
210
0
220
0
230
1
0
LINE
5
AF
100
AcDbEntity
8
1
62
256
6
ByLayer
370
13
48
1
60
0
100
AcDbLine
10
20.279208
20
17.557988
30
0
11
20.279208
21
15.462146
31
0
39
0
210
0
220
0
230
1
0
LINE
5
B0
100
AcDbEntity
8
1
62
256
6
ByLayer
370
18
48
1
60
0
100
AcDbLine
10
20.009
20
18.96869
30
0
11
20
21
20
31
0
39
0
210
0
220
0
230
1
0
LINE
5
B1
100
AcDbEntity
8
1
62
256
6
ByLayer
370
13
48
1
60
0
100
AcDbLine
10
20.279208
20
-20
30
0
11
20.279208
21
-15.462146
31
0
39
0
210
0
220
0
230
1
0
LINE
5
B2
100
AcDbEntity
8
1
62
256
6
ByLayer
370
18
48
1
60
0
100
AcDbLine
10
0.3
20
20
30
0
11
0.3
21
-20
31
0
39
0
210
0
220
0
230
1
0
LINE
5
B3
100
AcDbEntity
8
1
62
256
6
ByLayer
370
18
48
1
60
0
100
AcDbLine
10
9.076795
20
-19.122283
30
0
11
6.923205
21
-19.122283
31
0
39
0
210
0
220
0
230
1
0
LINE
5
B4
100
AcDbEntity
8
1
62
256
6
ByLayer
370
18
48
1
60
0
100
AcDbLine
10
6.923205
20
-5.85989
30
0
11
9.076795
21
-5.85989
31
0
39
0
210
0
220
0
230
1
0
LINE
5
B5
100
AcDbEntity
8
1
62
256
6
ByLayer
370
18
48
1
60
0
100
AcDbLine
10
6.923205
20
19.122283
30
0
11
9.076795
21
19.122283
31
0
39
0
210
0
220
0
230
1
0
LINE
5
B6
100
AcDbEntity
8
1
62
256
6
ByLayer
370
18
48
1
60
0
100
AcDbLine
10
9.076795
20
5.85989
30
0
11
6.923205
21
5.85989
31
0
39
0
210
0
220
0
230
1
0
LINE
5
B7
100
AcDbEntity
8
SK1
62
256
6
ByLayer
370
18
48
1
60
0
100
AcDbLine
10
-0.2
20
-14.083485
30
0
11
-0.2
21
-5.678452
31
0
39
0
210
0
220
0
230
1
0
LINE
5
B9
100
AcDbEntity
8
SK1
62
256
6
ByLayer
370
18
48
1
60
0
100
AcDbLine
10
-0.2
20
14.083485
30
0
11
-0.2
21
5.678452
31
0
39
0
210
0
220
0
230
1
0
LINE
5
BA
100
AcDbEntity
8
SK1
62
256
6
ByLayer
370
13
48
1
60
0
100
AcDbLine
10
-1.307107
20
3.628532
30
0
11
-1.307107
21
-3.628534
31
0
39
0
210
0
220
0
230
1
0
LINE
5
BB
100
AcDbEntity
8
1
62
256
6
ByLayer
370
18
48
1
60
0
100
AcDbLine
10
58.63
20
-22.402802
30
0
11
60.124301
21
-22.402802
31
0
39
0
210
0
220
0
230
1
0
LINE
5
BC
100
AcDbEntity
8
1
62
256
6
ByLayer
370
18
48
1
60
0
100
AcDbLine
10
60.5
20
-26.817021
30
0
11
60.124301
21
-26.600244
31
0
39
0
210
0
220
0
230
1
0
LINE
5
BD
100
AcDbEntity
8
1
62
256
6
ByLayer
370
18
48
1
60
0
100
AcDbLine
10
64.686914
20
-26.999715
30
0
11
60.5
21
-26.817021
31
0
39
0
210
0
220
0
230
1
0
LINE
5
BE
100
AcDbEntity
8
1
62
256
6
ByLayer
370
18
48
1
60
0
100
AcDbLine
10
65
20
-26.700183
30
0
11
65
21
-22.302863
31
0
39
0
210
0
220
0
230
1
0
LINE
5
BF
100
AcDbEntity
8
1
62
256
6
ByLayer
370
18
48
1
60
0
100
AcDbLine
10
64.686914
20
-22.003331
30
0
11
60.5
21
-22.186024
31
0
39
0
210
0
220
0
230
1
0
LINE
5
C0
100
AcDbEntity
8
1
62
256
6
ByLayer
370
18
48
1
60
0
100
AcDbLine
10
60.5
20
-22.186024
30
0
11
60.124301
21
-22.402802
31
0
39
0
210
0
220
0
230
1
0
LINE
5
C1
100
AcDbEntity
8
1
62
256
6
ByLayer
370
13
48
1
60
0
100
AcDbLine
10
57.000085
20
-24.45738
30
0
11
57.937861
21
-24.45738
31
0
39
0
210
0
220
0
230
1
0
LINE
5
C2
100
AcDbEntity
8
1
62
256
6
ByLayer
370
13
48
1
60
0
100
AcDbLine
10
56.99932
20
-24.497355
30
0
11
57.937861
21
-24.497355
31
0
39
0
210
0
220
0
230
1
0
LINE
5
C3
100
AcDbEntity
8
1
62
256
6
ByLayer
370
13
48
1
60
0
100
AcDbLine
10
57.003989
20
-24.266449
30
0
11
57.928946
21
-24.266449
31
0
39
0
210
0
220
0
230
1
0
LINE
5
C4
100
AcDbEntity
8
1
62
256
6
ByLayer
370
13
48
1
60
0
100
AcDbLine
10
56.995422
20
-24.687664
30
0
11
57.928946
21
-24.687664
31
0
39
0
210
0
220
0
230
1
0
LINE
5
C5
100
AcDbEntity
8
1
62
256
6
ByLayer
370
13
48
1
60
0
100
AcDbLine
10
56.936261
20
-24.043303
30
0
11
57.748945
21
-24.043303
31
0
39
0
210
0
220
0
230
1
0
LINE
5
C6
100
AcDbEntity
8
1
62
256
6
ByLayer
370
13
48
1
60
0
100
AcDbLine
10
56.882705
20
-24.898247
30
0
11
57.748945
21
-24.898247
31
0
39
0
210
0
220
0
230
1
0
LINE
5
C7
100
AcDbEntity
8
1
62
256
6
ByLayer
370
13
48
1
60
0
100
AcDbLine
10
57.590119
20
-23.982441
30
0
11
56.831134
21
-23.982441
31
0
39
0
210
0
220
0
230
1
0
LINE
5
C8
100
AcDbEntity
8
1
62
256
6
ByLayer
370
13
48
1
60
0
100
AcDbLine
10
57.590119
20
-24.948023
30
0
11
56.779676
21
-24.948023
31
0
39
0
210
0
220
0
230
1
0
LINE
5
C9
100
AcDbEntity
8
1
62
256
6
ByLayer
370
13
48
1
60
0
100
AcDbLine
10
56.785072
20
-23.95024
30
0
11
57.549523
21
-23.95024
31
0
39
0
210
0
220
0
230
1
0
LINE
5
CA
100
AcDbEntity
8
1
62
256
6
ByLayer
370
13
48
1
60
0
100
AcDbLine
10
56.775526
20
-23.856012
30
0
11
57.477691
21
-23.856012
31
0
39
0
210
0
220
0
230
1
0
LINE
5
CB
100
AcDbEntity
8
1
62
256
6
ByLayer
370
13
48
1
60
0
100
AcDbLine
10
56.76014
20
-24.977389
30
0
11
57.549523
21
-24.977389
31
0
39
0
210
0
220
0
230
1
0
LINE
5
CC
100
AcDbEntity
8
1
62
256
6
ByLayer
370
13
48
1
60
0
100
AcDbLine
10
56.746593
20
-25.066604
30
0
11
57.477691
21
-25.066604
31
0
39
0
210
0
220
0
230
1
0
LINE
5
CD
100
AcDbEntity
8
1
62
256
6
ByLayer
370
13
48
1
60
0
100
AcDbLine
10
56.771127
20
-23.811081
30
0
11
57.457959
21
-23.811081
31
0
39
0
210
0
220
0
230
1
0
LINE
5
CE
100
AcDbEntity
8
1
62
256
6
ByLayer
370
18
48
1
60
0
100
AcDbLine
10
47.753645
20
-22.354514
30
0
11
57.246355
21
-22.354514
31
0
39
0
210
0
220
0
230
1
0
LINE
5
CF
100
AcDbEntity
8
1
62
256
6
ByLayer
370
13
48
1
60
0
100
AcDbLine
10
56.648907
20
-22.595618
30
0
11
57.246355
21
-22.595618
31
0
39
0
210
0
220
0
230
1
0
LINE
5
D0
100
AcDbEntity
8
1
62
256
6
ByLayer
370
13
48
1
60
0
100
AcDbLine
10
56.65068
20
-22.613025
30
0
11
57.247874
21
-22.613025
31
0
39
0
210
0
220
0
230
1
0
LINE
5
D1
100
AcDbEntity
8
1
62
256
6
ByLayer
370
13
48
1
60
0
100
AcDbLine
10
56.739829
20
-25.110157
30
0
11
57.457959
21
-25.110157
31
0
39
0
210
0
220
0
230
1
0
LINE
5
D2
100
AcDbEntity
8
1
62
256
6
ByLayer
370
13
48
1
60
0
100
AcDbLine
10
56.553052
20
-26.29355
30
0
11
57.247874
21
-26.29355
31
0
39
0
210
0
220
0
230
1
0
LINE
5
D3
100
AcDbEntity
8
1
62
256
6
ByLayer
370
18
48
1
60
0
100
AcDbLine
10
60.401509
20
-26.760211
30
0
11
55.851674
21
-26.760211
31
0
39
0
210
0
220
0
230
1
0
LINE
5
D4
100
AcDbEntity
8
1
62
256
6
ByLayer
370
18
48
1
60
0
100
AcDbLine
10
58.63
20
-26.600244
30
0
11
60.124301
21
-26.600244
31
0
39
0
210
0
220
0
230
1
0
LINE
5
D5
100
AcDbEntity
8
1
62
256
6
ByLayer
370
13
48
1
60
0
100
AcDbLine
10
56.549976
20
-26.310851
30
0
11
57.246355
21
-26.310851
31
0
39
0
210
0
220
0
230
1
0
LINE
5
D6
100
AcDbEntity
8
1
62
256
6
ByLayer
370
18
48
1
60
0
100
AcDbLine
10
56.508297
20
-26.551955
30
0
11
57.246355
21
-26.551955
31
0
39
0
210
0
220
0
230
1
0
LINE
5
D7
100
AcDbEntity
8
1
62
256
6
ByLayer
370
18
48
1
60
0
100
AcDbLine
10
58.63
20
-26.600244
30
0
11
58.63
21
-22.402802
31
0
39
0
210
0
220
0
230
1
0
LINE
5
D8
100
AcDbEntity
8
1
62
256
6
ByLayer
370
18
48
1
60
0
100
AcDbLine
10
57.246355
20
-22.354514
30
0
11
58.63
21
-22.402802
31
0
39
0
210
0
220
0
230
1
0
LINE
5
D9
100
AcDbEntity
8
1
62
256
6
ByLayer
370
18
48
1
60
0
100
AcDbLine
10
57.246355
20
-22.595618
30
0
11
57.246355
21
-22.354514
31
0
39
0
210
0
220
0
230
1
0
LINE
5
DA
100
AcDbEntity
8
1
62
256
6
ByLayer
370
18
48
1
60
0
100
AcDbLine
10
57.457959
20
-23.811081
30
0
11
57.247874
21
-22.613025
31
0
39
0
210
0
220
0
230
1
0
LINE
5
DB
100
AcDbEntity
8
1
62
256
6
ByLayer
370
18
48
1
60
0
100
AcDbLine
10
57.549523
20
-23.95024
30
0
11
57.477691
21
-23.856012
31
0
39
0
210
0
220
0
230
1
0
LINE
5
DC
100
AcDbEntity
8
1
62
256
6
ByLayer
370
18
48
1
60
0
100
AcDbLine
10
57.937861
20
-24.497355
30
0
11
57.937861
21
-24.45738
31
0
39
0
210
0
220
0
230
1
0
LINE
5
DD
100
AcDbEntity
8
1
62
256
6
ByLayer
370
18
48
1
60
0
100
AcDbLine
10
57.549523
20
-24.977389
30
0
11
57.477691
21
-25.066604
31
0
39
0
210
0
220
0
230
1
0
LINE
5
DE
100
AcDbEntity
8
1
62
256
6
ByLayer
370
18
48
1
60
0
100
AcDbLine
10
57.457959
20
-25.110157
30
0
11
57.247874
21
-26.29355
31
0
39
0
210
0
220
0
230
1
0
LINE
5
DF
100
AcDbEntity
8
1
62
256
6
ByLayer
370
18
48
1
60
0
100
AcDbLine
10
57.246355
20
-26.310851
30
0
11
57.246355
21
-26.551955
31
0
39
0
210
0
220
0
230
1
0
LINE
5
E0
100
AcDbEntity
8
1
62
256
6
ByLayer
370
18
48
1
60
0
100
AcDbLine
10
57.246355
20
-26.551955
30
0
11
58.63
21
-26.600244
31
0
39
0
210
0
220
0
230
1
0
LINE
5
E1
100
AcDbEntity
8
1
62
256
6
ByLayer
370
18
48
1
60
0
100
AcDbLine
10
47.753645
20
-22.370969
30
0
11
47.753645
21
-22.354514
31
0
39
0
210
0
220
0
230
1
0
LINE
5
E2
100
AcDbEntity
8
1
62
256
6
ByLayer
370
18
48
1
60
0
100
AcDbLine
10
47.753645
20
-22.354514
30
0
11
47.271423
21
-22.371343
31
0
39
0
210
0
220
0
230
1
0
LINE
5
E3
100
AcDbEntity
8
SK2
62
256
6
ByLayer
370
18
48
1
60
0
100
AcDbLine
10
-33.975
20
-20
30
0
11
-33.975
21
20
31
0
39
0
210
0
220
0
230
1
0
LINE
5
E5
100
AcDbEntity
8
SK2
62
256
6
ByLayer
370
18
48
1
60
0
100
AcDbLine
10
-1.2875
20
20
30
0
11
-35.975
21
20
31
0
39
0
210
0
220
0
230
1
0
LINE
5
E6
100
AcDbEntity
8
SK2
62
256
6
ByLayer
370
18
48
1
60
0
100
AcDbLine
10
-1.2875
20
-20
30
0
11
-35.975
21
-20
31
0
39
0
210
0
220
0
230
1
0
LINE
5
E7
100
AcDbEntity
8
1
62
256
6
ByLayer
370
18
48
1
60
1
100
AcDbLine
10
-33.975
20
20
30
0
11
-33.514216
21
16.500002
31
0
39
0
210
0
220
0
230
1
0
LINE
5
E8
100
AcDbEntity
8
1
62
256
6
ByLayer
370
18
48
1
60
1
100
AcDbLine
10
-33.514216
20
16.500002
30
0
11
-34.435784
21
16.499998
31
0
39
0
210
0
220
0
230
1
0
LINE
5
E9
100
AcDbEntity
8
1
62
256
6
ByLayer
370
18
48
1
60
1
100
AcDbLine
10
-34.435784
20
16.499998
30
0
11
-33.975
21
20
31
0
39
0
210
0
220
0
230
1
0
LINE
5
EA
100
AcDbEntity
8
1
62
256
6
ByLayer
370
18
48
1
60
1
100
AcDbLine
10
-33.975
20
-20
30
0
11
-34.435784
21
-16.500002
31
0
39
0
210
0
220
0
230
1
0
LINE
5
EB
100
AcDbEntity
8
1
62
256
6
ByLayer
370
18
48
1
60
1
100
AcDbLine
10
-34.435784
20
-16.500002
30
0
11
-33.514216
21
-16.499998
31
0
39
0
210
0
220
0
230
1
0
LINE
5
EC
100
AcDbEntity
8
1
62
256
6
ByLayer
370
18
48
1
60
1
100
AcDbLine
10
-33.514216
20
-16.499998
30
0
11
-33.975
21
-20
31
0
39
0
210
0
220
0
230
1
0
LINE
5
15A
100
AcDbEntity
8
1
62
256
6
ByLayer
370
18
48
1
60
1
100
AcDbLine
10
-33.975
20
20
30
0
11
-33.514216
21
16.500002
31
0
39
0
210
0
220
0
230
1
0
LINE
5
15B
100
AcDbEntity
8
1
62
256
6
ByLayer
370
18
48
1
60
1
100
AcDbLine
10
-33.514216
20
16.500002
30
0
11
-34.435784
21
16.499998
31
0
39
0
210
0
220
0
230
1
0
LINE
5
15C
100
AcDbEntity
8
1
62
256
6
ByLayer
370
18
48
1
60
1
100
AcDbLine
10
-34.435784
20
16.499998
30
0
11
-33.975
21
20
31
0
39
0
210
0
220
0
230
1
0
LINE
5
15E
100
AcDbEntity
8
1
62
256
6
ByLayer
370
18
48
1
60
1
100
AcDbLine
10
-33.975
20
-20
30
0
11
-34.435784
21
-16.500002
31
0
39
0
210
0
220
0
230
1
0
LINE
5
15F
100
AcDbEntity
8
1
62
256
6
ByLayer
370
18
48
1
60
1
100
AcDbLine
10
-34.435784
20
-16.500002
30
0
11
-33.514216
21
-16.499998
31
0
39
0
210
0
220
0
230
1
0
LINE
5
160
100
AcDbEntity
8
1
62
256
6
ByLayer
370
18
48
1
60
1
100
AcDbLine
10
-33.514216
20
-16.499998
30
0
11
-33.975
21
-20
31
0
39
0
210
0
220
0
230
1
0
MTEXT
5
156
100
AcDbEntity
8
SK2
62
256
6
ByLayer
370
18
48
1
60
0
100
AcDbMText
10
-35.539634
20
-4.714889
30
0
210
0
220
0
230
1
1
%%c
40
3.5
41
0
44
1.084337
50
90
71
7
72
5
7
iso_b_vert
0
MTEXT
5
159
100
AcDbEntity
8
SK2
62
256
6
ByLayer
370
18
48
1
60
0
100
AcDbMText
10
-35.539634
20
2.257767
30
0
210
0
220
0
230
1
1
\W0.7361;40
40
3.5
41
0
44
1.084337
50
90
71
7
72
5
7
iso_b_vert
0
MTEXT
5
162
100
AcDbEntity
8
SK6
62
256
6
ByLayer
370
18
48
1
60
0
100
AcDbMText
10
-11.8145
20
-62.043502
30
0
210
0
220
0
230
1
1
\W0.7643;C2A-CC4-LFJ18B-040CB
40
3.5
41
0
44
1.084337
50
0
71
7
72
5
7
iso_b_vert
0
HATCH
5
15D
100
AcDbEntity
8
SK2
62
256
6
ByLayer
370
13
48
1
60
0
100
AcDbHatch
10
0
20
0
30
0
210
0
220
0
230
1
2
ANSI31
70
0
71
0
91
1
92
5
93
3
72
1
10
-33.9750000000001
20
20
11
-33.5142162584474
21
16.5000016925532
72
1
10
-33.5142162584474
20
16.5000016925532
11
-34.4357837415529
21
16.4999983074468
72
1
10
-34.4357837415529
20
16.4999983074468
11
-33.9750000000001
21
20
97
0
75
0
76
1
52
0
41
0.0062
77
0
78
1
53
45
43
0
44
0
45
-0.0139193969876572
46
0.0139193969876572
79
0
47
0
98
1
10
0
20
0
0
HATCH
5
161
100
AcDbEntity
8
SK2
62
256
6
ByLayer
370
13
48
1
60
0
100
AcDbHatch
10
0
20
0
30
0
210
0
220
0
230
1
2
ANSI31
70
0
71
0
91
1
92
5
93
3
72
1
10
-33.9750000000001
20
-20
11
-34.4357837415529
21
-16.5000016925532
72
1
10
-34.4357837415529
20
-16.5000016925532
11
-33.5142162584474
21
-16.4999983074468
72
1
10
-33.5142162584474
20
-16.4999983074468
11
-33.9750000000001
21
-20
97
0
75
0
76
1
52
0
41
0.0062
77
0
78
1
53
45
43
0
44
0
45
-0.0139193969876572
46
0.0139193969876572
79
0
47
0
98
1
10
0
20
0
0
DIMENSION
5
165
100
AcDbEntity
8
2
62
256
6
ByLayer
370
18
48
1
60
0
100
AcDbDimension
2
_U0
10
96.1
20
0
30
0
11
96.1
21
-13.5
31
0
70
32
71
1
72
1
41
1
210
0
220
0
230
1
3
Standard
100
AcDbAlignedDimension
13
65
23
-27
33
0
14
0
24
0
34
0
50
90
100
AcDbRotatedDimension
1001
ACAD
1000
DSTYLE
1002
{
1070
   371
1070
    13
1070
   372
1070
    13
1070
   170
1070
     0
1070
   144
1040
1.0
1070
   277
1070
     2
1070
   284
1070
     8
1070
   278
1070
    46
1070
   146
1040
1.0
1070
   345
1005
16
1070
   347
1005
16
1070
   346
1005
16
1070
   344
1005
0
1070
   343
1005
0
1070
   172
1070
     1
1070
    76
1070
     0
1070
    75
1070
     0
1070
   282
1070
     0
1070
   281
1070
     0
1070
    71
1070
     0
1070
    74
1070
     0
1070
   279
1070
     0
1070
   173
1070
     1
1070
   340
1005
157
1070
   271
1070
     1
1070
   272
1070
     2
1070
    77
1070
     1
1070
    73
1070
     0
1070
   171
1070
     3
1070
   274
1070
     4
1070
   177
1070
     2
1070
   176
1070
     2
1070
   178
1070
     2
1070
    78
1070
     8
1070
    48
1040
-0.1
1070
    41
1040
3.5
1070
   147
1040
1.75
1070
    42
1040
1.5875
1070
    44
1040
2.0
1070
   140
1040
3.5
1002
}
1001
ACAD_DSTYLE_DIM_LINETYPE
1070
   380
1005
16
1001
ACAD_DSTYLE_DIM_EXT1_LINETYPE
1070
   381
1005
16
1001
ACAD_DSTYLE_DIM_EXT2_LINETYPE
1070
   382
1005
16
0
DIMENSION
5
17F
100
AcDbEntity
8
2
62
256
6
ByLayer
370
18
48
1
60
0
100
AcDbDimension
2
_U1
10
85.1
20
-27
30
0
11
85.1
21
-24.5
31
0
70
32
71
1
72
1
41
1
210
0
220
0
230
1
3
Standard
100
AcDbAlignedDimension
13
65
23
-22
33
0
14
65
24
-27
34
0
50
90
100
AcDbRotatedDimension
1001
ACAD
1000
DSTYLE
1002
{
1070
   371
1070
    13
1070
   372
1070
    13
1070
   170
1070
     0
1070
   144
1040
1.0
1070
   277
1070
     2
1070
   284
1070
     8
1070
   278
1070
    46
1070
   146
1040
1.0
1070
   345
1005
16
1070
   347
1005
16
1070
   346
1005
16
1070
   344
1005
0
1070
   343
1005
0
1070
   172
1070
     1
1070
    76
1070
     0
1070
    75
1070
     0
1070
   282
1070
     0
1070
   281
1070
     0
1070
    71
1070
     0
1070
    74
1070
     0
1070
   279
1070
     0
1070
   173
1070
     1
1070
   340
1005
157
1070
   271
1070
     1
1070
   272
1070
     2
1070
    77
1070
     1
1070
    73
1070
     0
1070
   171
1070
     3
1070
   274
1070
     4
1070
   177
1070
     2
1070
   176
1070
     2
1070
   178
1070
     2
1070
    78
1070
     8
1070
    48
1040
-0.1
1070
    41
1040
3.5
1070
   147
1040
1.75
1070
    42
1040
1.5875
1070
    44
1040
2.0
1070
   140
1040
3.5
1002
}
1001
ACAD_DSTYLE_DIM_LINETYPE
1070
   380
1005
16
1001
ACAD_DSTYLE_DIM_EXT1_LINETYPE
1070
   381
1005
16
1001
ACAD_DSTYLE_DIM_EXT2_LINETYPE
1070
   382
1005
16
0
DIMENSION
5
198
100
AcDbEntity
8
2
62
256
6
ByLayer
370
18
48
1
60
0
100
AcDbDimension
2
_U2
10
65
20
15.923477
30
0
11
56
21
15.923477
31
0
70
32
71
1
72
1
41
1
210
0
220
0
230
1
3
Standard
100
AcDbAlignedDimension
13
47
23
-22.326523
33
0
14
65
24
-22
34
0
50
0
100
AcDbRotatedDimension
1001
ACAD
1000
DSTYLE
1002
{
1070
   371
1070
    13
1070
   372
1070
    13
1070
   170
1070
     0
1070
   144
1040
1.0
1070
   277
1070
     2
1070
   284
1070
     8
1070
   278
1070
    46
1070
   146
1040
1.0
1070
   345
1005
16
1070
   347
1005
16
1070
   346
1005
16
1070
   344
1005
0
1070
   343
1005
0
1070
   172
1070
     1
1070
    76
1070
     0
1070
    75
1070
     0
1070
   282
1070
     0
1070
   281
1070
     0
1070
    71
1070
     0
1070
    74
1070
     0
1070
   279
1070
     0
1070
   173
1070
     1
1070
   340
1005
157
1070
   271
1070
     1
1070
   272
1070
     2
1070
    77
1070
     1
1070
    73
1070
     1
1070
   171
1070
     3
1070
   274
1070
     4
1070
   177
1070
     2
1070
   176
1070
     2
1070
   178
1070
     2
1070
    78
1070
     8
1070
    48
1040
-0.1
1070
    41
1040
3.5
1070
   147
1040
1.75
1070
    42
1040
1.5875
1070
    44
1040
2.0
1070
   140
1040
3.5
1002
}
1001
ACAD_DSTYLE_DIM_LINETYPE
1070
   380
1005
16
1001
ACAD_DSTYLE_DIM_EXT1_LINETYPE
1070
   381
1005
16
1001
ACAD_DSTYLE_DIM_EXT2_LINETYPE
1070
   382
1005
16
0
DIMENSION
5
1B0
100
AcDbEntity
8
2
62
256
6
ByLayer
370
18
48
1
60
0
100
AcDbDimension
2
_U3
10
65
20
-45.75
30
0
11
32.5
21
-45.75
31
0
70
32
71
1
72
1
41
1
210
0
220
0
230
1
3
Standard
100
AcDbAlignedDimension
13
0
23
0
33
0
14
65
24
-27
34
0
50
0
100
AcDbRotatedDimension
1001
ACAD
1000
DSTYLE
1002
{
1070
   371
1070
    13
1070
   372
1070
    13
1070
   170
1070
     0
1070
   144
1040
1.0
1070
   277
1070
     2
1070
   284
1070
     8
1070
   278
1070
    46
1070
   146
1040
1.0
1070
   345
1005
16
1070
   347
1005
16
1070
   346
1005
16
1070
   344
1005
0
1070
   343
1005
0
1070
   172
1070
     1
1070
    76
1070
     0
1070
    75
1070
     0
1070
   282
1070
     0
1070
   281
1070
     0
1070
    71
1070
     0
1070
    74
1070
     0
1070
   279
1070
     0
1070
   173
1070
     1
1070
   340
1005
157
1070
   271
1070
     1
1070
   272
1070
     2
1070
    77
1070
     1
1070
    73
1070
     1
1070
   171
1070
     3
1070
   274
1070
     4
1070
   177
1070
     2
1070
   176
1070
     2
1070
   178
1070
     2
1070
    78
1070
     8
1070
    48
1040
-0.1
1070
    41
1040
3.5
1070
   147
1040
1.75
1070
    42
1040
1.5875
1070
    44
1040
2.0
1070
   140
1040
3.5
1002
}
1001
ACAD_DSTYLE_DIM_LINETYPE
1070
   380
1005
16
1001
ACAD_DSTYLE_DIM_EXT1_LINETYPE
1070
   381
1005
16
1001
ACAD_DSTYLE_DIM_EXT2_LINETYPE
1070
   382
1005
16
0
ENDSEC
0
SECTION
2
OBJECTS
0
DICTIONARY
5
237
330
0
100
AcDbDictionary
280
0
281
1
3
ACAD_GROUP
350
238
3
ACAD_MLINESTYLE
350
239
0
DICTIONARY
5
238
330
0
100
AcDbDictionary
280
0
281
1
0
DICTIONARY
5
239
330
0
100
AcDbDictionary
280
0
281
1
3
Standard
350
18
0
MLINESTYLE
5
18
330
239
100
AcDbMlineStyle
2
Standard
70
0
3

62
256
51
90
52
90
71
2
49
-0.5
62
256
6
ByLayer
49
0.5
62
256
6
ByLayer
0
RASTERVARIABLES
5
226
330

100
AcDbRasterVariables
90
0
70
1
71
1
72
1
0
ENDSEC
0
EOF
