0
SECTION
2
HEADER
9
$ACADVER
1
AC1015
9
$DWGCODEPAGE
3
ANSI_1252
9
$HANDSEED
5
236
9
$ANGBASE
50
0
9
$ANGDIR
70
0
9
$ATTMODE
70
1
9
$AUNITS
70
0
9
$AUPREC
70
0
9
$CECOLOR
62
256
9
$CELTSCALE
40
1
9
$CELTYPE
6
ByLayer
9
$CELWEIGHT
370
18
9
$CLAYER
8
0
9
$CMLJUST
70
0
9
$CMLSCALE
40
1
9
$CMLSTYLE
2
Standard
9
$DIMSTYLE
2
Standard
9
$TEXTSIZE
40
0.2
9
$TEXTSTYLE
7
Standard
9
$LUNITS
70
2
9
$LUPREC
70
4
9
$EXTNAMES
290
1
9
$INSUNITS
70
4
9
$LTSCALE
40
1
9
$LWDISPLAY
290
1
9
$PDMODE
70
0
9
$PDSIZE
40
0
9
$PLINEGEN
70
0
0
ENDSEC
0
SECTION
2
CLASSES
0
CLASS
1
RASTERVARIABLES
2
AcDbRasterVariables
3
ISM
90
0
280
0
281
0
0
ENDSEC
0
SECTION
2
TABLES
0
TABLE
2
VPORT
5
22c
100
AcDbSymbolTable
0
VPORT
5
1
100
AcDbSymbolTableRecord
100
AcDbViewportTableRecord
2
*Active
70
0
10
0
20
0
11
1
21
1
12
-1
22
1
13
0
23
0
14
0.5
24
0.5
15
10
25
10
16
0
26
0
36
1
17
0
27
0
37
0
0
ENDTAB
0
TABLE
2
LTYPE
5
22d
100
AcDbSymbolTable
0
LTYPE
5
14
100
AcDbSymbolTableRecord
100
AcDbLinetypeTableRecord
70
0
2
ByBlock
3

72
65
73
0
40
0
0
LTYPE
5
15
100
AcDbSymbolTableRecord
100
AcDbLinetypeTableRecord
70
0
2
ByLayer
3

72
65
73
0
40
0
0
LTYPE
5
16
100
AcDbSymbolTableRecord
100
AcDbLinetypeTableRecord
70
0
2
Continuous
3
Solid line
72
65
73
0
40
0
0
LTYPE
5
6E
100
AcDbSymbolTableRecord
100
AcDbLinetypeTableRecord
70
0
2
CENTER
3
____ _ ____ _ ____ _ ____
72
65
73
4
40
47.5
49
22
74
0
49
-8.5
74
0
49
8.5
74
0
49
-8.5
74
0
0
LTYPE
5
6F
100
AcDbSymbolTableRecord
100
AcDbLinetypeTableRecord
70
0
2
DASHED
3
__ __ __ __ __ __ __ __ __
72
65
73
2
40
25.72
49
12.86
74
0
49
-12.86
74
0
0
ENDTAB
0
TABLE
2
LAYER
5
22e
100
AcDbSymbolTable
0
LAYER
5
10
100
AcDbSymbolTableRecord
100
AcDbLayerTableRecord
2
0
70
0
62
7
6
Continuous
290
1
370
-3
390
0
0
LAYER
5
71
100
AcDbSymbolTableRecord
100
AcDbLayerTableRecord
2
80
70
0
62
-6
6
Continuous
290
1
370
-3
390
0
0
LAYER
5
73
100
AcDbSymbolTableRecord
100
AcDbLayerTableRecord
2
81
70
0
62
-3
6
Continuous
290
1
370
-3
390
0
0
LAYER
5
75
100
AcDbSymbolTableRecord
100
AcDbLayerTableRecord
2
1
70
0
62
4
6
Continuous
290
1
370
-3
390
0
0
LAYER
5
15A
100
AcDbSymbolTableRecord
100
AcDbLayerTableRecord
2
Defpoints
70
0
62
7
6
Continuous
290
0
370
-3
390
0
0
LAYER
5
167
100
AcDbSymbolTableRecord
100
AcDbLayerTableRecord
2
2
70
0
62
7
6
Continuous
290
1
370
-3
390
0
0
LAYER
5
219
100
AcDbSymbolTableRecord
100
AcDbLayerTableRecord
2
SK1
70
0
62
4
6
Continuous
290
1
370
-3
390
0
0
LAYER
5
21a
100
AcDbSymbolTableRecord
100
AcDbLayerTableRecord
2
SK2
70
0
62
7
6
Continuous
290
1
370
-3
390
0
0
LAYER
5
21b
100
AcDbSymbolTableRecord
100
AcDbLayerTableRecord
2
SK6
70
0
62
5
6
Continuous
290
1
370
-3
390
0
0
ENDTAB
0
TABLE
2
STYLE
5
22f
100
AcDbSymbolTable
0
STYLE
5
11
100
AcDbSymbolTableRecord
100
AcDbTextStyleTableRecord
2
Standard
3
txt
70
0
71
0
40
0
41
1
42
0
50
0
0
STYLE
5
149
100
AcDbSymbolTableRecord
100
AcDbTextStyleTableRecord
2
iso_b_vert
3
simplex.shx
70
0
71
0
40
0
41
1
42
0
50
0
0
STYLE
5
14A
100
AcDbSymbolTableRecord
100
AcDbTextStyleTableRecord
2
DWGDirectTextStyle
3
simplex
70
0
71
0
40
0
41
1
42
0
50
0
0
ENDTAB
0
TABLE
2
DIMSTYLE
5
230
100
AcDbSymbolTable
100
AcDbDimStyleTable
0
DIMSTYLE
105
27
100
AcDbSymbolTableRecord
100
AcDbDimStyleTableRecord
2
Standard
70
0
3
<>
41
0.18
42
0.0625
44
0.18
140
0.18
147
0.09
73
0
74
0
77
1
271
2
275
0
278
52
280
0
340
11
0
ENDTAB
0
TABLE
2
VIEW
5
231
100
AcDbSymbolTable
0
ENDTAB
0
TABLE
2
UCS
5
232
100
AcDbSymbolTable
0
ENDTAB
0
TABLE
2
APPID
5
233
100
AcDbSymbolTable
0
APPID
5
12
100
AcDbSymbolTableRecord
100
AcDbRegAppTableRecord
2
ACAD
70
0
0
APPID
5
156
100
AcDbSymbolTableRecord
100
AcDbRegAppTableRecord
2
ACAD_DSTYLE_DIMBREAK
70
0
0
APPID
5
1D8
100
AcDbSymbolTableRecord
100
AcDbRegAppTableRecord
2
ACAD_DSTYLE_DIM_LINETYPE
70
0
0
APPID
5
1D9
100
AcDbSymbolTableRecord
100
AcDbRegAppTableRecord
2
ACAD_DSTYLE_DIM_EXT1_LINETYPE
70
0
0
APPID
5
1DA
100
AcDbSymbolTableRecord
100
AcDbRegAppTableRecord
2
ACAD_DSTYLE_DIM_EXT2_LINETYPE
70
0
0
APPID
5
215
100
AcDbSymbolTableRecord
100
AcDbRegAppTableRecord
2
ACAD_MLEADERVER
70
0
0
ENDTAB
0
TABLE
2
BLOCK_RECORD
5
234
100
AcDbSymbolTable
0
BLOCK_RECORD
5
1F
100
AcDbSymbolTableRecord
100
AcDbBlockTableRecord
2
*Model_Space
340
0
70
0
0
BLOCK_RECORD
5
1B
100
AcDbSymbolTableRecord
100
AcDbBlockTableRecord
2
*Paper_Space
340
0
70
0
0
BLOCK_RECORD
5
23
100
AcDbSymbolTableRecord
100
AcDbBlockTableRecord
2
*Paper_Space0
340
0
70
0
0
BLOCK_RECORD
5
15B
100
AcDbSymbolTableRecord
100
AcDbBlockTableRecord
2
*D1
340
0
70
0
0
BLOCK_RECORD
5
168
100
AcDbSymbolTableRecord
100
AcDbBlockTableRecord
2
_U0
340
0
70
0
0
BLOCK_RECORD
5
174
100
AcDbSymbolTableRecord
100
AcDbBlockTableRecord
2
*D3
340
0
70
0
0
BLOCK_RECORD
5
181
100
AcDbSymbolTableRecord
100
AcDbBlockTableRecord
2
_U1
340
0
70
0
0
BLOCK_RECORD
5
18D
100
AcDbSymbolTableRecord
100
AcDbBlockTableRecord
2
*D5
340
0
70
0
0
BLOCK_RECORD
5
199
100
AcDbSymbolTableRecord
100
AcDbBlockTableRecord
2
_U2
340
0
70
0
0
BLOCK_RECORD
5
1A5
100
AcDbSymbolTableRecord
100
AcDbBlockTableRecord
2
*D7
340
0
70
0
0
BLOCK_RECORD
5
1B1
100
AcDbSymbolTableRecord
100
AcDbBlockTableRecord
2
_U3
340
0
70
0
0
ENDTAB
0
ENDSEC
0
SECTION
2
BLOCKS
0
BLOCK
5
20
100
AcDbEntity
8
0
100
AcDbBlockBegin
2
*Model_Space
70
0
10
0
20
0
30
0
3
*Model_Space
0
ENDBLK
5
21
100
AcDbEntity
8
0
100
AcDbBlockEnd
0
BLOCK
5
1C
100
AcDbEntity
8
0
100
AcDbBlockBegin
2
*Paper_Space
70
0
10
0
20
0
30
0
3
*Paper_Space
0
ENDBLK
5
1D
100
AcDbEntity
8
0
100
AcDbBlockEnd
0
BLOCK
5
24
100
AcDbEntity
8
0
100
AcDbBlockBegin
2
*Paper_Space0
70
0
10
0
20
0
30
0
3
*Paper_Space0
0
ENDBLK
5
25
100
AcDbEntity
8
0
100
AcDbBlockEnd
0
BLOCK
5
15C
100
AcDbEntity
8
0
100
AcDbBlockBegin
2
*D1
70
1
10
0
20
0
30
0
3
*D1
0
LINE
5
15E
100
AcDbEntity
8
0
62
256
6
ByLayer
370
-2
48
1
60
0
100
AcDbLine
10
71.5875
20
39
30
0
11
103.1
21
39
31
0
39
0
210
0
220
0
230
1
0
LINE
5
15F
100
AcDbEntity
8
0
62
256
6
ByLayer
370
-2
48
1
60
0
100
AcDbLine
10
1.5875
20
0
30
0
11
103.1
21
0
31
0
39
0
210
0
220
0
230
1
0
LINE
5
160
100
AcDbEntity
8
0
62
256
6
ByLayer
370
-2
48
1
60
0
100
AcDbLine
10
101.1
20
35.5
30
0
11
101.1
21
3.5
31
0
39
0
210
0
220
0
230
1
0
SOLID
5
161
100
AcDbEntity
8
0
62
256
6
ByLayer
370
-1
48
1
60
0
100
AcDbTrace
10
101.683333
20
35.5
30
0
11
100.516667
21
35.5
31
0
12
101.1
22
39
32
0
13
101.1
23
39
33
0
39
0
210
0
220
0
230
1
0
SOLID
5
162
100
AcDbEntity
8
0
62
256
6
ByLayer
370
-1
48
1
60
0
100
AcDbTrace
10
100.516667
20
3.5
30
0
11
101.683333
21
3.5
31
0
12
101.1
22
0
32
0
13
101.1
23
0
33
0
39
0
210
0
220
0
230
1
0
MTEXT
5
163
100
AcDbEntity
8
0
62
256
6
ByLayer
370
18
48
1
60
0
100
AcDbMText
10
94.1
20
19.5
30
0
210
0
220
0
230
1
1
\A1;39
40
3.5
41
0
44
1
50
90
71
5
72
5
7
iso_b_vert
0
POINT
5
164
100
AcDbEntity
8
Defpoints
62
0
6
ByLayer
370
-1
48
1
60
0
100
AcDbPoint
10
70
20
39
30
0
39
0
210
0
220
0
230
1
50
360
0
POINT
5
165
100
AcDbEntity
8
Defpoints
62
0
6
ByLayer
370
-1
48
1
60
0
100
AcDbPoint
10
0
20
0
30
0
39
0
210
0
220
0
230
1
50
360
0
POINT
5
166
100
AcDbEntity
8
Defpoints
62
0
6
ByLayer
370
-1
48
1
60
0
100
AcDbPoint
10
101.1
20
0
30
0
39
0
210
0
220
0
230
1
50
360
0
ENDBLK
5
15D
100
AcDbEntity
8
0
100
AcDbBlockEnd
0
BLOCK
5
16F
100
AcDbEntity
8
0
100
AcDbBlockBegin
2
_U0
70
0
10
0
20
0
30
0
3
_U0
0
MTEXT
5
169
100
AcDbEntity
8
2
62
256
6
ByLayer
370
18
48
1
60
0
100
AcDbMText
10
100.410366
20
17.567034
30
0
210
0
220
0
230
1
1
\W0.6927;39
40
3.5
41
0
44
1.084337
50
90
71
7
72
5
7
iso_b_vert
0
LINE
5
16A
100
AcDbEntity
8
2
62
256
6
ByLayer
370
13
48
1
60
0
100
AcDbLine
10
71.5875
20
39
30
0
11
103.1
21
39
31
0
39
0
210
0
220
0
230
1
0
LINE
5
16B
100
AcDbEntity
8
2
62
256
6
ByLayer
370
13
48
1
60
0
100
AcDbLine
10
1.5875
20
0
30
0
11
103.1
21
0
31
0
39
0
210
0
220
0
230
1
0
LINE
5
16C
100
AcDbEntity
8
2
62
256
6
ByLayer
370
13
48
1
60
0
100
AcDbLine
10
101.1
20
39
30
0
11
101.1
21
0
31
0
39
0
210
0
220
0
230
1
0
SOLID
5
16D
100
AcDbEntity
8
2
62
256
6
ByLayer
370
18
48
1
60
0
100
AcDbTrace
10
101.1
20
39
30
0
11
101.560784
21
35.500002
31
0
12
100.639216
22
35.499998
32
0
13
100.639216
23
35.499998
33
0
39
0
210
0
220
0
230
1
0
SOLID
5
16E
100
AcDbEntity
8
2
62
256
6
ByLayer
370
18
48
1
60
0
100
AcDbTrace
10
101.1
20
0
30
0
11
100.639216
21
3.499998
31
0
12
101.560784
22
3.500002
32
0
13
101.560784
23
3.500002
33
0
39
0
210
0
220
0
230
1
0
ENDBLK
5
170
100
AcDbEntity
8
0
100
AcDbBlockEnd
0
BLOCK
5
175
100
AcDbEntity
8
0
100
AcDbBlockBegin
2
*D3
70
1
10
0
20
0
30
0
3
*D3
0
LINE
5
177
100
AcDbEntity
8
0
62
256
6
ByLayer
370
-2
48
1
60
0
100
AcDbLine
10
71.5875
20
35
30
0
11
92.1
21
35
31
0
39
0
210
0
220
0
230
1
0
LINE
5
178
100
AcDbEntity
8
0
62
256
6
ByLayer
370
-2
48
1
60
0
100
AcDbLine
10
71.5875
20
39
30
0
11
92.1
21
39
31
0
39
0
210
0
220
0
230
1
0
LINE
5
179
100
AcDbEntity
8
0
62
256
6
ByLayer
370
-2
48
1
60
0
100
AcDbLine
10
90.1
20
31.5
30
0
11
90.1
21
28
31
0
39
0
210
0
220
0
230
1
0
LINE
5
17A
100
AcDbEntity
8
0
62
256
6
ByLayer
370
-2
48
1
60
0
100
AcDbLine
10
90.1
20
42.5
30
0
11
90.1
21
46
31
0
39
0
210
0
220
0
230
1
0
SOLID
5
17B
100
AcDbEntity
8
0
62
256
6
ByLayer
370
-1
48
1
60
0
100
AcDbTrace
10
90.683333
20
31.5
30
0
11
89.516667
21
31.5
31
0
12
90.1
22
35
32
0
13
90.1
23
35
33
0
39
0
210
0
220
0
230
1
0
SOLID
5
17C
100
AcDbEntity
8
0
62
256
6
ByLayer
370
-1
48
1
60
0
100
AcDbTrace
10
89.516667
20
42.5
30
0
11
90.683333
21
42.5
31
0
12
90.1
22
39
32
0
13
90.1
23
39
33
0
39
0
210
0
220
0
230
1
0
MTEXT
5
17D
100
AcDbEntity
8
0
62
256
6
ByLayer
370
18
48
1
60
0
100
AcDbMText
10
83.1
20
37
30
0
210
0
220
0
230
1
1
\A1;4
40
3.5
41
0
44
1
50
90
71
5
72
5
7
iso_b_vert
0
POINT
5
17E
100
AcDbEntity
8
Defpoints
62
0
6
ByLayer
370
-1
48
1
60
0
100
AcDbPoint
10
70
20
35
30
0
39
0
210
0
220
0
230
1
50
360
0
POINT
5
17F
100
AcDbEntity
8
Defpoints
62
0
6
ByLayer
370
-1
48
1
60
0
100
AcDbPoint
10
70
20
39
30
0
39
0
210
0
220
0
230
1
50
360
0
POINT
5
180
100
AcDbEntity
8
Defpoints
62
0
6
ByLayer
370
-1
48
1
60
0
100
AcDbPoint
10
90.1
20
39
30
0
39
0
210
0
220
0
230
1
50
360
0
ENDBLK
5
176
100
AcDbEntity
8
0
100
AcDbBlockEnd
0
BLOCK
5
188
100
AcDbEntity
8
0
100
AcDbBlockBegin
2
_U1
70
0
10
0
20
0
30
0
3
_U1
0
MTEXT
5
182
100
AcDbEntity
8
2
62
256
6
ByLayer
370
18
48
1
60
0
100
AcDbMText
10
89.410366
20
36.1905
30
0
210
0
220
0
230
1
1
\W0.6380;4
40
3.5
41
0
44
1.084337
50
90
71
7
72
5
7
iso_b_vert
0
LINE
5
183
100
AcDbEntity
8
2
62
256
6
ByLayer
370
13
48
1
60
0
100
AcDbLine
10
71.5875
20
35
30
0
11
92.1
21
35
31
0
39
0
210
0
220
0
230
1
0
LINE
5
184
100
AcDbEntity
8
2
62
256
6
ByLayer
370
13
48
1
60
0
100
AcDbLine
10
71.5875
20
39
30
0
11
92.1
21
39
31
0
39
0
210
0
220
0
230
1
0
LINE
5
185
100
AcDbEntity
8
2
62
256
6
ByLayer
370
13
48
1
60
0
100
AcDbLine
10
90.1
20
26.25
30
0
11
90.1
21
47.75
31
0
39
0
210
0
220
0
230
1
0
SOLID
5
186
100
AcDbEntity
8
2
62
256
6
ByLayer
370
18
48
1
60
0
100
AcDbTrace
10
90.1
20
35
30
0
11
90.560784
21
31.500002
31
0
12
89.639216
22
31.499998
32
0
13
89.639216
23
31.499998
33
0
39
0
210
0
220
0
230
1
0
SOLID
5
187
100
AcDbEntity
8
2
62
256
6
ByLayer
370
18
48
1
60
0
100
AcDbTrace
10
90.1
20
39
30
0
11
89.639216
21
42.499998
31
0
12
90.560784
22
42.500002
32
0
13
90.560784
23
42.500002
33
0
39
0
210
0
220
0
230
1
0
ENDBLK
5
189
100
AcDbEntity
8
0
100
AcDbBlockEnd
0
BLOCK
5
18E
100
AcDbEntity
8
0
100
AcDbBlockBegin
2
*D5
70
1
10
0
20
0
30
0
3
*D5
0
LINE
5
190
100
AcDbEntity
8
0
62
256
6
ByLayer
370
-2
48
1
60
0
100
AcDbLine
10
52
20
33.7375
30
0
11
52
21
-31.425
31
0
39
0
210
0
220
0
230
1
0
LINE
5
191
100
AcDbEntity
8
0
62
256
6
ByLayer
370
-2
48
1
60
0
100
AcDbLine
10
70
20
33.4125
30
0
11
70
21
-31.425
31
0
39
0
210
0
220
0
230
1
0
LINE
5
192
100
AcDbEntity
8
0
62
256
6
ByLayer
370
-2
48
1
60
0
100
AcDbLine
10
55.5
20
-29.425
30
0
11
66.5
21
-29.425
31
0
39
0
210
0
220
0
230
1
0
SOLID
5
193
100
AcDbEntity
8
0
62
256
6
ByLayer
370
-1
48
1
60
0
100
AcDbTrace
10
55.5
20
-28.841667
30
0
11
55.5
21
-30.008333
31
0
12
52
22
-29.425
32
0
13
52
23
-29.425
33
0
39
0
210
0
220
0
230
1
0
SOLID
5
194
100
AcDbEntity
8
0
62
256
6
ByLayer
370
-1
48
1
60
0
100
AcDbTrace
10
66.5
20
-30.008333
30
0
11
66.5
21
-28.841667
31
0
12
70
22
-29.425
32
0
13
70
23
-29.425
33
0
39
0
210
0
220
0
230
1
0
MTEXT
5
195
100
AcDbEntity
8
0
62
256
6
ByLayer
370
18
48
1
60
0
100
AcDbMText
10
61
20
-22.425
30
0
210
0
220
0
230
1
1
\A1;18
40
3.5
41
0
44
1
50
0
71
5
72
5
7
iso_b_vert
0
POINT
5
196
100
AcDbEntity
8
Defpoints
62
0
6
ByLayer
370
-1
48
1
60
0
100
AcDbPoint
10
52
20
35.325
30
0
39
0
210
0
220
0
230
1
50
360
0
POINT
5
197
100
AcDbEntity
8
Defpoints
62
0
6
ByLayer
370
-1
48
1
60
0
100
AcDbPoint
10
70
20
35
30
0
39
0
210
0
220
0
230
1
50
360
0
POINT
5
198
100
AcDbEntity
8
Defpoints
62
0
6
ByLayer
370
-1
48
1
60
0
100
AcDbPoint
10
70
20
-29.425
30
0
39
0
210
0
220
0
230
1
50
360
0
ENDBLK
5
18F
100
AcDbEntity
8
0
100
AcDbBlockEnd
0
BLOCK
5
1A0
100
AcDbEntity
8
0
100
AcDbBlockBegin
2
_U2
70
0
10
0
20
0
30
0
3
_U2
0
MTEXT
5
19A
100
AcDbEntity
8
2
62
256
6
ByLayer
370
18
48
1
60
0
100
AcDbMText
10
59.532467
20
-28.392366
30
0
210
0
220
0
230
1
1
\W0.5321;18
40
3.5
41
0
44
1.084337
50
0
71
7
72
5
7
iso_b_vert
0
LINE
5
19B
100
AcDbEntity
8
2
62
256
6
ByLayer
370
13
48
1
60
0
100
AcDbLine
10
52
20
33.7375
30
0
11
52
21
-31.425
31
0
39
0
210
0
220
0
230
1
0
LINE
5
19C
100
AcDbEntity
8
2
62
256
6
ByLayer
370
13
48
1
60
0
100
AcDbLine
10
70
20
33.4125
30
0
11
70
21
-31.425
31
0
39
0
210
0
220
0
230
1
0
LINE
5
19D
100
AcDbEntity
8
2
62
256
6
ByLayer
370
13
48
1
60
0
100
AcDbLine
10
52
20
-29.425
30
0
11
70
21
-29.425
31
0
39
0
210
0
220
0
230
1
0
SOLID
5
19E
100
AcDbEntity
8
2
62
256
6
ByLayer
370
18
48
1
60
0
100
AcDbTrace
10
52
20
-29.425
30
0
11
55.499998
21
-28.964216
31
0
12
55.500002
22
-29.885784
32
0
13
55.500002
23
-29.885784
33
0
39
0
210
0
220
0
230
1
0
SOLID
5
19F
100
AcDbEntity
8
2
62
256
6
ByLayer
370
18
48
1
60
0
100
AcDbTrace
10
70
20
-29.425
30
0
11
66.500002
21
-29.885784
31
0
12
66.499998
22
-28.964216
32
0
13
66.499998
23
-28.964216
33
0
39
0
210
0
220
0
230
1
0
ENDBLK
5
1A1
100
AcDbEntity
8
0
100
AcDbBlockEnd
0
BLOCK
5
1A6
100
AcDbEntity
8
0
100
AcDbBlockBegin
2
*D7
70
1
10
0
20
0
30
0
3
*D7
0
LINE
5
1A8
100
AcDbEntity
8
0
62
256
6
ByLayer
370
-2
48
1
60
0
100
AcDbLine
10
0
20
1.5875
30
0
11
0
21
55.75
31
0
39
0
210
0
220
0
230
1
0
LINE
5
1A9
100
AcDbEntity
8
0
62
256
6
ByLayer
370
-2
48
1
60
0
100
AcDbLine
10
70
20
40.5875
30
0
11
70
21
55.75
31
0
39
0
210
0
220
0
230
1
0
LINE
5
1AA
100
AcDbEntity
8
0
62
256
6
ByLayer
370
-2
48
1
60
0
100
AcDbLine
10
3.5
20
53.75
30
0
11
66.5
21
53.75
31
0
39
0
210
0
220
0
230
1
0
SOLID
5
1AB
100
AcDbEntity
8
0
62
256
6
ByLayer
370
-1
48
1
60
0
100
AcDbTrace
10
3.5
20
54.333333
30
0
11
3.5
21
53.166667
31
0
12
0
22
53.75
32
0
13
0
23
53.75
33
0
39
0
210
0
220
0
230
1
0
SOLID
5
1AC
100
AcDbEntity
8
0
62
256
6
ByLayer
370
-1
48
1
60
0
100
AcDbTrace
10
66.5
20
53.166667
30
0
11
66.5
21
54.333333
31
0
12
70
22
53.75
32
0
13
70
23
53.75
33
0
39
0
210
0
220
0
230
1
0
MTEXT
5
1AD
100
AcDbEntity
8
0
62
256
6
ByLayer
370
18
48
1
60
0
100
AcDbMText
10
35
20
60.75
30
0
210
0
220
0
230
1
1
\A1;70
40
3.5
41
0
44
1
50
0
71
5
72
5
7
iso_b_vert
0
POINT
5
1AE
100
AcDbEntity
8
Defpoints
62
0
6
ByLayer
370
-1
48
1
60
0
100
AcDbPoint
10
0
20
0
30
0
39
0
210
0
220
0
230
1
50
360
0
POINT
5
1AF
100
AcDbEntity
8
Defpoints
62
0
6
ByLayer
370
-1
48
1
60
0
100
AcDbPoint
10
70
20
39
30
0
39
0
210
0
220
0
230
1
50
360
0
POINT
5
1B0
100
AcDbEntity
8
Defpoints
62
0
6
ByLayer
370
-1
48
1
60
0
100
AcDbPoint
10
70
20
53.75
30
0
39
0
210
0
220
0
230
1
50
360
0
ENDBLK
5
1A7
100
AcDbEntity
8
0
100
AcDbBlockEnd
0
BLOCK
5
1B8
100
AcDbEntity
8
0
100
AcDbBlockBegin
2
_U3
70
0
10
0
20
0
30
0
3
_U3
0
MTEXT
5
1B2
100
AcDbEntity
8
2
62
256
6
ByLayer
370
18
48
1
60
0
100
AcDbMText
10
33.095034
20
54.782634
30
0
210
0
220
0
230
1
1
\W0.6740;70
40
3.5
41
0
44
1.084337
50
0
71
7
72
5
7
iso_b_vert
0
LINE
5
1B3
100
AcDbEntity
8
2
62
256
6
ByLayer
370
13
48
1
60
0
100
AcDbLine
10
0
20
1.5875
30
0
11
0
21
55.75
31
0
39
0
210
0
220
0
230
1
0
LINE
5
1B4
100
AcDbEntity
8
2
62
256
6
ByLayer
370
13
48
1
60
0
100
AcDbLine
10
70
20
40.5875
30
0
11
70
21
55.75
31
0
39
0
210
0
220
0
230
1
0
LINE
5
1B5
100
AcDbEntity
8
2
62
256
6
ByLayer
370
13
48
1
60
0
100
AcDbLine
10
0
20
53.75
30
0
11
70
21
53.75
31
0
39
0
210
0
220
0
230
1
0
SOLID
5
1B6
100
AcDbEntity
8
2
62
256
6
ByLayer
370
18
48
1
60
0
100
AcDbTrace
10
0
20
53.75
30
0
11
3.499998
21
54.210784
31
0
12
3.500002
22
53.289216
32
0
13
3.500002
23
53.289216
33
0
39
0
210
0
220
0
230
1
0
SOLID
5
1B7
100
AcDbEntity
8
2
62
256
6
ByLayer
370
18
48
1
60
0
100
AcDbTrace
10
70
20
53.75
30
0
11
66.500002
21
53.289216
31
0
12
66.499998
22
54.210784
32
0
13
66.499998
23
54.210784
33
0
39
0
210
0
220
0
230
1
0
ENDBLK
5
1B9
100
AcDbEntity
8
0
100
AcDbBlockEnd
0
ENDSEC
0
SECTION
2
ENTITIES
0
ARC
5
EF
100
AcDbEntity
8
1
62
256
6
ByLayer
370
18
48
1
60
0
100
AcDbCircle
39
0
10
22.279208
20
32.7
30
0
40
1.2
210
0
220
0
230
1
100
AcDbArc
50
270
51
299.569416
0
ARC
5
F0
100
AcDbEntity
8
SK1
62
256
6
ByLayer
370
18
48
1
60
0
100
AcDbCircle
39
0
10
-0.6
20
23.45
30
0
40
0.999999999999994
210
0
220
0
230
1
100
AcDbArc
50
293.578178
51
306.869898
0
ARC
5
F1
100
AcDbEntity
8
SK1
62
256
6
ByLayer
370
18
48
1
60
0
100
AcDbCircle
39
0
10
-0.6
20
-23.45
30
0
40
0.999999999999994
210
0
220
0
230
1
100
AcDbArc
50
53.130102
51
66.421822
0
ARC
5
F5
100
AcDbEntity
8
1
62
256
6
ByLayer
370
18
48
1
60
0
100
AcDbCircle
39
0
10
31.4
20
32.65
30
0
40
1
210
0
220
0
230
1
100
AcDbArc
50
270
51
0
0
ARC
5
F6
100
AcDbEntity
8
1
62
256
6
ByLayer
370
18
48
1
60
0
100
AcDbCircle
39
0
10
26.093966
20
-20.75
30
0
40
3.99999999956522
210
0
220
0
230
1
100
AcDbArc
50
171.816369
51
179.5
0
ARC
5
F7
100
AcDbEntity
8
1
62
256
6
ByLayer
370
18
48
1
60
0
100
AcDbCircle
39
0
10
69.7
20
38.7
30
0
40
0.3
210
0
220
0
230
1
100
AcDbArc
50
0
51
92.5
0
ARC
5
F8
100
AcDbEntity
8
1
62
256
6
ByLayer
370
18
48
1
60
0
100
AcDbCircle
39
0
10
69.7
20
35.3
30
0
40
0.3
210
0
220
0
230
1
100
AcDbArc
50
267.5
51
0
0
ARC
5
F9
100
AcDbEntity
8
1
62
256
6
ByLayer
370
18
48
1
60
0
100
AcDbCircle
39
0
10
62.55644
20
37.667299
30
0
40
0.0999999999845752
210
0
220
0
230
1
100
AcDbArc
50
190.000001
51
218.049181
0
ARC
5
FA
100
AcDbEntity
8
1
62
256
6
ByLayer
370
18
48
1
60
0
100
AcDbCircle
39
0
10
62.55644
20
36.332701
30
0
40
0.0999999999845752
210
0
220
0
230
1
100
AcDbArc
50
141.950819
51
169.999999
0
CIRCLE
5
F2
100
AcDbEntity
8
1
62
256
6
ByLayer
370
18
48
1
60
0
100
AcDbCircle
10
43.65
20
26.85
30
0
40
2.55
39
0
210
0
220
0
230
1
0
CIRCLE
5
F3
100
AcDbEntity
8
1
62
256
6
ByLayer
370
18
48
1
60
0
100
AcDbCircle
10
43.65
20
26.85
30
0
40
3.3
39
0
210
0
220
0
230
1
0
CIRCLE
5
F4
100
AcDbEntity
8
1
62
256
6
ByLayer
370
18
48
1
60
0
100
AcDbCircle
10
43.65
20
26.85
30
0
40
5.75
39
0
210
0
220
0
230
1
0
ELLIPSE
5
FB
100
AcDbEntity
8
1
62
256
6
ByLayer
370
18
48
1
60
0
100
AcDbEllipse
10
74.090909
20
85.2
30
0
11
2.84874053058802E-15
21
46.5250000001424
31
0
210
0
220
0
230
1
40
0.545455
41
2.62852616671566
42
2.93961314389425
0
ELLIPSE
5
FC
100
AcDbEntity
8
1
62
256
6
ByLayer
370
18
48
1
60
0
100
AcDbEllipse
10
685.914176
20
84.683365
30
0
11
2319.45422444527
21
7.90259361781423
31
0
210
0
220
0
230
1
40
0.019541
41
-1.84395385039952
42
-1.84284830130464
0
ELLIPSE
5
FD
100
AcDbEntity
8
1
62
256
6
ByLayer
370
18
48
1
60
0
100
AcDbEllipse
10
60.783148
20
37.102549
30
0
11
0.142935329390216
21
-0.787812984813087
31
0
210
0
220
0
230
1
40
0.975482
41
0
42
6.28318530717959
0
ELLIPSE
5
FE
100
AcDbEntity
8
1
62
256
6
ByLayer
370
18
48
1
60
0
100
AcDbEllipse
10
62.929864
20
71
30
0
11
2.18439158254127E-15
21
35.6749999822082
31
0
210
0
220
0
230
1
40
0.885973
41
3.0009755341031
42
3.10047311461785
0
ELLIPSE
5
FF
100
AcDbEntity
8
1
62
256
6
ByLayer
370
18
48
1
60
0
100
AcDbEllipse
10
-307.631547
20
70.979231
30
0
11
2766.44122467649
21
-6.19190266459036
31
0
210
0
220
0
230
1
40
0.012692
41
-1.4404010579148
42
-1.43693432163676
0
ELLIPSE
5
100
100
AcDbEntity
8
1
62
256
6
ByLayer
370
18
48
1
60
0
100
AcDbEllipse
10
62.929864
20
85.2
30
0
11
2.84874052412224E-15
21
46.5249998945446
31
0
210
0
220
0
230
1
40
0.885973
41
3.03391559720751
42
3.10989654209417
0
ELLIPSE
5
101
100
AcDbEntity
8
1
62
256
6
ByLayer
370
18
48
1
60
0
100
AcDbEllipse
10
51.149664
20
35.325
30
0
11
-2.78951487299375
21
3.41605763755017E-16
31
0
210
0
220
0
230
1
40
0.573576
41
0
42
1.29870801006719
0
ELLIPSE
5
102
100
AcDbEntity
8
1
62
256
6
ByLayer
370
18
48
1
60
0
100
AcDbEllipse
10
65.64074
20
85.2
30
0
11
66.4445860177577
21
7.78368667379672E-14
31
0
210
0
220
0
230
1
40
0.700208
41
-1.78962623802529
42
-1.67847338304901
0
ELLIPSE
5
103
100
AcDbEntity
8
1
62
256
6
ByLayer
370
18
48
1
60
0
100
AcDbEllipse
10
65.64074
20
71
30
0
11
50.9491801391209
21
5.96846903950545E-14
31
0
210
0
220
0
230
1
40
0.700208
41
-1.84183493962813
42
-1.71141344625007
0
ELLIPSE
5
104
100
AcDbEntity
8
1
62
256
6
ByLayer
370
18
48
1
60
0
100
AcDbEllipse
10
-2.347154
20
0
30
0
11
14.7536831606574
21
31.0932549155828
31
0
210
0
220
0
230
1
40
0.341999
41
-1.09123958575278
42
-0.157806186645432
0
ELLIPSE
5
105
100
AcDbEntity
8
1
62
256
6
ByLayer
370
18
48
1
60
0
100
AcDbEllipse
10
26.347154
20
0
30
0
11
14.7536831606567
21
-31.0932549155815
31
0
210
0
220
0
230
1
40
0.341999
41
-2.98378646694437
42
-2.05035306783698
0
ELLIPSE
5
106
100
AcDbEntity
8
1
62
256
6
ByLayer
370
18
48
1
60
0
100
AcDbEllipse
10
26.347154
20
0
30
0
11
14.7536831606568
21
31.0932549155815
31
0
210
0
220
0
230
1
40
0.341999
41
2.05035306783699
42
2.98378646694436
0
ELLIPSE
5
107
100
AcDbEntity
8
1
62
256
6
ByLayer
370
18
48
1
60
0
100
AcDbEllipse
10
-2.347154
20
0
30
0
11
14.7536831606567
21
-31.0932549155818
31
0
210
0
220
0
230
1
40
0.341999
41
0.157806186645432
42
1.09123958575281
0
ELLIPSE
5
108
100
AcDbEntity
8
1
62
256
6
ByLayer
370
18
48
1
60
0
100
AcDbEllipse
10
22.274896
20
0
30
0
11
1.92875500727009E-15
21
31.4999999999975
31
0
210
0
220
0
230
1
40
0.008727
41
0.535188254250117
42
2.3561944901924
0
ELLIPSE
5
109
100
AcDbEntity
8
1
62
256
6
ByLayer
370
18
48
1
60
0
100
AcDbEllipse
10
62.434518
20
35.641251
30
0
11
0.010661639262803
21
0.0994300222659567
31
0
210
0
220
0
230
1
40
1
41
1.50308282049733
42
1.67761574668812
0
ELLIPSE
5
10A
100
AcDbEntity
8
1
62
256
6
ByLayer
370
18
48
1
60
0
100
AcDbEllipse
10
62.434518
20
38.358749
30
0
11
0.010661639262803
21
-0.0994300222659567
31
0
210
0
220
0
230
1
40
1
41
-1.67761574668812
42
-1.50308282049733
0
POINT
5
70
100
AcDbEntity
8
80
62
256
6
ByLayer
370
18
48
1
60
0
100
AcDbPoint
10
0
20
0
30
0
39
0
210
0
220
0
230
1
50
360
0
POINT
5
72
100
AcDbEntity
8
81
62
256
6
ByLayer
370
18
48
1
60
0
100
AcDbPoint
10
70
20
39
30
0
39
0
210
0
220
0
230
1
50
360
0
POINT
5
74
100
AcDbEntity
8
1
62
256
6
ByLayer
370
18
48
1
60
1
100
AcDbPoint
10
70
20
39
30
0
39
0
210
0
220
0
230
1
50
360
0
POINT
5
76
100
AcDbEntity
8
1
62
256
6
ByLayer
370
18
48
1
60
1
100
AcDbPoint
10
0
20
0
30
0
39
0
210
0
220
0
230
1
50
360
0
POINT
5
77
100
AcDbEntity
8
1
62
256
6
ByLayer
370
18
48
1
60
1
100
AcDbPoint
10
70
20
35
30
0
39
0
210
0
220
0
230
1
50
360
0
POINT
5
78
100
AcDbEntity
8
1
62
256
6
ByLayer
370
18
48
1
60
1
100
AcDbPoint
10
70
20
39
30
0
39
0
210
0
220
0
230
1
50
360
0
POINT
5
79
100
AcDbEntity
8
1
62
256
6
ByLayer
370
18
48
1
60
1
100
AcDbPoint
10
52
20
35.325
30
0
39
0
210
0
220
0
230
1
50
360
0
POINT
5
7A
100
AcDbEntity
8
1
62
256
6
ByLayer
370
18
48
1
60
1
100
AcDbPoint
10
70
20
35
30
0
39
0
210
0
220
0
230
1
50
360
0
POINT
5
7B
100
AcDbEntity
8
1
62
256
6
ByLayer
370
18
48
1
60
1
100
AcDbPoint
10
0
20
0
30
0
39
0
210
0
220
0
230
1
50
360
0
POINT
5
7C
100
AcDbEntity
8
1
62
256
6
ByLayer
370
18
48
1
60
1
100
AcDbPoint
10
70
20
39
30
0
39
0
210
0
220
0
230
1
50
360
0
SPLINE
5
10B
100
AcDbEntity
8
SK1
62
256
6
ByLayer
370
18
48
1
60
0
100
AcDbSpline
70
4
71
3
72
11
73
7
40
0
40
0
40
0
40
0
40
0.24260137289863
40
0.502561214665899
40
0.761098879312195
40
1
40
1
40
1
40
1
41
1
10
-0.199999999999989
20
22.0603316233164
30
0
41
1
10
-0.200957649232748
20
22.03467763457
30
0
41
1
10
-0.211248088565583
20
21.9856476021506
30
0
41
1
10
-0.255178473897388
20
21.9196695750854
30
0
41
1
10
-0.321112940270211
20
21.8764518787731
30
0
41
1
10
-0.369683556830324
20
21.8664032520323
30
0
41
1
10
-0.394913799811292
20
21.8654753908017
30
0
0
SPLINE
5
10C
100
AcDbEntity
8
SK1
62
256
6
ByLayer
370
18
48
1
60
0
100
AcDbSpline
70
4
71
3
72
11
73
7
40
0
40
0
40
0
40
0
40
0.238901121200236
40
0.497438786084572
40
0.757398627621475
40
1
40
1
40
1
40
1
41
1
10
-0.394913799811292
20
-21.8654754627471
30
0
41
1
10
-0.369683556841096
20
-21.8664033239634
30
0
41
1
10
-0.321112940313157
20
-21.8764519506625
30
0
41
1
10
-0.255178473954459
20
-21.9196696467454
30
0
41
1
10
-0.211248088575957
20
-21.9856476735436
30
0
41
1
10
-0.200957649243719
20
-22.0346777057893
30
0
41
1
10
-0.200000000000017
20
-22.0603316944385
30
0
0
SPLINE
5
10D
100
AcDbEntity
8
SK1
62
256
6
ByLayer
370
18
48
1
60
0
100
AcDbSpline
70
4
71
2
72
6
73
3
40
0
40
0
40
0
40
1
40
1
40
1
41
1
10
-36.5
20
21.1556411500792
30
0
41
1
10
-37.2500000202692
20
20.7228363924583
30
0
41
1
10
-38
20
20.2900294978113
30
0
0
SPLINE
5
10E
100
AcDbEntity
8
SK1
62
256
6
ByLayer
370
18
48
1
60
0
100
AcDbSpline
70
4
71
2
72
6
73
3
40
0
40
0
40
0
40
1
40
1
40
1
41
1
10
-38
20
-20.2900295032223
30
0
41
1
10
-37.2500000202654
20
-20.7228363958853
30
0
41
1
10
-36.5
20
-21.1556411516461
30
0
0
SPLINE
5
10F
100
AcDbEntity
8
SK1
62
256
6
ByLayer
370
18
48
1
60
0
100
AcDbSpline
70
4
71
2
72
6
73
3
40
0
40
0
40
0
40
1
40
1
40
1
41
1
10
-0.394913799811292
20
21.8654705382346
30
0
41
1
10
-1.19497688887515
20
21.8453761190377
30
0
41
1
10
-1.99503997793928
20
21.8252816998361
30
0
0
SPLINE
5
110
100
AcDbEntity
8
SK1
62
256
6
ByLayer
370
18
48
1
60
0
100
AcDbSpline
70
4
71
2
72
6
73
3
40
0
40
0
40
0
40
1
40
1
40
1
41
1
10
-1.99503997793928
20
-21.8252817664983
30
0
41
1
10
-1.19497688887515
20
-21.845376185605
30
0
41
1
10
-0.394913799811292
20
-21.8654706047072
30
0
0
SPLINE
5
111
100
AcDbEntity
8
SK1
62
256
6
ByLayer
370
18
48
1
60
0
100
AcDbSpline
70
4
71
3
72
13
73
9
40
0
40
0
40
0
40
0
40
0.239488446613139
40
0.368403116187249
40
0.500046645745247
40
0.631682415479622
40
0.760575689762793
40
1
40
1
40
1
40
1
41
1
10
-1.99503997793928
20
21.825286524797
30
0
41
1
10
-2.0211096495122
20
21.8248845959364
30
0
41
1
10
-2.05883938576716
20
21.8310551084546
30
0
41
1
10
-2.1062761997685
20
21.8540920367489
30
0
41
1
10
-2.1388629218354
20
21.8792518859041
30
0
41
1
10
-2.16563526915769
20
21.9105242864783
30
0
41
1
10
-2.19103234710849
20
21.9567296167895
30
0
41
1
10
-2.19909149085342
20
21.9940920912339
30
0
41
1
10
-2.19999999999999
20
22.0201427571469
30
0
0
SPLINE
5
112
100
AcDbEntity
8
SK1
62
256
6
ByLayer
370
18
48
1
60
0
100
AcDbSpline
70
4
71
3
72
13
73
9
40
0
40
0
40
0
40
0
40
0.239424309709105
40
0.36831758382101
40
0.499953353497804
40
0.631596883124593
40
0.760511552875627
40
1
40
1
40
1
40
1
41
1
10
-2.19999999999999
20
-22.0201428284389
30
0
41
1
10
-2.19909149084521
20
-21.994092162624
30
0
41
1
10
-2.19103234710033
20
-21.956729688326
30
0
41
1
10
-2.1656352691468
20
-21.9105243582179
30
0
41
1
10
-2.13886292182099
20
-21.8792519577777
30
0
41
1
10
-2.1062761997531
20
-21.8540921087329
30
0
41
1
10
-2.05883938574669
20
-21.8310551805396
30
0
41
1
10
-2.02110964950145
20
-21.8248846680468
30
0
41
1
10
-1.99503997793928
20
-21.8252865969123
30
0
0
SPLINE
5
113
100
AcDbEntity
8
SK1
62
256
6
ByLayer
370
18
48
1
60
0
100
AcDbSpline
70
4
71
2
72
6
73
3
40
0
40
0
40
0
40
1
40
1
40
1
41
1
10
-2.19999999999999
20
22.0136642719968
30
0
41
1
10
-19.3500000008246
20
21.5830599810351
30
0
41
1
10
-36.5
20
21.1524539804128
30
0
0
SPLINE
5
114
100
AcDbEntity
8
SK1
62
256
6
ByLayer
370
18
48
1
60
0
100
AcDbSpline
70
4
71
2
72
6
73
3
40
0
40
0
40
0
40
1
40
1
40
1
41
1
10
-36.5
20
-21.152454254977
30
0
41
1
10
-19.3500000008244
20
-21.5830602558515
30
0
41
1
10
-2.19999999999999
20
-22.0136645469338
30
0
0
SPLINE
5
115
100
AcDbEntity
8
1
62
256
6
ByLayer
370
18
48
1
60
0
100
AcDbSpline
70
4
71
3
72
8
73
4
40
0
40
0
40
0
40
0
40
1
40
1
40
1
40
1
41
1
10
25.2288363565675
20
38.8560076708966
30
0
41
1
10
24.6776364824485
20
36.7874815231968
30
0
41
1
10
24.1268729078752
20
34.7188376712305
30
0
41
1
10
23.5768491959797
20
32.65
30
0
0
SPLINE
5
116
100
AcDbEntity
8
1
62
256
6
ByLayer
370
18
48
1
60
0
100
AcDbSpline
70
4
71
3
72
15
73
11
40
0
40
0
40
0
40
0
40
0.25000000000001
40
0.50000000000002
40
0.50000000000002
40
0.625000000000007
40
0.625000000000007
40
0.749999999999994
40
0.749999999999994
40
1
40
1
40
1
40
1
41
1
10
23.5768491959797
20
32.65
30
0
41
1
10
23.5650726078035
20
32.605704001972
30
0
41
1
10
23.5415925208741
20
32.5181206426742
30
0
41
1
10
23.5182507052433
20
32.432473575086
30
0
41
1
10
23.5007976884182
20
32.3689718997741
30
0
41
1
10
23.4949889519702
20
32.3479273256336
30
0
41
1
10
23.4833901798496
20
32.306089587918
30
0
41
1
10
23.4776053763619
20
32.2853159216485
30
0
41
1
10
23.4604707436426
20
32.2240604840281
30
0
41
1
10
23.4492766947907
20
32.1844119997969
30
0
41
1
10
23.4383186059721
20
32.1459721466515
30
0
0
SPLINE
5
117
100
AcDbEntity
8
1
62
256
6
ByLayer
370
18
48
1
60
0
100
AcDbSpline
70
4
71
3
72
37
73
33
40
0
40
0
40
0
40
0
40
0.0312499999999978
40
0.0312499999999978
40
0.0624999999999956
40
0.124999999999991
40
0.124999999999991
40
0.249999999999982
40
0.249999999999982
40
0.281249999999978
40
0.281249999999978
40
0.312499999999973
40
0.312499999999973
40
0.374999999999968
40
0.374999999999968
40
0.499999999999963
40
0.499999999999963
40
0.53124999999996
40
0.53124999999996
40
0.562499999999958
40
0.624999999999961
40
0.687499999999965
40
0.687499999999965
40
0.718749999999962
40
0.718749999999962
40
0.749999999999959
40
0.749999999999959
40
0.874999999999978
40
0.874999999999978
40
0.937499999999989
40
0.937499999999989
40
1
40
1
40
1
40
1
41
1
10
30.6979991993593
20
31.65
30
0
41
1
10
30.7161596625569
20
31.65
30
0
41
1
10
30.7343436715721
20
31.6503025762777
30
0
41
1
10
30.7705404692685
20
31.6515196643775
30
0
41
1
10
30.8246748030338
20
31.6542634146374
30
0
41
1
10
30.8783209647337
20
31.6597933881372
30
0
41
1
10
30.9849379288975
20
31.6747079219338
30
0
41
1
10
31.0551208774945
20
31.6897592794783
30
0
41
1
10
31.1415829778381
20
31.7158024637559
30
0
41
1
10
31.1588116390368
20
31.7213750019034
30
0
41
1
10
31.1931357597246
20
31.7332803218201
30
0
41
1
10
31.2102683325626
20
31.7396289977521
30
0
41
1
10
31.2610060787218
20
31.7596878790594
30
0
41
1
10
31.2940493017973
20
31.7744353258394
30
0
41
1
10
31.3907724756647
20
31.8229089218058
30
0
41
1
10
31.4520714248128
20
31.8608215019205
30
0
41
1
10
31.5242042253866
20
31.9161083927452
30
0
41
1
10
31.5384465541441
20
31.9276015592398
30
0
41
1
10
31.5661892927071
20
31.9511913425106
30
0
41
1
10
31.6067111080115
20
31.9874857382757
30
0
41
1
10
31.6688047152749
20
32.0525094185346
30
0
41
1
10
31.7125622959425
20
32.1094566175086
30
0
41
1
10
31.7430477949145
20
32.1541098054289
30
0
41
1
10
31.7528200581636
20
32.1693186563508
30
0
41
1
10
31.7715554404667
20
32.2004102576542
30
0
41
1
10
31.7805452052648
20
32.2163445309867
30
0
41
1
10
31.8230509325826
20
32.2971584961779
30
0
41
1
10
31.8488697960024
20
32.3644367321645
30
0
41
1
10
31.8752531168167
20
32.4693159907482
30
0
41
1
10
31.8819729542626
20
32.5049415512714
30
0
41
1
10
31.8910147230195
20
32.5776041037324
30
0
41
1
10
31.8932370625239
20
32.6138738724258
30
0
41
1
10
31.8932370625238
20
32.65
30
0
0
SPLINE
5
118
100
AcDbEntity
8
1
62
256
6
ByLayer
370
18
48
1
60
0
100
AcDbSpline
70
4
71
3
72
25
73
21
40
0
40
0
40
0
40
0
40
0.125
40
0.25
40
0.375000000000001
40
0.375000000000001
40
0.500000000000001
40
0.500000000000001
40
0.625000000000001
40
0.625000000000001
40
0.640625000000001
40
0.640625000000001
40
0.656250000000001
40
0.656250000000001
40
0.687500000000001
40
0.750000000000001
40
0.750000000000001
40
0.875
40
0.875
40
1
40
1
40
1
40
1
41
1
10
28.2012518068628
20
44.6654
30
0
41
1
10
28.0180533887789
20
44.2628407163731
30
0
41
1
10
27.6622347166745
20
43.4974424850165
30
0
41
1
10
27.1635953474492
20
42.4670044331854
30
0
41
1
10
26.8573510701092
20
41.8582083180281
30
0
41
1
10
26.565886743659
20
41.288723483729
30
0
41
1
10
26.4275444592037
20
41.0236356512486
30
0
41
1
10
26.1676313552459
20
40.5333900123474
30
0
41
1
10
26.0460610732047
20
40.308230472101
30
0
41
1
10
25.9200160794631
20
40.077977037628
30
0
41
1
10
25.9061601727163
20
40.0527137747343
30
0
41
1
10
25.8787513194267
20
40.0028307326039
30
0
41
1
10
25.8652003617133
20
39.9782146150178
30
0
41
1
10
25.8250732502998
20
39.9054513735313
30
0
41
1
10
25.7468560893526
20
39.7641454643141
30
0
41
1
10
25.674842586576
20
39.6354287864461
30
0
41
1
10
25.5393316881626
20
39.3946256498404
30
0
41
1
10
25.4603499222359
20
39.2562514036676
30
0
41
1
10
25.3263482343733
20
39.023307065445
30
0
41
1
10
25.2713318020318
20
38.9287375512194
30
0
41
1
10
25.2288363565675
20
38.8560076708966
30
0
0
SPLINE
5
119
100
AcDbEntity
8
1
62
256
6
ByLayer
370
18
48
1
60
0
100
AcDbSpline
70
4
71
3
72
30
73
26
40
0
40
0
40
0
40
0
40
0.125000000000003
40
0.125000000000003
40
0.250000000000005
40
0.250000000000005
40
0.312500000000006
40
0.312500000000006
40
0.375000000000006
40
0.375000000000006
40
0.500000000000004
40
0.500000000000004
40
0.625000000000002
40
0.625000000000002
40
0.687500000000002
40
0.687500000000002
40
0.750000000000001
40
0.750000000000001
40
0.874999999999998
40
0.874999999999998
40
0.937499999999998
40
0.937499999999998
40
0.968749999999999
40
0.968749999999999
40
1
40
1
40
1
40
1
41
1
10
28.2
20
38.8560076708965
30
0
41
1
10
28.3898969471463
20
38.8560076708966
30
0
41
1
10
28.5775994387287
20
38.854868635896
30
0
41
1
10
28.9487947603108
20
38.8504663709417
30
0
41
1
10
29.1322870439952
20
38.8472026928354
30
0
41
1
10
29.4043284553846
20
38.8408287471414
30
0
41
1
10
29.4944743571946
20
38.8384577336381
30
0
41
1
10
29.6736682043507
20
38.8332433056349
30
0
41
1
10
29.7617286428549
20
38.8304286773983
30
0
41
1
10
30.0212202833117
20
38.8214442852284
30
0
41
1
10
30.1880762341331
20
38.8147313909635
30
0
41
1
10
30.5097018268632
20
38.8002466091618
30
0
41
1
10
30.6644728418139
20
38.7924735419615
30
0
41
1
10
30.8872087971414
20
38.7803159702496
30
0
41
1
10
30.9590984531065
20
38.7762233668048
30
0
41
1
10
31.0980778138277
20
38.768028863224
30
0
41
1
10
31.16520417876
20
38.7639249044425
30
0
41
1
10
31.3595938063027
20
38.7516779742129
30
0
41
1
10
31.4798990056455
20
38.7435994805999
30
0
41
1
10
31.6462545386543
20
38.7319492346869
30
0
41
1
10
31.6993482639876
20
38.728143783399
30
0
41
1
10
31.7753556200469
20
38.72259666518
30
0
41
1
10
31.7999874230613
20
38.720781618692
30
0
41
1
10
31.847720789993
20
38.7172354075124
30
0
41
1
10
31.8708454384165
20
38.7155025577162
30
0
41
1
10
31.8932370625238
20
38.7138125353348
30
0
0
SPLINE
5
11A
100
AcDbEntity
8
1
62
256
6
ByLayer
370
18
48
1
60
0
100
AcDbSpline
70
4
71
3
72
33
73
29
40
0
40
0
40
0
40
0
40
0.125000000000031
40
0.125000000000031
40
0.187500000000046
40
0.187500000000046
40
0.250000000000062
40
0.312500000000077
40
0.312500000000077
40
0.343750000000085
40
0.343750000000085
40
0.375000000000093
40
0.375000000000093
40
0.500000000000092
40
0.500000000000092
40
0.562500000000092
40
0.562500000000092
40
0.593750000000082
40
0.593750000000082
40
0.625000000000073
40
0.625000000000073
40
0.750000000000052
40
0.750000000000052
40
0.812500000000039
40
0.812500000000039
40
0.875000000000026
40
0.875000000000026
40
1
40
1
40
1
40
1
41
1
10
32.2792156108743
20
32.65
30
0
41
1
10
32.2792156108743
20
32.5832436260867
30
0
41
1
10
32.2724024636134
20
32.517099031744
30
0
41
1
10
32.2519070702787
20
32.418804833698
30
0
41
1
10
32.243288334735
20
32.3860488117296
30
0
41
1
10
32.2229298975619
20
32.3222481913133
30
0
41
1
10
32.1994237772518
20
32.2598760962957
30
0
41
1
10
32.1697769675525
20
32.2002908544577
30
0
41
1
10
32.1452277297467
20
32.1566521540257
30
0
41
1
10
32.1366582573285
20
32.1422812788688
30
0
41
1
10
32.1187359240041
20
32.1138950568287
30
0
41
1
10
32.1093565962302
20
32.0998444499674
30
0
41
1
10
32.0609510550853
20
32.0311735123727
30
0
41
1
10
32.0172761539375
20
31.9809191664988
30
0
41
1
10
31.9446575523051
20
31.912259099656
30
0
41
1
10
31.9192581400242
20
31.8905010109516
30
0
41
1
10
31.879331242548
20
31.8595926841259
30
0
41
1
10
31.8657552067244
20
31.8496106169166
30
0
41
1
10
31.8382758559521
20
31.8304211683924
30
0
41
1
10
31.8243435742831
20
31.8211910993284
30
0
41
1
10
31.7537383245528
20
31.7768276981421
30
0
41
1
10
31.6942590621149
20
31.7470074317023
30
0
41
1
10
31.600599587541
20
31.7106842391689
30
0
41
1
10
31.5685154439816
20
31.6999671223374
30
0
41
1
10
31.5040980234736
20
31.6817637186531
30
0
41
1
10
31.4716360317391
20
31.6742157749747
30
0
41
1
10
31.3735131192457
20
31.6560926942454
30
0
41
1
10
31.3071055833143
20
31.65
30
0
41
1
10
31.2397368307141
20
31.65
30
0
0
SPLINE
5
11B
100
AcDbEntity
8
1
62
256
6
ByLayer
370
18
48
1
60
0
100
AcDbSpline
70
4
71
3
72
10
73
6
40
0
40
0
40
0
40
0
40
0.5
40
0.5
40
1
40
1
40
1
40
1
41
1
10
61.774406808652
20
36.5
30
0
41
1
10
61.7509798280717
20
36.3090361068115
30
0
41
1
10
61.7273823485801
20
36.1181209754957
30
0
41
1
10
61.679574856716
20
35.736465894336
30
0
41
1
10
61.655379535804
20
35.5457217428048
30
0
41
1
10
61.6305614826853
20
35.355155689704
30
0
0
SPLINE
5
11C
100
AcDbEntity
8
1
62
256
6
ByLayer
370
18
48
1
60
0
100
AcDbSpline
70
4
71
3
72
8
73
4
40
0
40
0
40
0
40
0
40
1
40
1
40
1
40
1
41
1
10
61.933039795462
20
36.5840772376136
30
0
41
1
10
61.8802128688876
20
36.5558111996547
30
0
41
1
10
61.8273535334487
20
36.527698655082
30
0
41
1
10
61.774406808652
20
36.5
30
0
0
SPLINE
5
11D
100
AcDbEntity
8
1
62
256
6
ByLayer
370
18
48
1
60
0
100
AcDbSpline
70
4
71
3
72
20
73
16
40
0
40
0
40
0
40
0
40
0.250000000000097
40
0.250000000000097
40
0.375000000000081
40
0.375000000000081
40
0.500000000000065
40
0.500000000000065
40
0.625000000000049
40
0.625000000000049
40
0.750000000000032
40
0.750000000000032
40
0.875000000000016
40
0.875000000000016
40
1
40
1
40
1
40
1
41
1
10
62
20
36.7250311307315
30
0
41
1
10
62
20
36.7094958819082
30
0
41
1
10
61.9984050459487
20
36.6943684079368
30
0
41
1
10
61.9936571096376
20
36.6722794185904
30
0
41
1
10
61.9916895717912
20
36.6651134158443
30
0
41
1
10
61.9870887035604
20
36.6514438932602
30
0
41
1
10
61.9844457620998
20
36.6448943918016
30
0
41
1
10
61.9784667668224
20
36.6323726527538
30
0
41
1
10
61.9751283008422
20
36.6264174806153
30
0
41
1
10
61.9679840522906
20
36.6154842294121
30
0
41
1
10
61.9641534857343
20
36.6104500648764
30
0
41
1
10
61.9559769729611
20
36.6012441397309
30
0
41
1
10
61.9516060515023
20
36.5970596501623
30
0
41
1
10
61.9425740123838
20
36.5897898375515
30
0
41
1
10
61.937890944132
20
36.5866729357044
30
0
41
1
10
61.933039795462
20
36.5840772376136
30
0
0
SPLINE
5
11E
100
AcDbEntity
8
1
62
256
6
ByLayer
370
18
48
1
60
0
100
AcDbSpline
70
4
71
3
72
20
73
16
40
0
40
0
40
0
40
0
40
0.250000000000045
40
0.250000000000045
40
0.375000000000037
40
0.375000000000037
40
0.50000000000003
40
0.50000000000003
40
0.625000000000022
40
0.625000000000022
40
0.750000000000015
40
0.750000000000015
40
0.875000000000007
40
0.875000000000007
40
1
40
1
40
1
40
1
41
1
10
61.9330397954621
20
37.4159227623864
30
0
41
1
10
61.9427422487556
20
37.410731282759
30
0
41
1
10
61.9517092968702
20
37.4035295253539
30
0
41
1
10
61.964047082971
20
37.3896850163107
30
0
41
1
10
61.9679371835433
20
37.3845799203337
30
0
41
1
10
61.9750781767345
20
37.3736667010935
30
0
41
1
10
61.9783611160119
20
37.3678241997689
30
0
41
1
10
61.9843397653764
20
37.3553511564102
30
0
41
1
10
61.9870434392174
20
37.3486770600967
30
0
41
1
10
61.9916642630196
20
37.334975103544
30
0
41
1
10
61.9936086504077
20
37.3279014713725
30
0
41
1
10
61.9967642469955
20
37.3133082123662
30
0
41
1
10
61.9979798151933
20
37.3057306632175
30
0
41
1
10
61.9995937631251
20
37.2904457315629
30
0
41
1
10
62.0000000000113
20
37.2827395802012
30
0
41
1
10
62.0000000000113
20
37.2749688692703
30
0
0
SPLINE
5
11F
100
AcDbEntity
8
1
62
256
6
ByLayer
370
18
48
1
60
0
100
AcDbSpline
70
4
71
3
72
8
73
4
40
0
40
0
40
0
40
0
40
1
40
1
40
1
40
1
41
1
10
61.774406808652
20
37.5
30
0
41
1
10
61.8273598960423
20
37.4722980163781
30
0
41
1
10
61.8802175315189
20
37.444186305517
30
0
41
1
10
61.9330397954621
20
37.4159227623864
30
0
0
SPLINE
5
120
100
AcDbEntity
8
1
62
256
6
ByLayer
370
18
48
1
60
0
100
AcDbSpline
70
4
71
3
72
10
73
6
40
0
40
0
40
0
40
0
40
0.5
40
0.5
40
1
40
1
40
1
40
1
41
1
10
61.6235725043277
20
38.6983685624722
30
0
41
1
10
61.6496855741654
20
38.4989222579283
30
0
41
1
10
61.6750645873787
20
38.2992629194494
30
0
41
1
10
61.7251734343708
20
37.8997558411549
30
0
41
1
10
61.7498831115121
20
37.6999037249022
30
0
41
1
10
61.774406808652
20
37.5
30
0
0
SPLINE
5
121
100
AcDbEntity
8
1
62
256
6
ByLayer
370
18
48
1
60
0
100
AcDbSpline
70
4
71
3
72
8
73
4
40
0
40
0
40
0
40
0
40
1
40
1
40
1
40
1
41
1
10
61.6305614826853
20
35.355155689704
30
0
41
1
10
61.5903366976898
20
35.3547027168737
30
0
41
1
10
61.5491474831768
20
35.3544870875594
30
0
41
1
10
61.5069594524618
20
35.3545094042456
30
0
0
SPLINE
5
122
100
AcDbEntity
8
1
62
256
6
ByLayer
370
18
48
1
60
0
100
AcDbSpline
70
4
71
3
72
11
73
7
40
0
40
0
40
0
40
0
40
0.350079070009806
40
0.350079070009806
40
0.700158140019613
40
1
40
1
40
1
40
1
41
1
10
32.2792156108742
20
38.6837058118341
30
0
41
1
10
32.2892426221423
20
38.6829144309331
30
0
41
1
10
32.2986888167132
20
38.6821714098276
30
0
41
1
10
32.3162963076558
20
38.6807940509013
30
0
41
1
10
32.331462353483
20
38.6796151941087
30
0
41
1
10
32.3444599431087
20
38.6786233502047
30
0
41
1
10
32.3499962188516
20
38.6782059214214
30
0
0
SPLINE
5
123
100
AcDbEntity
8
1
62
256
6
ByLayer
370
18
48
1
60
0
100
AcDbSpline
70
4
71
3
72
37
73
33
40
0
40
0
40
0
40
0
40
0.125000000000042
40
0.125000000000042
40
0.187500000000066
40
0.187500000000066
40
0.218750000000077
40
0.218750000000077
40
0.250000000000088
40
0.250000000000088
40
0.375000000000109
40
0.375000000000109
40
0.40625000000011
40
0.40625000000011
40
0.437500000000111
40
0.437500000000111
40
0.500000000000111
40
0.500000000000111
40
0.6250000000001
40
0.6250000000001
40
0.656250000000093
40
0.656250000000093
40
0.687500000000086
40
0.687500000000086
40
0.750000000000075
40
0.812500000000063
40
0.812500000000063
40
0.843750000000054
40
0.843750000000054
40
0.875000000000044
40
0.875000000000044
40
1
40
1
40
1
40
1
41
1
10
50.4
20
33.7721958337143
30
0
41
1
10
50.4
20
33.8762541508033
30
0
41
1
10
50.4102076773641
20
33.9788832928925
30
0
41
1
10
50.4404520924089
20
34.1307362536287
30
0
41
1
10
50.453040099345
20
34.1810029676749
30
0
41
1
10
50.4757989974086
20
34.2558602364277
30
0
41
1
10
50.4840386732259
20
34.2807250524722
30
0
41
1
10
50.5016326380914
20
34.3297252584347
30
0
41
1
10
50.5110068848288
20
34.3539306054046
30
0
41
1
10
50.5607186764973
20
34.4735069274463
30
0
41
1
10
50.6094971866802
20
34.5645678746333
30
0
41
1
10
50.681824044119
20
34.6725967537962
30
0
41
1
10
50.696862172784
20
34.6939100749945
30
0
41
1
10
50.7281073412528
20
34.7359398615278
30
0
41
1
10
50.7443073564036
20
34.7566392612236
30
0
41
1
10
50.7941218552223
20
34.8171537547818
30
0
41
1
10
50.829118145695
20
34.8556243388904
30
0
41
1
10
50.9393447156506
20
34.9655468980652
30
0
41
1
10
51.0197612941555
20
35.0315635475074
30
0
41
1
10
51.1293075179941
20
35.1046254879538
30
0
41
1
10
51.151630992739
20
35.1187283198759
30
0
41
1
10
51.1966958323087
20
35.1456713643925
30
0
41
1
10
51.2194935431588
20
35.1585498442243
30
0
41
1
10
51.2886709196611
20
35.1954321529243
30
0
41
1
10
51.3829951017917
20
35.2399416795416
30
0
41
1
10
51.4814627585124
20
35.275188714704
30
0
41
1
10
51.5569008166248
20
35.298075641351
30
0
41
1
10
51.582311863978
20
35.3051121625797
30
0
41
1
10
51.6336757249358
20
35.317974118746
30
0
41
1
10
51.6595238308104
20
35.3237711865296
30
0
41
1
10
51.7889823570905
20
35.349480472674
30
0
41
1
10
51.8938372601389
20
35.3598122214213
30
0
41
1
10
51.9999999999997
20
35.3597513095525
30
0
0
SPLINE
5
124
100
AcDbEntity
8
1
62
256
6
ByLayer
370
18
48
1
60
0
100
AcDbSpline
70
4
71
3
72
8
73
4
40
0
40
0
40
0
40
0
40
1
40
1
40
1
40
1
41
1
10
50.4004546893137
20
35.325
30
0
41
1
10
50.4001515253245
20
35.3117931686491
30
0
41
1
10
50.4
20
35.2986144099295
30
0
41
1
10
50.4
20
35.2854634846491
30
0
0
SPLINE
5
125
100
AcDbEntity
8
1
62
256
6
ByLayer
370
18
48
1
60
0
100
AcDbSpline
70
4
71
3
72
42
73
38
40
0
40
0
40
0
40
0
40
0.0624999999999985
40
0.0624999999999985
40
0.124999999999997
40
0.124999999999997
40
0.156249999999997
40
0.156249999999997
40
0.171874999999993
40
0.171874999999993
40
0.187499999999989
40
0.249999999999988
40
0.312499999999987
40
0.312499999999987
40
0.343749999999989
40
0.343749999999989
40
0.374999999999991
40
0.374999999999991
40
0.437499999999999
40
0.437499999999999
40
0.46875
40
0.46875
40
0.500000000000001
40
0.500000000000001
40
0.562500000000003
40
0.562500000000003
40
0.625000000000004
40
0.625000000000004
40
0.687500000000006
40
0.687500000000006
40
0.750000000000008
40
0.750000000000008
40
0.875000000000004
40
0.875000000000004
40
0.937500000000002
40
0.937500000000002
40
1
40
1
40
1
40
1
41
1
10
50.4004546893137
20
35.325
30
0
41
1
10
50.4017451185927
20
35.3812153899133
30
0
41
1
10
50.4057742601943
20
35.4367887187712
30
0
41
1
10
50.4193928231038
20
35.5466318299164
30
0
41
1
10
50.4289813527098
20
35.6009018212534
30
0
41
1
10
50.4477371450488
20
35.681281606874
30
0
41
1
10
50.45471945453
20
35.7079036394745
30
0
41
1
10
50.466329756224
20
35.7475701693032
30
0
41
1
10
50.4703941568667
20
35.7607600404734
30
0
41
1
10
50.4788441701176
20
35.7868534509045
30
0
41
1
10
50.5008060250489
20
35.8514869490136
30
0
41
1
10
50.547757651399
20
35.9625066624236
30
0
41
1
10
50.5998292764333
20
36.0537790032514
30
0
41
1
10
50.6428036444843
20
36.1194220280826
30
0
41
1
10
50.6578188897499
20
36.1408723987524
30
0
41
1
10
50.6887289858295
20
36.1822469199016
30
0
41
1
10
50.7046679213631
20
36.2022447513583
30
0
41
1
10
50.7538811472787
20
36.2602486672653
30
0
41
1
10
50.7885481290696
20
36.2962704846663
30
0
41
1
10
50.8431920808114
20
36.3465368571079
30
0
41
1
10
50.8618482947784
20
36.3626631876533
30
0
41
1
10
50.9000306897827
20
36.3936763444428
30
0
41
1
10
50.9196047496668
20
36.4085939213048
30
0
41
1
10
50.9789965858913
20
36.4510752237438
30
0
41
1
10
51.0196212459597
20
36.4765067347068
30
0
41
1
10
51.1027492407174
20
36.5221002209942
30
0
41
1
10
51.1452533236796
20
36.5422600974714
30
0
41
1
10
51.2320295604653
20
36.577620549697
30
0
41
1
10
51.2764691238109
20
36.5928493455726
30
0
41
1
10
51.3654553064153
20
36.6181290654108
30
0
41
1
10
51.4101583758284
20
36.6282628904345
30
0
41
1
10
51.5448435626698
20
36.6517902086231
30
0
41
1
10
51.6353971771029
20
36.6583630316227
30
0
41
1
10
51.7722646982192
20
36.6558447499944
30
0
41
1
10
51.8181777868929
20
36.6529080329781
30
0
41
1
10
51.9094133182895
20
36.6430647012952
30
0
41
1
10
51.9548118046887
20
36.6361672109692
30
0
41
1
10
52.0000000000001
20
36.6273748847793
30
0
0
SPLINE
5
126
100
AcDbEntity
8
1
62
256
6
ByLayer
370
18
48
1
60
0
100
AcDbSpline
70
4
71
3
72
10
73
6
40
0
40
0
40
0
40
0
40
0.5
40
0.5
40
1
40
1
40
1
40
1
41
1
10
23.4383186059721
20
31.65
30
0
41
1
10
23.494319048712
20
31.65
30
0
41
1
10
23.5617770541167
20
31.65
30
0
41
1
10
23.7180287464458
20
31.65
30
0
41
1
10
23.8068170973354
20
31.65
30
0
41
1
10
23.9053431857192
20
31.65
30
0
0
SPLINE
5
127
100
AcDbEntity
8
1
62
256
6
ByLayer
370
18
48
1
60
0
100
AcDbSpline
70
4
71
3
72
32
73
28
40
0
40
0
40
0
40
0
40
0.0905857042487622
40
0.0905857042487622
40
0.113232130310953
40
0.118893736826501
40
0.118893736826501
40
0.124555343342048
40
0.124555343342048
40
0.135878556373143
40
0.181171408497521
40
0.181171408497521
40
0.362342816995032
40
0.362342816995032
40
0.543514225492543
40
0.543514225492543
40
0.634099929741298
40
0.634099929741298
40
0.724685633990054
40
0.724685633990054
40
0.815271338238809
40
0.815271338238809
40
0.905857042487565
40
0.905857042487565
40
0.99644274673632
40
0.99644274673632
40
1
40
1
40
1
40
1
41
1
10
23.4383186059722
20
31.65
30
0
41
1
10
23.4266196175921
20
31.65
30
0
41
1
10
23.4127838136777
20
31.65
30
0
41
1
10
23.3933432645177
20
31.65
30
0
41
1
10
23.3883487430274
20
31.65
30
0
41
1
10
23.3831959135935
20
31.65
30
0
41
1
10
23.381122306761
20
31.65
30
0
41
1
10
23.3800847706127
20
31.65
30
0
41
1
10
23.3768900595709
20
31.65
30
0
41
1
10
23.3661152977216
20
31.65
30
0
41
1
10
23.3547321377893
20
31.65
30
0
41
1
10
23.3075043847671
20
31.65
30
0
41
1
10
23.2642805289376
20
31.65
30
0
41
1
10
23.1734408345052
20
31.65
30
0
41
1
10
23.1257539409718
20
31.65
30
0
41
1
10
23.0568649610638
20
31.65
30
0
41
1
10
23.0343626713623
20
31.65
30
0
41
1
10
22.9915972656386
20
31.65
30
0
41
1
10
22.9713353908744
20
31.65
30
0
41
1
10
22.9346028169906
20
31.65
30
0
41
1
10
22.9181399716714
20
31.65
30
0
41
1
10
22.890673967144
20
31.65
30
0
41
1
10
22.8796871952811
20
31.65
30
0
41
1
10
22.8645955131566
20
31.65
30
0
41
1
10
22.8605073187976
20
31.65
30
0
41
1
10
22.8601641620328
20
31.65
30
0
41
1
10
22.860156992745
20
31.6500000000001
30
0
41
1
10
22.8601556059671
20
31.6500000000001
30
0
0
SPLINE
5
128
100
AcDbEntity
8
1
62
256
6
ByLayer
370
18
48
1
60
0
100
AcDbSpline
70
4
71
3
72
28
73
24
40
0
40
0
40
0
40
0
40
0.125000000000002
40
0.125000000000002
40
0.250000000000004
40
0.250000000000004
40
0.312500000000004
40
0.312500000000004
40
0.375000000000003
40
0.375000000000003
40
0.499999999999998
40
0.499999999999998
40
0.624999999999993
40
0.624999999999993
40
0.687499999999993
40
0.687499999999993
40
0.749999999999992
40
0.749999999999992
40
0.874999999999995
40
0.874999999999995
40
0.937499999999997
40
0.937499999999997
40
1
40
1
40
1
40
1
41
1
10
23.0745790681967
20
31.65
30
0
41
1
10
23.0797034947919
20
31.65
30
0
41
1
10
23.088339809912
20
31.6532182943537
30
0
41
1
10
23.1107129884679
20
31.6652812040201
30
0
41
1
10
23.124447738007
20
31.6741319697156
30
0
41
1
10
23.14766409967
20
31.691461769185
30
0
41
1
10
23.1558680757873
20
31.6979425634353
30
0
41
1
10
23.1727270953887
20
31.7120565487405
30
0
41
1
10
23.1814039219521
20
31.7197037416824
30
0
41
1
10
23.2079260405293
20
31.7443683618096
30
0
41
1
10
23.2262545474528
20
31.7630977756409
30
0
41
1
10
23.2631683059616
20
31.805181654542
30
0
41
1
10
23.2817602233248
20
31.8285356392096
30
0
41
1
10
23.3092208532197
20
31.8673501841443
30
0
41
1
10
23.3182435885789
20
31.880839563147
30
0
41
1
10
23.3358555373687
20
31.9088177785191
30
0
41
1
10
23.3444581436998
20
31.9233251916313
30
0
41
1
10
23.3695286319472
20
31.9684480006325
30
0
41
1
10
23.3852625864547
20
32.0006537550461
30
0
41
1
10
23.4068629022012
20
32.0524948669297
30
0
41
1
10
23.4137290017026
20
32.0703663342508
30
0
41
1
10
23.426689976007
20
32.1073844263877
30
0
41
1
10
23.4327474690385
20
32.1264291689353
30
0
41
1
10
23.4383186059724
20
32.1459721466512
30
0
0
SPLINE
5
129
100
AcDbEntity
8
1
62
256
6
ByLayer
370
18
48
1
60
0
100
AcDbSpline
70
4
71
3
72
67
73
63
40
0
40
0
40
0
40
0
40
0.0624999999999985
40
0.0624999999999985
40
0.124999999999997
40
0.124999999999997
40
0.140624999999997
40
0.140624999999997
40
0.156249999999997
40
0.156249999999997
40
0.187499999999997
40
0.187499999999997
40
0.249999999999998
40
0.249999999999998
40
0.281249999999999
40
0.281249999999999
40
0.296875
40
0.296875
40
0.3125
40
0.3125
40
0.375000000000001
40
0.375000000000001
40
0.437500000000001
40
0.437500000000001
40
0.500000000000001
40
0.500000000000001
40
0.515625
40
0.515625
40
0.53125
40
0.5625
40
0.5625
40
0.624999999999999
40
0.624999999999999
40
0.687499999999999
40
0.687499999999999
40
0.749999999999999
40
0.749999999999999
40
0.781249999999998
40
0.781249999999998
40
0.812499999999998
40
0.812499999999998
40
0.843749999999997
40
0.843749999999997
40
0.874999999999997
40
0.874999999999997
40
0.890624999999997
40
0.890624999999997
40
0.906249999999997
40
0.906249999999997
40
0.921874999999997
40
0.921874999999997
40
0.937499999999997
40
0.937499999999997
40
0.953124999999998
40
0.953124999999998
40
0.968749999999999
40
0.968749999999999
40
0.984374999999999
40
0.984374999999999
40
0.9921875
40
0.9921875
40
1
40
1
40
1
40
1
41
1
10
26.0939661422936
20
-16.75
30
0
41
1
10
25.9411450476574
20
-16.75
30
0
41
1
10
25.7907393905346
20
-16.7587235824561
30
0
41
1
10
25.4944235323823
20
-16.7923766521907
30
0
41
1
10
25.3485149003339
20
-16.8173119978061
30
0
41
1
10
25.1688513264094
20
-16.8582753364057
30
0
41
1
10
25.133055137776
20
-16.8669592029568
30
0
41
1
10
25.061735200673
20
-16.8853066003541
30
0
41
1
10
25.0261613568963
20
-16.8949862442479
30
0
41
1
10
24.9206749810523
20
-16.9252463715981
30
0
41
1
10
24.8517543947964
20
-16.9471024839074
30
0
41
1
10
24.6489359091693
20
-17.0173915555675
30
0
41
1
10
24.5189667142253
20
-17.0705279097528
30
0
41
1
10
24.3311348980118
20
-17.1587313495765
30
0
41
1
10
24.2697152772442
20
-17.1895537422518
30
0
41
1
10
24.1793102523479
20
-17.2378411174418
30
0
41
1
10
24.1494373018678
20
-17.2542939714781
30
0
41
1
10
24.0903707209872
20
-17.2878101674212
30
0
41
1
10
24.0612577031993
20
-17.3048267556899
30
0
41
1
10
23.9177120036364
20
-17.3911498350201
30
0
41
1
10
23.8093092055448
20
-17.464159562369
30
0
41
1
10
23.6037782312901
20
-17.6170510907298
30
0
41
1
10
23.506658262145
20
-17.6969383137924
30
0
41
1
10
23.3226826887529
20
-17.8629018467327
30
0
41
1
10
23.2358313887578
20
-17.9489813964638
30
0
41
1
10
23.1332860492065
20
-18.0601508677403
30
0
41
1
10
23.1130920964353
20
-18.0825503792919
30
0
41
1
10
23.0734713701209
20
-18.1274994971278
30
0
41
1
10
23.0151248579756
20
-18.19521999998
30
0
41
1
10
22.9599331167854
20
-18.2637946707691
30
0
41
1
10
22.8535358299083
20
-18.4019942148997
30
0
41
1
10
22.7879086467719
20
-18.4955276099181
30
0
41
1
10
22.6663949572527
20
-18.6849533436713
30
0
41
1
10
22.6105114709914
20
-18.7808502776935
30
0
41
1
10
22.5079301492749
20
-18.9745133251272
30
0
41
1
10
22.4612337305974
20
-19.072289730045
30
0
41
1
10
22.3978406120247
20
-19.2197973350827
30
0
41
1
10
22.3778198876576
20
-19.2691043602967
30
0
41
1
10
22.3399797834269
20
-19.3678345616461
30
0
41
1
10
22.3221557416976
20
-19.4172810080214
30
0
41
1
10
22.2888472668918
20
-19.5155916584509
30
0
41
1
10
22.2733405669466
20
-19.5645139143172
30
0
41
1
10
22.2445929677225
20
-19.6614765922429
30
0
41
1
10
22.2313516589709
20
-19.7095251963887
30
0
41
1
10
22.2131868619594
20
-19.7803883286256
30
0
41
1
10
22.2074150254758
20
-19.8038045982375
30
0
41
1
10
22.1964414497793
20
-19.8500741179433
30
0
41
1
10
22.1912419680965
20
-19.8729200014018
30
0
41
1
10
22.1814474335411
20
-19.9177003799923
30
0
41
1
10
22.1768489102108
20
-19.939650504615
30
0
41
1
10
22.1682624917521
20
-19.9823252233687
30
0
41
1
10
22.1642743399032
20
-20.0030528775521
30
0
41
1
10
22.1569340737144
20
-20.042761598549
30
0
41
1
10
22.1535814068693
20
-20.0617482025415
30
0
41
1
10
22.1475613740936
20
-20.0971510087326
30
0
41
1
10
22.1449234091477
20
-20.1133942604481
30
0
41
1
10
22.1404632668014
20
-20.1417069872851
30
0
41
1
10
22.1386390279503
20
-20.1537842014231
30
0
41
1
10
22.136599161752
20
-20.167532793797
30
0
41
1
10
22.1360344649331
20
-20.1713931285841
30
0
41
1
10
22.1351674692261
20
-20.177355135863
30
0
41
1
10
22.134865060747
20
-20.1794564020674
30
0
41
1
10
22.134698385264
20
-20.1806153952332
30
0
0
SPLINE
5
12A
100
AcDbEntity
8
1
62
256
6
ByLayer
370
18
48
1
60
0
100
AcDbSpline
70
4
71
3
72
10
73
6
40
0
40
0
40
0
40
0
40
0.5
40
0.5
40
1
40
1
40
1
40
1
41
1
10
23.9053431857192
20
31.65
30
0
41
1
10
23.825681123129
20
31.3077908920247
30
0
41
1
10
23.746852899291
20
30.9659968227725
30
0
41
1
10
23.5910924148061
20
30.2832937428866
30
0
41
1
10
23.5141594672669
20
29.9423843777249
30
0
41
1
10
23.4383186059721
20
29.601957698314
30
0
0
SPLINE
5
12B
100
AcDbEntity
8
1
62
256
6
ByLayer
370
18
48
1
60
0
100
AcDbSpline
70
4
71
3
72
32
73
28
40
0
40
0
40
0
40
0
40
0.124999999999993
40
0.124999999999993
40
0.249999999999986
40
0.249999999999986
40
0.374999999999979
40
0.374999999999979
40
0.499999999999971
40
0.499999999999971
40
0.531249999999971
40
0.531249999999971
40
0.562499999999971
40
0.562499999999971
40
0.624999999999973
40
0.624999999999973
40
0.749999999999976
40
0.749999999999976
40
0.78124999999998
40
0.78124999999998
40
0.812499999999984
40
0.812499999999984
40
0.874999999999989
40
0.874999999999989
40
0.937499999999995
40
0.937499999999995
40
1
40
1
40
1
40
1
41
1
10
22.2792076144253
20
27.6808413104202
30
0
41
1
10
22.3091971617309
20
27.739748535696
30
0
41
1
10
22.3436302598125
20
27.7981228609026
30
0
41
1
10
22.4207083126149
20
27.9158940525834
30
0
41
1
10
22.4633561739212
20
27.9752912754611
30
0
41
1
10
22.5558921869472
20
28.0975858377455
30
0
41
1
10
22.605784493114
20
28.1604801120641
30
0
41
1
10
22.711435417456
20
28.292664430431
30
0
41
1
10
22.7672017575789
20
28.3619446161894
30
0
41
1
10
22.8393613627147
20
28.454724133326
30
0
41
1
10
22.8539140940105
20
28.4735909776751
30
0
41
1
10
22.8832226517154
20
28.5120105341331
30
0
41
1
10
22.8979950247306
20
28.5315860189112
30
0
41
1
10
22.9423041762256
20
28.5911068891053
30
0
41
1
10
22.9718980055499
20
28.6319270962585
30
0
41
1
10
23.0601840342688
20
28.758378904948
30
0
41
1
10
23.1184224556377
20
28.847958385736
30
0
41
1
10
23.1877883505822
20
28.968865794043
30
0
41
1
10
23.2014866119682
20
28.9934973764694
30
0
41
1
10
23.228450467963
20
29.0437370763686
30
0
41
1
10
23.2417085258969
20
29.0693369968328
30
0
41
1
10
23.2803376082809
20
29.1469735650822
30
0
41
1
10
23.3046914129889
20
29.2000706234313
30
0
41
1
10
23.3498989939522
20
29.3092511691943
30
0
41
1
10
23.3707567795315
20
29.3653317206828
30
0
41
1
10
23.4081061557642
20
29.4809130423638
30
0
41
1
10
23.4246063461125
20
29.5404075126811
30
0
41
1
10
23.4383186059721
20
29.601957698314
30
0
0
SPLINE
5
12C
100
AcDbEntity
8
1
62
256
6
ByLayer
370
18
48
1
60
0
100
AcDbSpline
70
4
71
3
72
30
73
26
40
0
40
0
40
0
40
0
40
0.0625000000000035
40
0.0625000000000035
40
0.0937500000000081
40
0.0937500000000081
40
0.125000000000013
40
0.125000000000013
40
0.250000000000018
40
0.250000000000018
40
0.312500000000019
40
0.312500000000019
40
0.37500000000002
40
0.37500000000002
40
0.437500000000021
40
0.437500000000021
40
0.500000000000022
40
0.500000000000022
40
0.625000000000016
40
0.625000000000016
40
0.750000000000011
40
0.750000000000011
40
0.875000000000005
40
0.875000000000005
40
1
40
1
40
1
40
1
41
1
10
13.4613248654052
20
30.0805927603168
30
0
41
1
10
13.4770644463612
20
30.0805927603168
30
0
41
1
10
13.4925182901835
20
30.0801205034908
30
0
41
1
10
13.5153082123102
20
30.0787652114225
30
0
41
1
10
13.5228395300832
20
30.0782053093477
30
0
41
1
10
13.537775923748
20
30.076876147822
30
0
41
1
10
13.5452163817752
20
30.0761022248719
30
0
41
1
10
13.5815263070002
20
30.07179594856
30
0
41
1
10
13.6079581046675
20
30.0669872793661
30
0
41
1
10
13.6448606867708
20
30.0583172600355
30
0
41
1
10
13.6565013495868
20
30.0552244086801
30
0
41
1
10
13.6786197964872
20
30.0487371057378
30
0
41
1
10
13.6891167538208
20
30.0453372280741
30
0
41
1
10
13.7091749421594
20
30.0382729348065
30
0
41
1
10
13.7187352282342
20
30.0346082702024
30
0
41
1
10
13.737049765874
20
30.0270468182506
30
0
41
1
10
13.7458258793003
20
30.0231382884602
30
0
41
1
10
13.77082212436
20
30.0112312950129
30
0
41
1
10
13.7858017072527
20
30.0030284643032
30
0
41
1
10
13.8132376332897
20
29.9862010424071
30
0
41
1
10
13.8256849705001
20
29.9775752500985
30
0
41
1
10
13.8485243776493
20
29.9599596837525
30
0
41
1
10
13.8589127955723
20
29.9509694256367
30
0
41
1
10
13.877931786983
20
29.932660186932
30
0
41
1
10
13.8865409364124
20
29.9233580917139
30
0
41
1
10
13.8943375672974
20
29.913954846469
30
0
0
SPLINE
5
12D
100
AcDbEntity
8
1
62
256
6
ByLayer
370
18
48
1
60
0
100
AcDbSpline
70
4
71
3
72
32
73
28
40
0
40
0
40
0
40
0
40
0.25000000000001
40
0.25000000000001
40
0.375000000000013
40
0.375000000000013
40
0.437500000000014
40
0.437500000000014
40
0.500000000000015
40
0.500000000000015
40
0.625000000000012
40
0.625000000000012
40
0.687500000000011
40
0.687500000000011
40
0.75000000000001
40
0.75000000000001
40
0.812500000000009
40
0.812500000000009
40
0.843750000000006
40
0.843750000000006
40
0.875000000000002
40
0.875000000000002
40
0.937499999999997
40
0.937499999999997
40
0.968749999999999
40
0.968749999999999
40
1
40
1
40
1
40
1
41
1
10
13.8943375672973
20
9.86941261896635
30
0
41
1
10
13.8787501654512
20
9.81243201498822
30
0
41
1
10
13.8600981524864
20
9.7565502308299
30
0
41
1
10
13.8259097308548
20
9.67499387250808
30
0
41
1
10
13.8134681559942
20
9.64819007031218
30
0
41
1
10
13.792841581707
20
9.6087077822869
30
0
41
1
10
13.785636838674
20
9.59566828989821
30
0
41
1
10
13.7704696456803
20
9.56986960560346
30
0
41
1
10
13.7624961131814
20
9.55709686534388
30
0
41
1
10
13.7374904471463
20
9.51963294536145
30
0
41
1
10
13.7193382950672
20
9.49566900868408
30
0
41
1
10
13.689039794361
20
9.46183015552288
30
0
41
1
10
13.6784124135706
20
9.45090526429348
30
0
41
1
10
13.656277975813
20
9.43026612350781
30
0
41
1
10
13.6447350068564
20
9.42050719110856
30
0
41
1
10
13.6205171073694
20
9.40232505361271
30
0
41
1
10
13.607843974168
20
9.39389972204398
30
0
41
1
10
13.5877822000581
20
9.38250456041453
30
0
41
1
10
13.5808872163667
20
9.37890069603409
30
0
41
1
10
13.5669060817703
20
9.37226208194036
30
0
41
1
10
13.5598136368109
20
9.36922064667934
30
0
41
1
10
13.5382117701416
20
9.36098178019498
30
0
41
1
10
13.5233796774591
20
9.35666472180222
30
0
41
1
10
13.5003821923576
20
9.35223451981236
30
0
41
1
10
13.4925919071141
20
9.35110433740243
30
0
41
1
10
13.4770081601071
20
9.34960123302497
30
0
41
1
10
13.4691833484066
20
9.34922131452527
30
0
41
1
10
13.4613248654052
20
9.34922131452527
30
0
0
SPLINE
5
12E
100
AcDbEntity
8
1
62
256
6
ByLayer
370
18
48
1
60
0
100
AcDbSpline
70
4
71
3
72
30
73
26
40
0
40
0
40
0
40
0
40
0.0625000000000068
40
0.0625000000000068
40
0.0937500000000109
40
0.0937500000000109
40
0.125000000000015
40
0.125000000000015
40
0.250000000000018
40
0.250000000000018
40
0.312500000000017
40
0.312500000000017
40
0.375000000000015
40
0.375000000000015
40
0.437500000000014
40
0.437500000000014
40
0.500000000000012
40
0.500000000000012
40
0.625000000000009
40
0.625000000000009
40
0.750000000000006
40
0.750000000000006
40
0.875000000000003
40
0.875000000000003
40
1
40
1
40
1
40
1
41
1
10
10.5386751345949
20
9.34922131452521
30
0
41
1
10
10.5229355536388
20
9.34922131452521
30
0
41
1
10
10.5074817098165
20
9.35074113394299
30
0
41
1
10
10.4846917876899
20
9.35509944740042
30
0
41
1
10
10.4771604699169
20
9.3568996132268
30
0
41
1
10
10.4622240762521
20
9.36117119765723
30
0
41
1
10
10.4547836182248
20
9.36365758390284
30
0
41
1
10
10.4184736929998
20
9.37748487924978
30
0
41
1
10
10.3920418953325
20
9.39290424748319
30
0
41
1
10
10.3551393132292
20
9.42059748954591
30
0
41
1
10
10.3434986504133
20
9.43046143490434
30
0
41
1
10
10.3213802035129
20
9.45111186483339
30
0
41
1
10
10.3108832461793
20
9.46191570446797
30
0
41
1
10
10.2908250578407
20
9.4843184805882
30
0
41
1
10
10.2812647717658
20
9.49591822570974
30
0
41
1
10
10.262950234126
20
9.51980127252992
30
0
41
1
10
10.2541741206997
20
9.5321214266348
30
0
41
1
10
10.22917787564
20
9.56957065273539
30
0
41
1
10
10.2141982927473
20
9.5952614212768
30
0
41
1
10
10.1867623667103
20
9.64772023935058
30
0
41
1
10
10.1743150294999
20
9.67449223197181
30
0
41
1
10
10.1514756223507
20
9.72890711075652
30
0
41
1
10
10.1410872044277
20
9.75655159685468
30
0
41
1
10
10.122068213017
20
9.81257982037178
30
0
41
1
10
10.1134590635876
20
9.84091160634034
30
0
41
1
10
10.1056624327026
20
9.86941261896629
30
0
0
SPLINE
5
12F
100
AcDbEntity
8
1
62
256
6
ByLayer
370
18
48
1
60
0
100
AcDbSpline
70
4
71
3
72
32
73
28
40
0
40
0
40
0
40
0
40
0.250000000000005
40
0.250000000000005
40
0.375000000000004
40
0.375000000000004
40
0.437500000000003
40
0.437500000000003
40
0.500000000000002
40
0.500000000000002
40
0.625000000000002
40
0.625000000000002
40
0.687500000000004
40
0.687500000000004
40
0.750000000000005
40
0.750000000000005
40
0.812500000000007
40
0.812500000000007
40
0.843750000000003
40
0.843750000000003
40
0.874999999999999
40
0.874999999999999
40
0.9375
40
0.9375
40
0.96875
40
0.96875
40
1
40
1
40
1
40
1
41
1
10
10.1056624327027
20
29.913954846469
30
0
41
1
10
10.1212498345488
20
29.9327542695084
30
0
41
1
10
10.1399018475136
20
29.9510098933135
30
0
41
1
10
10.1740902691452
20
29.977413331973
30
0
41
1
10
10.1865318440058
20
29.9860499646858
30
0
41
1
10
10.207158418293
20
29.9987154022301
30
0
41
1
10
10.214363161326
20
30.0028887514666
30
0
41
1
10
10.2295303543198
20
30.0111275878529
30
0
41
1
10
10.2375038868186
20
30.0151973377028
30
0
41
1
10
10.2625095528537
20
30.0271090091071
30
0
41
1
10
10.2806617049328
20
30.0346937657148
30
0
41
1
10
10.3109602056391
20
30.0453642012995
30
0
41
1
10
10.3215875864295
20
30.0488020840795
30
0
41
1
10
10.343722024187
20
30.0552856889209
30
0
41
1
10
10.3552649931437
20
30.0583455135275
30
0
41
1
10
10.3794828926306
20
30.0640378913833
30
0
41
1
10
10.3921560258321
20
30.0666711051738
30
0
41
1
10
10.4122177999419
20
30.0702282001224
30
0
41
1
10
10.4191127836333
20
30.0713523776808
30
0
41
1
10
10.4330939182298
20
30.0734220792403
30
0
41
1
10
10.4401863631891
20
30.0743696982574
30
0
41
1
10
10.4617882298585
20
30.076935568727
30
0
41
1
10
10.4766203225409
20
30.0782784555614
30
0
41
1
10
10.4996178076425
20
30.0796561130286
30
0
41
1
10
10.507408092886
20
30.0800074516351
30
0
41
1
10
10.5229918398929
20
30.080474687126
30
0
41
1
10
10.5308166515934
20
30.0805927603169
30
0
41
1
10
10.5386751345949
20
30.0805927603169
30
0
0
SPLINE
5
130
100
AcDbEntity
8
1
62
256
6
ByLayer
370
18
48
1
60
0
100
AcDbSpline
70
4
71
3
72
30
73
26
40
0
40
0
40
0
40
0
40
0.0624999999999948
40
0.0624999999999948
40
0.0937499999999956
40
0.0937499999999956
40
0.124999999999996
40
0.124999999999996
40
0.250000000000006
40
0.250000000000006
40
0.312500000000005
40
0.312500000000005
40
0.375000000000004
40
0.375000000000004
40
0.437500000000002
40
0.437500000000002
40
0.500000000000001
40
0.500000000000001
40
0.625000000000001
40
0.625000000000001
40
0.750000000000001
40
0.750000000000001
40
0.875
40
0.875
40
1
40
1
40
1
40
1
41
1
10
10.5386751345949
20
-30.0805927603169
30
0
41
1
10
10.5229355536388
20
-30.0805927603169
30
0
41
1
10
10.5074817098165
20
-30.0801205034908
30
0
41
1
10
10.4846917876899
20
-30.0787652114226
30
0
41
1
10
10.4771604699169
20
-30.0782053093477
30
0
41
1
10
10.4622240762521
20
-30.0768761478221
30
0
41
1
10
10.4547836182248
20
-30.0761022248719
30
0
41
1
10
10.4184736929998
20
-30.0717959485601
30
0
41
1
10
10.3920418953325
20
-30.0669872793661
30
0
41
1
10
10.3551393132292
20
-30.0583172600355
30
0
41
1
10
10.3434986504133
20
-30.0552244086801
30
0
41
1
10
10.3213802035129
20
-30.0487371057378
30
0
41
1
10
10.3108832461793
20
-30.0453372280742
30
0
41
1
10
10.2908250578407
20
-30.0382729348065
30
0
41
1
10
10.2812647717658
20
-30.0346082702024
30
0
41
1
10
10.262950234126
20
-30.0270468182506
30
0
41
1
10
10.2541741206997
20
-30.0231382884602
30
0
41
1
10
10.22917787564
20
-30.0112312950129
30
0
41
1
10
10.2141982927473
20
-30.0030284643032
30
0
41
1
10
10.1867623667103
20
-29.9862010424071
30
0
41
1
10
10.1743150294999
20
-29.9775752500985
30
0
41
1
10
10.1514756223507
20
-29.9599596837525
30
0
41
1
10
10.1410872044277
20
-29.9509694256367
30
0
41
1
10
10.122068213017
20
-29.9326601869321
30
0
41
1
10
10.1134590635876
20
-29.9233580917139
30
0
41
1
10
10.1056624327026
20
-29.913954846469
30
0
0
SPLINE
5
131
100
AcDbEntity
8
1
62
256
6
ByLayer
370
18
48
1
60
0
100
AcDbSpline
70
4
71
3
72
32
73
28
40
0
40
0
40
0
40
0
40
0.250000000000012
40
0.250000000000012
40
0.375000000000014
40
0.375000000000014
40
0.437500000000012
40
0.437500000000012
40
0.500000000000011
40
0.500000000000011
40
0.625000000000001
40
0.625000000000001
40
0.687499999999998
40
0.687499999999998
40
0.749999999999994
40
0.749999999999994
40
0.812499999999991
40
0.812499999999991
40
0.843749999999991
40
0.843749999999991
40
0.874999999999992
40
0.874999999999992
40
0.937499999999996
40
0.937499999999996
40
0.968749999999998
40
0.968749999999998
40
1
40
1
40
1
40
1
41
1
10
10.1056624327026
20
-9.86941261896635
30
0
41
1
10
10.1212498345488
20
-9.81243201498819
30
0
41
1
10
10.1399018475136
20
-9.75655023082982
30
0
41
1
10
10.1740902691452
20
-9.674993872508
30
0
41
1
10
10.1865318440058
20
-9.6481900703121
30
0
41
1
10
10.207158418293
20
-9.60870778228681
30
0
41
1
10
10.214363161326
20
-9.59566828989813
30
0
41
1
10
10.2295303543198
20
-9.56986960560334
30
0
41
1
10
10.2375038868186
20
-9.55709686534377
30
0
41
1
10
10.2625095528537
20
-9.51963294536134
30
0
41
1
10
10.2806617049328
20
-9.49566900868396
30
0
41
1
10
10.3109602056391
20
-9.46183015552276
30
0
41
1
10
10.3215875864295
20
-9.45090526429337
30
0
41
1
10
10.343722024187
20
-9.43026612350769
30
0
41
1
10
10.3552649931436
20
-9.42050719110844
30
0
41
1
10
10.3794828926306
20
-9.4023250536126
30
0
41
1
10
10.392156025832
20
-9.39389972204387
30
0
41
1
10
10.4122177999419
20
-9.38250456041439
30
0
41
1
10
10.4191127836333
20
-9.37890069603398
30
0
41
1
10
10.4330939182297
20
-9.37226208194022
30
0
41
1
10
10.4401863631891
20
-9.3692206466792
30
0
41
1
10
10.4617882298585
20
-9.36098178019486
30
0
41
1
10
10.4766203225409
20
-9.35666472180208
30
0
41
1
10
10.4996178076425
20
-9.35223451981224
30
0
41
1
10
10.5074080928859
20
-9.35110433740226
30
0
41
1
10
10.5229918398929
20
-9.34960123302483
30
0
41
1
10
10.5308166515934
20
-9.34922131452512
30
0
41
1
10
10.5386751345949
20
-9.34922131452512
30
0
0
SPLINE
5
132
100
AcDbEntity
8
1
62
256
6
ByLayer
370
18
48
1
60
0
100
AcDbSpline
70
4
71
3
72
30
73
26
40
0
40
0
40
0
40
0
40
0.0624999999999998
40
0.0624999999999998
40
0.0937499999999991
40
0.0937499999999991
40
0.124999999999998
40
0.124999999999998
40
0.250000000000012
40
0.250000000000012
40
0.312500000000013
40
0.312500000000013
40
0.375000000000014
40
0.375000000000014
40
0.437500000000015
40
0.437500000000015
40
0.500000000000016
40
0.500000000000016
40
0.625000000000012
40
0.625000000000012
40
0.750000000000008
40
0.750000000000008
40
0.875000000000004
40
0.875000000000004
40
1
40
1
40
1
40
1
41
1
10
13.4613248654052
20
-9.34922131452532
30
0
41
1
10
13.4770644463612
20
-9.34922131452532
30
0
41
1
10
13.4925182901835
20
-9.35074113394305
30
0
41
1
10
13.5153082123102
20
-9.35509944740048
30
0
41
1
10
13.5228395300832
20
-9.35689961322686
30
0
41
1
10
13.537775923748
20
-9.36117119765731
30
0
41
1
10
13.5452163817752
20
-9.36365758390289
30
0
41
1
10
13.5815263070002
20
-9.37748487924983
30
0
41
1
10
13.6079581046675
20
-9.39290424748327
30
0
41
1
10
13.6448606867708
20
-9.42059748954597
30
0
41
1
10
13.6565013495867
20
-9.4304614349044
30
0
41
1
10
13.6786197964872
20
-9.45111186483345
30
0
41
1
10
13.6891167538208
20
-9.46191570446803
30
0
41
1
10
13.7091749421594
20
-9.48431848058826
30
0
41
1
10
13.7187352282342
20
-9.49591822570977
30
0
41
1
10
13.737049765874
20
-9.51980127252995
30
0
41
1
10
13.7458258793003
20
-9.53212142663486
30
0
41
1
10
13.77082212436
20
-9.56957065273542
30
0
41
1
10
13.7858017072526
20
-9.59526142127683
30
0
41
1
10
13.8132376332897
20
-9.64772023935058
30
0
41
1
10
13.8256849705001
20
-9.67449223197181
30
0
41
1
10
13.8485243776493
20
-9.72890711075652
30
0
41
1
10
13.8589127955723
20
-9.75655159685465
30
0
41
1
10
13.877931786983
20
-9.81257982037172
30
0
41
1
10
13.8865409364124
20
-9.84091160634037
30
0
41
1
10
13.8943375672974
20
-9.86941261896632
30
0
0
SPLINE
5
133
100
AcDbEntity
8
1
62
256
6
ByLayer
370
18
48
1
60
0
100
AcDbSpline
70
4
71
3
72
32
73
28
40
0
40
0
40
0
40
0
40
0.250000000000022
40
0.250000000000022
40
0.375000000000033
40
0.375000000000033
40
0.437500000000035
40
0.437500000000035
40
0.500000000000037
40
0.500000000000037
40
0.625000000000029
40
0.625000000000029
40
0.687500000000022
40
0.687500000000022
40
0.750000000000015
40
0.750000000000015
40
0.812500000000008
40
0.812500000000008
40
0.843750000000007
40
0.843750000000007
40
0.875000000000007
40
0.875000000000007
40
0.937499999999999
40
0.937499999999999
40
0.96875
40
0.96875
40
1
40
1
40
1
40
1
41
1
10
13.8943375672973
20
-29.913954846469
30
0
41
1
10
13.8787501654512
20
-29.9327542695083
30
0
41
1
10
13.8600981524864
20
-29.9510098933135
30
0
41
1
10
13.8259097308548
20
-29.977413331973
30
0
41
1
10
13.8134681559942
20
-29.9860499646858
30
0
41
1
10
13.792841581707
20
-29.9987154022301
30
0
41
1
10
13.785636838674
20
-30.0028887514666
30
0
41
1
10
13.7704696456802
20
-30.0111275878529
30
0
41
1
10
13.7624961131814
20
-30.0151973377027
30
0
41
1
10
13.7374904471463
20
-30.0271090091071
30
0
41
1
10
13.7193382950672
20
-30.0346937657148
30
0
41
1
10
13.6890397943609
20
-30.0453642012994
30
0
41
1
10
13.6784124135705
20
-30.0488020840795
30
0
41
1
10
13.656277975813
20
-30.0552856889209
30
0
41
1
10
13.6447350068563
20
-30.0583455135274
30
0
41
1
10
13.6205171073694
20
-30.0640378913833
30
0
41
1
10
13.6078439741679
20
-30.0666711051738
30
0
41
1
10
13.5877822000581
20
-30.0702282001223
30
0
41
1
10
13.5808872163667
20
-30.0713523776808
30
0
41
1
10
13.5669060817703
20
-30.0734220792403
30
0
41
1
10
13.5598136368109
20
-30.0743696982574
30
0
41
1
10
13.5382117701415
20
-30.076935568727
30
0
41
1
10
13.5233796774591
20
-30.0782784555613
30
0
41
1
10
13.5003821923576
20
-30.0796561130285
30
0
41
1
10
13.4925919071141
20
-30.0800074516351
30
0
41
1
10
13.4770081601071
20
-30.080474687126
30
0
41
1
10
13.4691833484066
20
-30.0805927603169
30
0
41
1
10
13.4613248654052
20
-30.0805927603169
30
0
0
SPLINE
5
134
100
AcDbEntity
8
1
62
256
6
ByLayer
370
18
48
1
60
0
100
AcDbSpline
70
4
71
3
72
10
73
6
40
0
40
0
40
0
40
0
40
0.499999999999998
40
0.499999999999998
40
1
40
1
40
1
40
1
41
1
10
22.2792076144253
20
27.6808413104201
30
0
41
1
10
22.2318718677169
20
27.5878616643276
30
0
41
1
10
22.1966425889681
20
27.492605434315
30
0
41
1
10
22.1488047629374
20
27.2974965415979
30
0
41
1
10
22.1362027296174
20
27.1976438773933
30
0
41
1
10
22.134698385264
20
27.0954379800999
30
0
0
SPLINE
5
135
100
AcDbEntity
8
SK1
62
256
6
ByLayer
370
18
48
1
60
0
100
AcDbSpline
70
4
71
3
72
49
73
45
40
0
40
0
40
0
40
0
40
0.0158520719477692
40
0.0443313508676778
40
0.0728106297875863
40
0.101289908707495
40
0.129769187627403
40
0.158248466547312
40
0.215207024387129
40
0.243686303307037
40
0.272165582226946
40
0.300644861146854
40
0.329124140066763
40
0.357603418986671
40
0.38608269790658
40
0.414561976826488
40
0.428801616286442
40
0.443041255746397
40
0.457280895206351
40
0.471520534666305
40
0.485760174126259
40
0.492879993856236
40
0.499999813586214
40
0.507119633316191
40
0.514239453046168
40
0.528479092506122
40
0.542718731966076
40
0.55695837142603
40
0.571198010885985
40
0.585437650345939
40
0.613916929265848
40
0.642396208185756
40
0.670875487105664
40
0.699354766025573
40
0.727834044945481
40
0.75631332386539
40
0.784792602785298
40
0.841751160625115
40
0.870230439545024
40
0.898709718464932
40
0.927188997384841
40
0.955668276304749
40
0.984147555224658
40
1
40
1
40
1
40
1
41
1
10
-38
20
-20.2900103493304
30
0
41
1
10
-38
20
-20.283808811814
30
0
41
1
10
-38
20
-20.2386783238088
30
0
41
1
10
-38
20
-20.0459066437045
30
0
41
1
10
-38
20
-19.6579362347721
30
0
41
1
10
-38
20
-19.1216505379956
30
0
41
1
10
-38
20
-18.4471799717542
30
0
41
1
10
-38
20
-17.3708466567051
30
0
41
1
10
-38
20
-16.0627718728323
30
0
41
1
10
-38
20
-14.5156181768618
30
0
41
1
10
-38
20
-13.2517907463501
30
0
41
1
10
-38
20
-11.8841222937699
30
0
41
1
10
-38
20
-10.4165562193455
30
0
41
1
10
-38
20
-8.85372672313898
30
0
41
1
10
-38
20
-7.20134092284709
30
0
41
1
10
-38
20
-5.76201911469511
30
0
41
1
10
-38
20
-4.5640765607352
30
0
41
1
10
-38
20
-3.65884583736087
30
0
41
1
10
-38
20
-2.74483905839463
30
0
41
1
10
-38
20
-1.82748828650287
30
0
41
1
10
-38
20
-1.06947767603967
30
0
41
1
10
-38
20
-0.455018198724474
30
0
41
1
10
-38
20
4.514861303E-07
30
0
41
1
10
-38
20
0.455018630552075
30
0
41
1
10
-38
20
1.06947718042707
30
0
41
1
10
-38
20
1.82748862261292
30
0
41
1
10
-38
20
2.74483966025932
30
0
41
1
10
-38
20
3.65884523285217
30
0
41
1
10
-38
20
4.56407688146012
30
0
41
1
10
-38
20
5.76201962732219
30
0
41
1
10
-38
20
7.20134053529003
30
0
41
1
10
-38
20
8.85372716578038
30
0
41
1
10
-38
20
10.4165563625368
30
0
41
1
10
-38
20
11.884121927153
30
0
41
1
10
-38
20
13.2517911056129
30
0
41
1
10
-38
20
14.5156182315173
30
0
41
1
10
-38
20
16.0627714181563
30
0
41
1
10
-38
20
17.3708469037194
30
0
41
1
10
-38
20
18.4471796582741
30
0
41
1
10
-38
20
19.121649880576
30
0
41
1
10
-38
20
19.6579364097435
30
0
41
1
10
-38
20
20.0459061788578
30
0
41
1
10
-38
20
20.2386786559483
30
0
41
1
10
-38
20
20.283809346944
30
0
41
1
10
-38
20
20.2900106503741
30
0
0
SPLINE
5
136
100
AcDbEntity
8
SK1
62
256
6
ByLayer
370
18
48
1
60
0
100
AcDbSpline
70
4
71
3
72
36
73
32
40
0
40
0
40
0
40
0
40
0.249999999999995
40
0.249999999999995
40
0.374999999999995
40
0.374999999999995
40
0.499999999999994
40
0.499999999999994
40
0.624999999999994
40
0.624999999999994
40
0.687499999999995
40
0.687499999999995
40
0.749999999999996
40
0.749999999999996
40
0.812499999999997
40
0.812499999999997
40
0.843749999999998
40
0.843749999999998
40
0.874999999999998
40
0.874999999999998
40
0.906249999999999
40
0.906249999999999
40
0.921874999999999
40
0.921874999999999
40
0.937499999999999
40
0.937499999999999
40
0.953124999999999
40
0.953124999999999
40
0.968749999999999
40
0.968749999999999
40
1
40
1
40
1
40
1
41
1
10
-0.200000000000017
20
-7.03415845154797
30
0
41
1
10
-0.200331074104753
20
-6.96758473110461
30
0
41
1
10
-0.201942367211245
20
-6.90082001005126
30
0
41
1
10
-0.207091999731233
20
-6.80034067321819
30
0
41
1
10
-0.209269492367241
20
-6.76679198903059
30
0
41
1
10
-0.214824426638018
20
-6.69957126003933
30
0
41
1
10
-0.21819915020231
20
-6.66587124141833
30
0
41
1
10
-0.226629907857017
20
-6.59846295367004
30
0
41
1
10
-0.231660540619686
20
-6.56479252713515
30
0
41
1
10
-0.241214598359392
20
-6.5144059185414
30
0
41
1
10
-0.24474520514363
20
-6.49760452342764
30
0
41
1
10
-0.252727620657765
20
-6.46421416849179
30
0
41
1
10
-0.257169431390224
20
-6.44763062016602
30
0
41
1
10
-0.267439101060546
20
-6.41481626716185
30
0
41
1
10
-0.27323621273078
20
-6.39857720931977
30
0
41
1
10
-0.283833370168679
20
-6.37471397159132
30
0
41
1
10
-0.287711149711186
20
-6.3668056729274
30
0
41
1
10
-0.296343527957418
20
-6.35152953268795
30
0
41
1
10
-0.301085882076165
20
-6.34414232274304
30
0
41
1
10
-0.312078412289935
20
-6.33025774259031
30
0
41
1
10
-0.31822232846153
20
-6.32386838427445
30
0
41
1
10
-0.329057935890972
20
-6.31619338160348
30
0
41
1
10
-0.332859652575024
20
-6.31402544311607
30
0
41
1
10
-0.340958863848982
20
-6.31070772605878
30
0
41
1
10
-0.345208124413119
20
-6.30960458427649
30
0
41
1
10
-0.35368915432602
20
-6.30870360354672
30
0
41
1
10
-0.358037716131264
20
-6.30890123768719
30
0
41
1
10
-0.366345960396387
20
-6.31042877188762
30
0
41
1
10
-0.37039582601011
20
-6.31175696012832
30
0
41
1
10
-0.381850124236081
20
-6.31686284615006
30
0
41
1
10
-0.388651860853344
20
-6.32169800880934
30
0
41
1
10
-0.394913799811292
20
-6.32721828439901
30
0
0
SPLINE
5
137
100
AcDbEntity
8
SK1
62
256
6
ByLayer
370
18
48
1
60
0
100
AcDbSpline
70
4
71
3
72
40
73
36
40
0
40
0
40
0
40
0
40
0.0156250000000005
40
0.0156250000000005
40
0.0312500000000011
40
0.0312500000000011
40
0.0468750000000016
40
0.0468750000000016
40
0.0625000000000022
40
0.0625000000000022
40
0.0781250000000027
40
0.0781250000000027
40
0.0937500000000033
40
0.0937500000000033
40
0.109375000000004
40
0.109375000000004
40
0.125000000000004
40
0.125000000000004
40
0.156250000000005
40
0.156250000000005
40
0.187500000000007
40
0.187500000000007
40
0.250000000000009
40
0.250000000000009
40
0.312500000000011
40
0.312500000000011
40
0.375000000000013
40
0.375000000000013
40
0.500000000000012
40
0.500000000000012
40
0.62500000000001
40
0.62500000000001
40
0.750000000000009
40
0.750000000000009
40
1
40
1
40
1
40
1
41
1
10
-0.394913799811292
20
6.32722135061286
30
0
41
1
10
-0.39176836682077
20
6.32444846033573
30
0
41
1
10
-0.388488406577181
20
6.32186168295425
30
0
41
1
10
-0.381566403142131
20
6.31718953975286
30
0
41
1
10
-0.377887007436868
20
6.31508659472502
30
0
41
1
10
-0.37022491081737
20
6.31169706442716
30
0
41
1
10
-0.366254804145342
20
6.31040674643401
30
0
41
1
10
-0.35794647802453
20
6.30889601700255
30
0
41
1
10
-0.353563907701925
20
6.30870335232461
30
0
41
1
10
-0.344995599835357
20
6.3096474881059
30
0
41
1
10
-0.340684924848716
20
6.31079560648985
30
0
41
1
10
-0.332576144960626
20
6.31417396688744
30
0
41
1
10
-0.328692242821006
20
6.31642240799482
30
0
41
1
10
-0.321489218115914
20
6.3215939456986
30
0
41
1
10
-0.318164476683506
20
6.32450219496934
30
0
41
1
10
-0.311908022590586
20
6.33077681434855
30
0
41
1
10
-0.308967085084731
20
6.33416203110167
30
0
41
1
10
-0.300766232707417
20
6.34461234463069
30
0
41
1
10
-0.296040108964064
20
6.35202357617757
30
0
41
1
10
-0.287432431444984
20
6.36735118199186
30
0
41
1
10
-0.283553316434961
20
6.37530507146633
30
0
41
1
10
-0.272955344086199
20
6.39930333387312
30
0
41
1
10
-0.267171029982791
20
6.41559723945636
30
0
41
1
10
-0.25692997095706
20
6.44848157748783
30
0
41
1
10
-0.25250502314799
20
6.46507959466703
30
0
41
1
10
-0.244556108211697
20
6.49847112557535
30
0
41
1
10
-0.241036901726744
20
6.51528035330136
30
0
41
1
10
-0.23149114194635
20
6.56582630636572
30
0
41
1
10
-0.226489017484568
20
6.5994729106236
30
0
41
1
10
-0.218114808322753
20
6.66667162394384
30
0
41
1
10
-0.214764318431179
20
6.70022371847915
30
0
41
1
10
-0.209239354999539
20
6.76723901782026
30
0
41
1
10
-0.207070996833011
20
6.80070221210741
30
0
41
1
10
-0.201940349251316
20
6.90096555412458
30
0
41
1
10
-0.200330815103371
20
6.96763966546041
30
0
41
1
10
-0.200000000000017
20
7.03416121607441
30
0
0
SPLINE
5
138
100
AcDbEntity
8
SK1
62
256
6
ByLayer
370
13
48
1
60
0
100
AcDbSpline
70
4
71
3
72
21
73
17
40
0
40
0
40
0
40
0
40
0.0620714907951188
40
0.130360514366325
40
0.198649537937531
40
0.266938561508738
40
0.335227585079944
40
0.40351660865115
40
0.471805632222357
40
0.608383679364769
40
0.676672702935975
40
0.744961726507182
40
0.813250750078388
40
0.881539773649594
40
0.9498287972208
40
1
40
1
40
1
40
1
41
1
10
-0.394913799811292
20
-6.32721828439904
30
0
41
1
10
-0.394913799811292
20
-6.90653762641452
30
0
41
1
10
-0.394913799811292
20
-8.09321756934102
30
0
41
1
10
-0.394913799811292
20
-9.80498157314139
30
0
41
1
10
-0.394913799811292
20
-11.4638140893219
30
0
41
1
10
-0.394913799811292
20
-13.0147246633634
30
0
41
1
10
-0.394913799811292
20
-14.4558606687731
30
0
41
1
10
-0.394913799811292
20
-15.7849097442956
30
0
41
1
10
-0.394913799811292
20
-17.4047594204778
30
0
41
1
10
-0.394913799811292
20
-18.7870404111631
30
0
41
1
10
-0.394913799811292
20
-19.9145928494951
30
0
41
1
10
-0.394913799811292
20
-20.6247618481558
30
0
41
1
10
-0.394913799811292
20
-21.1908658435729
30
0
41
1
10
-0.394913799811292
20
-21.6019834098091
30
0
41
1
10
-0.394913799811292
20
-21.8217384587448
30
0
41
1
10
-0.394913799811292
20
-21.8658202597999
30
0
41
1
10
-0.394913799811292
20
-21.8654706412045
30
0
0
SPLINE
5
139
100
AcDbEntity
8
SK1
62
256
6
ByLayer
370
18
48
1
60
0
100
AcDbSpline
70
4
71
3
72
51
73
47
40
0
40
0
40
0
40
0
40
0.0312500000000006
40
0.0312500000000006
40
0.0468750000000016
40
0.0468750000000016
40
0.0625000000000026
40
0.0625000000000026
40
0.0781250000000036
40
0.0781250000000036
40
0.0937500000000046
40
0.101562500000005
40
0.101562500000005
40
0.109375000000005
40
0.109375000000005
40
0.125000000000006
40
0.125000000000006
40
0.140625000000007
40
0.140625000000007
40
0.156250000000007
40
0.156250000000007
40
0.171875000000008
40
0.171875000000008
40
0.187500000000009
40
0.187500000000009
40
0.218750000000009
40
0.218750000000009
40
0.25000000000001
40
0.25000000000001
40
0.28125000000001
40
0.28125000000001
40
0.312500000000011
40
0.312500000000011
40
0.375000000000011
40
0.375000000000011
40
0.437500000000011
40
0.437500000000011
40
0.500000000000011
40
0.500000000000011
40
0.625000000000008
40
0.625000000000008
40
0.750000000000006
40
0.750000000000006
40
0.875000000000003
40
0.875000000000003
40
1
40
1
40
1
40
1
41
1
10
-0.394913799811292
20
-6.32721828439901
30
0
41
1
10
-0.411169702827039
20
-6.34154884003178
30
0
41
1
10
-0.428432689769124
20
-6.35475565889095
30
0
41
1
10
-0.456587609313431
20
-6.37205876567259
30
0
41
1
10
-0.466398416496645
20
-6.37741702774107
30
0
41
1
10
-0.486501972755633
20
-6.38684509374406
30
0
41
1
10
-0.496835484302608
20
-6.39094564046627
30
0
41
1
10
-0.518168362769302
20
-6.3976988542467
30
0
41
1
10
-0.529196261060889
20
-6.4003572033352
30
0
41
1
10
-0.551937271601957
20
-6.40390572644711
30
0
41
1
10
-0.569030850267808
20
-6.40516730683922
30
0
41
1
10
-0.586181679144261
20
-6.40431153762214
30
0
41
1
10
-0.597628364481892
20
-6.40326750190812
30
0
41
1
10
-0.603385608753428
20
-6.40250300130214
30
0
41
1
10
-0.620403474265572
20
-6.39954770653125
30
0
41
1
10
-0.631442528804882
20
-6.39670554026134
30
0
41
1
10
-0.652994271508675
20
-6.38952126343978
30
0
41
1
10
-0.6635762300306
20
-6.38514079164267
30
0
41
1
10
-0.6838456211714
20
-6.37529177227788
30
0
41
1
10
-0.693552428201002
20
-6.36983092851585
30
0
41
1
10
-0.712284737644694
20
-6.35805370019304
30
0
41
1
10
-0.721309333004712
20
-6.35173618101936
30
0
41
1
10
-0.738796592350639
20
-6.33839390811318
30
0
41
1
10
-0.747287558608093
20
-6.33134151096425
30
0
41
1
10
-0.771774774816237
20
-6.30953788138899
30
0
41
1
10
-0.786839616984622
20
-6.29414128632044
30
0
41
1
10
-0.815263156517972
20
-6.26217184383674
30
0
41
1
10
-0.82861191461663
20
-6.24559230293653
30
0
41
1
10
-0.854034688294348
20
-6.21154523857419
30
0
41
1
10
-0.866130482320528
20
-6.1940351189366
30
0
41
1
10
-0.889197260559286
20
-6.15850150199267
30
0
41
1
10
-0.90014045687775
20
-6.14052530360527
30
0
41
1
10
-0.931589886782064
20
-6.08609644673811
30
0
41
1
10
-0.950735693127655
20
-6.04915001273994
30
0
41
1
10
-0.986572619190127
20
-5.97432275637723
30
0
41
1
10
-1.00324847625177
20
-5.93643689983455
30
0
41
1
10
-1.03476146769921
20
-5.85992972493543
30
0
41
1
10
-1.04959296411107
20
-5.82130654980756
30
0
41
1
10
-1.09190951976353
20
-5.70451929766091
30
0
41
1
10
-1.11725974479191
20
-5.62540226977166
30
0
41
1
10
-1.1639578554223
20
-5.46549802550047
30
0
41
1
10
-1.18522246232584
20
-5.38492681950902
30
0
41
1
10
-1.22466451933835
20
-5.22271935203617
30
0
41
1
10
-1.2428321325454
20
-5.1410815354084
30
0
41
1
10
-1.27671142477865
20
-4.97683362134603
30
0
41
1
10
-1.29241814186358
20
-4.89422245258601
30
0
41
1
10
-1.30710678118655
20
-4.81115156937966
30
0
0
SPLINE
5
13A
100
AcDbEntity
8
SK1
62
256
6
ByLayer
370
18
48
1
60
0
100
AcDbSpline
70
4
71
3
72
51
73
47
40
0
40
0
40
0
40
0
40
0.125000000000003
40
0.125000000000003
40
0.250000000000005
40
0.250000000000005
40
0.375000000000008
40
0.375000000000008
40
0.50000000000001
40
0.50000000000001
40
0.562500000000011
40
0.562500000000011
40
0.625000000000011
40
0.625000000000011
40
0.687500000000011
40
0.687500000000011
40
0.718750000000011
40
0.718750000000011
40
0.75000000000001
40
0.75000000000001
40
0.781250000000009
40
0.781250000000009
40
0.812500000000009
40
0.812500000000009
40
0.828125000000008
40
0.828125000000008
40
0.843750000000008
40
0.843750000000008
40
0.859375000000007
40
0.859375000000007
40
0.875000000000007
40
0.875000000000007
40
0.906250000000005
40
0.906250000000005
40
0.914062500000005
40
0.914062500000005
40
0.921875000000005
40
0.937500000000004
40
0.937500000000004
40
0.953125000000003
40
0.953125000000003
40
0.968750000000002
40
0.968750000000002
40
0.984375000000001
40
0.984375000000001
40
1
40
1
40
1
40
1
41
1
10
-1.30710678118655
20
4.8111517782514
30
0
41
1
10
-1.29243386166999
20
4.89413370391597
30
0
41
1
10
-1.27674450029033
20
4.97666000857456
30
0
41
1
10
-1.24290388240135
20
5.14074733501747
30
0
41
1
10
-1.22475757478614
20
5.22230941297437
30
0
41
1
10
-1.18536324259088
20
5.38437609466149
30
0
41
1
10
-1.1641141016691
20
5.46491938757291
30
0
41
1
10
-1.11750013847291
20
5.62462479791714
30
0
41
1
10
-1.09222933922732
20
5.70354894528973
30
0
41
1
10
-1.05003902511504
20
5.82012130347704
30
0
41
1
10
-1.03525413522215
20
5.85867400558868
30
0
41
1
10
-1.00384791181236
20
5.93504366748635
30
0
41
1
10
-0.987232093239811
20
5.97286244830227
30
0
41
1
10
-0.951537336733765
20
6.0475612269523
30
0
41
1
10
-0.932473247849742
20
6.08444613540038
30
0
41
1
10
-0.901177592378616
20
6.13879101734139
30
0
41
1
10
-0.890290953598992
20
6.15674063815601
30
0
41
1
10
-0.867353405011528
20
6.19222552349751
30
0
41
1
10
-0.85525358147396
20
6.2098275518716
30
0
41
1
10
-0.829832017046726
20
6.24404146668815
30
0
41
1
10
-0.816508756328489
20
6.26067183093176
30
0
41
1
10
-0.78822917837428
20
6.29267436431064
30
0
41
1
10
-0.773280793926858
20
6.30805251056447
30
0
41
1
10
-0.749110346030392
20
6.32978409383841
30
0
41
1
10
-0.740759389627414
20
6.33680322085289
30
0
41
1
10
-0.723321143410601
20
6.3502808336809
30
0
41
1
10
-0.714177802118201
20
6.3567747780167
30
0
41
1
10
-0.695263535743464
20
6.36883407140752
30
0
41
1
10
-0.685506727928441
20
6.37439841042161
30
0
41
1
10
-0.665265234159847
20
6.38439885825292
30
0
41
1
10
-0.654728144683787
20
6.38885411254182
30
0
41
1
10
-0.622102468665219
20
6.39998734213981
30
0
41
1
10
-0.59968773121858
20
6.40423336369165
30
0
41
1
10
-0.570661631866017
20
6.40472651279043
30
0
41
1
10
-0.564821683089775
20
6.40457927715815
30
0
41
1
10
-0.553312890967476
20
6.40381092862668
30
0
41
1
10
-0.536205505855378
20
6.40195065166941
30
0
41
1
10
-0.519541799584147
20
6.39807453657346
30
0
41
1
10
-0.497682675631438
20
6.39127312214092
30
0
41
1
10
-0.487153207843136
20
6.38712350886505
30
0
41
1
10
-0.466917648563935
20
6.37769203793539
30
0
41
1
10
-0.457177342303623
20
6.37239779961379
30
0
41
1
10
-0.43831629492334
20
6.3608578974891
30
0
41
1
10
-0.429170091135489
20
6.35459039773457
30
0
41
1
10
-0.411568516590108
20
6.34138290087219
30
0
41
1
10
-0.403103547019441
20
6.33444111034481
30
0
41
1
10
-0.394913799811292
20
6.32722135062522
30
0
0
SPLINE
5
13B
100
AcDbEntity
8
SK1
62
256
6
ByLayer
370
13
48
1
60
0
100
AcDbSpline
70
4
71
3
72
21
73
17
40
0
40
0
40
0
40
0
40
0.0501775032813067
40
0.118466081109301
40
0.186754658937295
40
0.255043236765289
40
0.323331814593283
40
0.391620392421277
40
0.528197548077265
40
0.596486125905259
40
0.664774703733253
40
0.733063281561247
40
0.801351859389241
40
0.869640437217235
40
0.937929015045229
40
1
40
1
40
1
40
1
41
1
10
-0.394913799811292
20
21.8654704309546
30
0
41
1
10
-0.394913799811292
20
21.8658250788192
30
0
41
1
10
-0.394913799811292
20
21.8217455504675
30
0
41
1
10
-0.394913799811292
20
21.6019829919256
30
0
41
1
10
-0.394913799811292
20
21.1908660117695
30
0
41
1
10
-0.394913799811292
20
20.6247611340725
30
0
41
1
10
-0.394913799811292
20
19.9145926563567
30
0
41
1
10
-0.394913799811292
20
18.7870406318774
30
0
41
1
10
-0.394913799811292
20
17.4047589502432
30
0
41
1
10
-0.394913799811292
20
15.7849099352292
30
0
41
1
10
-0.394913799811292
20
14.4558608746283
30
0
41
1
10
-0.394913799811292
20
13.014724351229
30
0
41
1
10
-0.394913799811292
20
11.4638144327396
30
0
41
1
10
-0.394913799811292
20
9.80498177095927
30
0
41
1
10
-0.394913799811292
20
8.09321828866487
30
0
41
1
10
-0.394913799811292
20
6.90653972901185
30
0
41
1
10
-0.394913799811292
20
6.32722135061286
30
0
0
SPLINE
5
13C
100
AcDbEntity
8
SK1
62
256
6
ByLayer
370
18
48
1
60
0
100
AcDbSpline
70
4
71
3
72
40
73
36
40
0
40
0
40
0
40
0
40
0.125000000000001
40
0.125000000000001
40
0.187500000000001
40
0.187500000000001
40
0.250000000000001
40
0.250000000000001
40
0.312500000000001
40
0.312500000000001
40
0.328125000000001
40
0.328125000000001
40
0.343750000000001
40
0.375
40
0.375
40
0.4375
40
0.4375
40
0.5
40
0.5625
40
0.5625
40
0.625
40
0.625
40
0.640625
40
0.640625
40
0.65625
40
0.65625
40
0.6875
40
0.6875
40
0.75
40
0.75
40
0.8125
40
0.8125
40
0.875
40
0.875
40
1
40
1
40
1
40
1
41
1
10
-1.30710678118655
20
-4.8111515693796
30
0
41
1
10
-1.37464191770107
20
-4.42920989906065
30
0
41
1
10
-1.43848245106358
20
-4.04286538655003
30
0
41
1
10
-1.52581080346147
20
-3.4555709451387
30
0
41
1
10
-1.55350142719044
20
-3.25850341404765
30
0
41
1
10
-1.60546482604906
20
-2.86151288497595
30
0
41
1
10
-1.62973519898719
20
-2.6615890156875
30
0
41
1
10
-1.67414509281366
20
-2.25856982386534
30
0
41
1
10
-1.69427910225542
20
-2.05547235697085
30
0
41
1
10
-1.71638790779505
20
-1.79939862844844
30
0
41
1
10
-1.72065969674747
20
-1.74803956652656
30
0
41
1
10
-1.72887208385961
20
-1.64527687502962
30
0
41
1
10
-1.74069036277351
20
-1.49111947898439
30
0
41
1
10
-1.75097190728465
20
-1.33692150334681
30
0
41
1
10
-1.76938952483024
20
-1.02847005779319
30
0
41
1
10
-1.77881369580271
20
-0.822761881301432
30
0
41
1
10
-1.79137807494828
20
-0.411189125581416
30
0
41
1
10
-1.79754609551321
20
0.0005418097730683
30
0
41
1
10
-1.79135312802683
20
0.412582134739552
30
0
41
1
10
-1.77873477820947
20
0.82478135977604
30
0
41
1
10
-1.76926982289669
20
1.03095952328059
30
0
41
1
10
-1.75383938151629
20
1.28877539719627
30
0
41
1
10
-1.75057294247844
20
1.340343237501
30
0
41
1
10
-1.74368713518695
20
1.44348814091276
30
0
41
1
10
-1.74006503391183
20
1.4951017046248
30
0
41
1
10
-1.72870229322061
20
1.64966999837915
30
0
41
1
10
-1.72047269473447
20
1.75227000555529
30
0
41
1
10
-1.69395938565037
20
2.05879746438532
30
0
41
1
10
-1.67384597566206
20
2.26145078101035
30
0
41
1
10
-1.629485287899
20
2.66369063393995
30
0
41
1
10
-1.60524340635007
20
2.86327920729124
30
0
41
1
10
-1.5533368167803
20
3.25969288493101
30
0
41
1
10
-1.52567448156807
20
3.45651882726707
30
0
41
1
10
-1.43842306954178
20
4.04321174825219
30
0
41
1
10
-1.374622793295
20
4.42931851789501
30
0
41
1
10
-1.3071067811866
20
4.81115177825131
30
0
0
SPLINE
5
13D
100
AcDbEntity
8
SK1
62
256
6
ByLayer
370
13
48
1
60
0
100
AcDbSpline
70
4
71
3
72
49
73
45
40
0
40
0
40
0
40
0
40
0.0205804901910035
40
0.0487847897823432
40
0.0769890893736829
40
0.105193388965023
40
0.133397688556362
40
0.161601988147702
40
0.218010587330381
40
0.246214886921721
40
0.274419186513061
40
0.3026234861044
40
0.33082778569574
40
0.35903208528708
40
0.387236384878419
40
0.415440684469759
40
0.429542834265429
40
0.443644984061099
40
0.457747133856769
40
0.471849283652438
40
0.485951433448108
40
0.493002508345943
40
0.500053583243778
40
0.507104658141613
40
0.514155733039448
40
0.528257882835118
40
0.542360032630788
40
0.556462182426458
40
0.570564332222127
40
0.584666482017797
40
0.612870781609137
40
0.641075081200477
40
0.669279380791816
40
0.697483680383156
40
0.725687979974496
40
0.753892279565835
40
0.782096579157175
40
0.838505178339854
40
0.866709477931194
40
0.894913777522534
40
0.923118077113873
40
0.951322376705213
40
0.979526676296553
40
1
40
1
40
1
40
1
41
1
10
-1.99503997793928
20
21.8252862032429
30
0
41
1
10
-1.99503997793928
20
21.8253757940286
30
0
41
1
10
-1.99503997793928
20
21.7812234527593
30
0
41
1
10
-1.99503997793928
20
21.5622159608078
30
0
41
1
10
-1.99503997793928
20
21.1516905297668
30
0
41
1
10
-1.99503997793928
20
20.5863476884834
30
0
41
1
10
-1.99503997793928
20
19.8770915138249
30
0
41
1
10
-1.99503997793928
20
18.7508484467722
30
0
41
1
10
-1.99503997793928
20
17.370463175446
30
0
41
1
10
-1.99503997793928
20
15.752471971849
30
0
41
1
10
-1.99503997793928
20
14.4250897201646
30
0
41
1
10
-1.99503997793928
20
12.985830725026
30
0
41
1
10
-1.99503997793928
20
11.4370507512064
30
0
41
1
10
-1.99503997793928
20
9.78067154978808
30
0
41
1
10
-1.99503997793928
20
8.01821733349291
30
0
41
1
10
-1.99503997793928
20
6.46319635117558
30
0
41
1
10
-1.99503997793928
20
5.16749918372616
30
0
41
1
10
-1.99503997793928
20
4.17226659327741
30
0
41
1
10
-1.99503997793928
20
3.15436880408234
30
0
41
1
10
-1.99503997793928
20
2.11640247274798
30
0
41
1
10
-1.99503997793928
20
1.23881045451824
30
0
41
1
10
-1.99503997793928
20
0.53126948289281
30
0
41
1
10
-1.99503997793928
20
7.43625606E-08
30
0
41
1
10
-1.99503997793928
20
-0.53126937109505
30
0
41
1
10
-1.99503997793928
20
-1.23881043770962
30
0
41
1
10
-1.99503997793928
20
-2.11640245296422
30
0
41
1
10
-1.99503997793928
20
-3.15436853749512
30
0
41
1
10
-1.99503997793928
20
-4.17226658860133
30
0
41
1
10
-1.99503997793928
20
-5.16749921349111
30
0
41
1
10
-1.99503997793928
20
-6.46319592062625
30
0
41
1
10
-1.99503997793928
20
-8.01821749841287
30
0
41
1
10
-1.99503997793928
20
-9.7806713457135
30
0
41
1
10
-1.99503997793928
20
-11.4370504129058
30
0
41
1
10
-1.99503997793928
20
-12.9858310385527
30
0
41
1
10
-1.99503997793928
20
-14.4250895103889
30
0
41
1
10
-1.99503997793928
20
-15.7524717843982
30
0
41
1
10
-1.99503997793928
20
-17.370463645283
30
0
41
1
10
-1.99503997793928
20
-18.7508482253859
30
0
41
1
10
-1.99503997793928
20
-19.8770917100388
30
0
41
1
10
-1.99503997793928
20
-20.5863484011186
30
0
41
1
10
-1.99503997793928
20
-21.1516903613971
30
0
41
1
10
-1.99503997793928
20
-21.5622163798915
30
0
41
1
10
-1.99503997793928
20
-21.7809193067319
30
0
41
1
10
-1.99503997793928
20
-21.8251814765629
30
0
41
1
10
-1.99503997793928
20
-21.8252861531392
30
0
0
SPLINE
5
13E
100
AcDbEntity
8
SK1
62
256
6
ByLayer
370
18
48
1
60
0
100
AcDbSpline
70
4
71
3
72
49
73
45
40
0
40
0
40
0
40
0
40
0.013702311894925
40
0.0423080721047407
40
0.0709138323145563
40
0.0995195925243719
40
0.128125352734187
40
0.156731112944003
40
0.213942633363634
40
0.24254839357345
40
0.271154153783266
40
0.299759913993081
40
0.328365674202897
40
0.356971434412713
40
0.385577194622528
40
0.414182954832344
40
0.428485834937252
40
0.442788715042159
40
0.457091595147067
40
0.471394475251975
40
0.485697355356883
40
0.492848795409337
40
0.500000235461791
40
0.507151675514245
40
0.514303115566698
40
0.528605995671606
40
0.542908875776514
40
0.557211755881422
40
0.57151463598633
40
0.585817516091237
40
0.614423276301053
40
0.643029036510869
40
0.671634796720684
40
0.7002405569305
40
0.728846317140316
40
0.757452077350131
40
0.786057837559947
40
0.843269357979578
40
0.871875118189394
40
0.900480878399209
40
0.929086638609025
40
0.957692398818841
40
0.986298159028656
40
1
40
1
40
1
40
1
41
1
10
-2.19999999999999
20
22.0136323396034
30
0
41
1
10
-2.19999999999999
20
22.0053276324053
30
0
41
1
10
-2.19999999999999
20
21.9554440417448
30
0
41
1
10
-2.19999999999999
20
21.7550269215783
30
0
41
1
10
-2.19999999999999
20
21.3416333570605
30
0
41
1
10
-2.19999999999999
20
20.7725957724454
30
0
41
1
10
-2.19999999999999
20
20.0589162847047
30
0
41
1
10
-2.19999999999999
20
18.9263267207688
30
0
41
1
10
-2.19999999999999
20
17.5367466797246
30
0
41
1
10
-2.19999999999999
20
15.9097478536278
30
0
41
1
10
-2.19999999999999
20
14.5742840575192
30
0
41
1
10
-2.19999999999999
20
13.1259218425112
30
0
41
1
10
-2.19999999999999
20
11.5668148046225
30
0
41
1
10
-2.19999999999999
20
9.89853996914991
30
0
41
1
10
-2.19999999999999
20
8.12208977576526
30
0
41
1
10
-2.19999999999999
20
6.55235660022589
30
0
41
1
10
-2.19999999999999
20
5.24422917335971
30
0
41
1
10
-2.19999999999999
20
4.2375522406841
30
0
41
1
10
-2.19999999999999
20
3.20644372216569
30
0
41
1
10
-2.19999999999999
20
2.15314018801405
30
0
41
1
10
-2.19999999999999
20
1.26034253962158
30
0
41
1
10
-2.19999999999999
20
0.540965390862539
30
0
41
1
10
-2.19999999999999
20
2.64082871E-08
30
0
41
1
10
-2.19999999999999
20
-0.540965319759152
30
0
41
1
10
-2.19999999999999
20
-1.26034245765445
30
0
41
1
10
-2.19999999999999
20
-2.15314020845372
30
0
41
1
10
-2.19999999999999
20
-3.20644349821168
30
0
41
1
10
-2.19999999999999
20
-4.23755215854527
30
0
41
1
10
-2.19999999999999
20
-5.24422924769223
30
0
41
1
10
-2.19999999999999
20
-6.55235618011341
30
0
41
1
10
-2.19999999999999
20
-8.12208991237512
30
0
41
1
10
-2.19999999999999
20
-9.89853979541101
30
0
41
1
10
-2.19999999999999
20
-11.5668144415121
30
0
41
1
10
-2.19999999999999
20
-13.1259221492871
30
0
41
1
10
-2.19999999999999
20
-14.574283866752
30
0
41
1
10
-2.19999999999999
20
-15.9097476492909
30
0
41
1
10
-2.19999999999999
20
-17.5367471514895
30
0
41
1
10
-2.19999999999999
20
-18.9263265026412
30
0
41
1
10
-2.19999999999999
20
-20.0589164660072
30
0
41
1
10
-2.19999999999999
20
-20.7725964921017
30
0
41
1
10
-2.19999999999999
20
-21.3416331895302
30
0
41
1
10
-2.19999999999999
20
-21.7550273348429
30
0
41
1
10
-2.19999999999999
20
-21.9554433945331
30
0
41
1
10
-2.19999999999999
20
-22.0053267943976
30
0
41
1
10
-2.19999999999999
20
-22.0136316600117
30
0
0
SPLINE
5
13F
100
AcDbEntity
8
SK1
62
256
6
ByLayer
370
18
48
1
60
0
100
AcDbSpline
70
4
71
3
72
49
73
45
40
0
40
0
40
0
40
0
40
0.0270948209684637
40
0.0549127545419389
40
0.0827306881154142
40
0.11054862168889
40
0.138366555262365
40
0.16618448883584
40
0.22182035598279
40
0.249638289556266
40
0.277456223129741
40
0.305274156703216
40
0.333092090276692
40
0.360910023850167
40
0.388727957423642
40
0.416545890997117
40
0.430454857783855
40
0.444363824570592
40
0.45827279135733
40
0.472181758144068
40
0.486090724930805
40
0.493045208324174
40
0.499999691717543
40
0.506954175110912
40
0.513908658504281
40
0.527817625291018
40
0.541726592077756
40
0.555635558864493
40
0.569544525651231
40
0.583453492437969
40
0.611271426011444
40
0.639089359584919
40
0.666907293158394
40
0.69472522673187
40
0.722543160305345
40
0.75036109387882
40
0.778179027452296
40
0.833814894599246
40
0.861632828172721
40
0.889450761746196
40
0.917268695319671
40
0.945086628893147
40
0.972904562466622
40
1
40
1
40
1
40
1
41
1
10
-36.5
20
21.1524103611658
30
0
41
1
10
-36.5
20
21.1690101699068
30
0
41
1
10
-36.5
20
21.1349478872716
30
0
41
1
10
-36.5
20
20.9025884164263
30
0
41
1
10
-36.5
20
20.5018751860753
30
0
41
1
10
-36.5
20
19.9491724688865
30
0
41
1
10
-36.5
20
19.2550489357272
30
0
41
1
10
-36.5
20
18.1505179338898
30
0
41
1
10
-36.5
20
16.8015889830236
30
0
41
1
10
-36.5
20
15.2144138486304
30
0
41
1
10
-36.5
20
13.9146794509994
30
0
41
1
10
-36.5
20
12.5065635742002
30
0
41
1
10
-36.5
20
10.9931136245939
30
0
41
1
10
-36.5
20
9.37743069816284
30
0
41
1
10
-36.5
20
7.6628582618342
30
0
41
1
10
-36.5
20
6.15816931379931
30
0
41
1
10
-36.5
20
4.9049974336175
30
0
41
1
10
-36.5
20
3.94891719908253
30
0
41
1
10
-36.5
20
2.97621477071243
30
0
41
1
10
-36.5
20
1.99071870036124
30
0
41
1
10
-36.5
20
1.16514681856438
30
0
41
1
10
-36.5
20
0.498098713248481
30
0
41
1
10
-36.5
20
2.384194602E-07
30
0
41
1
10
-36.5
20
-0.498098462230814
30
0
41
1
10
-36.5
20
-1.16514702467006
30
0
41
1
10
-36.5
20
-1.99071854296869
30
0
41
1
10
-36.5
20
-2.97621435827227
30
0
41
1
10
-36.5
20
-3.94891745941501
30
0
41
1
10
-36.5
20
-4.90499731091177
30
0
41
1
10
-36.5
20
-6.15816884754437
30
0
41
1
10
-36.5
20
-7.6628585236061
30
0
41
1
10
-36.5
20
-9.37743039030653
30
0
41
1
10
-36.5
20
-10.9931133711701
30
0
41
1
10
-36.5
20
-12.5065639108223
30
0
41
1
10
-36.5
20
-13.9146791761936
30
0
41
1
10
-36.5
20
-15.2144137189484
30
0
41
1
10
-36.5
20
-16.8015894462653
30
0
41
1
10
-36.5
20
-18.1505177013548
30
0
41
1
10
-36.5
20
-19.2550491829544
30
0
41
1
10
-36.5
20
-19.9491731575018
30
0
41
1
10
-36.5
20
-20.5018750148337
30
0
41
1
10
-36.5
20
-20.9025888554179
30
0
41
1
10
-36.5
20
-21.1349503308899
30
0
41
1
10
-36.5
20
-21.1690108780637
30
0
41
1
10
-36.5
20
-21.1524093362726
30
0
0
SPLINE
5
140
100
AcDbEntity
8
1
62
256
6
ByLayer
370
18
48
1
60
0
100
AcDbSpline
70
4
71
3
72
18
73
14
40
0
40
0
40
0
40
0
40
0.106502320877392
40
0.209819720888322
40
0.309970050664611
40
0.406972922400278
40
0.50084992082582
40
0.591624858696258
40
0.67932407662592
40
0.763976789998073
40
0.845615488386134
40
0.924276395492632
40
1
40
1
40
1
40
1
41
1
10
62.59011863841
20
37.483085351823
30
0
41
1
10
62.5885415273357
20
37.4837643036505
30
0
41
1
10
62.5854344682343
20
37.4851019034492
30
0
41
1
10
62.5809243323185
20
37.4874049623887
30
0
41
1
10
62.5766153234622
20
37.4898663474787
30
0
41
1
10
62.5725126225171
20
37.4924901579403
30
0
41
1
10
62.5686149102103
20
37.4952524658372
30
0
41
1
10
62.5649224452295
20
37.4981370391757
30
0
41
1
10
62.5614353720448
20
37.5011268528404
30
0
41
1
10
62.5581528367139
20
37.50420435447
30
0
41
1
10
62.5550778698625
20
37.5073584152507
30
0
41
1
10
62.5521996835921
20
37.5105579925821
30
0
41
1
10
62.5504035869187
20
37.5127918768383
30
0
41
1
10
62.54952262475
20
37.5138875681493
30
0
0
SPLINE
5
141
100
AcDbEntity
8
1
62
256
6
ByLayer
370
18
48
1
60
0
100
AcDbSpline
70
4
71
3
72
16
73
12
40
0
40
0
40
0
40
0
40
0.117319552192526
40
0.233085853411056
40
0.347299362420244
40
0.459960556948133
40
0.571069934744739
40
0.680628014712978
40
0.788635338118841
40
0.895092469888339
40
1
40
1
40
1
40
1
41
1
10
62.74894541545
20
37.427732523702
30
0
41
1
10
62.7426777667126
20
37.4295553268701
30
0
41
1
10
62.730225449707
20
37.433176800223
30
0
41
1
10
62.7117192560249
20
37.4388914087642
30
0
41
1
10
62.6934972967187
20
37.4447568898136
30
0
41
1
10
62.6755628433777
20
37.4507866733876
30
0
41
1
10
62.6579151153778
20
37.4569662690683
30
0
41
1
10
62.6405540288848
20
37.4632869201774
30
0
41
1
10
62.623480658135
20
37.4697449449493
30
0
41
1
10
62.6066908752588
20
37.4763120560555
30
0
41
1
10
62.5956156516798
20
37.4808386486787
30
0
41
1
10
62.59011863841
20
37.48308535183
30
0
0
SPLINE
5
142
100
AcDbEntity
8
1
62
256
6
ByLayer
370
18
48
1
60
0
100
AcDbSpline
70
4
71
2
72
10
73
7
40
0
40
0
40
0
40
0.5
40
0.5
40
0.75
40
0.75
40
1
40
1
40
1
41
1
10
62.7489454154435
20
37.427732523738
30
0
41
1
10
62.8165392416659
20
37.4082378364849
30
0
41
1
10
62.864235482769
20
37.3565142889902
30
0
41
1
10
62.8902224727208
20
37.328333047074
30
0
41
1
10
62.9068593747304
20
37.2924776461037
30
0
41
1
10
62.9248252361523
20
37.2537581077733
30
0
41
1
10
62.928946197083
20
37.210735586972
30
0
0
SPLINE
5
143
100
AcDbEntity
8
1
62
256
6
ByLayer
370
18
48
1
60
0
100
AcDbSpline
70
4
71
2
72
6
73
3
40
0
40
0
40
0
40
1
40
1
40
1
41
1
10
62.9289461971205
20
37.210735587058
30
0
41
1
10
62.9378374892931
20
37.1155165540399
30
0
41
1
10
62.9378609595315
20
37.0200000006976
30
0
0
SPLINE
5
144
100
AcDbEntity
8
1
62
256
6
ByLayer
370
18
48
1
60
0
100
AcDbSpline
70
4
71
3
72
17
73
13
40
0
40
0
40
0
40
0
40
0.100317411817172
40
0.200541310293489
40
0.300680278273694
40
0.400742920447717
40
0.500737861201959
40
0.600673742442847
40
0.700559221399291
40
0.80040296840492
40
0.900213664663639
40
1
40
1
40
1
40
1
41
1
10
62.92894619712
20
36.789264412942
30
0
41
1
10
62.9295231228817
20
36.7956087701754
30
0
41
1
10
62.9306764366097
20
36.8082915705938
30
0
41
1
10
62.9321818251213
20
36.8273460527878
30
0
41
1
10
62.9335216262512
20
36.8464085209795
30
0
41
1
10
62.9346798037513
20
36.8654803042831
30
0
41
1
10
62.9356607269913
20
36.8845589293337
30
0
41
1
10
62.9364629358429
20
36.9036429412488
30
0
41
1
10
62.9370879043616
20
36.9227306135195
30
0
41
1
10
62.937531197509
20
36.9418202936691
30
0
41
1
10
62.9378090731845
20
36.9609103103435
30
0
41
1
10
62.9378436654888
20
36.9736372874275
30
0
41
1
10
62.93786095953
20
36.9799999993024
30
0
0
SPLINE
5
145
100
AcDbEntity
8
1
62
256
6
ByLayer
370
18
48
1
60
0
100
AcDbSpline
70
4
71
3
72
38
73
34
40
0
40
0
40
0
40
0
40
0.0320161803202176
40
0.0634137556517399
40
0.0941938978135391
40
0.12435785063215
40
0.153906935795917
40
0.182842559298673
40
0.211166218540773
40
0.238879510169619
40
0.265984138747584
40
0.292481926351462
40
0.318374823219164
40
0.343664919578634
40
0.368354458810701
40
0.392445852120356
40
0.415941694916264
40
0.438844785127763
40
0.461158143719565
40
0.482885037706484
40
0.504029006008642
40
0.551366811163476
40
0.597409666800775
40
0.642207857911416
40
0.685815975457798
40
0.728293199080114
40
0.769703557232121
40
0.810116149643935
40
0.849605314211524
40
0.888250718111301
40
0.926137351649945
40
0.963355403685037
40
1
40
1
40
1
40
1
41
1
10
62.74894541544
20
36.572267476262
30
0
41
1
10
62.7515736233648
20
36.5730485607147
30
0
41
1
10
62.756779257937
20
36.5745956377906
30
0
41
1
10
62.7644507904023
20
36.577231715862
30
0
41
1
10
62.7719249095622
20
36.5800558999428
30
0
41
1
10
62.7791975153458
20
36.583078910145
30
0
41
1
10
62.7862696764353
20
36.5862816340917
30
0
41
1
10
62.7931411178642
20
36.5896529401733
30
0
41
1
10
62.7998119140361
20
36.5931798787035
30
0
41
1
10
62.8062820488634
20
36.5968502562548
30
0
41
1
10
62.8125515300024
20
36.600651992735
30
0
41
1
10
62.8186203592458
20
36.6045733110594
30
0
41
1
10
62.8244885401635
20
36.6086027081727
30
0
41
1
10
62.8301560763678
20
36.6127289801844
30
0
41
1
10
62.8356229711881
20
36.6169412313228
30
0
41
1
10
62.840889230658
20
36.6212288838923
30
0
41
1
10
62.8459548524164
20
36.6255816889976
30
0
41
1
10
62.8508198658027
20
36.6299897234822
30
0
41
1
10
62.8554841879108
20
36.6344434298673
30
0
41
1
10
62.8599481402181
20
36.6389334948112
30
0
41
1
10
62.8660095567999
20
36.645358030493
30
0
41
1
10
62.8734588192032
20
36.6539468168096
30
0
41
1
10
62.8820027422796
20
36.6650200836322
30
0
41
1
10
62.8898489226435
20
36.6764694413074
30
0
41
1
10
62.8969976055379
20
36.6882493808283
30
0
41
1
10
62.9034486190906
20
36.7003153813828
30
0
41
1
10
62.9092017357358
20
36.7126233474438
30
0
41
1
10
62.9142571546108
20
36.7251298346291
30
0
41
1
10
62.9186132961071
20
36.7377925471705
30
0
41
1
10
62.9222748801839
20
36.7505689765116
30
0
41
1
10
62.9252236999947
20
36.7634219116356
30
0
41
1
10
62.9275246334318
20
36.7762999416636
30
0
41
1
10
62.928474801506
20
36.7849653481022
30
0
41
1
10
62.92894619708
20
36.789264413028
30
0
0
SPLINE
5
146
100
AcDbEntity
8
1
62
256
6
ByLayer
370
18
48
1
60
0
100
AcDbSpline
70
4
71
2
72
6
73
3
40
0
40
0
40
0
40
1
40
1
40
1
41
1
10
62.748945415452
20
36.572267476298
30
0
41
1
10
62.6679467190157
20
36.549015243328
30
0
41
1
10
62.5901186384125
20
36.51691464817
30
0
0
SPLINE
5
147
100
AcDbEntity
8
1
62
256
6
ByLayer
370
18
48
1
60
0
100
AcDbSpline
70
4
71
2
72
6
73
3
40
0
40
0
40
0
40
1
40
1
40
1
41
1
10
62.5901186384115
20
36.516914648177
30
0
41
1
10
62.5658197594191
20
36.5067453291368
30
0
41
1
10
62.5495226247505
20
36.486112431851
30
0
0
LINE
5
7D
100
AcDbEntity
8
1
62
256
6
ByLayer
370
18
48
1
60
0
100
AcDbLine
10
22.279208
20
31.5
30
0
11
0.3
21
31.5
31
0
39
0
210
0
220
0
230
1
0
LINE
5
7E
100
AcDbEntity
8
1
62
256
6
ByLayer
370
18
48
1
60
0
100
AcDbLine
10
0.3
20
-31.5
30
0
11
22
21
-31.5
31
0
39
0
210
0
220
0
230
1
0
LINE
5
7F
100
AcDbEntity
8
1
62
256
6
ByLayer
370
18
48
1
60
0
100
AcDbLine
10
0
20
-31.2
30
0
11
0.3
21
-31.5
31
0
39
0
210
0
220
0
230
1
0
LINE
5
80
100
AcDbEntity
8
1
62
256
6
ByLayer
370
18
48
1
60
0
100
AcDbLine
10
0.3
20
31.5
30
0
11
0
21
31.2
31
0
39
0
210
0
220
0
230
1
0
LINE
5
81
100
AcDbEntity
8
81
62
256
6
ByLayer
370
18
48
1
60
0
100
AcDbLine
10
70
20
39
30
0
11
75
21
39
31
0
39
0
210
0
220
0
230
1
0
LINE
5
82
100
AcDbEntity
8
80
62
256
6
ByLayer
370
18
48
1
60
0
100
AcDbLine
10
0
20
0
30
0
11
-5
21
0
31
0
39
0
210
0
220
0
230
1
0
LINE
5
83
100
AcDbEntity
8
1
62
256
6
ByLayer
370
18
48
1
60
0
100
AcDbLine
10
60.335965
20
38.767191
30
0
11
60.336215
21
38.907331
31
0
39
0
210
0
220
0
230
1
0
LINE
5
84
100
AcDbEntity
8
1
62
256
6
ByLayer
370
18
48
1
60
0
100
AcDbLine
10
62.8053
20
38.59998
30
0
11
62.80584
21
38.902253
31
0
39
0
210
0
220
0
230
1
0
LINE
5
85
100
AcDbEntity
8
1
62
256
6
ByLayer
370
13
48
1
60
0
100
AcDbLine
10
23.576849
20
32.65
30
0
11
28.2
21
32.65
31
0
39
0
210
0
220
0
230
1
0
LINE
5
86
100
AcDbEntity
8
1
62
256
6
ByLayer
370
13
48
1
60
0
100
AcDbLine
10
28.2
20
32.65
30
0
11
28.2
21
31.65
31
0
39
0
210
0
220
0
230
1
0
LINE
5
87
100
AcDbEntity
8
1
62
256
6
ByLayer
370
13
48
1
60
0
100
AcDbLine
10
28.2
20
32.65
30
0
11
28.2
21
38.856008
31
0
39
0
210
0
220
0
230
1
0
LINE
5
88
100
AcDbEntity
8
1
62
256
6
ByLayer
370
13
48
1
60
0
100
AcDbLine
10
28.2
20
32.65
30
0
11
31.893237
21
32.65
31
0
39
0
210
0
220
0
230
1
0
LINE
5
89
100
AcDbEntity
8
1
62
256
6
ByLayer
370
18
48
1
60
0
100
AcDbLine
10
31.893237
20
32.65
30
0
11
31.893237
21
38.713813
31
0
39
0
210
0
220
0
230
1
0
LINE
5
8A
100
AcDbEntity
8
1
62
256
6
ByLayer
370
18
48
1
60
0
100
AcDbLine
10
69
20
39.620789
30
0
11
69
21
38.969726
31
0
39
0
210
0
220
0
230
1
0
LINE
5
8B
100
AcDbEntity
8
1
62
256
6
ByLayer
370
18
48
1
60
0
100
AcDbLine
10
61.634444
20
44.6654
30
0
11
28.201252
21
44.6654
31
0
39
0
210
0
220
0
230
1
0
LINE
5
8C
100
AcDbEntity
8
1
62
256
6
ByLayer
370
18
48
1
60
0
100
AcDbLine
10
25.228836
20
38.856008
30
0
11
28.2
21
38.856008
31
0
39
0
210
0
220
0
230
1
0
LINE
5
8D
100
AcDbEntity
8
1
62
256
6
ByLayer
370
18
48
1
60
0
100
AcDbLine
10
32.400095
20
38.713813
30
0
11
31.893237
21
38.713813
31
0
39
0
210
0
220
0
230
1
0
LINE
5
8E
100
AcDbEntity
8
1
62
256
6
ByLayer
370
18
48
1
60
0
100
AcDbLine
10
58.815599
20
38.907331
30
0
11
60.336215
21
38.907331
31
0
39
0
210
0
220
0
230
1
0
LINE
5
8F
100
AcDbEntity
8
1
62
256
6
ByLayer
370
18
48
1
60
0
100
AcDbLine
10
62.80584
20
38.902253
30
0
11
67.454654
21
38.902253
31
0
39
0
210
0
220
0
230
1
0
LINE
5
90
100
AcDbEntity
8
1
62
256
6
ByLayer
370
18
48
1
60
0
100
AcDbLine
10
32.279216
20
38.683706
30
0
11
32.279216
21
32.65
31
0
39
0
210
0
220
0
230
1
0
LINE
5
91
100
AcDbEntity
8
1
62
256
6
ByLayer
370
13
48
1
60
0
100
AcDbLine
10
32.4
20
32.65
30
0
11
32.279216
21
32.65
31
0
39
0
210
0
220
0
230
1
0
LINE
5
92
100
AcDbEntity
8
1
62
256
6
ByLayer
370
18
48
1
60
0
100
AcDbLine
10
62
20
37.274969
30
0
11
62
21
36.725031
31
0
39
0
210
0
220
0
230
1
0
LINE
5
93
100
AcDbEntity
8
1
62
256
6
ByLayer
370
18
48
1
60
0
100
AcDbLine
10
29.399843
20
31.65
30
0
11
28.400157
21
31.65
31
0
39
0
210
0
220
0
230
1
0
LINE
5
94
100
AcDbEntity
8
1
62
256
6
ByLayer
370
18
48
1
60
0
100
AcDbLine
10
29.399843
20
-16.75
30
0
11
28.400157
21
-16.75
31
0
39
0
210
0
220
0
230
1
0
LINE
5
95
100
AcDbEntity
8
1
62
256
6
ByLayer
370
18
48
1
60
0
100
AcDbLine
10
32.279216
20
38.683706
30
0
11
32.400017
21
38.683706
31
0
39
0
210
0
220
0
230
1
0
LINE
5
96
100
AcDbEntity
8
1
62
256
6
ByLayer
370
13
48
1
60
0
100
AcDbLine
10
52
20
36.627375
30
0
11
52
21
35.359751
31
0
39
0
210
0
220
0
230
1
0
LINE
5
97
100
AcDbEntity
8
1
62
256
6
ByLayer
370
18
48
1
60
0
100
AcDbLine
10
50.4
20
35.285463
30
0
11
50.4
21
33.783861
31
0
39
0
210
0
220
0
230
1
0
LINE
5
98
100
AcDbEntity
8
1
62
256
6
ByLayer
370
18
48
1
60
0
100
AcDbLine
10
29.4
20
31.65
30
0
11
31.4
21
31.65
31
0
39
0
210
0
220
0
230
1
0
LINE
5
99
100
AcDbEntity
8
1
62
256
6
ByLayer
370
18
48
1
60
0
100
AcDbLine
10
38.9
20
-16.75
30
0
11
29.4
21
-16.75
31
0
39
0
210
0
220
0
230
1
0
LINE
5
9A
100
AcDbEntity
8
1
62
256
6
ByLayer
370
18
48
1
60
0
100
AcDbLine
10
38.9
20
-16.75
30
0
11
50.4
21
21.1
31
0
39
0
210
0
220
0
230
1
0
LINE
5
9B
100
AcDbEntity
8
1
62
256
6
ByLayer
370
18
48
1
60
0
100
AcDbLine
10
32.4
20
39.784522
30
0
11
48.360149
21
39.784522
31
0
39
0
210
0
220
0
230
1
0
LINE
5
9C
100
AcDbEntity
8
1
62
256
6
ByLayer
370
18
48
1
60
0
100
AcDbLine
10
32.4
20
32.65
30
0
11
32.4
21
39.784522
31
0
39
0
210
0
220
0
230
1
0
LINE
5
9D
100
AcDbEntity
8
1
62
256
6
ByLayer
370
18
48
1
60
0
100
AcDbLine
10
29.4
20
-16.75
30
0
11
29.4
21
31.65
31
0
39
0
210
0
220
0
230
1
0
LINE
5
9E
100
AcDbEntity
8
1
62
256
6
ByLayer
370
18
48
1
60
0
100
AcDbLine
10
50.4
20
21.1
30
0
11
50.4
21
33.783861
31
0
39
0
210
0
220
0
230
1
0
LINE
5
9F
100
AcDbEntity
8
1
62
256
6
ByLayer
370
18
48
1
60
0
100
AcDbLine
10
26.134546
20
31.65
30
0
11
28.4
21
31.65
31
0
39
0
210
0
220
0
230
1
0
LINE
5
A0
100
AcDbEntity
8
1
62
256
6
ByLayer
370
18
48
1
60
0
100
AcDbLine
10
28.4
20
-16.75
30
0
11
26.134546
21
-16.75
31
0
39
0
210
0
220
0
230
1
0
LINE
5
A1
100
AcDbEntity
8
1
62
256
6
ByLayer
370
18
48
1
60
0
100
AcDbLine
10
28.4
20
31.65
30
0
11
28.4
21
-16.75
31
0
39
0
210
0
220
0
230
1
0
LINE
5
A2
100
AcDbEntity
8
1
62
256
6
ByLayer
370
18
48
1
60
0
100
AcDbLine
10
58.5
20
38.944453
30
0
11
58.5
21
35.677123
31
0
39
0
210
0
220
0
230
1
0
LINE
5
A3
100
AcDbEntity
8
1
62
256
6
ByLayer
370
18
48
1
60
0
100
AcDbLine
10
51.216445
20
39.784522
30
0
11
48.360149
21
39.784522
31
0
39
0
210
0
220
0
230
1
0
LINE
5
A4
100
AcDbEntity
8
1
62
256
6
ByLayer
370
18
48
1
60
0
100
AcDbLine
10
48.360149
20
35.325
30
0
11
48.360149
21
39.784522
31
0
39
0
210
0
220
0
230
1
0
LINE
5
A5
100
AcDbEntity
8
1
62
256
6
ByLayer
370
13
48
1
60
0
100
AcDbLine
10
48.360149
20
35.325
30
0
11
50.400455
21
35.325
31
0
39
0
210
0
220
0
230
1
0
LINE
5
A6
100
AcDbEntity
8
1
62
256
6
ByLayer
370
13
48
1
60
0
100
AcDbLine
10
23.438319
20
31.65
30
0
11
23.438319
21
29.601958
31
0
39
0
210
0
220
0
230
1
0
LINE
5
A7
100
AcDbEntity
8
1
62
256
6
ByLayer
370
13
48
1
60
0
100
AcDbLine
10
26.134546
20
31.65
30
0
11
26.134546
21
-16.75
31
0
39
0
210
0
220
0
230
1
0
LINE
5
A8
100
AcDbEntity
8
1
62
256
6
ByLayer
370
18
48
1
60
0
100
AcDbLine
10
26.134546
20
31.65
30
0
11
23.905343
21
31.65
31
0
39
0
210
0
220
0
230
1
0
LINE
5
A9
100
AcDbEntity
8
1
62
256
6
ByLayer
370
18
48
1
60
0
100
AcDbLine
10
26.093966
20
-16.75
30
0
11
26.134546
21
-16.75
31
0
39
0
210
0
220
0
230
1
0
LINE
5
AA
100
AcDbEntity
8
1
62
256
6
ByLayer
370
13
48
1
60
0
100
AcDbLine
10
13.461325
20
-9.349221
30
0
11
13.461325
21
-30.080593
31
0
39
0
210
0
220
0
230
1
0
LINE
5
AB
100
AcDbEntity
8
1
62
256
6
ByLayer
370
13
48
1
60
0
100
AcDbLine
10
13.894338
20
-9.869413
30
0
11
13.894338
21
-29.913955
31
0
39
0
210
0
220
0
230
1
0
LINE
5
AC
100
AcDbEntity
8
1
62
256
6
ByLayer
370
13
48
1
60
0
100
AcDbLine
10
10.105662
20
29.913955
30
0
11
10.105662
21
9.869413
31
0
39
0
210
0
220
0
230
1
0
LINE
5
AD
100
AcDbEntity
8
1
62
256
6
ByLayer
370
13
48
1
60
0
100
AcDbLine
10
10.538675
20
30.080593
30
0
11
10.538675
21
9.349221
31
0
39
0
210
0
220
0
230
1
0
LINE
5
AE
100
AcDbEntity
8
1
62
256
6
ByLayer
370
13
48
1
60
0
100
AcDbLine
10
10.105662
20
-9.869413
30
0
11
10.105662
21
-29.913955
31
0
39
0
210
0
220
0
230
1
0
LINE
5
AF
100
AcDbEntity
8
1
62
256
6
ByLayer
370
13
48
1
60
0
100
AcDbLine
10
10.538675
20
-9.349221
30
0
11
10.538675
21
-30.080593
31
0
39
0
210
0
220
0
230
1
0
LINE
5
B0
100
AcDbEntity
8
1
62
256
6
ByLayer
370
13
48
1
60
0
100
AcDbLine
10
13.461325
20
30.080593
30
0
11
13.461325
21
9.349221
31
0
39
0
210
0
220
0
230
1
0
LINE
5
B1
100
AcDbEntity
8
1
62
256
6
ByLayer
370
13
48
1
60
0
100
AcDbLine
10
13.894338
20
29.913955
30
0
11
13.894338
21
9.869413
31
0
39
0
210
0
220
0
230
1
0
LINE
5
B2
100
AcDbEntity
8
1
62
256
6
ByLayer
370
18
48
1
60
0
100
AcDbLine
10
13.461325
20
9.349221
30
0
11
10.538675
21
9.349221
31
0
39
0
210
0
220
0
230
1
0
LINE
5
B3
100
AcDbEntity
8
1
62
256
6
ByLayer
370
18
48
1
60
0
100
AcDbLine
10
10.538675
20
30.080593
30
0
11
13.461325
21
30.080593
31
0
39
0
210
0
220
0
230
1
0
LINE
5
B4
100
AcDbEntity
8
1
62
256
6
ByLayer
370
18
48
1
60
0
100
AcDbLine
10
10.538675
20
-9.349221
30
0
11
13.461325
21
-9.349221
31
0
39
0
210
0
220
0
230
1
0
LINE
5
B5
100
AcDbEntity
8
1
62
256
6
ByLayer
370
18
48
1
60
0
100
AcDbLine
10
13.461325
20
-30.080593
30
0
11
10.538675
21
-30.080593
31
0
39
0
210
0
220
0
230
1
0
LINE
5
B6
100
AcDbEntity
8
1
62
256
6
ByLayer
370
18
48
1
60
0
100
AcDbLine
10
22.080515
20
-22.273864
30
0
11
22
21
-31.5
31
0
39
0
210
0
220
0
230
1
0
LINE
5
B7
100
AcDbEntity
8
1
62
256
6
ByLayer
370
13
48
1
60
0
100
AcDbLine
10
22.279208
20
31.5
30
0
11
22.279208
21
27.680841
31
0
39
0
210
0
220
0
230
1
0
LINE
5
B8
100
AcDbEntity
8
1
62
256
6
ByLayer
370
18
48
1
60
0
100
AcDbLine
10
0.3
20
-31.5
30
0
11
0.3
21
31.5
31
0
39
0
210
0
220
0
230
1
0
LINE
5
B9
100
AcDbEntity
8
1
62
256
6
ByLayer
370
18
48
1
60
0
100
AcDbLine
10
0
20
-31.2
30
0
11
0
21
31.2
31
0
39
0
210
0
220
0
230
1
0
LINE
5
BA
100
AcDbEntity
8
1
62
256
6
ByLayer
370
18
48
1
60
0
100
AcDbLine
10
22.094118
20
-20.715094
30
0
11
22.080515
21
-22.273864
31
0
39
0
210
0
220
0
230
1
0
LINE
5
BB
100
AcDbEntity
8
1
62
256
6
ByLayer
370
13
48
1
60
0
100
AcDbLine
10
22.134698
20
-20.180615
30
0
11
22.134698
21
27.095438
31
0
39
0
210
0
220
0
230
1
0
LINE
5
BC
100
AcDbEntity
8
SK1
62
256
6
ByLayer
370
18
48
1
60
0
100
AcDbLine
10
-0.2
20
-7.034158
30
0
11
-0.2
21
-22.533485
31
0
39
0
210
0
220
0
230
1
0
LINE
5
BE
100
AcDbEntity
8
SK1
62
256
6
ByLayer
370
18
48
1
60
0
100
AcDbLine
10
-0.2
20
22.533485
30
0
11
-0.2
21
7.034161
31
0
39
0
210
0
220
0
230
1
0
LINE
5
BF
100
AcDbEntity
8
SK1
62
256
6
ByLayer
370
13
48
1
60
0
100
AcDbLine
10
-1.307107
20
4.811152
30
0
11
-1.307107
21
-4.811152
31
0
39
0
210
0
220
0
230
1
0
LINE
5
C0
100
AcDbEntity
8
1
62
256
6
ByLayer
370
18
48
1
60
0
100
AcDbLine
10
63.63
20
38.6
30
0
11
65.58649
21
38.6
31
0
39
0
210
0
220
0
230
1
0
LINE
5
C1
100
AcDbEntity
8
1
62
256
6
ByLayer
370
18
48
1
60
0
100
AcDbLine
10
63.63
20
35.4
30
0
11
65.58649
21
35.4
31
0
39
0
210
0
220
0
230
1
0
LINE
5
C2
100
AcDbEntity
8
1
62
256
6
ByLayer
370
18
48
1
60
0
100
AcDbLine
10
66
20
38.83874
30
0
11
65.58649
21
38.6
31
0
39
0
210
0
220
0
230
1
0
LINE
5
C3
100
AcDbEntity
8
1
62
256
6
ByLayer
370
18
48
1
60
0
100
AcDbLine
10
66
20
35.16126
30
0
11
65.58649
21
35.4
31
0
39
0
210
0
220
0
230
1
0
LINE
5
C4
100
AcDbEntity
8
1
62
256
6
ByLayer
370
18
48
1
60
0
100
AcDbLine
10
70
20
35.3
30
0
11
70
21
38.7
31
0
39
0
210
0
220
0
230
1
0
LINE
5
C5
100
AcDbEntity
8
1
62
256
6
ByLayer
370
18
48
1
60
0
100
AcDbLine
10
69.686914
20
35.000286
30
0
11
66
21
35.16126
31
0
39
0
210
0
220
0
230
1
0
LINE
5
C6
100
AcDbEntity
8
1
62
256
6
ByLayer
370
18
48
1
60
0
100
AcDbLine
10
69.686914
20
38.999714
30
0
11
66
21
38.83874
31
0
39
0
210
0
220
0
230
1
0
LINE
5
C7
100
AcDbEntity
8
1
62
256
6
ByLayer
370
13
48
1
60
0
100
AcDbLine
10
62
20
37.02
30
0
11
62.937861
21
37.02
31
0
39
0
210
0
220
0
230
1
0
LINE
5
C8
100
AcDbEntity
8
1
62
256
6
ByLayer
370
13
48
1
60
0
100
AcDbLine
10
62
20
36.98
30
0
11
62.937861
21
36.98
31
0
39
0
210
0
220
0
230
1
0
LINE
5
C9
100
AcDbEntity
8
1
62
256
6
ByLayer
370
13
48
1
60
0
100
AcDbLine
10
61.999918
20
36.789264
30
0
11
62.928946
21
36.789264
31
0
39
0
210
0
220
0
230
1
0
LINE
5
CA
100
AcDbEntity
8
1
62
256
6
ByLayer
370
13
48
1
60
0
100
AcDbLine
10
61.999918
20
37.210736
30
0
11
62.928946
21
37.210736
31
0
39
0
210
0
220
0
230
1
0
LINE
5
CB
100
AcDbEntity
8
1
62
256
6
ByLayer
370
13
48
1
60
0
100
AcDbLine
10
61.910754
20
37.427733
30
0
11
62.748945
21
37.427733
31
0
39
0
210
0
220
0
230
1
0
LINE
5
CC
100
AcDbEntity
8
1
62
256
6
ByLayer
370
13
48
1
60
0
100
AcDbLine
10
61.910754
20
36.572267
30
0
11
62.748945
21
36.572267
31
0
39
0
210
0
220
0
230
1
0
LINE
5
CD
100
AcDbEntity
8
1
62
256
6
ByLayer
370
13
48
1
60
0
100
AcDbLine
10
62.590119
20
37.483085
30
0
11
61.80632
21
37.483085
31
0
39
0
210
0
220
0
230
1
0
LINE
5
CE
100
AcDbEntity
8
1
62
256
6
ByLayer
370
13
48
1
60
0
100
AcDbLine
10
62.590119
20
36.516915
30
0
11
61.80632
21
36.516915
31
0
39
0
210
0
220
0
230
1
0
LINE
5
CF
100
AcDbEntity
8
1
62
256
6
ByLayer
370
13
48
1
60
0
100
AcDbLine
10
61.772606
20
36.486112
30
0
11
62.549523
21
36.486112
31
0
39
0
210
0
220
0
230
1
0
LINE
5
D0
100
AcDbEntity
8
1
62
256
6
ByLayer
370
13
48
1
60
0
100
AcDbLine
10
61.772685
20
37.513888
30
0
11
62.549523
21
37.513888
31
0
39
0
210
0
220
0
230
1
0
LINE
5
D1
100
AcDbEntity
8
1
62
256
6
ByLayer
370
13
48
1
60
0
100
AcDbLine
10
61.761059
20
36.394335
30
0
11
62.477691
21
36.394335
31
0
39
0
210
0
220
0
230
1
0
LINE
5
D2
100
AcDbEntity
8
1
62
256
6
ByLayer
370
13
48
1
60
0
100
AcDbLine
10
61.761215
20
37.605665
30
0
11
62.477691
21
37.605665
31
0
39
0
210
0
220
0
230
1
0
LINE
5
D3
100
AcDbEntity
8
1
62
256
6
ByLayer
370
13
48
1
60
0
100
AcDbLine
10
61.755478
20
36.350066
30
0
11
62.457959
21
36.350066
31
0
39
0
210
0
220
0
230
1
0
LINE
5
D4
100
AcDbEntity
8
1
62
256
6
ByLayer
370
13
48
1
60
0
100
AcDbLine
10
61.755788
20
37.649934
30
0
11
62.457959
21
37.649934
31
0
39
0
210
0
220
0
230
1
0
LINE
5
D5
100
AcDbEntity
8
1
62
256
6
ByLayer
370
18
48
1
60
0
100
AcDbLine
10
61.636081
20
35.4
30
0
11
62.334518
21
35.4
31
0
39
0
210
0
220
0
230
1
0
LINE
5
D6
100
AcDbEntity
8
1
62
256
6
ByLayer
370
13
48
1
60
0
100
AcDbLine
10
61.666448
20
35.641251
30
0
11
62.334518
21
35.641251
31
0
39
0
210
0
220
0
230
1
0
LINE
5
D7
100
AcDbEntity
8
1
62
256
6
ByLayer
370
13
48
1
60
0
100
AcDbLine
10
61.668664
20
35.658616
30
0
11
62.336037
21
35.658616
31
0
39
0
210
0
220
0
230
1
0
LINE
5
D8
100
AcDbEntity
8
1
62
256
6
ByLayer
370
18
48
1
60
0
100
AcDbLine
10
61.636081
20
38.6
30
0
11
62.334518
21
38.6
31
0
39
0
210
0
220
0
230
1
0
LINE
5
D9
100
AcDbEntity
8
1
62
256
6
ByLayer
370
18
48
1
60
0
100
AcDbLine
10
63.63
20
38.6
30
0
11
62.334518
21
38.6
31
0
39
0
210
0
220
0
230
1
0
LINE
5
DA
100
AcDbEntity
8
1
62
256
6
ByLayer
370
18
48
1
60
0
100
AcDbLine
10
62.334518
20
38.6
30
0
11
62.334518
21
38.358749
31
0
39
0
210
0
220
0
230
1
0
LINE
5
DB
100
AcDbEntity
8
1
62
256
6
ByLayer
370
18
48
1
60
0
100
AcDbLine
10
62.336037
20
38.341384
30
0
11
62.457959
21
37.649934
31
0
39
0
210
0
220
0
230
1
0
LINE
5
DC
100
AcDbEntity
8
1
62
256
6
ByLayer
370
18
48
1
60
0
100
AcDbLine
10
62.477691
20
37.605665
30
0
11
62.549523
21
37.513888
31
0
39
0
210
0
220
0
230
1
0
LINE
5
DD
100
AcDbEntity
8
1
62
256
6
ByLayer
370
18
48
1
60
0
100
AcDbLine
10
62.937861
20
36.98
30
0
11
62.937861
21
37.02
31
0
39
0
210
0
220
0
230
1
0
LINE
5
DE
100
AcDbEntity
8
1
62
256
6
ByLayer
370
18
48
1
60
0
100
AcDbLine
10
62.477691
20
36.394335
30
0
11
62.549523
21
36.486112
31
0
39
0
210
0
220
0
230
1
0
LINE
5
DF
100
AcDbEntity
8
1
62
256
6
ByLayer
370
18
48
1
60
0
100
AcDbLine
10
62.336037
20
35.658616
30
0
11
62.457959
21
36.350066
31
0
39
0
210
0
220
0
230
1
0
LINE
5
E0
100
AcDbEntity
8
1
62
256
6
ByLayer
370
18
48
1
60
0
100
AcDbLine
10
62.334518
20
35.4
30
0
11
62.334518
21
35.641251
31
0
39
0
210
0
220
0
230
1
0
LINE
5
E1
100
AcDbEntity
8
1
62
256
6
ByLayer
370
18
48
1
60
0
100
AcDbLine
10
63.63
20
35.4
30
0
11
62.334518
21
35.4
31
0
39
0
210
0
220
0
230
1
0
LINE
5
E2
100
AcDbEntity
8
1
62
256
6
ByLayer
370
18
48
1
60
0
100
AcDbLine
10
63.63
20
35.4
30
0
11
63.63
21
38.6
31
0
39
0
210
0
220
0
230
1
0
LINE
5
E3
100
AcDbEntity
8
1
62
256
6
ByLayer
370
13
48
1
60
0
100
AcDbLine
10
61.66675
20
38.358749
30
0
11
62.334518
21
38.358749
31
0
39
0
210
0
220
0
230
1
0
LINE
5
E4
100
AcDbEntity
8
1
62
256
6
ByLayer
370
13
48
1
60
0
100
AcDbLine
10
61.668967
20
38.341384
30
0
11
62.336037
21
38.341384
31
0
39
0
210
0
220
0
230
1
0
LINE
5
E5
100
AcDbEntity
8
SK2
62
256
6
ByLayer
370
18
48
1
60
0
100
AcDbLine
10
-47.975
20
-31.5
30
0
11
-47.975
21
31.5
31
0
39
0
210
0
220
0
230
1
0
LINE
5
E7
100
AcDbEntity
8
SK2
62
256
6
ByLayer
370
18
48
1
60
0
100
AcDbLine
10
-1.2875
20
31.5
30
0
11
-49.975
21
31.5
31
0
39
0
210
0
220
0
230
1
0
LINE
5
E8
100
AcDbEntity
8
SK2
62
256
6
ByLayer
370
18
48
1
60
0
100
AcDbLine
10
-1.2875
20
-31.5
30
0
11
-49.975
21
-31.5
31
0
39
0
210
0
220
0
230
1
0
LINE
5
E9
100
AcDbEntity
8
1
62
256
6
ByLayer
370
18
48
1
60
1
100
AcDbLine
10
-47.975
20
31.5
30
0
11
-47.514216
21
28.000002
31
0
39
0
210
0
220
0
230
1
0
LINE
5
EA
100
AcDbEntity
8
1
62
256
6
ByLayer
370
18
48
1
60
1
100
AcDbLine
10
-47.514216
20
28.000002
30
0
11
-48.435784
21
27.999998
31
0
39
0
210
0
220
0
230
1
0
LINE
5
EB
100
AcDbEntity
8
1
62
256
6
ByLayer
370
18
48
1
60
1
100
AcDbLine
10
-48.435784
20
27.999998
30
0
11
-47.975
21
31.5
31
0
39
0
210
0
220
0
230
1
0
LINE
5
EC
100
AcDbEntity
8
1
62
256
6
ByLayer
370
18
48
1
60
1
100
AcDbLine
10
-47.975
20
-31.5
30
0
11
-48.435784
21
-28.000002
31
0
39
0
210
0
220
0
230
1
0
LINE
5
ED
100
AcDbEntity
8
1
62
256
6
ByLayer
370
18
48
1
60
1
100
AcDbLine
10
-48.435784
20
-28.000002
30
0
11
-47.514216
21
-27.999998
31
0
39
0
210
0
220
0
230
1
0
LINE
5
EE
100
AcDbEntity
8
1
62
256
6
ByLayer
370
18
48
1
60
1
100
AcDbLine
10
-47.514216
20
-27.999998
30
0
11
-47.975
21
-31.5
31
0
39
0
210
0
220
0
230
1
0
LINE
5
14C
100
AcDbEntity
8
1
62
256
6
ByLayer
370
18
48
1
60
1
100
AcDbLine
10
-47.975
20
31.5
30
0
11
-47.514216
21
28.000002
31
0
39
0
210
0
220
0
230
1
0
LINE
5
14D
100
AcDbEntity
8
1
62
256
6
ByLayer
370
18
48
1
60
1
100
AcDbLine
10
-47.514216
20
28.000002
30
0
11
-48.435784
21
27.999998
31
0
39
0
210
0
220
0
230
1
0
LINE
5
14E
100
AcDbEntity
8
1
62
256
6
ByLayer
370
18
48
1
60
1
100
AcDbLine
10
-48.435784
20
27.999998
30
0
11
-47.975
21
31.5
31
0
39
0
210
0
220
0
230
1
0
LINE
5
150
100
AcDbEntity
8
1
62
256
6
ByLayer
370
18
48
1
60
1
100
AcDbLine
10
-47.975
20
-31.5
30
0
11
-48.435784
21
-28.000002
31
0
39
0
210
0
220
0
230
1
0
LINE
5
151
100
AcDbEntity
8
1
62
256
6
ByLayer
370
18
48
1
60
1
100
AcDbLine
10
-48.435784
20
-28.000002
30
0
11
-47.514216
21
-27.999998
31
0
39
0
210
0
220
0
230
1
0
LINE
5
152
100
AcDbEntity
8
1
62
256
6
ByLayer
370
18
48
1
60
1
100
AcDbLine
10
-47.514216
20
-27.999998
30
0
11
-47.975
21
-31.5
31
0
39
0
210
0
220
0
230
1
0
MTEXT
5
148
100
AcDbEntity
8
SK2
62
256
6
ByLayer
370
18
48
1
60
0
100
AcDbMText
10
-49.539634
20
-4.530622
30
0
210
0
220
0
230
1
1
%%c
40
3.5
41
0
44
1.084337
50
90
71
7
72
5
7
iso_b_vert
0
MTEXT
5
14B
100
AcDbEntity
8
SK2
62
256
6
ByLayer
370
18
48
1
60
0
100
AcDbMText
10
-49.539634
20
2.442034
30
0
210
0
220
0
230
1
1
\W0.6740;63
40
3.5
41
0
44
1.084337
50
90
71
7
72
5
7
iso_b_vert
0
MTEXT
5
154
100
AcDbEntity
8
SK6
62
256
6
ByLayer
370
18
48
1
60
0
100
AcDbMText
10
-16.3145
20
-46.708208
30
0
210
0
220
0
230
1
1
\W0.7570;C2A-CC6-RFH18B-064CB
40
3.5
41
0
44
1.084337
50
0
71
7
72
5
7
iso_b_vert
0
HATCH
5
14F
100
AcDbEntity
8
SK2
62
256
6
ByLayer
370
13
48
1
60
0
100
AcDbHatch
10
0
20
0
30
0
210
0
220
0
230
1
2
ANSI31
70
0
71
0
91
1
92
5
93
3
72
1
10
-47.9750000000001
20
31.5
11
-47.5142162584473
21
28.0000016925532
72
1
10
-47.5142162584473
20
28.0000016925532
11
-48.4357837415529
21
27.9999983074468
72
1
10
-48.4357837415529
20
27.9999983074468
11
-47.9750000000001
21
31.5
97
0
75
0
76
1
52
0
41
0.0062
77
0
78
1
53
45
43
0
44
0
45
-0.0139193969876572
46
0.0139193969876572
79
0
47
0
98
1
10
0
20
0
0
HATCH
5
153
100
AcDbEntity
8
SK2
62
256
6
ByLayer
370
13
48
1
60
0
100
AcDbHatch
10
0
20
0
30
0
210
0
220
0
230
1
2
ANSI31
70
0
71
0
91
1
92
5
93
3
72
1
10
-47.9750000000001
20
-31.5
11
-48.4357837415529
21
-28.0000016925532
72
1
10
-48.4357837415529
20
-28.0000016925532
11
-47.5142162584473
21
-27.9999983074468
72
1
10
-47.5142162584473
20
-27.9999983074468
11
-47.9750000000001
21
-31.5
97
0
75
0
76
1
52
0
41
0.0062
77
0
78
1
53
45
43
0
44
0
45
-0.0139193969876572
46
0.0139193969876572
79
0
47
0
98
1
10
0
20
0
0
DIMENSION
5
157
100
AcDbEntity
8
2
62
256
6
ByLayer
370
18
48
1
60
0
100
AcDbDimension
2
_U0
10
101.1
20
0
30
0
11
101.1
21
19.5
31
0
70
32
71
1
72
1
41
1
210
0
220
0
230
1
3
Standard
100
AcDbAlignedDimension
13
70
23
39
33
0
14
0
24
0
34
0
50
90
100
AcDbRotatedDimension
1001
ACAD
1000
DSTYLE
1002
{
1070
   371
1070
    13
1070
   372
1070
    13
1070
   170
1070
     0
1070
   144
1040
1.0
1070
   277
1070
     2
1070
   284
1070
     8
1070
   278
1070
    46
1070
   146
1040
1.0
1070
   345
1005
16
1070
   347
1005
16
1070
   346
1005
16
1070
   344
1005
0
1070
   343
1005
0
1070
   172
1070
     1
1070
    76
1070
     0
1070
    75
1070
     0
1070
   282
1070
     0
1070
   281
1070
     0
1070
    71
1070
     0
1070
    74
1070
     0
1070
   279
1070
     0
1070
   173
1070
     1
1070
   340
1005
149
1070
   271
1070
     1
1070
   272
1070
     2
1070
    77
1070
     1
1070
    73
1070
     0
1070
   171
1070
     3
1070
   274
1070
     4
1070
   177
1070
     2
1070
   176
1070
     2
1070
   178
1070
     2
1070
    78
1070
     8
1070
    48
1040
-0.1
1070
    41
1040
3.5
1070
   147
1040
1.75
1070
    42
1040
1.5875
1070
    44
1040
2.0
1070
   140
1040
3.5
1002
}
1001
ACAD_DSTYLE_DIM_LINETYPE
1070
   380
1005
16
1001
ACAD_DSTYLE_DIM_EXT1_LINETYPE
1070
   381
1005
16
1001
ACAD_DSTYLE_DIM_EXT2_LINETYPE
1070
   382
1005
16
0
DIMENSION
5
171
100
AcDbEntity
8
2
62
256
6
ByLayer
370
18
48
1
60
0
100
AcDbDimension
2
_U1
10
90.1
20
39
30
0
11
90.1
21
37
31
0
70
32
71
1
72
1
41
1
210
0
220
0
230
1
3
Standard
100
AcDbAlignedDimension
13
70
23
35
33
0
14
70
24
39
34
0
50
90
100
AcDbRotatedDimension
1001
ACAD
1000
DSTYLE
1002
{
1070
   371
1070
    13
1070
   372
1070
    13
1070
   170
1070
     0
1070
   144
1040
1.0
1070
   277
1070
     2
1070
   284
1070
     8
1070
   278
1070
    46
1070
   146
1040
1.0
1070
   345
1005
16
1070
   347
1005
16
1070
   346
1005
16
1070
   344
1005
0
1070
   343
1005
0
1070
   172
1070
     1
1070
    76
1070
     0
1070
    75
1070
     0
1070
   282
1070
     0
1070
   281
1070
     0
1070
    71
1070
     0
1070
    74
1070
     0
1070
   279
1070
     0
1070
   173
1070
     1
1070
   340
1005
149
1070
   271
1070
     1
1070
   272
1070
     2
1070
    77
1070
     1
1070
    73
1070
     0
1070
   171
1070
     3
1070
   274
1070
     4
1070
   177
1070
     2
1070
   176
1070
     2
1070
   178
1070
     2
1070
    78
1070
     8
1070
    48
1040
-0.1
1070
    41
1040
3.5
1070
   147
1040
1.75
1070
    42
1040
1.5875
1070
    44
1040
2.0
1070
   140
1040
3.5
1002
}
1001
ACAD_DSTYLE_DIM_LINETYPE
1070
   380
1005
16
1001
ACAD_DSTYLE_DIM_EXT1_LINETYPE
1070
   381
1005
16
1001
ACAD_DSTYLE_DIM_EXT2_LINETYPE
1070
   382
1005
16
0
DIMENSION
5
18A
100
AcDbEntity
8
2
62
256
6
ByLayer
370
18
48
1
60
0
100
AcDbDimension
2
_U2
10
70
20
-29.425
30
0
11
61
21
-29.425
31
0
70
32
71
1
72
1
41
1
210
0
220
0
230
1
3
Standard
100
AcDbAlignedDimension
13
52
23
35.325
33
0
14
70
24
35
34
0
50
0
100
AcDbRotatedDimension
1001
ACAD
1000
DSTYLE
1002
{
1070
   371
1070
    13
1070
   372
1070
    13
1070
   170
1070
     0
1070
   144
1040
1.0
1070
   277
1070
     2
1070
   284
1070
     8
1070
   278
1070
    46
1070
   146
1040
1.0
1070
   345
1005
16
1070
   347
1005
16
1070
   346
1005
16
1070
   344
1005
0
1070
   343
1005
0
1070
   172
1070
     1
1070
    76
1070
     0
1070
    75
1070
     0
1070
   282
1070
     0
1070
   281
1070
     0
1070
    71
1070
     0
1070
    74
1070
     0
1070
   279
1070
     0
1070
   173
1070
     1
1070
   340
1005
149
1070
   271
1070
     1
1070
   272
1070
     2
1070
    77
1070
     1
1070
    73
1070
     1
1070
   171
1070
     3
1070
   274
1070
     4
1070
   177
1070
     2
1070
   176
1070
     2
1070
   178
1070
     2
1070
    78
1070
     8
1070
    48
1040
-0.1
1070
    41
1040
3.5
1070
   147
1040
1.75
1070
    42
1040
1.5875
1070
    44
1040
2.0
1070
   140
1040
3.5
1002
}
1001
ACAD_DSTYLE_DIM_LINETYPE
1070
   380
1005
16
1001
ACAD_DSTYLE_DIM_EXT1_LINETYPE
1070
   381
1005
16
1001
ACAD_DSTYLE_DIM_EXT2_LINETYPE
1070
   382
1005
16
0
DIMENSION
5
1A2
100
AcDbEntity
8
2
62
256
6
ByLayer
370
18
48
1
60
0
100
AcDbDimension
2
_U3
10
70
20
53.75
30
0
11
35
21
53.75
31
0
70
32
71
1
72
1
41
1
210
0
220
0
230
1
3
Standard
100
AcDbAlignedDimension
13
0
23
0
33
0
14
70
24
39
34
0
50
0
100
AcDbRotatedDimension
1001
ACAD
1000
DSTYLE
1002
{
1070
   371
1070
    13
1070
   372
1070
    13
1070
   170
1070
     0
1070
   144
1040
1.0
1070
   277
1070
     2
1070
   284
1070
     8
1070
   278
1070
    46
1070
   146
1040
1.0
1070
   345
1005
16
1070
   347
1005
16
1070
   346
1005
16
1070
   344
1005
0
1070
   343
1005
0
1070
   172
1070
     1
1070
    76
1070
     0
1070
    75
1070
     0
1070
   282
1070
     0
1070
   281
1070
     0
1070
    71
1070
     0
1070
    74
1070
     0
1070
   279
1070
     0
1070
   173
1070
     1
1070
   340
1005
149
1070
   271
1070
     1
1070
   272
1070
     2
1070
    77
1070
     1
1070
    73
1070
     1
1070
   171
1070
     3
1070
   274
1070
     4
1070
   177
1070
     2
1070
   176
1070
     2
1070
   178
1070
     2
1070
    78
1070
     8
1070
    48
1040
-0.1
1070
    41
1040
3.5
1070
   147
1040
1.75
1070
    42
1040
1.5875
1070
    44
1040
2.0
1070
   140
1040
3.5
1002
}
1001
ACAD_DSTYLE_DIM_LINETYPE
1070
   380
1005
16
1001
ACAD_DSTYLE_DIM_EXT1_LINETYPE
1070
   381
1005
16
1001
ACAD_DSTYLE_DIM_EXT2_LINETYPE
1070
   382
1005
16
0
ENDSEC
0
SECTION
2
OBJECTS
0
DICTIONARY
5
229
330
0
100
AcDbDictionary
280
0
281
1
3
ACAD_GROUP
350
22a
3
ACAD_MLINESTYLE
350
22b
0
DICTIONARY
5
22a
330
0
100
AcDbDictionary
280
0
281
1
0
DICTIONARY
5
22b
330
0
100
AcDbDictionary
280
0
281
1
3
Standard
350
18
0
MLINESTYLE
5
18
330
22b
100
AcDbMlineStyle
2
Standard
70
0
3

62
256
51
90
52
90
71
2
49
-0.5
62
256
6
ByLayer
49
0.5
62
256
6
ByLayer
0
RASTERVARIABLES
5
218
330

100
AcDbRasterVariables
90
0
70
1
71
1
72
1
0
ENDSEC
0
EOF
