0
SECTION
2
HEADER
9
$ACADVER
1
AC1015
9
$DWGCODEPAGE
3
ANSI_1252
9
$HANDSEED
5
236
9
$ANGBASE
50
0
9
$ANGDIR
70
0
9
$ATTMODE
70
1
9
$AUNITS
70
0
9
$AUPREC
70
0
9
$CECOLOR
62
256
9
$CELTSCALE
40
1
9
$CELTYPE
6
ByLayer
9
$CELWEIGHT
370
18
9
$CLAYER
8
0
9
$CMLJUST
70
0
9
$CMLSCALE
40
1
9
$CMLSTYLE
2
Standard
9
$DIMSTYLE
2
Standard
9
$TEXTSIZE
40
0.2
9
$TEXTSTYLE
7
Standard
9
$LUNITS
70
2
9
$LUPREC
70
4
9
$EXTNAMES
290
1
9
$INSUNITS
70
4
9
$LTSCALE
40
1
9
$LWDISPLAY
290
1
9
$PDMODE
70
0
9
$PDSIZE
40
0
9
$PLINEGEN
70
0
0
ENDSEC
0
SECTION
2
CLASSES
0
CLASS
1
RASTERVARIABLES
2
AcDbRasterVariables
3
ISM
90
0
280
0
281
0
0
ENDSEC
0
SECTION
2
TABLES
0
TABLE
2
VPORT
5
22c
100
AcDbSymbolTable
0
VPORT
5
1
100
AcDbSymbolTableRecord
100
AcDbViewportTableRecord
2
*Active
70
0
10
0
20
0
11
1
21
1
12
-1
22
1
13
0
23
0
14
0.5
24
0.5
15
10
25
10
16
0
26
0
36
1
17
0
27
0
37
0
0
ENDTAB
0
TABLE
2
LTYPE
5
22d
100
AcDbSymbolTable
0
LTYPE
5
14
100
AcDbSymbolTableRecord
100
AcDbLinetypeTableRecord
70
0
2
ByBlock
3

72
65
73
0
40
0
0
LTYPE
5
15
100
AcDbSymbolTableRecord
100
AcDbLinetypeTableRecord
70
0
2
ByLayer
3

72
65
73
0
40
0
0
LTYPE
5
16
100
AcDbSymbolTableRecord
100
AcDbLinetypeTableRecord
70
0
2
Continuous
3
Solid line
72
65
73
0
40
0
0
LTYPE
5
6E
100
AcDbSymbolTableRecord
100
AcDbLinetypeTableRecord
70
0
2
CENTER
3
____ _ ____ _ ____ _ ____
72
65
73
4
40
47.5
49
22
74
0
49
-8.5
74
0
49
8.5
74
0
49
-8.5
74
0
0
LTYPE
5
6F
100
AcDbSymbolTableRecord
100
AcDbLinetypeTableRecord
70
0
2
DASHED
3
__ __ __ __ __ __ __ __ __
72
65
73
2
40
25.72
49
12.86
74
0
49
-12.86
74
0
0
ENDTAB
0
TABLE
2
LAYER
5
22e
100
AcDbSymbolTable
0
LAYER
5
10
100
AcDbSymbolTableRecord
100
AcDbLayerTableRecord
2
0
70
0
62
7
6
Continuous
290
1
370
-3
390
0
0
LAYER
5
71
100
AcDbSymbolTableRecord
100
AcDbLayerTableRecord
2
81
70
0
62
-3
6
Continuous
290
1
370
-3
390
0
0
LAYER
5
73
100
AcDbSymbolTableRecord
100
AcDbLayerTableRecord
2
80
70
0
62
-6
6
Continuous
290
1
370
-3
390
0
0
LAYER
5
75
100
AcDbSymbolTableRecord
100
AcDbLayerTableRecord
2
1
70
0
62
4
6
Continuous
290
1
370
-3
390
0
0
LAYER
5
15A
100
AcDbSymbolTableRecord
100
AcDbLayerTableRecord
2
Defpoints
70
0
62
7
6
Continuous
290
0
370
-3
390
0
0
LAYER
5
167
100
AcDbSymbolTableRecord
100
AcDbLayerTableRecord
2
2
70
0
62
7
6
Continuous
290
1
370
-3
390
0
0
LAYER
5
219
100
AcDbSymbolTableRecord
100
AcDbLayerTableRecord
2
SK1
70
0
62
4
6
Continuous
290
1
370
-3
390
0
0
LAYER
5
21a
100
AcDbSymbolTableRecord
100
AcDbLayerTableRecord
2
SK2
70
0
62
7
6
Continuous
290
1
370
-3
390
0
0
LAYER
5
21b
100
AcDbSymbolTableRecord
100
AcDbLayerTableRecord
2
SK6
70
0
62
5
6
Continuous
290
1
370
-3
390
0
0
ENDTAB
0
TABLE
2
STYLE
5
22f
100
AcDbSymbolTable
0
STYLE
5
11
100
AcDbSymbolTableRecord
100
AcDbTextStyleTableRecord
2
Standard
3
txt
70
0
71
0
40
0
41
1
42
0
50
0
0
STYLE
5
149
100
AcDbSymbolTableRecord
100
AcDbTextStyleTableRecord
2
iso_b_vert
3
simplex.shx
70
0
71
0
40
0
41
1
42
0
50
0
0
STYLE
5
14A
100
AcDbSymbolTableRecord
100
AcDbTextStyleTableRecord
2
DWGDirectTextStyle
3
simplex
70
0
71
0
40
0
41
1
42
0
50
0
0
ENDTAB
0
TABLE
2
DIMSTYLE
5
230
100
AcDbSymbolTable
100
AcDbDimStyleTable
0
DIMSTYLE
105
27
100
AcDbSymbolTableRecord
100
AcDbDimStyleTableRecord
2
Standard
70
0
3
<>
41
0.18
42
0.0625
44
0.18
140
0.18
147
0.09
73
0
74
0
77
1
271
2
275
0
278
52
280
0
340
11
0
ENDTAB
0
TABLE
2
VIEW
5
231
100
AcDbSymbolTable
0
ENDTAB
0
TABLE
2
UCS
5
232
100
AcDbSymbolTable
0
ENDTAB
0
TABLE
2
APPID
5
233
100
AcDbSymbolTable
0
APPID
5
12
100
AcDbSymbolTableRecord
100
AcDbRegAppTableRecord
2
ACAD
70
0
0
APPID
5
156
100
AcDbSymbolTableRecord
100
AcDbRegAppTableRecord
2
ACAD_DSTYLE_DIMBREAK
70
0
0
APPID
5
1D8
100
AcDbSymbolTableRecord
100
AcDbRegAppTableRecord
2
ACAD_DSTYLE_DIM_LINETYPE
70
0
0
APPID
5
1D9
100
AcDbSymbolTableRecord
100
AcDbRegAppTableRecord
2
ACAD_DSTYLE_DIM_EXT1_LINETYPE
70
0
0
APPID
5
1DA
100
AcDbSymbolTableRecord
100
AcDbRegAppTableRecord
2
ACAD_DSTYLE_DIM_EXT2_LINETYPE
70
0
0
APPID
5
215
100
AcDbSymbolTableRecord
100
AcDbRegAppTableRecord
2
ACAD_MLEADERVER
70
0
0
ENDTAB
0
TABLE
2
BLOCK_RECORD
5
234
100
AcDbSymbolTable
0
BLOCK_RECORD
5
1F
100
AcDbSymbolTableRecord
100
AcDbBlockTableRecord
2
*Model_Space
340
0
70
0
0
BLOCK_RECORD
5
1B
100
AcDbSymbolTableRecord
100
AcDbBlockTableRecord
2
*Paper_Space
340
0
70
0
0
BLOCK_RECORD
5
23
100
AcDbSymbolTableRecord
100
AcDbBlockTableRecord
2
*Paper_Space0
340
0
70
0
0
BLOCK_RECORD
5
15B
100
AcDbSymbolTableRecord
100
AcDbBlockTableRecord
2
*D1
340
0
70
0
0
BLOCK_RECORD
5
168
100
AcDbSymbolTableRecord
100
AcDbBlockTableRecord
2
_U0
340
0
70
0
0
BLOCK_RECORD
5
174
100
AcDbSymbolTableRecord
100
AcDbBlockTableRecord
2
*D3
340
0
70
0
0
BLOCK_RECORD
5
181
100
AcDbSymbolTableRecord
100
AcDbBlockTableRecord
2
_U1
340
0
70
0
0
BLOCK_RECORD
5
18D
100
AcDbSymbolTableRecord
100
AcDbBlockTableRecord
2
*D5
340
0
70
0
0
BLOCK_RECORD
5
199
100
AcDbSymbolTableRecord
100
AcDbBlockTableRecord
2
_U2
340
0
70
0
0
BLOCK_RECORD
5
1A5
100
AcDbSymbolTableRecord
100
AcDbBlockTableRecord
2
*D7
340
0
70
0
0
BLOCK_RECORD
5
1B1
100
AcDbSymbolTableRecord
100
AcDbBlockTableRecord
2
_U3
340
0
70
0
0
ENDTAB
0
ENDSEC
0
SECTION
2
BLOCKS
0
BLOCK
5
20
100
AcDbEntity
8
0
100
AcDbBlockBegin
2
*Model_Space
70
0
10
0
20
0
30
0
3
*Model_Space
0
ENDBLK
5
21
100
AcDbEntity
8
0
100
AcDbBlockEnd
0
BLOCK
5
1C
100
AcDbEntity
8
0
100
AcDbBlockBegin
2
*Paper_Space
70
0
10
0
20
0
30
0
3
*Paper_Space
0
ENDBLK
5
1D
100
AcDbEntity
8
0
100
AcDbBlockEnd
0
BLOCK
5
24
100
AcDbEntity
8
0
100
AcDbBlockBegin
2
*Paper_Space0
70
0
10
0
20
0
30
0
3
*Paper_Space0
0
ENDBLK
5
25
100
AcDbEntity
8
0
100
AcDbBlockEnd
0
BLOCK
5
15C
100
AcDbEntity
8
0
100
AcDbBlockBegin
2
*D1
70
1
10
0
20
0
30
0
3
*D1
0
LINE
5
15E
100
AcDbEntity
8
0
62
256
6
ByLayer
370
-2
48
1
60
0
100
AcDbLine
10
71.5875
20
-39
30
0
11
103.1
21
-39
31
0
39
0
210
0
220
0
230
1
0
LINE
5
15F
100
AcDbEntity
8
0
62
256
6
ByLayer
370
-2
48
1
60
0
100
AcDbLine
10
1.5875
20
0
30
0
11
103.1
21
0
31
0
39
0
210
0
220
0
230
1
0
LINE
5
160
100
AcDbEntity
8
0
62
256
6
ByLayer
370
-2
48
1
60
0
100
AcDbLine
10
101.1
20
-35.5
30
0
11
101.1
21
-3.5
31
0
39
0
210
0
220
0
230
1
0
SOLID
5
161
100
AcDbEntity
8
0
62
256
6
ByLayer
370
-1
48
1
60
0
100
AcDbTrace
10
100.516667
20
-35.5
30
0
11
101.683333
21
-35.5
31
0
12
101.1
22
-39
32
0
13
101.1
23
-39
33
0
39
0
210
0
220
0
230
1
0
SOLID
5
162
100
AcDbEntity
8
0
62
256
6
ByLayer
370
-1
48
1
60
0
100
AcDbTrace
10
101.683333
20
-3.5
30
0
11
100.516667
21
-3.5
31
0
12
101.1
22
0
32
0
13
101.1
23
0
33
0
39
0
210
0
220
0
230
1
0
MTEXT
5
163
100
AcDbEntity
8
0
62
256
6
ByLayer
370
18
48
1
60
0
100
AcDbMText
10
94.1
20
-19.5
30
0
210
0
220
0
230
1
1
\A1;39
40
3.5
41
0
44
1
50
90
71
5
72
5
7
iso_b_vert
0
POINT
5
164
100
AcDbEntity
8
Defpoints
62
0
6
ByLayer
370
-1
48
1
60
0
100
AcDbPoint
10
70
20
-39
30
0
39
0
210
0
220
0
230
1
50
360
0
POINT
5
165
100
AcDbEntity
8
Defpoints
62
0
6
ByLayer
370
-1
48
1
60
0
100
AcDbPoint
10
0
20
0
30
0
39
0
210
0
220
0
230
1
50
360
0
POINT
5
166
100
AcDbEntity
8
Defpoints
62
0
6
ByLayer
370
-1
48
1
60
0
100
AcDbPoint
10
101.1
20
0
30
0
39
0
210
0
220
0
230
1
50
360
0
ENDBLK
5
15D
100
AcDbEntity
8
0
100
AcDbBlockEnd
0
BLOCK
5
16F
100
AcDbEntity
8
0
100
AcDbBlockBegin
2
_U0
70
0
10
0
20
0
30
0
3
_U0
0
MTEXT
5
169
100
AcDbEntity
8
2
62
256
6
ByLayer
370
18
48
1
60
0
100
AcDbMText
10
100.410366
20
-21.432966
30
0
210
0
220
0
230
1
1
\W0.6927;39
40
3.5
41
0
44
1.084337
50
90
71
7
72
5
7
iso_b_vert
0
LINE
5
16A
100
AcDbEntity
8
2
62
256
6
ByLayer
370
13
48
1
60
0
100
AcDbLine
10
71.5875
20
-39
30
0
11
103.1
21
-39
31
0
39
0
210
0
220
0
230
1
0
LINE
5
16B
100
AcDbEntity
8
2
62
256
6
ByLayer
370
13
48
1
60
0
100
AcDbLine
10
1.5875
20
0
30
0
11
103.1
21
0
31
0
39
0
210
0
220
0
230
1
0
LINE
5
16C
100
AcDbEntity
8
2
62
256
6
ByLayer
370
13
48
1
60
0
100
AcDbLine
10
101.1
20
-39
30
0
11
101.1
21
0
31
0
39
0
210
0
220
0
230
1
0
SOLID
5
16D
100
AcDbEntity
8
2
62
256
6
ByLayer
370
18
48
1
60
0
100
AcDbTrace
10
101.1
20
-39
30
0
11
100.639216
21
-35.500002
31
0
12
101.560784
22
-35.499998
32
0
13
101.560784
23
-35.499998
33
0
39
0
210
0
220
0
230
1
0
SOLID
5
16E
100
AcDbEntity
8
2
62
256
6
ByLayer
370
18
48
1
60
0
100
AcDbTrace
10
101.1
20
0
30
0
11
101.560784
21
-3.499998
31
0
12
100.639216
22
-3.500002
32
0
13
100.639216
23
-3.500002
33
0
39
0
210
0
220
0
230
1
0
ENDBLK
5
170
100
AcDbEntity
8
0
100
AcDbBlockEnd
0
BLOCK
5
175
100
AcDbEntity
8
0
100
AcDbBlockBegin
2
*D3
70
1
10
0
20
0
30
0
3
*D3
0
LINE
5
177
100
AcDbEntity
8
0
62
256
6
ByLayer
370
-2
48
1
60
0
100
AcDbLine
10
71.5875
20
-35
30
0
11
92.1
21
-35
31
0
39
0
210
0
220
0
230
1
0
LINE
5
178
100
AcDbEntity
8
0
62
256
6
ByLayer
370
-2
48
1
60
0
100
AcDbLine
10
71.5875
20
-39
30
0
11
92.1
21
-39
31
0
39
0
210
0
220
0
230
1
0
LINE
5
179
100
AcDbEntity
8
0
62
256
6
ByLayer
370
-2
48
1
60
0
100
AcDbLine
10
90.1
20
-31.5
30
0
11
90.1
21
-28
31
0
39
0
210
0
220
0
230
1
0
LINE
5
17A
100
AcDbEntity
8
0
62
256
6
ByLayer
370
-2
48
1
60
0
100
AcDbLine
10
90.1
20
-42.5
30
0
11
90.1
21
-46
31
0
39
0
210
0
220
0
230
1
0
SOLID
5
17B
100
AcDbEntity
8
0
62
256
6
ByLayer
370
-1
48
1
60
0
100
AcDbTrace
10
89.516667
20
-31.5
30
0
11
90.683333
21
-31.5
31
0
12
90.1
22
-35
32
0
13
90.1
23
-35
33
0
39
0
210
0
220
0
230
1
0
SOLID
5
17C
100
AcDbEntity
8
0
62
256
6
ByLayer
370
-1
48
1
60
0
100
AcDbTrace
10
90.683333
20
-42.5
30
0
11
89.516667
21
-42.5
31
0
12
90.1
22
-39
32
0
13
90.1
23
-39
33
0
39
0
210
0
220
0
230
1
0
MTEXT
5
17D
100
AcDbEntity
8
0
62
256
6
ByLayer
370
18
48
1
60
0
100
AcDbMText
10
83.1
20
-37
30
0
210
0
220
0
230
1
1
\A1;4
40
3.5
41
0
44
1
50
90
71
5
72
5
7
iso_b_vert
0
POINT
5
17E
100
AcDbEntity
8
Defpoints
62
0
6
ByLayer
370
-1
48
1
60
0
100
AcDbPoint
10
70
20
-35
30
0
39
0
210
0
220
0
230
1
50
360
0
POINT
5
17F
100
AcDbEntity
8
Defpoints
62
0
6
ByLayer
370
-1
48
1
60
0
100
AcDbPoint
10
70
20
-39
30
0
39
0
210
0
220
0
230
1
50
360
0
POINT
5
180
100
AcDbEntity
8
Defpoints
62
0
6
ByLayer
370
-1
48
1
60
0
100
AcDbPoint
10
90.1
20
-39
30
0
39
0
210
0
220
0
230
1
50
360
0
ENDBLK
5
176
100
AcDbEntity
8
0
100
AcDbBlockEnd
0
BLOCK
5
188
100
AcDbEntity
8
0
100
AcDbBlockBegin
2
_U1
70
0
10
0
20
0
30
0
3
_U1
0
MTEXT
5
182
100
AcDbEntity
8
2
62
256
6
ByLayer
370
18
48
1
60
0
100
AcDbMText
10
89.410366
20
-37.8095
30
0
210
0
220
0
230
1
1
\W0.6380;4
40
3.5
41
0
44
1.084337
50
90
71
7
72
5
7
iso_b_vert
0
LINE
5
183
100
AcDbEntity
8
2
62
256
6
ByLayer
370
13
48
1
60
0
100
AcDbLine
10
71.5875
20
-35
30
0
11
92.1
21
-35
31
0
39
0
210
0
220
0
230
1
0
LINE
5
184
100
AcDbEntity
8
2
62
256
6
ByLayer
370
13
48
1
60
0
100
AcDbLine
10
71.5875
20
-39
30
0
11
92.1
21
-39
31
0
39
0
210
0
220
0
230
1
0
LINE
5
185
100
AcDbEntity
8
2
62
256
6
ByLayer
370
13
48
1
60
0
100
AcDbLine
10
90.1
20
-26.25
30
0
11
90.1
21
-47.75
31
0
39
0
210
0
220
0
230
1
0
SOLID
5
186
100
AcDbEntity
8
2
62
256
6
ByLayer
370
18
48
1
60
0
100
AcDbTrace
10
90.1
20
-35
30
0
11
89.639216
21
-31.500002
31
0
12
90.560784
22
-31.499998
32
0
13
90.560784
23
-31.499998
33
0
39
0
210
0
220
0
230
1
0
SOLID
5
187
100
AcDbEntity
8
2
62
256
6
ByLayer
370
18
48
1
60
0
100
AcDbTrace
10
90.1
20
-39
30
0
11
90.560784
21
-42.499998
31
0
12
89.639216
22
-42.500002
32
0
13
89.639216
23
-42.500002
33
0
39
0
210
0
220
0
230
1
0
ENDBLK
5
189
100
AcDbEntity
8
0
100
AcDbBlockEnd
0
BLOCK
5
18E
100
AcDbEntity
8
0
100
AcDbBlockBegin
2
*D5
70
1
10
0
20
0
30
0
3
*D5
0
LINE
5
190
100
AcDbEntity
8
0
62
256
6
ByLayer
370
-2
48
1
60
0
100
AcDbLine
10
52
20
-33.7375
30
0
11
52
21
27.925
31
0
39
0
210
0
220
0
230
1
0
LINE
5
191
100
AcDbEntity
8
0
62
256
6
ByLayer
370
-2
48
1
60
0
100
AcDbLine
10
70
20
-33.4125
30
0
11
70
21
27.925
31
0
39
0
210
0
220
0
230
1
0
LINE
5
192
100
AcDbEntity
8
0
62
256
6
ByLayer
370
-2
48
1
60
0
100
AcDbLine
10
55.5
20
25.925
30
0
11
66.5
21
25.925
31
0
39
0
210
0
220
0
230
1
0
SOLID
5
193
100
AcDbEntity
8
0
62
256
6
ByLayer
370
-1
48
1
60
0
100
AcDbTrace
10
55.5
20
26.508333
30
0
11
55.5
21
25.341667
31
0
12
52
22
25.925
32
0
13
52
23
25.925
33
0
39
0
210
0
220
0
230
1
0
SOLID
5
194
100
AcDbEntity
8
0
62
256
6
ByLayer
370
-1
48
1
60
0
100
AcDbTrace
10
66.5
20
25.341667
30
0
11
66.5
21
26.508333
31
0
12
70
22
25.925
32
0
13
70
23
25.925
33
0
39
0
210
0
220
0
230
1
0
MTEXT
5
195
100
AcDbEntity
8
0
62
256
6
ByLayer
370
18
48
1
60
0
100
AcDbMText
10
61
20
32.925
30
0
210
0
220
0
230
1
1
\A1;18
40
3.5
41
0
44
1
50
0
71
5
72
5
7
iso_b_vert
0
POINT
5
196
100
AcDbEntity
8
Defpoints
62
0
6
ByLayer
370
-1
48
1
60
0
100
AcDbPoint
10
52
20
-35.325
30
0
39
0
210
0
220
0
230
1
50
360
0
POINT
5
197
100
AcDbEntity
8
Defpoints
62
0
6
ByLayer
370
-1
48
1
60
0
100
AcDbPoint
10
70
20
-35
30
0
39
0
210
0
220
0
230
1
50
360
0
POINT
5
198
100
AcDbEntity
8
Defpoints
62
0
6
ByLayer
370
-1
48
1
60
0
100
AcDbPoint
10
70
20
25.925
30
0
39
0
210
0
220
0
230
1
50
360
0
ENDBLK
5
18F
100
AcDbEntity
8
0
100
AcDbBlockEnd
0
BLOCK
5
1A0
100
AcDbEntity
8
0
100
AcDbBlockBegin
2
_U2
70
0
10
0
20
0
30
0
3
_U2
0
MTEXT
5
19A
100
AcDbEntity
8
2
62
256
6
ByLayer
370
18
48
1
60
0
100
AcDbMText
10
59.532467
20
26.957634
30
0
210
0
220
0
230
1
1
\W0.5321;18
40
3.5
41
0
44
1.084337
50
0
71
7
72
5
7
iso_b_vert
0
LINE
5
19B
100
AcDbEntity
8
2
62
256
6
ByLayer
370
13
48
1
60
0
100
AcDbLine
10
52
20
-33.7375
30
0
11
52
21
27.925
31
0
39
0
210
0
220
0
230
1
0
LINE
5
19C
100
AcDbEntity
8
2
62
256
6
ByLayer
370
13
48
1
60
0
100
AcDbLine
10
70
20
-33.4125
30
0
11
70
21
27.925
31
0
39
0
210
0
220
0
230
1
0
LINE
5
19D
100
AcDbEntity
8
2
62
256
6
ByLayer
370
13
48
1
60
0
100
AcDbLine
10
52
20
25.925
30
0
11
70
21
25.925
31
0
39
0
210
0
220
0
230
1
0
SOLID
5
19E
100
AcDbEntity
8
2
62
256
6
ByLayer
370
18
48
1
60
0
100
AcDbTrace
10
52
20
25.925
30
0
11
55.499998
21
26.385784
31
0
12
55.500002
22
25.464216
32
0
13
55.500002
23
25.464216
33
0
39
0
210
0
220
0
230
1
0
SOLID
5
19F
100
AcDbEntity
8
2
62
256
6
ByLayer
370
18
48
1
60
0
100
AcDbTrace
10
70
20
25.925
30
0
11
66.500002
21
25.464216
31
0
12
66.499998
22
26.385784
32
0
13
66.499998
23
26.385784
33
0
39
0
210
0
220
0
230
1
0
ENDBLK
5
1A1
100
AcDbEntity
8
0
100
AcDbBlockEnd
0
BLOCK
5
1A6
100
AcDbEntity
8
0
100
AcDbBlockBegin
2
*D7
70
1
10
0
20
0
30
0
3
*D7
0
LINE
5
1A8
100
AcDbEntity
8
0
62
256
6
ByLayer
370
-2
48
1
60
0
100
AcDbLine
10
0
20
-1.5875
30
0
11
0
21
-59.25
31
0
39
0
210
0
220
0
230
1
0
LINE
5
1A9
100
AcDbEntity
8
0
62
256
6
ByLayer
370
-2
48
1
60
0
100
AcDbLine
10
70
20
-40.5875
30
0
11
70
21
-59.25
31
0
39
0
210
0
220
0
230
1
0
LINE
5
1AA
100
AcDbEntity
8
0
62
256
6
ByLayer
370
-2
48
1
60
0
100
AcDbLine
10
3.5
20
-57.25
30
0
11
66.5
21
-57.25
31
0
39
0
210
0
220
0
230
1
0
SOLID
5
1AB
100
AcDbEntity
8
0
62
256
6
ByLayer
370
-1
48
1
60
0
100
AcDbTrace
10
3.5
20
-56.666667
30
0
11
3.5
21
-57.833333
31
0
12
0
22
-57.25
32
0
13
0
23
-57.25
33
0
39
0
210
0
220
0
230
1
0
SOLID
5
1AC
100
AcDbEntity
8
0
62
256
6
ByLayer
370
-1
48
1
60
0
100
AcDbTrace
10
66.5
20
-57.833333
30
0
11
66.5
21
-56.666667
31
0
12
70
22
-57.25
32
0
13
70
23
-57.25
33
0
39
0
210
0
220
0
230
1
0
MTEXT
5
1AD
100
AcDbEntity
8
0
62
256
6
ByLayer
370
18
48
1
60
0
100
AcDbMText
10
35
20
-50.25
30
0
210
0
220
0
230
1
1
\A1;70
40
3.5
41
0
44
1
50
0
71
5
72
5
7
iso_b_vert
0
POINT
5
1AE
100
AcDbEntity
8
Defpoints
62
0
6
ByLayer
370
-1
48
1
60
0
100
AcDbPoint
10
0
20
0
30
0
39
0
210
0
220
0
230
1
50
360
0
POINT
5
1AF
100
AcDbEntity
8
Defpoints
62
0
6
ByLayer
370
-1
48
1
60
0
100
AcDbPoint
10
70
20
-39
30
0
39
0
210
0
220
0
230
1
50
360
0
POINT
5
1B0
100
AcDbEntity
8
Defpoints
62
0
6
ByLayer
370
-1
48
1
60
0
100
AcDbPoint
10
70
20
-57.25
30
0
39
0
210
0
220
0
230
1
50
360
0
ENDBLK
5
1A7
100
AcDbEntity
8
0
100
AcDbBlockEnd
0
BLOCK
5
1B8
100
AcDbEntity
8
0
100
AcDbBlockBegin
2
_U3
70
0
10
0
20
0
30
0
3
_U3
0
MTEXT
5
1B2
100
AcDbEntity
8
2
62
256
6
ByLayer
370
18
48
1
60
0
100
AcDbMText
10
33.095034
20
-56.217366
30
0
210
0
220
0
230
1
1
\W0.6740;70
40
3.5
41
0
44
1.084337
50
0
71
7
72
5
7
iso_b_vert
0
LINE
5
1B3
100
AcDbEntity
8
2
62
256
6
ByLayer
370
13
48
1
60
0
100
AcDbLine
10
0
20
-1.5875
30
0
11
0
21
-59.25
31
0
39
0
210
0
220
0
230
1
0
LINE
5
1B4
100
AcDbEntity
8
2
62
256
6
ByLayer
370
13
48
1
60
0
100
AcDbLine
10
70
20
-40.5875
30
0
11
70
21
-59.25
31
0
39
0
210
0
220
0
230
1
0
LINE
5
1B5
100
AcDbEntity
8
2
62
256
6
ByLayer
370
13
48
1
60
0
100
AcDbLine
10
0
20
-57.25
30
0
11
70
21
-57.25
31
0
39
0
210
0
220
0
230
1
0
SOLID
5
1B6
100
AcDbEntity
8
2
62
256
6
ByLayer
370
18
48
1
60
0
100
AcDbTrace
10
0
20
-57.25
30
0
11
3.499998
21
-56.789216
31
0
12
3.500002
22
-57.710784
32
0
13
3.500002
23
-57.710784
33
0
39
0
210
0
220
0
230
1
0
SOLID
5
1B7
100
AcDbEntity
8
2
62
256
6
ByLayer
370
18
48
1
60
0
100
AcDbTrace
10
70
20
-57.25
30
0
11
66.500002
21
-57.710784
31
0
12
66.499998
22
-56.789216
32
0
13
66.499998
23
-56.789216
33
0
39
0
210
0
220
0
230
1
0
ENDBLK
5
1B9
100
AcDbEntity
8
0
100
AcDbBlockEnd
0
ENDSEC
0
SECTION
2
ENTITIES
0
ARC
5
EF
100
AcDbEntity
8
1
62
256
6
ByLayer
370
18
48
1
60
0
100
AcDbCircle
39
0
10
22.279208
20
-32.7
30
0
40
1.2
210
0
220
0
230
1
100
AcDbArc
50
60.49899
51
90
0
ARC
5
F0
100
AcDbEntity
8
SK1
62
256
6
ByLayer
370
18
48
1
60
0
100
AcDbCircle
39
0
10
-0.6
20
23.45
30
0
40
0.999999999999994
210
0
220
0
230
1
100
AcDbArc
50
293.578178
51
306.869898
0
ARC
5
F1
100
AcDbEntity
8
SK1
62
256
6
ByLayer
370
18
48
1
60
0
100
AcDbCircle
39
0
10
-0.6
20
-23.45
30
0
40
0.999999999999994
210
0
220
0
230
1
100
AcDbArc
50
53.130102
51
66.421822
0
ARC
5
F5
100
AcDbEntity
8
1
62
256
6
ByLayer
370
18
48
1
60
0
100
AcDbCircle
39
0
10
31.4
20
-32.65
30
0
40
1
210
0
220
0
230
1
100
AcDbArc
50
360
51
90
0
ARC
5
F6
100
AcDbEntity
8
1
62
256
6
ByLayer
370
18
48
1
60
0
100
AcDbCircle
39
0
10
69.7
20
-38.7
30
0
40
0.3
210
0
220
0
230
1
100
AcDbArc
50
267.5
51
0
0
ARC
5
F7
100
AcDbEntity
8
1
62
256
6
ByLayer
370
18
48
1
60
0
100
AcDbCircle
39
0
10
69.7
20
-35.3
30
0
40
0.3
210
0
220
0
230
1
100
AcDbArc
50
0
51
92.5
0
ARC
5
F8
100
AcDbEntity
8
1
62
256
6
ByLayer
370
18
48
1
60
0
100
AcDbCircle
39
0
10
62.55644
20
-36.332701
30
0
40
0.0999999999845752
210
0
220
0
230
1
100
AcDbArc
50
190.000001
51
218.049181
0
ARC
5
F9
100
AcDbEntity
8
1
62
256
6
ByLayer
370
18
48
1
60
0
100
AcDbCircle
39
0
10
62.55644
20
-37.667299
30
0
40
0.0999999999845752
210
0
220
0
230
1
100
AcDbArc
50
141.950819
51
169.999999
0
CIRCLE
5
F2
100
AcDbEntity
8
1
62
256
6
ByLayer
370
18
48
1
60
0
100
AcDbCircle
10
43.65
20
-26.85
30
0
40
2.55
39
0
210
0
220
0
230
1
0
CIRCLE
5
F3
100
AcDbEntity
8
1
62
256
6
ByLayer
370
18
48
1
60
0
100
AcDbCircle
10
43.65
20
-26.85
30
0
40
3.3
39
0
210
0
220
0
230
1
0
CIRCLE
5
F4
100
AcDbEntity
8
1
62
256
6
ByLayer
370
18
48
1
60
0
100
AcDbCircle
10
43.65
20
-26.85
30
0
40
5.75
39
0
210
0
220
0
230
1
0
ELLIPSE
5
FA
100
AcDbEntity
8
1
62
256
6
ByLayer
370
18
48
1
60
0
100
AcDbEllipse
10
74.090909
20
-150.2
30
0
11
6.8287111802982E-15
21
111.524999996671
31
0
210
0
220
0
230
1
40
0.545455
41
0.0837862586621047
42
0.256804845220963
0
ELLIPSE
5
FB
100
AcDbEntity
8
1
62
256
6
ByLayer
370
18
48
1
60
0
100
AcDbEllipse
10
60.783148
20
-37.048153
30
0
11
0.0697929216969235
21
0.797102797244691
31
0
210
0
220
0
230
1
40
0.976731
41
0
42
6.28318530717959
0
ELLIPSE
5
FC
100
AcDbEntity
8
1
62
256
6
ByLayer
370
18
48
1
60
0
100
AcDbEllipse
10
62.929864
20
-105
30
0
11
4.26622236250183E-15
21
69.6749996304629
31
0
210
0
220
0
230
1
40
0.885973
41
0.0210806403856961
42
0.0718234868496042
0
ELLIPSE
5
FD
100
AcDbEntity
8
1
62
256
6
ByLayer
370
18
48
1
60
0
100
AcDbEllipse
10
-767.825612
20
-105.167111
30
0
11
5411.22518972683
21
12.1415619468725
31
0
210
0
220
0
230
1
40
0.01271
41
1.41689985859412
42
1.41867752130437
0
ELLIPSE
5
FE
100
AcDbEntity
8
1
62
256
6
ByLayer
370
18
48
1
60
0
100
AcDbEllipse
10
62.929864
20
-150.2
30
0
11
6.8287111568539E-15
21
111.524999613784
31
0
210
0
220
0
230
1
40
0.885973
41
0.0132027967688204
42
0.0448480298007736
0
ELLIPSE
5
FF
100
AcDbEntity
8
1
62
256
6
ByLayer
370
18
48
1
60
0
100
AcDbEllipse
10
65.64074
20
-105
30
0
11
99.5062123995137
21
1.16567086324698E-13
31
0
210
0
220
0
230
1
40
0.700208
41
1.64261981343323
42
1.70831365484259
0
ELLIPSE
5
100
100
AcDbEntity
8
1
62
256
6
ByLayer
370
18
48
1
60
0
100
AcDbEllipse
10
65.64074
20
-150.2
30
0
11
159.274206687641
21
1.86582623863862E-13
31
0
210
0
220
0
230
1
40
0.700208
41
1.61564435645261
42
1.66148323292776
0
ELLIPSE
5
101
100
AcDbEntity
8
1
62
256
6
ByLayer
370
18
48
1
60
0
100
AcDbEllipse
10
51.149664
20
-35.325
30
0
11
-2.78951487299375
21
3.41605763755017E-16
31
0
210
0
220
0
230
1
40
0.573576
41
-1.29870801006719
42
0
0
ELLIPSE
5
102
100
AcDbEntity
8
1
62
256
6
ByLayer
370
18
48
1
60
0
100
AcDbEllipse
10
26.347154
20
0
30
0
11
14.7536831606563
21
31.0932549155809
31
0
210
0
220
0
230
1
40
0.341999
41
2.05035306783696
42
2.98378646694437
0
ELLIPSE
5
103
100
AcDbEntity
8
1
62
256
6
ByLayer
370
18
48
1
60
0
100
AcDbEllipse
10
-2.347154
20
0
30
0
11
14.7536831606553
21
-31.0932549155799
31
0
210
0
220
0
230
1
40
0.341999
41
0.157806186645437
42
1.09123958575286
0
ELLIPSE
5
104
100
AcDbEntity
8
1
62
256
6
ByLayer
370
18
48
1
60
0
100
AcDbEllipse
10
-2.347154
20
0
30
0
11
14.7536831606541
21
31.0932549155786
31
0
210
0
220
0
230
1
40
0.341999
41
-1.09123958575289
42
-0.15780618664544
0
ELLIPSE
5
105
100
AcDbEntity
8
1
62
256
6
ByLayer
370
18
48
1
60
0
100
AcDbEllipse
10
26.347154
20
0
30
0
11
14.7536831606566
21
-31.0932549155812
31
0
210
0
220
0
230
1
40
0.341999
41
-2.98378646694437
42
-2.05035306783697
0
ELLIPSE
5
106
100
AcDbEntity
8
1
62
256
6
ByLayer
370
18
48
1
60
0
100
AcDbEllipse
10
22.274896
20
0
30
0
11
1.92875500727009E-15
21
31.4999999999975
31
0
210
0
220
0
230
1
40
0.008727
41
0.785398163397387
42
2.60640439933967
0
ELLIPSE
5
107
100
AcDbEntity
8
1
62
256
6
ByLayer
370
18
48
1
60
0
100
AcDbEllipse
10
26.093966
20
20.75
30
0
11
4.00000000192284
21
4.68582146058261E-15
31
0
210
0
220
0
230
1
40
1
41
-3.13286600733168
42
-2.99876135256378
0
ELLIPSE
5
108
100
AcDbEntity
8
1
62
256
6
ByLayer
370
18
48
1
60
0
100
AcDbEllipse
10
62.434518
20
-35.641251
30
0
11
0.010661639262803
21
-0.0994300222659567
31
0
210
0
220
0
230
1
40
1
41
-1.67761574668812
42
-1.50308282049733
0
ELLIPSE
5
109
100
AcDbEntity
8
1
62
256
6
ByLayer
370
18
48
1
60
0
100
AcDbEllipse
10
62.434518
20
-38.358749
30
0
11
0.010661639262803
21
0.0994300222659567
31
0
210
0
220
0
230
1
40
1
41
1.50308282049733
42
1.67761574668812
0
POINT
5
70
100
AcDbEntity
8
81
62
256
6
ByLayer
370
18
48
1
60
0
100
AcDbPoint
10
70
20
-39
30
0
39
0
210
0
220
0
230
1
50
360
0
POINT
5
72
100
AcDbEntity
8
80
62
256
6
ByLayer
370
18
48
1
60
0
100
AcDbPoint
10
0
20
0
30
0
39
0
210
0
220
0
230
1
50
360
0
POINT
5
74
100
AcDbEntity
8
1
62
256
6
ByLayer
370
18
48
1
60
1
100
AcDbPoint
10
70
20
-39
30
0
39
0
210
0
220
0
230
1
50
360
0
POINT
5
76
100
AcDbEntity
8
1
62
256
6
ByLayer
370
18
48
1
60
1
100
AcDbPoint
10
0
20
0
30
0
39
0
210
0
220
0
230
1
50
360
0
POINT
5
77
100
AcDbEntity
8
1
62
256
6
ByLayer
370
18
48
1
60
1
100
AcDbPoint
10
70
20
-35
30
0
39
0
210
0
220
0
230
1
50
360
0
POINT
5
78
100
AcDbEntity
8
1
62
256
6
ByLayer
370
18
48
1
60
1
100
AcDbPoint
10
70
20
-39
30
0
39
0
210
0
220
0
230
1
50
360
0
POINT
5
79
100
AcDbEntity
8
1
62
256
6
ByLayer
370
18
48
1
60
1
100
AcDbPoint
10
52
20
-35.325
30
0
39
0
210
0
220
0
230
1
50
360
0
POINT
5
7A
100
AcDbEntity
8
1
62
256
6
ByLayer
370
18
48
1
60
1
100
AcDbPoint
10
70
20
-35
30
0
39
0
210
0
220
0
230
1
50
360
0
POINT
5
7B
100
AcDbEntity
8
1
62
256
6
ByLayer
370
18
48
1
60
1
100
AcDbPoint
10
0
20
0
30
0
39
0
210
0
220
0
230
1
50
360
0
POINT
5
7C
100
AcDbEntity
8
1
62
256
6
ByLayer
370
18
48
1
60
1
100
AcDbPoint
10
70
20
-39
30
0
39
0
210
0
220
0
230
1
50
360
0
SPLINE
5
10A
100
AcDbEntity
8
SK1
62
256
6
ByLayer
370
18
48
1
60
0
100
AcDbSpline
70
4
71
3
72
11
73
7
40
0
40
0
40
0
40
0
40
0.238901120687798
40
0.497438785334105
40
0.757398627101372
40
1
40
1
40
1
40
1
41
1
10
-0.394913799811292
20
-21.8654753908016
30
0
41
1
10
-0.369683556830324
20
-21.8664032520323
30
0
41
1
10
-0.321112940270211
20
-21.8764518787731
30
0
41
1
10
-0.255178473897388
20
-21.9196695750854
30
0
41
1
10
-0.211248088565583
20
-21.9856476021506
30
0
41
1
10
-0.200957649232748
20
-22.03467763457
30
0
41
1
10
-0.199999999999989
20
-22.0603316233164
30
0
0
SPLINE
5
10B
100
AcDbEntity
8
SK1
62
256
6
ByLayer
370
18
48
1
60
0
100
AcDbSpline
70
4
71
3
72
11
73
7
40
0
40
0
40
0
40
0
40
0.242601372378524
40
0.502561213915428
40
0.761098878799764
40
1
40
1
40
1
40
1
41
1
10
-0.200000000000017
20
22.0603316944385
30
0
41
1
10
-0.200957649243719
20
22.0346777057893
30
0
41
1
10
-0.211248088575957
20
21.9856476735436
30
0
41
1
10
-0.255178473954459
20
21.9196696467454
30
0
41
1
10
-0.321112940313157
20
21.8764519506625
30
0
41
1
10
-0.369683556841096
20
21.8664033239634
30
0
41
1
10
-0.394913799811292
20
21.8654754627471
30
0
0
SPLINE
5
10C
100
AcDbEntity
8
SK1
62
256
6
ByLayer
370
18
48
1
60
0
100
AcDbSpline
70
4
71
2
72
6
73
3
40
0
40
0
40
0
40
1
40
1
40
1
41
1
10
-38
20
-20.2900294978113
30
0
41
1
10
-37.2500000202692
20
-20.7228363924584
30
0
41
1
10
-36.5
20
-21.1556411500792
30
0
0
SPLINE
5
10D
100
AcDbEntity
8
SK1
62
256
6
ByLayer
370
18
48
1
60
0
100
AcDbSpline
70
4
71
2
72
6
73
3
40
0
40
0
40
0
40
1
40
1
40
1
41
1
10
-36.5
20
21.1556411516461
30
0
41
1
10
-37.2500000202654
20
20.7228363958853
30
0
41
1
10
-38
20
20.2900295032223
30
0
0
SPLINE
5
10E
100
AcDbEntity
8
SK1
62
256
6
ByLayer
370
18
48
1
60
0
100
AcDbSpline
70
4
71
2
72
6
73
3
40
0
40
0
40
0
40
1
40
1
40
1
41
1
10
-0.394913799811292
20
21.8654706047072
30
0
41
1
10
-1.19497688887515
20
21.8453761856051
30
0
41
1
10
-1.99503997793928
20
21.8252817664983
30
0
0
SPLINE
5
10F
100
AcDbEntity
8
SK1
62
256
6
ByLayer
370
18
48
1
60
0
100
AcDbSpline
70
4
71
2
72
6
73
3
40
0
40
0
40
0
40
1
40
1
40
1
41
1
10
-1.99503997793928
20
-21.8252816998361
30
0
41
1
10
-1.19497688887515
20
-21.8453761190377
30
0
41
1
10
-0.394913799811292
20
-21.8654705382346
30
0
0
SPLINE
5
110
100
AcDbEntity
8
SK1
62
256
6
ByLayer
370
18
48
1
60
0
100
AcDbSpline
70
4
71
3
72
13
73
9
40
0
40
0
40
0
40
0
40
0.239488447124402
40
0.368403116875447
40
0.500046646502274
40
0.631682416179057
40
0.760575690290979
40
1
40
1
40
1
40
1
41
1
10
-1.99503997793928
20
21.8252865969123
30
0
41
1
10
-2.02110964950145
20
21.8248846680468
30
0
41
1
10
-2.05883938574669
20
21.8310551805396
30
0
41
1
10
-2.10627619975313
20
21.8540921087329
30
0
41
1
10
-2.13886292182102
20
21.8792519577777
30
0
41
1
10
-2.16563526914683
20
21.910524358218
30
0
41
1
10
-2.19103234710033
20
21.956729688326
30
0
41
1
10
-2.19909149084521
20
21.994092162624
30
0
41
1
10
-2.19999999999999
20
22.0201428284389
30
0
0
SPLINE
5
111
100
AcDbEntity
8
SK1
62
256
6
ByLayer
370
18
48
1
60
0
100
AcDbSpline
70
4
71
3
72
13
73
9
40
0
40
0
40
0
40
0
40
0.23942431023712
40
0.368317584520307
40
0.499953354254703
40
0.631596883812696
40
0.760511553386832
40
1
40
1
40
1
40
1
41
1
10
-2.19999999999999
20
-22.0201427571469
30
0
41
1
10
-2.19909149085342
20
-21.9940920912339
30
0
41
1
10
-2.19103234710852
20
-21.9567296167895
30
0
41
1
10
-2.16563526915772
20
-21.9105242864784
30
0
41
1
10
-2.13886292183542
20
-21.8792518859041
30
0
41
1
10
-2.10627619976853
20
-21.8540920367489
30
0
41
1
10
-2.05883938576716
20
-21.8310551084546
30
0
41
1
10
-2.02110964951223
20
-21.8248845959364
30
0
41
1
10
-1.99503997793928
20
-21.825286524797
30
0
0
SPLINE
5
112
100
AcDbEntity
8
SK1
62
256
6
ByLayer
370
18
48
1
60
0
100
AcDbSpline
70
4
71
2
72
6
73
3
40
0
40
0
40
0
40
1
40
1
40
1
41
1
10
-2.19999999999999
20
22.0136645469338
30
0
41
1
10
-19.3500000008244
20
21.5830602558515
30
0
41
1
10
-36.5
20
21.152454254977
30
0
0
SPLINE
5
113
100
AcDbEntity
8
SK1
62
256
6
ByLayer
370
18
48
1
60
0
100
AcDbSpline
70
4
71
2
72
6
73
3
40
0
40
0
40
0
40
1
40
1
40
1
41
1
10
-36.5
20
-21.1524539804128
30
0
41
1
10
-19.3500000008246
20
-21.5830599810351
30
0
41
1
10
-2.19999999999999
20
-22.0136642719968
30
0
0
SPLINE
5
114
100
AcDbEntity
8
1
62
256
6
ByLayer
370
18
48
1
60
0
100
AcDbSpline
70
4
71
3
72
8
73
4
40
0
40
0
40
0
40
0
40
1
40
1
40
1
40
1
41
1
10
23.5768491959797
20
-32.65
30
0
41
1
10
24.1175118215758
20
-34.6836272474595
30
0
41
1
10
24.6588894786888
20
-36.7170656461103
30
0
41
1
10
25.2006927860926
20
-38.7503897494478
30
0
0
SPLINE
5
115
100
AcDbEntity
8
1
62
256
6
ByLayer
370
18
48
1
60
0
100
AcDbSpline
70
4
71
3
72
15
73
11
40
0
40
0
40
0
40
0
40
0.250000000000006
40
0.250000000000006
40
0.374999999999993
40
0.374999999999993
40
0.49999999999998
40
0.49999999999998
40
0.74999999999999
40
1
40
1
40
1
40
1
41
1
10
23.4383186059721
20
-32.1459721466515
30
0
41
1
10
23.4492766947907
20
-32.1844119997969
30
0
41
1
10
23.4604707436426
20
-32.224060484028
30
0
41
1
10
23.4776053763619
20
-32.2853159216485
30
0
41
1
10
23.4833901798496
20
-32.306089587918
30
0
41
1
10
23.4949889519702
20
-32.3479273256336
30
0
41
1
10
23.5007976884182
20
-32.3689718997741
30
0
41
1
10
23.5182507052433
20
-32.432473575086
30
0
41
1
10
23.5415925208741
20
-32.5181206426743
30
0
41
1
10
23.5650726078035
20
-32.605704001972
30
0
41
1
10
23.5768491959797
20
-32.65
30
0
0
SPLINE
5
116
100
AcDbEntity
8
1
62
256
6
ByLayer
370
18
48
1
60
0
100
AcDbSpline
70
4
71
3
72
37
73
33
40
0
40
0
40
0
40
0
40
0.0312499999999978
40
0.0312499999999978
40
0.0624999999999956
40
0.124999999999991
40
0.124999999999991
40
0.249999999999982
40
0.249999999999982
40
0.281249999999978
40
0.281249999999978
40
0.312499999999973
40
0.312499999999973
40
0.374999999999968
40
0.374999999999968
40
0.499999999999963
40
0.499999999999963
40
0.53124999999996
40
0.53124999999996
40
0.562499999999958
40
0.624999999999961
40
0.687499999999965
40
0.687499999999965
40
0.718749999999962
40
0.718749999999962
40
0.749999999999959
40
0.749999999999959
40
0.874999999999978
40
0.874999999999978
40
0.937499999999989
40
0.937499999999989
40
1
40
1
40
1
40
1
41
1
10
30.6979991993593
20
-31.65
30
0
41
1
10
30.7161596625569
20
-31.65
30
0
41
1
10
30.7343436715721
20
-31.6503025762777
30
0
41
1
10
30.7705404692685
20
-31.6515196643775
30
0
41
1
10
30.8246748030338
20
-31.6542634146375
30
0
41
1
10
30.8783209647337
20
-31.6597933881372
30
0
41
1
10
30.9849379288975
20
-31.6747079219338
30
0
41
1
10
31.0551208774945
20
-31.6897592794783
30
0
41
1
10
31.1415829778381
20
-31.7158024637559
30
0
41
1
10
31.1588116390368
20
-31.7213750019034
30
0
41
1
10
31.1931357597246
20
-31.7332803218201
30
0
41
1
10
31.2102683325626
20
-31.7396289977521
30
0
41
1
10
31.2610060787218
20
-31.7596878790594
30
0
41
1
10
31.2940493017973
20
-31.7744353258395
30
0
41
1
10
31.3907724756647
20
-31.8229089218058
30
0
41
1
10
31.4520714248128
20
-31.8608215019205
30
0
41
1
10
31.5242042253866
20
-31.9161083927452
30
0
41
1
10
31.5384465541441
20
-31.9276015592398
30
0
41
1
10
31.5661892927071
20
-31.9511913425106
30
0
41
1
10
31.6067111080115
20
-31.9874857382757
30
0
41
1
10
31.6688047152749
20
-32.0525094185346
30
0
41
1
10
31.7125622959425
20
-32.1094566175086
30
0
41
1
10
31.7430477949145
20
-32.1541098054289
30
0
41
1
10
31.7528200581636
20
-32.1693186563508
30
0
41
1
10
31.7715554404667
20
-32.2004102576542
30
0
41
1
10
31.7805452052648
20
-32.2163445309867
30
0
41
1
10
31.8230509325826
20
-32.2971584961779
30
0
41
1
10
31.8488697960024
20
-32.3644367321645
30
0
41
1
10
31.8752531168167
20
-32.4693159907482
30
0
41
1
10
31.8819729542626
20
-32.5049415512714
30
0
41
1
10
31.8910147230195
20
-32.5776041037324
30
0
41
1
10
31.8932370625239
20
-32.6138738724258
30
0
41
1
10
31.8932370625238
20
-32.65
30
0
0
SPLINE
5
117
100
AcDbEntity
8
1
62
256
6
ByLayer
370
18
48
1
60
0
100
AcDbSpline
70
4
71
3
72
12
73
8
40
0
40
0
40
0
40
0
40
0.202756315560786
40
0.202756315560786
40
0.601378157777659
40
0.601378157777659
40
1
40
1
40
1
40
1
41
1
10
60.3359708678042
20
-38.7707203178528
30
0
41
1
10
60.5028819298735
20
-38.770579187563
30
0
41
1
10
60.669792992076
20
-38.7704382146872
30
0
41
1
10
61.1648536115301
20
-38.770020553968
30
0
41
1
10
61.493003169163
20
-38.7697443171222
30
0
41
1
10
62.1493022854539
20
-38.7691930600912
30
0
41
1
10
62.4774518441131
20
-38.768918039906
30
0
41
1
10
62.8056014032804
20
-38.7686436279792
30
0
0
SPLINE
5
118
100
AcDbEntity
8
1
62
256
6
ByLayer
370
18
48
1
60
0
100
AcDbSpline
70
4
71
3
72
19
73
15
40
0
40
0
40
0
40
0
40
0.125
40
0.125
40
0.25
40
0.25
40
0.5
40
0.5
40
0.625
40
0.625
40
0.75
40
0.75
40
0.875
40
1
40
1
40
1
40
1
41
1
10
25.2006927860926
20
-38.7503897494478
30
0
41
1
10
25.240095882165
20
-38.7885403559806
30
0
41
1
10
25.2941190804884
20
-38.8410383055099
30
0
41
1
10
25.42959227229
20
-38.9742298885299
30
0
41
1
10
25.5110358866165
20
-39.0549235254421
30
0
41
1
10
25.7932042039753
20
-39.3387040918796
30
0
41
1
10
26.0317583421852
20
-39.5834419248002
30
0
41
1
10
26.4508832842613
20
-40.0324042032633
30
0
41
1
10
26.6008022345349
20
-40.1957132604291
30
0
41
1
10
26.9187641905935
20
-40.5495379898726
30
0
41
1
10
27.0868052026607
20
-40.7400538243253
30
0
41
1
10
27.4388920192582
20
-41.1482771135132
30
0
41
1
10
27.8069818652996
20
-41.5836922852679
30
0
41
1
10
28.203295969988
20
-42.0736277965838
30
0
41
1
10
28.4076828266753
20
-42.3323
30
0
0
SPLINE
5
119
100
AcDbEntity
8
1
62
256
6
ByLayer
370
18
48
1
60
0
100
AcDbSpline
70
4
71
3
72
31
73
27
40
0
40
0
40
0
40
0
40
0.0312500000000006
40
0.0312500000000006
40
0.062500000000001
40
0.062500000000001
40
0.124999999999999
40
0.124999999999999
40
0.249999999999999
40
0.249999999999999
40
0.312499999999999
40
0.343749999999998
40
0.343749999999998
40
0.374999999999998
40
0.374999999999998
40
0.5
40
0.5
40
0.625000000000002
40
0.625000000000002
40
0.687500000000002
40
0.687500000000002
40
0.750000000000001
40
0.750000000000001
40
0.875000000000001
40
0.875000000000001
40
1
40
1
40
1
40
1
41
1
10
31.8932370625238
20
-38.691185886496
30
0
41
1
10
31.8708392606209
20
-38.6918906233649
30
0
41
1
10
31.8477069710987
20
-38.6926132257352
30
0
41
1
10
31.7999550100352
20
-38.6940920139853
30
0
41
1
10
31.775302721577
20
-38.6948491912119
30
0
41
1
10
31.699300637379
20
-38.6971610665999
30
0
41
1
10
31.64620613383
20
-38.6987470512249
30
0
41
1
10
31.4798335370917
20
-38.7036023724693
30
0
41
1
10
31.3594972003488
20
-38.706968995924
30
0
41
1
10
31.1650271028605
20
-38.7120722300938
30
0
41
1
10
31.0642889342653
20
-38.714637244686
30
0
41
1
10
30.9582198159703
20
-38.7171957049999
30
0
41
1
10
30.8863061496098
20
-38.7188968499368
30
0
41
1
10
30.849715501957
20
-38.7197459418585
30
0
41
1
10
30.664077227498
20
-38.7239641930052
30
0
41
1
10
30.509282908879
20
-38.7271997988906
30
0
41
1
10
30.1876143368821
20
-38.7332277897228
30
0
41
1
10
30.0207386974587
20
-38.7360206668757
30
0
41
1
10
29.7612291043063
20
-38.7397576884095
30
0
41
1
10
29.6731426242747
20
-38.7409285203188
30
0
41
1
10
29.4939926614089
20
-38.7430962935132
30
0
41
1
10
29.4038707312597
20
-38.7440818743923
30
0
41
1
10
29.1319078658722
20
-38.7467311736241
30
0
41
1
10
28.9484767876357
20
-38.7480873879219
30
0
41
1
10
28.5774243679331
20
-38.7499165815449
30
0
41
1
10
28.3898035626643
20
-38.7503897494478
30
0
41
1
10
28.2
20
-38.7503897494478
30
0
0
SPLINE
5
11A
100
AcDbEntity
8
1
62
256
6
ByLayer
370
18
48
1
60
0
100
AcDbSpline
70
4
71
3
72
33
73
29
40
0
40
0
40
0
40
0
40
0.124999999999974
40
0.124999999999974
40
0.187499999999961
40
0.187499999999961
40
0.249999999999948
40
0.249999999999948
40
0.374999999999927
40
0.374999999999927
40
0.406249999999918
40
0.406249999999918
40
0.437499999999908
40
0.437499999999908
40
0.499999999999908
40
0.499999999999908
40
0.624999999999907
40
0.624999999999907
40
0.656249999999915
40
0.656249999999915
40
0.687499999999923
40
0.687499999999923
40
0.749999999999938
40
0.812499999999954
40
0.812499999999954
40
0.874999999999969
40
0.874999999999969
40
1
40
1
40
1
40
1
41
1
10
31.2397368307141
20
-31.65
30
0
41
1
10
31.3071055833143
20
-31.65
30
0
41
1
10
31.3735131192457
20
-31.6560926942454
30
0
41
1
10
31.4716360317391
20
-31.6742157749747
30
0
41
1
10
31.5040980234736
20
-31.6817637186531
30
0
41
1
10
31.5685154439816
20
-31.6999671223375
30
0
41
1
10
31.600599587541
20
-31.7106842391689
30
0
41
1
10
31.6942590621149
20
-31.7470074317023
30
0
41
1
10
31.7537383245528
20
-31.7768276981421
30
0
41
1
10
31.8243435742831
20
-31.8211910993284
30
0
41
1
10
31.8382758559521
20
-31.8304211683924
30
0
41
1
10
31.8657552067244
20
-31.8496106169166
30
0
41
1
10
31.879331242548
20
-31.8595926841259
30
0
41
1
10
31.9192581400242
20
-31.8905010109516
30
0
41
1
10
31.9446575523051
20
-31.912259099656
30
0
41
1
10
32.0172761539375
20
-31.9809191664988
30
0
41
1
10
32.0609510550853
20
-32.0311735123727
30
0
41
1
10
32.1093565962302
20
-32.0998444499674
30
0
41
1
10
32.1187359240041
20
-32.1138950568287
30
0
41
1
10
32.1366582573285
20
-32.1422812788688
30
0
41
1
10
32.1452277297467
20
-32.1566521540257
30
0
41
1
10
32.1697769675525
20
-32.2002908544577
30
0
41
1
10
32.1994237772518
20
-32.2598760962957
30
0
41
1
10
32.2229298975619
20
-32.3222481913133
30
0
41
1
10
32.243288334735
20
-32.3860488117296
30
0
41
1
10
32.2519070702787
20
-32.418804833698
30
0
41
1
10
32.2724024636134
20
-32.517099031744
30
0
41
1
10
32.2792156108743
20
-32.5832436260867
30
0
41
1
10
32.2792156108743
20
-32.65
30
0
0
SPLINE
5
11B
100
AcDbEntity
8
1
62
256
6
ByLayer
370
18
48
1
60
0
100
AcDbSpline
70
4
71
3
72
10
73
6
40
0
40
0
40
0
40
0
40
0.5
40
0.5
40
1
40
1
40
1
40
1
41
1
10
61.774406808652
20
-37.5
30
0
41
1
10
61.7501628086306
20
-37.6976237874399
30
0
41
1
10
61.7257367706959
20
-37.8951971263743
30
0
41
1
10
61.6762154759956
20
-38.2901521924168
30
0
41
1
10
61.6511388463473
20
-38.4875381385191
30
0
41
1
10
61.6253582269336
20
-38.684720034414
30
0
0
SPLINE
5
11C
100
AcDbEntity
8
1
62
256
6
ByLayer
370
18
48
1
60
0
100
AcDbSpline
70
4
71
3
72
8
73
4
40
0
40
0
40
0
40
0
40
1
40
1
40
1
40
1
41
1
10
61.9330397954621
20
-37.4159227623864
30
0
41
1
10
61.8802175315189
20
-37.444186305517
30
0
41
1
10
61.8273598960423
20
-37.4722980163781
30
0
41
1
10
61.774406808652
20
-37.5
30
0
0
SPLINE
5
11D
100
AcDbEntity
8
1
62
256
6
ByLayer
370
18
48
1
60
0
100
AcDbSpline
70
4
71
3
72
20
73
16
40
0
40
0
40
0
40
0
40
0.124999999999993
40
0.124999999999993
40
0.249999999999985
40
0.249999999999985
40
0.374999999999978
40
0.374999999999978
40
0.49999999999997
40
0.49999999999997
40
0.624999999999963
40
0.624999999999963
40
0.749999999999955
40
0.749999999999955
40
1
40
1
40
1
40
1
41
1
10
62.0000000000113
20
-37.2749688692704
30
0
41
1
10
62.0000000000113
20
-37.2827395802012
30
0
41
1
10
61.9995937631251
20
-37.2904457315629
30
0
41
1
10
61.9979798151933
20
-37.3057306632175
30
0
41
1
10
61.9967642469955
20
-37.3133082123662
30
0
41
1
10
61.9936086504077
20
-37.3279014713725
30
0
41
1
10
61.9916642630196
20
-37.334975103544
30
0
41
1
10
61.9870434392174
20
-37.3486770600966
30
0
41
1
10
61.9843397653764
20
-37.3553511564102
30
0
41
1
10
61.9783611160119
20
-37.3678241997689
30
0
41
1
10
61.9750781767345
20
-37.3736667010935
30
0
41
1
10
61.9679371835433
20
-37.3845799203337
30
0
41
1
10
61.964047082971
20
-37.3896850163107
30
0
41
1
10
61.9517092968702
20
-37.4035295253539
30
0
41
1
10
61.9427422487556
20
-37.410731282759
30
0
41
1
10
61.9330397954621
20
-37.4159227623864
30
0
0
SPLINE
5
11E
100
AcDbEntity
8
1
62
256
6
ByLayer
370
18
48
1
60
0
100
AcDbSpline
70
4
71
3
72
20
73
16
40
0
40
0
40
0
40
0
40
0.124999999999984
40
0.124999999999984
40
0.249999999999968
40
0.249999999999968
40
0.374999999999951
40
0.374999999999951
40
0.499999999999935
40
0.499999999999935
40
0.624999999999919
40
0.624999999999919
40
0.749999999999903
40
0.749999999999903
40
1
40
1
40
1
40
1
41
1
10
61.933039795462
20
-36.5840772376136
30
0
41
1
10
61.937890944132
20
-36.5866729357044
30
0
41
1
10
61.9425740123838
20
-36.5897898375515
30
0
41
1
10
61.9516060515023
20
-36.5970596501623
30
0
41
1
10
61.9559769729611
20
-36.6012441397309
30
0
41
1
10
61.9641534857343
20
-36.6104500648764
30
0
41
1
10
61.9679840522906
20
-36.6154842294121
30
0
41
1
10
61.9751283008422
20
-36.6264174806153
30
0
41
1
10
61.9784667668224
20
-36.6323726527538
30
0
41
1
10
61.9844457620998
20
-36.6448943918016
30
0
41
1
10
61.9870887035604
20
-36.6514438932602
30
0
41
1
10
61.9916895717912
20
-36.6651134158443
30
0
41
1
10
61.9936571096376
20
-36.6722794185904
30
0
41
1
10
61.9984050459487
20
-36.6943684079368
30
0
41
1
10
62
20
-36.7094958819083
30
0
41
1
10
62
20
-36.7250311307315
30
0
0
SPLINE
5
11F
100
AcDbEntity
8
1
62
256
6
ByLayer
370
18
48
1
60
0
100
AcDbSpline
70
4
71
3
72
8
73
4
40
0
40
0
40
0
40
0
40
1
40
1
40
1
40
1
41
1
10
61.774406808652
20
-36.5
30
0
41
1
10
61.8273535334487
20
-36.527698655082
30
0
41
1
10
61.8802128688876
20
-36.5558111996547
30
0
41
1
10
61.933039795462
20
-36.5840772376136
30
0
0
SPLINE
5
120
100
AcDbEntity
8
1
62
256
6
ByLayer
370
18
48
1
60
0
100
AcDbSpline
70
4
71
3
72
10
73
6
40
0
40
0
40
0
40
0
40
0.5
40
0.5
40
1
40
1
40
1
40
1
41
1
10
61.628648994824
20
-35.3404809816415
30
0
41
1
10
61.6538199811274
20
-35.5334830426135
30
0
41
1
10
61.6783392655467
20
-35.726671487205
30
0
41
1
10
61.7267768506016
20
-36.1132202548737
30
0
41
1
10
61.7506791511969
20
-36.3065851538857
30
0
41
1
10
61.774406808652
20
-36.5
30
0
0
SPLINE
5
121
100
AcDbEntity
8
1
62
256
6
ByLayer
370
18
48
1
60
0
100
AcDbSpline
70
4
71
3
72
12
73
8
40
0
40
0
40
0
40
0
40
0.500000000000084
40
0.500000000000084
40
0.750000000000042
40
0.750000000000042
40
1
40
1
40
1
40
1
41
1
10
61.6286489948239
20
-35.3404809816422
30
0
41
1
10
61.6089017146956
20
-35.3403678932274
30
0
41
1
10
61.588886792244
20
-35.3402847361935
30
0
41
1
10
61.5584639180257
20
-35.3402037208511
30
0
41
1
10
61.5482559753648
20
-35.3401840360257
30
0
41
1
10
61.527703337856
20
-35.3401595238519
30
0
41
1
10
61.5173400757495
20
-35.3401547245949
30
0
41
1
10
61.5069925772654
20
-35.3401575401612
30
0
0
SPLINE
5
122
100
AcDbEntity
8
1
62
256
6
ByLayer
370
18
48
1
60
0
100
AcDbSpline
70
4
71
3
72
11
73
7
40
0
40
0
40
0
40
0
40
0.354280246333263
40
0.354280246333263
40
0.708560492666527
40
1
40
1
40
1
40
1
41
1
10
32.2792156108742
20
-38.6786315318899
30
0
41
1
10
32.2892410845755
20
-38.6783014923427
30
0
41
1
10
32.2986861094123
20
-38.6779916043109
30
0
41
1
10
32.3162961153185
20
-38.6774169937568
30
0
41
1
10
32.3311871339587
20
-38.6769341730749
30
0
41
1
10
32.3439872410204
20
-38.6765265590989
30
0
41
1
10
32.3493397605043
20
-38.6763580373971
30
0
0
SPLINE
5
123
100
AcDbEntity
8
1
62
256
6
ByLayer
370
18
48
1
60
0
100
AcDbSpline
70
4
71
3
72
37
73
33
40
0
40
0
40
0
40
0
40
0.124999999999989
40
0.124999999999989
40
0.156249999999986
40
0.156249999999986
40
0.187499999999983
40
0.187499999999983
40
0.249999999999978
40
0.312499999999972
40
0.312499999999972
40
0.343749999999969
40
0.343749999999969
40
0.374999999999967
40
0.374999999999967
40
0.499999999999953
40
0.499999999999953
40
0.562499999999952
40
0.562499999999952
40
0.593749999999955
40
0.593749999999955
40
0.624999999999957
40
0.624999999999957
40
0.749999999999991
40
0.749999999999991
40
0.781249999999993
40
0.781249999999993
40
0.812499999999995
40
0.812499999999995
40
0.874999999999999
40
0.874999999999999
40
1
40
1
40
1
40
1
41
1
10
51.9999999999997
20
-35.3428543767827
30
0
41
1
10
51.8936578919788
20
-35.3428857724991
30
0
41
1
10
51.788543775852
20
-35.3324581515502
30
0
41
1
10
51.658670303917
20
-35.3064845675931
30
0
41
1
10
51.6327241131239
20
-35.3006224664531
30
0
41
1
10
51.5814419993657
20
-35.2876951093963
30
0
41
1
10
51.556061168246
20
-35.2806234017069
30
0
41
1
10
51.4806843147554
20
-35.2576193267399
30
0
41
1
10
51.3822199051559
20
-35.2221852041432
30
0
41
1
10
51.2877641169666
20
-35.1773847577931
30
0
41
1
10
51.2184440860102
20
-35.1402286452626
30
0
41
1
10
51.1955914932222
20
-35.1272495952933
30
0
41
1
10
51.1504032656543
20
-35.1000835997778
30
0
41
1
10
51.1280469401343
20
-35.0858779606092
30
0
41
1
10
51.0188105404908
20
-35.0126215345097
30
0
41
1
10
50.9384910000318
20
-34.9463814306604
30
0
41
1
10
50.8282801969686
20
-34.8359315519146
30
0
41
1
10
50.7932671253248
20
-34.7972531984707
30
0
41
1
10
50.7434049806459
20
-34.7363656771444
30
0
41
1
10
50.7272253533917
20
-34.7155794602909
30
0
41
1
10
50.6961130957054
20
-34.6735108743542
30
0
41
1
10
50.681132704412
20
-34.652172351158
30
0
41
1
10
50.6090577581965
20
-34.5439858913695
30
0
41
1
10
50.5603642940878
20
-34.4526986650799
30
0
41
1
10
50.5107027881799
20
-34.3326685344096
30
0
41
1
10
50.501335748542
20
-34.3083638137605
30
0
41
1
10
50.4837527076824
20
-34.2591461427576
30
0
41
1
10
50.4755404560471
20
-34.234229407033
30
0
41
1
10
50.4529005877585
20
-34.1593874993682
30
0
41
1
10
50.4403627481381
20
-34.1090990811365
30
0
41
1
10
50.4102151513157
20
-33.9570832546052
30
0
41
1
10
50.4
20
-33.8542162649881
30
0
41
1
10
50.4
20
-33.7497750203297
30
0
0
SPLINE
5
124
100
AcDbEntity
8
1
62
256
6
ByLayer
370
18
48
1
60
0
100
AcDbSpline
70
4
71
3
72
16
73
12
40
0
40
0
40
0
40
0
40
0.249999999999989
40
0.249999999999989
40
0.374999999999982
40
0.374999999999982
40
0.499999999999976
40
0.499999999999976
40
0.749999999999988
40
0.749999999999988
40
1
40
1
40
1
40
1
41
1
10
50.4
20
-34.5643981583049
30
0
41
1
10
50.4
20
-34.6263178124459
30
0
41
1
10
50.4042542352509
20
-34.6896500660515
30
0
41
1
10
50.4176633018336
20
-34.7862714276188
30
0
41
1
10
50.4233060781112
20
-34.8187495837715
30
0
41
1
10
50.4370740215582
20
-34.8841662718153
30
0
41
1
10
50.4451381527277
20
-34.9167982948617
30
0
41
1
10
50.4727659768037
20
-35.0139485373873
30
0
41
1
10
50.4957915675803
20
-35.077892172088
30
0
41
1
10
50.5511345959825
20
-35.203422874378
30
0
41
1
10
50.5834514709333
20
-35.2650142995353
30
0
41
1
10
50.6205924198575
20
-35.3250000000041
30
0
0
SPLINE
5
125
100
AcDbEntity
8
1
62
256
6
ByLayer
370
18
48
1
60
0
100
AcDbSpline
70
4
71
3
72
32
73
28
40
0
40
0
40
0
40
0
40
0.062499999999996
40
0.062499999999996
40
0.124999999999992
40
0.124999999999992
40
0.249999999999983
40
0.249999999999983
40
0.374999999999973
40
0.374999999999973
40
0.406249999999971
40
0.406249999999971
40
0.43749999999997
40
0.43749999999997
40
0.499999999999963
40
0.499999999999963
40
0.624999999999962
40
0.624999999999962
40
0.68749999999996
40
0.68749999999996
40
0.718749999999962
40
0.718749999999962
40
0.749999999999965
40
0.749999999999965
40
0.874999999999982
40
0.874999999999982
40
1
40
1
40
1
40
1
41
1
10
52
20
-35.9827749231288
30
0
41
1
10
51.9678173966022
20
-35.9858934908208
30
0
41
1
10
51.9355830447583
20
-35.9880490081579
30
0
41
1
10
51.8710092097459
20
-35.9904035249607
30
0
41
1
10
51.8386249344825
20
-35.9905992204521
30
0
41
1
10
51.7419089817331
20
-35.9881995222314
30
0
41
1
10
51.6778684974762
20
-35.9826451799776
30
0
41
1
10
51.5506856888725
20
-35.96340538405
30
0
41
1
10
51.4875430031386
20
-35.9497232020416
30
0
41
1
10
51.4092193793286
20
-35.9271457764825
30
0
41
1
10
51.3935850208128
20
-35.9223553833854
30
0
41
1
10
51.3623786949817
20
-35.9122097648084
30
0
41
1
10
51.3467853374633
20
-35.9068464362484
30
0
41
1
10
51.3003090018349
20
-35.8899603375393
30
0
41
1
10
51.2697122988218
20
-35.8776406671787
30
0
41
1
10
51.1791086786192
20
-35.8374292548243
30
0
41
1
10
51.1202818989294
20
-35.8063025218317
30
0
41
1
10
51.0346021227575
20
-35.7525938762134
30
0
41
1
10
51.0064703932153
20
-35.733517224576
30
0
41
1
10
50.9649559786455
20
-35.7030295159157
30
0
41
1
10
50.9512087755898
20
-35.6925359270673
30
0
41
1
10
50.9240666086615
20
-35.6709930209256
30
0
41
1
10
50.9106909396628
20
-35.6599606065232
30
0
41
1
10
50.8447959310039
20
-35.6034853627434
30
0
41
1
10
50.7952112945615
20
-35.5541234577882
30
0
41
1
10
50.7026990676167
20
-35.4465096633622
30
0
41
1
10
50.6597648206686
20
-35.3882666630744
30
0
41
1
10
50.6205924198586
20
-35.325000000006
30
0
0
SPLINE
5
126
100
AcDbEntity
8
1
62
256
6
ByLayer
370
18
48
1
60
0
100
AcDbSpline
70
4
71
3
72
10
73
6
40
0
40
0
40
0
40
0
40
0.5
40
0.5
40
1
40
1
40
1
40
1
41
1
10
23.4383186059721
20
-31.65
30
0
41
1
10
23.4943188242197
20
-31.65
30
0
41
1
10
23.5617766336953
20
-31.65
30
0
41
1
10
23.7180282510358
20
-31.65
30
0
41
1
10
23.8068167231348
20
-31.65
30
0
41
1
10
23.9053431857192
20
-31.65
30
0
0
SPLINE
5
127
100
AcDbEntity
8
1
62
256
6
ByLayer
370
18
48
1
60
0
100
AcDbSpline
70
4
71
3
72
28
73
24
40
0
40
0
40
0
40
0
40
0.0625000000000026
40
0.0625000000000026
40
0.125000000000005
40
0.125000000000005
40
0.250000000000008
40
0.250000000000008
40
0.312500000000007
40
0.312500000000007
40
0.375000000000007
40
0.375000000000007
40
0.500000000000002
40
0.500000000000002
40
0.624999999999997
40
0.624999999999997
40
0.687499999999996
40
0.687499999999996
40
0.749999999999996
40
0.749999999999996
40
0.874999999999998
40
0.874999999999998
40
1
40
1
40
1
40
1
41
1
10
23.4383186059724
20
-32.1459721466512
30
0
41
1
10
23.4327474690385
20
-32.1264291689353
30
0
41
1
10
23.426689976007
20
-32.1073844263877
30
0
41
1
10
23.4137290017026
20
-32.0703663342508
30
0
41
1
10
23.4068629022012
20
-32.0524948669297
30
0
41
1
10
23.3852625864547
20
-32.0006537550461
30
0
41
1
10
23.3695286319472
20
-31.9684480006325
30
0
41
1
10
23.3444581436998
20
-31.9233251916313
30
0
41
1
10
23.3358555373687
20
-31.9088177785191
30
0
41
1
10
23.3182435885789
20
-31.880839563147
30
0
41
1
10
23.3092208532197
20
-31.8673501841443
30
0
41
1
10
23.2817602233248
20
-31.8285356392096
30
0
41
1
10
23.2631683059616
20
-31.805181654542
30
0
41
1
10
23.2262545474528
20
-31.7630977756409
30
0
41
1
10
23.2079260405293
20
-31.7443683618096
30
0
41
1
10
23.1814039219521
20
-31.7197037416824
30
0
41
1
10
23.1727270953887
20
-31.7120565487405
30
0
41
1
10
23.1558680757873
20
-31.6979425634353
30
0
41
1
10
23.14766409967
20
-31.691461769185
30
0
41
1
10
23.124447738007
20
-31.6741319697156
30
0
41
1
10
23.1107129884679
20
-31.6652812040201
30
0
41
1
10
23.088339809912
20
-31.6532182943537
30
0
41
1
10
23.0797034947919
20
-31.65
30
0
41
1
10
23.0745790681967
20
-31.65
30
0
0
SPLINE
5
128
100
AcDbEntity
8
1
62
256
6
ByLayer
370
18
48
1
60
0
100
AcDbSpline
70
4
71
3
72
32
73
28
40
0
40
0
40
0
40
0
40
0.0905857045781337
40
0.0905857045781337
40
0.113232130722667
40
0.118893737258801
40
0.118893737258801
40
0.124555343794934
40
0.124555343794934
40
0.1358785568672
40
0.181171409156264
40
0.181171409156264
40
0.362342818312518
40
0.362342818312518
40
0.543514227468772
40
0.543514227468772
40
0.634099932046899
40
0.634099932046899
40
0.724685636625026
40
0.724685636625026
40
0.815271341203153
40
0.815271341203153
40
0.90585704578128
40
0.90585704578128
40
0.996442750359407
40
0.996442750359407
40
1
40
1
40
1
40
1
41
1
10
23.4383186059722
20
-31.65
30
0
41
1
10
23.4266196175921
20
-31.65
30
0
41
1
10
23.4127838136777
20
-31.65
30
0
41
1
10
23.3933432645177
20
-31.65
30
0
41
1
10
23.3883487430274
20
-31.65
30
0
41
1
10
23.3831959135935
20
-31.65
30
0
41
1
10
23.381122306761
20
-31.65
30
0
41
1
10
23.3800847706127
20
-31.65
30
0
41
1
10
23.3768900595709
20
-31.65
30
0
41
1
10
23.3661152977216
20
-31.65
30
0
41
1
10
23.3547321377893
20
-31.65
30
0
41
1
10
23.3075043847671
20
-31.65
30
0
41
1
10
23.2642805289376
20
-31.65
30
0
41
1
10
23.1734408345052
20
-31.65
30
0
41
1
10
23.1257539409718
20
-31.65
30
0
41
1
10
23.0568649610638
20
-31.65
30
0
41
1
10
23.0343626713623
20
-31.65
30
0
41
1
10
22.9915972656386
20
-31.65
30
0
41
1
10
22.9713353908744
20
-31.65
30
0
41
1
10
22.9346028169906
20
-31.65
30
0
41
1
10
22.9181399716714
20
-31.65
30
0
41
1
10
22.890673967144
20
-31.65
30
0
41
1
10
22.8796871952811
20
-31.65
30
0
41
1
10
22.8645955131566
20
-31.65
30
0
41
1
10
22.8605073187976
20
-31.65
30
0
41
1
10
22.860164162046
20
-31.65
30
0
41
1
10
22.8601569927596
20
-31.65
30
0
41
1
10
22.8601556059714
20
-31.65
30
0
0
SPLINE
5
129
100
AcDbEntity
8
1
62
256
6
ByLayer
370
18
48
1
60
0
100
AcDbSpline
70
4
71
3
72
67
73
63
40
0
40
0
40
0
40
0
40
0.0078125000000003
40
0.0078125000000003
40
0.0156250000000008
40
0.0156250000000008
40
0.0312500000000014
40
0.0312500000000014
40
0.0468750000000022
40
0.0468750000000022
40
0.0625000000000029
40
0.0625000000000029
40
0.078125000000003
40
0.078125000000003
40
0.093750000000003
40
0.093750000000003
40
0.109375000000003
40
0.109375000000003
40
0.125000000000003
40
0.125000000000003
40
0.156250000000003
40
0.156250000000003
40
0.187500000000002
40
0.187500000000002
40
0.218750000000002
40
0.218750000000002
40
0.250000000000001
40
0.250000000000001
40
0.312500000000001
40
0.312500000000001
40
0.375000000000001
40
0.375000000000001
40
0.4375
40
0.4375
40
0.46875
40
0.484375
40
0.484375
40
0.499999999999999
40
0.499999999999999
40
0.562499999999999
40
0.562499999999999
40
0.624999999999999
40
0.624999999999999
40
0.6875
40
0.6875
40
0.703125
40
0.703125
40
0.718750000000001
40
0.718750000000001
40
0.750000000000002
40
0.750000000000002
40
0.812500000000003
40
0.812500000000003
40
0.843750000000003
40
0.843750000000003
40
0.859375000000003
40
0.859375000000003
40
0.875000000000003
40
0.875000000000003
40
0.937500000000002
40
0.937500000000002
40
1
40
1
40
1
40
1
41
1
10
22.134698385264
20
20.1806153952333
30
0
41
1
10
22.134865060747
20
20.1794564020674
30
0
41
1
10
22.1351674692261
20
20.177355135863
30
0
41
1
10
22.1360344649331
20
20.1713931285841
30
0
41
1
10
22.136599161752
20
20.167532793797
30
0
41
1
10
22.1386390279503
20
20.1537842014231
30
0
41
1
10
22.1404632668014
20
20.1417069872852
30
0
41
1
10
22.1449234091477
20
20.1133942604481
30
0
41
1
10
22.1475613740936
20
20.0971510087326
30
0
41
1
10
22.1535814068693
20
20.0617482025415
30
0
41
1
10
22.1569340737144
20
20.042761598549
30
0
41
1
10
22.1642743399032
20
20.0030528775521
30
0
41
1
10
22.1682624917521
20
19.9823252233687
30
0
41
1
10
22.1768489102108
20
19.939650504615
30
0
41
1
10
22.1814474335411
20
19.9177003799923
30
0
41
1
10
22.1912419680965
20
19.8729200014018
30
0
41
1
10
22.1964414497793
20
19.8500741179433
30
0
41
1
10
22.2074150254758
20
19.8038045982375
30
0
41
1
10
22.2131868619594
20
19.7803883286256
30
0
41
1
10
22.2313516589709
20
19.7095251963887
30
0
41
1
10
22.2445929677225
20
19.6614765922429
30
0
41
1
10
22.2733405669466
20
19.5645139143172
30
0
41
1
10
22.2888472668918
20
19.5155916584509
30
0
41
1
10
22.3221557416976
20
19.4172810080214
30
0
41
1
10
22.3399797834269
20
19.3678345616461
30
0
41
1
10
22.3778198876576
20
19.2691043602966
30
0
41
1
10
22.3978406120247
20
19.2197973350827
30
0
41
1
10
22.4612337305974
20
19.072289730045
30
0
41
1
10
22.5079301492749
20
18.9745133251272
30
0
41
1
10
22.6105114709914
20
18.7808502776935
30
0
41
1
10
22.6663949572527
20
18.6849533436713
30
0
41
1
10
22.7879086467719
20
18.4955276099181
30
0
41
1
10
22.8535358299083
20
18.4019942148997
30
0
41
1
10
22.9599331167854
20
18.2637946707691
30
0
41
1
10
23.0151248579756
20
18.19521999998
30
0
41
1
10
23.0734713701209
20
18.1274994971278
30
0
41
1
10
23.1130920964353
20
18.0825503792919
30
0
41
1
10
23.1332860492065
20
18.0601508677403
30
0
41
1
10
23.2358313887578
20
17.9489813964638
30
0
41
1
10
23.3226826887529
20
17.8629018467327
30
0
41
1
10
23.506658262145
20
17.6969383137924
30
0
41
1
10
23.6037782312901
20
17.6170510907298
30
0
41
1
10
23.8093092055448
20
17.464159562369
30
0
41
1
10
23.9177120036364
20
17.3911498350201
30
0
41
1
10
24.0612577031993
20
17.3048267556899
30
0
41
1
10
24.0903707209872
20
17.2878101674212
30
0
41
1
10
24.1494373018678
20
17.2542939714781
30
0
41
1
10
24.1793102523479
20
17.2378411174418
30
0
41
1
10
24.2697152772442
20
17.1895537422518
30
0
41
1
10
24.3311348980118
20
17.1587313495764
30
0
41
1
10
24.5189667142253
20
17.0705279097528
30
0
41
1
10
24.6489359091693
20
17.0173915555675
30
0
41
1
10
24.8517543947964
20
16.9471024839074
30
0
41
1
10
24.9206749810523
20
16.9252463715981
30
0
41
1
10
25.0261613568963
20
16.8949862442479
30
0
41
1
10
25.061735200673
20
16.8853066003542
30
0
41
1
10
25.133055137776
20
16.8669592029568
30
0
41
1
10
25.1688513264094
20
16.8582753364057
30
0
41
1
10
25.3485149003339
20
16.8173119978061
30
0
41
1
10
25.4944235323823
20
16.7923766521907
30
0
41
1
10
25.7907393905346
20
16.7587235824561
30
0
41
1
10
25.9411450476574
20
16.75
30
0
41
1
10
26.0939661422936
20
16.75
30
0
0
SPLINE
5
12A
100
AcDbEntity
8
1
62
256
6
ByLayer
370
18
48
1
60
0
100
AcDbSpline
70
4
71
3
72
32
73
28
40
0
40
0
40
0
40
0
40
0.0625000000000054
40
0.0625000000000054
40
0.125000000000011
40
0.125000000000011
40
0.187500000000016
40
0.187500000000016
40
0.21875000000002
40
0.21875000000002
40
0.250000000000024
40
0.250000000000024
40
0.375000000000027
40
0.375000000000027
40
0.437500000000028
40
0.437500000000028
40
0.468750000000029
40
0.468750000000029
40
0.500000000000029
40
0.500000000000029
40
0.625000000000022
40
0.625000000000022
40
0.750000000000014
40
0.750000000000014
40
0.875000000000007
40
0.875000000000007
40
1
40
1
40
1
40
1
41
1
10
23.4383186059721
20
-29.601957698314
30
0
41
1
10
23.4246063461125
20
-29.5404075126811
30
0
41
1
10
23.4081061557642
20
-29.4809130423638
30
0
41
1
10
23.3707567795315
20
-29.3653317206828
30
0
41
1
10
23.3498989939522
20
-29.3092511691943
30
0
41
1
10
23.3046914129889
20
-29.2000706234313
30
0
41
1
10
23.2803376082809
20
-29.1469735650822
30
0
41
1
10
23.2417085258969
20
-29.0693369968328
30
0
41
1
10
23.228450467963
20
-29.0437370763686
30
0
41
1
10
23.2014866119682
20
-28.9934973764694
30
0
41
1
10
23.1877883505822
20
-28.968865794043
30
0
41
1
10
23.1184224556377
20
-28.847958385736
30
0
41
1
10
23.0601840342688
20
-28.758378904948
30
0
41
1
10
22.9718980055499
20
-28.6319270962585
30
0
41
1
10
22.9423041762256
20
-28.5911068891052
30
0
41
1
10
22.8979950247306
20
-28.5315860189112
30
0
41
1
10
22.8832226517154
20
-28.5120105341331
30
0
41
1
10
22.8539140940105
20
-28.4735909776751
30
0
41
1
10
22.8393613627147
20
-28.454724133326
30
0
41
1
10
22.7672017575789
20
-28.3619446161894
30
0
41
1
10
22.711435417456
20
-28.292664430431
30
0
41
1
10
22.605784493114
20
-28.1604801120641
30
0
41
1
10
22.5558921869472
20
-28.0975858377455
30
0
41
1
10
22.4633561739212
20
-27.9752912754611
30
0
41
1
10
22.4207083126149
20
-27.9158940525834
30
0
41
1
10
22.3436302598125
20
-27.7981228609026
30
0
41
1
10
22.3091971617309
20
-27.739748535696
30
0
41
1
10
22.2792076144253
20
-27.6808413104202
30
0
0
SPLINE
5
12B
100
AcDbEntity
8
1
62
256
6
ByLayer
370
18
48
1
60
0
100
AcDbSpline
70
4
71
3
72
10
73
6
40
0
40
0
40
0
40
0
40
0.5
40
0.5
40
1
40
1
40
1
40
1
41
1
10
23.9053431857192
20
-31.65
30
0
41
1
10
23.825681123129
20
-31.3077908920247
30
0
41
1
10
23.746852899291
20
-30.9659968227725
30
0
41
1
10
23.5910924148061
20
-30.2832937428866
30
0
41
1
10
23.5141594672669
20
-29.9423843777249
30
0
41
1
10
23.4383186059721
20
-29.601957698314
30
0
0
SPLINE
5
12C
100
AcDbEntity
8
1
62
256
6
ByLayer
370
18
48
1
60
0
100
AcDbSpline
70
4
71
3
72
30
73
26
40
0
40
0
40
0
40
0
40
0.125000000000007
40
0.125000000000007
40
0.250000000000013
40
0.250000000000013
40
0.375000000000019
40
0.375000000000019
40
0.500000000000026
40
0.500000000000026
40
0.562500000000025
40
0.562500000000025
40
0.625000000000025
40
0.625000000000025
40
0.687500000000024
40
0.687500000000024
40
0.750000000000024
40
0.750000000000024
40
0.87500000000002
40
0.87500000000002
40
0.906250000000013
40
0.906250000000013
40
0.937500000000007
40
0.937500000000007
40
1
40
1
40
1
40
1
41
1
10
13.8943375672973
20
-29.9139548464691
30
0
41
1
10
13.8865409364123
20
-29.9233580917139
30
0
41
1
10
13.877931786983
20
-29.9326601869321
30
0
41
1
10
13.8589127955723
20
-29.9509694256367
30
0
41
1
10
13.8485243776492
20
-29.9599596837525
30
0
41
1
10
13.8256849705001
20
-29.9775752500985
30
0
41
1
10
13.8132376332896
20
-29.9862010424071
30
0
41
1
10
13.7858017072526
20
-30.0030284643032
30
0
41
1
10
13.7708221243599
20
-30.0112312950129
30
0
41
1
10
13.7458258793003
20
-30.0231382884602
30
0
41
1
10
13.737049765874
20
-30.0270468182506
30
0
41
1
10
13.7187352282342
20
-30.0346082702024
30
0
41
1
10
13.7091749421593
20
-30.0382729348065
30
0
41
1
10
13.6891167538207
20
-30.0453372280742
30
0
41
1
10
13.6786197964871
20
-30.0487371057378
30
0
41
1
10
13.6565013495867
20
-30.0552244086801
30
0
41
1
10
13.6448606867708
20
-30.0583172600355
30
0
41
1
10
13.6079581046675
20
-30.0669872793661
30
0
41
1
10
13.5815263070002
20
-30.0717959485601
30
0
41
1
10
13.5452163817752
20
-30.0761022248719
30
0
41
1
10
13.537775923748
20
-30.0768761478221
30
0
41
1
10
13.5228395300831
20
-30.0782053093477
30
0
41
1
10
13.5153082123102
20
-30.0787652114226
30
0
41
1
10
13.4925182901835
20
-30.0801205034908
30
0
41
1
10
13.4770644463612
20
-30.0805927603169
30
0
41
1
10
13.4613248654051
20
-30.0805927603169
30
0
0
SPLINE
5
12D
100
AcDbEntity
8
1
62
256
6
ByLayer
370
18
48
1
60
0
100
AcDbSpline
70
4
71
3
72
32
73
28
40
0
40
0
40
0
40
0
40
0.0312500000000064
40
0.0312500000000064
40
0.0625000000000128
40
0.0625000000000128
40
0.125000000000024
40
0.125000000000024
40
0.156250000000026
40
0.156250000000026
40
0.187500000000028
40
0.187500000000028
40
0.250000000000025
40
0.250000000000025
40
0.312500000000023
40
0.312500000000023
40
0.37500000000002
40
0.37500000000002
40
0.500000000000007
40
0.500000000000007
40
0.562500000000004
40
0.562500000000004
40
0.625
40
0.625
40
0.749999999999999
40
0.749999999999999
40
1
40
1
40
1
40
1
41
1
10
10.5386751345948
20
-30.0805927603169
30
0
41
1
10
10.5308166515934
20
-30.0805927603169
30
0
41
1
10
10.5229918398929
20
-30.080474687126
30
0
41
1
10
10.5074080928859
20
-30.0800074516352
30
0
41
1
10
10.4996178076424
20
-30.0796561130286
30
0
41
1
10
10.4766203225409
20
-30.0782784555614
30
0
41
1
10
10.4617882298585
20
-30.0769355687271
30
0
41
1
10
10.4401863631891
20
-30.0743696982575
30
0
41
1
10
10.4330939182297
20
-30.0734220792404
30
0
41
1
10
10.4191127836333
20
-30.0713523776808
30
0
41
1
10
10.4122177999419
20
-30.0702282001224
30
0
41
1
10
10.392156025832
20
-30.0666711051738
30
0
41
1
10
10.3794828926306
20
-30.0640378913834
30
0
41
1
10
10.3552649931436
20
-30.0583455135275
30
0
41
1
10
10.343722024187
20
-30.055285688921
30
0
41
1
10
10.3215875864294
20
-30.0488020840796
30
0
41
1
10
10.310960205639
20
-30.0453642012995
30
0
41
1
10
10.2806617049328
20
-30.0346937657148
30
0
41
1
10
10.2625095528537
20
-30.0271090091071
30
0
41
1
10
10.2375038868186
20
-30.0151973377028
30
0
41
1
10
10.2295303543197
20
-30.011127587853
30
0
41
1
10
10.214363161326
20
-30.0028887514666
30
0
41
1
10
10.207158418293
20
-29.9987154022301
30
0
41
1
10
10.1865318440058
20
-29.9860499646858
30
0
41
1
10
10.1740902691451
20
-29.977413331973
30
0
41
1
10
10.1399018475136
20
-29.9510098933136
30
0
41
1
10
10.1212498345488
20
-29.9327542695084
30
0
41
1
10
10.1056624327026
20
-29.9139548464691
30
0
0
SPLINE
5
12E
100
AcDbEntity
8
1
62
256
6
ByLayer
370
18
48
1
60
0
100
AcDbSpline
70
4
71
3
72
30
73
26
40
0
40
0
40
0
40
0
40
0.125000000000004
40
0.125000000000004
40
0.250000000000007
40
0.250000000000007
40
0.375000000000011
40
0.375000000000011
40
0.500000000000015
40
0.500000000000015
40
0.562500000000013
40
0.562500000000013
40
0.625000000000011
40
0.625000000000011
40
0.687500000000009
40
0.687500000000009
40
0.750000000000007
40
0.750000000000007
40
0.875000000000003
40
0.875000000000003
40
0.906250000000004
40
0.906250000000004
40
0.937500000000004
40
0.937500000000004
40
1
40
1
40
1
40
1
41
1
10
10.1056624327026
20
-9.86941261896612
30
0
41
1
10
10.1134590635876
20
-9.84091160634017
30
0
41
1
10
10.1220682130169
20
-9.81257982037158
30
0
41
1
10
10.1410872044276
20
-9.75655159685451
30
0
41
1
10
10.1514756223507
20
-9.72890711075635
30
0
41
1
10
10.1743150294998
20
-9.67449223197164
30
0
41
1
10
10.1867623667103
20
-9.64772023935041
30
0
41
1
10
10.2141982927473
20
-9.59526142127663
30
0
41
1
10
10.22917787564
20
-9.56957065273522
30
0
41
1
10
10.2541741206996
20
-9.53212142663466
30
0
41
1
10
10.262950234126
20
-9.51980127252975
30
0
41
1
10
10.2812647717658
20
-9.49591822570957
30
0
41
1
10
10.2908250578406
20
-9.48431848058806
30
0
41
1
10
10.3108832461792
20
-9.46191570446783
30
0
41
1
10
10.3213802035128
20
-9.45111186483325
30
0
41
1
10
10.3434986504133
20
-9.4304614349042
30
0
41
1
10
10.3551393132292
20
-9.42059748954574
30
0
41
1
10
10.3920418953325
20
-9.39290424748305
30
0
41
1
10
10.4184736929998
20
-9.37748487924964
30
0
41
1
10
10.4547836182248
20
-9.36365758390269
30
0
41
1
10
10.4622240762521
20
-9.36117119765711
30
0
41
1
10
10.4771604699169
20
-9.35689961322666
30
0
41
1
10
10.4846917876898
20
-9.35509944740028
30
0
41
1
10
10.5074817098165
20
-9.35074113394285
30
0
41
1
10
10.5229355536388
20
-9.3492213145251
30
0
41
1
10
10.5386751345948
20
-9.3492213145251
30
0
0
SPLINE
5
12F
100
AcDbEntity
8
1
62
256
6
ByLayer
370
18
48
1
60
0
100
AcDbSpline
70
4
71
3
72
32
73
28
40
0
40
0
40
0
40
0
40
0.0312499999999992
40
0.0312499999999992
40
0.0624999999999984
40
0.0624999999999984
40
0.124999999999989
40
0.124999999999989
40
0.156249999999984
40
0.156249999999984
40
0.18749999999998
40
0.18749999999998
40
0.24999999999998
40
0.24999999999998
40
0.31249999999998
40
0.31249999999998
40
0.374999999999979
40
0.374999999999979
40
0.499999999999982
40
0.499999999999982
40
0.562499999999984
40
0.562499999999984
40
0.624999999999985
40
0.624999999999985
40
0.749999999999989
40
0.749999999999989
40
1
40
1
40
1
40
1
41
1
10
13.4613248654051
20
-9.34922131452512
30
0
41
1
10
13.4691833484066
20
-9.34922131452512
30
0
41
1
10
13.4770081601071
20
-9.34960123302483
30
0
41
1
10
13.4925919071141
20
-9.35110433740229
30
0
41
1
10
13.5003821923575
20
-9.35223451981224
30
0
41
1
10
13.5233796774591
20
-9.35666472180208
30
0
41
1
10
13.5382117701415
20
-9.36098178019483
30
0
41
1
10
13.5598136368109
20
-9.3692206466792
30
0
41
1
10
13.5669060817703
20
-9.37226208194022
30
0
41
1
10
13.5808872163667
20
-9.37890069603395
30
0
41
1
10
13.5877822000581
20
-9.38250456041439
30
0
41
1
10
13.6078439741679
20
-9.39389972204384
30
0
41
1
10
13.6205171073693
20
-9.4023250536126
30
0
41
1
10
13.6447350068563
20
-9.42050719110841
30
0
41
1
10
13.656277975813
20
-9.43026612350766
30
0
41
1
10
13.6784124135705
20
-9.45090526429334
30
0
41
1
10
13.6890397943609
20
-9.46183015552273
30
0
41
1
10
13.7193382950672
20
-9.49566900868393
30
0
41
1
10
13.7374904471463
20
-9.51963294536131
30
0
41
1
10
13.7624961131814
20
-9.55709686534374
30
0
41
1
10
13.7704696456802
20
-9.56986960560332
30
0
41
1
10
13.785636838674
20
-9.5956682898981
30
0
41
1
10
13.792841581707
20
-9.60870778228679
30
0
41
1
10
13.8134681559941
20
-9.64819007031207
30
0
41
1
10
13.8259097308548
20
-9.67499387250794
30
0
41
1
10
13.8600981524863
20
-9.75655023082976
30
0
41
1
10
13.8787501654511
20
-9.8124320149881
30
0
41
1
10
13.8943375672973
20
-9.86941261896624
30
0
0
SPLINE
5
130
100
AcDbEntity
8
1
62
256
6
ByLayer
370
18
48
1
60
0
100
AcDbSpline
70
4
71
3
72
30
73
26
40
0
40
0
40
0
40
0
40
0.125000000000001
40
0.125000000000001
40
0.250000000000003
40
0.250000000000003
40
0.375000000000004
40
0.375000000000004
40
0.500000000000006
40
0.500000000000006
40
0.562500000000003
40
0.562500000000003
40
0.625
40
0.625
40
0.687499999999997
40
0.687499999999997
40
0.749999999999994
40
0.749999999999994
40
0.874999999999994
40
0.874999999999994
40
0.906249999999993
40
0.906249999999993
40
0.937499999999993
40
0.937499999999993
40
1
40
1
40
1
40
1
41
1
10
10.1056624327026
20
29.9139548464691
30
0
41
1
10
10.1134590635876
20
29.9233580917139
30
0
41
1
10
10.1220682130169
20
29.9326601869321
30
0
41
1
10
10.1410872044276
20
29.9509694256368
30
0
41
1
10
10.1514756223507
20
29.9599596837525
30
0
41
1
10
10.1743150294998
20
29.9775752500986
30
0
41
1
10
10.1867623667103
20
29.9862010424071
30
0
41
1
10
10.2141982927473
20
30.0030284643032
30
0
41
1
10
10.22917787564
20
30.011231295013
30
0
41
1
10
10.2541741206996
20
30.0231382884602
30
0
41
1
10
10.2629502341259
20
30.0270468182507
30
0
41
1
10
10.2812647717657
20
30.0346082702024
30
0
41
1
10
10.2908250578406
20
30.0382729348065
30
0
41
1
10
10.3108832461792
20
30.0453372280742
30
0
41
1
10
10.3213802035128
20
30.0487371057379
30
0
41
1
10
10.3434986504132
20
30.0552244086802
30
0
41
1
10
10.3551393132292
20
30.0583172600356
30
0
41
1
10
10.3920418953324
20
30.0669872793662
30
0
41
1
10
10.4184736929998
20
30.0717959485601
30
0
41
1
10
10.4547836182248
20
30.0761022248719
30
0
41
1
10
10.462224076252
20
30.0768761478221
30
0
41
1
10
10.4771604699168
20
30.0782053093478
30
0
41
1
10
10.4846917876898
20
30.0787652114226
30
0
41
1
10
10.5074817098165
20
30.0801205034908
30
0
41
1
10
10.5229355536388
20
30.0805927603169
30
0
41
1
10
10.5386751345948
20
30.0805927603169
30
0
0
SPLINE
5
131
100
AcDbEntity
8
1
62
256
6
ByLayer
370
18
48
1
60
0
100
AcDbSpline
70
4
71
3
72
32
73
28
40
0
40
0
40
0
40
0
40
0.0312499999999966
40
0.0312499999999966
40
0.0624999999999932
40
0.0624999999999932
40
0.124999999999985
40
0.124999999999985
40
0.156249999999981
40
0.156249999999981
40
0.187499999999977
40
0.187499999999977
40
0.249999999999975
40
0.249999999999975
40
0.312499999999973
40
0.312499999999973
40
0.374999999999971
40
0.374999999999971
40
0.499999999999962
40
0.499999999999962
40
0.562499999999963
40
0.562499999999963
40
0.624999999999965
40
0.624999999999965
40
0.749999999999976
40
0.749999999999976
40
1
40
1
40
1
40
1
41
1
10
13.4613248654051
20
30.0805927603169
30
0
41
1
10
13.4691833484066
20
30.0805927603169
30
0
41
1
10
13.4770081601071
20
30.080474687126
30
0
41
1
10
13.4925919071141
20
30.0800074516351
30
0
41
1
10
13.5003821923575
20
30.0796561130286
30
0
41
1
10
13.5233796774591
20
30.0782784555614
30
0
41
1
10
13.5382117701415
20
30.076935568727
30
0
41
1
10
13.5598136368109
20
30.0743696982575
30
0
41
1
10
13.5669060817702
20
30.0734220792404
30
0
41
1
10
13.5808872163667
20
30.0713523776808
30
0
41
1
10
13.5877822000581
20
30.0702282001224
30
0
41
1
10
13.6078439741679
20
30.0666711051738
30
0
41
1
10
13.6205171073693
20
30.0640378913833
30
0
41
1
10
13.6447350068563
20
30.0583455135275
30
0
41
1
10
13.656277975813
20
30.0552856889209
30
0
41
1
10
13.6784124135705
20
30.0488020840796
30
0
41
1
10
13.6890397943609
20
30.0453642012995
30
0
41
1
10
13.7193382950671
20
30.0346937657148
30
0
41
1
10
13.7374904471463
20
30.0271090091071
30
0
41
1
10
13.7624961131814
20
30.0151973377028
30
0
41
1
10
13.7704696456802
20
30.0111275878529
30
0
41
1
10
13.785636838674
20
30.0028887514666
30
0
41
1
10
13.7928415817069
20
29.9987154022301
30
0
41
1
10
13.8134681559941
20
29.9860499646858
30
0
41
1
10
13.8259097308548
20
29.977413331973
30
0
41
1
10
13.8600981524863
20
29.9510098933136
30
0
41
1
10
13.8787501654511
20
29.9327542695084
30
0
41
1
10
13.8943375672973
20
29.9139548464691
30
0
0
SPLINE
5
132
100
AcDbEntity
8
1
62
256
6
ByLayer
370
18
48
1
60
0
100
AcDbSpline
70
4
71
3
72
30
73
26
40
0
40
0
40
0
40
0
40
0.124999999999998
40
0.124999999999998
40
0.249999999999996
40
0.249999999999996
40
0.374999999999993
40
0.374999999999993
40
0.499999999999991
40
0.499999999999991
40
0.562499999999989
40
0.562499999999989
40
0.624999999999987
40
0.624999999999987
40
0.687499999999985
40
0.687499999999985
40
0.749999999999982
40
0.749999999999982
40
0.874999999999986
40
0.874999999999986
40
0.90624999999999
40
0.90624999999999
40
0.937499999999994
40
0.937499999999994
40
1
40
1
40
1
40
1
41
1
10
13.8943375672974
20
9.86941261896618
30
0
41
1
10
13.8865409364123
20
9.84091160634023
30
0
41
1
10
13.877931786983
20
9.81257982037161
30
0
41
1
10
13.8589127955723
20
9.75655159685454
30
0
41
1
10
13.8485243776492
20
9.72890711075638
30
0
41
1
10
13.8256849705001
20
9.6744922319717
30
0
41
1
10
13.8132376332896
20
9.64772023935043
30
0
41
1
10
13.7858017072526
20
9.59526142127669
30
0
41
1
10
13.7708221243599
20
9.56957065273531
30
0
41
1
10
13.7458258793003
20
9.53212142663472
30
0
41
1
10
13.737049765874
20
9.5198012725298
30
0
41
1
10
13.7187352282342
20
9.49591822570963
30
0
41
1
10
13.7091749421593
20
9.48431848058812
30
0
41
1
10
13.6891167538207
20
9.46191570446791
30
0
41
1
10
13.6786197964871
20
9.45111186483334
30
0
41
1
10
13.6565013495867
20
9.43046143490426
30
0
41
1
10
13.6448606867708
20
9.42059748954583
30
0
41
1
10
13.6079581046675
20
9.39290424748313
30
0
41
1
10
13.5815263070002
20
9.37748487924969
30
0
41
1
10
13.5452163817752
20
9.36365758390278
30
0
41
1
10
13.5377759237479
20
9.36117119765717
30
0
41
1
10
13.5228395300831
20
9.35689961322672
30
0
41
1
10
13.5153082123101
20
9.35509944740033
30
0
41
1
10
13.4925182901835
20
9.35074113394293
30
0
41
1
10
13.4770644463612
20
9.34922131452518
30
0
41
1
10
13.4613248654051
20
9.34922131452518
30
0
0
SPLINE
5
133
100
AcDbEntity
8
1
62
256
6
ByLayer
370
18
48
1
60
0
100
AcDbSpline
70
4
71
3
72
32
73
28
40
0
40
0
40
0
40
0
40
0.0312499999999963
40
0.0312499999999963
40
0.0624999999999928
40
0.0624999999999928
40
0.124999999999994
40
0.124999999999994
40
0.156249999999996
40
0.156249999999996
40
0.187499999999997
40
0.187499999999997
40
0.249999999999998
40
0.249999999999998
40
0.312499999999998
40
0.312499999999998
40
0.374999999999998
40
0.374999999999998
40
0.5
40
0.5
40
0.562499999999997
40
0.562499999999997
40
0.624999999999994
40
0.624999999999994
40
0.749999999999998
40
0.749999999999998
40
1
40
1
40
1
40
1
41
1
10
10.5386751345948
20
9.34922131452498
30
0
41
1
10
10.5308166515934
20
9.34922131452498
30
0
41
1
10
10.5229918398929
20
9.34960123302469
30
0
41
1
10
10.5074080928859
20
9.35110433740212
30
0
41
1
10
10.4996178076424
20
9.3522345198121
30
0
41
1
10
10.4766203225409
20
9.35666472180196
30
0
41
1
10
10.4617882298584
20
9.36098178019472
30
0
41
1
10
10.4401863631891
20
9.36922064667905
30
0
41
1
10
10.4330939182297
20
9.37226208194008
30
0
41
1
10
10.4191127836333
20
9.37890069603384
30
0
41
1
10
10.4122177999419
20
9.38250456041428
30
0
41
1
10
10.392156025832
20
9.39389972204373
30
0
41
1
10
10.3794828926306
20
9.40232505361246
30
0
41
1
10
10.3552649931436
20
9.4205071911083
30
0
41
1
10
10.343722024187
20
9.43026612350755
30
0
41
1
10
10.3215875864294
20
9.45090526429323
30
0
41
1
10
10.310960205639
20
9.46183015552262
30
0
41
1
10
10.2806617049328
20
9.49566900868382
30
0
41
1
10
10.2625095528537
20
9.5196329453612
30
0
41
1
10
10.2375038868186
20
9.55709686534362
30
0
41
1
10
10.2295303543197
20
9.5698696056032
30
0
41
1
10
10.2143631613259
20
9.59566828989799
30
0
41
1
10
10.207158418293
20
9.60870778228667
30
0
41
1
10
10.1865318440058
20
9.64819007031196
30
0
41
1
10
10.1740902691451
20
9.67499387250783
30
0
41
1
10
10.1399018475136
20
9.75655023082965
30
0
41
1
10
10.1212498345488
20
9.81243201498802
30
0
41
1
10
10.1056624327026
20
9.86941261896615
30
0
0
SPLINE
5
134
100
AcDbEntity
8
1
62
256
6
ByLayer
370
18
48
1
60
0
100
AcDbSpline
70
4
71
3
72
10
73
6
40
0
40
0
40
0
40
0
40
0.500000000000002
40
0.500000000000002
40
1
40
1
40
1
40
1
41
1
10
22.134698385264
20
-27.0954379800999
30
0
41
1
10
22.1362027296174
20
-27.1976438773933
30
0
41
1
10
22.1488047629374
20
-27.2974965415979
30
0
41
1
10
22.1966425889681
20
-27.492605434315
30
0
41
1
10
22.2318718677169
20
-27.5878616643276
30
0
41
1
10
22.2792076144253
20
-27.6808413104201
30
0
0
SPLINE
5
135
100
AcDbEntity
8
SK1
62
256
6
ByLayer
370
18
48
1
60
0
100
AcDbSpline
70
4
71
3
72
49
73
45
40
0
40
0
40
0
40
0
40
0.0158521291072372
40
0.0443314080289981
40
0.0728106869507592
40
0.10128996587252
40
0.129769244794281
40
0.158248523716042
40
0.215207081559564
40
0.243686360481325
40
0.272165639403086
40
0.300644918324847
40
0.329124197246608
40
0.357603476168369
40
0.38608275509013
40
0.414562034011891
40
0.428801673472771
40
0.443041312933652
40
0.457280952394532
40
0.471520591855413
40
0.485760231316293
40
0.492880051046733
40
0.499999870777174
40
0.507119690507614
40
0.514239510238054
40
0.528479149698935
40
0.542718789159815
40
0.556958428620696
40
0.571198068081576
40
0.585437707542457
40
0.613916986464218
40
0.642396265385978
40
0.670875544307739
40
0.6993548232295
40
0.727834102151262
40
0.756313381073022
40
0.784792659994783
40
0.841751217838305
40
0.870230496760066
40
0.898709775681827
40
0.927189054603588
40
0.955668333525349
40
0.98414761244711
40
1
40
1
40
1
40
1
41
1
10
-38
20
-20.2900102799033
30
0
41
1
10
-38
20
-20.2838087042238
30
0
41
1
10
-38
20
-20.238677820191
30
0
41
1
10
-38
20
-20.0459061788578
30
0
41
1
10
-38
20
-19.6579364097435
30
0
41
1
10
-38
20
-19.121649880576
30
0
41
1
10
-38
20
-18.4471796582741
30
0
41
1
10
-38
20
-17.3708469037194
30
0
41
1
10
-38
20
-16.0627714181563
30
0
41
1
10
-38
20
-14.5156182315173
30
0
41
1
10
-38
20
-13.2517911056129
30
0
41
1
10
-38
20
-11.884121927153
30
0
41
1
10
-38
20
-10.4165563625368
30
0
41
1
10
-38
20
-8.85372716578038
30
0
41
1
10
-38
20
-7.20134053529003
30
0
41
1
10
-38
20
-5.76201962732219
30
0
41
1
10
-38
20
-4.56407688146012
30
0
41
1
10
-38
20
-3.65884523285217
30
0
41
1
10
-38
20
-2.74483966025932
30
0
41
1
10
-38
20
-1.82748862261292
30
0
41
1
10
-38
20
-1.06947718042707
30
0
41
1
10
-38
20
-0.455018630552075
30
0
41
1
10
-38
20
-4.514861303E-07
30
0
41
1
10
-38
20
0.455018198724474
30
0
41
1
10
-38
20
1.06947767603967
30
0
41
1
10
-38
20
1.82748828650287
30
0
41
1
10
-38
20
2.74483905839463
30
0
41
1
10
-38
20
3.65884583736087
30
0
41
1
10
-38
20
4.5640765607352
30
0
41
1
10
-38
20
5.76201911469511
30
0
41
1
10
-38
20
7.20134092284709
30
0
41
1
10
-38
20
8.85372672313898
30
0
41
1
10
-38
20
10.4165562193455
30
0
41
1
10
-38
20
11.8841222937699
30
0
41
1
10
-38
20
13.2517907463501
30
0
41
1
10
-38
20
14.5156181768618
30
0
41
1
10
-38
20
16.0627718728323
30
0
41
1
10
-38
20
17.3708466567051
30
0
41
1
10
-38
20
18.4471799717542
30
0
41
1
10
-38
20
19.1216505379956
30
0
41
1
10
-38
20
19.6579362347721
30
0
41
1
10
-38
20
20.0459066437045
30
0
41
1
10
-38
20
20.2386791593947
30
0
41
1
10
-38
20
20.2838094543969
30
0
41
1
10
-38
20
20.2900107197239
30
0
0
SPLINE
5
136
100
AcDbEntity
8
SK1
62
256
6
ByLayer
370
18
48
1
60
0
100
AcDbSpline
70
4
71
3
72
36
73
32
40
0
40
0
40
0
40
0
40
0.0312500000000006
40
0.0312500000000006
40
0.0468750000000007
40
0.0468750000000007
40
0.0625000000000009
40
0.0625000000000009
40
0.078125000000001
40
0.078125000000001
40
0.0937500000000012
40
0.0937500000000012
40
0.125000000000002
40
0.125000000000002
40
0.156250000000002
40
0.156250000000002
40
0.187500000000003
40
0.187500000000003
40
0.250000000000004
40
0.250000000000004
40
0.312500000000005
40
0.312500000000005
40
0.375000000000006
40
0.375000000000006
40
0.500000000000006
40
0.500000000000006
40
0.625000000000005
40
0.625000000000005
40
0.750000000000005
40
0.750000000000005
40
1
40
1
40
1
40
1
41
1
10
-0.394913799811292
20
6.32721828439901
30
0
41
1
10
-0.388651860853344
20
6.32169800880934
30
0
41
1
10
-0.381850124236081
20
6.31686284615006
30
0
41
1
10
-0.37039582601011
20
6.31175696012832
30
0
41
1
10
-0.366345960396387
20
6.31042877188762
30
0
41
1
10
-0.358037716131264
20
6.30890123768719
30
0
41
1
10
-0.35368915432602
20
6.30870360354672
30
0
41
1
10
-0.345208124413119
20
6.30960458427649
30
0
41
1
10
-0.340958863848982
20
6.31070772605878
30
0
41
1
10
-0.332859652575024
20
6.31402544311607
30
0
41
1
10
-0.329057935890972
20
6.31619338160348
30
0
41
1
10
-0.31822232846153
20
6.32386838427445
30
0
41
1
10
-0.312078412289935
20
6.33025774259031
30
0
41
1
10
-0.301085882076165
20
6.34414232274304
30
0
41
1
10
-0.296343527957418
20
6.35152953268795
30
0
41
1
10
-0.287711149711186
20
6.3668056729274
30
0
41
1
10
-0.283833370168679
20
6.37471397159132
30
0
41
1
10
-0.27323621273078
20
6.3985772093198
30
0
41
1
10
-0.267439101060546
20
6.41481626716185
30
0
41
1
10
-0.257169431390224
20
6.44763062016602
30
0
41
1
10
-0.252727620657765
20
6.46421416849179
30
0
41
1
10
-0.24474520514363
20
6.49760452342764
30
0
41
1
10
-0.241214598359392
20
6.5144059185414
30
0
41
1
10
-0.231660540619686
20
6.56479252713515
30
0
41
1
10
-0.226629907857017
20
6.59846295367004
30
0
41
1
10
-0.21819915020231
20
6.66587124141833
30
0
41
1
10
-0.214824426638018
20
6.69957126003933
30
0
41
1
10
-0.209269492367241
20
6.76679198903059
30
0
41
1
10
-0.207091999731233
20
6.80034067321819
30
0
41
1
10
-0.201942367211245
20
6.90082001005126
30
0
41
1
10
-0.200331074104753
20
6.96758473110464
30
0
41
1
10
-0.200000000000017
20
7.03415845154797
30
0
0
SPLINE
5
137
100
AcDbEntity
8
SK1
62
256
6
ByLayer
370
18
48
1
60
0
100
AcDbSpline
70
4
71
3
72
40
73
36
40
0
40
0
40
0
40
0
40
0.249999999999991
40
0.249999999999991
40
0.37499999999999
40
0.37499999999999
40
0.499999999999988
40
0.499999999999988
40
0.624999999999987
40
0.624999999999987
40
0.687499999999989
40
0.687499999999989
40
0.749999999999991
40
0.749999999999991
40
0.812499999999993
40
0.812499999999993
40
0.843749999999995
40
0.843749999999995
40
0.874999999999996
40
0.874999999999996
40
0.890624999999996
40
0.890624999999996
40
0.906249999999997
40
0.906249999999997
40
0.921874999999997
40
0.921874999999997
40
0.937499999999998
40
0.937499999999998
40
0.953124999999998
40
0.953124999999998
40
0.968749999999999
40
0.968749999999999
40
0.984374999999999
40
0.984374999999999
40
1
40
1
40
1
40
1
41
1
10
-0.200000000000017
20
-7.03416121607441
30
0
41
1
10
-0.200330815103371
20
-6.96763966546041
30
0
41
1
10
-0.201940349251316
20
-6.90096555412458
30
0
41
1
10
-0.207070996833011
20
-6.80070221210741
30
0
41
1
10
-0.209239354999539
20
-6.76723901782026
30
0
41
1
10
-0.214764318431179
20
-6.70022371847915
30
0
41
1
10
-0.218114808322753
20
-6.66667162394384
30
0
41
1
10
-0.226489017484568
20
-6.5994729106236
30
0
41
1
10
-0.23149114194635
20
-6.56582630636572
30
0
41
1
10
-0.241036901726744
20
-6.51528035330136
30
0
41
1
10
-0.244556108211697
20
-6.49847112557535
30
0
41
1
10
-0.25250502314799
20
-6.46507959466703
30
0
41
1
10
-0.25692997095706
20
-6.44848157748783
30
0
41
1
10
-0.267171029982791
20
-6.41559723945636
30
0
41
1
10
-0.272955344086199
20
-6.39930333387312
30
0
41
1
10
-0.283553316434961
20
-6.37530507146633
30
0
41
1
10
-0.287432431444984
20
-6.36735118199186
30
0
41
1
10
-0.296040108964064
20
-6.35202357617757
30
0
41
1
10
-0.300766232707417
20
-6.34461234463069
30
0
41
1
10
-0.308967085084731
20
-6.33416203110167
30
0
41
1
10
-0.311908022590586
20
-6.33077681434855
30
0
41
1
10
-0.318164476683506
20
-6.32450219496934
30
0
41
1
10
-0.321489218115914
20
-6.3215939456986
30
0
41
1
10
-0.328692242821006
20
-6.31642240799482
30
0
41
1
10
-0.332576144960626
20
-6.31417396688744
30
0
41
1
10
-0.340684924848716
20
-6.31079560648985
30
0
41
1
10
-0.344995599835357
20
-6.3096474881059
30
0
41
1
10
-0.353563907701925
20
-6.30870335232461
30
0
41
1
10
-0.35794647802453
20
-6.30889601700255
30
0
41
1
10
-0.366254804145342
20
-6.31040674643401
30
0
41
1
10
-0.37022491081737
20
-6.31169706442716
30
0
41
1
10
-0.377887007436868
20
-6.31508659472502
30
0
41
1
10
-0.381566403142131
20
-6.31718953975286
30
0
41
1
10
-0.388488406577181
20
-6.32186168295425
30
0
41
1
10
-0.39176836682077
20
-6.32444846033573
30
0
41
1
10
-0.394913799811292
20
-6.32722135061286
30
0
0
SPLINE
5
138
100
AcDbEntity
8
SK1
62
256
6
ByLayer
370
13
48
1
60
0
100
AcDbSpline
70
4
71
3
72
21
73
17
40
0
40
0
40
0
40
0
40
0.0501712058569561
40
0.118460229206883
40
0.186749252556811
40
0.255038275906739
40
0.323327299256666
40
0.391616322606593
40
0.528194369306448
40
0.596483392656376
40
0.664772416006303
40
0.733061439356231
40
0.801350462706158
40
0.869639486056086
40
0.937928509406013
40
1
40
1
40
1
40
1
41
1
10
-0.394913799811292
20
21.8654706411368
30
0
41
1
10
-0.39491379981132
20
21.8658202622115
30
0
41
1
10
-0.394913799811292
20
21.8217384625578
30
0
41
1
10
-0.394913799811292
20
21.6019834098091
30
0
41
1
10
-0.394913799811292
20
21.1908658435729
30
0
41
1
10
-0.394913799811292
20
20.6247618481558
30
0
41
1
10
-0.394913799811292
20
19.9145928494951
30
0
41
1
10
-0.394913799811292
20
18.7870404111631
30
0
41
1
10
-0.394913799811292
20
17.4047594204778
30
0
41
1
10
-0.394913799811292
20
15.7849097442956
30
0
41
1
10
-0.394913799811292
20
14.4558606687731
30
0
41
1
10
-0.394913799811292
20
13.0147246633634
30
0
41
1
10
-0.394913799811292
20
11.4638140893219
30
0
41
1
10
-0.394913799811292
20
9.80498157314139
30
0
41
1
10
-0.394913799811292
20
8.09321756934102
30
0
41
1
10
-0.394913799811292
20
6.90653762641452
30
0
41
1
10
-0.394913799811292
20
6.32721828439901
30
0
0
SPLINE
5
139
100
AcDbEntity
8
SK1
62
256
6
ByLayer
370
13
48
1
60
0
100
AcDbSpline
70
4
71
3
72
21
73
17
40
0
40
0
40
0
40
0
40
0.0620709850175562
40
0.130359562914624
40
0.198648140811692
40
0.266936718708761
40
0.335225296605829
40
0.403513874502897
40
0.471802452399965
40
0.608379608194101
40
0.67666818609117
40
0.744956763988238
40
0.813245341885306
40
0.881533919782374
40
0.949822497679442
40
1
40
1
40
1
40
1
41
1
10
-0.394913799811292
20
-6.32722135061286
30
0
41
1
10
-0.394913799811292
20
-6.90653972901185
30
0
41
1
10
-0.394913799811292
20
-8.09321828866487
30
0
41
1
10
-0.394913799811292
20
-9.80498177095927
30
0
41
1
10
-0.394913799811292
20
-11.4638144327396
30
0
41
1
10
-0.394913799811292
20
-13.014724351229
30
0
41
1
10
-0.394913799811292
20
-14.4558608746283
30
0
41
1
10
-0.394913799811292
20
-15.7849099352292
30
0
41
1
10
-0.394913799811292
20
-17.4047589502432
30
0
41
1
10
-0.394913799811292
20
-18.7870406318774
30
0
41
1
10
-0.394913799811292
20
-19.9145926563567
30
0
41
1
10
-0.394913799811292
20
-20.6247611340725
30
0
41
1
10
-0.394913799811292
20
-21.1908660117695
30
0
41
1
10
-0.394913799811292
20
-21.6019829919256
30
0
41
1
10
-0.394913799811292
20
-21.8217455492772
30
0
41
1
10
-0.394913799811292
20
-21.8658250780665
30
0
41
1
10
-0.394913799811292
20
-21.865470430976
30
0
0
SPLINE
5
13A
100
AcDbEntity
8
SK1
62
256
6
ByLayer
370
18
48
1
60
0
100
AcDbSpline
70
4
71
3
72
51
73
47
40
0
40
0
40
0
40
0
40
0.0156249999999991
40
0.0156249999999991
40
0.0312499999999982
40
0.0312499999999982
40
0.0468749999999973
40
0.0468749999999973
40
0.0624999999999964
40
0.0624999999999964
40
0.0781249999999954
40
0.0859374999999951
40
0.0859374999999951
40
0.0937499999999947
40
0.0937499999999947
40
0.124999999999993
40
0.124999999999993
40
0.140624999999993
40
0.140624999999993
40
0.156249999999992
40
0.156249999999992
40
0.171874999999992
40
0.171874999999992
40
0.187499999999992
40
0.187499999999992
40
0.218749999999991
40
0.218749999999991
40
0.24999999999999
40
0.24999999999999
40
0.281249999999989
40
0.281249999999989
40
0.312499999999989
40
0.312499999999989
40
0.374999999999989
40
0.374999999999989
40
0.43749999999999
40
0.43749999999999
40
0.49999999999999
40
0.49999999999999
40
0.624999999999992
40
0.624999999999992
40
0.749999999999995
40
0.749999999999995
40
0.874999999999997
40
0.874999999999997
40
1
40
1
40
1
40
1
41
1
10
-0.394913799811292
20
-6.32722135062522
30
0
41
1
10
-0.403103547019441
20
-6.33444111034481
30
0
41
1
10
-0.411568516590108
20
-6.34138290087219
30
0
41
1
10
-0.429170091135489
20
-6.35459039773457
30
0
41
1
10
-0.43831629492334
20
-6.3608578974891
30
0
41
1
10
-0.457177342303623
20
-6.37239779961379
30
0
41
1
10
-0.466917648563935
20
-6.37769203793539
30
0
41
1
10
-0.487153207843136
20
-6.38712350886505
30
0
41
1
10
-0.497682675631438
20
-6.39127312214092
30
0
41
1
10
-0.519541799584147
20
-6.39807453657346
30
0
41
1
10
-0.536205505855378
20
-6.40195065166941
30
0
41
1
10
-0.553312890967476
20
-6.40381092862668
30
0
41
1
10
-0.564821683089775
20
-6.40457927715815
30
0
41
1
10
-0.570661631866017
20
-6.40472651279043
30
0
41
1
10
-0.59968773121858
20
-6.40423336369165
30
0
41
1
10
-0.622102468665219
20
-6.39998734213981
30
0
41
1
10
-0.654728144683787
20
-6.38885411254182
30
0
41
1
10
-0.665265234159847
20
-6.38439885825292
30
0
41
1
10
-0.685506727928441
20
-6.37439841042161
30
0
41
1
10
-0.695263535743464
20
-6.36883407140752
30
0
41
1
10
-0.714177802118201
20
-6.3567747780167
30
0
41
1
10
-0.723321143410601
20
-6.3502808336809
30
0
41
1
10
-0.740759389627414
20
-6.33680322085289
30
0
41
1
10
-0.749110346030392
20
-6.32978409383841
30
0
41
1
10
-0.773280793926858
20
-6.30805251056447
30
0
41
1
10
-0.78822917837428
20
-6.29267436431064
30
0
41
1
10
-0.816508756328489
20
-6.26067183093176
30
0
41
1
10
-0.829832017046726
20
-6.24404146668815
30
0
41
1
10
-0.85525358147396
20
-6.2098275518716
30
0
41
1
10
-0.867353405011528
20
-6.19222552349751
30
0
41
1
10
-0.890290953598992
20
-6.15674063815601
30
0
41
1
10
-0.901177592378616
20
-6.13879101734139
30
0
41
1
10
-0.932473247849742
20
-6.08444613540038
30
0
41
1
10
-0.951537336733765
20
-6.0475612269523
30
0
41
1
10
-0.987232093239811
20
-5.97286244830224
30
0
41
1
10
-1.00384791181236
20
-5.93504366748635
30
0
41
1
10
-1.03525413522215
20
-5.85867400558868
30
0
41
1
10
-1.05003902511504
20
-5.82012130347704
30
0
41
1
10
-1.09222933922732
20
-5.70354894528973
30
0
41
1
10
-1.11750013847291
20
-5.62462479791714
30
0
41
1
10
-1.1641141016691
20
-5.46491938757291
30
0
41
1
10
-1.18536324259088
20
-5.38437609466149
30
0
41
1
10
-1.22475757478614
20
-5.22230941297437
30
0
41
1
10
-1.24290388240135
20
-5.14074733501747
30
0
41
1
10
-1.27674450029033
20
-4.97666000857456
30
0
41
1
10
-1.29243386166999
20
-4.89413370391597
30
0
41
1
10
-1.30710678118655
20
-4.8111517782514
30
0
0
SPLINE
5
13B
100
AcDbEntity
8
SK1
62
256
6
ByLayer
370
18
48
1
60
0
100
AcDbSpline
70
4
71
3
72
40
73
36
40
0
40
0
40
0
40
0
40
0.125
40
0.125
40
0.1875
40
0.1875
40
0.25
40
0.25
40
0.3125
40
0.3125
40
0.34375
40
0.34375
40
0.359375
40
0.359375
40
0.375
40
0.375
40
0.4375
40
0.4375
40
0.5
40
0.5625
40
0.5625
40
0.625
40
0.625
40
0.656249999999999
40
0.671874999999999
40
0.671874999999999
40
0.687499999999999
40
0.687499999999999
40
0.749999999999999
40
0.749999999999999
40
0.812499999999999
40
0.812499999999999
40
0.874999999999999
40
0.874999999999999
40
1
40
1
40
1
40
1
41
1
10
-1.3071067811866
20
-4.81115177825131
30
0
41
1
10
-1.374622793295
20
-4.42931851789501
30
0
41
1
10
-1.43842306954178
20
-4.04321174825219
30
0
41
1
10
-1.52567448156807
20
-3.45651882726707
30
0
41
1
10
-1.5533368167803
20
-3.25969288493101
30
0
41
1
10
-1.60524340635007
20
-2.86327920729124
30
0
41
1
10
-1.629485287899
20
-2.66369063393995
30
0
41
1
10
-1.67384597566206
20
-2.26145078101035
30
0
41
1
10
-1.69395938565037
20
-2.05879746438532
30
0
41
1
10
-1.72047269473447
20
-1.75227000555529
30
0
41
1
10
-1.72870229322061
20
-1.64966999837915
30
0
41
1
10
-1.74006503391183
20
-1.4951017046248
30
0
41
1
10
-1.74368713518695
20
-1.44348814091276
30
0
41
1
10
-1.75057294247844
20
-1.340343237501
30
0
41
1
10
-1.75383938151629
20
-1.28877539719627
30
0
41
1
10
-1.76926982289669
20
-1.03095952328059
30
0
41
1
10
-1.77873477820947
20
-0.82478135977604
30
0
41
1
10
-1.79135312802683
20
-0.412582134739552
30
0
41
1
10
-1.79754609551321
20
-0.0005418097730683
30
0
41
1
10
-1.79137807494828
20
0.411189125581416
30
0
41
1
10
-1.77881369580271
20
0.822761881301432
30
0
41
1
10
-1.76938952483024
20
1.02847005779319
30
0
41
1
10
-1.75097190728465
20
1.33692150334681
30
0
41
1
10
-1.74069036277351
20
1.49111947898439
30
0
41
1
10
-1.72887208385961
20
1.64527687502962
30
0
41
1
10
-1.72065969674747
20
1.74803956652656
30
0
41
1
10
-1.71638790779505
20
1.79939862844844
30
0
41
1
10
-1.69427910225542
20
2.05547235697085
30
0
41
1
10
-1.67414509281366
20
2.25856982386534
30
0
41
1
10
-1.62973519898719
20
2.66158901568747
30
0
41
1
10
-1.60546482604906
20
2.86151288497595
30
0
41
1
10
-1.55350142719044
20
3.25850341404765
30
0
41
1
10
-1.52581080346147
20
3.4555709451387
30
0
41
1
10
-1.43848245106358
20
4.04286538655003
30
0
41
1
10
-1.37464191770107
20
4.42920989906065
30
0
41
1
10
-1.30710678118655
20
4.8111515693796
30
0
0
SPLINE
5
13C
100
AcDbEntity
8
SK1
62
256
6
ByLayer
370
18
48
1
60
0
100
AcDbSpline
70
4
71
3
72
51
73
47
40
0
40
0
40
0
40
0
40
0.124999999999997
40
0.124999999999997
40
0.249999999999994
40
0.249999999999994
40
0.374999999999992
40
0.374999999999992
40
0.499999999999989
40
0.499999999999989
40
0.562499999999989
40
0.562499999999989
40
0.624999999999989
40
0.624999999999989
40
0.687499999999989
40
0.687499999999989
40
0.71874999999999
40
0.71874999999999
40
0.74999999999999
40
0.74999999999999
40
0.781249999999991
40
0.781249999999991
40
0.812499999999991
40
0.812499999999991
40
0.828124999999992
40
0.828124999999992
40
0.843749999999993
40
0.843749999999993
40
0.859374999999993
40
0.859374999999993
40
0.874999999999994
40
0.874999999999994
40
0.890624999999994
40
0.890624999999994
40
0.898437499999995
40
0.898437499999995
40
0.906249999999995
40
0.921874999999996
40
0.921874999999996
40
0.937499999999997
40
0.937499999999997
40
0.953124999999998
40
0.953124999999998
40
0.968749999999999
40
0.968749999999999
40
1
40
1
40
1
40
1
41
1
10
-1.30710678118655
20
4.81115156937966
30
0
41
1
10
-1.29241814186358
20
4.89422245258601
30
0
41
1
10
-1.27671142477865
20
4.97683362134603
30
0
41
1
10
-1.2428321325454
20
5.1410815354084
30
0
41
1
10
-1.22466451933835
20
5.22271935203617
30
0
41
1
10
-1.18522246232584
20
5.38492681950902
30
0
41
1
10
-1.1639578554223
20
5.46549802550047
30
0
41
1
10
-1.11725974479191
20
5.62540226977166
30
0
41
1
10
-1.09190951976353
20
5.70451929766091
30
0
41
1
10
-1.04959296411107
20
5.82130654980756
30
0
41
1
10
-1.03476146769921
20
5.85992972493543
30
0
41
1
10
-1.00324847625177
20
5.93643689983455
30
0
41
1
10
-0.986572619190127
20
5.97432275637723
30
0
41
1
10
-0.950735693127655
20
6.04915001273994
30
0
41
1
10
-0.931589886782064
20
6.08609644673811
30
0
41
1
10
-0.90014045687775
20
6.14052530360527
30
0
41
1
10
-0.889197260559286
20
6.15850150199267
30
0
41
1
10
-0.866130482320528
20
6.1940351189366
30
0
41
1
10
-0.854034688294348
20
6.21154523857419
30
0
41
1
10
-0.82861191461663
20
6.24559230293653
30
0
41
1
10
-0.815263156517972
20
6.26217184383674
30
0
41
1
10
-0.786839616984622
20
6.29414128632044
30
0
41
1
10
-0.771774774816237
20
6.30953788138899
30
0
41
1
10
-0.747287558608093
20
6.33134151096425
30
0
41
1
10
-0.738796592350639
20
6.33839390811318
30
0
41
1
10
-0.721309333004712
20
6.35173618101936
30
0
41
1
10
-0.712284737644694
20
6.35805370019304
30
0
41
1
10
-0.693552428201002
20
6.36983092851585
30
0
41
1
10
-0.6838456211714
20
6.37529177227788
30
0
41
1
10
-0.6635762300306
20
6.38514079164267
30
0
41
1
10
-0.652994271508675
20
6.38952126343978
30
0
41
1
10
-0.631442528804882
20
6.39670554026134
30
0
41
1
10
-0.620403474265572
20
6.39954770653128
30
0
41
1
10
-0.603385608753428
20
6.40250300130214
30
0
41
1
10
-0.597628364481892
20
6.40326750190812
30
0
41
1
10
-0.586181679144261
20
6.40431153762214
30
0
41
1
10
-0.569030850267808
20
6.40516730683922
30
0
41
1
10
-0.551937271601957
20
6.40390572644711
30
0
41
1
10
-0.529196261060889
20
6.4003572033352
30
0
41
1
10
-0.518168362769302
20
6.3976988542467
30
0
41
1
10
-0.496835484302608
20
6.39094564046627
30
0
41
1
10
-0.486501972755633
20
6.38684509374406
30
0
41
1
10
-0.466398416496645
20
6.3774170277411
30
0
41
1
10
-0.456587609313431
20
6.37205876567259
30
0
41
1
10
-0.428432689769124
20
6.35475565889095
30
0
41
1
10
-0.411169702827039
20
6.34154884003178
30
0
41
1
10
-0.394913799811292
20
6.32721828439901
30
0
0
SPLINE
5
13D
100
AcDbEntity
8
SK1
62
256
6
ByLayer
370
13
48
1
60
0
100
AcDbSpline
70
4
71
3
72
49
73
45
40
0
40
0
40
0
40
0
40
0.0205797369549729
40
0.0487840394464748
40
0.0769883419379768
40
0.105192644429479
40
0.133396946920981
40
0.161601249412482
40
0.218009854395486
40
0.246214156886988
40
0.27441845937849
40
0.302622761869992
40
0.330827064361494
40
0.359031366852996
40
0.387235669344498
40
0.415439971836
40
0.429542123081751
40
0.443644274327502
40
0.457746425573253
40
0.471848576819004
40
0.485950728064754
40
0.49300180368763
40
0.500052879310505
40
0.507103954933381
40
0.514155030556256
40
0.528257181802008
40
0.542359333047758
40
0.556461484293509
40
0.57056363553926
40
0.584665786785011
40
0.612870089276513
40
0.641074391768015
40
0.669278694259517
40
0.697482996751019
40
0.725687299242521
40
0.753891601734023
40
0.782095904225525
40
0.838504509208528
40
0.86670881170003
40
0.894913114191532
40
0.923117416683034
40
0.951321719174536
40
0.979526021666038
40
1
40
1
40
1
40
1
41
1
10
-1.99503997793928
20
21.8252862848226
30
0
41
1
10
-1.99503997793928
20
21.8253745439323
30
0
41
1
10
-1.99503997793928
20
21.7812220102268
30
0
41
1
10
-1.99503997793928
20
21.5622163798915
30
0
41
1
10
-1.99503997793928
20
21.1516903613971
30
0
41
1
10
-1.99503997793928
20
20.5863484011186
30
0
41
1
10
-1.99503997793928
20
19.8770917100388
30
0
41
1
10
-1.99503997793928
20
18.7508482253859
30
0
41
1
10
-1.99503997793928
20
17.370463645283
30
0
41
1
10
-1.99503997793928
20
15.7524717843982
30
0
41
1
10
-1.99503997793928
20
14.4250895103889
30
0
41
1
10
-1.99503997793928
20
12.9858310385527
30
0
41
1
10
-1.99503997793928
20
11.4370504129058
30
0
41
1
10
-1.99503997793928
20
9.7806713457135
30
0
41
1
10
-1.99503997793928
20
8.01821749841287
30
0
41
1
10
-1.99503997793928
20
6.46319592062625
30
0
41
1
10
-1.99503997793928
20
5.16749921349111
30
0
41
1
10
-1.99503997793928
20
4.17226658860133
30
0
41
1
10
-1.99503997793928
20
3.15436853749512
30
0
41
1
10
-1.99503997793928
20
2.11640245296422
30
0
41
1
10
-1.99503997793928
20
1.23881043770962
30
0
41
1
10
-1.99503997793928
20
0.53126937109505
30
0
41
1
10
-1.99503997793928
20
-7.43625606E-08
30
0
41
1
10
-1.99503997793928
20
-0.53126948289281
30
0
41
1
10
-1.99503997793928
20
-1.23881045451824
30
0
41
1
10
-1.99503997793928
20
-2.11640247274798
30
0
41
1
10
-1.99503997793928
20
-3.15436880408234
30
0
41
1
10
-1.99503997793928
20
-4.17226659327741
30
0
41
1
10
-1.99503997793928
20
-5.16749918372616
30
0
41
1
10
-1.99503997793928
20
-6.46319635117558
30
0
41
1
10
-1.99503997793928
20
-8.01821733349291
30
0
41
1
10
-1.99503997793928
20
-9.78067154978808
30
0
41
1
10
-1.99503997793928
20
-11.4370507512064
30
0
41
1
10
-1.99503997793928
20
-12.985830725026
30
0
41
1
10
-1.99503997793928
20
-14.4250897201646
30
0
41
1
10
-1.99503997793928
20
-15.752471971849
30
0
41
1
10
-1.99503997793928
20
-17.370463175446
30
0
41
1
10
-1.99503997793928
20
-18.7508484467722
30
0
41
1
10
-1.99503997793928
20
-19.8770915138249
30
0
41
1
10
-1.99503997793928
20
-20.5863476884834
30
0
41
1
10
-1.99503997793928
20
-21.1516905297668
30
0
41
1
10
-1.99503997793928
20
-21.5622159608078
30
0
41
1
10
-1.99503997793928
20
-21.7809204571539
30
0
41
1
10
-1.99503997793928
20
-21.8251825434885
30
0
41
1
10
-1.99503997793928
20
-21.8252860905849
30
0
0
SPLINE
5
13E
100
AcDbEntity
8
SK1
62
256
6
ByLayer
370
18
48
1
60
0
100
AcDbSpline
70
4
71
3
72
49
73
45
40
0
40
0
40
0
40
0
40
0.0137022978937535
40
0.0423080580994344
40
0.0709138183051153
40
0.0995195785107962
40
0.128125338716477
40
0.156731098922158
40
0.21394261933352
40
0.242548379539201
40
0.271154139744882
40
0.299759899950563
40
0.328365660156243
40
0.356971420361924
40
0.385577180567605
40
0.414182940773286
40
0.428485820876127
40
0.442788700978967
40
0.457091581081807
40
0.471394461184648
40
0.485697341287488
40
0.492848781338909
40
0.500000221390329
40
0.507151661441749
40
0.514303101493169
40
0.52860598159601
40
0.54290886169885
40
0.557211741801691
40
0.571514621904531
40
0.585817502007371
40
0.614423262213052
40
0.643029022418733
40
0.671634782624414
40
0.700240542830095
40
0.728846303035776
40
0.757452063241457
40
0.786057823447138
40
0.8432693438585
40
0.87187510406418
40
0.900480864269861
40
0.929086624475542
40
0.957692384681223
40
0.986298144886904
40
1
40
1
40
1
40
1
41
1
10
-2.19999999999999
20
22.0136324908291
30
0
41
1
10
-2.19999999999999
20
22.0053278718764
30
0
41
1
10
-2.19999999999999
20
21.9554446858975
30
0
41
1
10
-2.19999999999999
20
21.7550273348429
30
0
41
1
10
-2.19999999999999
20
21.3416331895302
30
0
41
1
10
-2.19999999999999
20
20.7725964921017
30
0
41
1
10
-2.19999999999999
20
20.0589164660072
30
0
41
1
10
-2.19999999999999
20
18.9263265026412
30
0
41
1
10
-2.19999999999999
20
17.5367471514895
30
0
41
1
10
-2.19999999999999
20
15.9097476492909
30
0
41
1
10
-2.19999999999999
20
14.574283866752
30
0
41
1
10
-2.19999999999999
20
13.1259221492871
30
0
41
1
10
-2.19999999999999
20
11.5668144415121
30
0
41
1
10
-2.19999999999999
20
9.89853979541101
30
0
41
1
10
-2.19999999999999
20
8.12208991237512
30
0
41
1
10
-2.19999999999999
20
6.55235618011341
30
0
41
1
10
-2.19999999999999
20
5.24422924769223
30
0
41
1
10
-2.19999999999999
20
4.23755215854527
30
0
41
1
10
-2.19999999999999
20
3.20644349821168
30
0
41
1
10
-2.19999999999999
20
2.15314020845372
30
0
41
1
10
-2.19999999999999
20
1.26034245765445
30
0
41
1
10
-2.19999999999999
20
0.540965319759152
30
0
41
1
10
-2.19999999999999
20
-2.64082871E-08
30
0
41
1
10
-2.19999999999999
20
-0.540965390862539
30
0
41
1
10
-2.19999999999999
20
-1.26034253962158
30
0
41
1
10
-2.19999999999999
20
-2.15314018801405
30
0
41
1
10
-2.19999999999999
20
-3.20644372216569
30
0
41
1
10
-2.19999999999999
20
-4.2375522406841
30
0
41
1
10
-2.19999999999999
20
-5.24422917335971
30
0
41
1
10
-2.19999999999999
20
-6.55235660022589
30
0
41
1
10
-2.19999999999999
20
-8.12208977576526
30
0
41
1
10
-2.19999999999999
20
-9.89853996914991
30
0
41
1
10
-2.19999999999999
20
-11.5668148046225
30
0
41
1
10
-2.19999999999999
20
-13.1259218425112
30
0
41
1
10
-2.19999999999999
20
-14.5742840575192
30
0
41
1
10
-2.19999999999999
20
-15.9097478536278
30
0
41
1
10
-2.19999999999999
20
-17.5367466797247
30
0
41
1
10
-2.19999999999999
20
-18.9263267207688
30
0
41
1
10
-2.19999999999999
20
-20.0589162847047
30
0
41
1
10
-2.19999999999999
20
-20.7725957724454
30
0
41
1
10
-2.19999999999999
20
-21.3416333570605
30
0
41
1
10
-2.19999999999999
20
-21.7550269215783
30
0
41
1
10
-2.19999999999999
20
-21.9554427507907
30
0
41
1
10
-2.19999999999999
20
-22.0053265552591
30
0
41
1
10
-2.19999999999999
20
-22.0136315090408
30
0
0
SPLINE
5
13F
100
AcDbEntity
8
SK1
62
256
6
ByLayer
370
18
48
1
60
0
100
AcDbSpline
70
4
71
3
72
49
73
45
40
0
40
0
40
0
40
0
40
0.0270951375777117
40
0.0549130711429408
40
0.0827310047081699
40
0.110548938273399
40
0.138366871838628
40
0.166184805403857
40
0.221820672534315
40
0.249638606099544
40
0.277456539664774
40
0.305274473230003
40
0.333092406795232
40
0.360910340360461
40
0.38872827392569
40
0.416546207490919
40
0.430455174273534
40
0.444364141056148
40
0.458273107838763
40
0.472182074621377
40
0.486091041403992
40
0.493045524795299
40
0.500000008186606
40
0.506954491577914
40
0.513908974969221
40
0.527817941751835
40
0.54172690853445
40
0.555635875317064
40
0.569544842099679
40
0.583453808882294
40
0.611271742447523
40
0.639089676012752
40
0.666907609577981
40
0.69472554314321
40
0.722543476708439
40
0.750361410273668
40
0.778179343838897
40
0.833815210969355
40
0.861633144534584
40
0.889451078099813
40
0.917269011665043
40
0.945086945230272
40
0.972904878795501
40
1
40
1
40
1
40
1
41
1
10
-36.5
20
21.1524098875997
30
0
41
1
10
-36.5
20
21.1690105059694
30
0
41
1
10
-36.5
20
21.1349494884485
30
0
41
1
10
-36.5
20
20.9025888554179
30
0
41
1
10
-36.5
20
20.5018750148337
30
0
41
1
10
-36.5
20
19.9491731575018
30
0
41
1
10
-36.5
20
19.2550491829544
30
0
41
1
10
-36.5
20
18.1505177013548
30
0
41
1
10
-36.5
20
16.8015894462653
30
0
41
1
10
-36.5
20
15.2144137189484
30
0
41
1
10
-36.5
20
13.9146791761936
30
0
41
1
10
-36.5
20
12.5065639108223
30
0
41
1
10
-36.5
20
10.9931133711701
30
0
41
1
10
-36.5
20
9.37743039030653
30
0
41
1
10
-36.5
20
7.6628585236061
30
0
41
1
10
-36.5
20
6.15816884754437
30
0
41
1
10
-36.5
20
4.90499731091177
30
0
41
1
10
-36.5
20
3.94891745941501
30
0
41
1
10
-36.5
20
2.97621435827227
30
0
41
1
10
-36.5
20
1.99071854296869
30
0
41
1
10
-36.5
20
1.16514702467006
30
0
41
1
10
-36.5
20
0.498098462230814
30
0
41
1
10
-36.5
20
-2.384194602E-07
30
0
41
1
10
-36.5
20
-0.498098713248481
30
0
41
1
10
-36.5
20
-1.16514681856438
30
0
41
1
10
-36.5
20
-1.99071870036124
30
0
41
1
10
-36.5
20
-2.97621477071243
30
0
41
1
10
-36.5
20
-3.94891719908253
30
0
41
1
10
-36.5
20
-4.9049974336175
30
0
41
1
10
-36.5
20
-6.15816931379931
30
0
41
1
10
-36.5
20
-7.6628582618342
30
0
41
1
10
-36.5
20
-9.37743069816284
30
0
41
1
10
-36.5
20
-10.9931136245939
30
0
41
1
10
-36.5
20
-12.5065635742002
30
0
41
1
10
-36.5
20
-13.9146794509994
30
0
41
1
10
-36.5
20
-15.2144138486304
30
0
41
1
10
-36.5
20
-16.8015889830236
30
0
41
1
10
-36.5
20
-18.1505179338898
30
0
41
1
10
-36.5
20
-19.2550489357272
30
0
41
1
10
-36.5
20
-19.9491724688865
30
0
41
1
10
-36.5
20
-20.5018751860753
30
0
41
1
10
-36.5
20
-20.9025884164263
30
0
41
1
10
-36.5
20
-21.1349487305445
30
0
41
1
10
-36.5
20
-21.1690105423849
30
0
41
1
10
-36.5
20
-21.1524098093143
30
0
0
SPLINE
5
140
100
AcDbEntity
8
1
62
256
6
ByLayer
370
18
48
1
60
0
100
AcDbSpline
70
4
71
3
72
18
73
14
40
0
40
0
40
0
40
0
40
0.106502320877355
40
0.209819720888244
40
0.309970050664568
40
0.40697292240023
40
0.500849920825673
40
0.591624858696209
40
0.679324076625867
40
0.763976789998074
40
0.845615488386069
40
0.924276395492498
40
1
40
1
40
1
40
1
41
1
10
62.59011863841
20
-36.516914648177
30
0
41
1
10
62.5885415273357
20
-36.5162356963494
30
0
41
1
10
62.5854344682343
20
-36.5148980965508
30
0
41
1
10
62.5809243323185
20
-36.5125950376114
30
0
41
1
10
62.5766153234623
20
-36.5101336525213
30
0
41
1
10
62.5725126225171
20
-36.5075098420597
30
0
41
1
10
62.5686149102103
20
-36.5047475341628
30
0
41
1
10
62.5649224452295
20
-36.5018629608244
30
0
41
1
10
62.5614353720448
20
-36.4988731471596
30
0
41
1
10
62.5581528367139
20
-36.4957956455299
30
0
41
1
10
62.5550778698624
20
-36.4926415847493
30
0
41
1
10
62.5521996835921
20
-36.4894420074179
30
0
41
1
10
62.5504035869186
20
-36.4872081231617
30
0
41
1
10
62.54952262475
20
-36.4861124318507
30
0
0
SPLINE
5
141
100
AcDbEntity
8
1
62
256
6
ByLayer
370
18
48
1
60
0
100
AcDbSpline
70
4
71
3
72
16
73
12
40
0
40
0
40
0
40
0
40
0.117319552192495
40
0.233085853411018
40
0.347299362420192
40
0.459960556948122
40
0.571069934744742
40
0.68062801471298
40
0.788635338118851
40
0.895092469888348
40
1
40
1
40
1
40
1
41
1
10
62.74894541545
20
-36.572267476298
30
0
41
1
10
62.7426777667126
20
-36.5704446731299
30
0
41
1
10
62.730225449707
20
-36.566823199777
30
0
41
1
10
62.7117192560249
20
-36.5611085912359
30
0
41
1
10
62.6934972967186
20
-36.5552431101864
30
0
41
1
10
62.6755628433777
20
-36.5492133266125
30
0
41
1
10
62.6579151153779
20
-36.5430337309317
30
0
41
1
10
62.6405540288848
20
-36.5367130798226
30
0
41
1
10
62.623480658135
20
-36.5302550550507
30
0
41
1
10
62.6066908752588
20
-36.5236879439445
30
0
41
1
10
62.5956156516797
20
-36.5191613513213
30
0
41
1
10
62.59011863841
20
-36.51691464817
30
0
0
SPLINE
5
142
100
AcDbEntity
8
1
62
256
6
ByLayer
370
18
48
1
60
0
100
AcDbSpline
70
4
71
2
72
10
73
7
40
0
40
0
40
0
40
0.5
40
0.5
40
0.75
40
0.75
40
1
40
1
40
1
41
1
10
62.7489454154435
20
-36.572267476262
30
0
41
1
10
62.8165392416659
20
-36.5917621635151
30
0
41
1
10
62.864235482769
20
-36.6434857110098
30
0
41
1
10
62.8902224727208
20
-36.671666952926
30
0
41
1
10
62.9068593747304
20
-36.7075223538963
30
0
41
1
10
62.9248252361523
20
-36.7462418922267
30
0
41
1
10
62.928946197083
20
-36.789264413028
30
0
0
SPLINE
5
143
100
AcDbEntity
8
1
62
256
6
ByLayer
370
18
48
1
60
0
100
AcDbSpline
70
4
71
2
72
6
73
3
40
0
40
0
40
0
40
1
40
1
40
1
41
1
10
62.9289461971205
20
-36.789264412942
30
0
41
1
10
62.9378374892931
20
-36.8844834459601
30
0
41
1
10
62.9378609595315
20
-36.9799999993024
30
0
0
SPLINE
5
144
100
AcDbEntity
8
1
62
256
6
ByLayer
370
18
48
1
60
0
100
AcDbSpline
70
4
71
3
72
17
73
13
40
0
40
0
40
0
40
0
40
0.100317411817028
40
0.200541310293742
40
0.300680278273694
40
0.400742920447717
40
0.500737861201959
40
0.600673742442847
40
0.700559221399291
40
0.800402968404992
40
0.900213664663602
40
1
40
1
40
1
40
1
41
1
10
62.92894619712
20
-37.210735587058
30
0
41
1
10
62.9295231228817
20
-37.2043912298246
30
0
41
1
10
62.9306764366097
20
-37.1917084294062
30
0
41
1
10
62.9321818251213
20
-37.1726539472122
30
0
41
1
10
62.9335216262512
20
-37.1535914790204
30
0
41
1
10
62.9346798037513
20
-37.1345196957169
30
0
41
1
10
62.9356607269913
20
-37.1154410706663
30
0
41
1
10
62.9364629358429
20
-37.0963570587512
30
0
41
1
10
62.9370879043616
20
-37.0772693864805
30
0
41
1
10
62.937531197509
20
-37.0581797063309
30
0
41
1
10
62.9378090731845
20
-37.0390896896565
30
0
41
1
10
62.9378436654888
20
-37.0263627125725
30
0
41
1
10
62.93786095953
20
-37.0200000006976
30
0
0
SPLINE
5
145
100
AcDbEntity
8
1
62
256
6
ByLayer
370
18
48
1
60
0
100
AcDbSpline
70
4
71
3
72
38
73
34
40
0
40
0
40
0
40
0
40
0.0320161803202299
40
0.0634137556517018
40
0.0941938978135361
40
0.124357850632109
40
0.153906935795983
40
0.18284255929872
40
0.211166218540724
40
0.238879510169577
40
0.265984138747588
40
0.29248192635149
40
0.318374823219166
40
0.34366491957869
40
0.36835445881071
40
0.392445852120268
40
0.415941694916206
40
0.438844785127768
40
0.461158143719646
40
0.482885037706396
40
0.504029006008717
40
0.551366811163478
40
0.597409666800776
40
0.642207857911417
40
0.685815975457814
40
0.728293199080114
40
0.769703557232105
40
0.810116149643953
40
0.849605314211507
40
0.888250718111319
40
0.926137351649982
40
0.96335540368498
40
1
40
1
40
1
40
1
41
1
10
62.74894541544
20
-37.427732523738
30
0
41
1
10
62.7515736233648
20
-37.4269514392852
30
0
41
1
10
62.756779257937
20
-37.4254043622093
30
0
41
1
10
62.7644507904023
20
-37.4227682841381
30
0
41
1
10
62.7719249095621
20
-37.4199441000571
30
0
41
1
10
62.7791975153458
20
-37.4169210898551
30
0
41
1
10
62.7862696764354
20
-37.4137183659082
30
0
41
1
10
62.7931411178642
20
-37.4103470598266
30
0
41
1
10
62.7998119140361
20
-37.4068201212966
30
0
41
1
10
62.8062820488634
20
-37.4031497437452
30
0
41
1
10
62.8125515300023
20
-37.399348007265
30
0
41
1
10
62.8186203592458
20
-37.3954266889405
30
0
41
1
10
62.8244885401635
20
-37.3913972918273
30
0
41
1
10
62.8301560763678
20
-37.3872710198155
30
0
41
1
10
62.8356229711881
20
-37.3830587686772
30
0
41
1
10
62.840889230658
20
-37.3787711161078
30
0
41
1
10
62.8459548524165
20
-37.3744183110024
30
0
41
1
10
62.8508198658027
20
-37.3700102765178
30
0
41
1
10
62.8554841879108
20
-37.3655565701326
30
0
41
1
10
62.8599481402181
20
-37.3610665051889
30
0
41
1
10
62.8660095567998
20
-37.3546419695069
30
0
41
1
10
62.8734588192033
20
-37.3460531831904
30
0
41
1
10
62.8820027422797
20
-37.3349799163678
30
0
41
1
10
62.8898489226435
20
-37.3235305586926
30
0
41
1
10
62.8969976055379
20
-37.3117506191717
30
0
41
1
10
62.9034486190906
20
-37.2996846186172
30
0
41
1
10
62.9092017357358
20
-37.2873766525562
30
0
41
1
10
62.9142571546107
20
-37.2748701653709
30
0
41
1
10
62.9186132961071
20
-37.2622074528296
30
0
41
1
10
62.9222748801839
20
-37.2494310234884
30
0
41
1
10
62.9252236999947
20
-37.2365780883643
30
0
41
1
10
62.9275246334318
20
-37.2237000583364
30
0
41
1
10
62.928474801506
20
-37.2150346518978
30
0
41
1
10
62.92894619708
20
-37.210735586972
30
0
0
SPLINE
5
146
100
AcDbEntity
8
1
62
256
6
ByLayer
370
18
48
1
60
0
100
AcDbSpline
70
4
71
2
72
6
73
3
40
0
40
0
40
0
40
1
40
1
40
1
41
1
10
62.748945415452
20
-37.427732523702
30
0
41
1
10
62.6679467190157
20
-37.450984756672
30
0
41
1
10
62.5901186384125
20
-37.48308535183
30
0
0
SPLINE
5
147
100
AcDbEntity
8
1
62
256
6
ByLayer
370
18
48
1
60
0
100
AcDbSpline
70
4
71
2
72
6
73
3
40
0
40
0
40
0
40
1
40
1
40
1
41
1
10
62.5901186384115
20
-37.483085351823
30
0
41
1
10
62.5658197594191
20
-37.4932546708632
30
0
41
1
10
62.5495226247505
20
-37.513887568149
30
0
0
LINE
5
7D
100
AcDbEntity
8
1
62
256
6
ByLayer
370
18
48
1
60
0
100
AcDbLine
10
0
20
-31.2
30
0
11
0.3
21
-31.5
31
0
39
0
210
0
220
0
230
1
0
LINE
5
7E
100
AcDbEntity
8
1
62
256
6
ByLayer
370
18
48
1
60
0
100
AcDbLine
10
0.3
20
31.5
30
0
11
0
21
31.2
31
0
39
0
210
0
220
0
230
1
0
LINE
5
7F
100
AcDbEntity
8
1
62
256
6
ByLayer
370
18
48
1
60
0
100
AcDbLine
10
22
20
31.5
30
0
11
0.3
21
31.5
31
0
39
0
210
0
220
0
230
1
0
LINE
5
80
100
AcDbEntity
8
1
62
256
6
ByLayer
370
18
48
1
60
0
100
AcDbLine
10
0.3
20
-31.5
30
0
11
22.279208
21
-31.5
31
0
39
0
210
0
220
0
230
1
0
LINE
5
81
100
AcDbEntity
8
80
62
256
6
ByLayer
370
18
48
1
60
0
100
AcDbLine
10
0
20
0
30
0
11
-5
21
0
31
0
39
0
210
0
220
0
230
1
0
LINE
5
82
100
AcDbEntity
8
81
62
256
6
ByLayer
370
18
48
1
60
0
100
AcDbLine
10
70
20
-39
30
0
11
75
21
-39
31
0
39
0
210
0
220
0
230
1
0
LINE
5
83
100
AcDbEntity
8
1
62
256
6
ByLayer
370
18
48
1
60
0
100
AcDbLine
10
60.335971
20
-38.77072
30
0
11
60.335869
21
-38.713439
31
0
39
0
210
0
220
0
230
1
0
LINE
5
84
100
AcDbEntity
8
1
62
256
6
ByLayer
370
18
48
1
60
0
100
AcDbLine
10
62.805601
20
-38.768644
30
0
11
62.8053
21
-38.599993
31
0
39
0
210
0
220
0
230
1
0
LINE
5
85
100
AcDbEntity
8
1
62
256
6
ByLayer
370
13
48
1
60
0
100
AcDbLine
10
28.2
20
-32.65
30
0
11
23.576849
21
-32.65
31
0
39
0
210
0
220
0
230
1
0
LINE
5
86
100
AcDbEntity
8
1
62
256
6
ByLayer
370
13
48
1
60
0
100
AcDbLine
10
28.2
20
-31.65
30
0
11
28.2
21
-32.65
31
0
39
0
210
0
220
0
230
1
0
LINE
5
87
100
AcDbEntity
8
1
62
256
6
ByLayer
370
18
48
1
60
0
100
AcDbLine
10
69
20
-38.969722
30
0
11
69
21
-39.066231
31
0
39
0
210
0
220
0
230
1
0
LINE
5
88
100
AcDbEntity
8
1
62
256
6
ByLayer
370
18
48
1
60
0
100
AcDbLine
10
65.878604
20
-38.768644
30
0
11
62.805601
21
-38.768644
31
0
39
0
210
0
220
0
230
1
0
LINE
5
89
100
AcDbEntity
8
1
62
256
6
ByLayer
370
18
48
1
60
0
100
AcDbLine
10
60.335971
20
-38.77072
30
0
11
58.836935
21
-38.77072
31
0
39
0
210
0
220
0
230
1
0
LINE
5
8A
100
AcDbEntity
8
1
62
256
6
ByLayer
370
18
48
1
60
0
100
AcDbLine
10
31.893237
20
-38.691186
30
0
11
32.400095
21
-38.691186
31
0
39
0
210
0
220
0
230
1
0
LINE
5
8B
100
AcDbEntity
8
1
62
256
6
ByLayer
370
18
48
1
60
0
100
AcDbLine
10
28.2
20
-38.75039
30
0
11
25.200693
21
-38.75039
31
0
39
0
210
0
220
0
230
1
0
LINE
5
8C
100
AcDbEntity
8
1
62
256
6
ByLayer
370
18
48
1
60
0
100
AcDbLine
10
28.407683
20
-42.3323
30
0
11
58.640146
21
-42.3323
31
0
39
0
210
0
220
0
230
1
0
LINE
5
8D
100
AcDbEntity
8
1
62
256
6
ByLayer
370
13
48
1
60
0
100
AcDbLine
10
28.2
20
-38.75039
30
0
11
28.2
21
-32.65
31
0
39
0
210
0
220
0
230
1
0
LINE
5
8E
100
AcDbEntity
8
1
62
256
6
ByLayer
370
18
48
1
60
0
100
AcDbLine
10
31.893237
20
-38.691186
30
0
11
31.893237
21
-32.65
31
0
39
0
210
0
220
0
230
1
0
LINE
5
8F
100
AcDbEntity
8
1
62
256
6
ByLayer
370
13
48
1
60
0
100
AcDbLine
10
31.893237
20
-32.65
30
0
11
28.2
21
-32.65
31
0
39
0
210
0
220
0
230
1
0
LINE
5
90
100
AcDbEntity
8
1
62
256
6
ByLayer
370
18
48
1
60
0
100
AcDbLine
10
32.279216
20
-32.65
30
0
11
32.279216
21
-38.678632
31
0
39
0
210
0
220
0
230
1
0
LINE
5
91
100
AcDbEntity
8
1
62
256
6
ByLayer
370
13
48
1
60
0
100
AcDbLine
10
32.4
20
-32.65
30
0
11
32.279216
21
-32.65
31
0
39
0
210
0
220
0
230
1
0
LINE
5
92
100
AcDbEntity
8
1
62
256
6
ByLayer
370
18
48
1
60
0
100
AcDbLine
10
62
20
-36.725031
30
0
11
62
21
-37.274969
31
0
39
0
210
0
220
0
230
1
0
LINE
5
93
100
AcDbEntity
8
1
62
256
6
ByLayer
370
18
48
1
60
0
100
AcDbLine
10
29.399843
20
-31.65
30
0
11
28.400157
21
-31.65
31
0
39
0
210
0
220
0
230
1
0
LINE
5
94
100
AcDbEntity
8
1
62
256
6
ByLayer
370
18
48
1
60
0
100
AcDbLine
10
29.399843
20
16.75
30
0
11
28.400157
21
16.75
31
0
39
0
210
0
220
0
230
1
0
LINE
5
95
100
AcDbEntity
8
1
62
256
6
ByLayer
370
18
48
1
60
0
100
AcDbLine
10
32.400017
20
-38.678632
30
0
11
32.279216
21
-38.678632
31
0
39
0
210
0
220
0
230
1
0
LINE
5
96
100
AcDbEntity
8
1
62
256
6
ByLayer
370
13
48
1
60
0
100
AcDbLine
10
52
20
-35.342854
30
0
11
52
21
-35.982775
31
0
39
0
210
0
220
0
230
1
0
LINE
5
97
100
AcDbEntity
8
1
62
256
6
ByLayer
370
18
48
1
60
0
100
AcDbLine
10
50.4
20
-33.783861
30
0
11
50.4
21
-34.564398
31
0
39
0
210
0
220
0
230
1
0
LINE
5
98
100
AcDbEntity
8
1
62
256
6
ByLayer
370
18
48
1
60
0
100
AcDbLine
10
28.4
20
-31.65
30
0
11
26.134546
21
-31.65
31
0
39
0
210
0
220
0
230
1
0
LINE
5
99
100
AcDbEntity
8
1
62
256
6
ByLayer
370
18
48
1
60
0
100
AcDbLine
10
26.134546
20
16.75
30
0
11
28.4
21
16.75
31
0
39
0
210
0
220
0
230
1
0
LINE
5
9A
100
AcDbEntity
8
1
62
256
6
ByLayer
370
18
48
1
60
0
100
AcDbLine
10
28.4
20
16.75
30
0
11
28.4
21
-31.65
31
0
39
0
210
0
220
0
230
1
0
LINE
5
9B
100
AcDbEntity
8
1
62
256
6
ByLayer
370
18
48
1
60
0
100
AcDbLine
10
48.360149
20
-39.133283
30
0
11
51.216445
21
-39.133283
31
0
39
0
210
0
220
0
230
1
0
LINE
5
9C
100
AcDbEntity
8
1
62
256
6
ByLayer
370
18
48
1
60
0
100
AcDbLine
10
58.5
20
-35.504636
30
0
11
58.5
21
-38.787139
31
0
39
0
210
0
220
0
230
1
0
LINE
5
9D
100
AcDbEntity
8
1
62
256
6
ByLayer
370
13
48
1
60
0
100
AcDbLine
10
50.620592
20
-35.325
30
0
11
48.360149
21
-35.325
31
0
39
0
210
0
220
0
230
1
0
LINE
5
9E
100
AcDbEntity
8
1
62
256
6
ByLayer
370
18
48
1
60
0
100
AcDbLine
10
31.4
20
-31.65
30
0
11
29.4
21
-31.65
31
0
39
0
210
0
220
0
230
1
0
LINE
5
9F
100
AcDbEntity
8
1
62
256
6
ByLayer
370
18
48
1
60
0
100
AcDbLine
10
29.4
20
16.75
30
0
11
38.9
21
16.75
31
0
39
0
210
0
220
0
230
1
0
LINE
5
A0
100
AcDbEntity
8
1
62
256
6
ByLayer
370
18
48
1
60
0
100
AcDbLine
10
50.4
20
-33.783861
30
0
11
50.4
21
-21.1
31
0
39
0
210
0
220
0
230
1
0
LINE
5
A1
100
AcDbEntity
8
1
62
256
6
ByLayer
370
18
48
1
60
0
100
AcDbLine
10
50.4
20
-21.1
30
0
11
38.9
21
16.75
31
0
39
0
210
0
220
0
230
1
0
LINE
5
A2
100
AcDbEntity
8
1
62
256
6
ByLayer
370
18
48
1
60
0
100
AcDbLine
10
29.4
20
-31.65
30
0
11
29.4
21
16.75
31
0
39
0
210
0
220
0
230
1
0
LINE
5
A3
100
AcDbEntity
8
1
62
256
6
ByLayer
370
18
48
1
60
0
100
AcDbLine
10
32.4
20
-39.133283
30
0
11
32.4
21
-32.65
31
0
39
0
210
0
220
0
230
1
0
LINE
5
A4
100
AcDbEntity
8
1
62
256
6
ByLayer
370
18
48
1
60
0
100
AcDbLine
10
48.360149
20
-39.133283
30
0
11
32.4
21
-39.133283
31
0
39
0
210
0
220
0
230
1
0
LINE
5
A5
100
AcDbEntity
8
1
62
256
6
ByLayer
370
18
48
1
60
0
100
AcDbLine
10
48.360149
20
-39.133283
30
0
11
48.360149
21
-35.325
31
0
39
0
210
0
220
0
230
1
0
LINE
5
A6
100
AcDbEntity
8
1
62
256
6
ByLayer
370
13
48
1
60
0
100
AcDbLine
10
23.438319
20
-29.601958
30
0
11
23.438319
21
-31.65
31
0
39
0
210
0
220
0
230
1
0
LINE
5
A7
100
AcDbEntity
8
1
62
256
6
ByLayer
370
13
48
1
60
0
100
AcDbLine
10
26.134546
20
16.75
30
0
11
26.134546
21
-31.65
31
0
39
0
210
0
220
0
230
1
0
LINE
5
A8
100
AcDbEntity
8
1
62
256
6
ByLayer
370
18
48
1
60
0
100
AcDbLine
10
26.134546
20
16.75
30
0
11
26.093966
21
16.75
31
0
39
0
210
0
220
0
230
1
0
LINE
5
A9
100
AcDbEntity
8
1
62
256
6
ByLayer
370
18
48
1
60
0
100
AcDbLine
10
23.905343
20
-31.65
30
0
11
26.134546
21
-31.65
31
0
39
0
210
0
220
0
230
1
0
LINE
5
AA
100
AcDbEntity
8
1
62
256
6
ByLayer
370
13
48
1
60
0
100
AcDbLine
10
13.461325
20
30.080593
30
0
11
13.461325
21
9.349221
31
0
39
0
210
0
220
0
230
1
0
LINE
5
AB
100
AcDbEntity
8
1
62
256
6
ByLayer
370
13
48
1
60
0
100
AcDbLine
10
13.894338
20
29.913955
30
0
11
13.894338
21
9.869413
31
0
39
0
210
0
220
0
230
1
0
LINE
5
AC
100
AcDbEntity
8
1
62
256
6
ByLayer
370
13
48
1
60
0
100
AcDbLine
10
10.105662
20
-9.869413
30
0
11
10.105662
21
-29.913955
31
0
39
0
210
0
220
0
230
1
0
LINE
5
AD
100
AcDbEntity
8
1
62
256
6
ByLayer
370
13
48
1
60
0
100
AcDbLine
10
10.538675
20
-9.349221
30
0
11
10.538675
21
-30.080593
31
0
39
0
210
0
220
0
230
1
0
LINE
5
AE
100
AcDbEntity
8
1
62
256
6
ByLayer
370
13
48
1
60
0
100
AcDbLine
10
10.105662
20
29.913955
30
0
11
10.105662
21
9.869413
31
0
39
0
210
0
220
0
230
1
0
LINE
5
AF
100
AcDbEntity
8
1
62
256
6
ByLayer
370
13
48
1
60
0
100
AcDbLine
10
10.538675
20
30.080593
30
0
11
10.538675
21
9.349221
31
0
39
0
210
0
220
0
230
1
0
LINE
5
B0
100
AcDbEntity
8
1
62
256
6
ByLayer
370
13
48
1
60
0
100
AcDbLine
10
13.461325
20
-9.349221
30
0
11
13.461325
21
-30.080593
31
0
39
0
210
0
220
0
230
1
0
LINE
5
B1
100
AcDbEntity
8
1
62
256
6
ByLayer
370
13
48
1
60
0
100
AcDbLine
10
13.894338
20
-9.869413
30
0
11
13.894338
21
-29.913955
31
0
39
0
210
0
220
0
230
1
0
LINE
5
B2
100
AcDbEntity
8
1
62
256
6
ByLayer
370
18
48
1
60
0
100
AcDbLine
10
0
20
31.2
30
0
11
0
21
-31.2
31
0
39
0
210
0
220
0
230
1
0
LINE
5
B3
100
AcDbEntity
8
1
62
256
6
ByLayer
370
18
48
1
60
0
100
AcDbLine
10
0.3
20
31.5
30
0
11
0.3
21
-31.5
31
0
39
0
210
0
220
0
230
1
0
LINE
5
B4
100
AcDbEntity
8
1
62
256
6
ByLayer
370
18
48
1
60
0
100
AcDbLine
10
13.461325
20
-30.080593
30
0
11
10.538675
21
-30.080593
31
0
39
0
210
0
220
0
230
1
0
LINE
5
B5
100
AcDbEntity
8
1
62
256
6
ByLayer
370
18
48
1
60
0
100
AcDbLine
10
10.538675
20
-9.349221
30
0
11
13.461325
21
-9.349221
31
0
39
0
210
0
220
0
230
1
0
LINE
5
B6
100
AcDbEntity
8
1
62
256
6
ByLayer
370
18
48
1
60
0
100
AcDbLine
10
10.538675
20
30.080593
30
0
11
13.461325
21
30.080593
31
0
39
0
210
0
220
0
230
1
0
LINE
5
B7
100
AcDbEntity
8
1
62
256
6
ByLayer
370
18
48
1
60
0
100
AcDbLine
10
13.461325
20
9.349221
30
0
11
10.538675
21
9.349221
31
0
39
0
210
0
220
0
230
1
0
LINE
5
B8
100
AcDbEntity
8
1
62
256
6
ByLayer
370
18
48
1
60
0
100
AcDbLine
10
22
20
31.5
30
0
11
22.080515
21
22.273864
31
0
39
0
210
0
220
0
230
1
0
LINE
5
B9
100
AcDbEntity
8
1
62
256
6
ByLayer
370
13
48
1
60
0
100
AcDbLine
10
22.279208
20
-31.5
30
0
11
22.279208
21
-27.680841
31
0
39
0
210
0
220
0
230
1
0
LINE
5
BA
100
AcDbEntity
8
1
62
256
6
ByLayer
370
18
48
1
60
0
100
AcDbLine
10
22.080515
20
22.273864
30
0
11
22.094118
21
20.715094
31
0
39
0
210
0
220
0
230
1
0
LINE
5
BB
100
AcDbEntity
8
1
62
256
6
ByLayer
370
13
48
1
60
0
100
AcDbLine
10
22.134698
20
-27.095438
30
0
11
22.134698
21
20.180615
31
0
39
0
210
0
220
0
230
1
0
LINE
5
BC
100
AcDbEntity
8
SK1
62
256
6
ByLayer
370
18
48
1
60
0
100
AcDbLine
10
-0.2
20
-22.533485
30
0
11
-0.2
21
-7.034161
31
0
39
0
210
0
220
0
230
1
0
LINE
5
BE
100
AcDbEntity
8
SK1
62
256
6
ByLayer
370
18
48
1
60
0
100
AcDbLine
10
-0.2
20
22.533485
30
0
11
-0.2
21
7.034158
31
0
39
0
210
0
220
0
230
1
0
LINE
5
BF
100
AcDbEntity
8
SK1
62
256
6
ByLayer
370
13
48
1
60
0
100
AcDbLine
10
-1.307107
20
4.811152
30
0
11
-1.307107
21
-4.811152
31
0
39
0
210
0
220
0
230
1
0
LINE
5
C0
100
AcDbEntity
8
1
62
256
6
ByLayer
370
18
48
1
60
0
100
AcDbLine
10
63.63
20
-35.4
30
0
11
65.58649
21
-35.4
31
0
39
0
210
0
220
0
230
1
0
LINE
5
C1
100
AcDbEntity
8
1
62
256
6
ByLayer
370
18
48
1
60
0
100
AcDbLine
10
63.63
20
-38.6
30
0
11
65.58649
21
-38.6
31
0
39
0
210
0
220
0
230
1
0
LINE
5
C2
100
AcDbEntity
8
1
62
256
6
ByLayer
370
18
48
1
60
0
100
AcDbLine
10
69.686914
20
-38.999714
30
0
11
66
21
-38.83874
31
0
39
0
210
0
220
0
230
1
0
LINE
5
C3
100
AcDbEntity
8
1
62
256
6
ByLayer
370
18
48
1
60
0
100
AcDbLine
10
66
20
-38.83874
30
0
11
65.58649
21
-38.6
31
0
39
0
210
0
220
0
230
1
0
LINE
5
C4
100
AcDbEntity
8
1
62
256
6
ByLayer
370
18
48
1
60
0
100
AcDbLine
10
70
20
-38.7
30
0
11
70
21
-35.3
31
0
39
0
210
0
220
0
230
1
0
LINE
5
C5
100
AcDbEntity
8
1
62
256
6
ByLayer
370
18
48
1
60
0
100
AcDbLine
10
69.686914
20
-35.000286
30
0
11
66
21
-35.16126
31
0
39
0
210
0
220
0
230
1
0
LINE
5
C6
100
AcDbEntity
8
1
62
256
6
ByLayer
370
18
48
1
60
0
100
AcDbLine
10
66
20
-35.16126
30
0
11
65.58649
21
-35.4
31
0
39
0
210
0
220
0
230
1
0
LINE
5
C7
100
AcDbEntity
8
1
62
256
6
ByLayer
370
13
48
1
60
0
100
AcDbLine
10
62
20
-36.98
30
0
11
62.937861
21
-36.98
31
0
39
0
210
0
220
0
230
1
0
LINE
5
C8
100
AcDbEntity
8
1
62
256
6
ByLayer
370
13
48
1
60
0
100
AcDbLine
10
62
20
-37.02
30
0
11
62.937861
21
-37.02
31
0
39
0
210
0
220
0
230
1
0
LINE
5
C9
100
AcDbEntity
8
1
62
256
6
ByLayer
370
13
48
1
60
0
100
AcDbLine
10
61.999918
20
-37.210736
30
0
11
62.928946
21
-37.210736
31
0
39
0
210
0
220
0
230
1
0
LINE
5
CA
100
AcDbEntity
8
1
62
256
6
ByLayer
370
13
48
1
60
0
100
AcDbLine
10
61.999918
20
-36.789264
30
0
11
62.928946
21
-36.789264
31
0
39
0
210
0
220
0
230
1
0
LINE
5
CB
100
AcDbEntity
8
1
62
256
6
ByLayer
370
13
48
1
60
0
100
AcDbLine
10
61.910754
20
-36.572267
30
0
11
62.748945
21
-36.572267
31
0
39
0
210
0
220
0
230
1
0
LINE
5
CC
100
AcDbEntity
8
1
62
256
6
ByLayer
370
13
48
1
60
0
100
AcDbLine
10
61.910754
20
-37.427733
30
0
11
62.748945
21
-37.427733
31
0
39
0
210
0
220
0
230
1
0
LINE
5
CD
100
AcDbEntity
8
1
62
256
6
ByLayer
370
13
48
1
60
0
100
AcDbLine
10
62.590119
20
-36.516915
30
0
11
61.80632
21
-36.516915
31
0
39
0
210
0
220
0
230
1
0
LINE
5
CE
100
AcDbEntity
8
1
62
256
6
ByLayer
370
13
48
1
60
0
100
AcDbLine
10
62.590119
20
-37.483085
30
0
11
61.80632
21
-37.483085
31
0
39
0
210
0
220
0
230
1
0
LINE
5
CF
100
AcDbEntity
8
1
62
256
6
ByLayer
370
13
48
1
60
0
100
AcDbLine
10
61.772685
20
-37.513888
30
0
11
62.549523
21
-37.513888
31
0
39
0
210
0
220
0
230
1
0
LINE
5
D0
100
AcDbEntity
8
1
62
256
6
ByLayer
370
13
48
1
60
0
100
AcDbLine
10
61.772606
20
-36.486112
30
0
11
62.549523
21
-36.486112
31
0
39
0
210
0
220
0
230
1
0
LINE
5
D1
100
AcDbEntity
8
1
62
256
6
ByLayer
370
13
48
1
60
0
100
AcDbLine
10
61.761059
20
-36.394335
30
0
11
62.477691
21
-36.394335
31
0
39
0
210
0
220
0
230
1
0
LINE
5
D2
100
AcDbEntity
8
1
62
256
6
ByLayer
370
13
48
1
60
0
100
AcDbLine
10
61.761215
20
-37.605665
30
0
11
62.477691
21
-37.605665
31
0
39
0
210
0
220
0
230
1
0
LINE
5
D3
100
AcDbEntity
8
1
62
256
6
ByLayer
370
13
48
1
60
0
100
AcDbLine
10
61.755788
20
-37.649934
30
0
11
62.457959
21
-37.649934
31
0
39
0
210
0
220
0
230
1
0
LINE
5
D4
100
AcDbEntity
8
1
62
256
6
ByLayer
370
13
48
1
60
0
100
AcDbLine
10
61.755478
20
-36.350066
30
0
11
62.457959
21
-36.350066
31
0
39
0
210
0
220
0
230
1
0
LINE
5
D5
100
AcDbEntity
8
1
62
256
6
ByLayer
370
13
48
1
60
0
100
AcDbLine
10
61.668967
20
-38.341384
30
0
11
62.336037
21
-38.341384
31
0
39
0
210
0
220
0
230
1
0
LINE
5
D6
100
AcDbEntity
8
1
62
256
6
ByLayer
370
13
48
1
60
0
100
AcDbLine
10
61.66675
20
-38.358749
30
0
11
62.334518
21
-38.358749
31
0
39
0
210
0
220
0
230
1
0
LINE
5
D7
100
AcDbEntity
8
1
62
256
6
ByLayer
370
18
48
1
60
0
100
AcDbLine
10
61.636081
20
-38.6
30
0
11
62.334518
21
-38.6
31
0
39
0
210
0
220
0
230
1
0
LINE
5
D8
100
AcDbEntity
8
1
62
256
6
ByLayer
370
18
48
1
60
0
100
AcDbLine
10
61.636081
20
-35.4
30
0
11
62.334518
21
-35.4
31
0
39
0
210
0
220
0
230
1
0
LINE
5
D9
100
AcDbEntity
8
1
62
256
6
ByLayer
370
13
48
1
60
0
100
AcDbLine
10
61.666448
20
-35.641251
30
0
11
62.334518
21
-35.641251
31
0
39
0
210
0
220
0
230
1
0
LINE
5
DA
100
AcDbEntity
8
1
62
256
6
ByLayer
370
13
48
1
60
0
100
AcDbLine
10
61.668513
20
-35.658616
30
0
11
62.336037
21
-35.658616
31
0
39
0
210
0
220
0
230
1
0
LINE
5
DB
100
AcDbEntity
8
1
62
256
6
ByLayer
370
18
48
1
60
0
100
AcDbLine
10
63.63
20
-35.4
30
0
11
62.334518
21
-35.4
31
0
39
0
210
0
220
0
230
1
0
LINE
5
DC
100
AcDbEntity
8
1
62
256
6
ByLayer
370
18
48
1
60
0
100
AcDbLine
10
62.334518
20
-35.4
30
0
11
62.334518
21
-35.641251
31
0
39
0
210
0
220
0
230
1
0
LINE
5
DD
100
AcDbEntity
8
1
62
256
6
ByLayer
370
18
48
1
60
0
100
AcDbLine
10
62.336037
20
-35.658616
30
0
11
62.457959
21
-36.350066
31
0
39
0
210
0
220
0
230
1
0
LINE
5
DE
100
AcDbEntity
8
1
62
256
6
ByLayer
370
18
48
1
60
0
100
AcDbLine
10
62.477691
20
-36.394335
30
0
11
62.549523
21
-36.486112
31
0
39
0
210
0
220
0
230
1
0
LINE
5
DF
100
AcDbEntity
8
1
62
256
6
ByLayer
370
18
48
1
60
0
100
AcDbLine
10
62.937861
20
-37.02
30
0
11
62.937861
21
-36.98
31
0
39
0
210
0
220
0
230
1
0
LINE
5
E0
100
AcDbEntity
8
1
62
256
6
ByLayer
370
18
48
1
60
0
100
AcDbLine
10
62.477691
20
-37.605665
30
0
11
62.549523
21
-37.513888
31
0
39
0
210
0
220
0
230
1
0
LINE
5
E1
100
AcDbEntity
8
1
62
256
6
ByLayer
370
18
48
1
60
0
100
AcDbLine
10
62.336037
20
-38.341384
30
0
11
62.457959
21
-37.649934
31
0
39
0
210
0
220
0
230
1
0
LINE
5
E2
100
AcDbEntity
8
1
62
256
6
ByLayer
370
18
48
1
60
0
100
AcDbLine
10
62.334518
20
-38.6
30
0
11
62.334518
21
-38.358749
31
0
39
0
210
0
220
0
230
1
0
LINE
5
E3
100
AcDbEntity
8
1
62
256
6
ByLayer
370
18
48
1
60
0
100
AcDbLine
10
63.63
20
-38.6
30
0
11
62.334518
21
-38.6
31
0
39
0
210
0
220
0
230
1
0
LINE
5
E4
100
AcDbEntity
8
1
62
256
6
ByLayer
370
18
48
1
60
0
100
AcDbLine
10
63.63
20
-38.6
30
0
11
63.63
21
-35.4
31
0
39
0
210
0
220
0
230
1
0
LINE
5
E5
100
AcDbEntity
8
SK2
62
256
6
ByLayer
370
18
48
1
60
0
100
AcDbLine
10
-47.975
20
-31.5
30
0
11
-47.975
21
31.5
31
0
39
0
210
0
220
0
230
1
0
LINE
5
E7
100
AcDbEntity
8
SK2
62
256
6
ByLayer
370
18
48
1
60
0
100
AcDbLine
10
-1.2875
20
31.5
30
0
11
-49.975
21
31.5
31
0
39
0
210
0
220
0
230
1
0
LINE
5
E8
100
AcDbEntity
8
SK2
62
256
6
ByLayer
370
18
48
1
60
0
100
AcDbLine
10
-1.2875
20
-31.5
30
0
11
-49.975
21
-31.5
31
0
39
0
210
0
220
0
230
1
0
LINE
5
E9
100
AcDbEntity
8
1
62
256
6
ByLayer
370
18
48
1
60
1
100
AcDbLine
10
-47.975
20
31.5
30
0
11
-47.514216
21
28.000002
31
0
39
0
210
0
220
0
230
1
0
LINE
5
EA
100
AcDbEntity
8
1
62
256
6
ByLayer
370
18
48
1
60
1
100
AcDbLine
10
-47.514216
20
28.000002
30
0
11
-48.435784
21
27.999998
31
0
39
0
210
0
220
0
230
1
0
LINE
5
EB
100
AcDbEntity
8
1
62
256
6
ByLayer
370
18
48
1
60
1
100
AcDbLine
10
-48.435784
20
27.999998
30
0
11
-47.975
21
31.5
31
0
39
0
210
0
220
0
230
1
0
LINE
5
EC
100
AcDbEntity
8
1
62
256
6
ByLayer
370
18
48
1
60
1
100
AcDbLine
10
-47.975
20
-31.5
30
0
11
-48.435784
21
-28.000002
31
0
39
0
210
0
220
0
230
1
0
LINE
5
ED
100
AcDbEntity
8
1
62
256
6
ByLayer
370
18
48
1
60
1
100
AcDbLine
10
-48.435784
20
-28.000002
30
0
11
-47.514216
21
-27.999998
31
0
39
0
210
0
220
0
230
1
0
LINE
5
EE
100
AcDbEntity
8
1
62
256
6
ByLayer
370
18
48
1
60
1
100
AcDbLine
10
-47.514216
20
-27.999998
30
0
11
-47.975
21
-31.5
31
0
39
0
210
0
220
0
230
1
0
LINE
5
14C
100
AcDbEntity
8
1
62
256
6
ByLayer
370
18
48
1
60
1
100
AcDbLine
10
-47.975
20
31.5
30
0
11
-47.514216
21
28.000002
31
0
39
0
210
0
220
0
230
1
0
LINE
5
14D
100
AcDbEntity
8
1
62
256
6
ByLayer
370
18
48
1
60
1
100
AcDbLine
10
-47.514216
20
28.000002
30
0
11
-48.435784
21
27.999998
31
0
39
0
210
0
220
0
230
1
0
LINE
5
14E
100
AcDbEntity
8
1
62
256
6
ByLayer
370
18
48
1
60
1
100
AcDbLine
10
-48.435784
20
27.999998
30
0
11
-47.975
21
31.5
31
0
39
0
210
0
220
0
230
1
0
LINE
5
150
100
AcDbEntity
8
1
62
256
6
ByLayer
370
18
48
1
60
1
100
AcDbLine
10
-47.975
20
-31.5
30
0
11
-48.435784
21
-28.000002
31
0
39
0
210
0
220
0
230
1
0
LINE
5
151
100
AcDbEntity
8
1
62
256
6
ByLayer
370
18
48
1
60
1
100
AcDbLine
10
-48.435784
20
-28.000002
30
0
11
-47.514216
21
-27.999998
31
0
39
0
210
0
220
0
230
1
0
LINE
5
152
100
AcDbEntity
8
1
62
256
6
ByLayer
370
18
48
1
60
1
100
AcDbLine
10
-47.514216
20
-27.999998
30
0
11
-47.975
21
-31.5
31
0
39
0
210
0
220
0
230
1
0
MTEXT
5
148
100
AcDbEntity
8
SK2
62
256
6
ByLayer
370
18
48
1
60
0
100
AcDbMText
10
-49.539634
20
-4.530622
30
0
210
0
220
0
230
1
1
%%c
40
3.5
41
0
44
1.084337
50
90
71
7
72
5
7
iso_b_vert
0
MTEXT
5
14B
100
AcDbEntity
8
SK2
62
256
6
ByLayer
370
18
48
1
60
0
100
AcDbMText
10
-49.539634
20
2.442034
30
0
210
0
220
0
230
1
1
\W0.6740;63
40
3.5
41
0
44
1.084337
50
90
71
7
72
5
7
iso_b_vert
0
MTEXT
5
154
100
AcDbEntity
8
SK6
62
256
6
ByLayer
370
18
48
1
60
0
100
AcDbMText
10
-16.3145
20
-61.396561
30
0
210
0
220
0
230
1
1
\W0.7406;C2A-CC6-LFH18B-132CB
40
3.5
41
0
44
1.084337
50
0
71
7
72
5
7
iso_b_vert
0
HATCH
5
14F
100
AcDbEntity
8
SK2
62
256
6
ByLayer
370
13
48
1
60
0
100
AcDbHatch
10
0
20
0
30
0
210
0
220
0
230
1
2
ANSI31
70
0
71
0
91
1
92
5
93
3
72
1
10
-47.9750000000002
20
31.5
11
-47.5142162584474
21
28.0000016925532
72
1
10
-47.5142162584474
20
28.0000016925532
11
-48.4357837415529
21
27.9999983074468
72
1
10
-48.4357837415529
20
27.9999983074468
11
-47.9750000000002
21
31.5
97
0
75
0
76
1
52
0
41
0.0062
77
0
78
1
53
45
43
0
44
0
45
-0.0139193969876572
46
0.0139193969876572
79
0
47
0
98
1
10
0
20
0
0
HATCH
5
153
100
AcDbEntity
8
SK2
62
256
6
ByLayer
370
13
48
1
60
0
100
AcDbHatch
10
0
20
0
30
0
210
0
220
0
230
1
2
ANSI31
70
0
71
0
91
1
92
5
93
3
72
1
10
-47.9750000000002
20
-31.5
11
-48.4357837415529
21
-28.0000016925532
72
1
10
-48.4357837415529
20
-28.0000016925532
11
-47.5142162584474
21
-27.9999983074468
72
1
10
-47.5142162584474
20
-27.9999983074468
11
-47.9750000000002
21
-31.5
97
0
75
0
76
1
52
0
41
0.0062
77
0
78
1
53
45
43
0
44
0
45
-0.0139193969876572
46
0.0139193969876572
79
0
47
0
98
1
10
0
20
0
0
DIMENSION
5
157
100
AcDbEntity
8
2
62
256
6
ByLayer
370
18
48
1
60
0
100
AcDbDimension
2
_U0
10
101.1
20
0
30
0
11
101.1
21
-19.5
31
0
70
32
71
1
72
1
41
1
210
0
220
0
230
1
3
Standard
100
AcDbAlignedDimension
13
70
23
-39
33
0
14
0
24
0
34
0
50
90
100
AcDbRotatedDimension
1001
ACAD
1000
DSTYLE
1002
{
1070
   371
1070
    13
1070
   372
1070
    13
1070
   170
1070
     0
1070
   144
1040
1.0
1070
   277
1070
     2
1070
   284
1070
     8
1070
   278
1070
    46
1070
   146
1040
1.0
1070
   345
1005
16
1070
   347
1005
16
1070
   346
1005
16
1070
   344
1005
0
1070
   343
1005
0
1070
   172
1070
     1
1070
    76
1070
     0
1070
    75
1070
     0
1070
   282
1070
     0
1070
   281
1070
     0
1070
    71
1070
     0
1070
    74
1070
     0
1070
   279
1070
     0
1070
   173
1070
     1
1070
   340
1005
149
1070
   271
1070
     1
1070
   272
1070
     2
1070
    77
1070
     1
1070
    73
1070
     0
1070
   171
1070
     3
1070
   274
1070
     4
1070
   177
1070
     2
1070
   176
1070
     2
1070
   178
1070
     2
1070
    78
1070
     8
1070
    48
1040
-0.1
1070
    41
1040
3.5
1070
   147
1040
1.75
1070
    42
1040
1.5875
1070
    44
1040
2.0
1070
   140
1040
3.5
1002
}
1001
ACAD_DSTYLE_DIM_LINETYPE
1070
   380
1005
16
1001
ACAD_DSTYLE_DIM_EXT1_LINETYPE
1070
   381
1005
16
1001
ACAD_DSTYLE_DIM_EXT2_LINETYPE
1070
   382
1005
16
0
DIMENSION
5
171
100
AcDbEntity
8
2
62
256
6
ByLayer
370
18
48
1
60
0
100
AcDbDimension
2
_U1
10
90.1
20
-39
30
0
11
90.1
21
-37
31
0
70
32
71
1
72
1
41
1
210
0
220
0
230
1
3
Standard
100
AcDbAlignedDimension
13
70
23
-35
33
0
14
70
24
-39
34
0
50
90
100
AcDbRotatedDimension
1001
ACAD
1000
DSTYLE
1002
{
1070
   371
1070
    13
1070
   372
1070
    13
1070
   170
1070
     0
1070
   144
1040
1.0
1070
   277
1070
     2
1070
   284
1070
     8
1070
   278
1070
    46
1070
   146
1040
1.0
1070
   345
1005
16
1070
   347
1005
16
1070
   346
1005
16
1070
   344
1005
0
1070
   343
1005
0
1070
   172
1070
     1
1070
    76
1070
     0
1070
    75
1070
     0
1070
   282
1070
     0
1070
   281
1070
     0
1070
    71
1070
     0
1070
    74
1070
     0
1070
   279
1070
     0
1070
   173
1070
     1
1070
   340
1005
149
1070
   271
1070
     1
1070
   272
1070
     2
1070
    77
1070
     1
1070
    73
1070
     0
1070
   171
1070
     3
1070
   274
1070
     4
1070
   177
1070
     2
1070
   176
1070
     2
1070
   178
1070
     2
1070
    78
1070
     8
1070
    48
1040
-0.1
1070
    41
1040
3.5
1070
   147
1040
1.75
1070
    42
1040
1.5875
1070
    44
1040
2.0
1070
   140
1040
3.5
1002
}
1001
ACAD_DSTYLE_DIM_LINETYPE
1070
   380
1005
16
1001
ACAD_DSTYLE_DIM_EXT1_LINETYPE
1070
   381
1005
16
1001
ACAD_DSTYLE_DIM_EXT2_LINETYPE
1070
   382
1005
16
0
DIMENSION
5
18A
100
AcDbEntity
8
2
62
256
6
ByLayer
370
18
48
1
60
0
100
AcDbDimension
2
_U2
10
70
20
25.925
30
0
11
61
21
25.925
31
0
70
32
71
1
72
1
41
1
210
0
220
0
230
1
3
Standard
100
AcDbAlignedDimension
13
52
23
-35.325
33
0
14
70
24
-35
34
0
50
0
100
AcDbRotatedDimension
1001
ACAD
1000
DSTYLE
1002
{
1070
   371
1070
    13
1070
   372
1070
    13
1070
   170
1070
     0
1070
   144
1040
1.0
1070
   277
1070
     2
1070
   284
1070
     8
1070
   278
1070
    46
1070
   146
1040
1.0
1070
   345
1005
16
1070
   347
1005
16
1070
   346
1005
16
1070
   344
1005
0
1070
   343
1005
0
1070
   172
1070
     1
1070
    76
1070
     0
1070
    75
1070
     0
1070
   282
1070
     0
1070
   281
1070
     0
1070
    71
1070
     0
1070
    74
1070
     0
1070
   279
1070
     0
1070
   173
1070
     1
1070
   340
1005
149
1070
   271
1070
     1
1070
   272
1070
     2
1070
    77
1070
     1
1070
    73
1070
     1
1070
   171
1070
     3
1070
   274
1070
     4
1070
   177
1070
     2
1070
   176
1070
     2
1070
   178
1070
     2
1070
    78
1070
     8
1070
    48
1040
-0.1
1070
    41
1040
3.5
1070
   147
1040
1.75
1070
    42
1040
1.5875
1070
    44
1040
2.0
1070
   140
1040
3.5
1002
}
1001
ACAD_DSTYLE_DIM_LINETYPE
1070
   380
1005
16
1001
ACAD_DSTYLE_DIM_EXT1_LINETYPE
1070
   381
1005
16
1001
ACAD_DSTYLE_DIM_EXT2_LINETYPE
1070
   382
1005
16
0
DIMENSION
5
1A2
100
AcDbEntity
8
2
62
256
6
ByLayer
370
18
48
1
60
0
100
AcDbDimension
2
_U3
10
70
20
-57.25
30
0
11
35
21
-57.25
31
0
70
32
71
1
72
1
41
1
210
0
220
0
230
1
3
Standard
100
AcDbAlignedDimension
13
0
23
0
33
0
14
70
24
-39
34
0
50
0
100
AcDbRotatedDimension
1001
ACAD
1000
DSTYLE
1002
{
1070
   371
1070
    13
1070
   372
1070
    13
1070
   170
1070
     0
1070
   144
1040
1.0
1070
   277
1070
     2
1070
   284
1070
     8
1070
   278
1070
    46
1070
   146
1040
1.0
1070
   345
1005
16
1070
   347
1005
16
1070
   346
1005
16
1070
   344
1005
0
1070
   343
1005
0
1070
   172
1070
     1
1070
    76
1070
     0
1070
    75
1070
     0
1070
   282
1070
     0
1070
   281
1070
     0
1070
    71
1070
     0
1070
    74
1070
     0
1070
   279
1070
     0
1070
   173
1070
     1
1070
   340
1005
149
1070
   271
1070
     1
1070
   272
1070
     2
1070
    77
1070
     1
1070
    73
1070
     1
1070
   171
1070
     3
1070
   274
1070
     4
1070
   177
1070
     2
1070
   176
1070
     2
1070
   178
1070
     2
1070
    78
1070
     8
1070
    48
1040
-0.1
1070
    41
1040
3.5
1070
   147
1040
1.75
1070
    42
1040
1.5875
1070
    44
1040
2.0
1070
   140
1040
3.5
1002
}
1001
ACAD_DSTYLE_DIM_LINETYPE
1070
   380
1005
16
1001
ACAD_DSTYLE_DIM_EXT1_LINETYPE
1070
   381
1005
16
1001
ACAD_DSTYLE_DIM_EXT2_LINETYPE
1070
   382
1005
16
0
ENDSEC
0
SECTION
2
OBJECTS
0
DICTIONARY
5
229
330
0
100
AcDbDictionary
280
0
281
1
3
ACAD_GROUP
350
22a
3
ACAD_MLINESTYLE
350
22b
0
DICTIONARY
5
22a
330
0
100
AcDbDictionary
280
0
281
1
0
DICTIONARY
5
22b
330
0
100
AcDbDictionary
280
0
281
1
3
Standard
350
18
0
MLINESTYLE
5
18
330
22b
100
AcDbMlineStyle
2
Standard
70
0
3

62
256
51
90
52
90
71
2
49
-0.5
62
256
6
ByLayer
49
0.5
62
256
6
ByLayer
0
RASTERVARIABLES
5
218
330

100
AcDbRasterVariables
90
0
70
1
71
1
72
1
0
ENDSEC
0
EOF
