0
SECTION
2
HEADER
9
$ACADVER
1
AC1015
9
$DWGCODEPAGE
3
ANSI_1252
9
$HANDSEED
5
235
9
$ANGBASE
50
0
9
$ANGDIR
70
0
9
$ATTMODE
70
1
9
$AUNITS
70
0
9
$AUPREC
70
0
9
$CECOLOR
62
256
9
$CELTSCALE
40
1
9
$CELTYPE
6
ByLayer
9
$CELWEIGHT
370
18
9
$CLAYER
8
0
9
$CMLJUST
70
0
9
$CMLSCALE
40
1
9
$CMLSTYLE
2
Standard
9
$DIMSTYLE
2
Standard
9
$TEXTSIZE
40
0.2
9
$TEXTSTYLE
7
Standard
9
$LUNITS
70
2
9
$LUPREC
70
4
9
$EXTNAMES
290
1
9
$INSUNITS
70
4
9
$LTSCALE
40
1
9
$LWDISPLAY
290
1
9
$PDMODE
70
0
9
$PDSIZE
40
0
9
$PLINEGEN
70
0
0
ENDSEC
0
SECTION
2
CLASSES
0
CLASS
1
RASTERVARIABLES
2
AcDbRasterVariables
3
ISM
90
0
280
0
281
0
0
ENDSEC
0
SECTION
2
TABLES
0
TABLE
2
VPORT
5
22b
100
AcDbSymbolTable
0
VPORT
5
1
100
AcDbSymbolTableRecord
100
AcDbViewportTableRecord
2
*Active
70
0
10
0
20
0
11
1
21
1
12
-1
22
1
13
0
23
0
14
0.5
24
0.5
15
10
25
10
16
0
26
0
36
1
17
0
27
0
37
0
0
ENDTAB
0
TABLE
2
LTYPE
5
22c
100
AcDbSymbolTable
0
LTYPE
5
14
100
AcDbSymbolTableRecord
100
AcDbLinetypeTableRecord
70
0
2
ByBlock
3

72
65
73
0
40
0
0
LTYPE
5
15
100
AcDbSymbolTableRecord
100
AcDbLinetypeTableRecord
70
0
2
ByLayer
3

72
65
73
0
40
0
0
LTYPE
5
16
100
AcDbSymbolTableRecord
100
AcDbLinetypeTableRecord
70
0
2
Continuous
3
Solid line
72
65
73
0
40
0
0
LTYPE
5
6E
100
AcDbSymbolTableRecord
100
AcDbLinetypeTableRecord
70
0
2
CENTER
3
____ _ ____ _ ____ _ ____
72
65
73
4
40
47.5
49
22
74
0
49
-8.5
74
0
49
8.5
74
0
49
-8.5
74
0
0
LTYPE
5
6F
100
AcDbSymbolTableRecord
100
AcDbLinetypeTableRecord
70
0
2
DASHED
3
__ __ __ __ __ __ __ __ __
72
65
73
2
40
25.72
49
12.86
74
0
49
-12.86
74
0
0
ENDTAB
0
TABLE
2
LAYER
5
22d
100
AcDbSymbolTable
0
LAYER
5
10
100
AcDbSymbolTableRecord
100
AcDbLayerTableRecord
2
0
70
0
62
7
6
Continuous
290
1
370
-3
390
0
0
LAYER
5
71
100
AcDbSymbolTableRecord
100
AcDbLayerTableRecord
2
80
70
0
62
-6
6
Continuous
290
1
370
-3
390
0
0
LAYER
5
73
100
AcDbSymbolTableRecord
100
AcDbLayerTableRecord
2
81
70
0
62
-3
6
Continuous
290
1
370
-3
390
0
0
LAYER
5
75
100
AcDbSymbolTableRecord
100
AcDbLayerTableRecord
2
1
70
0
62
4
6
Continuous
290
1
370
-3
390
0
0
LAYER
5
159
100
AcDbSymbolTableRecord
100
AcDbLayerTableRecord
2
Defpoints
70
0
62
7
6
Continuous
290
0
370
-3
390
0
0
LAYER
5
166
100
AcDbSymbolTableRecord
100
AcDbLayerTableRecord
2
2
70
0
62
7
6
Continuous
290
1
370
-3
390
0
0
LAYER
5
218
100
AcDbSymbolTableRecord
100
AcDbLayerTableRecord
2
SK1
70
0
62
4
6
Continuous
290
1
370
-3
390
0
0
LAYER
5
219
100
AcDbSymbolTableRecord
100
AcDbLayerTableRecord
2
SK2
70
0
62
7
6
Continuous
290
1
370
-3
390
0
0
LAYER
5
21a
100
AcDbSymbolTableRecord
100
AcDbLayerTableRecord
2
SK6
70
0
62
5
6
Continuous
290
1
370
-3
390
0
0
ENDTAB
0
TABLE
2
STYLE
5
22e
100
AcDbSymbolTable
0
STYLE
5
11
100
AcDbSymbolTableRecord
100
AcDbTextStyleTableRecord
2
Standard
3
txt
70
0
71
0
40
0
41
1
42
0
50
0
0
STYLE
5
148
100
AcDbSymbolTableRecord
100
AcDbTextStyleTableRecord
2
iso_b_vert
3
simplex.shx
70
0
71
0
40
0
41
1
42
0
50
0
0
STYLE
5
149
100
AcDbSymbolTableRecord
100
AcDbTextStyleTableRecord
2
DWGDirectTextStyle
3
simplex
70
0
71
0
40
0
41
1
42
0
50
0
0
ENDTAB
0
TABLE
2
DIMSTYLE
5
22f
100
AcDbSymbolTable
100
AcDbDimStyleTable
0
DIMSTYLE
105
27
100
AcDbSymbolTableRecord
100
AcDbDimStyleTableRecord
2
Standard
70
0
3
<>
41
0.18
42
0.0625
44
0.18
140
0.18
147
0.09
73
0
74
0
77
1
271
2
275
0
278
52
280
0
340
11
0
ENDTAB
0
TABLE
2
VIEW
5
230
100
AcDbSymbolTable
0
ENDTAB
0
TABLE
2
UCS
5
231
100
AcDbSymbolTable
0
ENDTAB
0
TABLE
2
APPID
5
232
100
AcDbSymbolTable
0
APPID
5
12
100
AcDbSymbolTableRecord
100
AcDbRegAppTableRecord
2
ACAD
70
0
0
APPID
5
155
100
AcDbSymbolTableRecord
100
AcDbRegAppTableRecord
2
ACAD_DSTYLE_DIMBREAK
70
0
0
APPID
5
1D7
100
AcDbSymbolTableRecord
100
AcDbRegAppTableRecord
2
ACAD_DSTYLE_DIM_LINETYPE
70
0
0
APPID
5
1D8
100
AcDbSymbolTableRecord
100
AcDbRegAppTableRecord
2
ACAD_DSTYLE_DIM_EXT1_LINETYPE
70
0
0
APPID
5
1D9
100
AcDbSymbolTableRecord
100
AcDbRegAppTableRecord
2
ACAD_DSTYLE_DIM_EXT2_LINETYPE
70
0
0
APPID
5
214
100
AcDbSymbolTableRecord
100
AcDbRegAppTableRecord
2
ACAD_MLEADERVER
70
0
0
ENDTAB
0
TABLE
2
BLOCK_RECORD
5
233
100
AcDbSymbolTable
0
BLOCK_RECORD
5
1F
100
AcDbSymbolTableRecord
100
AcDbBlockTableRecord
2
*Model_Space
340
0
70
0
0
BLOCK_RECORD
5
1B
100
AcDbSymbolTableRecord
100
AcDbBlockTableRecord
2
*Paper_Space
340
0
70
0
0
BLOCK_RECORD
5
23
100
AcDbSymbolTableRecord
100
AcDbBlockTableRecord
2
*Paper_Space0
340
0
70
0
0
BLOCK_RECORD
5
15A
100
AcDbSymbolTableRecord
100
AcDbBlockTableRecord
2
*D1
340
0
70
0
0
BLOCK_RECORD
5
167
100
AcDbSymbolTableRecord
100
AcDbBlockTableRecord
2
_U0
340
0
70
0
0
BLOCK_RECORD
5
173
100
AcDbSymbolTableRecord
100
AcDbBlockTableRecord
2
*D3
340
0
70
0
0
BLOCK_RECORD
5
180
100
AcDbSymbolTableRecord
100
AcDbBlockTableRecord
2
_U1
340
0
70
0
0
BLOCK_RECORD
5
18C
100
AcDbSymbolTableRecord
100
AcDbBlockTableRecord
2
*D5
340
0
70
0
0
BLOCK_RECORD
5
198
100
AcDbSymbolTableRecord
100
AcDbBlockTableRecord
2
_U2
340
0
70
0
0
BLOCK_RECORD
5
1A4
100
AcDbSymbolTableRecord
100
AcDbBlockTableRecord
2
*D7
340
0
70
0
0
BLOCK_RECORD
5
1B0
100
AcDbSymbolTableRecord
100
AcDbBlockTableRecord
2
_U3
340
0
70
0
0
ENDTAB
0
ENDSEC
0
SECTION
2
BLOCKS
0
BLOCK
5
20
100
AcDbEntity
8
0
100
AcDbBlockBegin
2
*Model_Space
70
0
10
0
20
0
30
0
3
*Model_Space
0
ENDBLK
5
21
100
AcDbEntity
8
0
100
AcDbBlockEnd
0
BLOCK
5
1C
100
AcDbEntity
8
0
100
AcDbBlockBegin
2
*Paper_Space
70
0
10
0
20
0
30
0
3
*Paper_Space
0
ENDBLK
5
1D
100
AcDbEntity
8
0
100
AcDbBlockEnd
0
BLOCK
5
24
100
AcDbEntity
8
0
100
AcDbBlockBegin
2
*Paper_Space0
70
0
10
0
20
0
30
0
3
*Paper_Space0
0
ENDBLK
5
25
100
AcDbEntity
8
0
100
AcDbBlockEnd
0
BLOCK
5
15B
100
AcDbEntity
8
0
100
AcDbBlockBegin
2
*D1
70
1
10
0
20
0
30
0
3
*D1
0
LINE
5
15D
100
AcDbEntity
8
0
62
256
6
ByLayer
370
-2
48
1
60
0
100
AcDbLine
10
66.5875
20
33
30
0
11
98.1
21
33
31
0
39
0
210
0
220
0
230
1
0
LINE
5
15E
100
AcDbEntity
8
0
62
256
6
ByLayer
370
-2
48
1
60
0
100
AcDbLine
10
1.5875
20
0
30
0
11
98.1
21
0
31
0
39
0
210
0
220
0
230
1
0
LINE
5
15F
100
AcDbEntity
8
0
62
256
6
ByLayer
370
-2
48
1
60
0
100
AcDbLine
10
96.1
20
29.5
30
0
11
96.1
21
3.5
31
0
39
0
210
0
220
0
230
1
0
SOLID
5
160
100
AcDbEntity
8
0
62
256
6
ByLayer
370
-1
48
1
60
0
100
AcDbTrace
10
96.683333
20
29.5
30
0
11
95.516667
21
29.5
31
0
12
96.1
22
33
32
0
13
96.1
23
33
33
0
39
0
210
0
220
0
230
1
0
SOLID
5
161
100
AcDbEntity
8
0
62
256
6
ByLayer
370
-1
48
1
60
0
100
AcDbTrace
10
95.516667
20
3.5
30
0
11
96.683333
21
3.5
31
0
12
96.1
22
0
32
0
13
96.1
23
0
33
0
39
0
210
0
220
0
230
1
0
MTEXT
5
162
100
AcDbEntity
8
0
62
256
6
ByLayer
370
18
48
1
60
0
100
AcDbMText
10
89.1
20
16.5
30
0
210
0
220
0
230
1
1
\A1;33
40
3.5
41
0
44
1
50
90
71
5
72
5
7
iso_b_vert
0
POINT
5
163
100
AcDbEntity
8
Defpoints
62
0
6
ByLayer
370
-1
48
1
60
0
100
AcDbPoint
10
65
20
33
30
0
39
0
210
0
220
0
230
1
50
360
0
POINT
5
164
100
AcDbEntity
8
Defpoints
62
0
6
ByLayer
370
-1
48
1
60
0
100
AcDbPoint
10
0
20
0
30
0
39
0
210
0
220
0
230
1
50
360
0
POINT
5
165
100
AcDbEntity
8
Defpoints
62
0
6
ByLayer
370
-1
48
1
60
0
100
AcDbPoint
10
96.1
20
0
30
0
39
0
210
0
220
0
230
1
50
360
0
ENDBLK
5
15C
100
AcDbEntity
8
0
100
AcDbBlockEnd
0
BLOCK
5
16E
100
AcDbEntity
8
0
100
AcDbBlockBegin
2
_U0
70
0
10
0
20
0
30
0
3
_U0
0
MTEXT
5
168
100
AcDbEntity
8
2
62
256
6
ByLayer
370
18
48
1
60
0
100
AcDbMText
10
95.410366
20
14.567034
30
0
210
0
220
0
230
1
1
\W0.6740;33
40
3.5
41
0
44
1.084337
50
90
71
7
72
5
7
iso_b_vert
0
LINE
5
169
100
AcDbEntity
8
2
62
256
6
ByLayer
370
13
48
1
60
0
100
AcDbLine
10
66.5875
20
33
30
0
11
98.1
21
33
31
0
39
0
210
0
220
0
230
1
0
LINE
5
16A
100
AcDbEntity
8
2
62
256
6
ByLayer
370
13
48
1
60
0
100
AcDbLine
10
1.5875
20
0
30
0
11
98.1
21
0
31
0
39
0
210
0
220
0
230
1
0
LINE
5
16B
100
AcDbEntity
8
2
62
256
6
ByLayer
370
13
48
1
60
0
100
AcDbLine
10
96.1
20
33
30
0
11
96.1
21
0
31
0
39
0
210
0
220
0
230
1
0
SOLID
5
16C
100
AcDbEntity
8
2
62
256
6
ByLayer
370
18
48
1
60
0
100
AcDbTrace
10
96.1
20
33
30
0
11
96.560784
21
29.500002
31
0
12
95.639216
22
29.499998
32
0
13
95.639216
23
29.499998
33
0
39
0
210
0
220
0
230
1
0
SOLID
5
16D
100
AcDbEntity
8
2
62
256
6
ByLayer
370
18
48
1
60
0
100
AcDbTrace
10
96.1
20
0
30
0
11
95.639216
21
3.499998
31
0
12
96.560784
22
3.500002
32
0
13
96.560784
23
3.500002
33
0
39
0
210
0
220
0
230
1
0
ENDBLK
5
16F
100
AcDbEntity
8
0
100
AcDbBlockEnd
0
BLOCK
5
174
100
AcDbEntity
8
0
100
AcDbBlockBegin
2
*D3
70
1
10
0
20
0
30
0
3
*D3
0
LINE
5
176
100
AcDbEntity
8
0
62
256
6
ByLayer
370
-2
48
1
60
0
100
AcDbLine
10
66.5875
20
29
30
0
11
87.1
21
29
31
0
39
0
210
0
220
0
230
1
0
LINE
5
177
100
AcDbEntity
8
0
62
256
6
ByLayer
370
-2
48
1
60
0
100
AcDbLine
10
66.5875
20
33
30
0
11
87.1
21
33
31
0
39
0
210
0
220
0
230
1
0
LINE
5
178
100
AcDbEntity
8
0
62
256
6
ByLayer
370
-2
48
1
60
0
100
AcDbLine
10
85.1
20
25.5
30
0
11
85.1
21
22
31
0
39
0
210
0
220
0
230
1
0
LINE
5
179
100
AcDbEntity
8
0
62
256
6
ByLayer
370
-2
48
1
60
0
100
AcDbLine
10
85.1
20
36.5
30
0
11
85.1
21
40
31
0
39
0
210
0
220
0
230
1
0
SOLID
5
17A
100
AcDbEntity
8
0
62
256
6
ByLayer
370
-1
48
1
60
0
100
AcDbTrace
10
85.683333
20
25.5
30
0
11
84.516667
21
25.5
31
0
12
85.1
22
29
32
0
13
85.1
23
29
33
0
39
0
210
0
220
0
230
1
0
SOLID
5
17B
100
AcDbEntity
8
0
62
256
6
ByLayer
370
-1
48
1
60
0
100
AcDbTrace
10
84.516667
20
36.5
30
0
11
85.683333
21
36.5
31
0
12
85.1
22
33
32
0
13
85.1
23
33
33
0
39
0
210
0
220
0
230
1
0
MTEXT
5
17C
100
AcDbEntity
8
0
62
256
6
ByLayer
370
18
48
1
60
0
100
AcDbMText
10
78.1
20
31
30
0
210
0
220
0
230
1
1
\A1;4
40
3.5
41
0
44
1
50
90
71
5
72
5
7
iso_b_vert
0
POINT
5
17D
100
AcDbEntity
8
Defpoints
62
0
6
ByLayer
370
-1
48
1
60
0
100
AcDbPoint
10
65
20
29
30
0
39
0
210
0
220
0
230
1
50
360
0
POINT
5
17E
100
AcDbEntity
8
Defpoints
62
0
6
ByLayer
370
-1
48
1
60
0
100
AcDbPoint
10
65
20
33
30
0
39
0
210
0
220
0
230
1
50
360
0
POINT
5
17F
100
AcDbEntity
8
Defpoints
62
0
6
ByLayer
370
-1
48
1
60
0
100
AcDbPoint
10
85.1
20
33
30
0
39
0
210
0
220
0
230
1
50
360
0
ENDBLK
5
175
100
AcDbEntity
8
0
100
AcDbBlockEnd
0
BLOCK
5
187
100
AcDbEntity
8
0
100
AcDbBlockBegin
2
_U1
70
0
10
0
20
0
30
0
3
_U1
0
MTEXT
5
181
100
AcDbEntity
8
2
62
256
6
ByLayer
370
18
48
1
60
0
100
AcDbMText
10
84.410366
20
30.1905
30
0
210
0
220
0
230
1
1
\W0.6380;4
40
3.5
41
0
44
1.084337
50
90
71
7
72
5
7
iso_b_vert
0
LINE
5
182
100
AcDbEntity
8
2
62
256
6
ByLayer
370
13
48
1
60
0
100
AcDbLine
10
66.5875
20
29
30
0
11
87.1
21
29
31
0
39
0
210
0
220
0
230
1
0
LINE
5
183
100
AcDbEntity
8
2
62
256
6
ByLayer
370
13
48
1
60
0
100
AcDbLine
10
66.5875
20
33
30
0
11
87.1
21
33
31
0
39
0
210
0
220
0
230
1
0
LINE
5
184
100
AcDbEntity
8
2
62
256
6
ByLayer
370
13
48
1
60
0
100
AcDbLine
10
85.1
20
20.25
30
0
11
85.1
21
41.75
31
0
39
0
210
0
220
0
230
1
0
SOLID
5
185
100
AcDbEntity
8
2
62
256
6
ByLayer
370
18
48
1
60
0
100
AcDbTrace
10
85.1
20
29
30
0
11
85.560784
21
25.500002
31
0
12
84.639216
22
25.499998
32
0
13
84.639216
23
25.499998
33
0
39
0
210
0
220
0
230
1
0
SOLID
5
186
100
AcDbEntity
8
2
62
256
6
ByLayer
370
18
48
1
60
0
100
AcDbTrace
10
85.1
20
33
30
0
11
84.639216
21
36.499998
31
0
12
85.560784
22
36.500002
32
0
13
85.560784
23
36.500002
33
0
39
0
210
0
220
0
230
1
0
ENDBLK
5
188
100
AcDbEntity
8
0
100
AcDbBlockEnd
0
BLOCK
5
18D
100
AcDbEntity
8
0
100
AcDbBlockBegin
2
*D5
70
1
10
0
20
0
30
0
3
*D5
0
LINE
5
18F
100
AcDbEntity
8
0
62
256
6
ByLayer
370
-2
48
1
60
0
100
AcDbLine
10
47
20
27.7375
30
0
11
47
21
-24.425
31
0
39
0
210
0
220
0
230
1
0
LINE
5
190
100
AcDbEntity
8
0
62
256
6
ByLayer
370
-2
48
1
60
0
100
AcDbLine
10
65
20
27.4125
30
0
11
65
21
-24.425
31
0
39
0
210
0
220
0
230
1
0
LINE
5
191
100
AcDbEntity
8
0
62
256
6
ByLayer
370
-2
48
1
60
0
100
AcDbLine
10
50.5
20
-22.425
30
0
11
61.5
21
-22.425
31
0
39
0
210
0
220
0
230
1
0
SOLID
5
192
100
AcDbEntity
8
0
62
256
6
ByLayer
370
-1
48
1
60
0
100
AcDbTrace
10
50.5
20
-21.841667
30
0
11
50.5
21
-23.008333
31
0
12
47
22
-22.425
32
0
13
47
23
-22.425
33
0
39
0
210
0
220
0
230
1
0
SOLID
5
193
100
AcDbEntity
8
0
62
256
6
ByLayer
370
-1
48
1
60
0
100
AcDbTrace
10
61.5
20
-23.008333
30
0
11
61.5
21
-21.841667
31
0
12
65
22
-22.425
32
0
13
65
23
-22.425
33
0
39
0
210
0
220
0
230
1
0
MTEXT
5
194
100
AcDbEntity
8
0
62
256
6
ByLayer
370
18
48
1
60
0
100
AcDbMText
10
56
20
-15.425
30
0
210
0
220
0
230
1
1
\A1;18
40
3.5
41
0
44
1
50
0
71
5
72
5
7
iso_b_vert
0
POINT
5
195
100
AcDbEntity
8
Defpoints
62
0
6
ByLayer
370
-1
48
1
60
0
100
AcDbPoint
10
47
20
29.325
30
0
39
0
210
0
220
0
230
1
50
360
0
POINT
5
196
100
AcDbEntity
8
Defpoints
62
0
6
ByLayer
370
-1
48
1
60
0
100
AcDbPoint
10
65
20
29
30
0
39
0
210
0
220
0
230
1
50
360
0
POINT
5
197
100
AcDbEntity
8
Defpoints
62
0
6
ByLayer
370
-1
48
1
60
0
100
AcDbPoint
10
65
20
-22.425
30
0
39
0
210
0
220
0
230
1
50
360
0
ENDBLK
5
18E
100
AcDbEntity
8
0
100
AcDbBlockEnd
0
BLOCK
5
19F
100
AcDbEntity
8
0
100
AcDbBlockBegin
2
_U2
70
0
10
0
20
0
30
0
3
_U2
0
MTEXT
5
199
100
AcDbEntity
8
2
62
256
6
ByLayer
370
18
48
1
60
0
100
AcDbMText
10
54.532467
20
-21.392366
30
0
210
0
220
0
230
1
1
\W0.5321;18
40
3.5
41
0
44
1.084337
50
0
71
7
72
5
7
iso_b_vert
0
LINE
5
19A
100
AcDbEntity
8
2
62
256
6
ByLayer
370
13
48
1
60
0
100
AcDbLine
10
47
20
27.7375
30
0
11
47
21
-24.425
31
0
39
0
210
0
220
0
230
1
0
LINE
5
19B
100
AcDbEntity
8
2
62
256
6
ByLayer
370
13
48
1
60
0
100
AcDbLine
10
65
20
27.4125
30
0
11
65
21
-24.425
31
0
39
0
210
0
220
0
230
1
0
LINE
5
19C
100
AcDbEntity
8
2
62
256
6
ByLayer
370
13
48
1
60
0
100
AcDbLine
10
47
20
-22.425
30
0
11
65
21
-22.425
31
0
39
0
210
0
220
0
230
1
0
SOLID
5
19D
100
AcDbEntity
8
2
62
256
6
ByLayer
370
18
48
1
60
0
100
AcDbTrace
10
47
20
-22.425
30
0
11
50.499998
21
-21.964216
31
0
12
50.500002
22
-22.885784
32
0
13
50.500002
23
-22.885784
33
0
39
0
210
0
220
0
230
1
0
SOLID
5
19E
100
AcDbEntity
8
2
62
256
6
ByLayer
370
18
48
1
60
0
100
AcDbTrace
10
65
20
-22.425
30
0
11
61.500002
21
-22.885784
31
0
12
61.499998
22
-21.964216
32
0
13
61.499998
23
-21.964216
33
0
39
0
210
0
220
0
230
1
0
ENDBLK
5
1A0
100
AcDbEntity
8
0
100
AcDbBlockEnd
0
BLOCK
5
1A5
100
AcDbEntity
8
0
100
AcDbBlockBegin
2
*D7
70
1
10
0
20
0
30
0
3
*D7
0
LINE
5
1A7
100
AcDbEntity
8
0
62
256
6
ByLayer
370
-2
48
1
60
0
100
AcDbLine
10
0
20
1.5875
30
0
11
0
21
49.25
31
0
39
0
210
0
220
0
230
1
0
LINE
5
1A8
100
AcDbEntity
8
0
62
256
6
ByLayer
370
-2
48
1
60
0
100
AcDbLine
10
65
20
34.5875
30
0
11
65
21
49.25
31
0
39
0
210
0
220
0
230
1
0
LINE
5
1A9
100
AcDbEntity
8
0
62
256
6
ByLayer
370
-2
48
1
60
0
100
AcDbLine
10
3.5
20
47.25
30
0
11
61.5
21
47.25
31
0
39
0
210
0
220
0
230
1
0
SOLID
5
1AA
100
AcDbEntity
8
0
62
256
6
ByLayer
370
-1
48
1
60
0
100
AcDbTrace
10
3.5
20
47.833333
30
0
11
3.5
21
46.666667
31
0
12
0
22
47.25
32
0
13
0
23
47.25
33
0
39
0
210
0
220
0
230
1
0
SOLID
5
1AB
100
AcDbEntity
8
0
62
256
6
ByLayer
370
-1
48
1
60
0
100
AcDbTrace
10
61.5
20
46.666667
30
0
11
61.5
21
47.833333
31
0
12
65
22
47.25
32
0
13
65
23
47.25
33
0
39
0
210
0
220
0
230
1
0
MTEXT
5
1AC
100
AcDbEntity
8
0
62
256
6
ByLayer
370
18
48
1
60
0
100
AcDbMText
10
32.5
20
54.25
30
0
210
0
220
0
230
1
1
\A1;65
40
3.5
41
0
44
1
50
0
71
5
72
5
7
iso_b_vert
0
POINT
5
1AD
100
AcDbEntity
8
Defpoints
62
0
6
ByLayer
370
-1
48
1
60
0
100
AcDbPoint
10
0
20
0
30
0
39
0
210
0
220
0
230
1
50
360
0
POINT
5
1AE
100
AcDbEntity
8
Defpoints
62
0
6
ByLayer
370
-1
48
1
60
0
100
AcDbPoint
10
65
20
33
30
0
39
0
210
0
220
0
230
1
50
360
0
POINT
5
1AF
100
AcDbEntity
8
Defpoints
62
0
6
ByLayer
370
-1
48
1
60
0
100
AcDbPoint
10
65
20
47.25
30
0
39
0
210
0
220
0
230
1
50
360
0
ENDBLK
5
1A6
100
AcDbEntity
8
0
100
AcDbBlockEnd
0
BLOCK
5
1B7
100
AcDbEntity
8
0
100
AcDbBlockBegin
2
_U3
70
0
10
0
20
0
30
0
3
_U3
0
MTEXT
5
1B1
100
AcDbEntity
8
2
62
256
6
ByLayer
370
18
48
1
60
0
100
AcDbMText
10
30.595034
20
48.282634
30
0
210
0
220
0
230
1
1
\W0.6740;65
40
3.5
41
0
44
1.084337
50
0
71
7
72
5
7
iso_b_vert
0
LINE
5
1B2
100
AcDbEntity
8
2
62
256
6
ByLayer
370
13
48
1
60
0
100
AcDbLine
10
0
20
1.5875
30
0
11
0
21
49.25
31
0
39
0
210
0
220
0
230
1
0
LINE
5
1B3
100
AcDbEntity
8
2
62
256
6
ByLayer
370
13
48
1
60
0
100
AcDbLine
10
65
20
34.5875
30
0
11
65
21
49.25
31
0
39
0
210
0
220
0
230
1
0
LINE
5
1B4
100
AcDbEntity
8
2
62
256
6
ByLayer
370
13
48
1
60
0
100
AcDbLine
10
0
20
47.25
30
0
11
65
21
47.25
31
0
39
0
210
0
220
0
230
1
0
SOLID
5
1B5
100
AcDbEntity
8
2
62
256
6
ByLayer
370
18
48
1
60
0
100
AcDbTrace
10
0
20
47.25
30
0
11
3.499998
21
47.710784
31
0
12
3.500002
22
46.789216
32
0
13
3.500002
23
46.789216
33
0
39
0
210
0
220
0
230
1
0
SOLID
5
1B6
100
AcDbEntity
8
2
62
256
6
ByLayer
370
18
48
1
60
0
100
AcDbTrace
10
65
20
47.25
30
0
11
61.500002
21
46.789216
31
0
12
61.499998
22
47.710784
32
0
13
61.499998
23
47.710784
33
0
39
0
210
0
220
0
230
1
0
ENDBLK
5
1B8
100
AcDbEntity
8
0
100
AcDbBlockEnd
0
ENDSEC
0
SECTION
2
ENTITIES
0
ARC
5
EC
100
AcDbEntity
8
1
62
256
6
ByLayer
370
18
48
1
60
0
100
AcDbCircle
39
0
10
20.279208
20
26.2
30
0
40
1.2
210
0
220
0
230
1
100
AcDbArc
50
270
51
299.31744
0
ARC
5
ED
100
AcDbEntity
8
SK1
62
256
6
ByLayer
370
18
48
1
60
0
100
AcDbCircle
39
0
10
-0.6
20
18.75
30
0
40
0.999999999999998
210
0
220
0
230
1
100
AcDbArc
50
293.578178
51
306.869898
0
ARC
5
EE
100
AcDbEntity
8
SK1
62
256
6
ByLayer
370
18
48
1
60
0
100
AcDbCircle
39
0
10
-0.6
20
-18.75
30
0
40
0.999999999999998
210
0
220
0
230
1
100
AcDbArc
50
53.130102
51
66.421822
0
ARC
5
F2
100
AcDbEntity
8
1
62
256
6
ByLayer
370
18
48
1
60
0
100
AcDbCircle
39
0
10
26.4
20
26.15
30
0
40
1
210
0
220
0
230
1
100
AcDbArc
50
270
51
0
0
ARC
5
F3
100
AcDbEntity
8
1
62
256
6
ByLayer
370
18
48
1
60
0
100
AcDbCircle
39
0
10
64.7
20
32.7
30
0
40
0.3
210
0
220
0
230
1
100
AcDbArc
50
0
51
92.5
0
ARC
5
F4
100
AcDbEntity
8
1
62
256
6
ByLayer
370
18
48
1
60
0
100
AcDbCircle
39
0
10
64.7
20
29.3
30
0
40
0.3
210
0
220
0
230
1
100
AcDbArc
50
267.5
51
0
0
ARC
5
F5
100
AcDbEntity
8
1
62
256
6
ByLayer
370
18
48
1
60
0
100
AcDbCircle
39
0
10
57.55644
20
30.332701
30
0
40
0.100000000000298
210
0
220
0
230
1
100
AcDbArc
50
141.950819
51
169.999999
0
CIRCLE
5
EF
100
AcDbEntity
8
1
62
256
6
ByLayer
370
18
48
1
60
0
100
AcDbCircle
10
38.65
20
20.85
30
0
40
2.55
39
0
210
0
220
0
230
1
0
CIRCLE
5
F0
100
AcDbEntity
8
1
62
256
6
ByLayer
370
18
48
1
60
0
100
AcDbCircle
10
38.65
20
20.85
30
0
40
3.3
39
0
210
0
220
0
230
1
0
CIRCLE
5
F1
100
AcDbEntity
8
1
62
256
6
ByLayer
370
18
48
1
60
0
100
AcDbCircle
10
38.65
20
20.85
30
0
40
5.75
39
0
210
0
220
0
230
1
0
ELLIPSE
5
F6
100
AcDbEntity
8
1
62
256
6
ByLayer
370
18
48
1
60
0
100
AcDbEllipse
10
70.192308
20
144.2
30
0
11
6.82871118083408E-15
21
111.525000005423
31
0
210
0
220
0
230
1
40
0.692308
41
2.9199272718784
42
3.06130517446943
0
ELLIPSE
5
F7
100
AcDbEntity
8
1
62
256
6
ByLayer
370
18
48
1
60
0
100
AcDbEllipse
10
55.783148
20
31.048153
30
0
11
0.0697929216965491
21
-0.797102797244727
31
0
210
0
220
0
230
1
40
0.976731
41
0
42
6.28318530717959
0
ELLIPSE
5
F8
100
AcDbEntity
8
1
62
256
6
ByLayer
370
18
48
1
60
0
100
AcDbEllipse
10
57.929864
20
99
30
0
11
4.26622238289515E-15
21
69.6749999635221
31
0
210
0
220
0
230
1
40
0.885973
41
3.06976916691182
42
3.12051201325406
0
ELLIPSE
5
F9
100
AcDbEntity
8
1
62
256
6
ByLayer
370
18
48
1
60
0
100
AcDbEllipse
10
-768.862177
20
98.831529
30
0
11
5397.90505754949
21
-12.0619861505551
31
0
210
0
220
0
230
1
40
0.012681
41
-1.41904229627525
42
-1.41726034638224
0
ELLIPSE
5
FA
100
AcDbEntity
8
1
62
256
6
ByLayer
370
18
48
1
60
0
100
AcDbEllipse
10
57.929864
20
144.200001
30
0
11
6.82871123078957E-15
21
111.525000821285
31
0
210
0
220
0
230
1
40
0.885973
41
3.09674462403177
42
3.12838985689214
0
ELLIPSE
5
FB
100
AcDbEntity
8
1
62
256
6
ByLayer
370
18
48
1
60
0
100
AcDbEllipse
10
46.149664
20
29.325
30
0
11
-2.78951487299375
21
3.41605763755017E-16
31
0
210
0
220
0
230
1
40
0.573576
41
0
42
1.29870801006699
0
ELLIPSE
5
FC
100
AcDbEntity
8
1
62
256
6
ByLayer
370
18
48
1
60
0
100
AcDbEllipse
10
60.64074
20
144.200001
30
0
11
159.274207258424
21
1.86582624532509E-13
31
0
210
0
220
0
230
1
40
0.700208
41
-1.66148323260396
42
-1.61564435629387
0
ELLIPSE
5
FD
100
AcDbEntity
8
1
62
256
6
ByLayer
370
18
48
1
60
0
100
AcDbEllipse
10
60.64074
20
99
30
0
11
99.5062123542785
21
1.16567086271707E-13
31
0
210
0
220
0
230
1
40
0.700208
41
-1.70831365490459
42
-1.64261981346503
0
ELLIPSE
5
FE
100
AcDbEntity
8
1
62
256
6
ByLayer
370
18
48
1
60
0
100
AcDbEllipse
10
-1.056258
20
0
30
0
11
11.7092723497268
21
24.6771864409371
31
0
210
0
220
0
230
1
40
0.341999
41
-1.08183270048928
42
-0.16721307190899
0
ELLIPSE
5
FF
100
AcDbEntity
8
1
62
256
6
ByLayer
370
18
48
1
60
0
100
AcDbEllipse
10
21.056258
20
0
30
0
11
11.709272349726
21
-24.6771864409357
31
0
210
0
220
0
230
1
40
0.341999
41
-2.97437958168081
42
-2.05975995310047
0
ELLIPSE
5
100
100
AcDbEntity
8
1
62
256
6
ByLayer
370
18
48
1
60
0
100
AcDbEllipse
10
21.056258
20
0
30
0
11
11.7092723497263
21
24.677186440936
31
0
210
0
220
0
230
1
40
0.341999
41
2.05975995310048
42
2.97437958168081
0
ELLIPSE
5
101
100
AcDbEntity
8
1
62
256
6
ByLayer
370
18
48
1
60
0
100
AcDbEllipse
10
-1.056258
20
0
30
0
11
11.709272349727
21
-24.6771864409373
31
0
210
0
220
0
230
1
40
0.341999
41
0.167213071908985
42
1.08183270048928
0
ELLIPSE
5
102
100
AcDbEntity
8
1
62
256
6
ByLayer
370
18
48
1
60
0
100
AcDbEllipse
10
24.065604
20
-17.5
30
0
11
2.44921270153852E-16
21
3.99999999002744
31
0
210
0
220
0
230
1
40
1
41
1.49213152018012
42
1.56206968051356
0
ELLIPSE
5
103
100
AcDbEntity
8
1
62
256
6
ByLayer
370
18
48
1
60
0
100
AcDbEllipse
10
20.218172
20
0
30
0
11
1.53075794227785E-15
21
24.999999999998
31
0
210
0
220
0
230
1
40
0.008727
41
0.697891718822453
42
2.35619449019245
0
ELLIPSE
5
104
100
AcDbEntity
8
1
62
256
6
ByLayer
370
18
48
1
60
0
100
AcDbEllipse
10
57.55644
20
31.667299
30
0
11
0.0403918877838946
21
-0.0914794807402208
31
0
210
0
220
0
230
1
40
1
41
-1.81206009518155
42
-1.32250954936417
0
ELLIPSE
5
105
100
AcDbEntity
8
1
62
256
6
ByLayer
370
18
48
1
60
0
100
AcDbEllipse
10
57.434518
20
29.641251
30
0
11
0.0104483933357589
21
0.0994526568016828
31
0
210
0
220
0
230
1
40
1
41
1.50093838192104
42
1.6754713082112
0
ELLIPSE
5
106
100
AcDbEntity
8
1
62
256
6
ByLayer
370
18
48
1
60
0
100
AcDbEllipse
10
57.434518
20
32.358749
30
0
11
0.010661639262803
21
-0.0994300222659567
31
0
210
0
220
0
230
1
40
1
41
-1.67761574668812
42
-1.50308282049733
0
POINT
5
70
100
AcDbEntity
8
80
62
256
6
ByLayer
370
18
48
1
60
0
100
AcDbPoint
10
0
20
0
30
0
39
0
210
0
220
0
230
1
50
360
0
POINT
5
72
100
AcDbEntity
8
81
62
256
6
ByLayer
370
18
48
1
60
0
100
AcDbPoint
10
65
20
33
30
0
39
0
210
0
220
0
230
1
50
360
0
POINT
5
74
100
AcDbEntity
8
1
62
256
6
ByLayer
370
18
48
1
60
1
100
AcDbPoint
10
65
20
33
30
0
39
0
210
0
220
0
230
1
50
360
0
POINT
5
76
100
AcDbEntity
8
1
62
256
6
ByLayer
370
18
48
1
60
1
100
AcDbPoint
10
0
20
0
30
0
39
0
210
0
220
0
230
1
50
360
0
POINT
5
77
100
AcDbEntity
8
1
62
256
6
ByLayer
370
18
48
1
60
1
100
AcDbPoint
10
65
20
29
30
0
39
0
210
0
220
0
230
1
50
360
0
POINT
5
78
100
AcDbEntity
8
1
62
256
6
ByLayer
370
18
48
1
60
1
100
AcDbPoint
10
65
20
33
30
0
39
0
210
0
220
0
230
1
50
360
0
POINT
5
79
100
AcDbEntity
8
1
62
256
6
ByLayer
370
18
48
1
60
1
100
AcDbPoint
10
47
20
29.325
30
0
39
0
210
0
220
0
230
1
50
360
0
POINT
5
7A
100
AcDbEntity
8
1
62
256
6
ByLayer
370
18
48
1
60
1
100
AcDbPoint
10
65
20
29
30
0
39
0
210
0
220
0
230
1
50
360
0
POINT
5
7B
100
AcDbEntity
8
1
62
256
6
ByLayer
370
18
48
1
60
1
100
AcDbPoint
10
0
20
0
30
0
39
0
210
0
220
0
230
1
50
360
0
POINT
5
7C
100
AcDbEntity
8
1
62
256
6
ByLayer
370
18
48
1
60
1
100
AcDbPoint
10
65
20
33
30
0
39
0
210
0
220
0
230
1
50
360
0
SPLINE
5
107
100
AcDbEntity
8
SK1
62
256
6
ByLayer
370
18
48
1
60
0
100
AcDbSpline
70
4
71
3
72
11
73
7
40
0
40
0
40
0
40
0
40
0.242589954178652
40
0.502544718947562
40
0.761087572808605
40
1
40
1
40
1
40
1
41
1
10
-0.199999999999989
20
17.5545583467653
30
0
41
1
10
-0.20095788927037
20
17.528914023106
30
0
41
1
10
-0.211248315226271
20
17.4799022728817
30
0
41
1
10
-0.255179720944199
20
17.413949611085
30
0
41
1
10
-0.321113897423828
20
17.3707504109673
30
0
41
1
10
-0.369683795840189
20
17.3607068368228
30
0
41
1
10
-0.394913799811292
20
17.359780267379
30
0
0
SPLINE
5
108
100
AcDbEntity
8
SK1
62
256
6
ByLayer
370
18
48
1
60
0
100
AcDbSpline
70
4
71
3
72
11
73
7
40
0
40
0
40
0
40
0
40
0.238912427113125
40
0.497455280942488
40
0.757410045745046
40
1
40
1
40
1
40
1
41
1
10
-0.394913799811292
20
-17.3597801301672
30
0
41
1
10
-0.369683795838398
20
-17.3607066995757
30
0
41
1
10
-0.321113897416467
20
-17.3707502735068
30
0
41
1
10
-0.255179720936411
20
-17.4139494728385
30
0
41
1
10
-0.211248315224623
20
-17.4799021334557
30
0
41
1
10
-0.20095788926875
20
-17.5289138828002
30
0
41
1
10
-0.199999999999989
20
-17.5545582060013
30
0
0
SPLINE
5
109
100
AcDbEntity
8
SK1
62
256
6
ByLayer
370
18
48
1
60
0
100
AcDbSpline
70
4
71
2
72
6
73
3
40
0
40
0
40
0
40
1
40
1
40
1
41
1
10
-28.5
20
16.8588088260863
30
0
41
1
10
-29.2499999297871
20
16.4259984461422
30
0
41
1
10
-30
20
15.9931873508859
30
0
0
SPLINE
5
10A
100
AcDbEntity
8
SK1
62
256
6
ByLayer
370
18
48
1
60
0
100
AcDbSpline
70
4
71
2
72
6
73
3
40
0
40
0
40
0
40
1
40
1
40
1
41
1
10
-30
20
-15.9931874249212
30
0
41
1
10
-29.2499999297894
20
-16.425998517687
30
0
41
1
10
-28.5
20
-16.8588088951667
30
0
0
SPLINE
5
10B
100
AcDbEntity
8
SK1
62
256
6
ByLayer
370
18
48
1
60
0
100
AcDbSpline
70
4
71
2
72
6
73
3
40
0
40
0
40
0
40
1
40
1
40
1
41
1
10
-0.394913799811292
20
17.3602209523781
30
0
41
1
10
-1.19497688886898
20
17.3401342706943
30
0
41
1
10
-1.99503997793928
20
17.3200475850767
30
0
0
SPLINE
5
10C
100
AcDbEntity
8
SK1
62
256
6
ByLayer
370
18
48
1
60
0
100
AcDbSpline
70
4
71
2
72
6
73
3
40
0
40
0
40
0
40
1
40
1
40
1
41
1
10
-1.99503997793928
20
-17.3200478774323
30
0
41
1
10
-1.19497688886898
20
-17.340134563042
30
0
41
1
10
-0.394913799811292
20
-17.3602212447177
30
0
0
SPLINE
5
10D
100
AcDbEntity
8
SK1
62
256
6
ByLayer
370
18
48
1
60
0
100
AcDbSpline
70
4
71
3
72
13
73
9
40
0
40
0
40
0
40
0
40
0.239505987673083
40
0.368426538155688
40
0.500072261058321
40
0.631705987654816
40
0.760593443052916
40
1
40
1
40
1
40
1
41
1
10
-1.99503997793928
20
17.3252686883828
30
0
41
1
10
-2.02110925982341
20
17.3248665791032
30
0
41
1
10
-2.05883863809936
20
17.3310361992814
30
0
41
1
10
-2.10627567686484
20
17.3540696096461
30
0
41
1
10
-2.13886243911925
20
17.3792256041407
30
0
41
1
10
-2.16563490776916
20
17.4104933211739
30
0
41
1
10
-2.19103207710596
20
17.4566915621889
30
0
41
1
10
-2.19909121921685
20
17.4940488942773
30
0
41
1
10
-2.2
20
17.5200961072231
30
0
0
SPLINE
5
10E
100
AcDbEntity
8
SK1
62
256
6
ByLayer
370
18
48
1
60
0
100
AcDbSpline
70
4
71
3
72
13
73
9
40
0
40
0
40
0
40
0
40
0.239406556342956
40
0.368294011542631
40
0.499927738071791
40
0.631573461053609
40
0.76049401174041
40
1
40
1
40
1
40
1
41
1
10
-2.2
20
-17.5200962264206
30
0
41
1
10
-2.19909121920765
20
-17.4940490135991
30
0
41
1
10
-2.19103207709688
20
-17.4566916816953
30
0
41
1
10
-2.16563490775661
20
-17.4104934409328
30
0
41
1
10
-2.13886243910255
20
-17.379225724067
30
0
41
1
10
-2.106275676847
20
-17.3540697297104
30
0
41
1
10
-2.05883863807624
20
-17.3310363194718
30
0
41
1
10
-2.0211092598112
20
-17.3248666993254
30
0
41
1
10
-1.99503997793928
20
-17.3252688086104
30
0
0
SPLINE
5
10F
100
AcDbEntity
8
SK1
62
256
6
ByLayer
370
18
48
1
60
0
100
AcDbSpline
70
4
71
2
72
6
73
3
40
0
40
0
40
0
40
1
40
1
40
1
41
1
10
-2.2
20
17.5148287077807
30
0
41
1
10
-15.3499999982432
20
17.1846805562453
30
0
41
1
10
-28.5
20
16.8545313165689
30
0
0
SPLINE
5
110
100
AcDbEntity
8
SK1
62
256
6
ByLayer
370
18
48
1
60
0
100
AcDbSpline
70
4
71
2
72
6
73
3
40
0
40
0
40
0
40
1
40
1
40
1
41
1
10
-28.5
20
-16.8545316091351
30
0
41
1
10
-15.3499999982428
20
-17.1846808487114
30
0
41
1
10
-2.2
20
-17.5148290000611
30
0
0
SPLINE
5
111
100
AcDbEntity
8
1
62
256
6
ByLayer
370
18
48
1
60
0
100
AcDbSpline
70
4
71
3
72
8
73
4
40
0
40
0
40
0
40
0
40
1
40
1
40
1
40
1
41
1
10
23.2
20
32.2041595710552
30
0
41
1
10
22.6636590777088
20
30.1863512847182
30
0
41
1
10
22.1280300344461
20
28.1683514582466
30
0
41
1
10
21.5937415683672
20
26.15
30
0
0
SPLINE
5
112
100
AcDbEntity
8
1
62
256
6
ByLayer
370
18
48
1
60
0
100
AcDbSpline
70
4
71
3
72
16
73
12
40
0
40
0
40
0
40
0
40
0.249999999999992
40
0.249999999999992
40
0.499999999999983
40
0.499999999999983
40
0.624999999999987
40
0.624999999999987
40
0.749999999999992
40
0.749999999999992
40
1
40
1
40
1
40
1
41
1
10
21.5937415683672
20
26.15
30
0
41
1
10
21.5805320755465
20
26.1000992426564
30
0
41
1
10
21.5673406201506
20
26.0508462588363
30
0
41
1
10
21.5409897794192
20
25.9535806104732
30
0
41
1
10
21.5278304001528
20
25.9055680925487
30
0
41
1
10
21.5081174763668
20
25.8345000631933
30
0
41
1
10
21.501528166244
20
25.8108890873348
30
0
41
1
10
21.4884882148788
20
25.7644544496638
30
0
41
1
10
21.4820417238425
20
25.7416442760654
30
0
41
1
10
21.4629220190385
20
25.674422949395
30
0
41
1
10
21.45046715232
20
25.6312140525811
30
0
41
1
10
21.4383186059721
20
25.589659530439
30
0
0
SPLINE
5
113
100
AcDbEntity
8
1
62
256
6
ByLayer
370
18
48
1
60
0
100
AcDbSpline
70
4
71
3
72
37
73
33
40
0
40
0
40
0
40
0
40
0.0312500000000011
40
0.0312500000000011
40
0.0625000000000021
40
0.125000000000004
40
0.125000000000004
40
0.250000000000006
40
0.250000000000006
40
0.281250000000006
40
0.281250000000006
40
0.312500000000006
40
0.312500000000006
40
0.375
40
0.375
40
0.499999999999983
40
0.499999999999983
40
0.53124999999998
40
0.53124999999998
40
0.562499999999978
40
0.624999999999978
40
0.687499999999978
40
0.687499999999978
40
0.718749999999978
40
0.718749999999978
40
0.749999999999978
40
0.749999999999978
40
0.874999999999986
40
0.874999999999986
40
0.937499999999993
40
0.937499999999993
40
1
40
1
40
1
40
1
41
1
10
25.6979991993593
20
25.15
30
0
41
1
10
25.716159662557
20
25.15
30
0
41
1
10
25.7343436715721
20
25.1503025762776
30
0
41
1
10
25.7705404692686
20
25.1515196643775
30
0
41
1
10
25.8246748030338
20
25.1542634146374
30
0
41
1
10
25.8783209647337
20
25.1597933881372
30
0
41
1
10
25.9849379288975
20
25.1747079219338
30
0
41
1
10
26.0551208774945
20
25.1897592794783
30
0
41
1
10
26.1415829778381
20
25.2158024637559
30
0
41
1
10
26.1588116390369
20
25.2213750019034
30
0
41
1
10
26.1931357597246
20
25.2332803218201
30
0
41
1
10
26.2102683325627
20
25.2396289977521
30
0
41
1
10
26.2610060787218
20
25.2596878790594
30
0
41
1
10
26.2940493017973
20
25.2744353258394
30
0
41
1
10
26.3907724756647
20
25.3229089218058
30
0
41
1
10
26.4520714248128
20
25.3608215019205
30
0
41
1
10
26.5242042253867
20
25.4161083927452
30
0
41
1
10
26.5384465541441
20
25.4276015592398
30
0
41
1
10
26.5661892927071
20
25.4511913425105
30
0
41
1
10
26.6067111080115
20
25.4874857382757
30
0
41
1
10
26.6688047152749
20
25.5525094185346
30
0
41
1
10
26.7125622959425
20
25.6094566175086
30
0
41
1
10
26.7430477949145
20
25.6541098054289
30
0
41
1
10
26.7528200581636
20
25.6693186563508
30
0
41
1
10
26.7715554404667
20
25.7004102576542
30
0
41
1
10
26.7805452052648
20
25.7163445309867
30
0
41
1
10
26.8230509325826
20
25.7971584961779
30
0
41
1
10
26.8488697960025
20
25.8644367321645
30
0
41
1
10
26.8752531168167
20
25.9693159907482
30
0
41
1
10
26.8819729542626
20
26.0049415512714
30
0
41
1
10
26.8910147230196
20
26.0776041037324
30
0
41
1
10
26.8932370625239
20
26.1138738724258
30
0
41
1
10
26.8932370625239
20
26.15
30
0
0
SPLINE
5
114
100
AcDbEntity
8
1
62
256
6
ByLayer
370
18
48
1
60
0
100
AcDbSpline
70
4
71
3
72
16
73
12
40
0
40
0
40
0
40
0
40
0.25
40
0.25
40
0.5
40
0.5
40
0.75
40
0.75
40
0.875
40
0.875
40
1
40
1
40
1
40
1
41
1
10
26.0405776249945
20
35.4037200320923
30
0
41
1
10
25.7015864610057
20
35.0258887107621
30
0
41
1
10
25.3829465370937
20
34.6874897102822
30
0
41
1
10
24.7975782238307
20
34.0887836247555
30
0
41
1
10
24.530876606248
20
33.8284749879989
30
0
41
1
10
24.0630756900814
20
33.3858594630066
30
0
41
1
10
23.862060183624
20
33.2035508318798
30
0
41
1
10
23.6206991912144
20
32.9890745826849
30
0
41
1
10
23.5502714210711
20
32.9274195738137
30
0
41
1
10
23.4310910118899
20
32.8239373042214
30
0
41
1
10
23.3823429574803
20
32.7821100815497
30
0
41
1
10
23.3451013807401
20
32.7502975420503
30
0
0
SPLINE
5
115
100
AcDbEntity
8
1
62
256
6
ByLayer
370
18
48
1
60
0
100
AcDbSpline
70
4
71
3
72
12
73
8
40
0
40
0
40
0
40
0
40
0.202756315559183
40
0.202756315559183
40
0.601378157776847
40
0.601378157776847
40
1
40
1
40
1
40
1
41
1
10
57.8056014032952
20
32.7686436279792
30
0
41
1
10
57.6386903399204
20
32.7687832057578
30
0
41
1
10
57.4717792766771
20
32.7689229409037
30
0
41
1
10
56.9767186549179
20
32.769337864145
30
0
41
1
10
56.6485690967791
20
32.7696135031584
30
0
41
1
10
55.9922699815224
20
32.7701659979192
30
0
41
1
10
55.6641204244035
20
32.7704428536665
30
0
41
1
10
55.3359708677995
20
32.7707203178529
30
0
0
SPLINE
5
116
100
AcDbEntity
8
1
62
256
6
ByLayer
370
18
48
1
60
0
100
AcDbSpline
70
4
71
3
72
8
73
4
40
0
40
0
40
0
40
0
40
1
40
1
40
1
40
1
41
1
10
23.3451013807401
20
32.7502975420503
30
0
41
1
10
23.2967584013944
20
32.5682634153325
30
0
41
1
10
23.2483916293685
20
32.3862173381785
30
0
41
1
10
23.2
20
32.2041595710552
30
0
0
SPLINE
5
117
100
AcDbEntity
8
1
62
256
6
ByLayer
370
18
48
1
60
0
100
AcDbSpline
70
4
71
3
72
31
73
27
40
0
40
0
40
0
40
0
40
0.125000000000002
40
0.250000000000004
40
0.250000000000004
40
0.281250000000005
40
0.281250000000005
40
0.312500000000005
40
0.312500000000005
40
0.375000000000006
40
0.375000000000006
40
0.500000000000011
40
0.500000000000011
40
0.562500000000012
40
0.562500000000012
40
0.593750000000011
40
0.593750000000011
40
0.625000000000011
40
0.625000000000011
40
0.750000000000008
40
0.750000000000008
40
0.875000000000005
40
0.875000000000005
40
0.937500000000002
40
0.937500000000002
40
1
40
1
40
1
40
1
41
1
10
23.3451013807401
20
32.7502975420503
30
0
41
1
10
23.5277173469056
20
32.7500654503468
30
0
41
1
10
23.8889228963447
20
32.7487304660673
30
0
41
1
10
24.2422910709967
20
32.745767115254
30
0
41
1
10
24.4606389594502
20
32.7434423218586
30
0
41
1
10
24.5041826755466
20
32.7429537372162
30
0
41
1
10
24.5910148550991
20
32.7419302683645
30
0
41
1
10
24.6342972978191
20
32.7413953382172
30
0
41
1
10
24.7628016736
20
32.7397356269174
30
0
41
1
10
24.8470067920475
20
32.7385522294094
30
0
41
1
10
25.0953264970693
20
32.7347992670654
30
0
41
1
10
25.2551629825208
20
32.7320269138969
30
0
41
1
10
25.4864103903789
20
32.7275719571535
30
0
41
1
10
25.5620705531782
20
32.7260375515135
30
0
41
1
10
25.6733938330816
20
32.7236757074903
30
0
41
1
10
25.7101401437058
20
32.7228783907429
30
0
41
1
10
25.7829006605257
20
32.7212660665469
30
0
41
1
10
25.818979836845
20
32.720449543315
30
0
41
1
10
25.9966035736498
20
32.7163500184243
30
0
41
1
10
26.1296608798922
20
32.7130228391453
30
0
41
1
10
26.3783477093085
20
32.7064469371896
30
0
41
1
10
26.4939755300974
20
32.7031977287294
30
0
41
1
10
26.6541612117483
20
32.6985102650953
30
0
41
1
10
26.7053403137826
20
32.6969788587818
30
0
41
1
10
26.8031484471784
20
32.6940005151126
30
0
41
1
10
26.8495061181976
20
32.6925618611969
30
0
41
1
10
26.8932370625239
20
32.691185886496
30
0
0
SPLINE
5
118
100
AcDbEntity
8
1
62
256
6
ByLayer
370
18
48
1
60
0
100
AcDbSpline
70
4
71
3
72
33
73
29
40
0
40
0
40
0
40
0
40
0.124999999999986
40
0.124999999999986
40
0.18749999999998
40
0.18749999999998
40
0.249999999999973
40
0.312499999999966
40
0.312499999999966
40
0.343749999999964
40
0.343749999999964
40
0.374999999999962
40
0.374999999999962
40
0.49999999999996
40
0.49999999999996
40
0.562499999999959
40
0.562499999999959
40
0.593749999999961
40
0.593749999999961
40
0.624999999999963
40
0.624999999999963
40
0.749999999999975
40
0.749999999999975
40
0.81249999999998
40
0.81249999999998
40
0.874999999999984
40
0.874999999999984
40
1
40
1
40
1
40
1
41
1
10
27.2792156108743
20
26.15
30
0
41
1
10
27.2792156108743
20
26.0832436260867
30
0
41
1
10
27.2724024636134
20
26.017099031744
30
0
41
1
10
27.2519070702788
20
25.918804833698
30
0
41
1
10
27.243288334735
20
25.8860488117296
30
0
41
1
10
27.2229298975619
20
25.8222481913133
30
0
41
1
10
27.1994237772518
20
25.7598760962957
30
0
41
1
10
27.1697769675525
20
25.7002908544577
30
0
41
1
10
27.1452277297467
20
25.6566521540257
30
0
41
1
10
27.1366582573285
20
25.6422812788688
30
0
41
1
10
27.1187359240042
20
25.6138950568287
30
0
41
1
10
27.1093565962303
20
25.5998444499674
30
0
41
1
10
27.0609510550854
20
25.5311735123727
30
0
41
1
10
27.0172761539375
20
25.4809191664987
30
0
41
1
10
26.9446575523051
20
25.412259099656
30
0
41
1
10
26.9192581400242
20
25.3905010109516
30
0
41
1
10
26.879331242548
20
25.3595926841259
30
0
41
1
10
26.8657552067244
20
25.3496106169166
30
0
41
1
10
26.8382758559522
20
25.3304211683924
30
0
41
1
10
26.8243435742831
20
25.3211910993284
30
0
41
1
10
26.7537383245528
20
25.2768276981421
30
0
41
1
10
26.6942590621149
20
25.2470074317023
30
0
41
1
10
26.600599587541
20
25.2106842391689
30
0
41
1
10
26.5685154439817
20
25.1999671223375
30
0
41
1
10
26.5040980234737
20
25.1817637186531
30
0
41
1
10
26.4716360317391
20
25.1742157749747
30
0
41
1
10
26.3735131192457
20
25.1560926942454
30
0
41
1
10
26.3071055833143
20
25.15
30
0
41
1
10
26.2397368307142
20
25.15
30
0
0
SPLINE
5
119
100
AcDbEntity
8
1
62
256
6
ByLayer
370
18
48
1
60
0
100
AcDbSpline
70
4
71
3
72
10
73
6
40
0
40
0
40
0
40
0
40
0.5
40
0.5
40
1
40
1
40
1
40
1
41
1
10
56.774406808652
20
30.5
30
0
41
1
10
56.750679151197
20
30.3065851538858
30
0
41
1
10
56.7267768506016
20
30.1132202548738
30
0
41
1
10
56.6783392655468
20
29.7266714872051
30
0
41
1
10
56.6538199811275
20
29.5334830426136
30
0
41
1
10
56.628648994824
20
29.3404809816416
30
0
0
SPLINE
5
11A
100
AcDbEntity
8
1
62
256
6
ByLayer
370
18
48
1
60
0
100
AcDbSpline
70
4
71
3
72
8
73
4
40
0
40
0
40
0
40
0
40
1
40
1
40
1
40
1
41
1
10
56.933039795462
20
30.5840772376136
30
0
41
1
10
56.8802128688876
20
30.5558111996547
30
0
41
1
10
56.8273535334487
20
30.5276986550821
30
0
41
1
10
56.774406808652
20
30.5
30
0
0
SPLINE
5
11B
100
AcDbEntity
8
1
62
256
6
ByLayer
370
18
48
1
60
0
100
AcDbSpline
70
4
71
3
72
20
73
16
40
0
40
0
40
0
40
0
40
0.249999999999943
40
0.249999999999943
40
0.374999999999952
40
0.374999999999952
40
0.499999999999962
40
0.499999999999962
40
0.624999999999971
40
0.624999999999971
40
0.749999999999981
40
0.749999999999981
40
0.87499999999999
40
0.87499999999999
40
1
40
1
40
1
40
1
41
1
10
57
20
30.7250311307315
30
0
41
1
10
57
20
30.7094958819083
30
0
41
1
10
56.9984050459487
20
30.6943684079368
30
0
41
1
10
56.9936571096376
20
30.6722794185904
30
0
41
1
10
56.9916895717912
20
30.6651134158443
30
0
41
1
10
56.9870887035604
20
30.6514438932602
30
0
41
1
10
56.9844457620998
20
30.6448943918017
30
0
41
1
10
56.9784667668225
20
30.6323726527538
30
0
41
1
10
56.9751283008422
20
30.6264174806153
30
0
41
1
10
56.9679840522906
20
30.6154842294121
30
0
41
1
10
56.9641534857343
20
30.6104500648764
30
0
41
1
10
56.9559769729611
20
30.6012441397309
30
0
41
1
10
56.9516060515023
20
30.5970596501623
30
0
41
1
10
56.9425740123838
20
30.5897898375515
30
0
41
1
10
56.9378909441321
20
30.5866729357044
30
0
41
1
10
56.933039795462
20
30.5840772376136
30
0
0
SPLINE
5
11C
100
AcDbEntity
8
1
62
256
6
ByLayer
370
18
48
1
60
0
100
AcDbSpline
70
4
71
3
72
20
73
16
40
0
40
0
40
0
40
0
40
0.250000000000004
40
0.250000000000004
40
0.375000000000003
40
0.375000000000003
40
0.500000000000003
40
0.500000000000003
40
0.625000000000002
40
0.625000000000002
40
0.750000000000001
40
0.750000000000001
40
0.875000000000001
40
0.875000000000001
40
1
40
1
40
1
40
1
41
1
10
56.9330397954621
20
31.4159227623864
30
0
41
1
10
56.9427422487556
20
31.410731282759
30
0
41
1
10
56.9517092968702
20
31.4035295253539
30
0
41
1
10
56.964047082971
20
31.3896850163107
30
0
41
1
10
56.9679371835433
20
31.3845799203337
30
0
41
1
10
56.9750781767345
20
31.3736667010935
30
0
41
1
10
56.9783611160118
20
31.3678241997689
30
0
41
1
10
56.9843397653764
20
31.3553511564102
30
0
41
1
10
56.9870434392173
20
31.3486770600967
30
0
41
1
10
56.9916642630197
20
31.334975103544
30
0
41
1
10
56.9936086504077
20
31.3279014713725
30
0
41
1
10
56.9967642469955
20
31.3133082123662
30
0
41
1
10
56.9979798151933
20
31.3057306632175
30
0
41
1
10
56.9995937631251
20
31.2904457315629
30
0
41
1
10
57.0000000000112
20
31.2827395802012
30
0
41
1
10
57.0000000000113
20
31.2749688692704
30
0
0
SPLINE
5
11D
100
AcDbEntity
8
1
62
256
6
ByLayer
370
18
48
1
60
0
100
AcDbSpline
70
4
71
3
72
8
73
4
40
0
40
0
40
0
40
0
40
1
40
1
40
1
40
1
41
1
10
56.774406808652
20
31.5
30
0
41
1
10
56.8273598960423
20
31.4722980163781
30
0
41
1
10
56.8802175315189
20
31.444186305517
30
0
41
1
10
56.9330397954621
20
31.4159227623864
30
0
0
SPLINE
5
11E
100
AcDbEntity
8
1
62
256
6
ByLayer
370
18
48
1
60
0
100
AcDbSpline
70
4
71
3
72
10
73
6
40
0
40
0
40
0
40
0
40
0.5
40
0.5
40
1
40
1
40
1
40
1
41
1
10
56.6253582269336
20
32.684720034414
30
0
41
1
10
56.6511388463473
20
32.4875381385191
30
0
41
1
10
56.6762154759956
20
32.2901521924168
30
0
41
1
10
56.725736770696
20
31.8951971263743
30
0
41
1
10
56.7501628086306
20
31.69762378744
30
0
41
1
10
56.774406808652
20
31.5
30
0
0
SPLINE
5
11F
100
AcDbEntity
8
1
62
256
6
ByLayer
370
18
48
1
60
0
100
AcDbSpline
70
4
71
3
72
12
73
8
40
0
40
0
40
0
40
0
40
0.578285667322667
40
0.578285667322667
40
0.867428500984001
40
0.867428500984001
40
1
40
1
40
1
40
1
41
1
10
24.0656038219736
20
-13.5
30
0
41
1
10
23.937916979337
20
-13.5
30
0
41
1
10
23.8116117763201
20
-13.5060979164939
30
0
41
1
10
23.6241160878735
20
-13.5239429036278
30
0
41
1
10
23.5619463220597
20
-13.5313438920988
30
0
41
1
10
23.4717527557764
20
-13.5442243200392
30
0
41
1
10
23.4433987736848
20
-13.5485867873824
30
0
41
1
10
23.4153397500207
20
-13.5532093767223
30
0
0
SPLINE
5
120
100
AcDbEntity
8
1
62
256
6
ByLayer
370
18
48
1
60
0
100
AcDbSpline
70
4
71
3
72
12
73
8
40
0
40
0
40
0
40
0
40
0.5
40
0.5
40
0.75
40
0.75
40
1
40
1
40
1
40
1
41
1
10
56.6286489948239
20
29.3404809816423
30
0
41
1
10
56.6089017146956
20
29.3403678932275
30
0
41
1
10
56.588886792244
20
29.3402847361935
30
0
41
1
10
56.5584639180257
20
29.3402037208512
30
0
41
1
10
56.5482559753648
20
29.3401840360258
30
0
41
1
10
56.5277033378561
20
29.340159523852
30
0
41
1
10
56.5173400757495
20
29.3401547245949
30
0
41
1
10
56.5069925772654
20
29.3401575401612
30
0
0
SPLINE
5
121
100
AcDbEntity
8
1
62
256
6
ByLayer
370
18
48
1
60
0
100
AcDbSpline
70
4
71
3
72
8
73
4
40
0
40
0
40
0
40
0
40
1
40
1
40
1
40
1
41
1
10
27.2792156108743
20
32.6786315318898
30
0
41
1
10
27.3191843018689
20
32.6773157587834
30
0
41
1
10
27.3491260244757
20
32.6763478225961
30
0
41
1
10
27.3692542839951
20
32.6757436477214
30
0
0
SPLINE
5
122
100
AcDbEntity
8
1
62
256
6
ByLayer
370
18
48
1
60
0
100
AcDbSpline
70
4
71
3
72
37
73
33
40
0
40
0
40
0
40
0
40
0.125000000000006
40
0.125000000000006
40
0.187500000000008
40
0.187500000000008
40
0.218750000000007
40
0.218750000000007
40
0.250000000000006
40
0.250000000000006
40
0.37500000000001
40
0.37500000000001
40
0.406250000000009
40
0.406250000000009
40
0.437500000000009
40
0.437500000000009
40
0.500000000000004
40
0.500000000000004
40
0.624999999999987
40
0.624999999999987
40
0.656249999999988
40
0.656249999999988
40
0.687499999999988
40
0.687499999999988
40
0.74999999999999
40
0.812499999999993
40
0.812499999999993
40
0.843749999999994
40
0.843749999999994
40
0.874999999999995
40
0.874999999999995
40
1
40
1
40
1
40
1
41
1
10
45.4
20
27.7497750203297
30
0
41
1
10
45.4
20
27.8542162649882
30
0
41
1
10
45.4102151513157
20
27.9570832546053
30
0
41
1
10
45.4403627481381
20
28.1090990811366
30
0
41
1
10
45.4529005877585
20
28.1593874993683
30
0
41
1
10
45.4755404560472
20
28.2342294070331
30
0
41
1
10
45.4837527076824
20
28.2591461427577
30
0
41
1
10
45.501335748542
20
28.3083638137605
30
0
41
1
10
45.5107027881799
20
28.3326685344097
30
0
41
1
10
45.5603642940878
20
28.4526986650799
30
0
41
1
10
45.6090577581965
20
28.5439858913695
30
0
41
1
10
45.681132704412
20
28.652172351158
30
0
41
1
10
45.6961130957054
20
28.6735108743543
30
0
41
1
10
45.7272253533917
20
28.715579460291
30
0
41
1
10
45.7434049806459
20
28.7363656771445
30
0
41
1
10
45.7932671253248
20
28.7972531984708
30
0
41
1
10
45.8282801969686
20
28.8359315519146
30
0
41
1
10
45.9384910000318
20
28.9463814306605
30
0
41
1
10
46.0188105404908
20
29.0126215345098
30
0
41
1
10
46.1280469401343
20
29.0858779606093
30
0
41
1
10
46.1504032656543
20
29.1000835997779
30
0
41
1
10
46.1955914932222
20
29.1272495952934
30
0
41
1
10
46.2184440860102
20
29.1402286452627
30
0
41
1
10
46.2877641169666
20
29.1773847577931
30
0
41
1
10
46.3822199051559
20
29.2221852041433
30
0
41
1
10
46.4806843147554
20
29.2576193267399
30
0
41
1
10
46.5560611682461
20
29.280623401707
30
0
41
1
10
46.5814419993657
20
29.2876951093964
30
0
41
1
10
46.6327241131239
20
29.3006224664532
30
0
41
1
10
46.658670303917
20
29.3064845675931
30
0
41
1
10
46.788543775852
20
29.3324581515503
30
0
41
1
10
46.8936578919788
20
29.3428857724991
30
0
41
1
10
46.9999999999997
20
29.3428543767828
30
0
0
SPLINE
5
123
100
AcDbEntity
8
1
62
256
6
ByLayer
370
18
48
1
60
0
100
AcDbSpline
70
4
71
3
72
16
73
12
40
0
40
0
40
0
40
0
40
0.25
40
0.25
40
0.5
40
0.5
40
0.625000000000002
40
0.625000000000002
40
0.750000000000004
40
0.750000000000004
40
1
40
1
40
1
40
1
41
1
10
45.6205924198548
20
29.325
30
0
41
1
10
45.5834514709311
20
29.2650142995315
30
0
41
1
10
45.5511345959807
20
29.2034228743746
30
0
41
1
10
45.4957915675793
20
29.0778921720853
30
0
41
1
10
45.4727659768029
20
29.013948537385
30
0
41
1
10
45.4451381527272
20
28.91679829486
30
0
41
1
10
45.4370740215578
20
28.8841662718138
30
0
41
1
10
45.4233060781109
20
28.8187495837704
30
0
41
1
10
45.4176633018334
20
28.786271427618
30
0
41
1
10
45.4042542352509
20
28.6896500660513
30
0
41
1
10
45.4000000000001
20
28.6263178124462
30
0
41
1
10
45.4
20
28.5643981583056
30
0
0
SPLINE
5
124
100
AcDbEntity
8
1
62
256
6
ByLayer
370
18
48
1
60
0
100
AcDbSpline
70
4
71
3
72
32
73
28
40
0
40
0
40
0
40
0
40
0.125000000000005
40
0.125000000000005
40
0.250000000000011
40
0.250000000000011
40
0.281250000000012
40
0.281250000000012
40
0.312500000000013
40
0.312500000000013
40
0.375000000000018
40
0.375000000000018
40
0.500000000000018
40
0.500000000000018
40
0.562500000000015
40
0.562500000000015
40
0.593750000000014
40
0.593750000000014
40
0.625000000000013
40
0.625000000000013
40
0.750000000000012
40
0.750000000000012
40
0.875000000000012
40
0.875000000000012
40
0.937500000000006
40
0.937500000000006
40
1
40
1
40
1
40
1
41
1
10
45.6205924198548
20
29.325
30
0
41
1
10
45.659764822449
20
29.3882666659508
30
0
41
1
10
45.7026990715219
20
29.4465096686661
30
0
41
1
10
45.7952113032902
20
29.5541234671807
30
0
41
1
10
45.8447959424325
20
29.6034853737954
30
0
41
1
10
45.9106909548099
20
29.6599606191908
30
0
41
1
10
45.9240666245695
20
29.6709930338932
30
0
41
1
10
45.9512087930547
20
29.6925359405882
30
0
41
1
10
45.9649559968173
20
29.7030295296219
30
0
41
1
10
46.0064704135897
20
29.7335172388169
30
0
41
1
10
46.0346021446347
20
29.7525938907167
30
0
41
1
10
46.1202819254129
20
29.8063025368541
30
0
41
1
10
46.1791087083034
20
29.8374292698366
30
0
41
1
10
46.2697123334989
20
29.8776406816501
30
0
41
1
10
46.3003090382084
20
29.8899603517423
30
0
41
1
10
46.346785376431
20
29.9068464499129
30
0
41
1
10
46.3623787347253
20
29.9122097782363
30
0
41
1
10
46.3935850620861
20
29.9223553962975
30
0
41
1
10
46.4092194213687
20
29.927145789118
30
0
41
1
10
46.4875430490234
20
29.9497232132005
30
0
41
1
10
46.5506857378658
20
29.9634053937297
30
0
41
1
10
46.677868552756
20
29.9826451860723
30
0
41
1
10
46.7419090401908
20
29.9881995262204
30
0
41
1
10
46.8386249977654
20
29.9905992207532
30
0
41
1
10
46.8710092767555
20
29.9904035236871
30
0
41
1
10
46.935583093219
20
29.9880490052214
30
0
41
1
10
46.9678174257339
20
29.9858934879979
30
0
41
1
10
47
20
29.9827749231289
30
0
0
SPLINE
5
125
100
AcDbEntity
8
1
62
256
6
ByLayer
370
18
48
1
60
0
100
AcDbSpline
70
4
71
3
72
10
73
6
40
0
40
0
40
0
40
0
40
0.5
40
0.5
40
1
40
1
40
1
40
1
41
1
10
21.4383186059721
20
25.15
30
0
41
1
10
21.5073454624157
20
25.15
30
0
41
1
10
21.5936649915302
20
25.15
30
0
41
1
10
21.7972762663648
20
25.15
30
0
41
1
10
21.9145475700807
20
25.15
30
0
41
1
10
22.0452164507293
20
25.15
30
0
0
SPLINE
5
126
100
AcDbEntity
8
1
62
256
6
ByLayer
370
18
48
1
60
0
100
AcDbSpline
70
4
71
3
72
31
73
27
40
0
40
0
40
0
40
0
40
0.0234755077965146
40
0.0234755077965146
40
0.0293443847456432
40
0.0293443847456432
40
0.0352132616947718
40
0.0469510155930291
40
0.0939020311860587
40
0.187804062372118
40
0.187804062372118
40
0.375608124744236
40
0.375608124744236
40
0.469510155930296
40
0.469510155930296
40
0.563412187116355
40
0.563412187116355
40
0.657314218302415
40
0.657314218302415
40
0.751216249488474
40
0.751216249488474
40
0.845118280674534
40
0.845118280674534
40
0.939020311860593
40
0.939020311860593
40
1
40
1
40
1
40
1
41
1
10
21.4383186059721
20
25.15
30
0
41
1
10
21.4352764904254
20
25.15
30
0
41
1
10
21.432089395682
20
25.15
30
0
41
1
10
21.4279338744324
20
25.15
30
0
41
1
10
21.4270854740373
20
25.15
30
0
41
1
10
21.4253754180396
20
25.15
30
0
41
1
10
21.422784669936
20
25.15
30
0
41
1
10
21.4130069032097
20
25.15
30
0
41
1
10
21.3877658048805
20
25.15
30
0
41
1
10
21.3602831824582
20
25.15
30
0
41
1
10
21.301077194839
20
25.15
30
0
41
1
10
21.2559208195015
20
25.15
30
0
41
1
10
21.1850417331747
20
25.15
30
0
41
1
10
21.1608954295142
20
25.15
30
0
41
1
10
21.1126090080194
20
25.15
30
0
41
1
10
21.0884667435637
20
25.15
30
0
41
1
10
21.0414356399343
20
25.15
30
0
41
1
10
21.0185451573696
20
25.15
30
0
41
1
10
20.9755352241285
20
25.15
30
0
41
1
10
20.9554183968521
20
25.15
30
0
41
1
10
20.9197454728762
20
25.15
30
0
41
1
10
20.9042014715544
20
25.15
30
0
41
1
10
20.8795352807617
20
25.15
30
0
41
1
10
20.8704350840159
20
25.15
30
0
41
1
10
20.86188425997
20
25.15
30
0
41
1
10
20.8601760911795
20
25.15
30
0
41
1
10
20.8601636059676
20
25.15
30
0
0
SPLINE
5
127
100
AcDbEntity
8
1
62
256
6
ByLayer
370
18
48
1
60
0
100
AcDbSpline
70
4
71
3
72
26
73
22
40
0
40
0
40
0
40
0
40
0.124999999999994
40
0.124999999999994
40
0.249999999999988
40
0.249999999999988
40
0.312499999999984
40
0.312499999999984
40
0.37499999999998
40
0.37499999999998
40
0.499999999999977
40
0.499999999999977
40
0.562499999999976
40
0.562499999999976
40
0.624999999999975
40
0.624999999999975
40
0.749999999999984
40
0.749999999999984
40
0.874999999999992
40
0.874999999999992
40
1
40
1
40
1
40
1
41
1
10
21.11644918328
20
25.15
30
0
41
1
10
21.1218738751806
20
25.15
30
0
41
1
10
21.1300054568013
20
25.1527760292951
30
0
41
1
10
21.1502559577502
20
25.1632534201059
30
0
41
1
10
21.162374395983
20
25.1709589861924
30
0
41
1
10
21.1826336751786
20
25.1860663760904
30
0
41
1
10
21.1897363033316
20
25.1916973046665
30
0
41
1
10
21.2045033255989
20
25.2041529907878
30
0
41
1
10
21.2120964141049
20
25.2109178346418
30
0
41
1
10
21.2353023835193
20
25.2327802464766
30
0
41
1
10
21.2513358761467
20
25.2494367389821
30
0
41
1
10
21.275578493945
20
25.277554796389
30
0
41
1
10
21.2836932181025
20
25.2874520260504
30
0
41
1
10
21.2998971034367
20
25.3083247595893
30
0
41
1
10
21.3079972754771
20
25.3193159187441
30
0
41
1
10
21.3320569967699
20
25.3538776642512
30
0
41
1
10
21.3475766188662
20
25.3787417223382
30
0
41
1
10
21.3769801014244
20
25.4322089639123
30
0
41
1
10
21.3908676442061
20
25.4608112468156
30
0
41
1
10
21.4164250425089
20
25.5220606024185
30
0
41
1
10
21.4280993217987
20
25.5547041161612
30
0
41
1
10
21.4383186059721
20
25.589659530439
30
0
0
SPLINE
5
128
100
AcDbEntity
8
1
62
256
6
ByLayer
370
18
48
1
60
0
100
AcDbSpline
70
4
71
3
72
61
73
57
40
0
40
0
40
0
40
0
40
0.0312500000000002
40
0.0312500000000002
40
0.0468750000000003
40
0.0468750000000003
40
0.0625000000000004
40
0.0625000000000004
40
0.124999999999999
40
0.124999999999999
40
0.187499999999998
40
0.187499999999998
40
0.203124999999998
40
0.203124999999998
40
0.218749999999998
40
0.218749999999998
40
0.249999999999998
40
0.249999999999998
40
0.312499999999999
40
0.312499999999999
40
0.375
40
0.375
40
0.437500000000001
40
0.437500000000001
40
0.453125000000001
40
0.453125000000001
40
0.468750000000001
40
0.5
40
0.5
40
0.5625
40
0.5625
40
0.625
40
0.625
40
0.687499999999999
40
0.687499999999999
40
0.749999999999999
40
0.749999999999999
40
0.812499999999999
40
0.812499999999999
40
0.843749999999999
40
0.843749999999999
40
0.874999999999999
40
0.874999999999999
40
0.906249999999999
40
0.906249999999999
40
0.937499999999999
40
0.937499999999999
40
0.953124999999999
40
0.953124999999999
40
0.968749999999999
40
0.968749999999999
40
0.976562499999999
40
0.976562499999999
40
0.984374999999999
40
0.984374999999999
40
1
40
1
40
1
40
1
41
1
10
23.4
20
-13.5557673050168
30
0
41
1
10
23.3319996376254
20
-13.5672426170971
30
0
41
1
10
23.2644655429174
20
-13.5804466275912
30
0
41
1
10
23.1638563765091
20
-13.6028174484724
30
0
41
1
10
23.1304353764729
20
-13.6107020765715
30
0
41
1
10
23.0638236176502
20
-13.6273245965003
30
0
41
1
10
23.0305776725185
20
-13.6360780138735
30
0
41
1
10
22.8656024136678
20
-13.6817867347527
30
0
41
1
10
22.7384971042966
20
-13.724269766463
30
0
41
1
10
22.4929658167456
20
-13.8197607766531
30
0
41
1
10
22.3745451308206
20
-13.8727752230832
30
0
41
1
10
22.2315312370221
20
-13.9451153048826
30
0
41
1
10
22.2031798382598
20
-13.9598878680263
30
0
41
1
10
22.1469722526985
20
-13.9900327774407
30
0
41
1
10
22.1190921560817
20
-14.0054187512799
30
0
41
1
10
22.0363444205531
20
-14.0523733730021
30
0
41
1
10
21.9826333019614
20
-14.0845838120091
30
0
41
1
10
21.8255597284093
20
-14.1837463672678
30
0
41
1
10
21.726242939305
20
-14.2532209741255
30
0
41
1
10
21.5372220451443
20
-14.398150717263
30
0
41
1
10
21.4475231366091
20
-14.4736091766961
30
0
41
1
10
21.2769613083256
20
-14.6300068255252
30
0
41
1
10
21.196101252241
20
-14.7109479281358
30
0
41
1
10
21.1002353339217
20
-14.8153411280671
30
0
41
1
10
21.0813471403978
20
-14.8363556509053
30
0
41
1
10
21.0442298157768
20
-14.8785331826108
30
0
41
1
10
20.9894945624029
20
-14.9420745439353
30
0
41
1
10
20.9375010157429
20
-15.0064154017051
30
0
41
1
10
20.8369882092196
20
-15.1361035374011
30
0
41
1
10
20.7746038381532
20
-15.22390238326
30
0
41
1
10
20.658352041149
20
-15.4019207458957
30
0
41
1
10
20.6044869621591
20
-15.4921416190818
30
0
41
1
10
20.5047848189075
20
-15.6747895402123
30
0
41
1
10
20.458949103066
20
-15.7672185729476
30
0
41
1
10
20.3749980238826
20
-15.9540638504604
30
0
41
1
10
20.3368833433241
20
-16.0484847766574
30
0
41
1
10
20.2682185183511
20
-16.2390013055807
30
0
41
1
10
20.2378629611352
20
-16.3345744714207
30
0
41
1
10
20.1981089077088
20
-16.4777782636631
30
0
41
1
10
20.1858199834413
20
-16.5254893196971
30
0
41
1
10
20.1631450681696
20
-16.6206767519171
30
0
41
1
10
20.1527574843076
20
-16.6681655690605
30
0
41
1
10
20.1338809349975
20
-16.7625244934837
30
0
41
1
10
20.125402778749
20
-16.8093523440308
30
0
41
1
10
20.1103601830094
20
-16.901479990178
30
0
41
1
10
20.1037940915949
20
-16.9468358212932
30
0
41
1
10
20.0954049613862
20
-17.012144750492
30
0
41
1
10
20.0928541544716
20
-17.0334370740541
30
0
41
1
10
20.0882774046319
20
-17.0742119606892
30
0
41
1
10
20.0862480178867
20
-17.0937338004348
30
0
41
1
10
20.0836234064486
20
-17.1206410927857
30
0
41
1
10
20.0828186912572
20
-17.1292073344895
30
0
41
1
10
20.0813607706145
20
-17.1452156909491
30
0
41
1
10
20.0807125571893
20
-17.1526035570968
30
0
41
1
10
20.0790422834235
20
-17.1721313950096
30
0
41
1
10
20.0782833840517
20
-17.18173713553
30
0
41
1
10
20.077973744624
20
-17.1856652004364
30
0
0
SPLINE
5
129
100
AcDbEntity
8
1
62
256
6
ByLayer
370
18
48
1
60
0
100
AcDbSpline
70
4
71
3
72
10
73
6
40
0
40
0
40
0
40
0
40
0.5
40
0.5
40
1
40
1
40
1
40
1
41
1
10
22.0452164507293
20
25.15
30
0
41
1
10
21.9401268744199
20
24.6797499617203
30
0
41
1
10
21.8368097834279
20
24.2099479615162
30
0
41
1
10
21.6342961592223
20
23.2712050855947
30
0
41
1
10
21.5350983866006
20
22.8022639883483
30
0
41
1
10
21.4383186059721
20
22.3337405327214
30
0
0
SPLINE
5
12A
100
AcDbEntity
8
1
62
256
6
ByLayer
370
18
48
1
60
0
100
AcDbSpline
70
4
71
3
72
26
73
22
40
0
40
0
40
0
40
0
40
0.125
40
0.125
40
0.25
40
0.25
40
0.375
40
0.375
40
0.5
40
0.5
40
0.624999999999999
40
0.624999999999999
40
0.749999999999999
40
0.749999999999999
40
0.874999999999999
40
0.874999999999999
40
0.906249999999999
40
0.906249999999999
40
0.937499999999999
40
0.937499999999999
40
1
40
1
40
1
40
1
41
1
10
20.2792076144253
20
20.113995121038
30
0
41
1
10
20.312851200709
20
20.1892679334587
30
0
41
1
10
20.3505216716455
20
20.2638762053675
30
0
41
1
10
20.4331582702033
20
20.4136809203026
30
0
41
1
10
20.4781261880455
20
20.4888789659664
30
0
41
1
10
20.5742075667729
20
20.642061665901
30
0
41
1
10
20.6253234688502
20
20.7200458097035
30
0
41
1
10
20.7320953656148
20
20.8812537011921
30
0
41
1
10
20.7877561403076
20
20.9644728392688
30
0
41
1
10
20.9014564295983
20
21.1389257528605
30
0
41
1
10
20.9595068649615
20
21.2301457438596
30
0
41
1
10
21.0750527748138
20
21.4239471729721
30
0
41
1
10
21.131488493698
20
21.5247948365914
30
0
41
1
10
21.2375943351222
20
21.7366141466075
30
0
41
1
10
21.2873228981266
20
21.8475651537303
30
0
41
1
10
21.3419894424996
20
21.9947068927049
30
0
41
1
10
21.3525474478783
20
22.0245852907082
30
0
41
1
10
21.3726396686351
20
22.0847958438382
30
0
41
1
10
21.3821947961361
20
22.1151812768342
30
0
41
1
10
21.4092357602441
20
22.2072335426144
30
0
41
1
10
21.4251087737332
20
22.2697900235484
30
0
41
1
10
21.4383186059721
20
22.3337405327215
30
0
0
SPLINE
5
12B
100
AcDbEntity
8
1
62
256
6
ByLayer
370
18
48
1
60
0
100
AcDbSpline
70
4
71
3
72
26
73
22
40
0
40
0
40
0
40
0
40
0.0624999999999872
40
0.0624999999999872
40
0.0937499999999846
40
0.0937499999999846
40
0.124999999999982
40
0.124999999999982
40
0.249999999999982
40
0.249999999999982
40
0.374999999999982
40
0.374999999999982
40
0.437499999999985
40
0.437499999999985
40
0.499999999999987
40
0.499999999999987
40
0.624999999999991
40
0.624999999999991
40
0.749999999999992
40
0.749999999999992
40
1
40
1
40
1
40
1
41
1
10
11.4613248654052
20
23.8391299750502
30
0
41
1
10
11.4772013120199
20
23.8391299750502
30
0
41
1
10
11.4927843117432
20
23.8386381480423
30
0
41
1
10
11.5157579869923
20
23.8372273769848
30
0
41
1
10
11.5233488813096
20
23.8366445991221
30
0
41
1
10
11.5384012334117
20
23.8352611656444
30
0
41
1
10
11.5458956692735
20
23.8344558067494
30
0
41
1
10
11.582404000511
20
23.8299833264009
30
0
41
1
10
11.6089650834003
20
23.8249896713849
30
0
41
1
10
11.6582924559948
20
23.813005969379
30
0
41
1
10
11.6801688454703
20
23.8062336877525
30
0
41
1
10
11.7102266942346
20
23.7952700628808
30
0
41
1
10
11.719773612984
20
23.7914778883489
30
0
41
1
10
11.7380555263963
20
23.7836514357395
30
0
41
1
10
11.7468017366172
20
23.7796095569563
30
0
41
1
10
11.7716769242357
20
23.7673085978343
30
0
41
1
10
11.7865761040498
20
23.7588292909636
30
0
41
1
10
11.8138519277098
20
23.7414211400326
30
0
41
1
10
11.8262196262291
20
23.7324910902464
30
0
41
1
10
11.8602443227467
20
23.7051129235882
30
0
41
1
10
11.8788862370737
20
23.686033116806
30
0
41
1
10
11.8943375672975
20
23.6665017920808
30
0
0
SPLINE
5
12C
100
AcDbEntity
8
1
62
256
6
ByLayer
370
18
48
1
60
0
100
AcDbSpline
70
4
71
3
72
30
73
26
40
0
40
0
40
0
40
0
40
0.249999999999991
40
0.249999999999991
40
0.37499999999999
40
0.37499999999999
40
0.43749999999999
40
0.43749999999999
40
0.49999999999999
40
0.49999999999999
40
0.624999999999989
40
0.624999999999989
40
0.687499999999988
40
0.687499999999988
40
0.749999999999987
40
0.749999999999987
40
0.812499999999986
40
0.812499999999986
40
0.843749999999988
40
0.843749999999988
40
0.87499999999999
40
0.87499999999999
40
0.937499999999995
40
0.937499999999995
40
1
40
1
40
1
40
1
41
1
10
11.8943375672973
20
8.05584836782791
30
0
41
1
10
11.8788923030149
20
7.9984916943493
30
0
41
1
10
11.8604037172645
20
7.94218253951271
30
0
41
1
10
11.8264575712212
20
7.85991012495435
30
0
41
1
10
11.8140962699691
20
7.8328550605851
30
0
41
1
10
11.7935837333005
20
7.79297622996174
30
0
41
1
10
11.7864159259844
20
7.77980127287398
30
0
41
1
10
11.7713191828915
20
7.75372482186646
30
0
41
1
10
11.7633824368151
20
7.74081492713995
30
0
41
1
10
11.7384769785308
20
7.70292805784945
30
0
41
1
10
11.7203772593316
20
7.67866353751202
30
0
41
1
10
11.6901125047557
20
7.64434849039861
30
0
41
1
10
11.6794995583259
20
7.63327217102551
30
0
41
1
10
11.6573691354905
20
7.61232137865167
30
0
41
1
10
11.6458165560481
20
7.60240297286813
30
0
41
1
10
11.6215461384039
20
7.58390025536215
30
0
41
1
10
11.6088302857938
20
7.57531366225038
30
0
41
1
10
11.5886665813883
20
7.56368345606458
30
0
41
1
10
11.5817366894217
20
7.56000567013078
30
0
41
1
10
11.5676991017995
20
7.55323657194805
30
0
41
1
10
11.5605721090663
20
7.55013193108826
30
0
41
1
10
11.53884494046
20
7.54171396614046
30
0
41
1
10
11.5239007732521
20
7.53729092133952
30
0
41
1
10
11.4929356027573
20
7.53123335639165
30
0
41
1
10
11.477175816822
20
7.52966679426495
30
0
41
1
10
11.4613248654052
20
7.52966679426495
30
0
0
SPLINE
5
12D
100
AcDbEntity
8
1
62
256
6
ByLayer
370
18
48
1
60
0
100
AcDbSpline
70
4
71
3
72
26
73
22
40
0
40
0
40
0
40
0
40
0.0625000000000029
40
0.0625000000000029
40
0.0937500000000045
40
0.0937500000000045
40
0.125000000000006
40
0.125000000000006
40
0.250000000000009
40
0.250000000000009
40
0.375000000000012
40
0.375000000000012
40
0.437500000000012
40
0.437500000000012
40
0.500000000000012
40
0.500000000000012
40
0.625000000000009
40
0.625000000000009
40
0.750000000000007
40
0.750000000000007
40
1
40
1
40
1
40
1
41
1
10
8.53867513459488
20
7.52966679426521
30
0
41
1
10
8.52279868798016
20
7.52966679426521
30
0
41
1
10
8.50721568825682
20
7.53122440152964
30
0
41
1
10
8.48424201300779
20
7.53568798536671
30
0
41
1
10
8.47665111869043
20
7.53753139400649
30
0
41
1
10
8.46159876658839
20
7.54190496002269
30
0
41
1
10
8.45410433072652
20
7.54444995843585
30
0
41
1
10
8.41759599948901
20
7.55857361750122
30
0
41
1
10
8.39103491659975
20
7.57431556968126
30
0
41
1
10
8.3417075440052
20
7.61190750686279
30
0
41
1
10
8.31983115452977
20
7.63307325241217
30
0
41
1
10
8.28977330576541
20
7.66715495165661
30
0
41
1
10
8.28022638701603
20
7.67891539799638
30
0
41
1
10
8.26194447360368
20
7.70312184666892
30
0
41
1
10
8.25319826338284
20
7.71559105034081
30
0
41
1
10
8.22832307576431
20
7.75343444963914
30
0
41
1
10
8.21342389595023
20
7.77938351245621
30
0
41
1
10
8.18614807229017
20
7.83234954293016
30
0
41
1
10
8.17378037377094
20
7.85937042586596
30
0
41
1
10
8.13975567725336
20
7.94172327888202
30
0
41
1
10
8.12111376292629
20
7.99846916820718
30
0
41
1
10
8.10566243270253
20
8.05584836782782
30
0
0
SPLINE
5
12E
100
AcDbEntity
8
1
62
256
6
ByLayer
370
18
48
1
60
0
100
AcDbSpline
70
4
71
3
72
30
73
26
40
0
40
0
40
0
40
0
40
0.249999999999999
40
0.249999999999999
40
0.374999999999999
40
0.374999999999999
40
0.437500000000001
40
0.437500000000001
40
0.500000000000002
40
0.500000000000002
40
0.624999999999998
40
0.624999999999998
40
0.687499999999999
40
0.687499999999999
40
0.749999999999999
40
0.749999999999999
40
0.812499999999999
40
0.812499999999999
40
0.843750000000003
40
0.843750000000003
40
0.875000000000006
40
0.875000000000006
40
0.937500000000003
40
0.937500000000003
40
1
40
1
40
1
40
1
41
1
10
8.10566243270267
20
23.6665017920808
30
0
41
1
10
8.12110769698509
20
23.6860254491251
30
0
41
1
10
8.13959628273551
20
23.704958919593
30
0
41
1
10
8.1735424287788
20
23.7323123198157
30
0
41
1
10
8.18590373003096
20
23.7412544902041
30
0
41
1
10
8.20641626669956
20
23.7543620682907
30
0
41
1
10
8.21358407401564
20
23.7586801045418
30
0
41
1
10
8.22868081710854
20
23.7672030231185
30
0
41
1
10
8.23661756318495
20
23.7714105724815
30
0
41
1
10
8.2615230214692
20
23.7837256270429
30
0
41
1
10
8.2796227406684
20
23.7915679133937
30
0
41
1
10
8.30988749524428
20
23.8026065911347
30
0
41
1
10
8.3205004416742
20
23.8061604830514
30
0
41
1
10
8.34263086450954
20
23.8128680383081
30
0
41
1
10
8.35418344395194
20
23.816035844018
30
0
41
1
10
8.3784538615962
20
23.8219342456095
30
0
41
1
10
8.39116971420628
20
23.8246655611124
30
0
41
1
10
8.41133341861178
20
23.8283593459882
30
0
41
1
10
8.41826331057831
20
23.8295263669799
30
0
41
1
10
8.43230089820059
20
23.8316728303992
30
0
41
1
10
8.43942789093373
20
23.8326565134122
30
0
41
1
10
8.46115505954
20
23.8353222152631
30
0
41
1
10
8.47609922674792
20
23.8367207404254
30
0
41
1
10
8.50706439724274
20
23.838635326325
30
0
41
1
10
8.52282418317805
20
23.8391299750504
30
0
41
1
10
8.5386751345948
20
23.8391299750504
30
0
0
SPLINE
5
12F
100
AcDbEntity
8
1
62
256
6
ByLayer
370
18
48
1
60
0
100
AcDbSpline
70
4
71
3
72
26
73
22
40
0
40
0
40
0
40
0
40
0.0625000000000019
40
0.0625000000000019
40
0.0937499999999998
40
0.0937499999999998
40
0.124999999999998
40
0.124999999999998
40
0.250000000000002
40
0.250000000000002
40
0.375000000000005
40
0.375000000000005
40
0.437500000000007
40
0.437500000000007
40
0.500000000000009
40
0.500000000000009
40
0.62500000000001
40
0.62500000000001
40
0.750000000000008
40
0.750000000000008
40
1
40
1
40
1
40
1
41
1
10
8.53867513459488
20
-23.8391299750502
30
0
41
1
10
8.52279868798016
20
-23.8391299750502
30
0
41
1
10
8.50721568825682
20
-23.8386381480423
30
0
41
1
10
8.48424201300776
20
-23.8372273769848
30
0
41
1
10
8.47665111869043
20
-23.8366445991221
30
0
41
1
10
8.46159876658839
20
-23.8352611656444
30
0
41
1
10
8.45410433072652
20
-23.8344558067494
30
0
41
1
10
8.41759599948898
20
-23.8299833264009
30
0
41
1
10
8.39103491659975
20
-23.8249896713849
30
0
41
1
10
8.3417075440052
20
-23.813005969379
30
0
41
1
10
8.31983115452977
20
-23.8062336877525
30
0
41
1
10
8.28977330576541
20
-23.7952700628808
30
0
41
1
10
8.28022638701603
20
-23.7914778883489
30
0
41
1
10
8.26194447360368
20
-23.7836514357395
30
0
41
1
10
8.25319826338284
20
-23.7796095569563
30
0
41
1
10
8.22832307576431
20
-23.7673085978343
30
0
41
1
10
8.21342389595026
20
-23.7588292909636
30
0
41
1
10
8.18614807229017
20
-23.7414211400326
30
0
41
1
10
8.17378037377097
20
-23.7324910902464
30
0
41
1
10
8.13975567725336
20
-23.7051129235882
30
0
41
1
10
8.12111376292626
20
-23.6860331168061
30
0
41
1
10
8.10566243270253
20
-23.6665017920808
30
0
0
SPLINE
5
130
100
AcDbEntity
8
1
62
256
6
ByLayer
370
18
48
1
60
0
100
AcDbSpline
70
4
71
3
72
30
73
26
40
0
40
0
40
0
40
0
40
0.249999999999996
40
0.249999999999996
40
0.374999999999999
40
0.374999999999999
40
0.4375
40
0.4375
40
0.500000000000002
40
0.500000000000002
40
0.625000000000006
40
0.625000000000006
40
0.687500000000008
40
0.687500000000008
40
0.750000000000009
40
0.750000000000009
40
0.812500000000011
40
0.812500000000011
40
0.843750000000009
40
0.843750000000009
40
0.875000000000007
40
0.875000000000007
40
0.937500000000004
40
0.937500000000004
40
1
40
1
40
1
40
1
41
1
10
8.10566243270267
20
-8.05584836782788
30
0
41
1
10
8.12110769698509
20
-7.99849169434927
30
0
41
1
10
8.13959628273551
20
-7.94218253951266
30
0
41
1
10
8.1735424287788
20
-7.8599101249543
30
0
41
1
10
8.18590373003096
20
-7.83285506058505
30
0
41
1
10
8.20641626669956
20
-7.79297622996165
30
0
41
1
10
8.21358407401564
20
-7.77980127287393
30
0
41
1
10
8.22868081710854
20
-7.7537248218664
30
0
41
1
10
8.23661756318498
20
-7.74081492713989
30
0
41
1
10
8.2615230214692
20
-7.70292805784939
30
0
41
1
10
8.2796227406684
20
-7.67866353751194
30
0
41
1
10
8.30988749524428
20
-7.64434849039853
30
0
41
1
10
8.3205004416742
20
-7.63327217102545
30
0
41
1
10
8.34263086450954
20
-7.61232137865161
30
0
41
1
10
8.35418344395194
20
-7.60240297286808
30
0
41
1
10
8.3784538615962
20
-7.5839002553621
30
0
41
1
10
8.39116971420628
20
-7.57531366225032
30
0
41
1
10
8.41133341861178
20
-7.56368345606452
30
0
41
1
10
8.41826331057831
20
-7.56000567013072
30
0
41
1
10
8.43230089820059
20
-7.55323657194799
30
0
41
1
10
8.43942789093373
20
-7.55013193108823
30
0
41
1
10
8.46115505954
20
-7.54171396614043
30
0
41
1
10
8.47609922674792
20
-7.53729092133946
30
0
41
1
10
8.50706439724271
20
-7.53123335639162
30
0
41
1
10
8.52282418317805
20
-7.5296667942649
30
0
41
1
10
8.53867513459483
20
-7.5296667942649
30
0
0
SPLINE
5
131
100
AcDbEntity
8
1
62
256
6
ByLayer
370
18
48
1
60
0
100
AcDbSpline
70
4
71
3
72
26
73
22
40
0
40
0
40
0
40
0
40
0.062500000000001
40
0.062500000000001
40
0.0937500000000007
40
0.0937500000000007
40
0.125
40
0.125
40
0.25
40
0.25
40
0.374999999999999
40
0.374999999999999
40
0.437499999999999
40
0.437499999999999
40
0.499999999999999
40
0.499999999999999
40
0.624999999999995
40
0.624999999999995
40
0.749999999999995
40
0.749999999999995
40
1
40
1
40
1
40
1
41
1
10
11.4613248654052
20
-7.52966679426524
30
0
41
1
10
11.4772013120199
20
-7.52966679426524
30
0
41
1
10
11.4927843117432
20
-7.53122440152967
30
0
41
1
10
11.5157579869922
20
-7.53568798536674
30
0
41
1
10
11.5233488813096
20
-7.53753139400652
30
0
41
1
10
11.5384012334116
20
-7.54190496002272
30
0
41
1
10
11.5458956692735
20
-7.54444995843588
30
0
41
1
10
11.582404000511
20
-7.55857361750125
30
0
41
1
10
11.6089650834003
20
-7.57431556968129
30
0
41
1
10
11.6582924559948
20
-7.61190750686279
30
0
41
1
10
11.6801688454702
20
-7.6330732524122
30
0
41
1
10
11.7102266942346
20
-7.66715495165661
30
0
41
1
10
11.719773612984
20
-7.67891539799638
30
0
41
1
10
11.7380555263963
20
-7.70312184666892
30
0
41
1
10
11.7468017366172
20
-7.71559105034081
30
0
41
1
10
11.7716769242357
20
-7.75343444963914
30
0
41
1
10
11.7865761040498
20
-7.77938351245621
30
0
41
1
10
11.8138519277098
20
-7.83234954293013
30
0
41
1
10
11.8262196262291
20
-7.85937042586593
30
0
41
1
10
11.8602443227466
20
-7.94172327888199
30
0
41
1
10
11.8788862370737
20
-7.99846916820721
30
0
41
1
10
11.8943375672975
20
-8.05584836782785
30
0
0
SPLINE
5
132
100
AcDbEntity
8
1
62
256
6
ByLayer
370
18
48
1
60
0
100
AcDbSpline
70
4
71
3
72
30
73
26
40
0
40
0
40
0
40
0
40
0.250000000000004
40
0.250000000000004
40
0.375000000000002
40
0.375000000000002
40
0.437500000000002
40
0.437500000000002
40
0.500000000000001
40
0.500000000000001
40
0.625000000000003
40
0.625000000000003
40
0.687500000000003
40
0.687500000000003
40
0.750000000000003
40
0.750000000000003
40
0.812500000000002
40
0.812500000000002
40
0.843750000000003
40
0.843750000000003
40
0.875000000000003
40
0.875000000000003
40
0.937500000000002
40
0.937500000000002
40
1
40
1
40
1
40
1
41
1
10
11.8943375672973
20
-23.6665017920808
30
0
41
1
10
11.8788923030149
20
-23.6860254491251
30
0
41
1
10
11.8604037172645
20
-23.7049589195931
30
0
41
1
10
11.8264575712212
20
-23.7323123198157
30
0
41
1
10
11.8140962699691
20
-23.7412544902041
30
0
41
1
10
11.7935837333005
20
-23.7543620682907
30
0
41
1
10
11.7864159259844
20
-23.7586801045418
30
0
41
1
10
11.7713191828915
20
-23.7672030231185
30
0
41
1
10
11.763382436815
20
-23.7714105724815
30
0
41
1
10
11.7384769785308
20
-23.7837256270429
30
0
41
1
10
11.7203772593316
20
-23.7915679133937
30
0
41
1
10
11.6901125047557
20
-23.8026065911346
30
0
41
1
10
11.6794995583258
20
-23.8061604830514
30
0
41
1
10
11.6573691354905
20
-23.812868038308
30
0
41
1
10
11.6458165560481
20
-23.816035844018
30
0
41
1
10
11.6215461384038
20
-23.8219342456095
30
0
41
1
10
11.6088302857937
20
-23.8246655611124
30
0
41
1
10
11.5886665813883
20
-23.8283593459882
30
0
41
1
10
11.5817366894217
20
-23.8295263669799
30
0
41
1
10
11.5676991017994
20
-23.8316728303992
30
0
41
1
10
11.5605721090663
20
-23.8326565134122
30
0
41
1
10
11.53884494046
20
-23.8353222152631
30
0
41
1
10
11.5239007732521
20
-23.8367207404254
30
0
41
1
10
11.4929356027573
20
-23.838635326325
30
0
41
1
10
11.477175816822
20
-23.8391299750504
30
0
41
1
10
11.4613248654052
20
-23.8391299750504
30
0
0
SPLINE
5
133
100
AcDbEntity
8
1
62
256
6
ByLayer
370
18
48
1
60
0
100
AcDbSpline
70
4
71
3
72
10
73
6
40
0
40
0
40
0
40
0
40
0.5
40
0.5
40
1
40
1
40
1
40
1
41
1
10
20.2792076144253
20
20.113995121038
30
0
41
1
10
20.2117517757231
20
19.9630721293427
30
0
41
1
10
20.1626283825148
20
19.8076877351775
30
0
41
1
10
20.0966029574405
20
19.4880304671092
30
0
41
1
10
20.0797300588642
20
19.3237565632347
30
0
41
1
10
20.077973744624
20
19.1549669624732
30
0
0
SPLINE
5
134
100
AcDbEntity
8
SK1
62
256
6
ByLayer
370
18
48
1
60
0
100
AcDbSpline
70
4
71
3
72
45
73
41
40
0
40
0
40
0
40
0
40
0.0236943077328542
40
0.0517123114285194
40
0.0797303151241845
40
0.10774831881985
40
0.16378432621118
40
0.21982033360251
40
0.247838337298176
40
0.275856340993841
40
0.303874344689506
40
0.331892348385171
40
0.359910352080836
40
0.387928355776501
40
0.415946359472167
40
0.429955361319999
40
0.443964363167832
40
0.471982366863497
40
0.485991368711329
40
0.492995869635246
40
0.500000370559162
40
0.507004871483078
40
0.514009372406995
40
0.528018374254827
40
0.556036377950492
40
0.570045379798325
40
0.584054381646157
40
0.612072385341823
40
0.640090389037488
40
0.668108392733153
40
0.696126396428818
40
0.724144400124483
40
0.752162403820148
40
0.780180407515814
40
0.836216414907144
40
0.892252422298474
40
0.920270425994139
40
0.948288429689804
40
0.97630643338547
40
1
40
1
40
1
40
1
41
1
10
-30
20
-15.9931892293305
30
0
41
1
10
-30
20
-15.9976541751411
30
0
41
1
10
-30
20
-15.9670776527951
30
0
41
1
10
-30
20
-15.7965331178349
30
0
41
1
10
-30
20
-15.4890632796305
30
0
41
1
10
-30
20
-14.9202435431778
30
0
41
1
10
-30
20
-13.9430327235571
30
0
41
1
10
-30
20
-12.6450678356931
30
0
41
1
10
-30
20
-11.42137036219
30
0
41
1
10
-30
20
-10.4224345134304
30
0
41
1
10
-30
20
-9.34179268341308
30
0
41
1
10
-30
20
-8.18272261240929
30
0
41
1
10
-30
20
-6.94914665451273
30
0
41
1
10
-30
20
-5.64597210397025
30
0
41
1
10
-30
20
-4.51272453462846
30
0
41
1
10
-30
20
-3.56968201835696
30
0
41
1
10
-30
20
-2.61530592334967
30
0
41
1
10
-30
20
-1.67591474804155
30
0
41
1
10
-30
20
-0.833341855678952
30
0
41
1
10
-30
20
-0.354131622770439
30
0
41
1
10
-30
20
4.002277763E-07
30
0
41
1
10
-30
20
0.354131996183753
30
0
41
1
10
-30
20
0.8333415404785
30
0
41
1
10
-30
20
1.675914880346
30
0
41
1
10
-30
20
2.61530613672116
30
0
41
1
10
-30
20
3.56968220154852
30
0
41
1
10
-30
20
4.51272494557483
30
0
41
1
10
-30
20
5.64597176408017
30
0
41
1
10
-30
20
6.94914704263559
30
0
41
1
10
-30
20
8.18272269843541
30
0
41
1
10
-30
20
9.34179238961872
30
0
41
1
10
-30
20
10.4224348167646
30
0
41
1
10
-30
20
11.4213703912989
30
0
41
1
10
-30
20
12.6450674903883
30
0
41
1
10
-30
20
13.9430330734595
30
0
41
1
10
-30
20
14.9202427964398
30
0
41
1
10
-30
20
15.4890634139888
30
0
41
1
10
-30
20
15.7965327535813
30
0
41
1
10
-30
20
15.9670755087454
30
0
41
1
10
-30
20
15.9976531620083
30
0
41
1
10
-30
20
15.9931895372289
30
0
0
SPLINE
5
135
100
AcDbEntity
8
SK1
62
256
6
ByLayer
370
18
48
1
60
0
100
AcDbSpline
70
4
71
3
72
38
73
34
40
0
40
0
40
0
40
0
40
0.249999999999998
40
0.249999999999998
40
0.375000000000001
40
0.375000000000001
40
0.500000000000003
40
0.500000000000003
40
0.625000000000006
40
0.625000000000006
40
0.687500000000004
40
0.687500000000004
40
0.750000000000002
40
0.750000000000002
40
0.8125
40
0.8125
40
0.843749999999999
40
0.843749999999999
40
0.874999999999998
40
0.874999999999998
40
0.906249999999997
40
0.906249999999997
40
0.921874999999998
40
0.921874999999998
40
0.937499999999998
40
0.937499999999998
40
0.953124999999999
40
0.953124999999999
40
0.968749999999999
40
0.968749999999999
40
0.984375
40
0.984375
40
1
40
1
40
1
40
1
41
1
10
-0.200000000000017
20
-6.07843116862739
30
0
41
1
10
-0.200329859654715
20
-6.01357702681145
30
0
41
1
10
-0.201930655445096
20
-5.94848814748187
30
0
41
1
10
-0.20706282051475
20
-5.85044931358604
30
0
41
1
10
-0.209234214279519
20
-5.81770188154789
30
0
41
1
10
-0.214779228537793
20
-5.7520569459719
30
0
41
1
10
-0.218149341071353
20
-5.71913713924792
30
0
41
1
10
-0.226581907125791
20
-5.65322539656964
30
0
41
1
10
-0.231616433421522
20
-5.620292949023
30
0
41
1
10
-0.241184891539973
20
-5.57099638970087
30
0
41
1
10
-0.244723140953255
20
-5.55455058376108
30
0
41
1
10
-0.252718404682355
20
-5.52188785992811
30
0
41
1
10
-0.257164394743938
20
-5.50568135296518
30
0
41
1
10
-0.267422418729041
20
-5.47365965349914
30
0
41
1
10
-0.273206407019217
20
-5.45783596374676
30
0
41
1
10
-0.283724888362031
20
-5.43464123738514
30
0
41
1
10
-0.287542348293499
20
-5.42700107315446
30
0
41
1
10
-0.296164698039092
20
-5.41201401791534
30
0
41
1
10
-0.301003751719009
20
-5.4046119981478
30
0
41
1
10
-0.312019326339538
20
-5.39094692539047
30
0
41
1
10
-0.31824990755598
20
-5.3846016561252
30
0
41
1
10
-0.328982330604276
20
-5.37709874944116
30
0
41
1
10
-0.332865959292434
20
-5.37490714744831
30
0
41
1
10
-0.340905624745261
20
-5.37162929612282
30
0
41
1
10
-0.345153788553745
20
-5.37051023807425
30
0
41
1
10
-0.353672033871192
20
-5.36955188220813
30
0
41
1
10
-0.357904387099609
20
-5.36969675293608
30
0
41
1
10
-0.366271728735967
20
-5.37110702101791
30
0
41
1
10
-0.370241250613816
20
-5.37233602993433
30
0
41
1
10
-0.377868038063696
20
-5.37555831609177
30
0
41
1
10
-0.381539373885118
20
-5.37756780385982
30
0
41
1
10
-0.388473887026265
20
-5.38206549938215
30
0
41
1
10
-0.39176092894752
20
-5.3845619683195
30
0
41
1
10
-0.394913799811292
20
-5.38724256160015
30
0
0
SPLINE
5
136
100
AcDbEntity
8
SK1
62
256
6
ByLayer
370
18
48
1
60
0
100
AcDbSpline
70
4
71
3
72
38
73
34
40
0
40
0
40
0
40
0
40
0.0156249999999985
40
0.0156249999999985
40
0.031249999999997
40
0.031249999999997
40
0.0468749999999954
40
0.0468749999999954
40
0.0624999999999939
40
0.0624999999999939
40
0.0781249999999924
40
0.0781249999999924
40
0.0937499999999909
40
0.0937499999999909
40
0.124999999999989
40
0.124999999999989
40
0.156249999999988
40
0.156249999999988
40
0.187499999999987
40
0.187499999999987
40
0.249999999999987
40
0.249999999999987
40
0.312499999999986
40
0.312499999999986
40
0.374999999999986
40
0.374999999999986
40
0.499999999999989
40
0.499999999999989
40
0.624999999999992
40
0.624999999999992
40
0.749999999999995
40
0.749999999999995
40
1
40
1
40
1
40
1
41
1
10
-0.394913799809103
20
5.38724490303883
30
0
41
1
10
-0.391781832950699
20
5.38458208568073
30
0
41
1
10
-0.388519962703811
20
5.3821033059937
30
0
41
1
10
-0.381650196472521
20
5.37763658736256
30
0
41
1
10
-0.378006935713103
20
5.375632334519
30
0
41
1
10
-0.370423579197194
20
5.37240298219777
30
0
41
1
10
-0.366503702076471
20
5.37117873901857
30
0
41
1
10
-0.358331183030117
20
5.36974313779842
30
0
41
1
10
-0.354015865513219
20
5.36955368909108
30
0
41
1
10
-0.345568573158801
20
5.37043109064084
30
0
41
1
10
-0.341321667103017
20
5.37150405183556
30
0
41
1
10
-0.333263890221957
20
5.37470929745368
30
0
41
1
10
-0.329419339218276
20
5.37683593115611
30
0
41
1
10
-0.318577749103383
20
5.38430052549947
30
0
41
1
10
-0.312400979321552
20
5.3905410449475
30
0
41
1
10
-0.301354650858144
20
5.40411801099182
30
0
41
1
10
-0.296591327986192
20
5.41134235290909
30
0
41
1
10
-0.287922394076219
20
5.42628126698924
30
0
41
1
10
-0.284017391060843
20
5.43403466061338
30
0
41
1
10
-0.273296210573392
20
5.45757128507671
30
0
41
1
10
-0.267463037667568
20
5.47353830586394
30
0
41
1
10
-0.25714417824588
20
5.50574351678881
30
0
41
1
10
-0.252692130238955
20
5.52198910291142
30
0
41
1
10
-0.244699800125972
20
5.55465646091182
30
0
41
1
10
-0.241167183894703
20
5.57107991706769
30
0
41
1
10
-0.231573562776504
20
5.6205357075076
30
0
41
1
10
-0.226533735280697
20
5.65356559342112
30
0
41
1
10
-0.218124597314073
20
5.71937115218196
30
0
41
1
10
-0.214765406462988
20
5.75220767186599
30
0
41
1
10
-0.209230735864509
20
5.81775962891592
30
0
41
1
10
-0.207061534202325
20
5.85047499196546
30
0
41
1
10
-0.201932717755426
20
5.94845143863401
30
0
41
1
10
-0.200330038101583
20
6.01354333629556
30
0
41
1
10
-0.199999999999989
20
6.0784324458115
30
0
0
SPLINE
5
137
100
AcDbEntity
8
SK1
62
256
6
ByLayer
370
13
48
1
60
0
100
AcDbSpline
70
4
71
3
72
20
73
16
40
0
40
0
40
0
40
0
40
0.045368540238263
40
0.113618264777191
40
0.181867989316119
40
0.250117713855047
40
0.318367438393975
40
0.386617162932903
40
0.454866887471831
40
0.591366336549687
40
0.727865785627543
40
0.796115510166471
40
0.864365234705399
40
0.932614959244327
40
1
40
1
40
1
40
1
41
1
10
-0.394913799811292
20
-5.38724256160785
30
0
41
1
10
-0.394913799811292
20
-5.7190547501427
30
0
41
1
10
-0.394913799811292
20
-6.5348354946259
30
0
41
1
10
-0.394913799811292
20
-7.7796880789966
30
0
41
1
10
-0.394913799811292
20
-9.09679923539034
30
0
41
1
10
-0.394913799811292
20
-10.3283869583107
30
0
41
1
10
-0.394913799811292
20
-11.4729576347282
30
0
41
1
10
-0.394913799811292
20
-12.5286533763275
30
0
41
1
10
-0.394913799811292
20
-13.8156305223415
30
0
41
1
10
-0.394913799811292
20
-15.1889742433629
30
0
41
1
10
-0.394913799811292
20
-16.224825355641
30
0
41
1
10
-0.394913799811292
20
-16.8259463034278
30
0
41
1
10
-0.394913799811292
20
-17.1536380024563
30
0
41
1
10
-0.394913799811292
20
-17.3456596443817
30
0
41
1
10
-0.394913799811292
20
-17.3741382160875
30
0
41
1
10
-0.394913799811292
20
-17.360218892685
30
0
0
SPLINE
5
138
100
AcDbEntity
8
SK1
62
256
6
ByLayer
370
18
48
1
60
0
100
AcDbSpline
70
4
71
3
72
50
73
46
40
0
40
0
40
0
40
0
40
0.0312500000000015
40
0.0312500000000015
40
0.0468750000000022
40
0.0468750000000022
40
0.0625000000000029
40
0.0625000000000029
40
0.0781250000000036
40
0.0781250000000036
40
0.0937500000000043
40
0.0937500000000043
40
0.109375000000005
40
0.109375000000005
40
0.125000000000006
40
0.125000000000006
40
0.140625000000006
40
0.140625000000006
40
0.156250000000007
40
0.156250000000007
40
0.187500000000007
40
0.187500000000007
40
0.218750000000006
40
0.218750000000006
40
0.250000000000006
40
0.250000000000006
40
0.281250000000005
40
0.281250000000005
40
0.312500000000005
40
0.312500000000005
40
0.375000000000004
40
0.375000000000004
40
0.437500000000003
40
0.437500000000003
40
0.500000000000001
40
0.500000000000001
40
0.625
40
0.625
40
0.6875
40
0.6875
40
0.75
40
0.75
40
0.875
40
0.875
40
1
40
1
40
1
40
1
41
1
10
-0.394913799811292
20
-5.38724256160785
30
0
41
1
10
-0.411056331481689
20
-5.40096705709072
30
0
41
1
10
-0.428167571421085
20
-5.41359596702645
30
0
41
1
10
-0.455974774655147
20
-5.43013648208
30
0
41
1
10
-0.465658214706991
20
-5.43526409556435
30
0
41
1
10
-0.485484698823484
20
-5.44430592701531
30
0
41
1
10
-0.495657428995088
20
-5.44824432393753
30
0
41
1
10
-0.516608715435041
20
-5.45476351226009
30
0
41
1
10
-0.527386860231815
20
-5.45734523281897
30
0
41
1
10
-0.549664818445279
20
-5.46089328829356
30
0
41
1
10
-0.560930035443761
20
-5.46180969649637
30
0
41
1
10
-0.58336584661788
20
-5.4618713105761
30
0
41
1
10
-0.594591467840019
20
-5.46102572365922
30
0
41
1
10
-0.617058166617738
20
-5.45757599588921
30
0
41
1
10
-0.627999143283205
20
-5.45501931647436
30
0
41
1
10
-0.649331735085582
20
-5.44848807488125
30
0
41
1
10
-0.659758151599817
20
-5.44449947952501
30
0
41
1
10
-0.680036525045011
20
-5.43533205618732
30
0
41
1
10
-0.689742098894556
20
-5.43022628481572
30
0
41
1
10
-0.717826906306101
20
-5.41366379171245
30
0
41
1
10
-0.735187935399324
20
-5.40097830060952
30
0
41
1
10
-0.768034946557918
20
-5.3733304614868
30
0
41
1
10
-0.783237057424145
20
-5.35859529837754
30
0
41
1
10
-0.811836627358673
20
-5.32802442998909
30
0
41
1
10
-0.825257514875972
20
-5.31215335693128
30
0
41
1
10
-0.85080730255018
20
-5.27953884086708
30
0
41
1
10
-0.862932209486871
20
-5.26279281423712
30
0
41
1
10
-0.8861698860768
20
-5.22860723544375
30
0
41
1
10
-0.897260448987026
20
-5.21119248410571
30
0
41
1
10
-0.929029640850729
20
-5.15857889561175
30
0
41
1
10
-0.948347177186207
20
-5.12284414993096
30
0
41
1
10
-0.984487535026432
20
-5.05043807526351
30
0
41
1
10
-1.00129416978024
20
-5.013761649543
30
0
41
1
10
-1.03304457478234
20
-4.93966608077309
30
0
41
1
10
-1.04798244371665
20
-4.90224508459647
30
0
41
1
10
-1.09059413059555
20
-4.78904752584498
30
0
41
1
10
-1.11609621830422
20
-4.71234577760799
30
0
41
1
10
-1.15135515985602
20
-4.5958383808707
30
0
41
1
10
-1.16260343866753
20
-4.55673847320071
30
0
41
1
10
-1.18417456263643
20
-4.47826299864514
30
0
41
1
10
-1.19450305218302
20
-4.4388689467043
30
0
41
1
10
-1.22429462395718
20
-4.32024366329264
30
0
41
1
10
-1.24257202444835
20
-4.24057073726357
30
0
41
1
10
-1.27661859809459
20
-4.08013408760161
30
0
41
1
10
-1.29238372607517
20
-3.99936988902869
30
0
41
1
10
-1.30710678118655
20
-3.91808269248796
30
0
0
SPLINE
5
139
100
AcDbEntity
8
SK1
62
256
6
ByLayer
370
18
48
1
60
0
100
AcDbSpline
70
4
71
3
72
38
73
34
40
0
40
0
40
0
40
0
40
0.0624999999999996
40
0.0624999999999996
40
0.124999999999999
40
0.124999999999999
40
0.249999999999999
40
0.249999999999999
40
0.374999999999998
40
0.374999999999998
40
0.390624999999998
40
0.390624999999998
40
0.406249999999998
40
0.406249999999998
40
0.437499999999998
40
0.437499999999998
40
0.499999999999998
40
0.499999999999998
40
0.562499999999998
40
0.562499999999998
40
0.624999999999999
40
0.624999999999999
40
0.749999999999999
40
0.749999999999999
40
0.781249999999999
40
0.781249999999999
40
0.812499999999999
40
0.812499999999999
40
0.874999999999999
40
0.874999999999999
40
0.9375
40
0.9375
40
1
40
1
40
1
40
1
41
1
10
-1.30710678118655
20
-3.91808269248796
30
0
41
1
10
-1.33526487251859
20
-3.76261955749285
30
0
41
1
10
-1.36267126502631
20
-3.6063109858577
30
0
41
1
10
-1.41562242099803
20
-3.29187611045597
30
0
41
1
10
-1.44117770353176
20
-3.13375373985022
30
0
41
1
10
-1.51435013598103
20
-2.65639932915295
30
0
41
1
10
-1.55846884179033
20
-2.33418302861881
30
0
41
1
10
-1.63296978491243
20
-1.68004719877027
30
0
41
1
10
-1.66337509736468
20
-1.34813830750838
30
0
41
1
10
-1.68707319146449
20
-0.968091690681803
30
0
41
1
10
-1.68955923537888
20
-0.925771372654197
30
0
41
1
10
-1.69422507481971
20
-0.840939584978429
30
0
41
1
10
-1.6964065979426
20
-0.798386309984579
30
0
41
1
10
-1.70245250680873
20
-0.670897601193616
30
0
41
1
10
-1.70582437938029
20
-0.586052568901891
30
0
41
1
10
-1.71388361409092
20
-0.331968562037986
30
0
41
1
10
-1.71646782396985
20
-0.163187101305908
30
0
41
1
10
-1.71636335941631
20
0.173213348331899
30
0
41
1
10
-1.71367008139578
20
0.34083166255536
30
0
41
1
10
-1.70293626023371
20
0.674902568806147
30
0
41
1
10
-1.69494665814693
20
0.841362289300548
30
0
41
1
10
-1.66399327242203
20
1.33914312869118
30
0
41
1
10
-1.63408221528164
20
1.66887252592326
30
0
41
1
10
-1.5876007265538
20
2.07872253566578
30
0
41
1
10
-1.57784909269048
20
2.16057674059007
30
0
41
1
10
-1.5574977199426
20
2.32406172494171
30
0
41
1
10
-1.54688933197929
20
2.40575612114199
30
0
41
1
10
-1.51394731043965
20
2.65007047288915
30
0
41
1
10
-1.49055743488208
20
2.81150726182861
30
0
41
1
10
-1.44149329508792
20
3.13180385741538
30
0
41
1
10
-1.41582315096537
20
3.29066553946589
30
0
41
1
10
-1.36271475580057
20
3.60607338167011
30
0
41
1
10
-1.33526589565594
20
3.76261441071909
30
0
41
1
10
-1.30710678118655
20
3.91808311129771
30
0
0
SPLINE
5
13A
100
AcDbEntity
8
SK1
62
256
6
ByLayer
370
18
48
1
60
0
100
AcDbSpline
70
4
71
3
72
53
73
49
40
0
40
0
40
0
40
0
40
0.125000000000001
40
0.125000000000001
40
0.250000000000003
40
0.250000000000003
40
0.312500000000002
40
0.312500000000002
40
0.375000000000001
40
0.375000000000001
40
0.499999999999999
40
0.499999999999999
40
0.562499999999999
40
0.562499999999999
40
0.624999999999998
40
0.624999999999998
40
0.687499999999997
40
0.687499999999997
40
0.718749999999997
40
0.718749999999997
40
0.749999999999997
40
0.749999999999997
40
0.781249999999997
40
0.781249999999997
40
0.812499999999997
40
0.812499999999997
40
0.843749999999997
40
0.843749999999997
40
0.859374999999997
40
0.859374999999997
40
0.874999999999998
40
0.874999999999998
40
0.890624999999998
40
0.890624999999998
40
0.898437499999998
40
0.898437499999998
40
0.906249999999998
40
0.906249999999998
40
0.921874999999998
40
0.929687499999998
40
0.929687499999998
40
0.937499999999998
40
0.937499999999998
40
0.968749999999999
40
0.968749999999999
40
0.984374999999999
40
0.984374999999999
40
1
40
1
40
1
40
1
41
1
10
-1.30710678118655
20
3.91808311129773
30
0
41
1
10
-1.29239108240532
20
3.99932964943406
30
0
41
1
10
-1.27663490881506
20
4.08005058420358
30
0
41
1
10
-1.24261095077244
20
4.24039497937329
30
0
41
1
10
-1.22434718173434
20
4.32001891689725
30
0
41
1
10
-1.19458151328425
20
4.43856580615747
30
0
41
1
10
-1.18426257821704
20
4.47793290560355
30
0
41
1
10
-1.16271294340757
20
4.55635268985432
30
0
41
1
10
-1.1514750174868
20
4.5954305661744
30
0
41
1
10
-1.11622081339451
20
4.71196262616607
30
0
41
1
10
-1.09072783956066
20
4.78866062339225
30
0
41
1
10
-1.04815216411876
20
4.90181336669082
30
0
41
1
10
-1.03323011355693
20
4.93921284702577
30
0
41
1
10
-1.00152410230021
20
5.01324987497111
30
0
41
1
10
-0.984745886096874
20
5.04988928444075
30
0
41
1
10
-0.948685190430894
20
5.12220258194967
30
0
41
1
10
-0.929418355061557
20
5.15788155457773
30
0
41
1
10
-0.897760317588421
20
5.21039425330486
30
0
41
1
10
-0.886742970836565
20
5.22772922691752
30
0
41
1
10
-0.863513824307972
20
5.26197522516884
30
0
41
1
10
-0.851357742368606
20
5.27880041053592
30
0
41
1
10
-0.825828436847473
20
5.31146357138681
30
0
41
1
10
-0.812437519911811
20
5.32733553299153
30
0
41
1
10
-0.783971777383869
20
5.35785904442616
30
0
41
1
10
-0.768905931142399
20
5.37251692611162
30
0
41
1
10
-0.736341322354491
20
5.40008757388526
30
0
41
1
10
-0.718704728837935
20
5.41307616107983
30
0
41
1
10
-0.690494000998513
20
5.42981903443433
30
0
41
1
10
-0.680770506186064
20
5.43496537787155
30
0
41
1
10
-0.660532703009267
20
5.4441860527954
30
0
41
1
10
-0.650045797817
20
5.44823342219186
30
0
41
1
10
-0.628779113836032
20
5.45481846069106
30
0
41
1
10
-0.617932285477195
20
5.4573891634796
30
0
41
1
10
-0.601299914959753
20
5.46002170773141
30
0
41
1
10
-0.595695338837032
20
5.46069496960084
30
0
41
1
10
-0.584356912700144
20
5.46160478770395
30
0
41
1
10
-0.578637021974231
20
5.46183701163628
30
0
41
1
10
-0.561675487241928
20
5.46185622962994
30
0
41
1
10
-0.544917445528739
20
5.46054034675203
30
0
41
1
10
-0.528445210270377
20
5.45734844847985
30
0
41
1
10
-0.517525389033324
20
5.45481548249097
30
0
41
1
10
-0.512078734988165
20
5.4533397528954
30
0
41
1
10
-0.48545098532486
20
5.44513209892818
30
0
41
1
10
-0.465729936503919
20
5.43590631685376
30
0
41
1
10
-0.437770416117502
20
5.4193273215547
30
0
41
1
10
-0.428743917867394
20
5.41334179407008
30
0
41
1
10
-0.411386251483435
20
5.40075705360888
30
0
41
1
10
-0.403020392727001
20
5.39413717786437
30
0
41
1
10
-0.394913799811292
20
5.38724490303858
30
0
0
SPLINE
5
13B
100
AcDbEntity
8
SK1
62
256
6
ByLayer
370
13
48
1
60
0
100
AcDbSpline
70
4
71
3
72
20
73
16
40
0
40
0
40
0
40
0
40
0.0673842631643071
40
0.135634051818337
40
0.203883840472367
40
0.272133629126397
40
0.408633206434456
40
0.545132783742516
40
0.613382572396546
40
0.681632361050576
40
0.749882149704605
40
0.818131938358635
40
0.886381727012665
40
0.954631515666695
40
1
40
1
40
1
40
1
41
1
10
-0.394913799811292
20
17.3602193112489
30
0
41
1
10
-0.394913799811292
20
17.3741378069413
30
0
41
1
10
-0.394913799811292
20
17.34565824923
30
0
41
1
10
-0.394913799811292
20
17.1536376810083
30
0
41
1
10
-0.394913799811292
20
16.8259464323311
30
0
41
1
10
-0.394913799811292
20
16.2248245878661
30
0
41
1
10
-0.394913799811292
20
15.1889746622834
30
0
41
1
10
-0.394913799811292
20
13.8156301488903
30
0
41
1
10
-0.394913799811292
20
12.5286535254346
30
0
41
1
10
-0.394913799811292
20
11.4729578043957
30
0
41
1
10
-0.394913799811292
20
10.3283867090429
30
0
41
1
10
-0.394913799811292
20
9.09679950047928
30
0
41
1
10
-0.394913799811292
20
7.77968825069564
30
0
41
1
10
-0.394913799811292
20
6.53483606378791
30
0
41
1
10
-0.394913799811292
20
5.71905630139054
30
0
41
1
10
-0.394913799811292
20
5.38724490303878
30
0
0
SPLINE
5
13C
100
AcDbEntity
8
SK1
62
256
6
ByLayer
370
13
48
1
60
0
100
AcDbSpline
70
4
71
3
72
45
73
41
40
0
40
0
40
0
40
0
40
0.0139247377681208
40
0.0425174014904018
40
0.0711100652126827
40
0.0997027289349637
40
0.156888056379526
40
0.214073383824088
40
0.242666047546369
40
0.271258711268649
40
0.299851374990931
40
0.328444038713211
40
0.357036702435492
40
0.385629366157773
40
0.414222029880054
40
0.428518361741195
40
0.442814693602335
40
0.471407357324616
40
0.485703689185757
40
0.492851855116327
40
0.500000021046897
40
0.507148186977467
40
0.514296352908038
40
0.528592684769178
40
0.557185348491459
40
0.5714816803526
40
0.58577801221374
40
0.614370675936021
40
0.642963339658302
40
0.671556003380583
40
0.700148667102864
40
0.728741330825145
40
0.757333994547426
40
0.785926658269707
40
0.843111985714269
40
0.900297313158831
40
0.928889976881112
40
0.957482640603393
40
0.986075304325673
40
1
40
1
40
1
40
1
41
1
10
-1.99503997793928
20
17.3200454242506
30
0
41
1
10
-1.99503997793928
20
17.3133442654139
30
0
41
1
10
-1.99503997793928
20
17.2734193808656
30
0
41
1
10
-1.99503997793928
20
17.1138751154123
30
0
41
1
10
-1.99503997793928
20
16.7867763596001
30
0
41
1
10
-1.99503997793928
20
16.1866009265939
30
0
41
1
10
-1.99503997793928
20
15.1524691326423
30
0
41
1
10
-1.99503997793928
20
13.7813331880937
30
0
41
1
10
-1.99503997793928
20
12.4962106263157
30
0
41
1
10
-1.99503997793928
20
11.4421779521075
30
0
41
1
10
-1.99503997793928
20
10.2994799380558
30
0
41
1
10
-1.99503997793928
20
9.07001746022104
30
0
41
1
10
-1.99503997793928
20
7.75535376586828
30
0
41
1
10
-1.99503997793928
20
6.35676341745574
30
0
41
1
10
-1.99503997793928
20
5.12318926412425
30
0
41
1
10
-1.99503997793928
20
4.09531236648536
30
0
41
1
10
-1.99503997793928
20
3.04236295320669
30
0
41
1
10
-1.99503997793928
20
1.95640625727882
30
0
41
1
10
-1.99503997793928
20
0.981337226851394
30
0
41
1
10
-1.99503997793928
20
0.420771319084707
30
0
41
1
10
-1.99503997793928
20
6.88173714E-08
30
0
41
1
10
-1.99503997793928
20
-0.420771221994357
30
0
41
1
10
-1.99503997793928
20
-0.981337209960486
30
0
41
1
10
-1.99503997793928
20
-1.95640624898675
30
0
41
1
10
-1.99503997793928
20
-3.04236280324244
30
0
41
1
10
-1.99503997793928
20
-4.0953123914187
30
0
41
1
10
-1.99503997793928
20
-5.12318891405303
30
0
41
1
10
-1.99503997793928
20
-6.35676356337376
30
0
41
1
10
-1.99503997793928
20
-7.7553535878281
30
0
41
1
10
-1.99503997793928
20
-9.07001720037854
30
0
41
1
10
-1.99503997793928
20
-10.2994801886281
30
0
41
1
10
-1.99503997793928
20
-11.4421777785236
30
0
41
1
10
-1.99503997793928
20
-12.4962104807245
30
0
41
1
10
-1.99503997793928
20
-13.7813335607202
30
0
41
1
10
-1.99503997793928
20
-15.152468715744
30
0
41
1
10
-1.99503997793928
20
-16.1866016937524
30
0
41
1
10
-1.99503997793928
20
-16.786776230537
30
0
41
1
10
-1.99503997793928
20
-17.1138754381145
30
0
41
1
10
-1.99503997793928
20
-17.273419841786
30
0
41
1
10
-1.99503997793928
20
-17.3133444711822
30
0
41
1
10
-1.99503997793928
20
-17.3200455755459
30
0
0
SPLINE
5
13D
100
AcDbEntity
8
SK1
62
256
6
ByLayer
370
18
48
1
60
0
100
AcDbSpline
70
4
71
3
72
45
73
41
40
0
40
0
40
0
40
0
40
0.0138970646084189
40
0.0424913609173938
40
0.0710856572263687
40
0.0996799535353435
40
0.156868546153293
40
0.214057138771243
40
0.242651435080218
40
0.271245731389193
40
0.299840027698168
40
0.328434324007143
40
0.357028620316117
40
0.385622916625092
40
0.414217212934067
40
0.428514361088555
40
0.442811509243042
40
0.471405805552017
40
0.485702953706504
40
0.492851527783748
40
0.500000101860992
40
0.507148675938235
40
0.514297250015479
40
0.528594398169967
40
0.557188694478941
40
0.571485842633429
40
0.585782990787916
40
0.614377287096891
40
0.642971583405866
40
0.671565879714841
40
0.700160176023816
40
0.728754472332791
40
0.757348768641766
40
0.78594306495074
40
0.84313165756869
40
0.90032025018664
40
0.928914546495615
40
0.95750884280459
40
0.986103139113565
40
1
40
1
40
1
40
1
41
1
10
-2.19999999999999
20
17.514794542628
30
0
41
1
10
-2.19999999999999
20
17.5080193392415
30
0
41
1
10
-2.2
20
17.4676802391823
30
0
41
1
10
-2.2
20
17.3066644250431
30
0
41
1
10
-2.2
20
16.9766929599708
30
0
41
1
10
-2.2
20
16.3719288388599
30
0
41
1
10
-2.2
20
15.3294666616432
30
0
41
1
10
-2.2
20
13.9476224427057
30
0
41
1
10
-2.2
20
12.6535104390874
30
0
41
1
10
-2.2
20
11.5914144609754
30
0
41
1
10
-2.2
20
10.4396347881955
30
0
41
1
10
-2.2
20
9.19987052615136
30
0
41
1
10
-2.2
20
7.87333982787851
30
0
41
1
10
-2.2
20
6.4607857552443
30
0
41
1
10
-2.2
20
5.21252898167785
30
0
41
1
10
-2.2
20
4.17223684682958
30
0
41
1
10
-2.2
20
3.10486150423552
30
0
41
1
10
-2.2
20
1.99745537289451
30
0
41
1
10
-2.2
20
1.00299597482069
30
0
41
1
10
-2.2
20
0.430523794544825
30
0
41
1
10
-2.2
20
2.03164063E-08
30
0
41
1
10
-2.2
20
-0.430523737893537
30
0
41
1
10
-2.2
20
-1.00299590932914
30
0
41
1
10
-2.2
20
-1.99745538275133
30
0
41
1
10
-2.2
20
-3.10486136355075
30
0
41
1
10
-2.2
20
-4.17223690222141
30
0
41
1
10
-2.2
20
-5.21252864051553
30
0
41
1
10
-2.2
20
-6.46078587277509
30
0
41
1
10
-2.2
20
-7.87333968058334
30
0
41
1
10
-2.2
20
-9.19987024087132
30
0
41
1
10
-2.2
20
-10.4396350324424
30
0
41
1
10
-2.2
20
-11.5914143063801
30
0
41
1
10
-2.2
20
-12.6535102764493
30
0
41
1
10
-2.2
20
-13.9476228193307
30
0
41
1
10
-2.2
20
-15.3294662349403
30
0
41
1
10
-2.2
20
-16.3719296090069
30
0
41
1
10
-2.2
20
-16.9766928316826
30
0
41
1
10
-2.2
20
-17.3066647416643
30
0
41
1
10
-2.19999999999999
20
-17.4676803360855
30
0
41
1
10
-2.19999999999999
20
-17.5080192383242
30
0
41
1
10
-2.2
20
-17.5147944571041
30
0
0
SPLINE
5
13E
100
AcDbEntity
8
SK1
62
256
6
ByLayer
370
18
48
1
60
0
100
AcDbSpline
70
4
71
3
72
45
73
41
40
0
40
0
40
0
40
0
40
0.0275256169160239
40
0.0553182302480269
40
0.0831108435800299
40
0.110903456912033
40
0.166488683576039
40
0.222073910240045
40
0.249866523572048
40
0.277659136904051
40
0.305451750236054
40
0.333244363568057
40
0.36103697690006
40
0.388829590232063
40
0.416622203564066
40
0.430518510230067
40
0.444414816896069
40
0.472207430228072
40
0.486103736894073
40
0.493051890227074
40
0.500000043560075
40
0.506948196893076
40
0.513896350226076
40
0.527792656892078
40
0.555585270224081
40
0.569481576890083
40
0.583377883556084
40
0.611170496888087
40
0.63896311022009
40
0.666755723552093
40
0.694548336884096
40
0.722340950216099
40
0.750133563548102
40
0.777926176880105
40
0.833511403544111
40
0.889096630208117
40
0.91688924354012
40
0.944681856872123
40
0.972474470204126
40
1
40
1
40
1
40
1
41
1
10
-28.5
20
16.8545102425485
30
0
41
1
10
-28.5
20
16.8681141419263
30
0
41
1
10
-28.5
20
16.8405420056732
30
0
41
1
10
-28.5
20
16.6531187925377
30
0
41
1
10
-28.5
20
16.3328856609547
30
0
41
1
10
-28.5
20
15.7436769514769
30
0
41
1
10
-28.5
20
14.7294543359372
30
0
41
1
10
-28.5
20
13.3839106046769
30
0
41
1
10
-28.5
20
12.1202723366856
30
0
41
1
10
-28.5
20
11.0855105352455
30
0
41
1
10
-28.5
20
9.96451720849825
30
0
41
1
10
-28.5
20
8.75967545377557
30
0
41
1
10
-28.5
20
7.47337327542297
30
0
41
1
10
-28.5
20
6.10815549439155
30
0
41
1
10
-28.5
20
4.9096720321497
30
0
41
1
10
-28.5
20
3.9114668992739
30
0
41
1
10
-28.5
20
2.89299469927084
30
0
41
1
10
-28.5
20
1.85830102725041
30
0
41
1
10
-28.5
20
0.929573956929886
30
0
41
1
10
-28.5
20
0.39746341502854
30
0
41
1
10
-28.5
20
1.847321585E-07
30
0
41
1
10
-28.5
20
-0.397463221290906
30
0
41
1
10
-28.5
20
-0.929574056191939
30
0
41
1
10
-28.5
20
-1.85830097558352
30
0
41
1
10
-28.5
20
-2.89299452712916
30
0
41
1
10
-28.5
20
-3.91146685141305
30
0
41
1
10
-28.5
20
-4.90967166078667
30
0
41
1
10
-28.5
20
-6.10815570815362
30
0
41
1
10
-28.5
20
-7.47337302390386
30
0
41
1
10
-28.5
20
-8.75967525472745
30
0
41
1
10
-28.5
20
-9.96451747418803
30
0
41
1
10
-28.5
20
-11.0855103162798
30
0
41
1
10
-28.5
20
-12.1202722318355
30
0
41
1
10
-28.5
20
-13.3839109677473
30
0
41
1
10
-28.5
20
-14.7294539424715
30
0
41
1
10
-28.5
20
-15.7436777114932
30
0
41
1
10
-28.5
20
-16.3328855300396
30
0
41
1
10
-28.5
20
-16.653119129773
30
0
41
1
10
-28.5
20
-16.8405423998502
30
0
41
1
10
-28.5
20
-16.8681141141309
30
0
41
1
10
-28.5
20
-16.854510478746
30
0
0
SPLINE
5
13F
100
AcDbEntity
8
1
62
256
6
ByLayer
370
18
48
1
60
0
100
AcDbSpline
70
4
71
3
72
18
73
14
40
0
40
0
40
0
40
0
40
0.1065023208775
40
0.209819720888428
40
0.309970050664577
40
0.406972922400334
40
0.500849920825835
40
0.59162485869622
40
0.679324076625881
40
0.763976789997907
40
0.845615488386029
40
0.924276395492408
40
1
40
1
40
1
40
1
41
1
10
57.59011863841
20
31.483085351823
30
0
41
1
10
57.5885415273357
20
31.4837643036506
30
0
41
1
10
57.5854344682343
20
31.4851019034492
30
0
41
1
10
57.5809243323184
20
31.4874049623887
30
0
41
1
10
57.5766153234623
20
31.4898663474787
30
0
41
1
10
57.572512622517
20
31.4924901579403
30
0
41
1
10
57.5686149102103
20
31.4952524658373
30
0
41
1
10
57.5649224452295
20
31.4981370391756
30
0
41
1
10
57.5614353720448
20
31.5011268528404
30
0
41
1
10
57.5581528367139
20
31.5042043544701
30
0
41
1
10
57.5550778698625
20
31.5073584152507
30
0
41
1
10
57.5521996835921
20
31.5105579925821
30
0
41
1
10
57.5504035869187
20
31.5127918768383
30
0
41
1
10
57.54952262475
20
31.5138875681494
30
0
0
SPLINE
5
140
100
AcDbEntity
8
1
62
256
6
ByLayer
370
18
48
1
60
0
100
AcDbSpline
70
4
71
3
72
16
73
12
40
0
40
0
40
0
40
0
40
0.117319552192534
40
0.233085853411071
40
0.347299362420258
40
0.459960556948126
40
0.57106993474474
40
0.680628014712986
40
0.788635338118834
40
0.895092469888327
40
1
40
1
40
1
40
1
41
1
10
57.74894541545
20
31.427732523702
30
0
41
1
10
57.7426777667126
20
31.4295553268701
30
0
41
1
10
57.730225449707
20
31.433176800223
30
0
41
1
10
57.7117192560249
20
31.4388914087642
30
0
41
1
10
57.6934972967187
20
31.4447568898136
30
0
41
1
10
57.6755628433777
20
31.4507866733875
30
0
41
1
10
57.6579151153778
20
31.4569662690683
30
0
41
1
10
57.6405540288848
20
31.4632869201774
30
0
41
1
10
57.623480658135
20
31.4697449449493
30
0
41
1
10
57.6066908752588
20
31.4763120560556
30
0
41
1
10
57.5956156516797
20
31.4808386486787
30
0
41
1
10
57.59011863841
20
31.48308535183
30
0
0
SPLINE
5
141
100
AcDbEntity
8
1
62
256
6
ByLayer
370
18
48
1
60
0
100
AcDbSpline
70
4
71
2
72
10
73
7
40
0
40
0
40
0
40
0.5
40
0.5
40
0.75
40
0.75
40
1
40
1
40
1
41
1
10
57.7489454154435
20
31.427732523738
30
0
41
1
10
57.8165392416659
20
31.4082378364849
30
0
41
1
10
57.864235482769
20
31.3565142889902
30
0
41
1
10
57.8902224727208
20
31.328333047074
30
0
41
1
10
57.9068593747304
20
31.2924776461038
30
0
41
1
10
57.9248252361523
20
31.2537581077733
30
0
41
1
10
57.928946197083
20
31.210735586972
30
0
0
SPLINE
5
142
100
AcDbEntity
8
1
62
256
6
ByLayer
370
18
48
1
60
0
100
AcDbSpline
70
4
71
2
72
6
73
3
40
0
40
0
40
0
40
1
40
1
40
1
41
1
10
57.9289461971205
20
31.210735587058
30
0
41
1
10
57.9378374892931
20
31.1155165540399
30
0
41
1
10
57.9378609595315
20
31.0200000006976
30
0
0
SPLINE
5
143
100
AcDbEntity
8
1
62
256
6
ByLayer
370
18
48
1
60
0
100
AcDbSpline
70
4
71
3
72
17
73
13
40
0
40
0
40
0
40
0
40
0.100317411817084
40
0.200541310293508
40
0.300680278273646
40
0.400742920447668
40
0.500737861201934
40
0.600673742442874
40
0.700559221399285
40
0.800402968404953
40
0.900213664663637
40
1
40
1
40
1
40
1
41
1
10
57.92894619712
20
30.789264412942
30
0
41
1
10
57.9295231228817
20
30.7956087701754
30
0
41
1
10
57.9306764366097
20
30.8082915705938
30
0
41
1
10
57.9321818251213
20
30.8273460527878
30
0
41
1
10
57.9335216262512
20
30.8464085209796
30
0
41
1
10
57.9346798037513
20
30.8654803042831
30
0
41
1
10
57.9356607269913
20
30.8845589293337
30
0
41
1
10
57.9364629358429
20
30.9036429412488
30
0
41
1
10
57.9370879043616
20
30.9227306135196
30
0
41
1
10
57.937531197509
20
30.9418202936691
30
0
41
1
10
57.9378090731845
20
30.9609103103435
30
0
41
1
10
57.9378436654888
20
30.9736372874275
30
0
41
1
10
57.93786095953
20
30.9799999993024
30
0
0
SPLINE
5
144
100
AcDbEntity
8
1
62
256
6
ByLayer
370
18
48
1
60
0
100
AcDbSpline
70
4
71
3
72
38
73
34
40
0
40
0
40
0
40
0
40
0.0320161803202275
40
0.0634137556517514
40
0.0941938978135369
40
0.124357850632158
40
0.153906935795944
40
0.182842559298681
40
0.211166218540776
40
0.238879510169596
40
0.265984138747586
40
0.292481926351467
40
0.318374823219169
40
0.343664919578622
40
0.368354458810696
40
0.392445852120308
40
0.415941694916254
40
0.438844785127726
40
0.461158143719538
40
0.482885037706457
40
0.504029006008638
40
0.551366811163474
40
0.597409666800756
40
0.642207857911427
40
0.685815975457801
40
0.728293199080108
40
0.769703557232122
40
0.810116149643936
40
0.849605314211504
40
0.888250718111317
40
0.926137351649984
40
0.963355403684978
40
1
40
1
40
1
40
1
41
1
10
57.74894541544
20
30.572267476262
30
0
41
1
10
57.7515736233648
20
30.5730485607148
30
0
41
1
10
57.756779257937
20
30.5745956377906
30
0
41
1
10
57.7644507904023
20
30.577231715862
30
0
41
1
10
57.7719249095622
20
30.5800558999428
30
0
41
1
10
57.7791975153458
20
30.5830789101451
30
0
41
1
10
57.7862696764354
20
30.5862816340918
30
0
41
1
10
57.7931411178642
20
30.5896529401733
30
0
41
1
10
57.7998119140361
20
30.5931798787035
30
0
41
1
10
57.8062820488634
20
30.5968502562549
30
0
41
1
10
57.8125515300023
20
30.600651992735
30
0
41
1
10
57.8186203592458
20
30.6045733110595
30
0
41
1
10
57.8244885401635
20
30.6086027081727
30
0
41
1
10
57.8301560763678
20
30.6127289801844
30
0
41
1
10
57.8356229711881
20
30.6169412313228
30
0
41
1
10
57.840889230658
20
30.6212288838923
30
0
41
1
10
57.8459548524165
20
30.6255816889976
30
0
41
1
10
57.8508198658027
20
30.6299897234822
30
0
41
1
10
57.8554841879108
20
30.6344434298673
30
0
41
1
10
57.8599481402181
20
30.6389334948112
30
0
41
1
10
57.8660095567999
20
30.645358030493
30
0
41
1
10
57.8734588192032
20
30.6539468168096
30
0
41
1
10
57.8820027422796
20
30.6650200836322
30
0
41
1
10
57.8898489226435
20
30.6764694413074
30
0
41
1
10
57.8969976055378
20
30.6882493808283
30
0
41
1
10
57.9034486190907
20
30.7003153813828
30
0
41
1
10
57.9092017357357
20
30.7126233474438
30
0
41
1
10
57.9142571546107
20
30.7251298346291
30
0
41
1
10
57.9186132961071
20
30.7377925471705
30
0
41
1
10
57.9222748801839
20
30.7505689765116
30
0
41
1
10
57.9252236999947
20
30.7634219116357
30
0
41
1
10
57.9275246334318
20
30.7762999416636
30
0
41
1
10
57.928474801506
20
30.7849653481022
30
0
41
1
10
57.92894619708
20
30.789264413028
30
0
0
SPLINE
5
145
100
AcDbEntity
8
1
62
256
6
ByLayer
370
18
48
1
60
0
100
AcDbSpline
70
4
71
2
72
6
73
3
40
0
40
0
40
0
40
1
40
1
40
1
41
1
10
57.748945415452
20
30.572267476298
30
0
41
1
10
57.6679467190157
20
30.5490152433281
30
0
41
1
10
57.5901186384125
20
30.51691464817
30
0
0
SPLINE
5
146
100
AcDbEntity
8
1
62
256
6
ByLayer
370
18
48
1
60
0
100
AcDbSpline
70
4
71
2
72
6
73
3
40
0
40
0
40
0
40
1
40
1
40
1
41
1
10
57.5901186384115
20
30.516914648177
30
0
41
1
10
57.565819759419
20
30.5067453291368
30
0
41
1
10
57.5495226247505
20
30.486112431851
30
0
0
LINE
5
7D
100
AcDbEntity
8
1
62
256
6
ByLayer
370
18
48
1
60
0
100
AcDbLine
10
20.279208
20
25
30
0
11
0.3
21
25
31
0
39
0
210
0
220
0
230
1
0
LINE
5
7E
100
AcDbEntity
8
1
62
256
6
ByLayer
370
18
48
1
60
0
100
AcDbLine
10
0.3
20
-25
30
0
11
20
21
-25
31
0
39
0
210
0
220
0
230
1
0
LINE
5
7F
100
AcDbEntity
8
1
62
256
6
ByLayer
370
18
48
1
60
0
100
AcDbLine
10
0
20
-24.7
30
0
11
0.3
21
-25
31
0
39
0
210
0
220
0
230
1
0
LINE
5
80
100
AcDbEntity
8
1
62
256
6
ByLayer
370
18
48
1
60
0
100
AcDbLine
10
0.3
20
25
30
0
11
0
21
24.7
31
0
39
0
210
0
220
0
230
1
0
LINE
5
81
100
AcDbEntity
8
81
62
256
6
ByLayer
370
18
48
1
60
0
100
AcDbLine
10
65
20
33
30
0
11
70
21
33
31
0
39
0
210
0
220
0
230
1
0
LINE
5
82
100
AcDbEntity
8
80
62
256
6
ByLayer
370
18
48
1
60
0
100
AcDbLine
10
0
20
0
30
0
11
-5
21
0
31
0
39
0
210
0
220
0
230
1
0
LINE
5
83
100
AcDbEntity
8
1
62
256
6
ByLayer
370
18
48
1
60
0
100
AcDbLine
10
55.335869
20
32.713439
30
0
11
55.335971
21
32.77072
31
0
39
0
210
0
220
0
230
1
0
LINE
5
84
100
AcDbEntity
8
1
62
256
6
ByLayer
370
18
48
1
60
0
100
AcDbLine
10
57.8053
20
32.599993
30
0
11
57.805601
21
32.768644
31
0
39
0
210
0
220
0
230
1
0
LINE
5
85
100
AcDbEntity
8
1
62
256
6
ByLayer
370
13
48
1
60
0
100
AcDbLine
10
21.593742
20
26.15
30
0
11
23.2
21
26.15
31
0
39
0
210
0
220
0
230
1
0
LINE
5
86
100
AcDbEntity
8
1
62
256
6
ByLayer
370
13
48
1
60
0
100
AcDbLine
10
23.2
20
26.15
30
0
11
23.2
21
25.15
31
0
39
0
210
0
220
0
230
1
0
LINE
5
87
100
AcDbEntity
8
1
62
256
6
ByLayer
370
18
48
1
60
0
100
AcDbLine
10
26.040578
20
35.40372
30
0
11
53.217422
21
35.40372
31
0
39
0
210
0
220
0
230
1
0
LINE
5
88
100
AcDbEntity
8
1
62
256
6
ByLayer
370
18
48
1
60
0
100
AcDbLine
10
27.400095
20
32.691186
30
0
11
26.893237
21
32.691186
31
0
39
0
210
0
220
0
230
1
0
LINE
5
89
100
AcDbEntity
8
1
62
256
6
ByLayer
370
18
48
1
60
0
100
AcDbLine
10
53.836935
20
32.77072
30
0
11
55.335971
21
32.77072
31
0
39
0
210
0
220
0
230
1
0
LINE
5
8A
100
AcDbEntity
8
1
62
256
6
ByLayer
370
18
48
1
60
0
100
AcDbLine
10
57.805601
20
32.768644
30
0
11
60.878604
21
32.768644
31
0
39
0
210
0
220
0
230
1
0
LINE
5
8B
100
AcDbEntity
8
1
62
256
6
ByLayer
370
18
48
1
60
0
100
AcDbLine
10
64
20
33.034256
30
0
11
64
21
32.969719
31
0
39
0
210
0
220
0
230
1
0
LINE
5
8C
100
AcDbEntity
8
1
62
256
6
ByLayer
370
13
48
1
60
0
100
AcDbLine
10
23.2
20
26.15
30
0
11
23.2
21
32.20416
31
0
39
0
210
0
220
0
230
1
0
LINE
5
8D
100
AcDbEntity
8
1
62
256
6
ByLayer
370
13
48
1
60
0
100
AcDbLine
10
23.2
20
26.15
30
0
11
26.893237
21
26.15
31
0
39
0
210
0
220
0
230
1
0
LINE
5
8E
100
AcDbEntity
8
1
62
256
6
ByLayer
370
18
48
1
60
0
100
AcDbLine
10
26.893237
20
26.15
30
0
11
26.893237
21
32.691186
31
0
39
0
210
0
220
0
230
1
0
LINE
5
8F
100
AcDbEntity
8
1
62
256
6
ByLayer
370
18
48
1
60
0
100
AcDbLine
10
27.279216
20
32.678632
30
0
11
27.279216
21
26.15
31
0
39
0
210
0
220
0
230
1
0
LINE
5
90
100
AcDbEntity
8
1
62
256
6
ByLayer
370
13
48
1
60
0
100
AcDbLine
10
27.4
20
26.15
30
0
11
27.279216
21
26.15
31
0
39
0
210
0
220
0
230
1
0
LINE
5
91
100
AcDbEntity
8
1
62
256
6
ByLayer
370
18
48
1
60
0
100
AcDbLine
10
57
20
31.274969
30
0
11
57
21
30.725031
31
0
39
0
210
0
220
0
230
1
0
LINE
5
92
100
AcDbEntity
8
1
62
256
6
ByLayer
370
18
48
1
60
0
100
AcDbLine
10
24.399843
20
25.15
30
0
11
23.400157
21
25.15
31
0
39
0
210
0
220
0
230
1
0
LINE
5
93
100
AcDbEntity
8
1
62
256
6
ByLayer
370
18
48
1
60
0
100
AcDbLine
10
24.400047
20
-13.5
30
0
11
24.065604
21
-13.5
31
0
39
0
210
0
220
0
230
1
0
LINE
5
94
100
AcDbEntity
8
1
62
256
6
ByLayer
370
18
48
1
60
0
100
AcDbLine
10
27.279216
20
32.678632
30
0
11
27.400017
21
32.678632
31
0
39
0
210
0
220
0
230
1
0
LINE
5
95
100
AcDbEntity
8
1
62
256
6
ByLayer
370
13
48
1
60
0
100
AcDbLine
10
47
20
29.982775
30
0
11
47
21
29.342854
31
0
39
0
210
0
220
0
230
1
0
LINE
5
96
100
AcDbEntity
8
1
62
256
6
ByLayer
370
18
48
1
60
0
100
AcDbLine
10
45.4
20
28.564398
30
0
11
45.4
21
27.783861
31
0
39
0
210
0
220
0
230
1
0
LINE
5
97
100
AcDbEntity
8
1
62
256
6
ByLayer
370
18
48
1
60
0
100
AcDbLine
10
24.4
20
25.15
30
0
11
26.4
21
25.15
31
0
39
0
210
0
220
0
230
1
0
LINE
5
98
100
AcDbEntity
8
1
62
256
6
ByLayer
370
18
48
1
60
0
100
AcDbLine
10
33.9
20
-13.5
30
0
11
45.4
21
15.1
31
0
39
0
210
0
220
0
230
1
0
LINE
5
99
100
AcDbEntity
8
1
62
256
6
ByLayer
370
18
48
1
60
0
100
AcDbLine
10
33.9
20
-13.5
30
0
11
24.4
21
-13.5
31
0
39
0
210
0
220
0
230
1
0
LINE
5
9A
100
AcDbEntity
8
1
62
256
6
ByLayer
370
18
48
1
60
0
100
AcDbLine
10
24.4
20
-13.5
30
0
11
24.4
21
25.15
31
0
39
0
210
0
220
0
230
1
0
LINE
5
9B
100
AcDbEntity
8
1
62
256
6
ByLayer
370
18
48
1
60
0
100
AcDbLine
10
27.4
20
33.133283
30
0
11
43.360149
21
33.133283
31
0
39
0
210
0
220
0
230
1
0
LINE
5
9C
100
AcDbEntity
8
1
62
256
6
ByLayer
370
18
48
1
60
0
100
AcDbLine
10
27.4
20
26.15
30
0
11
27.4
21
33.133283
31
0
39
0
210
0
220
0
230
1
0
LINE
5
9D
100
AcDbEntity
8
1
62
256
6
ByLayer
370
18
48
1
60
0
100
AcDbLine
10
45.4
20
15.1
30
0
11
45.4
21
27.783861
31
0
39
0
210
0
220
0
230
1
0
LINE
5
9E
100
AcDbEntity
8
1
62
256
6
ByLayer
370
18
48
1
60
0
100
AcDbLine
10
53.5
20
32.787139
30
0
11
53.5
21
29.504636
31
0
39
0
210
0
220
0
230
1
0
LINE
5
9F
100
AcDbEntity
8
1
62
256
6
ByLayer
370
18
48
1
60
0
100
AcDbLine
10
46.216445
20
33.133283
30
0
11
43.360149
21
33.133283
31
0
39
0
210
0
220
0
230
1
0
LINE
5
A0
100
AcDbEntity
8
1
62
256
6
ByLayer
370
18
48
1
60
0
100
AcDbLine
10
43.360149
20
29.325
30
0
11
43.360149
21
33.133283
31
0
39
0
210
0
220
0
230
1
0
LINE
5
A1
100
AcDbEntity
8
1
62
256
6
ByLayer
370
13
48
1
60
0
100
AcDbLine
10
43.360149
20
29.325
30
0
11
45.620592
21
29.325
31
0
39
0
210
0
220
0
230
1
0
LINE
5
A2
100
AcDbEntity
8
1
62
256
6
ByLayer
370
13
48
1
60
0
100
AcDbLine
10
21.438319
20
25.15
30
0
11
21.438319
21
22.333741
31
0
39
0
210
0
220
0
230
1
0
LINE
5
A3
100
AcDbEntity
8
1
62
256
6
ByLayer
370
18
48
1
60
0
100
AcDbLine
10
23.4
20
-13.555767
30
0
11
23.4
21
25.15
31
0
39
0
210
0
220
0
230
1
0
LINE
5
A4
100
AcDbEntity
8
1
62
256
6
ByLayer
370
18
48
1
60
0
100
AcDbLine
10
23.4
20
25.15
30
0
11
22.045216
21
25.15
31
0
39
0
210
0
220
0
230
1
0
LINE
5
A5
100
AcDbEntity
8
1
62
256
6
ByLayer
370
13
48
1
60
0
100
AcDbLine
10
11.461325
20
-7.529667
30
0
11
11.461325
21
-23.83913
31
0
39
0
210
0
220
0
230
1
0
LINE
5
A6
100
AcDbEntity
8
1
62
256
6
ByLayer
370
13
48
1
60
0
100
AcDbLine
10
11.894338
20
-8.055848
30
0
11
11.894338
21
-23.666502
31
0
39
0
210
0
220
0
230
1
0
LINE
5
A7
100
AcDbEntity
8
1
62
256
6
ByLayer
370
13
48
1
60
0
100
AcDbLine
10
8.105662
20
23.666502
30
0
11
8.105662
21
8.055848
31
0
39
0
210
0
220
0
230
1
0
LINE
5
A8
100
AcDbEntity
8
1
62
256
6
ByLayer
370
13
48
1
60
0
100
AcDbLine
10
8.538675
20
23.83913
30
0
11
8.538675
21
7.529667
31
0
39
0
210
0
220
0
230
1
0
LINE
5
A9
100
AcDbEntity
8
1
62
256
6
ByLayer
370
13
48
1
60
0
100
AcDbLine
10
8.105662
20
-8.055848
30
0
11
8.105662
21
-23.666502
31
0
39
0
210
0
220
0
230
1
0
LINE
5
AA
100
AcDbEntity
8
1
62
256
6
ByLayer
370
13
48
1
60
0
100
AcDbLine
10
8.538675
20
-7.529667
30
0
11
8.538675
21
-23.83913
31
0
39
0
210
0
220
0
230
1
0
LINE
5
AB
100
AcDbEntity
8
1
62
256
6
ByLayer
370
13
48
1
60
0
100
AcDbLine
10
11.461325
20
23.83913
30
0
11
11.461325
21
7.529667
31
0
39
0
210
0
220
0
230
1
0
LINE
5
AC
100
AcDbEntity
8
1
62
256
6
ByLayer
370
13
48
1
60
0
100
AcDbLine
10
11.894338
20
23.666502
30
0
11
11.894338
21
8.055848
31
0
39
0
210
0
220
0
230
1
0
LINE
5
AD
100
AcDbEntity
8
1
62
256
6
ByLayer
370
18
48
1
60
0
100
AcDbLine
10
11.461325
20
7.529667
30
0
11
8.538675
21
7.529667
31
0
39
0
210
0
220
0
230
1
0
LINE
5
AE
100
AcDbEntity
8
1
62
256
6
ByLayer
370
18
48
1
60
0
100
AcDbLine
10
8.538675
20
23.83913
30
0
11
11.461325
21
23.83913
31
0
39
0
210
0
220
0
230
1
0
LINE
5
AF
100
AcDbEntity
8
1
62
256
6
ByLayer
370
18
48
1
60
0
100
AcDbLine
10
8.538675
20
-7.529667
30
0
11
11.461325
21
-7.529667
31
0
39
0
210
0
220
0
230
1
0
LINE
5
B0
100
AcDbEntity
8
1
62
256
6
ByLayer
370
18
48
1
60
0
100
AcDbLine
10
11.461325
20
-23.83913
30
0
11
8.538675
21
-23.83913
31
0
39
0
210
0
220
0
230
1
0
LINE
5
B1
100
AcDbEntity
8
1
62
256
6
ByLayer
370
18
48
1
60
0
100
AcDbLine
10
20.063901
20
-17.67767
30
0
11
20
21
-25
31
0
39
0
210
0
220
0
230
1
0
LINE
5
B2
100
AcDbEntity
8
1
62
256
6
ByLayer
370
13
48
1
60
0
100
AcDbLine
10
20.279208
20
25
30
0
11
20.279208
21
20.113995
31
0
39
0
210
0
220
0
230
1
0
LINE
5
B3
100
AcDbEntity
8
1
62
256
6
ByLayer
370
18
48
1
60
0
100
AcDbLine
10
0.3
20
-25
30
0
11
0.3
21
25
31
0
39
0
210
0
220
0
230
1
0
LINE
5
B4
100
AcDbEntity
8
1
62
256
6
ByLayer
370
18
48
1
60
0
100
AcDbLine
10
0
20
-24.7
30
0
11
0
21
24.7
31
0
39
0
210
0
220
0
230
1
0
LINE
5
B5
100
AcDbEntity
8
1
62
256
6
ByLayer
370
18
48
1
60
0
100
AcDbLine
10
20.065756
20
-17.465094
30
0
11
20.063901
21
-17.67767
31
0
39
0
210
0
220
0
230
1
0
LINE
5
B6
100
AcDbEntity
8
1
62
256
6
ByLayer
370
13
48
1
60
0
100
AcDbLine
10
20.077974
20
-17.185665
30
0
11
20.077974
21
19.154967
31
0
39
0
210
0
220
0
230
1
0
LINE
5
B7
100
AcDbEntity
8
SK1
62
256
6
ByLayer
370
18
48
1
60
0
100
AcDbLine
10
-0.2
20
-6.078431
30
0
11
-0.2
21
-17.833485
31
0
39
0
210
0
220
0
230
1
0
LINE
5
B9
100
AcDbEntity
8
SK1
62
256
6
ByLayer
370
18
48
1
60
0
100
AcDbLine
10
-0.2
20
17.833485
30
0
11
-0.2
21
6.078432
31
0
39
0
210
0
220
0
230
1
0
LINE
5
BA
100
AcDbEntity
8
SK1
62
256
6
ByLayer
370
13
48
1
60
0
100
AcDbLine
10
-1.307107
20
3.918083
30
0
11
-1.307107
21
-3.918083
31
0
39
0
210
0
220
0
230
1
0
LINE
5
BB
100
AcDbEntity
8
SK1
62
256
6
ByLayer
370
18
48
1
60
0
100
AcDbLine
10
-1.99504
20
17.325269
30
0
11
-1.99504
21
17.320045
31
0
39
0
210
0
220
0
230
1
0
LINE
5
BC
100
AcDbEntity
8
SK1
62
256
6
ByLayer
370
18
48
1
60
0
100
AcDbLine
10
-1.99504
20
-17.320045
30
0
11
-1.99504
21
-17.325269
31
0
39
0
210
0
220
0
230
1
0
LINE
5
BD
100
AcDbEntity
8
1
62
256
6
ByLayer
370
18
48
1
60
0
100
AcDbLine
10
58.63
20
32.6
30
0
11
60.58649
21
32.6
31
0
39
0
210
0
220
0
230
1
0
LINE
5
BE
100
AcDbEntity
8
1
62
256
6
ByLayer
370
18
48
1
60
0
100
AcDbLine
10
58.63
20
29.4
30
0
11
60.58649
21
29.4
31
0
39
0
210
0
220
0
230
1
0
LINE
5
BF
100
AcDbEntity
8
1
62
256
6
ByLayer
370
18
48
1
60
0
100
AcDbLine
10
64.686914
20
29.000286
30
0
11
61
21
29.16126
31
0
39
0
210
0
220
0
230
1
0
LINE
5
C0
100
AcDbEntity
8
1
62
256
6
ByLayer
370
18
48
1
60
0
100
AcDbLine
10
64.686914
20
32.999714
30
0
11
61
21
32.83874
31
0
39
0
210
0
220
0
230
1
0
LINE
5
C1
100
AcDbEntity
8
1
62
256
6
ByLayer
370
18
48
1
60
0
100
AcDbLine
10
65
20
29.3
30
0
11
65
21
32.7
31
0
39
0
210
0
220
0
230
1
0
LINE
5
C2
100
AcDbEntity
8
1
62
256
6
ByLayer
370
18
48
1
60
0
100
AcDbLine
10
61
20
32.83874
30
0
11
60.58649
21
32.6
31
0
39
0
210
0
220
0
230
1
0
LINE
5
C3
100
AcDbEntity
8
1
62
256
6
ByLayer
370
18
48
1
60
0
100
AcDbLine
10
61
20
29.16126
30
0
11
60.58649
21
29.4
31
0
39
0
210
0
220
0
230
1
0
LINE
5
C4
100
AcDbEntity
8
1
62
256
6
ByLayer
370
13
48
1
60
0
100
AcDbLine
10
57
20
31.02
30
0
11
57.937861
21
31.02
31
0
39
0
210
0
220
0
230
1
0
LINE
5
C5
100
AcDbEntity
8
1
62
256
6
ByLayer
370
13
48
1
60
0
100
AcDbLine
10
57
20
30.98
30
0
11
57.937861
21
30.98
31
0
39
0
210
0
220
0
230
1
0
LINE
5
C6
100
AcDbEntity
8
1
62
256
6
ByLayer
370
13
48
1
60
0
100
AcDbLine
10
56.999918
20
31.210736
30
0
11
57.928946
21
31.210736
31
0
39
0
210
0
220
0
230
1
0
LINE
5
C7
100
AcDbEntity
8
1
62
256
6
ByLayer
370
13
48
1
60
0
100
AcDbLine
10
56.999918
20
30.789264
30
0
11
57.928946
21
30.789264
31
0
39
0
210
0
220
0
230
1
0
LINE
5
C8
100
AcDbEntity
8
1
62
256
6
ByLayer
370
13
48
1
60
0
100
AcDbLine
10
56.910754
20
30.572267
30
0
11
57.748945
21
30.572267
31
0
39
0
210
0
220
0
230
1
0
LINE
5
C9
100
AcDbEntity
8
1
62
256
6
ByLayer
370
13
48
1
60
0
100
AcDbLine
10
56.910754
20
31.427733
30
0
11
57.748945
21
31.427733
31
0
39
0
210
0
220
0
230
1
0
LINE
5
CA
100
AcDbEntity
8
1
62
256
6
ByLayer
370
13
48
1
60
0
100
AcDbLine
10
57.590119
20
30.516915
30
0
11
56.80632
21
30.516915
31
0
39
0
210
0
220
0
230
1
0
LINE
5
CB
100
AcDbEntity
8
1
62
256
6
ByLayer
370
13
48
1
60
0
100
AcDbLine
10
57.590119
20
31.483085
30
0
11
56.80632
21
31.483085
31
0
39
0
210
0
220
0
230
1
0
LINE
5
CC
100
AcDbEntity
8
1
62
256
6
ByLayer
370
13
48
1
60
0
100
AcDbLine
10
56.772685
20
31.513888
30
0
11
57.549523
21
31.513888
31
0
39
0
210
0
220
0
230
1
0
LINE
5
CD
100
AcDbEntity
8
1
62
256
6
ByLayer
370
13
48
1
60
0
100
AcDbLine
10
56.772606
20
30.486112
30
0
11
57.549523
21
30.486112
31
0
39
0
210
0
220
0
230
1
0
LINE
5
CE
100
AcDbEntity
8
1
62
256
6
ByLayer
370
13
48
1
60
0
100
AcDbLine
10
56.761215
20
31.605665
30
0
11
57.477691
21
31.605665
31
0
39
0
210
0
220
0
230
1
0
LINE
5
CF
100
AcDbEntity
8
1
62
256
6
ByLayer
370
13
48
1
60
0
100
AcDbLine
10
56.761059
20
30.394335
30
0
11
57.477691
21
30.394335
31
0
39
0
210
0
220
0
230
1
0
LINE
5
D0
100
AcDbEntity
8
1
62
256
6
ByLayer
370
13
48
1
60
0
100
AcDbLine
10
56.755478
20
30.350066
30
0
11
57.457959
21
30.350066
31
0
39
0
210
0
220
0
230
1
0
LINE
5
D1
100
AcDbEntity
8
1
62
256
6
ByLayer
370
13
48
1
60
0
100
AcDbLine
10
56.755788
20
31.649934
30
0
11
57.457959
21
31.649934
31
0
39
0
210
0
220
0
230
1
0
LINE
5
D2
100
AcDbEntity
8
1
62
256
6
ByLayer
370
18
48
1
60
0
100
AcDbLine
10
56.636081
20
29.4
30
0
11
57.334518
21
29.4
31
0
39
0
210
0
220
0
230
1
0
LINE
5
D3
100
AcDbEntity
8
1
62
256
6
ByLayer
370
13
48
1
60
0
100
AcDbLine
10
56.666448
20
29.641251
30
0
11
57.334518
21
29.641251
31
0
39
0
210
0
220
0
230
1
0
LINE
5
D4
100
AcDbEntity
8
1
62
256
6
ByLayer
370
13
48
1
60
0
100
AcDbLine
10
56.668513
20
29.658616
30
0
11
57.336037
21
29.658616
31
0
39
0
210
0
220
0
230
1
0
LINE
5
D5
100
AcDbEntity
8
1
62
256
6
ByLayer
370
18
48
1
60
0
100
AcDbLine
10
56.636081
20
32.6
30
0
11
57.334518
21
32.6
31
0
39
0
210
0
220
0
230
1
0
LINE
5
D6
100
AcDbEntity
8
1
62
256
6
ByLayer
370
18
48
1
60
0
100
AcDbLine
10
58.63
20
32.6
30
0
11
57.334518
21
32.6
31
0
39
0
210
0
220
0
230
1
0
LINE
5
D7
100
AcDbEntity
8
1
62
256
6
ByLayer
370
18
48
1
60
0
100
AcDbLine
10
57.334518
20
32.6
30
0
11
57.334518
21
32.358749
31
0
39
0
210
0
220
0
230
1
0
LINE
5
D8
100
AcDbEntity
8
1
62
256
6
ByLayer
370
18
48
1
60
0
100
AcDbLine
10
57.336037
20
32.341384
30
0
11
57.457959
21
31.649934
31
0
39
0
210
0
220
0
230
1
0
LINE
5
D9
100
AcDbEntity
8
1
62
256
6
ByLayer
370
18
48
1
60
0
100
AcDbLine
10
57.477691
20
31.605665
30
0
11
57.549523
21
31.513888
31
0
39
0
210
0
220
0
230
1
0
LINE
5
DA
100
AcDbEntity
8
1
62
256
6
ByLayer
370
18
48
1
60
0
100
AcDbLine
10
57.937861
20
30.98
30
0
11
57.937861
21
31.02
31
0
39
0
210
0
220
0
230
1
0
LINE
5
DB
100
AcDbEntity
8
1
62
256
6
ByLayer
370
18
48
1
60
0
100
AcDbLine
10
57.477691
20
30.394335
30
0
11
57.549523
21
30.486112
31
0
39
0
210
0
220
0
230
1
0
LINE
5
DC
100
AcDbEntity
8
1
62
256
6
ByLayer
370
18
48
1
60
0
100
AcDbLine
10
57.336037
20
29.658616
30
0
11
57.457959
21
30.350066
31
0
39
0
210
0
220
0
230
1
0
LINE
5
DD
100
AcDbEntity
8
1
62
256
6
ByLayer
370
18
48
1
60
0
100
AcDbLine
10
57.334518
20
29.4
30
0
11
57.334518
21
29.641251
31
0
39
0
210
0
220
0
230
1
0
LINE
5
DE
100
AcDbEntity
8
1
62
256
6
ByLayer
370
18
48
1
60
0
100
AcDbLine
10
58.63
20
29.4
30
0
11
57.334518
21
29.4
31
0
39
0
210
0
220
0
230
1
0
LINE
5
DF
100
AcDbEntity
8
1
62
256
6
ByLayer
370
18
48
1
60
0
100
AcDbLine
10
58.63
20
29.4
30
0
11
58.63
21
32.6
31
0
39
0
210
0
220
0
230
1
0
LINE
5
E0
100
AcDbEntity
8
1
62
256
6
ByLayer
370
13
48
1
60
0
100
AcDbLine
10
56.66675
20
32.358749
30
0
11
57.334518
21
32.358749
31
0
39
0
210
0
220
0
230
1
0
LINE
5
E1
100
AcDbEntity
8
1
62
256
6
ByLayer
370
13
48
1
60
0
100
AcDbLine
10
56.668967
20
32.341384
30
0
11
57.336037
21
32.341384
31
0
39
0
210
0
220
0
230
1
0
LINE
5
E2
100
AcDbEntity
8
SK2
62
256
6
ByLayer
370
18
48
1
60
0
100
AcDbLine
10
-39.975
20
-25
30
0
11
-39.975
21
25
31
0
39
0
210
0
220
0
230
1
0
LINE
5
E4
100
AcDbEntity
8
SK2
62
256
6
ByLayer
370
18
48
1
60
0
100
AcDbLine
10
-1.2875
20
25
30
0
11
-41.975
21
25
31
0
39
0
210
0
220
0
230
1
0
LINE
5
E5
100
AcDbEntity
8
SK2
62
256
6
ByLayer
370
18
48
1
60
0
100
AcDbLine
10
-1.2875
20
-25
30
0
11
-41.975
21
-25
31
0
39
0
210
0
220
0
230
1
0
LINE
5
E6
100
AcDbEntity
8
1
62
256
6
ByLayer
370
18
48
1
60
1
100
AcDbLine
10
-39.975
20
25
30
0
11
-39.514216
21
21.500002
31
0
39
0
210
0
220
0
230
1
0
LINE
5
E7
100
AcDbEntity
8
1
62
256
6
ByLayer
370
18
48
1
60
1
100
AcDbLine
10
-39.514216
20
21.500002
30
0
11
-40.435784
21
21.499998
31
0
39
0
210
0
220
0
230
1
0
LINE
5
E8
100
AcDbEntity
8
1
62
256
6
ByLayer
370
18
48
1
60
1
100
AcDbLine
10
-40.435784
20
21.499998
30
0
11
-39.975
21
25
31
0
39
0
210
0
220
0
230
1
0
LINE
5
E9
100
AcDbEntity
8
1
62
256
6
ByLayer
370
18
48
1
60
1
100
AcDbLine
10
-39.975
20
-25
30
0
11
-40.435784
21
-21.500002
31
0
39
0
210
0
220
0
230
1
0
LINE
5
EA
100
AcDbEntity
8
1
62
256
6
ByLayer
370
18
48
1
60
1
100
AcDbLine
10
-40.435784
20
-21.500002
30
0
11
-39.514216
21
-21.499998
31
0
39
0
210
0
220
0
230
1
0
LINE
5
EB
100
AcDbEntity
8
1
62
256
6
ByLayer
370
18
48
1
60
1
100
AcDbLine
10
-39.514216
20
-21.499998
30
0
11
-39.975
21
-25
31
0
39
0
210
0
220
0
230
1
0
LINE
5
14B
100
AcDbEntity
8
1
62
256
6
ByLayer
370
18
48
1
60
1
100
AcDbLine
10
-39.975
20
25
30
0
11
-39.514216
21
21.500002
31
0
39
0
210
0
220
0
230
1
0
LINE
5
14C
100
AcDbEntity
8
1
62
256
6
ByLayer
370
18
48
1
60
1
100
AcDbLine
10
-39.514216
20
21.500002
30
0
11
-40.435784
21
21.499998
31
0
39
0
210
0
220
0
230
1
0
LINE
5
14D
100
AcDbEntity
8
1
62
256
6
ByLayer
370
18
48
1
60
1
100
AcDbLine
10
-40.435784
20
21.499998
30
0
11
-39.975
21
25
31
0
39
0
210
0
220
0
230
1
0
LINE
5
14F
100
AcDbEntity
8
1
62
256
6
ByLayer
370
18
48
1
60
1
100
AcDbLine
10
-39.975
20
-25
30
0
11
-40.435784
21
-21.500002
31
0
39
0
210
0
220
0
230
1
0
LINE
5
150
100
AcDbEntity
8
1
62
256
6
ByLayer
370
18
48
1
60
1
100
AcDbLine
10
-40.435784
20
-21.500002
30
0
11
-39.514216
21
-21.499998
31
0
39
0
210
0
220
0
230
1
0
LINE
5
151
100
AcDbEntity
8
1
62
256
6
ByLayer
370
18
48
1
60
1
100
AcDbLine
10
-39.514216
20
-21.499998
30
0
11
-39.975
21
-25
31
0
39
0
210
0
220
0
230
1
0
MTEXT
5
147
100
AcDbEntity
8
SK2
62
256
6
ByLayer
370
18
48
1
60
0
100
AcDbMText
10
-41.539634
20
-4.530622
30
0
210
0
220
0
230
1
1
%%c
40
3.5
41
0
44
1.084337
50
90
71
7
72
5
7
iso_b_vert
0
MTEXT
5
14A
100
AcDbEntity
8
SK2
62
256
6
ByLayer
370
18
48
1
60
0
100
AcDbMText
10
-41.539634
20
2.442034
30
0
210
0
220
0
230
1
1
\W0.6740;50
40
3.5
41
0
44
1.084337
50
90
71
7
72
5
7
iso_b_vert
0
MTEXT
5
153
100
AcDbEntity
8
SK6
62
256
6
ByLayer
370
18
48
1
60
0
100
AcDbMText
10
-14.8145
20
-47.702321
30
0
210
0
220
0
230
1
1
\W0.7391;C2A-CC5-RFH18B-132CB
40
3.5
41
0
44
1.084337
50
0
71
7
72
5
7
iso_b_vert
0
HATCH
5
14E
100
AcDbEntity
8
SK2
62
256
6
ByLayer
370
13
48
1
60
0
100
AcDbHatch
10
0
20
0
30
0
210
0
220
0
230
1
2
ANSI31
70
0
71
0
91
1
92
5
93
3
72
1
10
-39.9750000000001
20
25
11
-39.5142162584473
21
21.5000016925532
72
1
10
-39.5142162584473
20
21.5000016925532
11
-40.4357837415528
21
21.4999983074468
72
1
10
-40.4357837415528
20
21.4999983074468
11
-39.9750000000001
21
25
97
0
75
0
76
1
52
0
41
0.0062
77
0
78
1
53
45
43
0
44
0
45
-0.0139193969876572
46
0.0139193969876572
79
0
47
0
98
1
10
0
20
0
0
HATCH
5
152
100
AcDbEntity
8
SK2
62
256
6
ByLayer
370
13
48
1
60
0
100
AcDbHatch
10
0
20
0
30
0
210
0
220
0
230
1
2
ANSI31
70
0
71
0
91
1
92
5
93
3
72
1
10
-39.9750000000001
20
-25
11
-40.4357837415528
21
-21.5000016925532
72
1
10
-40.4357837415528
20
-21.5000016925532
11
-39.5142162584473
21
-21.4999983074468
72
1
10
-39.5142162584473
20
-21.4999983074468
11
-39.9750000000001
21
-25
97
0
75
0
76
1
52
0
41
0.0062
77
0
78
1
53
45
43
0
44
0
45
-0.0139193969876572
46
0.0139193969876572
79
0
47
0
98
1
10
0
20
0
0
DIMENSION
5
156
100
AcDbEntity
8
2
62
256
6
ByLayer
370
18
48
1
60
0
100
AcDbDimension
2
_U0
10
96.1
20
0
30
0
11
96.1
21
16.5
31
0
70
32
71
1
72
1
41
1
210
0
220
0
230
1
3
Standard
100
AcDbAlignedDimension
13
65
23
33
33
0
14
0
24
0
34
0
50
90
100
AcDbRotatedDimension
1001
ACAD
1000
DSTYLE
1002
{
1070
   371
1070
    13
1070
   372
1070
    13
1070
   170
1070
     0
1070
   144
1040
1.0
1070
   277
1070
     2
1070
   284
1070
     8
1070
   278
1070
    46
1070
   146
1040
1.0
1070
   345
1005
16
1070
   347
1005
16
1070
   346
1005
16
1070
   344
1005
0
1070
   343
1005
0
1070
   172
1070
     1
1070
    76
1070
     0
1070
    75
1070
     0
1070
   282
1070
     0
1070
   281
1070
     0
1070
    71
1070
     0
1070
    74
1070
     0
1070
   279
1070
     0
1070
   173
1070
     1
1070
   340
1005
148
1070
   271
1070
     1
1070
   272
1070
     2
1070
    77
1070
     1
1070
    73
1070
     0
1070
   171
1070
     3
1070
   274
1070
     4
1070
   177
1070
     2
1070
   176
1070
     2
1070
   178
1070
     2
1070
    78
1070
     8
1070
    48
1040
-0.1
1070
    41
1040
3.5
1070
   147
1040
1.75
1070
    42
1040
1.5875
1070
    44
1040
2.0
1070
   140
1040
3.5
1002
}
1001
ACAD_DSTYLE_DIM_LINETYPE
1070
   380
1005
16
1001
ACAD_DSTYLE_DIM_EXT1_LINETYPE
1070
   381
1005
16
1001
ACAD_DSTYLE_DIM_EXT2_LINETYPE
1070
   382
1005
16
0
DIMENSION
5
170
100
AcDbEntity
8
2
62
256
6
ByLayer
370
18
48
1
60
0
100
AcDbDimension
2
_U1
10
85.1
20
33
30
0
11
85.1
21
31
31
0
70
32
71
1
72
1
41
1
210
0
220
0
230
1
3
Standard
100
AcDbAlignedDimension
13
65
23
29
33
0
14
65
24
33
34
0
50
90
100
AcDbRotatedDimension
1001
ACAD
1000
DSTYLE
1002
{
1070
   371
1070
    13
1070
   372
1070
    13
1070
   170
1070
     0
1070
   144
1040
1.0
1070
   277
1070
     2
1070
   284
1070
     8
1070
   278
1070
    46
1070
   146
1040
1.0
1070
   345
1005
16
1070
   347
1005
16
1070
   346
1005
16
1070
   344
1005
0
1070
   343
1005
0
1070
   172
1070
     1
1070
    76
1070
     0
1070
    75
1070
     0
1070
   282
1070
     0
1070
   281
1070
     0
1070
    71
1070
     0
1070
    74
1070
     0
1070
   279
1070
     0
1070
   173
1070
     1
1070
   340
1005
148
1070
   271
1070
     1
1070
   272
1070
     2
1070
    77
1070
     1
1070
    73
1070
     0
1070
   171
1070
     3
1070
   274
1070
     4
1070
   177
1070
     2
1070
   176
1070
     2
1070
   178
1070
     2
1070
    78
1070
     8
1070
    48
1040
-0.1
1070
    41
1040
3.5
1070
   147
1040
1.75
1070
    42
1040
1.5875
1070
    44
1040
2.0
1070
   140
1040
3.5
1002
}
1001
ACAD_DSTYLE_DIM_LINETYPE
1070
   380
1005
16
1001
ACAD_DSTYLE_DIM_EXT1_LINETYPE
1070
   381
1005
16
1001
ACAD_DSTYLE_DIM_EXT2_LINETYPE
1070
   382
1005
16
0
DIMENSION
5
189
100
AcDbEntity
8
2
62
256
6
ByLayer
370
18
48
1
60
0
100
AcDbDimension
2
_U2
10
65
20
-22.425
30
0
11
56
21
-22.425
31
0
70
32
71
1
72
1
41
1
210
0
220
0
230
1
3
Standard
100
AcDbAlignedDimension
13
47
23
29.325
33
0
14
65
24
29
34
0
50
0
100
AcDbRotatedDimension
1001
ACAD
1000
DSTYLE
1002
{
1070
   371
1070
    13
1070
   372
1070
    13
1070
   170
1070
     0
1070
   144
1040
1.0
1070
   277
1070
     2
1070
   284
1070
     8
1070
   278
1070
    46
1070
   146
1040
1.0
1070
   345
1005
16
1070
   347
1005
16
1070
   346
1005
16
1070
   344
1005
0
1070
   343
1005
0
1070
   172
1070
     1
1070
    76
1070
     0
1070
    75
1070
     0
1070
   282
1070
     0
1070
   281
1070
     0
1070
    71
1070
     0
1070
    74
1070
     0
1070
   279
1070
     0
1070
   173
1070
     1
1070
   340
1005
148
1070
   271
1070
     1
1070
   272
1070
     2
1070
    77
1070
     1
1070
    73
1070
     1
1070
   171
1070
     3
1070
   274
1070
     4
1070
   177
1070
     2
1070
   176
1070
     2
1070
   178
1070
     2
1070
    78
1070
     8
1070
    48
1040
-0.1
1070
    41
1040
3.5
1070
   147
1040
1.75
1070
    42
1040
1.5875
1070
    44
1040
2.0
1070
   140
1040
3.5
1002
}
1001
ACAD_DSTYLE_DIM_LINETYPE
1070
   380
1005
16
1001
ACAD_DSTYLE_DIM_EXT1_LINETYPE
1070
   381
1005
16
1001
ACAD_DSTYLE_DIM_EXT2_LINETYPE
1070
   382
1005
16
0
DIMENSION
5
1A1
100
AcDbEntity
8
2
62
256
6
ByLayer
370
18
48
1
60
0
100
AcDbDimension
2
_U3
10
65
20
47.25
30
0
11
32.5
21
47.25
31
0
70
32
71
1
72
1
41
1
210
0
220
0
230
1
3
Standard
100
AcDbAlignedDimension
13
0
23
0
33
0
14
65
24
33
34
0
50
0
100
AcDbRotatedDimension
1001
ACAD
1000
DSTYLE
1002
{
1070
   371
1070
    13
1070
   372
1070
    13
1070
   170
1070
     0
1070
   144
1040
1.0
1070
   277
1070
     2
1070
   284
1070
     8
1070
   278
1070
    46
1070
   146
1040
1.0
1070
   345
1005
16
1070
   347
1005
16
1070
   346
1005
16
1070
   344
1005
0
1070
   343
1005
0
1070
   172
1070
     1
1070
    76
1070
     0
1070
    75
1070
     0
1070
   282
1070
     0
1070
   281
1070
     0
1070
    71
1070
     0
1070
    74
1070
     0
1070
   279
1070
     0
1070
   173
1070
     1
1070
   340
1005
148
1070
   271
1070
     1
1070
   272
1070
     2
1070
    77
1070
     1
1070
    73
1070
     1
1070
   171
1070
     3
1070
   274
1070
     4
1070
   177
1070
     2
1070
   176
1070
     2
1070
   178
1070
     2
1070
    78
1070
     8
1070
    48
1040
-0.1
1070
    41
1040
3.5
1070
   147
1040
1.75
1070
    42
1040
1.5875
1070
    44
1040
2.0
1070
   140
1040
3.5
1002
}
1001
ACAD_DSTYLE_DIM_LINETYPE
1070
   380
1005
16
1001
ACAD_DSTYLE_DIM_EXT1_LINETYPE
1070
   381
1005
16
1001
ACAD_DSTYLE_DIM_EXT2_LINETYPE
1070
   382
1005
16
0
ENDSEC
0
SECTION
2
OBJECTS
0
DICTIONARY
5
228
330
0
100
AcDbDictionary
280
0
281
1
3
ACAD_GROUP
350
229
3
ACAD_MLINESTYLE
350
22a
0
DICTIONARY
5
229
330
0
100
AcDbDictionary
280
0
281
1
0
DICTIONARY
5
22a
330
0
100
AcDbDictionary
280
0
281
1
3
Standard
350
18
0
MLINESTYLE
5
18
330
22a
100
AcDbMlineStyle
2
Standard
70
0
3

62
256
51
90
52
90
71
2
49
-0.5
62
256
6
ByLayer
49
0.5
62
256
6
ByLayer
0
RASTERVARIABLES
5
217
330

100
AcDbRasterVariables
90
0
70
1
71
1
72
1
0
ENDSEC
0
EOF
