0
SECTION
2
HEADER
9
$ACADVER
1
AC1015
9
$DWGCODEPAGE
3
ANSI_1252
9
$HANDSEED
5
235
9
$ANGBASE
50
0
9
$ANGDIR
70
0
9
$ATTMODE
70
1
9
$AUNITS
70
0
9
$AUPREC
70
0
9
$CECOLOR
62
256
9
$CELTSCALE
40
1
9
$CELTYPE
6
ByLayer
9
$CELWEIGHT
370
18
9
$CLAYER
8
0
9
$CMLJUST
70
0
9
$CMLSCALE
40
1
9
$CMLSTYLE
2
Standard
9
$DIMSTYLE
2
Standard
9
$TEXTSIZE
40
0.2
9
$TEXTSTYLE
7
Standard
9
$LUNITS
70
2
9
$LUPREC
70
4
9
$EXTNAMES
290
1
9
$INSUNITS
70
4
9
$LTSCALE
40
1
9
$LWDISPLAY
290
1
9
$PDMODE
70
0
9
$PDSIZE
40
0
9
$PLINEGEN
70
0
0
ENDSEC
0
SECTION
2
CLASSES
0
CLASS
1
RASTERVARIABLES
2
AcDbRasterVariables
3
ISM
90
0
280
0
281
0
0
ENDSEC
0
SECTION
2
TABLES
0
TABLE
2
VPORT
5
22b
100
AcDbSymbolTable
0
VPORT
5
1
100
AcDbSymbolTableRecord
100
AcDbViewportTableRecord
2
*Active
70
0
10
0
20
0
11
1
21
1
12
-1
22
1
13
0
23
0
14
0.5
24
0.5
15
10
25
10
16
0
26
0
36
1
17
0
27
0
37
0
0
ENDTAB
0
TABLE
2
LTYPE
5
22c
100
AcDbSymbolTable
0
LTYPE
5
14
100
AcDbSymbolTableRecord
100
AcDbLinetypeTableRecord
70
0
2
ByBlock
3

72
65
73
0
40
0
0
LTYPE
5
15
100
AcDbSymbolTableRecord
100
AcDbLinetypeTableRecord
70
0
2
ByLayer
3

72
65
73
0
40
0
0
LTYPE
5
16
100
AcDbSymbolTableRecord
100
AcDbLinetypeTableRecord
70
0
2
Continuous
3
Solid line
72
65
73
0
40
0
0
LTYPE
5
6E
100
AcDbSymbolTableRecord
100
AcDbLinetypeTableRecord
70
0
2
CENTER
3
____ _ ____ _ ____ _ ____
72
65
73
4
40
47.5
49
22
74
0
49
-8.5
74
0
49
8.5
74
0
49
-8.5
74
0
0
LTYPE
5
6F
100
AcDbSymbolTableRecord
100
AcDbLinetypeTableRecord
70
0
2
DASHED
3
__ __ __ __ __ __ __ __ __
72
65
73
2
40
25.72
49
12.86
74
0
49
-12.86
74
0
0
ENDTAB
0
TABLE
2
LAYER
5
22d
100
AcDbSymbolTable
0
LAYER
5
10
100
AcDbSymbolTableRecord
100
AcDbLayerTableRecord
2
0
70
0
62
7
6
Continuous
290
1
370
-3
390
0
0
LAYER
5
71
100
AcDbSymbolTableRecord
100
AcDbLayerTableRecord
2
81
70
0
62
-3
6
Continuous
290
1
370
-3
390
0
0
LAYER
5
73
100
AcDbSymbolTableRecord
100
AcDbLayerTableRecord
2
80
70
0
62
-6
6
Continuous
290
1
370
-3
390
0
0
LAYER
5
75
100
AcDbSymbolTableRecord
100
AcDbLayerTableRecord
2
1
70
0
62
4
6
Continuous
290
1
370
-3
390
0
0
LAYER
5
159
100
AcDbSymbolTableRecord
100
AcDbLayerTableRecord
2
Defpoints
70
0
62
7
6
Continuous
290
0
370
-3
390
0
0
LAYER
5
166
100
AcDbSymbolTableRecord
100
AcDbLayerTableRecord
2
2
70
0
62
7
6
Continuous
290
1
370
-3
390
0
0
LAYER
5
218
100
AcDbSymbolTableRecord
100
AcDbLayerTableRecord
2
SK1
70
0
62
4
6
Continuous
290
1
370
-3
390
0
0
LAYER
5
219
100
AcDbSymbolTableRecord
100
AcDbLayerTableRecord
2
SK2
70
0
62
7
6
Continuous
290
1
370
-3
390
0
0
LAYER
5
21a
100
AcDbSymbolTableRecord
100
AcDbLayerTableRecord
2
SK6
70
0
62
5
6
Continuous
290
1
370
-3
390
0
0
ENDTAB
0
TABLE
2
STYLE
5
22e
100
AcDbSymbolTable
0
STYLE
5
11
100
AcDbSymbolTableRecord
100
AcDbTextStyleTableRecord
2
Standard
3
txt
70
0
71
0
40
0
41
1
42
0
50
0
0
STYLE
5
148
100
AcDbSymbolTableRecord
100
AcDbTextStyleTableRecord
2
iso_b_vert
3
simplex.shx
70
0
71
0
40
0
41
1
42
0
50
0
0
STYLE
5
149
100
AcDbSymbolTableRecord
100
AcDbTextStyleTableRecord
2
DWGDirectTextStyle
3
simplex
70
0
71
0
40
0
41
1
42
0
50
0
0
ENDTAB
0
TABLE
2
DIMSTYLE
5
22f
100
AcDbSymbolTable
100
AcDbDimStyleTable
0
DIMSTYLE
105
27
100
AcDbSymbolTableRecord
100
AcDbDimStyleTableRecord
2
Standard
70
0
3
<>
41
0.18
42
0.0625
44
0.18
140
0.18
147
0.09
73
0
74
0
77
1
271
2
275
0
278
52
280
0
340
11
0
ENDTAB
0
TABLE
2
VIEW
5
230
100
AcDbSymbolTable
0
ENDTAB
0
TABLE
2
UCS
5
231
100
AcDbSymbolTable
0
ENDTAB
0
TABLE
2
APPID
5
232
100
AcDbSymbolTable
0
APPID
5
12
100
AcDbSymbolTableRecord
100
AcDbRegAppTableRecord
2
ACAD
70
0
0
APPID
5
155
100
AcDbSymbolTableRecord
100
AcDbRegAppTableRecord
2
ACAD_DSTYLE_DIMBREAK
70
0
0
APPID
5
1D7
100
AcDbSymbolTableRecord
100
AcDbRegAppTableRecord
2
ACAD_DSTYLE_DIM_LINETYPE
70
0
0
APPID
5
1D8
100
AcDbSymbolTableRecord
100
AcDbRegAppTableRecord
2
ACAD_DSTYLE_DIM_EXT1_LINETYPE
70
0
0
APPID
5
1D9
100
AcDbSymbolTableRecord
100
AcDbRegAppTableRecord
2
ACAD_DSTYLE_DIM_EXT2_LINETYPE
70
0
0
APPID
5
214
100
AcDbSymbolTableRecord
100
AcDbRegAppTableRecord
2
ACAD_MLEADERVER
70
0
0
ENDTAB
0
TABLE
2
BLOCK_RECORD
5
233
100
AcDbSymbolTable
0
BLOCK_RECORD
5
1F
100
AcDbSymbolTableRecord
100
AcDbBlockTableRecord
2
*Model_Space
340
0
70
0
0
BLOCK_RECORD
5
1B
100
AcDbSymbolTableRecord
100
AcDbBlockTableRecord
2
*Paper_Space
340
0
70
0
0
BLOCK_RECORD
5
23
100
AcDbSymbolTableRecord
100
AcDbBlockTableRecord
2
*Paper_Space0
340
0
70
0
0
BLOCK_RECORD
5
15A
100
AcDbSymbolTableRecord
100
AcDbBlockTableRecord
2
*D1
340
0
70
0
0
BLOCK_RECORD
5
167
100
AcDbSymbolTableRecord
100
AcDbBlockTableRecord
2
_U0
340
0
70
0
0
BLOCK_RECORD
5
173
100
AcDbSymbolTableRecord
100
AcDbBlockTableRecord
2
*D3
340
0
70
0
0
BLOCK_RECORD
5
180
100
AcDbSymbolTableRecord
100
AcDbBlockTableRecord
2
_U1
340
0
70
0
0
BLOCK_RECORD
5
18C
100
AcDbSymbolTableRecord
100
AcDbBlockTableRecord
2
*D5
340
0
70
0
0
BLOCK_RECORD
5
198
100
AcDbSymbolTableRecord
100
AcDbBlockTableRecord
2
_U2
340
0
70
0
0
BLOCK_RECORD
5
1A4
100
AcDbSymbolTableRecord
100
AcDbBlockTableRecord
2
*D7
340
0
70
0
0
BLOCK_RECORD
5
1B0
100
AcDbSymbolTableRecord
100
AcDbBlockTableRecord
2
_U3
340
0
70
0
0
ENDTAB
0
ENDSEC
0
SECTION
2
BLOCKS
0
BLOCK
5
20
100
AcDbEntity
8
0
100
AcDbBlockBegin
2
*Model_Space
70
0
10
0
20
0
30
0
3
*Model_Space
0
ENDBLK
5
21
100
AcDbEntity
8
0
100
AcDbBlockEnd
0
BLOCK
5
1C
100
AcDbEntity
8
0
100
AcDbBlockBegin
2
*Paper_Space
70
0
10
0
20
0
30
0
3
*Paper_Space
0
ENDBLK
5
1D
100
AcDbEntity
8
0
100
AcDbBlockEnd
0
BLOCK
5
24
100
AcDbEntity
8
0
100
AcDbBlockBegin
2
*Paper_Space0
70
0
10
0
20
0
30
0
3
*Paper_Space0
0
ENDBLK
5
25
100
AcDbEntity
8
0
100
AcDbBlockEnd
0
BLOCK
5
15B
100
AcDbEntity
8
0
100
AcDbBlockBegin
2
*D1
70
1
10
0
20
0
30
0
3
*D1
0
LINE
5
15D
100
AcDbEntity
8
0
62
256
6
ByLayer
370
-2
48
1
60
0
100
AcDbLine
10
66.5875
20
-33
30
0
11
98.1
21
-33
31
0
39
0
210
0
220
0
230
1
0
LINE
5
15E
100
AcDbEntity
8
0
62
256
6
ByLayer
370
-2
48
1
60
0
100
AcDbLine
10
1.5875
20
0
30
0
11
98.1
21
0
31
0
39
0
210
0
220
0
230
1
0
LINE
5
15F
100
AcDbEntity
8
0
62
256
6
ByLayer
370
-2
48
1
60
0
100
AcDbLine
10
96.1
20
-29.5
30
0
11
96.1
21
-3.5
31
0
39
0
210
0
220
0
230
1
0
SOLID
5
160
100
AcDbEntity
8
0
62
256
6
ByLayer
370
-1
48
1
60
0
100
AcDbTrace
10
95.516667
20
-29.5
30
0
11
96.683333
21
-29.5
31
0
12
96.1
22
-33
32
0
13
96.1
23
-33
33
0
39
0
210
0
220
0
230
1
0
SOLID
5
161
100
AcDbEntity
8
0
62
256
6
ByLayer
370
-1
48
1
60
0
100
AcDbTrace
10
96.683333
20
-3.5
30
0
11
95.516667
21
-3.5
31
0
12
96.1
22
0
32
0
13
96.1
23
0
33
0
39
0
210
0
220
0
230
1
0
MTEXT
5
162
100
AcDbEntity
8
0
62
256
6
ByLayer
370
18
48
1
60
0
100
AcDbMText
10
89.1
20
-16.5
30
0
210
0
220
0
230
1
1
\A1;33
40
3.5
41
0
44
1
50
90
71
5
72
5
7
iso_b_vert
0
POINT
5
163
100
AcDbEntity
8
Defpoints
62
0
6
ByLayer
370
-1
48
1
60
0
100
AcDbPoint
10
65
20
-33
30
0
39
0
210
0
220
0
230
1
50
360
0
POINT
5
164
100
AcDbEntity
8
Defpoints
62
0
6
ByLayer
370
-1
48
1
60
0
100
AcDbPoint
10
0
20
0
30
0
39
0
210
0
220
0
230
1
50
360
0
POINT
5
165
100
AcDbEntity
8
Defpoints
62
0
6
ByLayer
370
-1
48
1
60
0
100
AcDbPoint
10
96.1
20
0
30
0
39
0
210
0
220
0
230
1
50
360
0
ENDBLK
5
15C
100
AcDbEntity
8
0
100
AcDbBlockEnd
0
BLOCK
5
16E
100
AcDbEntity
8
0
100
AcDbBlockBegin
2
_U0
70
0
10
0
20
0
30
0
3
_U0
0
MTEXT
5
168
100
AcDbEntity
8
2
62
256
6
ByLayer
370
18
48
1
60
0
100
AcDbMText
10
95.410366
20
-18.432966
30
0
210
0
220
0
230
1
1
\W0.6740;33
40
3.5
41
0
44
1.084337
50
90
71
7
72
5
7
iso_b_vert
0
LINE
5
169
100
AcDbEntity
8
2
62
256
6
ByLayer
370
13
48
1
60
0
100
AcDbLine
10
66.5875
20
-33
30
0
11
98.1
21
-33
31
0
39
0
210
0
220
0
230
1
0
LINE
5
16A
100
AcDbEntity
8
2
62
256
6
ByLayer
370
13
48
1
60
0
100
AcDbLine
10
1.5875
20
0
30
0
11
98.1
21
0
31
0
39
0
210
0
220
0
230
1
0
LINE
5
16B
100
AcDbEntity
8
2
62
256
6
ByLayer
370
13
48
1
60
0
100
AcDbLine
10
96.1
20
-33
30
0
11
96.1
21
0
31
0
39
0
210
0
220
0
230
1
0
SOLID
5
16C
100
AcDbEntity
8
2
62
256
6
ByLayer
370
18
48
1
60
0
100
AcDbTrace
10
96.1
20
-33
30
0
11
95.639216
21
-29.500002
31
0
12
96.560784
22
-29.499998
32
0
13
96.560784
23
-29.499998
33
0
39
0
210
0
220
0
230
1
0
SOLID
5
16D
100
AcDbEntity
8
2
62
256
6
ByLayer
370
18
48
1
60
0
100
AcDbTrace
10
96.1
20
0
30
0
11
96.560784
21
-3.499998
31
0
12
95.639216
22
-3.500002
32
0
13
95.639216
23
-3.500002
33
0
39
0
210
0
220
0
230
1
0
ENDBLK
5
16F
100
AcDbEntity
8
0
100
AcDbBlockEnd
0
BLOCK
5
174
100
AcDbEntity
8
0
100
AcDbBlockBegin
2
*D3
70
1
10
0
20
0
30
0
3
*D3
0
LINE
5
176
100
AcDbEntity
8
0
62
256
6
ByLayer
370
-2
48
1
60
0
100
AcDbLine
10
66.5875
20
-29
30
0
11
87.1
21
-29
31
0
39
0
210
0
220
0
230
1
0
LINE
5
177
100
AcDbEntity
8
0
62
256
6
ByLayer
370
-2
48
1
60
0
100
AcDbLine
10
66.5875
20
-33
30
0
11
87.1
21
-33
31
0
39
0
210
0
220
0
230
1
0
LINE
5
178
100
AcDbEntity
8
0
62
256
6
ByLayer
370
-2
48
1
60
0
100
AcDbLine
10
85.1
20
-25.5
30
0
11
85.1
21
-22
31
0
39
0
210
0
220
0
230
1
0
LINE
5
179
100
AcDbEntity
8
0
62
256
6
ByLayer
370
-2
48
1
60
0
100
AcDbLine
10
85.1
20
-36.5
30
0
11
85.1
21
-40
31
0
39
0
210
0
220
0
230
1
0
SOLID
5
17A
100
AcDbEntity
8
0
62
256
6
ByLayer
370
-1
48
1
60
0
100
AcDbTrace
10
84.516667
20
-25.5
30
0
11
85.683333
21
-25.5
31
0
12
85.1
22
-29
32
0
13
85.1
23
-29
33
0
39
0
210
0
220
0
230
1
0
SOLID
5
17B
100
AcDbEntity
8
0
62
256
6
ByLayer
370
-1
48
1
60
0
100
AcDbTrace
10
85.683333
20
-36.5
30
0
11
84.516667
21
-36.5
31
0
12
85.1
22
-33
32
0
13
85.1
23
-33
33
0
39
0
210
0
220
0
230
1
0
MTEXT
5
17C
100
AcDbEntity
8
0
62
256
6
ByLayer
370
18
48
1
60
0
100
AcDbMText
10
78.1
20
-31
30
0
210
0
220
0
230
1
1
\A1;4
40
3.5
41
0
44
1
50
90
71
5
72
5
7
iso_b_vert
0
POINT
5
17D
100
AcDbEntity
8
Defpoints
62
0
6
ByLayer
370
-1
48
1
60
0
100
AcDbPoint
10
65
20
-29
30
0
39
0
210
0
220
0
230
1
50
360
0
POINT
5
17E
100
AcDbEntity
8
Defpoints
62
0
6
ByLayer
370
-1
48
1
60
0
100
AcDbPoint
10
65
20
-33
30
0
39
0
210
0
220
0
230
1
50
360
0
POINT
5
17F
100
AcDbEntity
8
Defpoints
62
0
6
ByLayer
370
-1
48
1
60
0
100
AcDbPoint
10
85.1
20
-33
30
0
39
0
210
0
220
0
230
1
50
360
0
ENDBLK
5
175
100
AcDbEntity
8
0
100
AcDbBlockEnd
0
BLOCK
5
187
100
AcDbEntity
8
0
100
AcDbBlockBegin
2
_U1
70
0
10
0
20
0
30
0
3
_U1
0
MTEXT
5
181
100
AcDbEntity
8
2
62
256
6
ByLayer
370
18
48
1
60
0
100
AcDbMText
10
84.410366
20
-31.8095
30
0
210
0
220
0
230
1
1
\W0.6380;4
40
3.5
41
0
44
1.084337
50
90
71
7
72
5
7
iso_b_vert
0
LINE
5
182
100
AcDbEntity
8
2
62
256
6
ByLayer
370
13
48
1
60
0
100
AcDbLine
10
66.5875
20
-29
30
0
11
87.1
21
-29
31
0
39
0
210
0
220
0
230
1
0
LINE
5
183
100
AcDbEntity
8
2
62
256
6
ByLayer
370
13
48
1
60
0
100
AcDbLine
10
66.5875
20
-33
30
0
11
87.1
21
-33
31
0
39
0
210
0
220
0
230
1
0
LINE
5
184
100
AcDbEntity
8
2
62
256
6
ByLayer
370
13
48
1
60
0
100
AcDbLine
10
85.1
20
-20.25
30
0
11
85.1
21
-41.75
31
0
39
0
210
0
220
0
230
1
0
SOLID
5
185
100
AcDbEntity
8
2
62
256
6
ByLayer
370
18
48
1
60
0
100
AcDbTrace
10
85.1
20
-29
30
0
11
84.639216
21
-25.500002
31
0
12
85.560784
22
-25.499998
32
0
13
85.560784
23
-25.499998
33
0
39
0
210
0
220
0
230
1
0
SOLID
5
186
100
AcDbEntity
8
2
62
256
6
ByLayer
370
18
48
1
60
0
100
AcDbTrace
10
85.1
20
-33
30
0
11
85.560784
21
-36.499998
31
0
12
84.639216
22
-36.500002
32
0
13
84.639216
23
-36.500002
33
0
39
0
210
0
220
0
230
1
0
ENDBLK
5
188
100
AcDbEntity
8
0
100
AcDbBlockEnd
0
BLOCK
5
18D
100
AcDbEntity
8
0
100
AcDbBlockBegin
2
*D5
70
1
10
0
20
0
30
0
3
*D5
0
LINE
5
18F
100
AcDbEntity
8
0
62
256
6
ByLayer
370
-2
48
1
60
0
100
AcDbLine
10
47
20
-27.7375
30
0
11
47
21
20.925
31
0
39
0
210
0
220
0
230
1
0
LINE
5
190
100
AcDbEntity
8
0
62
256
6
ByLayer
370
-2
48
1
60
0
100
AcDbLine
10
65
20
-27.4125
30
0
11
65
21
20.925
31
0
39
0
210
0
220
0
230
1
0
LINE
5
191
100
AcDbEntity
8
0
62
256
6
ByLayer
370
-2
48
1
60
0
100
AcDbLine
10
50.5
20
18.925
30
0
11
61.5
21
18.925
31
0
39
0
210
0
220
0
230
1
0
SOLID
5
192
100
AcDbEntity
8
0
62
256
6
ByLayer
370
-1
48
1
60
0
100
AcDbTrace
10
50.5
20
19.508333
30
0
11
50.5
21
18.341667
31
0
12
47
22
18.925
32
0
13
47
23
18.925
33
0
39
0
210
0
220
0
230
1
0
SOLID
5
193
100
AcDbEntity
8
0
62
256
6
ByLayer
370
-1
48
1
60
0
100
AcDbTrace
10
61.5
20
18.341667
30
0
11
61.5
21
19.508333
31
0
12
65
22
18.925
32
0
13
65
23
18.925
33
0
39
0
210
0
220
0
230
1
0
MTEXT
5
194
100
AcDbEntity
8
0
62
256
6
ByLayer
370
18
48
1
60
0
100
AcDbMText
10
56
20
25.925
30
0
210
0
220
0
230
1
1
\A1;18
40
3.5
41
0
44
1
50
0
71
5
72
5
7
iso_b_vert
0
POINT
5
195
100
AcDbEntity
8
Defpoints
62
0
6
ByLayer
370
-1
48
1
60
0
100
AcDbPoint
10
47
20
-29.325
30
0
39
0
210
0
220
0
230
1
50
360
0
POINT
5
196
100
AcDbEntity
8
Defpoints
62
0
6
ByLayer
370
-1
48
1
60
0
100
AcDbPoint
10
65
20
-29
30
0
39
0
210
0
220
0
230
1
50
360
0
POINT
5
197
100
AcDbEntity
8
Defpoints
62
0
6
ByLayer
370
-1
48
1
60
0
100
AcDbPoint
10
65
20
18.925
30
0
39
0
210
0
220
0
230
1
50
360
0
ENDBLK
5
18E
100
AcDbEntity
8
0
100
AcDbBlockEnd
0
BLOCK
5
19F
100
AcDbEntity
8
0
100
AcDbBlockBegin
2
_U2
70
0
10
0
20
0
30
0
3
_U2
0
MTEXT
5
199
100
AcDbEntity
8
2
62
256
6
ByLayer
370
18
48
1
60
0
100
AcDbMText
10
54.532467
20
19.957634
30
0
210
0
220
0
230
1
1
\W0.5321;18
40
3.5
41
0
44
1.084337
50
0
71
7
72
5
7
iso_b_vert
0
LINE
5
19A
100
AcDbEntity
8
2
62
256
6
ByLayer
370
13
48
1
60
0
100
AcDbLine
10
47
20
-27.7375
30
0
11
47
21
20.925
31
0
39
0
210
0
220
0
230
1
0
LINE
5
19B
100
AcDbEntity
8
2
62
256
6
ByLayer
370
13
48
1
60
0
100
AcDbLine
10
65
20
-27.4125
30
0
11
65
21
20.925
31
0
39
0
210
0
220
0
230
1
0
LINE
5
19C
100
AcDbEntity
8
2
62
256
6
ByLayer
370
13
48
1
60
0
100
AcDbLine
10
47
20
18.925
30
0
11
65
21
18.925
31
0
39
0
210
0
220
0
230
1
0
SOLID
5
19D
100
AcDbEntity
8
2
62
256
6
ByLayer
370
18
48
1
60
0
100
AcDbTrace
10
47
20
18.925
30
0
11
50.499998
21
19.385784
31
0
12
50.500002
22
18.464216
32
0
13
50.500002
23
18.464216
33
0
39
0
210
0
220
0
230
1
0
SOLID
5
19E
100
AcDbEntity
8
2
62
256
6
ByLayer
370
18
48
1
60
0
100
AcDbTrace
10
65
20
18.925
30
0
11
61.500002
21
18.464216
31
0
12
61.499998
22
19.385784
32
0
13
61.499998
23
19.385784
33
0
39
0
210
0
220
0
230
1
0
ENDBLK
5
1A0
100
AcDbEntity
8
0
100
AcDbBlockEnd
0
BLOCK
5
1A5
100
AcDbEntity
8
0
100
AcDbBlockBegin
2
*D7
70
1
10
0
20
0
30
0
3
*D7
0
LINE
5
1A7
100
AcDbEntity
8
0
62
256
6
ByLayer
370
-2
48
1
60
0
100
AcDbLine
10
0
20
-1.5875
30
0
11
0
21
-52.75
31
0
39
0
210
0
220
0
230
1
0
LINE
5
1A8
100
AcDbEntity
8
0
62
256
6
ByLayer
370
-2
48
1
60
0
100
AcDbLine
10
65
20
-34.5875
30
0
11
65
21
-52.75
31
0
39
0
210
0
220
0
230
1
0
LINE
5
1A9
100
AcDbEntity
8
0
62
256
6
ByLayer
370
-2
48
1
60
0
100
AcDbLine
10
3.5
20
-50.75
30
0
11
61.5
21
-50.75
31
0
39
0
210
0
220
0
230
1
0
SOLID
5
1AA
100
AcDbEntity
8
0
62
256
6
ByLayer
370
-1
48
1
60
0
100
AcDbTrace
10
3.5
20
-50.166667
30
0
11
3.5
21
-51.333333
31
0
12
0
22
-50.75
32
0
13
0
23
-50.75
33
0
39
0
210
0
220
0
230
1
0
SOLID
5
1AB
100
AcDbEntity
8
0
62
256
6
ByLayer
370
-1
48
1
60
0
100
AcDbTrace
10
61.5
20
-51.333333
30
0
11
61.5
21
-50.166667
31
0
12
65
22
-50.75
32
0
13
65
23
-50.75
33
0
39
0
210
0
220
0
230
1
0
MTEXT
5
1AC
100
AcDbEntity
8
0
62
256
6
ByLayer
370
18
48
1
60
0
100
AcDbMText
10
32.5
20
-43.75
30
0
210
0
220
0
230
1
1
\A1;65
40
3.5
41
0
44
1
50
0
71
5
72
5
7
iso_b_vert
0
POINT
5
1AD
100
AcDbEntity
8
Defpoints
62
0
6
ByLayer
370
-1
48
1
60
0
100
AcDbPoint
10
0
20
0
30
0
39
0
210
0
220
0
230
1
50
360
0
POINT
5
1AE
100
AcDbEntity
8
Defpoints
62
0
6
ByLayer
370
-1
48
1
60
0
100
AcDbPoint
10
65
20
-33
30
0
39
0
210
0
220
0
230
1
50
360
0
POINT
5
1AF
100
AcDbEntity
8
Defpoints
62
0
6
ByLayer
370
-1
48
1
60
0
100
AcDbPoint
10
65
20
-50.75
30
0
39
0
210
0
220
0
230
1
50
360
0
ENDBLK
5
1A6
100
AcDbEntity
8
0
100
AcDbBlockEnd
0
BLOCK
5
1B7
100
AcDbEntity
8
0
100
AcDbBlockBegin
2
_U3
70
0
10
0
20
0
30
0
3
_U3
0
MTEXT
5
1B1
100
AcDbEntity
8
2
62
256
6
ByLayer
370
18
48
1
60
0
100
AcDbMText
10
30.595034
20
-49.717366
30
0
210
0
220
0
230
1
1
\W0.6740;65
40
3.5
41
0
44
1.084337
50
0
71
7
72
5
7
iso_b_vert
0
LINE
5
1B2
100
AcDbEntity
8
2
62
256
6
ByLayer
370
13
48
1
60
0
100
AcDbLine
10
0
20
-1.5875
30
0
11
0
21
-52.75
31
0
39
0
210
0
220
0
230
1
0
LINE
5
1B3
100
AcDbEntity
8
2
62
256
6
ByLayer
370
13
48
1
60
0
100
AcDbLine
10
65
20
-34.5875
30
0
11
65
21
-52.75
31
0
39
0
210
0
220
0
230
1
0
LINE
5
1B4
100
AcDbEntity
8
2
62
256
6
ByLayer
370
13
48
1
60
0
100
AcDbLine
10
0
20
-50.75
30
0
11
65
21
-50.75
31
0
39
0
210
0
220
0
230
1
0
SOLID
5
1B5
100
AcDbEntity
8
2
62
256
6
ByLayer
370
18
48
1
60
0
100
AcDbTrace
10
0
20
-50.75
30
0
11
3.499998
21
-50.289216
31
0
12
3.500002
22
-51.210784
32
0
13
3.500002
23
-51.210784
33
0
39
0
210
0
220
0
230
1
0
SOLID
5
1B6
100
AcDbEntity
8
2
62
256
6
ByLayer
370
18
48
1
60
0
100
AcDbTrace
10
65
20
-50.75
30
0
11
61.500002
21
-51.210784
31
0
12
61.499998
22
-50.289216
32
0
13
61.499998
23
-50.289216
33
0
39
0
210
0
220
0
230
1
0
ENDBLK
5
1B8
100
AcDbEntity
8
0
100
AcDbBlockEnd
0
ENDSEC
0
SECTION
2
ENTITIES
0
ARC
5
EC
100
AcDbEntity
8
1
62
256
6
ByLayer
370
18
48
1
60
0
100
AcDbCircle
39
0
10
20.279208
20
-26.2
30
0
40
1.2
210
0
220
0
230
1
100
AcDbArc
50
60.713759
51
90
0
ARC
5
ED
100
AcDbEntity
8
SK1
62
256
6
ByLayer
370
18
48
1
60
0
100
AcDbCircle
39
0
10
-0.6
20
18.75
30
0
40
0.999999999999998
210
0
220
0
230
1
100
AcDbArc
50
293.578178
51
306.869898
0
ARC
5
EE
100
AcDbEntity
8
SK1
62
256
6
ByLayer
370
18
48
1
60
0
100
AcDbCircle
39
0
10
-0.6
20
-18.75
30
0
40
0.999999999999998
210
0
220
0
230
1
100
AcDbArc
50
53.130102
51
66.421822
0
ARC
5
F2
100
AcDbEntity
8
1
62
256
6
ByLayer
370
18
48
1
60
0
100
AcDbCircle
39
0
10
26.4
20
-26.15
30
0
40
1
210
0
220
0
230
1
100
AcDbArc
50
360
51
90
0
ARC
5
F3
100
AcDbEntity
8
1
62
256
6
ByLayer
370
18
48
1
60
0
100
AcDbCircle
39
0
10
64.7
20
-29.3
30
0
40
0.3
210
0
220
0
230
1
100
AcDbArc
50
0
51
92.5
0
ARC
5
F4
100
AcDbEntity
8
1
62
256
6
ByLayer
370
18
48
1
60
0
100
AcDbCircle
39
0
10
64.7
20
-32.7
30
0
40
0.3
210
0
220
0
230
1
100
AcDbArc
50
267.5
51
0
0
ARC
5
F5
100
AcDbEntity
8
1
62
256
6
ByLayer
370
18
48
1
60
0
100
AcDbCircle
39
0
10
57.55644
20
-30.332701
30
0
40
0.100000000000298
210
0
220
0
230
1
100
AcDbArc
50
190.000001
51
218.049181
0
CIRCLE
5
EF
100
AcDbEntity
8
1
62
256
6
ByLayer
370
18
48
1
60
0
100
AcDbCircle
10
38.65
20
-20.85
30
0
40
2.55
39
0
210
0
220
0
230
1
0
CIRCLE
5
F0
100
AcDbEntity
8
1
62
256
6
ByLayer
370
18
48
1
60
0
100
AcDbCircle
10
38.65
20
-20.85
30
0
40
3.3
39
0
210
0
220
0
230
1
0
CIRCLE
5
F1
100
AcDbEntity
8
1
62
256
6
ByLayer
370
18
48
1
60
0
100
AcDbCircle
10
38.65
20
-20.85
30
0
40
5.75000000000001
39
0
210
0
220
0
230
1
0
ELLIPSE
5
F6
100
AcDbEntity
8
1
62
256
6
ByLayer
370
18
48
1
60
0
100
AcDbEllipse
10
70.192308
20
-99.2
30
0
11
4.0733468844317E-15
21
66.5250000004902
31
0
210
0
220
0
230
1
40
0.692308
41
0.13486080174682
42
0.38052195540303
0
ELLIPSE
5
F7
100
AcDbEntity
8
1
62
256
6
ByLayer
370
18
48
1
60
0
100
AcDbEllipse
10
55.783148
20
-31.072671
30
0
11
0.103806447064433
21
0.793583521300868
31
0
210
0
220
0
230
1
40
0.976272
41
0
42
6.28318530717959
0
ELLIPSE
5
F8
100
AcDbEntity
8
1
62
256
6
ByLayer
370
18
48
1
60
0
100
AcDbEllipse
10
57.929864
20
-79
30
0
11
3.04161602766213E-15
21
49.6749999404838
31
0
210
0
220
0
230
1
40
0.885973
41
0.0295517844604767
42
0.10082499164429
0
ELLIPSE
5
F9
100
AcDbEntity
8
1
62
256
6
ByLayer
370
18
48
1
60
0
100
AcDbEllipse
10
-502.478787
20
-79.093727
30
0
11
3856.93273316039
21
8.64952306784288
31
0
210
0
220
0
230
1
40
0.012707
41
1.42532547213707
42
1.427816229303
0
ELLIPSE
5
FA
100
AcDbEntity
8
1
62
256
6
ByLayer
370
18
48
1
60
0
100
AcDbEllipse
10
57.929864
20
-99.2
30
0
11
4.07334689421866E-15
21
66.5250001603287
31
0
210
0
220
0
230
1
40
0.885973
41
0.0221494715662339
42
0.0752306574452684
0
ELLIPSE
5
FB
100
AcDbEntity
8
1
62
256
6
ByLayer
370
18
48
1
60
0
100
AcDbEllipse
10
60.64074
20
-79
30
0
11
70.9432522032616
21
8.31068533744418E-14
31
0
210
0
220
0
230
1
40
0.700208
41
1.67162131842099
42
1.76427801822948
0
ELLIPSE
5
FC
100
AcDbEntity
8
1
62
256
6
ByLayer
370
18
48
1
60
0
100
AcDbEllipse
10
60.64074
20
-99.2
30
0
11
95.0075460827624
21
1.11297099534473E-13
31
0
210
0
220
0
230
1
40
0.700208
41
1.64602698438096
42
1.72320833880634
0
ELLIPSE
5
FD
100
AcDbEntity
8
1
62
256
6
ByLayer
370
18
48
1
60
0
100
AcDbEllipse
10
46.149664
20
-29.325
30
0
11
-2.78951487299375
21
3.41605763755017E-16
31
0
210
0
220
0
230
1
40
0.573576
41
-1.29870801006699
42
0
0
ELLIPSE
5
FE
100
AcDbEntity
8
1
62
256
6
ByLayer
370
18
48
1
60
0
100
AcDbEllipse
10
21.056258
20
0
30
0
11
11.7092723497272
21
24.6771864409373
31
0
210
0
220
0
230
1
40
0.341999
41
2.05975995310052
42
2.97437958168081
0
ELLIPSE
5
FF
100
AcDbEntity
8
1
62
256
6
ByLayer
370
18
48
1
60
0
100
AcDbEllipse
10
-1.056258
20
0
30
0
11
11.7092723497261
21
-24.6771864409361
31
0
210
0
220
0
230
1
40
0.341999
41
0.167213071908995
42
1.08183270048931
0
ELLIPSE
5
100
100
AcDbEntity
8
1
62
256
6
ByLayer
370
18
48
1
60
0
100
AcDbEllipse
10
-1.056258
20
0
30
0
11
11.7092723497266
21
24.6771864409368
31
0
210
0
220
0
230
1
40
0.341999
41
-1.0818327004893
42
-0.16721307190899
0
ELLIPSE
5
101
100
AcDbEntity
8
1
62
256
6
ByLayer
370
18
48
1
60
0
100
AcDbEllipse
10
21.056258
20
0
30
0
11
11.7092723497281
21
-24.6771864409384
31
0
210
0
220
0
230
1
40
0.341999
41
-2.97437958168082
42
-2.05975995310055
0
ELLIPSE
5
102
100
AcDbEntity
8
1
62
256
6
ByLayer
370
18
48
1
60
0
100
AcDbEllipse
10
20.218172
20
0
30
0
11
1.53075794227785E-15
21
24.999999999998
31
0
210
0
220
0
230
1
40
0.008727
41
0.785398163397366
42
2.44370093476737
0
ELLIPSE
5
103
100
AcDbEntity
8
1
62
256
6
ByLayer
370
18
48
1
60
0
100
AcDbEllipse
10
24.065604
20
17.5
30
0
11
2.44921270289351E-16
21
3.99999999224038
31
0
210
0
220
0
230
1
40
1
41
1.57952297307149
42
1.64946113336615
0
ELLIPSE
5
104
100
AcDbEntity
8
1
62
256
6
ByLayer
370
18
48
1
60
0
100
AcDbEllipse
10
57.55644
20
-31.667299
30
0
11
0.0403918877838946
21
0.0914794807402208
31
0
210
0
220
0
230
1
40
1
41
1.32250954936417
42
1.81206009518155
0
ELLIPSE
5
105
100
AcDbEntity
8
1
62
256
6
ByLayer
370
18
48
1
60
0
100
AcDbEllipse
10
57.434518
20
-32.358749
30
0
11
0.010661639262803
21
0.0994300222659567
31
0
210
0
220
0
230
1
40
1
41
1.50308282049733
42
1.67761574668812
0
ELLIPSE
5
106
100
AcDbEntity
8
1
62
256
6
ByLayer
370
18
48
1
60
0
100
AcDbEllipse
10
57.434518
20
-29.641251
30
0
11
0.0104483933357587
21
-0.0994526568016828
31
0
210
0
220
0
230
1
40
1
41
-1.6754713082112
42
-1.50093838192104
0
POINT
5
70
100
AcDbEntity
8
81
62
256
6
ByLayer
370
18
48
1
60
0
100
AcDbPoint
10
65
20
-33
30
0
39
0
210
0
220
0
230
1
50
360
0
POINT
5
72
100
AcDbEntity
8
80
62
256
6
ByLayer
370
18
48
1
60
0
100
AcDbPoint
10
0
20
0
30
0
39
0
210
0
220
0
230
1
50
360
0
POINT
5
74
100
AcDbEntity
8
1
62
256
6
ByLayer
370
18
48
1
60
1
100
AcDbPoint
10
65
20
-33
30
0
39
0
210
0
220
0
230
1
50
360
0
POINT
5
76
100
AcDbEntity
8
1
62
256
6
ByLayer
370
18
48
1
60
1
100
AcDbPoint
10
0
20
0
30
0
39
0
210
0
220
0
230
1
50
360
0
POINT
5
77
100
AcDbEntity
8
1
62
256
6
ByLayer
370
18
48
1
60
1
100
AcDbPoint
10
65
20
-29
30
0
39
0
210
0
220
0
230
1
50
360
0
POINT
5
78
100
AcDbEntity
8
1
62
256
6
ByLayer
370
18
48
1
60
1
100
AcDbPoint
10
65
20
-33
30
0
39
0
210
0
220
0
230
1
50
360
0
POINT
5
79
100
AcDbEntity
8
1
62
256
6
ByLayer
370
18
48
1
60
1
100
AcDbPoint
10
47
20
-29.325
30
0
39
0
210
0
220
0
230
1
50
360
0
POINT
5
7A
100
AcDbEntity
8
1
62
256
6
ByLayer
370
18
48
1
60
1
100
AcDbPoint
10
65
20
-29
30
0
39
0
210
0
220
0
230
1
50
360
0
POINT
5
7B
100
AcDbEntity
8
1
62
256
6
ByLayer
370
18
48
1
60
1
100
AcDbPoint
10
0
20
0
30
0
39
0
210
0
220
0
230
1
50
360
0
POINT
5
7C
100
AcDbEntity
8
1
62
256
6
ByLayer
370
18
48
1
60
1
100
AcDbPoint
10
65
20
-33
30
0
39
0
210
0
220
0
230
1
50
360
0
SPLINE
5
107
100
AcDbEntity
8
SK1
62
256
6
ByLayer
370
18
48
1
60
0
100
AcDbSpline
70
4
71
3
72
11
73
7
40
0
40
0
40
0
40
0
40
0.238912427191395
40
0.497455281052438
40
0.757410045821348
40
1
40
1
40
1
40
1
41
1
10
-0.394913799811292
20
-17.359780267379
30
0
41
1
10
-0.369683795840189
20
-17.3607068368228
30
0
41
1
10
-0.321113897423828
20
-17.3707504109673
30
0
41
1
10
-0.255179720944199
20
-17.413949611085
30
0
41
1
10
-0.211248315226271
20
-17.4799022728817
30
0
41
1
10
-0.20095788927037
20
-17.528914023106
30
0
41
1
10
-0.199999999999989
20
-17.5545583467653
30
0
0
SPLINE
5
108
100
AcDbEntity
8
SK1
62
256
6
ByLayer
370
18
48
1
60
0
100
AcDbSpline
70
4
71
3
72
11
73
7
40
0
40
0
40
0
40
0
40
0.242589954254955
40
0.502544719057512
40
0.761087572886875
40
1
40
1
40
1
40
1
41
1
10
-0.199999999999989
20
17.5545582060013
30
0
41
1
10
-0.20095788926875
20
17.5289138828002
30
0
41
1
10
-0.211248315224623
20
17.4799021334557
30
0
41
1
10
-0.255179720936411
20
17.4139494728385
30
0
41
1
10
-0.321113897416467
20
17.3707502735068
30
0
41
1
10
-0.369683795838398
20
17.3607066995757
30
0
41
1
10
-0.394913799811292
20
17.3597801301672
30
0
0
SPLINE
5
109
100
AcDbEntity
8
SK1
62
256
6
ByLayer
370
18
48
1
60
0
100
AcDbSpline
70
4
71
2
72
6
73
3
40
0
40
0
40
0
40
1
40
1
40
1
41
1
10
-30
20
-15.9931873508859
30
0
41
1
10
-29.2499999297871
20
-16.4259984461422
30
0
41
1
10
-28.5
20
-16.8588088260863
30
0
0
SPLINE
5
10A
100
AcDbEntity
8
SK1
62
256
6
ByLayer
370
18
48
1
60
0
100
AcDbSpline
70
4
71
2
72
6
73
3
40
0
40
0
40
0
40
1
40
1
40
1
41
1
10
-28.5
20
16.8588088951667
30
0
41
1
10
-29.2499999297894
20
16.425998517687
30
0
41
1
10
-30
20
15.9931874249212
30
0
0
SPLINE
5
10B
100
AcDbEntity
8
SK1
62
256
6
ByLayer
370
18
48
1
60
0
100
AcDbSpline
70
4
71
2
72
6
73
3
40
0
40
0
40
0
40
1
40
1
40
1
41
1
10
-0.394913799811292
20
17.3602212447177
30
0
41
1
10
-1.19497688886898
20
17.340134563042
30
0
41
1
10
-1.99503997793928
20
17.3200478774323
30
0
0
SPLINE
5
10C
100
AcDbEntity
8
SK1
62
256
6
ByLayer
370
18
48
1
60
0
100
AcDbSpline
70
4
71
2
72
6
73
3
40
0
40
0
40
0
40
1
40
1
40
1
41
1
10
-1.99503997793928
20
-17.3200475850767
30
0
41
1
10
-1.19497688886898
20
-17.3401342706943
30
0
41
1
10
-0.394913799811292
20
-17.3602209523781
30
0
0
SPLINE
5
10D
100
AcDbEntity
8
SK1
62
256
6
ByLayer
370
18
48
1
60
0
100
AcDbSpline
70
4
71
3
72
13
73
9
40
0
40
0
40
0
40
0
40
0.239505988259609
40
0.36842653894641
40
0.500072261928253
40
0.631705988457419
40
0.760593443657081
40
1
40
1
40
1
40
1
41
1
10
-1.99503997793928
20
17.3252688086104
30
0
41
1
10
-2.0211092598112
20
17.3248666993254
30
0
41
1
10
-2.05883863807624
20
17.3310363194718
30
0
41
1
10
-2.10627567684702
20
17.3540697297104
30
0
41
1
10
-2.13886243910255
20
17.379225724067
30
0
41
1
10
-2.16563490775661
20
17.4104934409328
30
0
41
1
10
-2.19103207709688
20
17.4566916816953
30
0
41
1
10
-2.19909121920765
20
17.494049013599
30
0
41
1
10
-2.2
20
17.5200962264206
30
0
0
SPLINE
5
10E
100
AcDbEntity
8
SK1
62
256
6
ByLayer
370
18
48
1
60
0
100
AcDbSpline
70
4
71
3
72
13
73
9
40
0
40
0
40
0
40
0
40
0.239406556947036
40
0.368294012345134
40
0.499927738941635
40
0.631573461844287
40
0.7604940123269
40
1
40
1
40
1
40
1
41
1
10
-2.2
20
-17.5200961072231
30
0
41
1
10
-2.19909121921685
20
-17.4940488942773
30
0
41
1
10
-2.19103207710596
20
-17.4566915621889
30
0
41
1
10
-2.16563490776916
20
-17.4104933211739
30
0
41
1
10
-2.13886243911927
20
-17.3792256041407
30
0
41
1
10
-2.10627567686485
20
-17.3540696096461
30
0
41
1
10
-2.05883863809936
20
-17.3310361992814
30
0
41
1
10
-2.02110925982341
20
-17.3248665791032
30
0
41
1
10
-1.99503997793928
20
-17.3252686883829
30
0
0
SPLINE
5
10F
100
AcDbEntity
8
SK1
62
256
6
ByLayer
370
18
48
1
60
0
100
AcDbSpline
70
4
71
2
72
6
73
3
40
0
40
0
40
0
40
1
40
1
40
1
41
1
10
-2.2
20
17.5148290000611
30
0
41
1
10
-15.3499999982428
20
17.1846808487114
30
0
41
1
10
-28.5
20
16.8545316091351
30
0
0
SPLINE
5
110
100
AcDbEntity
8
SK1
62
256
6
ByLayer
370
18
48
1
60
0
100
AcDbSpline
70
4
71
2
72
6
73
3
40
0
40
0
40
0
40
1
40
1
40
1
41
1
10
-28.5
20
-16.8545313165689
30
0
41
1
10
-15.3499999982432
20
-17.1846805562453
30
0
41
1
10
-2.2
20
-17.5148287077807
30
0
0
SPLINE
5
111
100
AcDbEntity
8
1
62
256
6
ByLayer
370
18
48
1
60
0
100
AcDbSpline
70
4
71
3
72
8
73
4
40
0
40
0
40
0
40
0
40
1
40
1
40
1
40
1
41
1
10
21.5937415683672
20
-26.15
30
0
41
1
10
22.1280295176767
20
-28.1683495060762
30
0
41
1
10
22.6636590194532
20
-30.1863510655504
30
0
41
1
10
23.2
20
-32.2041595710552
30
0
0
SPLINE
5
112
100
AcDbEntity
8
1
62
256
6
ByLayer
370
18
48
1
60
0
100
AcDbSpline
70
4
71
3
72
16
73
12
40
0
40
0
40
0
40
0
40
0.250000000000008
40
0.250000000000008
40
0.375000000000013
40
0.375000000000013
40
0.500000000000017
40
0.500000000000017
40
0.750000000000008
40
0.750000000000008
40
1
40
1
40
1
40
1
41
1
10
21.4383186059721
20
-25.589659530439
30
0
41
1
10
21.45046715232
20
-25.6312140525811
30
0
41
1
10
21.4629220190385
20
-25.674422949395
30
0
41
1
10
21.4820417238425
20
-25.7416442760654
30
0
41
1
10
21.4884882148788
20
-25.7644544496638
30
0
41
1
10
21.501528166244
20
-25.8108890873348
30
0
41
1
10
21.5081174763668
20
-25.8345000631933
30
0
41
1
10
21.5278304001528
20
-25.9055680925487
30
0
41
1
10
21.5409897794192
20
-25.9535806104733
30
0
41
1
10
21.5673406201506
20
-26.0508462588363
30
0
41
1
10
21.5805320755465
20
-26.1000992426564
30
0
41
1
10
21.5937415683672
20
-26.15
30
0
0
SPLINE
5
113
100
AcDbEntity
8
1
62
256
6
ByLayer
370
18
48
1
60
0
100
AcDbSpline
70
4
71
3
72
37
73
33
40
0
40
0
40
0
40
0
40
0.0312500000000011
40
0.0312500000000011
40
0.0625000000000021
40
0.125000000000004
40
0.125000000000004
40
0.250000000000006
40
0.250000000000006
40
0.281250000000006
40
0.281250000000006
40
0.312500000000006
40
0.312500000000006
40
0.375
40
0.375
40
0.499999999999983
40
0.499999999999983
40
0.53124999999998
40
0.53124999999998
40
0.562499999999978
40
0.624999999999978
40
0.687499999999978
40
0.687499999999978
40
0.718749999999978
40
0.718749999999978
40
0.749999999999978
40
0.749999999999978
40
0.874999999999986
40
0.874999999999986
40
0.937499999999993
40
0.937499999999993
40
1
40
1
40
1
40
1
41
1
10
25.6979991993593
20
-25.15
30
0
41
1
10
25.716159662557
20
-25.15
30
0
41
1
10
25.7343436715721
20
-25.1503025762777
30
0
41
1
10
25.7705404692686
20
-25.1515196643775
30
0
41
1
10
25.8246748030338
20
-25.1542634146374
30
0
41
1
10
25.8783209647337
20
-25.1597933881372
30
0
41
1
10
25.9849379288975
20
-25.1747079219338
30
0
41
1
10
26.0551208774945
20
-25.1897592794783
30
0
41
1
10
26.1415829778381
20
-25.2158024637559
30
0
41
1
10
26.1588116390369
20
-25.2213750019034
30
0
41
1
10
26.1931357597246
20
-25.2332803218201
30
0
41
1
10
26.2102683325627
20
-25.2396289977521
30
0
41
1
10
26.2610060787218
20
-25.2596878790594
30
0
41
1
10
26.2940493017973
20
-25.2744353258394
30
0
41
1
10
26.3907724756647
20
-25.3229089218058
30
0
41
1
10
26.4520714248128
20
-25.3608215019205
30
0
41
1
10
26.5242042253867
20
-25.4161083927452
30
0
41
1
10
26.5384465541441
20
-25.4276015592398
30
0
41
1
10
26.5661892927071
20
-25.4511913425105
30
0
41
1
10
26.6067111080115
20
-25.4874857382757
30
0
41
1
10
26.6688047152749
20
-25.5525094185346
30
0
41
1
10
26.7125622959425
20
-25.6094566175086
30
0
41
1
10
26.7430477949145
20
-25.6541098054289
30
0
41
1
10
26.7528200581636
20
-25.6693186563508
30
0
41
1
10
26.7715554404667
20
-25.7004102576542
30
0
41
1
10
26.7805452052648
20
-25.7163445309867
30
0
41
1
10
26.8230509325826
20
-25.7971584961779
30
0
41
1
10
26.8488697960025
20
-25.8644367321645
30
0
41
1
10
26.8752531168167
20
-25.9693159907482
30
0
41
1
10
26.8819729542626
20
-26.0049415512714
30
0
41
1
10
26.8910147230196
20
-26.0776041037324
30
0
41
1
10
26.8932370625239
20
-26.1138738724258
30
0
41
1
10
26.8932370625239
20
-26.15
30
0
0
SPLINE
5
114
100
AcDbEntity
8
1
62
256
6
ByLayer
370
18
48
1
60
0
100
AcDbSpline
70
4
71
3
72
8
73
4
40
0
40
0
40
0
40
0
40
1
40
1
40
1
40
1
41
1
10
23.3586399539799
20
-32.8012786853878
30
0
41
1
10
23.3057941924331
20
-32.6022736454604
30
0
41
1
10
23.2529146789673
20
-32.4032338412655
30
0
41
1
10
23.2
20
-32.2041595710553
30
0
0
SPLINE
5
115
100
AcDbEntity
8
1
62
256
6
ByLayer
370
18
48
1
60
0
100
AcDbSpline
70
4
71
3
72
12
73
8
40
0
40
0
40
0
40
0
40
0.202961800915469
40
0.202961800915469
40
0.601480900449723
40
0.601480900449723
40
1
40
1
40
1
40
1
41
1
10
55.3360880930756
20
-32.836401297382
30
0
41
1
10
55.5031681380968
20
-32.8361622919873
30
0
41
1
10
55.6702481835041
20
-32.8359235563225
30
0
41
1
10
56.1653928655902
20
-32.8352168581984
30
0
41
1
10
56.4934575033701
20
-32.8347496658374
30
0
41
1
10
57.1495867818939
20
-32.8338173602377
30
0
41
1
10
57.4776514226411
20
-32.8333522469989
30
0
41
1
10
57.8057160648569
20
-32.8328881730857
30
0
0
SPLINE
5
116
100
AcDbEntity
8
1
62
256
6
ByLayer
370
18
48
1
60
0
100
AcDbSpline
70
4
71
3
72
31
73
27
40
0
40
0
40
0
40
0
40
0.0624999999999972
40
0.0624999999999972
40
0.124999999999995
40
0.124999999999995
40
0.249999999999989
40
0.249999999999989
40
0.374999999999984
40
0.374999999999984
40
0.406249999999984
40
0.406249999999984
40
0.437499999999983
40
0.437499999999983
40
0.499999999999982
40
0.499999999999982
40
0.62499999999998
40
0.62499999999998
40
0.68749999999998
40
0.68749999999998
40
0.718749999999981
40
0.718749999999981
40
0.749999999999982
40
0.749999999999982
40
0.874999999999991
40
1
40
1
40
1
40
1
41
1
10
26.8932370625239
20
-32.7021381922697
30
0
41
1
10
26.8496424932159
20
-32.7044383387854
30
0
41
1
10
26.8034460545248
20
-32.7068425765843
30
0
41
1
10
26.7059645759959
20
-32.7118211320671
30
0
41
1
10
26.6549641080804
20
-32.7143808687837
30
0
41
1
10
26.4953596841429
20
-32.7222158880868
30
0
41
1
10
26.3801795590138
20
-32.7276468211002
30
0
41
1
10
26.1325122637465
20
-32.7386399780654
30
0
41
1
10
26.0000266956101
20
-32.7442030062224
30
0
41
1
10
25.823203935164
20
-32.7510598206361
30
0
41
1
10
25.7872663020375
20
-32.7524265309905
30
0
41
1
10
25.7147927125727
20
-32.7551255717303
30
0
41
1
10
25.6781919707361
20
-32.756460452221
30
0
41
1
10
25.5673116610104
20
-32.7604152322427
30
0
41
1
10
25.4919551520457
20
-32.7629852446591
30
0
41
1
10
25.2616437232678
20
-32.7704495083466
30
0
41
1
10
25.1024643679473
20
-32.775098085913
30
0
41
1
10
24.8551835656577
20
-32.7813979366065
30
0
41
1
10
24.7713336656507
20
-32.7833857258992
30
0
41
1
10
24.6433764723931
20
-32.7861758836885
30
0
41
1
10
24.6002851151221
20
-32.7870754729075
30
0
41
1
10
24.5137489765499
20
-32.7887992046052
30
0
41
1
10
24.4703537453288
20
-32.7896225225397
30
0
41
1
10
24.252750643567
20
-32.7935423866277
30
0
41
1
10
23.9005890891122
20
-32.7985546286419
30
0
41
1
10
23.5406245175525
20
-32.8008542472379
30
0
41
1
10
23.3586399539799
20
-32.8012786853878
30
0
0
SPLINE
5
117
100
AcDbEntity
8
1
62
256
6
ByLayer
370
18
48
1
60
0
100
AcDbSpline
70
4
71
3
72
22
73
18
40
0
40
0
40
0
40
0
40
0.0312499999999999
40
0.0312499999999999
40
0.0624999999999999
40
0.125
40
0.125
40
0.25
40
0.25
40
0.375
40
0.375
40
0.5
40
0.5
40
0.625
40
0.75
40
0.875
40
1
40
1
40
1
40
1
41
1
10
23.3586399539799
20
-32.8012786853879
30
0
41
1
10
23.3698281061888
20
-32.8151925112722
30
0
41
1
10
23.3819396122259
20
-32.8302809269209
30
0
41
1
10
23.4078955186128
20
-32.8626924565947
30
0
41
1
10
23.4494455323451
20
-32.9146832161013
30
0
41
1
10
23.4986723118866
20
-32.9767112058716
30
0
41
1
10
23.6068776770932
20
-33.1139531471415
30
0
41
1
10
23.6920191584043
20
-33.2230209579492
30
0
41
1
10
23.8856008947899
20
-33.4754553325814
30
0
41
1
10
23.9940349307073
20
-33.6188226452442
30
0
41
1
10
24.2314832587853
20
-33.9392600515963
30
0
41
1
10
24.3604933902281
20
-34.1163308139811
30
0
41
1
10
24.6365397552542
20
-34.5038077448654
30
0
41
1
10
24.9306077467084
20
-34.9246211464185
30
0
41
1
10
25.4189021673279
20
-35.6553772005298
30
0
41
1
10
25.9484136969636
20
-36.485788830068
30
0
41
1
10
26.3255354773258
20
-37.1062907818427
30
0
41
1
10
26.5194312307231
20
-37.4334730355497
30
0
0
SPLINE
5
118
100
AcDbEntity
8
1
62
256
6
ByLayer
370
18
48
1
60
0
100
AcDbSpline
70
4
71
3
72
33
73
29
40
0
40
0
40
0
40
0
40
0.124999999999998
40
0.124999999999998
40
0.1875
40
0.1875
40
0.250000000000003
40
0.250000000000003
40
0.375000000000017
40
0.375000000000017
40
0.406250000000019
40
0.406250000000019
40
0.437500000000021
40
0.437500000000021
40
0.50000000000003
40
0.50000000000003
40
0.625000000000048
40
0.625000000000048
40
0.656250000000047
40
0.656250000000047
40
0.687500000000046
40
0.687500000000046
40
0.750000000000038
40
0.812500000000029
40
0.812500000000029
40
0.875000000000021
40
0.875000000000021
40
1
40
1
40
1
40
1
41
1
10
26.2397368307142
20
-25.15
30
0
41
1
10
26.3071055833398
20
-25.15
30
0
41
1
10
26.3735131191916
20
-25.1560926942384
30
0
41
1
10
26.4716360316955
20
-25.1742157749651
30
0
41
1
10
26.504098023439
20
-25.181763718644
30
0
41
1
10
26.5685154439762
20
-25.1999671223352
30
0
41
1
10
26.6005995875381
20
-25.2106842391683
30
0
41
1
10
26.6942590620737
20
-25.2470074316852
30
0
41
1
10
26.753738324511
20
-25.276827698118
30
0
41
1
10
26.824343574264
20
-25.3211910993159
30
0
41
1
10
26.8382758559388
20
-25.3304211683832
30
0
41
1
10
26.8657552067247
20
-25.3496106169166
30
0
41
1
10
26.8793312425635
20
-25.3595926841377
30
0
41
1
10
26.9192581400166
20
-25.3905010109461
30
0
41
1
10
26.9446575522887
20
-25.4122590996417
30
0
41
1
10
27.0172761539094
20
-25.4809191664696
30
0
41
1
10
27.0609510550695
20
-25.5311735123489
30
0
41
1
10
27.1093565962416
20
-25.5998444499838
30
0
41
1
10
27.1187359240127
20
-25.6138950568421
30
0
41
1
10
27.1366582573277
20
-25.6422812788678
30
0
41
1
10
27.1452277297426
20
-25.6566521540188
30
0
41
1
10
27.1697769675414
20
-25.7002908544371
30
0
41
1
10
27.1994237772398
20
-25.7598760962674
30
0
41
1
10
27.2229298975584
20
-25.8222481913017
30
0
41
1
10
27.243288334741
20
-25.8860488117489
30
0
41
1
10
27.2519070702828
20
-25.9188048337166
30
0
41
1
10
27.2724024636082
20
-26.0170990317204
30
0
41
1
10
27.2792156108743
20
-26.0832436260612
30
0
41
1
10
27.2792156108743
20
-26.15
30
0
0
SPLINE
5
119
100
AcDbEntity
8
1
62
256
6
ByLayer
370
18
48
1
60
0
100
AcDbSpline
70
4
71
3
72
10
73
6
40
0
40
0
40
0
40
0
40
0.5
40
0.5
40
1
40
1
40
1
40
1
41
1
10
56.774406808652
20
-31.5
30
0
41
1
10
56.7500276017552
20
-31.6987259197105
30
0
41
1
10
56.7254644548847
20
-31.8974008333148
30
0
41
1
10
56.675659196619
20
-32.2945563783445
30
0
41
1
10
56.6504364378833
20
-32.4930413055018
30
0
41
1
10
56.6244952995973
20
-32.6913178851474
30
0
0
SPLINE
5
11A
100
AcDbEntity
8
1
62
256
6
ByLayer
370
18
48
1
60
0
100
AcDbSpline
70
4
71
3
72
8
73
4
40
0
40
0
40
0
40
0
40
1
40
1
40
1
40
1
41
1
10
56.9330397954621
20
-31.4159227623864
30
0
41
1
10
56.8802175315189
20
-31.444186305517
30
0
41
1
10
56.8273598960423
20
-31.4722980163781
30
0
41
1
10
56.774406808652
20
-31.5
30
0
0
SPLINE
5
11B
100
AcDbEntity
8
1
62
256
6
ByLayer
370
18
48
1
60
0
100
AcDbSpline
70
4
71
3
72
20
73
16
40
0
40
0
40
0
40
0
40
0.124999999999991
40
0.124999999999991
40
0.249999999999983
40
0.249999999999983
40
0.374999999999974
40
0.374999999999974
40
0.499999999999966
40
0.499999999999966
40
0.624999999999957
40
0.624999999999957
40
0.749999999999948
40
0.749999999999948
40
1
40
1
40
1
40
1
41
1
10
57.0000000000113
20
-31.2749688692704
30
0
41
1
10
57.0000000000112
20
-31.2827395802012
30
0
41
1
10
56.9995937631251
20
-31.2904457315629
30
0
41
1
10
56.9979798151933
20
-31.3057306632175
30
0
41
1
10
56.9967642469955
20
-31.3133082123662
30
0
41
1
10
56.9936086504077
20
-31.3279014713725
30
0
41
1
10
56.9916642630196
20
-31.334975103544
30
0
41
1
10
56.9870434392173
20
-31.3486770600967
30
0
41
1
10
56.9843397653764
20
-31.3553511564102
30
0
41
1
10
56.9783611160119
20
-31.3678241997689
30
0
41
1
10
56.9750781767345
20
-31.3736667010935
30
0
41
1
10
56.9679371835433
20
-31.3845799203337
30
0
41
1
10
56.964047082971
20
-31.3896850163107
30
0
41
1
10
56.9517092968702
20
-31.4035295253539
30
0
41
1
10
56.9427422487556
20
-31.410731282759
30
0
41
1
10
56.9330397954621
20
-31.4159227623864
30
0
0
SPLINE
5
11C
100
AcDbEntity
8
1
62
256
6
ByLayer
370
18
48
1
60
0
100
AcDbSpline
70
4
71
3
72
20
73
16
40
0
40
0
40
0
40
0
40
0.12500000000001
40
0.12500000000001
40
0.250000000000019
40
0.250000000000019
40
0.375000000000029
40
0.375000000000029
40
0.500000000000039
40
0.500000000000039
40
0.625000000000048
40
0.625000000000048
40
0.750000000000058
40
0.750000000000058
40
1
40
1
40
1
40
1
41
1
10
56.933039795462
20
-30.5840772376136
30
0
41
1
10
56.937890944132
20
-30.5866729357044
30
0
41
1
10
56.9425740123838
20
-30.5897898375515
30
0
41
1
10
56.9516060515023
20
-30.5970596501623
30
0
41
1
10
56.955976972961
20
-30.6012441397309
30
0
41
1
10
56.9641534857343
20
-30.6104500648764
30
0
41
1
10
56.9679840522906
20
-30.6154842294121
30
0
41
1
10
56.9751283008422
20
-30.6264174806153
30
0
41
1
10
56.9784667668225
20
-30.6323726527538
30
0
41
1
10
56.9844457620998
20
-30.6448943918017
30
0
41
1
10
56.9870887035604
20
-30.6514438932602
30
0
41
1
10
56.9916895717912
20
-30.6651134158443
30
0
41
1
10
56.9936571096375
20
-30.6722794185904
30
0
41
1
10
56.9984050459487
20
-30.6943684079368
30
0
41
1
10
57
20
-30.7094958819083
30
0
41
1
10
57
20
-30.7250311307315
30
0
0
SPLINE
5
11D
100
AcDbEntity
8
1
62
256
6
ByLayer
370
18
48
1
60
0
100
AcDbSpline
70
4
71
3
72
8
73
4
40
0
40
0
40
0
40
0
40
1
40
1
40
1
40
1
41
1
10
56.774406808652
20
-30.5
30
0
41
1
10
56.8273535334487
20
-30.5276986550821
30
0
41
1
10
56.8802128688876
20
-30.5558111996547
30
0
41
1
10
56.933039795462
20
-30.5840772376136
30
0
0
SPLINE
5
11E
100
AcDbEntity
8
1
62
256
6
ByLayer
370
18
48
1
60
0
100
AcDbSpline
70
4
71
3
72
10
73
6
40
0
40
0
40
0
40
0
40
0.5
40
0.5
40
1
40
1
40
1
40
1
41
1
10
56.6294584159912
20
-29.3466892080321
30
0
41
1
10
56.654479892544
20
-29.5386607419154
30
0
41
1
10
56.6788620697519
20
-29.7308151123515
30
0
41
1
10
56.7270330186287
20
-30.1152935643675
30
0
41
1
10
56.750806356288
20
-30.3076220600003
30
0
41
1
10
56.774406808652
20
-30.5
30
0
0
SPLINE
5
11F
100
AcDbEntity
8
1
62
256
6
ByLayer
370
18
48
1
60
0
100
AcDbSpline
70
4
71
3
72
76
73
72
40
0
40
0
40
0
40
0
40
0.0156006619897699
40
0.0234133551485815
40
0.0234133551485815
40
0.0312260483073933
40
0.0312260483073933
40
0.0624768209426401
40
0.0624768209426401
40
0.124978366213134
40
0.124978366213134
40
0.140603752530757
40
0.140603752530757
40
0.156229138848379
40
0.156229138848379
40
0.187479911483625
40
0.187479911483625
40
0.249981456754117
40
0.249981456754117
40
0.26560684307174
40
0.26560684307174
40
0.281232229389362
40
0.281232229389362
40
0.312483002024608
40
0.343733774659853
40
0.343733774659853
40
0.359359160977476
40
0.359359160977476
40
0.374984547295099
40
0.374984547295099
40
0.437486092565589
40
0.437486092565589
40
0.4452987857244
40
0.4452987857244
40
0.453111478883211
40
0.453111478883211
40
0.468736865200834
40
0.468736865200834
40
0.49998763783608
40
0.49998763783608
40
0.562489183106571
40
0.562489183106571
40
0.570301876265383
40
0.570301876265383
40
0.578114569424195
40
0.593739955741818
40
0.593739955741818
40
0.624990728377063
40
0.656241501012309
40
0.656241501012309
40
0.671866887329931
40
0.671866887329931
40
0.687492273647554
40
0.687492273647554
40
0.749993818918042
40
0.749993818918042
40
0.781244591553286
40
0.781244591553286
40
0.796869977870908
40
0.796869977870908
40
0.812495364188531
40
0.812495364188531
40
0.874996909459022
40
0.874996909459022
40
0.890622295776644
40
0.890622295776644
40
0.906247682094266
40
0.906247682094266
40
0.937498454729511
40
0.937498454729511
40
1
40
1
40
1
40
1
41
1
10
23.3998564975254
20
13.5557915242736
30
0
41
1
10
23.3696741491757
20
13.5608860362108
30
0
41
1
10
23.3246163787057
20
13.5690260870028
30
0
41
1
10
23.2799186105728
20
13.5778922451927
30
0
41
1
10
23.2501690457503
20
13.5839692777688
30
0
41
1
10
23.235311817081
20
13.5870927896154
30
0
41
1
10
23.1615740623556
20
13.6030303309865
30
0
41
1
10
23.1043080993928
20
13.6168024580588
30
0
41
1
10
22.9373157124683
20
13.660701052808
30
0
41
1
10
22.8323553471518
20
13.6934104308387
30
0
41
1
10
22.7085938628021
20
13.7371270161613
30
0
41
1
10
22.6842167547325
20
13.7460118542995
30
0
41
1
10
22.6362127464181
20
13.7640264480696
30
0
41
1
10
22.612540438792
20
13.7731750572769
30
0
41
1
10
22.5432623528626
20
13.8006830565078
30
0
41
1
10
22.4992312561382
20
13.8191606389638
30
0
41
1
10
22.3733143649406
20
13.8744569978232
30
0
41
1
10
22.2975407694032
20
13.9111647657376
30
0
41
1
10
22.2130670335622
20
13.9547963346774
30
0
41
1
10
22.1966693515554
20
13.9634194261744
30
0
41
1
10
22.1652007797072
20
13.9802291996747
30
0
41
1
10
22.1500955925367
20
13.9884331756963
30
0
41
1
10
22.1066520749861
20
14.012364496204
30
0
41
1
10
22.0537093267033
20
14.0424608079925
30
0
41
1
10
22.0108107989828
20
14.0680456508644
30
0
41
1
10
21.9825615911369
20
14.0851711140935
30
0
41
1
10
21.9737833740289
20
14.0905460782348
30
0
41
1
10
21.9577395977301
20
14.1004416105568
30
0
41
1
10
21.9504544675298
20
14.1049737861736
30
0
41
1
10
21.9176810824344
20
14.1254801153753
30
0
41
1
10
21.9030455275734
20
14.1349812264351
30
0
41
1
10
21.9000959147006
20
14.1368800712045
30
0
41
1
10
21.8999576438537
20
14.1369691296005
30
0
41
1
10
21.9000648168145
20
14.1369001172728
30
0
41
1
10
21.9003113371246
20
14.1367413530294
30
0
41
1
10
21.9016254568771
20
14.1358955544075
30
0
41
1
10
21.9032638624288
20
14.1348411810574
30
0
41
1
10
21.910395561038
20
14.1302656986936
30
0
41
1
10
21.9180998860267
20
14.1253322761841
30
0
41
1
10
21.9497135997203
20
14.1053527176357
30
0
41
1
10
21.9820437012273
20
14.0851276112853
30
0
41
1
10
22.0311612828635
20
14.056007577199
30
0
41
1
10
22.0368047630406
20
14.0526793873346
30
0
41
1
10
22.0483824156299
20
14.0458918914105
30
0
41
1
10
22.0662034780283
20
14.0355028767803
30
0
41
1
10
22.0853659019203
20
14.0245298056201
30
0
41
1
10
22.1254359581853
20
14.001901969858
30
0
41
1
10
22.1835070203473
20
13.9699173195458
30
0
41
1
10
22.2506572194319
20
13.9352317609174
30
0
41
1
10
22.3044591665434
20
13.9085141731086
30
0
41
1
10
22.3229674563083
20
13.8994908520489
30
0
41
1
10
22.3611522536351
20
13.8812581635868
30
0
41
1
10
22.3808528143608
20
13.8720377837362
30
0
41
1
10
22.4820885672362
20
13.8257092871332
30
0
41
1
10
22.5702528372856
20
13.7886237842951
30
0
41
1
10
22.7134669546824
20
13.7351198043512
30
0
41
1
10
22.7630460125683
20
13.7176349655995
30
0
41
1
10
22.8403259852775
20
13.6921883255634
30
0
41
1
10
22.8666187851308
20
13.683822048479
30
0
41
1
10
22.9199982735118
20
13.6674594322328
30
0
41
1
10
22.9469971424092
20
13.6594889869755
30
0
41
1
10
23.0835411442014
20
13.6207674969675
30
0
41
1
10
23.1976946872961
20
13.5934007631182
30
0
41
1
10
23.346996394937
20
13.5649615812184
30
0
41
1
10
23.3771898386507
20
13.5595628818726
30
0
41
1
10
23.4382657595037
20
13.5493791057952
30
0
41
1
10
23.469186290046
20
13.5445908337304
30
0
41
1
10
23.5619463220597
20
13.5313438920988
30
0
41
1
10
23.6241160878735
20
13.5239429036278
30
0
41
1
10
23.8116117763201
20
13.5060979164939
30
0
41
1
10
23.937916979337
20
13.5
30
0
41
1
10
24.0656038219736
20
13.5
30
0
0
SPLINE
5
120
100
AcDbEntity
8
1
62
256
6
ByLayer
370
18
48
1
60
0
100
AcDbSpline
70
4
71
3
72
8
73
4
40
0
40
0
40
0
40
0
40
1
40
1
40
1
40
1
41
1
10
56.6294584159908
20
-29.3466892080348
30
0
41
1
10
56.5895992555696
20
-29.3463681225278
30
0
41
1
10
56.5487843117671
20
-29.3462152082549
30
0
41
1
10
56.5069785591193
20
-29.3462311317099
30
0
0
SPLINE
5
121
100
AcDbEntity
8
1
62
256
6
ByLayer
370
18
48
1
60
0
100
AcDbSpline
70
4
71
3
72
9
73
5
40
0
40
0
40
0
40
0
40
0.0072278948956335
40
1
40
1
40
1
40
1
41
1
10
27.3701313536522
20
-32.6762025596942
30
0
41
1
10
27.3699858438204
20
-32.676209856939
30
0
41
1
10
27.3497811198329
20
-32.6772239928907
30
0
41
1
10
27.3194753275135
20
-32.6788662119054
30
0
41
1
10
27.2792156108742
20
-32.6810882154556
30
0
0
SPLINE
5
122
100
AcDbEntity
8
1
62
256
6
ByLayer
370
18
48
1
60
0
100
AcDbSpline
70
4
71
3
72
37
73
33
40
0
40
0
40
0
40
0
40
0.124999999999949
40
0.124999999999949
40
0.156249999999943
40
0.156249999999943
40
0.187499999999936
40
0.187499999999936
40
0.249999999999932
40
0.312499999999928
40
0.312499999999928
40
0.34374999999993
40
0.34374999999993
40
0.374999999999931
40
0.374999999999931
40
0.499999999999942
40
0.499999999999942
40
0.562499999999948
40
0.562499999999948
40
0.593749999999953
40
0.593749999999953
40
0.624999999999958
40
0.624999999999958
40
0.749999999999988
40
0.749999999999988
40
0.781249999999992
40
0.781249999999992
40
0.812499999999995
40
0.812499999999995
40
0.874999999999995
40
0.874999999999995
40
1
40
1
40
1
40
1
41
1
10
46.9999999999997
20
-29.3500059118533
30
0
41
1
10
46.8937380855656
20
-29.3500498203275
30
0
41
1
10
46.7887385244475
20
-29.3396642543006
30
0
41
1
10
46.6590474789627
20
-29.3138068564867
30
0
41
1
10
46.6331259463064
20
-29.307969011338
30
0
41
1
10
46.5818120457043
20
-29.2950708165003
30
0
41
1
10
46.5564198507641
20
-29.2880148609911
30
0
41
1
10
46.4810214313724
20
-29.265063325249
30
0
41
1
10
46.3825615618906
20
-29.2297134251983
30
0
41
1
10
46.288167847463
20
-29.1850433018126
30
0
41
1
10
46.2189130811698
20
-29.1480096127318
30
0
41
1
10
46.1960853687966
20
-29.1350754873187
30
0
41
1
10
46.1509527119203
20
-29.1080089759154
30
0
41
1
10
46.1285929012755
20
-29.0938373001318
30
0
41
1
10
46.019228633607
20
-29.0206714695622
30
0
41
1
10
45.9388703312396
20
-28.9545338990764
30
0
41
1
10
45.828655874626
20
-28.8443217685581
30
0
41
1
10
45.7936508339527
20
-28.8057366497004
30
0
41
1
10
45.7438100915786
20
-28.7450157655609
30
0
41
1
10
45.7276099583906
20
-28.7242533356752
30
0
41
1
10
45.6964412921931
20
-28.6822048670106
30
0
41
1
10
45.6814363637152
20
-28.6608788924216
30
0
41
1
10
45.6092542025705
20
-28.5527687223072
30
0
41
1
10
45.5605239846993
20
-28.4615855207666
30
0
41
1
10
45.5108399976232
20
-28.3417588323967
30
0
41
1
10
45.5014696544122
20
-28.3174984987375
30
0
41
1
10
45.4838814544322
20
-28.2683776436708
30
0
41
1
10
45.4756522744584
20
-28.2434696005857
30
0
41
1
10
45.452961377739
20
-28.168626035058
30
0
41
1
10
45.4404019107891
20
-28.1183500694164
30
0
41
1
10
45.4102123580338
20
-27.9664131776933
30
0
41
1
10
45.4
20
-27.8636537887499
30
0
41
1
10
45.4
20
-27.7593820908648
30
0
0
SPLINE
5
123
100
AcDbEntity
8
1
62
256
6
ByLayer
370
18
48
1
60
0
100
AcDbSpline
70
4
71
3
72
10
73
6
40
0
40
0
40
0
40
0
40
0.5
40
0.5
40
1
40
1
40
1
40
1
41
1
10
45.4
20
-28.8654091376712
30
0
41
1
10
45.3999999999999
20
-28.9421819611221
30
0
41
1
10
45.4061115398003
20
-29.0189791393202
30
0
41
1
10
45.4303393584891
20
-29.1722926234823
30
0
41
1
10
45.4484541000963
20
-29.2488127072334
30
0
41
1
10
45.4728574338232
20
-29.325
30
0
0
SPLINE
5
124
100
AcDbEntity
8
1
62
256
6
ByLayer
370
18
48
1
60
0
100
AcDbSpline
70
4
71
3
72
35
73
31
40
0
40
0
40
0
40
0
40
0.0624999999999921
40
0.0624999999999921
40
0.124999999999984
40
0.124999999999984
40
0.249999999999969
40
0.249999999999969
40
0.31249999999996
40
0.34374999999996
40
0.34374999999996
40
0.37499999999996
40
0.37499999999996
40
0.499999999999965
40
0.499999999999965
40
0.562499999999971
40
0.562499999999971
40
0.593749999999973
40
0.593749999999973
40
0.624999999999975
40
0.624999999999975
40
0.749999999999988
40
0.749999999999988
40
0.781249999999992
40
0.781249999999992
40
0.812499999999996
40
0.812499999999996
40
0.874999999999996
40
0.874999999999996
40
1
40
1
40
1
40
1
41
1
10
47
20
-30.2518989363535
30
0
41
1
10
46.9619363585652
20
-30.2571210236411
30
0
41
1
10
46.9237697212454
20
-30.2609977162626
30
0
41
1
10
46.8472251996597
20
-30.2659916658812
30
0
41
1
10
46.8087888846333
20
-30.2671041396302
30
0
41
1
10
46.6940494476282
20
-30.2661616143757
30
0
41
1
10
46.6180726611567
20
-30.2598846581774
30
0
41
1
10
46.5049279108643
20
-30.2414910407487
30
0
41
1
10
46.4485614648463
20
-30.2300406933495
30
0
41
1
10
46.3925214374381
20
-30.2150182579648
30
0
41
1
10
46.3552366666519
20
-30.2041798472548
30
0
41
1
10
46.336603318526
20
-30.1983388495602
30
0
41
1
10
46.2441716584659
20
-30.1671830893147
30
0
41
1
10
46.1723251476653
20
-30.136009911209
30
0
41
1
10
46.0679861436627
20
-30.079036125911
30
0
41
1
10
46.0337809003334
20
-30.058334694895
30
0
41
1
10
45.9834002145223
20
-30.0245221632311
30
0
41
1
10
45.9667267929235
20
-30.0127642076492
30
0
41
1
10
45.9338952678586
20
-29.9884283803997
30
0
41
1
10
45.9177467636711
20
-29.9758606647683
30
0
41
1
10
45.8383564766363
20
-29.9109992280645
30
0
41
1
10
45.7791382251222
20
-29.8526865521842
30
0
41
1
10
45.711045948809
20
-29.7709239880086
30
0
41
1
10
45.6977262194663
20
-29.7541245996149
30
0
41
1
10
45.6717081745901
20
-29.7195962260816
30
0
41
1
10
45.6590113081616
20
-29.7018622066134
30
0
41
1
10
45.6223083578951
20
-29.6478501157926
30
0
41
1
10
45.5995350791613
20
-29.6105682679769
30
0
41
1
10
45.536321236063
20
-29.4948863894488
30
0
41
1
10
45.5009428955605
20
-29.4126829092213
30
0
41
1
10
45.4728574338232
20
-29.325
30
0
0
SPLINE
5
125
100
AcDbEntity
8
1
62
256
6
ByLayer
370
18
48
1
60
0
100
AcDbSpline
70
4
71
3
72
10
73
6
40
0
40
0
40
0
40
0
40
0.5
40
0.5
40
1
40
1
40
1
40
1
41
1
10
21.4383186059721
20
-25.15
30
0
41
1
10
21.5073454624157
20
-25.15
30
0
41
1
10
21.5936649915302
20
-25.15
30
0
41
1
10
21.7972762663648
20
-25.15
30
0
41
1
10
21.9145475700807
20
-25.15
30
0
41
1
10
22.0452164507293
20
-25.15
30
0
0
SPLINE
5
126
100
AcDbEntity
8
1
62
256
6
ByLayer
370
18
48
1
60
0
100
AcDbSpline
70
4
71
3
72
26
73
22
40
0
40
0
40
0
40
0
40
0.125000000000008
40
0.125000000000008
40
0.250000000000016
40
0.250000000000016
40
0.375000000000024
40
0.375000000000024
40
0.437500000000024
40
0.437500000000024
40
0.500000000000023
40
0.500000000000023
40
0.62500000000002
40
0.62500000000002
40
0.687500000000016
40
0.687500000000016
40
0.750000000000012
40
0.750000000000012
40
0.875000000000006
40
0.875000000000006
40
1
40
1
40
1
40
1
41
1
10
21.4383186059721
20
-25.589659530439
30
0
41
1
10
21.4280993217987
20
-25.5547041161612
30
0
41
1
10
21.4164250425089
20
-25.5220606024185
30
0
41
1
10
21.3908676442061
20
-25.4608112468156
30
0
41
1
10
21.3769801014244
20
-25.4322089639123
30
0
41
1
10
21.3475766188662
20
-25.3787417223382
30
0
41
1
10
21.3320569967699
20
-25.3538776642512
30
0
41
1
10
21.3079972754771
20
-25.3193159187441
30
0
41
1
10
21.2998971034367
20
-25.3083247595893
30
0
41
1
10
21.2836932181025
20
-25.2874520260504
30
0
41
1
10
21.275578493945
20
-25.277554796389
30
0
41
1
10
21.2513358761467
20
-25.2494367389821
30
0
41
1
10
21.2353023835193
20
-25.2327802464766
30
0
41
1
10
21.2120964141049
20
-25.2109178346418
30
0
41
1
10
21.2045033255989
20
-25.2041529907878
30
0
41
1
10
21.1897363033316
20
-25.1916973046665
30
0
41
1
10
21.1826336751786
20
-25.1860663760904
30
0
41
1
10
21.162374395983
20
-25.1709589861924
30
0
41
1
10
21.1502559577502
20
-25.1632534201059
30
0
41
1
10
21.1300054568013
20
-25.1527760292951
30
0
41
1
10
21.1218738751806
20
-25.15
30
0
41
1
10
21.11644918328
20
-25.15
30
0
0
SPLINE
5
127
100
AcDbEntity
8
1
62
256
6
ByLayer
370
18
48
1
60
0
100
AcDbSpline
70
4
71
3
72
31
73
27
40
0
40
0
40
0
40
0
40
0.0234755079350065
40
0.0234755079350065
40
0.0293443849187581
40
0.0293443849187581
40
0.0352132619025097
40
0.0469510158700129
40
0.0939020317400264
40
0.187804063480053
40
0.187804063480053
40
0.375608126960107
40
0.375608126960107
40
0.469510158700134
40
0.469510158700134
40
0.563412190440161
40
0.563412190440161
40
0.657314222180188
40
0.657314222180188
40
0.751216253920216
40
0.751216253920216
40
0.845118285660243
40
0.845118285660243
40
0.93902031740027
40
0.93902031740027
40
1
40
1
40
1
40
1
41
1
10
21.4383186059721
20
-25.15
30
0
41
1
10
21.4352764904254
20
-25.15
30
0
41
1
10
21.432089395682
20
-25.15
30
0
41
1
10
21.4279338744324
20
-25.15
30
0
41
1
10
21.4270854740373
20
-25.15
30
0
41
1
10
21.4253754180396
20
-25.15
30
0
41
1
10
21.422784669936
20
-25.15
30
0
41
1
10
21.4130069032097
20
-25.15
30
0
41
1
10
21.3877658048805
20
-25.15
30
0
41
1
10
21.3602831824582
20
-25.15
30
0
41
1
10
21.301077194839
20
-25.15
30
0
41
1
10
21.2559208195015
20
-25.15
30
0
41
1
10
21.1850417331747
20
-25.15
30
0
41
1
10
21.1608954295142
20
-25.15
30
0
41
1
10
21.1126090080194
20
-25.15
30
0
41
1
10
21.0884667435637
20
-25.15
30
0
41
1
10
21.0414356399343
20
-25.15
30
0
41
1
10
21.0185451573696
20
-25.15
30
0
41
1
10
20.9755352241285
20
-25.15
30
0
41
1
10
20.9554183968521
20
-25.15
30
0
41
1
10
20.9197454728762
20
-25.15
30
0
41
1
10
20.9042014715544
20
-25.15
30
0
41
1
10
20.8795352807617
20
-25.15
30
0
41
1
10
20.8704350840159
20
-25.15
30
0
41
1
10
20.8618842602957
20
-25.15
30
0
41
1
10
20.86017609151
20
-25.15
30
0
41
1
10
20.8601636059712
20
-25.15
30
0
0
SPLINE
5
128
100
AcDbEntity
8
1
62
256
6
ByLayer
370
18
48
1
60
0
100
AcDbSpline
70
4
71
3
72
61
73
57
40
0
40
0
40
0
40
0
40
0.0156250000000013
40
0.0156250000000013
40
0.0234375000000013
40
0.0234375000000013
40
0.0312500000000014
40
0.0312500000000014
40
0.0468750000000013
40
0.0468750000000013
40
0.0625000000000013
40
0.0625000000000013
40
0.0937500000000013
40
0.0937500000000013
40
0.125000000000001
40
0.125000000000001
40
0.156250000000001
40
0.156250000000001
40
0.187500000000001
40
0.187500000000001
40
0.250000000000001
40
0.250000000000001
40
0.312500000000001
40
0.312500000000001
40
0.375
40
0.375
40
0.4375
40
0.4375
40
0.5
40
0.5
40
0.531249999999999
40
0.546874999999999
40
0.546874999999999
40
0.562499999999999
40
0.562499999999999
40
0.625
40
0.625
40
0.687500000000001
40
0.687500000000001
40
0.750000000000002
40
0.750000000000002
40
0.781250000000002
40
0.781250000000002
40
0.796875000000002
40
0.796875000000002
40
0.812500000000002
40
0.812500000000002
40
0.875000000000001
40
0.875000000000001
40
0.9375
40
0.9375
40
0.953125
40
0.953125
40
0.96875
40
0.96875
40
1
40
1
40
1
40
1
41
1
10
20.077973744624
20
17.1856652004364
30
0
41
1
10
20.0782833840517
20
17.18173713553
30
0
41
1
10
20.0790422834235
20
17.1721313950096
30
0
41
1
10
20.0807125571893
20
17.1526035570968
30
0
41
1
10
20.0813607706145
20
17.1452156909491
30
0
41
1
10
20.0828186912572
20
17.1292073344895
30
0
41
1
10
20.0836234064486
20
17.1206410927857
30
0
41
1
10
20.0862480178867
20
17.0937338004348
30
0
41
1
10
20.0882774046319
20
17.0742119606892
30
0
41
1
10
20.0928541544716
20
17.0334370740541
30
0
41
1
10
20.0954049613862
20
17.012144750492
30
0
41
1
10
20.1037940915949
20
16.9468358212932
30
0
41
1
10
20.1103601830094
20
16.901479990178
30
0
41
1
10
20.125402778749
20
16.8093523440308
30
0
41
1
10
20.1338809349975
20
16.7625244934837
30
0
41
1
10
20.1527574843076
20
16.6681655690605
30
0
41
1
10
20.1631450681696
20
16.6206767519171
30
0
41
1
10
20.1858199834413
20
16.5254893196971
30
0
41
1
10
20.1981089077088
20
16.4777782636631
30
0
41
1
10
20.2378629611352
20
16.3345744714207
30
0
41
1
10
20.2682185183511
20
16.2390013055807
30
0
41
1
10
20.3368833433241
20
16.0484847766574
30
0
41
1
10
20.3749980238826
20
15.9540638504604
30
0
41
1
10
20.458949103066
20
15.7672185729476
30
0
41
1
10
20.5047848189075
20
15.6747895402123
30
0
41
1
10
20.6044869621591
20
15.4921416190818
30
0
41
1
10
20.658352041149
20
15.4019207458957
30
0
41
1
10
20.7746038381532
20
15.22390238326
30
0
41
1
10
20.8369882092196
20
15.1361035374011
30
0
41
1
10
20.9375010157429
20
15.0064154017051
30
0
41
1
10
20.9894945624029
20
14.9420745439353
30
0
41
1
10
21.0442298157768
20
14.8785331826108
30
0
41
1
10
21.0813471403978
20
14.8363556509053
30
0
41
1
10
21.1002353339217
20
14.8153411280671
30
0
41
1
10
21.196101252241
20
14.7109479281358
30
0
41
1
10
21.2769613083256
20
14.6300068255253
30
0
41
1
10
21.4475231366091
20
14.4736091766961
30
0
41
1
10
21.5372220451443
20
14.398150717263
30
0
41
1
10
21.726242939305
20
14.2532209741255
30
0
41
1
10
21.8255597284093
20
14.1837463672678
30
0
41
1
10
21.9826333019614
20
14.0845838120091
30
0
41
1
10
22.0363444205531
20
14.0523733730021
30
0
41
1
10
22.1190921560817
20
14.0054187512799
30
0
41
1
10
22.1469722526985
20
13.9900327774407
30
0
41
1
10
22.2031798382598
20
13.9598878680263
30
0
41
1
10
22.2315312370221
20
13.9451153048826
30
0
41
1
10
22.3745451308206
20
13.8727752230832
30
0
41
1
10
22.4929658167456
20
13.8197607766531
30
0
41
1
10
22.7384971042966
20
13.724269766463
30
0
41
1
10
22.8656024136678
20
13.6817867347527
30
0
41
1
10
23.0305776725185
20
13.6360780138735
30
0
41
1
10
23.0638236176502
20
13.6273245965003
30
0
41
1
10
23.1304353764729
20
13.6107020765715
30
0
41
1
10
23.1638563765091
20
13.6028174484725
30
0
41
1
10
23.2644655429174
20
13.5804466275912
30
0
41
1
10
23.3319996376254
20
13.5672426170971
30
0
41
1
10
23.4
20
13.5557673050168
30
0
0
SPLINE
5
129
100
AcDbEntity
8
1
62
256
6
ByLayer
370
18
48
1
60
0
100
AcDbSpline
70
4
71
3
72
26
73
22
40
0
40
0
40
0
40
0
40
0.0625000000000007
40
0.0625000000000007
40
0.0937500000000007
40
0.0937500000000007
40
0.125000000000001
40
0.125000000000001
40
0.250000000000001
40
0.250000000000001
40
0.375000000000001
40
0.375000000000001
40
0.5
40
0.5
40
0.625
40
0.625
40
0.75
40
0.75
40
0.875
40
0.875
40
1
40
1
40
1
40
1
41
1
10
21.4383186059721
20
-22.3337405327215
30
0
41
1
10
21.4251087737332
20
-22.2697900235484
30
0
41
1
10
21.4092357602441
20
-22.2072335426144
30
0
41
1
10
21.3821947961361
20
-22.1151812768342
30
0
41
1
10
21.3726396686351
20
-22.0847958438382
30
0
41
1
10
21.3525474478783
20
-22.0245852907082
30
0
41
1
10
21.3419894424996
20
-21.9947068927049
30
0
41
1
10
21.2873228981266
20
-21.8475651537303
30
0
41
1
10
21.2375943351222
20
-21.7366141466075
30
0
41
1
10
21.131488493698
20
-21.5247948365914
30
0
41
1
10
21.0750527748138
20
-21.4239471729721
30
0
41
1
10
20.9595068649615
20
-21.2301457438596
30
0
41
1
10
20.9014564295983
20
-21.1389257528605
30
0
41
1
10
20.7877561403076
20
-20.9644728392687
30
0
41
1
10
20.7320953656148
20
-20.8812537011921
30
0
41
1
10
20.6253234688502
20
-20.7200458097035
30
0
41
1
10
20.5742075667729
20
-20.642061665901
30
0
41
1
10
20.4781261880455
20
-20.4888789659664
30
0
41
1
10
20.4331582702033
20
-20.4136809203025
30
0
41
1
10
20.3505216716455
20
-20.2638762053675
30
0
41
1
10
20.312851200709
20
-20.1892679334587
30
0
41
1
10
20.2792076144253
20
-20.113995121038
30
0
0
SPLINE
5
12A
100
AcDbEntity
8
1
62
256
6
ByLayer
370
18
48
1
60
0
100
AcDbSpline
70
4
71
3
72
10
73
6
40
0
40
0
40
0
40
0
40
0.5
40
0.5
40
1
40
1
40
1
40
1
41
1
10
22.0452164507293
20
-25.15
30
0
41
1
10
21.9401268744199
20
-24.6797499617203
30
0
41
1
10
21.8368097834279
20
-24.2099479615162
30
0
41
1
10
21.6342961592223
20
-23.2712050855947
30
0
41
1
10
21.5350983866006
20
-22.8022639883483
30
0
41
1
10
21.4383186059721
20
-22.3337405327215
30
0
0
SPLINE
5
12B
100
AcDbEntity
8
1
62
256
6
ByLayer
370
18
48
1
60
0
100
AcDbSpline
70
4
71
3
72
26
73
22
40
0
40
0
40
0
40
0
40
0.249999999999997
40
0.249999999999997
40
0.374999999999996
40
0.374999999999996
40
0.499999999999994
40
0.499999999999994
40
0.562499999999996
40
0.562499999999996
40
0.624999999999999
40
0.624999999999999
40
0.750000000000006
40
0.750000000000006
40
0.875000000000012
40
0.875000000000012
40
0.906250000000011
40
0.906250000000011
40
0.937500000000009
40
0.937500000000009
40
1
40
1
40
1
40
1
41
1
10
11.8943375672975
20
-23.6665017920808
30
0
41
1
10
11.8788862370737
20
-23.686033116806
30
0
41
1
10
11.8602443227467
20
-23.7051129235882
30
0
41
1
10
11.8262196262291
20
-23.7324910902464
30
0
41
1
10
11.8138519277098
20
-23.7414211400326
30
0
41
1
10
11.7865761040498
20
-23.7588292909636
30
0
41
1
10
11.7716769242357
20
-23.7673085978343
30
0
41
1
10
11.7468017366172
20
-23.7796095569562
30
0
41
1
10
11.7380555263963
20
-23.7836514357395
30
0
41
1
10
11.719773612984
20
-23.7914778883489
30
0
41
1
10
11.7102266942346
20
-23.7952700628808
30
0
41
1
10
11.6801688454703
20
-23.8062336877525
30
0
41
1
10
11.6582924559948
20
-23.813005969379
30
0
41
1
10
11.6089650834003
20
-23.8249896713849
30
0
41
1
10
11.582404000511
20
-23.8299833264009
30
0
41
1
10
11.5458956692735
20
-23.8344558067494
30
0
41
1
10
11.5384012334116
20
-23.8352611656444
30
0
41
1
10
11.5233488813096
20
-23.8366445991221
30
0
41
1
10
11.5157579869923
20
-23.8372273769848
30
0
41
1
10
11.4927843117432
20
-23.8386381480423
30
0
41
1
10
11.4772013120199
20
-23.8391299750502
30
0
41
1
10
11.4613248654052
20
-23.8391299750502
30
0
0
SPLINE
5
12C
100
AcDbEntity
8
1
62
256
6
ByLayer
370
18
48
1
60
0
100
AcDbSpline
70
4
71
3
72
30
73
26
40
0
40
0
40
0
40
0
40
0.0625000000000051
40
0.0625000000000051
40
0.12500000000001
40
0.12500000000001
40
0.156250000000009
40
0.156250000000009
40
0.187500000000007
40
0.187500000000007
40
0.250000000000006
40
0.250000000000006
40
0.312500000000005
40
0.312500000000005
40
0.375000000000004
40
0.375000000000004
40
0.500000000000004
40
0.500000000000004
40
0.562500000000002
40
0.562500000000002
40
0.625000000000001
40
0.625000000000001
40
0.749999999999997
40
0.749999999999997
40
1
40
1
40
1
40
1
41
1
10
8.5386751345948
20
-23.8391299750504
30
0
41
1
10
8.52282418317805
20
-23.8391299750504
30
0
41
1
10
8.50706439724274
20
-23.838635326325
30
0
41
1
10
8.47609922674792
20
-23.8367207404254
30
0
41
1
10
8.46115505954
20
-23.8353222152631
30
0
41
1
10
8.4394278909337
20
-23.8326565134122
30
0
41
1
10
8.43230089820059
20
-23.8316728303992
30
0
41
1
10
8.41826331057831
20
-23.8295263669799
30
0
41
1
10
8.41133341861178
20
-23.8283593459882
30
0
41
1
10
8.39116971420628
20
-23.8246655611124
30
0
41
1
10
8.3784538615962
20
-23.8219342456095
30
0
41
1
10
8.35418344395191
20
-23.816035844018
30
0
41
1
10
8.34263086450954
20
-23.8128680383081
30
0
41
1
10
8.32050044167417
20
-23.8061604830514
30
0
41
1
10
8.30988749524428
20
-23.8026065911347
30
0
41
1
10
8.2796227406684
20
-23.7915679133937
30
0
41
1
10
8.2615230214692
20
-23.7837256270429
30
0
41
1
10
8.23661756318495
20
-23.7714105724815
30
0
41
1
10
8.22868081710851
20
-23.7672030231185
30
0
41
1
10
8.21358407401561
20
-23.7586801045418
30
0
41
1
10
8.20641626669953
20
-23.7543620682907
30
0
41
1
10
8.18590373003093
20
-23.7412544902041
30
0
41
1
10
8.17354242877877
20
-23.7323123198157
30
0
41
1
10
8.13959628273548
20
-23.7049589195931
30
0
41
1
10
8.12110769698506
20
-23.6860254491251
30
0
41
1
10
8.10566243270267
20
-23.6665017920808
30
0
0
SPLINE
5
12D
100
AcDbEntity
8
1
62
256
6
ByLayer
370
18
48
1
60
0
100
AcDbSpline
70
4
71
3
72
26
73
22
40
0
40
0
40
0
40
0
40
0.250000000000016
40
0.250000000000016
40
0.375000000000019
40
0.375000000000019
40
0.500000000000023
40
0.500000000000023
40
0.562500000000021
40
0.562500000000021
40
0.62500000000002
40
0.62500000000002
40
0.750000000000015
40
0.750000000000015
40
0.87500000000001
40
0.87500000000001
40
0.906250000000008
40
0.906250000000008
40
0.937500000000005
40
0.937500000000005
40
1
40
1
40
1
40
1
41
1
10
8.1056624327025
20
-8.05584836782785
30
0
41
1
10
8.12111376292626
20
-7.99846916820718
30
0
41
1
10
8.13975567725333
20
-7.94172327888199
30
0
41
1
10
8.17378037377094
20
-7.85937042586593
30
0
41
1
10
8.18614807229017
20
-7.83234954293013
30
0
41
1
10
8.21342389595023
20
-7.77938351245618
30
0
41
1
10
8.22832307576428
20
-7.75343444963912
30
0
41
1
10
8.25319826338281
20
-7.71559105034078
30
0
41
1
10
8.26194447360365
20
-7.70312184666886
30
0
41
1
10
8.280226387016
20
-7.67891539799635
30
0
41
1
10
8.28977330576541
20
-7.66715495165656
30
0
41
1
10
8.31983115452977
20
-7.63307325241215
30
0
41
1
10
8.3417075440052
20
-7.61190750686274
30
0
41
1
10
8.39103491659975
20
-7.57431556968123
30
0
41
1
10
8.41759599948901
20
-7.55857361750117
30
0
41
1
10
8.45410433072652
20
-7.54444995843582
30
0
41
1
10
8.46159876658839
20
-7.54190496002266
30
0
41
1
10
8.47665111869043
20
-7.53753139400646
30
0
41
1
10
8.48424201300779
20
-7.53568798536665
30
0
41
1
10
8.50721568825682
20
-7.53122440152961
30
0
41
1
10
8.52279868798016
20
-7.52966679426518
30
0
41
1
10
8.53867513459488
20
-7.52966679426515
30
0
0
SPLINE
5
12E
100
AcDbEntity
8
1
62
256
6
ByLayer
370
18
48
1
60
0
100
AcDbSpline
70
4
71
3
72
30
73
26
40
0
40
0
40
0
40
0
40
0.0625000000000092
40
0.0625000000000092
40
0.125000000000019
40
0.125000000000019
40
0.156250000000021
40
0.156250000000021
40
0.187500000000023
40
0.187500000000023
40
0.250000000000021
40
0.250000000000021
40
0.31250000000002
40
0.31250000000002
40
0.375000000000019
40
0.375000000000019
40
0.500000000000016
40
0.500000000000016
40
0.562500000000016
40
0.562500000000016
40
0.625000000000016
40
0.625000000000016
40
0.750000000000011
40
0.750000000000011
40
1
40
1
40
1
40
1
41
1
10
11.4613248654052
20
-7.52966679426495
30
0
41
1
10
11.477175816822
20
-7.52966679426495
30
0
41
1
10
11.4929356027573
20
-7.53123335639165
30
0
41
1
10
11.5239007732521
20
-7.53729092133952
30
0
41
1
10
11.53884494046
20
-7.54171396614049
30
0
41
1
10
11.5605721090663
20
-7.55013193108829
30
0
41
1
10
11.5676991017995
20
-7.55323657194805
30
0
41
1
10
11.5817366894217
20
-7.56000567013078
30
0
41
1
10
11.5886665813883
20
-7.56368345606458
30
0
41
1
10
11.6088302857938
20
-7.57531366225038
30
0
41
1
10
11.6215461384038
20
-7.58390025536215
30
0
41
1
10
11.6458165560481
20
-7.60240297286816
30
0
41
1
10
11.6573691354905
20
-7.6123213786517
30
0
41
1
10
11.6794995583259
20
-7.63327217102551
30
0
41
1
10
11.6901125047557
20
-7.64434849039861
30
0
41
1
10
11.7203772593316
20
-7.67866353751202
30
0
41
1
10
11.7384769785308
20
-7.70292805784948
30
0
41
1
10
11.7633824368151
20
-7.74081492713998
30
0
41
1
10
11.7713191828915
20
-7.75372482186648
30
0
41
1
10
11.7864159259844
20
-7.77980127287398
30
0
41
1
10
11.7935837333005
20
-7.79297622996174
30
0
41
1
10
11.8140962699691
20
-7.8328550605851
30
0
41
1
10
11.8264575712212
20
-7.85991012495438
30
0
41
1
10
11.8604037172645
20
-7.94218253951274
30
0
41
1
10
11.8788923030149
20
-7.9984916943493
30
0
41
1
10
11.8943375672973
20
-8.05584836782793
30
0
0
SPLINE
5
12F
100
AcDbEntity
8
1
62
256
6
ByLayer
370
18
48
1
60
0
100
AcDbSpline
70
4
71
3
72
26
73
22
40
0
40
0
40
0
40
0
40
0.250000000000001
40
0.250000000000001
40
0.374999999999999
40
0.374999999999999
40
0.499999999999998
40
0.499999999999998
40
0.562499999999997
40
0.562499999999997
40
0.624999999999996
40
0.624999999999996
40
0.749999999999997
40
0.749999999999997
40
0.874999999999998
40
0.874999999999998
40
0.906249999999999
40
0.906249999999999
40
0.937499999999999
40
0.937499999999999
40
1
40
1
40
1
40
1
41
1
10
8.1056624327025
20
23.6665017920808
30
0
41
1
10
8.12111376292623
20
23.6860331168061
30
0
41
1
10
8.13975567725333
20
23.7051129235882
30
0
41
1
10
8.17378037377094
20
23.7324910902464
30
0
41
1
10
8.18614807229017
20
23.7414211400326
30
0
41
1
10
8.21342389595023
20
23.7588292909636
30
0
41
1
10
8.22832307576428
20
23.7673085978343
30
0
41
1
10
8.25319826338281
20
23.7796095569563
30
0
41
1
10
8.26194447360365
20
23.7836514357395
30
0
41
1
10
8.280226387016
20
23.7914778883489
30
0
41
1
10
8.28977330576538
20
23.7952700628808
30
0
41
1
10
8.31983115452977
20
23.8062336877526
30
0
41
1
10
8.3417075440052
20
23.813005969379
30
0
41
1
10
8.39103491659975
20
23.8249896713849
30
0
41
1
10
8.41759599948898
20
23.8299833264009
30
0
41
1
10
8.45410433072652
20
23.8344558067495
30
0
41
1
10
8.46159876658839
20
23.8352611656444
30
0
41
1
10
8.47665111869043
20
23.8366445991221
30
0
41
1
10
8.48424201300779
20
23.8372273769848
30
0
41
1
10
8.50721568825682
20
23.8386381480423
30
0
41
1
10
8.52279868798016
20
23.8391299750503
30
0
41
1
10
8.53867513459488
20
23.8391299750503
30
0
0
SPLINE
5
130
100
AcDbEntity
8
1
62
256
6
ByLayer
370
18
48
1
60
0
100
AcDbSpline
70
4
71
3
72
30
73
26
40
0
40
0
40
0
40
0
40
0.0625000000000043
40
0.0625000000000043
40
0.125000000000008
40
0.125000000000008
40
0.156250000000007
40
0.156250000000007
40
0.187500000000005
40
0.187500000000005
40
0.250000000000005
40
0.250000000000005
40
0.312500000000006
40
0.312500000000006
40
0.375000000000006
40
0.375000000000006
40
0.500000000000007
40
0.500000000000007
40
0.562500000000009
40
0.562500000000009
40
0.625000000000011
40
0.625000000000011
40
0.750000000000006
40
0.750000000000006
40
1
40
1
40
1
40
1
41
1
10
11.4613248654053
20
23.8391299750504
30
0
41
1
10
11.477175816822
20
23.8391299750504
30
0
41
1
10
11.4929356027573
20
23.838635326325
30
0
41
1
10
11.5239007732521
20
23.8367207404254
30
0
41
1
10
11.53884494046
20
23.8353222152631
30
0
41
1
10
11.5605721090663
20
23.8326565134122
30
0
41
1
10
11.5676991017995
20
23.8316728303992
30
0
41
1
10
11.5817366894217
20
23.8295263669799
30
0
41
1
10
11.5886665813883
20
23.8283593459881
30
0
41
1
10
11.6088302857938
20
23.8246655611124
30
0
41
1
10
11.6215461384038
20
23.8219342456095
30
0
41
1
10
11.6458165560481
20
23.816035844018
30
0
41
1
10
11.6573691354905
20
23.812868038308
30
0
41
1
10
11.6794995583259
20
23.8061604830514
30
0
41
1
10
11.6901125047557
20
23.8026065911346
30
0
41
1
10
11.7203772593316
20
23.7915679133937
30
0
41
1
10
11.7384769785308
20
23.7837256270429
30
0
41
1
10
11.763382436815
20
23.7714105724815
30
0
41
1
10
11.7713191828915
20
23.7672030231185
30
0
41
1
10
11.7864159259844
20
23.7586801045418
30
0
41
1
10
11.7935837333005
20
23.7543620682906
30
0
41
1
10
11.8140962699691
20
23.7412544902041
30
0
41
1
10
11.8264575712212
20
23.7323123198156
30
0
41
1
10
11.8604037172645
20
23.704958919593
30
0
41
1
10
11.8788923030149
20
23.6860254491251
30
0
41
1
10
11.8943375672973
20
23.6665017920808
30
0
0
SPLINE
5
131
100
AcDbEntity
8
1
62
256
6
ByLayer
370
18
48
1
60
0
100
AcDbSpline
70
4
71
3
72
26
73
22
40
0
40
0
40
0
40
0
40
0.250000000000003
40
0.250000000000003
40
0.375000000000006
40
0.375000000000006
40
0.500000000000009
40
0.500000000000009
40
0.562500000000008
40
0.562500000000008
40
0.625000000000008
40
0.625000000000008
40
0.750000000000007
40
0.750000000000007
40
0.875000000000006
40
0.875000000000006
40
0.906250000000005
40
0.906250000000005
40
0.937500000000003
40
0.937500000000003
40
1
40
1
40
1
40
1
41
1
10
11.8943375672975
20
8.05584836782788
30
0
41
1
10
11.8788862370737
20
7.99846916820724
30
0
41
1
10
11.8602443227466
20
7.94172327888197
30
0
41
1
10
11.826219626229
20
7.85937042586593
30
0
41
1
10
11.8138519277098
20
7.83234954293013
30
0
41
1
10
11.7865761040498
20
7.77938351245621
30
0
41
1
10
11.7716769242357
20
7.75343444963914
30
0
41
1
10
11.7468017366172
20
7.71559105034081
30
0
41
1
10
11.7380555263963
20
7.70312184666892
30
0
41
1
10
11.719773612984
20
7.67891539799638
30
0
41
1
10
11.7102266942346
20
7.66715495165661
30
0
41
1
10
11.6801688454702
20
7.6330732524122
30
0
41
1
10
11.6582924559948
20
7.61190750686279
30
0
41
1
10
11.6089650834003
20
7.57431556968129
30
0
41
1
10
11.582404000511
20
7.55857361750125
30
0
41
1
10
11.5458956692735
20
7.54444995843591
30
0
41
1
10
11.5384012334116
20
7.54190496002275
30
0
41
1
10
11.5233488813096
20
7.53753139400655
30
0
41
1
10
11.5157579869922
20
7.53568798536676
30
0
41
1
10
11.4927843117432
20
7.5312244015297
30
0
41
1
10
11.4772013120199
20
7.52966679426524
30
0
41
1
10
11.4613248654052
20
7.52966679426524
30
0
0
SPLINE
5
132
100
AcDbEntity
8
1
62
256
6
ByLayer
370
18
48
1
60
0
100
AcDbSpline
70
4
71
3
72
30
73
26
40
0
40
0
40
0
40
0
40
0.0625000000000087
40
0.0625000000000087
40
0.125000000000017
40
0.125000000000017
40
0.156250000000018
40
0.156250000000018
40
0.187500000000018
40
0.187500000000018
40
0.250000000000019
40
0.250000000000019
40
0.312500000000019
40
0.312500000000019
40
0.37500000000002
40
0.37500000000002
40
0.500000000000017
40
0.500000000000017
40
0.562500000000014
40
0.562500000000014
40
0.625000000000011
40
0.625000000000011
40
0.750000000000007
40
0.750000000000007
40
1
40
1
40
1
40
1
41
1
10
8.5386751345948
20
7.52966679426487
30
0
41
1
10
8.52282418317802
20
7.52966679426487
30
0
41
1
10
8.50706439724271
20
7.53123335639154
30
0
41
1
10
8.47609922674792
20
7.53729092133941
30
0
41
1
10
8.46115505954
20
7.54171396614038
30
0
41
1
10
8.4394278909337
20
7.55013193108817
30
0
41
1
10
8.43230089820059
20
7.55323657194793
30
0
41
1
10
8.41826331057831
20
7.56000567013069
30
0
41
1
10
8.41133341861178
20
7.56368345606447
30
0
41
1
10
8.39116971420628
20
7.57531366225027
30
0
41
1
10
8.3784538615962
20
7.58390025536204
30
0
41
1
10
8.35418344395191
20
7.60240297286805
30
0
41
1
10
8.34263086450954
20
7.61232137865159
30
0
41
1
10
8.32050044167417
20
7.6332721710254
30
0
41
1
10
8.30988749524428
20
7.6443484903985
30
0
41
1
10
8.2796227406684
20
7.67866353751191
30
0
41
1
10
8.2615230214692
20
7.70292805784936
30
0
41
1
10
8.23661756318495
20
7.74081492713987
30
0
41
1
10
8.22868081710851
20
7.75372482186637
30
0
41
1
10
8.21358407401564
20
7.7798012728739
30
0
41
1
10
8.20641626669953
20
7.79297622996165
30
0
41
1
10
8.18590373003093
20
7.83285506058502
30
0
41
1
10
8.17354242877877
20
7.85991012495427
30
0
41
1
10
8.13959628273548
20
7.94218253951266
30
0
41
1
10
8.12110769698506
20
7.99849169434927
30
0
41
1
10
8.10566243270264
20
8.05584836782788
30
0
0
SPLINE
5
133
100
AcDbEntity
8
1
62
256
6
ByLayer
370
18
48
1
60
0
100
AcDbSpline
70
4
71
3
72
10
73
6
40
0
40
0
40
0
40
0
40
0.5
40
0.5
40
1
40
1
40
1
40
1
41
1
10
20.077973744624
20
-19.1549669624732
30
0
41
1
10
20.0797300588642
20
-19.3237565632347
30
0
41
1
10
20.0966029574405
20
-19.4880304671092
30
0
41
1
10
20.1626283825148
20
-19.8076877351775
30
0
41
1
10
20.2117517757231
20
-19.9630721293427
30
0
41
1
10
20.2792076144253
20
-20.113995121038
30
0
0
SPLINE
5
134
100
AcDbEntity
8
SK1
62
256
6
ByLayer
370
18
48
1
60
0
100
AcDbSpline
70
4
71
3
72
45
73
41
40
0
40
0
40
0
40
0
40
0.0236931874538603
40
0.0517111911545261
40
0.079729194855192
40
0.107747198555858
40
0.16378320595719
40
0.219819213358521
40
0.247837217059187
40
0.275855220759853
40
0.303873224460519
40
0.331891228161185
40
0.359909231861851
40
0.387927235562517
40
0.415945239263182
40
0.429954241113515
40
0.443963242963848
40
0.471981246664514
40
0.485990248514847
40
0.492994749440013
40
0.49999925036518
40
0.507003751290346
40
0.514008252215513
40
0.528017254065846
40
0.556035257766512
40
0.570044259616845
40
0.584053261467178
40
0.612071265167843
40
0.640089268868509
40
0.668107272569175
40
0.696125276269841
40
0.724143279970507
40
0.752161283671173
40
0.780179287371839
40
0.836215294773171
40
0.892251302174502
40
0.920269305875168
40
0.948287309575834
40
0.9763053132765
40
1
40
1
40
1
40
1
41
1
10
-30
20
-15.993189751507
30
0
41
1
10
-30
20
-15.9976527135948
30
0
41
1
10
-30
20
-15.967074697706
30
0
41
1
10
-30
20
-15.7965327535813
30
0
41
1
10
-30
20
-15.4890634139888
30
0
41
1
10
-30
20
-14.9202427964398
30
0
41
1
10
-30
20
-13.9430330734595
30
0
41
1
10
-30
20
-12.6450674903883
30
0
41
1
10
-30
20
-11.4213703912989
30
0
41
1
10
-30
20
-10.4224348167646
30
0
41
1
10
-30
20
-9.34179238961872
30
0
41
1
10
-30
20
-8.18272269843541
30
0
41
1
10
-30
20
-6.94914704263559
30
0
41
1
10
-30
20
-5.64597176408017
30
0
41
1
10
-30
20
-4.51272494557483
30
0
41
1
10
-30
20
-3.56968220154852
30
0
41
1
10
-30
20
-2.61530613672116
30
0
41
1
10
-30
20
-1.675914880346
30
0
41
1
10
-30
20
-0.8333415404785
30
0
41
1
10
-30
20
-0.354131996183753
30
0
41
1
10
-30
20
-4.002277763E-07
30
0
41
1
10
-30
20
0.354131622770439
30
0
41
1
10
-30
20
0.833341855678952
30
0
41
1
10
-30
20
1.67591474804155
30
0
41
1
10
-30
20
2.61530592334967
30
0
41
1
10
-30
20
3.56968201835696
30
0
41
1
10
-30
20
4.51272453462846
30
0
41
1
10
-30
20
5.64597210397025
30
0
41
1
10
-30
20
6.94914665451276
30
0
41
1
10
-30
20
8.18272261240929
30
0
41
1
10
-30
20
9.34179268341308
30
0
41
1
10
-30
20
10.4224345134304
30
0
41
1
10
-30
20
11.42137036219
30
0
41
1
10
-30
20
12.6450678356931
30
0
41
1
10
-30
20
13.9430327235571
30
0
41
1
10
-30
20
14.9202435431778
30
0
41
1
10
-30
20
15.4890632796305
30
0
41
1
10
-30
20
15.7965331178349
30
0
41
1
10
-30
20
15.9670784634536
30
0
41
1
10
-30
20
15.9976546233119
30
0
41
1
10
-30
20
15.9931890150682
30
0
0
SPLINE
5
135
100
AcDbEntity
8
SK1
62
256
6
ByLayer
370
18
48
1
60
0
100
AcDbSpline
70
4
71
3
72
38
73
34
40
0
40
0
40
0
40
0
40
0.0156250000000003
40
0.0156250000000003
40
0.0312500000000008
40
0.0312500000000008
40
0.0468750000000012
40
0.0468750000000012
40
0.0625000000000017
40
0.0625000000000017
40
0.0781250000000021
40
0.0781250000000021
40
0.0937500000000026
40
0.0937500000000026
40
0.125000000000002
40
0.125000000000002
40
0.156250000000001
40
0.156250000000001
40
0.1875
40
0.1875
40
0.249999999999998
40
0.249999999999998
40
0.312499999999996
40
0.312499999999996
40
0.374999999999994
40
0.374999999999994
40
0.499999999999997
40
0.499999999999997
40
0.624999999999999
40
0.624999999999999
40
0.750000000000002
40
0.750000000000002
40
1
40
1
40
1
40
1
41
1
10
-0.394913799811292
20
5.38724256160015
30
0
41
1
10
-0.39176092894752
20
5.3845619683195
30
0
41
1
10
-0.388473887026265
20
5.38206549938215
30
0
41
1
10
-0.381539373885118
20
5.37756780385982
30
0
41
1
10
-0.377868038063696
20
5.37555831609177
30
0
41
1
10
-0.370241250613816
20
5.37233602993433
30
0
41
1
10
-0.366271728735967
20
5.37110702101791
30
0
41
1
10
-0.357904387099609
20
5.36969675293608
30
0
41
1
10
-0.353672033871192
20
5.36955188220813
30
0
41
1
10
-0.345153788553745
20
5.37051023807425
30
0
41
1
10
-0.340905624745261
20
5.37162929612282
30
0
41
1
10
-0.332865959292434
20
5.37490714744831
30
0
41
1
10
-0.328982330604276
20
5.37709874944116
30
0
41
1
10
-0.31824990755598
20
5.3846016561252
30
0
41
1
10
-0.312019326339538
20
5.39094692539047
30
0
41
1
10
-0.301003751719009
20
5.4046119981478
30
0
41
1
10
-0.296164698039092
20
5.41201401791534
30
0
41
1
10
-0.287542348293499
20
5.42700107315446
30
0
41
1
10
-0.283724888362031
20
5.43464123738514
30
0
41
1
10
-0.273206407019217
20
5.45783596374676
30
0
41
1
10
-0.267422418729041
20
5.47365965349914
30
0
41
1
10
-0.257164394743938
20
5.50568135296518
30
0
41
1
10
-0.252718404682355
20
5.52188785992811
30
0
41
1
10
-0.244723140953255
20
5.55455058376108
30
0
41
1
10
-0.241184891539973
20
5.57099638970087
30
0
41
1
10
-0.231616433421522
20
5.620292949023
30
0
41
1
10
-0.226581907125791
20
5.65322539656964
30
0
41
1
10
-0.218149341071353
20
5.71913713924792
30
0
41
1
10
-0.214779228537793
20
5.7520569459719
30
0
41
1
10
-0.209234214279519
20
5.81770188154789
30
0
41
1
10
-0.20706282051475
20
5.85044931358604
30
0
41
1
10
-0.201930655445096
20
5.94848814748187
30
0
41
1
10
-0.200329859654715
20
6.01357702681145
30
0
41
1
10
-0.200000000000017
20
6.07843116862739
30
0
0
SPLINE
5
136
100
AcDbEntity
8
SK1
62
256
6
ByLayer
370
18
48
1
60
0
100
AcDbSpline
70
4
71
3
72
38
73
34
40
0
40
0
40
0
40
0
40
0.250000000000005
40
0.250000000000005
40
0.375000000000008
40
0.375000000000008
40
0.500000000000011
40
0.500000000000011
40
0.625000000000014
40
0.625000000000014
40
0.687500000000014
40
0.687500000000014
40
0.750000000000014
40
0.750000000000014
40
0.812500000000014
40
0.812500000000014
40
0.843750000000012
40
0.843750000000012
40
0.875000000000011
40
0.875000000000011
40
0.906250000000009
40
0.906250000000009
40
0.921875000000008
40
0.921875000000008
40
0.937500000000006
40
0.937500000000006
40
0.953125000000005
40
0.953125000000005
40
0.968750000000003
40
0.968750000000003
40
0.984375000000002
40
0.984375000000002
40
1
40
1
40
1
40
1
41
1
10
-0.199999999999989
20
-6.0784324458115
30
0
41
1
10
-0.200330038101583
20
-6.01354333629556
30
0
41
1
10
-0.201932717755426
20
-5.94845143863401
30
0
41
1
10
-0.207061534202325
20
-5.85047499196546
30
0
41
1
10
-0.209230735864509
20
-5.81775962891592
30
0
41
1
10
-0.214765406462988
20
-5.75220767186599
30
0
41
1
10
-0.218124597314073
20
-5.71937115218196
30
0
41
1
10
-0.226533735280697
20
-5.65356559342112
30
0
41
1
10
-0.231573562776504
20
-5.6205357075076
30
0
41
1
10
-0.241167183894703
20
-5.57107991706769
30
0
41
1
10
-0.244699800125972
20
-5.55465646091182
30
0
41
1
10
-0.252692130238955
20
-5.52198910291142
30
0
41
1
10
-0.25714417824588
20
-5.50574351678881
30
0
41
1
10
-0.267463037667568
20
-5.47353830586394
30
0
41
1
10
-0.273296210573392
20
-5.45757128507668
30
0
41
1
10
-0.284017391060843
20
-5.43403466061338
30
0
41
1
10
-0.287922394076219
20
-5.42628126698924
30
0
41
1
10
-0.296591327986192
20
-5.41134235290909
30
0
41
1
10
-0.301354650858144
20
-5.40411801099182
30
0
41
1
10
-0.312400979321552
20
-5.3905410449475
30
0
41
1
10
-0.318577749103383
20
-5.38430052549947
30
0
41
1
10
-0.329419339218276
20
-5.37683593115611
30
0
41
1
10
-0.333263890221957
20
-5.37470929745368
30
0
41
1
10
-0.341321667103017
20
-5.37150405183556
30
0
41
1
10
-0.345568573158801
20
-5.37043109064084
30
0
41
1
10
-0.354015865513219
20
-5.36955368909108
30
0
41
1
10
-0.358331183030117
20
-5.36974313779842
30
0
41
1
10
-0.366503702076471
20
-5.37117873901857
30
0
41
1
10
-0.370423579197194
20
-5.37240298219777
30
0
41
1
10
-0.378006935713103
20
-5.375632334519
30
0
41
1
10
-0.381650196472521
20
-5.37763658736256
30
0
41
1
10
-0.388519962703811
20
-5.3821033059937
30
0
41
1
10
-0.391781832950699
20
-5.38458208568073
30
0
41
1
10
-0.394913799809103
20
-5.38724490303883
30
0
0
SPLINE
5
137
100
AcDbEntity
8
SK1
62
256
6
ByLayer
370
13
48
1
60
0
100
AcDbSpline
70
4
71
3
72
20
73
16
40
0
40
0
40
0
40
0
40
0.0673850407363888
40
0.135634765276728
40
0.203884489817067
40
0.272134214357406
40
0.408633663438085
40
0.545133112518764
40
0.613382837059103
40
0.681632561599442
40
0.749882286139781
40
0.81813201068012
40
0.88638173522046
40
0.954631459760799
40
1
40
1
40
1
40
1
41
1
10
-0.394913799811292
20
17.3602188926978
30
0
41
1
10
-0.394913799811235
20
17.3741382160788
30
0
41
1
10
-0.394913799811292
20
17.3456596443623
30
0
41
1
10
-0.394913799811292
20
17.1536380024563
30
0
41
1
10
-0.394913799811292
20
16.8259463034278
30
0
41
1
10
-0.394913799811292
20
16.224825355641
30
0
41
1
10
-0.394913799811292
20
15.1889742433629
30
0
41
1
10
-0.394913799811292
20
13.8156305223415
30
0
41
1
10
-0.394913799811292
20
12.5286533763275
30
0
41
1
10
-0.394913799811292
20
11.4729576347282
30
0
41
1
10
-0.394913799811292
20
10.3283869583107
30
0
41
1
10
-0.394913799811292
20
9.09679923539034
30
0
41
1
10
-0.394913799811292
20
7.7796880789966
30
0
41
1
10
-0.394913799811292
20
6.5348354946259
30
0
41
1
10
-0.394913799811292
20
5.7190547501427
30
0
41
1
10
-0.394913799811292
20
5.38724256160785
30
0
0
SPLINE
5
138
100
AcDbEntity
8
SK1
62
256
6
ByLayer
370
13
48
1
60
0
100
AcDbSpline
70
4
71
3
72
20
73
16
40
0
40
0
40
0
40
0
40
0.0453684843300187
40
0.113618272979105
40
0.181868061628191
40
0.250117850277277
40
0.318367638926363
40
0.38661742757545
40
0.454867216224536
40
0.591366793522708
40
0.727866370820881
40
0.796116159469967
40
0.864365948119053
40
0.932615736768139
40
1
40
1
40
1
40
1
41
1
10
-0.394913799811292
20
-5.38724490303881
30
0
41
1
10
-0.394913799811292
20
-5.71905630139054
30
0
41
1
10
-0.394913799811292
20
-6.53483606378791
30
0
41
1
10
-0.394913799811292
20
-7.77968825069564
30
0
41
1
10
-0.394913799811292
20
-9.09679950047928
30
0
41
1
10
-0.394913799811292
20
-10.3283867090429
30
0
41
1
10
-0.394913799811292
20
-11.4729578043957
30
0
41
1
10
-0.394913799811292
20
-12.5286535254346
30
0
41
1
10
-0.394913799811292
20
-13.8156301488903
30
0
41
1
10
-0.394913799811292
20
-15.1889746622834
30
0
41
1
10
-0.394913799811292
20
-16.2248245878661
30
0
41
1
10
-0.394913799811292
20
-16.8259464323311
30
0
41
1
10
-0.394913799811292
20
-17.1536376810083
30
0
41
1
10
-0.394913799811292
20
-17.3456582492982
30
0
41
1
10
-0.394913799811292
20
-17.3741378069717
30
0
41
1
10
-0.394913799811263
20
-17.3602193112041
30
0
0
SPLINE
5
139
100
AcDbEntity
8
SK1
62
256
6
ByLayer
370
18
48
1
60
0
100
AcDbSpline
70
4
71
3
72
53
73
49
40
0
40
0
40
0
40
0
40
0.0156250000000006
40
0.0156250000000006
40
0.0312500000000011
40
0.0312500000000011
40
0.0625000000000024
40
0.0625000000000024
40
0.0703125000000022
40
0.0703125000000022
40
0.078125000000002
40
0.0937500000000019
40
0.0937500000000019
40
0.101562500000002
40
0.101562500000002
40
0.109375000000002
40
0.109375000000002
40
0.125000000000002
40
0.125000000000002
40
0.140625000000003
40
0.140625000000003
40
0.156250000000003
40
0.156250000000003
40
0.187500000000003
40
0.187500000000003
40
0.218750000000003
40
0.218750000000003
40
0.250000000000003
40
0.250000000000003
40
0.281250000000003
40
0.281250000000003
40
0.312500000000003
40
0.312500000000003
40
0.375000000000002
40
0.375000000000002
40
0.437500000000001
40
0.437500000000001
40
0.500000000000001
40
0.500000000000001
40
0.624999999999999
40
0.624999999999999
40
0.687499999999998
40
0.687499999999998
40
0.749999999999997
40
0.749999999999997
40
0.874999999999999
40
0.874999999999999
40
1
40
1
40
1
40
1
41
1
10
-0.394913799811292
20
-5.38724490303858
30
0
41
1
10
-0.403020392727001
20
-5.39413717786437
30
0
41
1
10
-0.411386251483435
20
-5.40075705360888
30
0
41
1
10
-0.428743917867394
20
-5.41334179407008
30
0
41
1
10
-0.437770416117502
20
-5.4193273215547
30
0
41
1
10
-0.465729936503919
20
-5.43590631685376
30
0
41
1
10
-0.48545098532486
20
-5.44513209892818
30
0
41
1
10
-0.512078734988165
20
-5.4533397528954
30
0
41
1
10
-0.517525389033324
20
-5.45481548249097
30
0
41
1
10
-0.528445210270377
20
-5.45734844847985
30
0
41
1
10
-0.544917445528739
20
-5.46054034675203
30
0
41
1
10
-0.561675487241928
20
-5.46185622962994
30
0
41
1
10
-0.578637021974231
20
-5.46183701163628
30
0
41
1
10
-0.584356912700144
20
-5.46160478770395
30
0
41
1
10
-0.595695338837032
20
-5.46069496960084
30
0
41
1
10
-0.601299914959753
20
-5.46002170773141
30
0
41
1
10
-0.617932285477195
20
-5.4573891634796
30
0
41
1
10
-0.628779113836032
20
-5.45481846069109
30
0
41
1
10
-0.650045797817
20
-5.44823342219186
30
0
41
1
10
-0.660532703009267
20
-5.4441860527954
30
0
41
1
10
-0.680770506186064
20
-5.43496537787158
30
0
41
1
10
-0.690494000998513
20
-5.42981903443433
30
0
41
1
10
-0.718704728837935
20
-5.41307616107983
30
0
41
1
10
-0.736341322354491
20
-5.40008757388526
30
0
41
1
10
-0.768905931142399
20
-5.37251692611162
30
0
41
1
10
-0.783971777383869
20
-5.35785904442616
30
0
41
1
10
-0.812437519911811
20
-5.32733553299153
30
0
41
1
10
-0.825828436847473
20
-5.31146357138681
30
0
41
1
10
-0.851357742368606
20
-5.27880041053592
30
0
41
1
10
-0.863513824307972
20
-5.26197522516887
30
0
41
1
10
-0.886742970836565
20
-5.22772922691752
30
0
41
1
10
-0.897760317588421
20
-5.21039425330486
30
0
41
1
10
-0.929418355061557
20
-5.15788155457773
30
0
41
1
10
-0.948685190430894
20
-5.12220258194967
30
0
41
1
10
-0.984745886096874
20
-5.04988928444075
30
0
41
1
10
-1.00152410230021
20
-5.01324987497111
30
0
41
1
10
-1.03323011355693
20
-4.93921284702577
30
0
41
1
10
-1.04815216411876
20
-4.90181336669082
30
0
41
1
10
-1.09072783956066
20
-4.78866062339225
30
0
41
1
10
-1.11622081339451
20
-4.71196262616607
30
0
41
1
10
-1.1514750174868
20
-4.5954305661744
30
0
41
1
10
-1.16271294340757
20
-4.55635268985432
30
0
41
1
10
-1.18426257821704
20
-4.47793290560355
30
0
41
1
10
-1.19458151328425
20
-4.43856580615747
30
0
41
1
10
-1.22434718173434
20
-4.32001891689725
30
0
41
1
10
-1.24261095077244
20
-4.24039497937329
30
0
41
1
10
-1.27663490881506
20
-4.08005058420358
30
0
41
1
10
-1.29239108240532
20
-3.99932964943406
30
0
41
1
10
-1.30710678118655
20
-3.91808311129773
30
0
0
SPLINE
5
13A
100
AcDbEntity
8
SK1
62
256
6
ByLayer
370
18
48
1
60
0
100
AcDbSpline
70
4
71
3
72
38
73
34
40
0
40
0
40
0
40
0
40
0.0625000000000003
40
0.0625000000000003
40
0.125000000000001
40
0.125000000000001
40
0.187500000000001
40
0.187500000000001
40
0.218750000000001
40
0.218750000000001
40
0.250000000000001
40
0.250000000000001
40
0.375000000000001
40
0.375000000000001
40
0.437500000000002
40
0.437500000000002
40
0.500000000000002
40
0.500000000000002
40
0.562500000000002
40
0.562500000000002
40
0.593750000000002
40
0.593750000000002
40
0.609375000000002
40
0.609375000000002
40
0.625000000000002
40
0.625000000000002
40
0.750000000000001
40
0.750000000000001
40
0.875000000000001
40
0.875000000000001
40
0.9375
40
0.9375
40
1
40
1
40
1
40
1
41
1
10
-1.30710678118655
20
-3.91808311129771
30
0
41
1
10
-1.33526589565594
20
-3.76261441071909
30
0
41
1
10
-1.36271475580057
20
-3.60607338167011
30
0
41
1
10
-1.41582315096537
20
-3.29066553946589
30
0
41
1
10
-1.44149329508792
20
-3.13180385741538
30
0
41
1
10
-1.49055743488208
20
-2.81150726182861
30
0
41
1
10
-1.51394731043965
20
-2.65007047288915
30
0
41
1
10
-1.54688933197929
20
-2.40575612114199
30
0
41
1
10
-1.5574977199426
20
-2.32406172494171
30
0
41
1
10
-1.57784909269048
20
-2.16057674059007
30
0
41
1
10
-1.5876007265538
20
-2.07872253566578
30
0
41
1
10
-1.63408221528164
20
-1.66887252592326
30
0
41
1
10
-1.66399327242203
20
-1.33914312869118
30
0
41
1
10
-1.69494665814693
20
-0.841362289300548
30
0
41
1
10
-1.70293626023371
20
-0.674902568806147
30
0
41
1
10
-1.71367008139578
20
-0.34083166255536
30
0
41
1
10
-1.71636335941631
20
-0.173213348331899
30
0
41
1
10
-1.71646782396985
20
0.163187101305908
30
0
41
1
10
-1.71388361409092
20
0.331968562037986
30
0
41
1
10
-1.70582437938029
20
0.586052568901891
30
0
41
1
10
-1.70245250680873
20
0.670897601193616
30
0
41
1
10
-1.6964065979426
20
0.798386309984579
30
0
41
1
10
-1.69422507481971
20
0.840939584978429
30
0
41
1
10
-1.68955923537888
20
0.925771372654197
30
0
41
1
10
-1.68707319146449
20
0.968091690681803
30
0
41
1
10
-1.66337509736468
20
1.34813830750838
30
0
41
1
10
-1.63296978491243
20
1.68004719877027
30
0
41
1
10
-1.55846884179033
20
2.33418302861881
30
0
41
1
10
-1.51435013598103
20
2.65639932915295
30
0
41
1
10
-1.44117770353176
20
3.13375373985022
30
0
41
1
10
-1.41562242099803
20
3.29187611045597
30
0
41
1
10
-1.36267126502631
20
3.6063109858577
30
0
41
1
10
-1.33526487251859
20
3.76261955749285
30
0
41
1
10
-1.30710678118655
20
3.91808269248796
30
0
0
SPLINE
5
13B
100
AcDbEntity
8
SK1
62
256
6
ByLayer
370
18
48
1
60
0
100
AcDbSpline
70
4
71
3
72
50
73
46
40
0
40
0
40
0
40
0
40
0.125
40
0.125
40
0.25
40
0.25
40
0.3125
40
0.3125
40
0.375
40
0.375
40
0.499999999999999
40
0.499999999999999
40
0.562499999999997
40
0.562499999999997
40
0.624999999999996
40
0.624999999999996
40
0.687499999999995
40
0.687499999999995
40
0.718749999999995
40
0.718749999999995
40
0.749999999999994
40
0.749999999999994
40
0.781249999999994
40
0.781249999999994
40
0.812499999999993
40
0.812499999999993
40
0.843749999999993
40
0.843749999999993
40
0.859374999999994
40
0.859374999999994
40
0.874999999999994
40
0.874999999999994
40
0.890624999999995
40
0.890624999999995
40
0.906249999999996
40
0.906249999999996
40
0.921874999999996
40
0.921874999999996
40
0.937499999999997
40
0.937499999999997
40
0.953124999999998
40
0.953124999999998
40
0.968749999999999
40
0.968749999999999
40
1
40
1
40
1
40
1
41
1
10
-1.30710678118655
20
3.91808269248796
30
0
41
1
10
-1.29238372607517
20
3.99936988902869
30
0
41
1
10
-1.27661859809459
20
4.08013408760161
30
0
41
1
10
-1.24257202444835
20
4.24057073726357
30
0
41
1
10
-1.22429462395718
20
4.32024366329264
30
0
41
1
10
-1.19450305218302
20
4.4388689467043
30
0
41
1
10
-1.18417456263643
20
4.47826299864514
30
0
41
1
10
-1.16260343866753
20
4.55673847320071
30
0
41
1
10
-1.15135515985602
20
4.5958383808707
30
0
41
1
10
-1.11609621830422
20
4.71234577760799
30
0
41
1
10
-1.09059413059555
20
4.78904752584498
30
0
41
1
10
-1.04798244371665
20
4.90224508459647
30
0
41
1
10
-1.03304457478234
20
4.93966608077309
30
0
41
1
10
-1.00129416978024
20
5.013761649543
30
0
41
1
10
-0.984487535026432
20
5.05043807526351
30
0
41
1
10
-0.948347177186207
20
5.12284414993096
30
0
41
1
10
-0.929029640850729
20
5.15857889561175
30
0
41
1
10
-0.897260448987026
20
5.21119248410571
30
0
41
1
10
-0.8861698860768
20
5.22860723544375
30
0
41
1
10
-0.862932209486871
20
5.26279281423712
30
0
41
1
10
-0.85080730255018
20
5.27953884086708
30
0
41
1
10
-0.825257514875972
20
5.31215335693128
30
0
41
1
10
-0.811836627358673
20
5.32802442998909
30
0
41
1
10
-0.783237057424145
20
5.35859529837754
30
0
41
1
10
-0.768034946557918
20
5.3733304614868
30
0
41
1
10
-0.735187935399324
20
5.40097830060952
30
0
41
1
10
-0.717826906306101
20
5.41366379171245
30
0
41
1
10
-0.689742098894556
20
5.43022628481572
30
0
41
1
10
-0.680036525045011
20
5.43533205618732
30
0
41
1
10
-0.659758151599817
20
5.44449947952501
30
0
41
1
10
-0.649331735085582
20
5.44848807488125
30
0
41
1
10
-0.627999143283205
20
5.45501931647436
30
0
41
1
10
-0.617058166617738
20
5.45757599588921
30
0
41
1
10
-0.594591467840019
20
5.46102572365922
30
0
41
1
10
-0.58336584661788
20
5.4618713105761
30
0
41
1
10
-0.560930035443761
20
5.46180969649637
30
0
41
1
10
-0.549664818445279
20
5.46089328829356
30
0
41
1
10
-0.527386860231815
20
5.45734523281897
30
0
41
1
10
-0.516608715435041
20
5.45476351226009
30
0
41
1
10
-0.495657428995088
20
5.44824432393753
30
0
41
1
10
-0.485484698823484
20
5.44430592701531
30
0
41
1
10
-0.465658214706991
20
5.43526409556435
30
0
41
1
10
-0.455974774655147
20
5.43013648208003
30
0
41
1
10
-0.428167571421085
20
5.41359596702645
30
0
41
1
10
-0.411056331481689
20
5.40096705709072
30
0
41
1
10
-0.394913799811292
20
5.38724256160785
30
0
0
SPLINE
5
13C
100
AcDbEntity
8
SK1
62
256
6
ByLayer
370
13
48
1
60
0
100
AcDbSpline
70
4
71
3
72
45
73
41
40
0
40
0
40
0
40
0
40
0.0139247001338053
40
0.0425173638511599
40
0.0711100275685145
40
0.099702691285869
40
0.156888018720578
40
0.214073346155287
40
0.242666009872642
40
0.271258673589997
40
0.299851337307351
40
0.328444001024706
40
0.35703666474206
40
0.385629328459415
40
0.41422199217677
40
0.428518324035447
40
0.442814655894124
40
0.471407319611479
40
0.485703651470156
40
0.492851817399495
40
0.499999983328833
40
0.507148149258172
40
0.514296315187511
40
0.528592647046188
40
0.557185310763542
40
0.57148164262222
40
0.585777974480897
40
0.614370638198252
40
0.642963301915606
40
0.671555965632961
40
0.700148629350315
40
0.72874129306767
40
0.757333956785024
40
0.785926620502379
40
0.843111947937088
40
0.900297275371797
40
0.928889939089152
40
0.957482602806507
40
0.986075266523861
40
1
40
1
40
1
40
1
41
1
10
-1.99503997793928
20
17.3200455819876
30
0
41
1
10
-1.99503997793928
20
17.3133444795618
30
0
41
1
10
-1.99503997793928
20
17.2734198517967
30
0
41
1
10
-1.99503997793928
20
17.1138754381145
30
0
41
1
10
-1.99503997793928
20
16.786776230537
30
0
41
1
10
-1.99503997793928
20
16.1866016937524
30
0
41
1
10
-1.99503997793928
20
15.152468715744
30
0
41
1
10
-1.99503997793928
20
13.7813335607202
30
0
41
1
10
-1.99503997793928
20
12.4962104807245
30
0
41
1
10
-1.99503997793928
20
11.4421777785236
30
0
41
1
10
-1.99503997793928
20
10.2994801886281
30
0
41
1
10
-1.99503997793928
20
9.07001720037854
30
0
41
1
10
-1.99503997793928
20
7.7553535878281
30
0
41
1
10
-1.99503997793928
20
6.35676356337376
30
0
41
1
10
-1.99503997793928
20
5.12318891405303
30
0
41
1
10
-1.99503997793928
20
4.0953123914187
30
0
41
1
10
-1.99503997793928
20
3.04236280324244
30
0
41
1
10
-1.99503997793928
20
1.95640624898675
30
0
41
1
10
-1.99503997793928
20
0.981337209960486
30
0
41
1
10
-1.99503997793928
20
0.420771221994357
30
0
41
1
10
-1.99503997793928
20
-6.88173714E-08
30
0
41
1
10
-1.99503997793928
20
-0.420771319084707
30
0
41
1
10
-1.99503997793928
20
-0.981337226851394
30
0
41
1
10
-1.99503997793928
20
-1.95640625727882
30
0
41
1
10
-1.99503997793928
20
-3.04236295320669
30
0
41
1
10
-1.99503997793928
20
-4.09531236648536
30
0
41
1
10
-1.99503997793928
20
-5.12318926412425
30
0
41
1
10
-1.99503997793928
20
-6.35676341745574
30
0
41
1
10
-1.99503997793928
20
-7.75535376586828
30
0
41
1
10
-1.99503997793928
20
-9.07001746022104
30
0
41
1
10
-1.99503997793928
20
-10.2994799380558
30
0
41
1
10
-1.99503997793928
20
-11.4421779521075
30
0
41
1
10
-1.99503997793928
20
-12.4962106263157
30
0
41
1
10
-1.99503997793928
20
-13.7813331880937
30
0
41
1
10
-1.99503997793928
20
-15.1524691326423
30
0
41
1
10
-1.99503997793928
20
-16.1866009265939
30
0
41
1
10
-1.99503997793928
20
-16.7867763596001
30
0
41
1
10
-1.99503997793928
20
-17.1138751154123
30
0
41
1
10
-1.99503997793928
20
-17.2734193712414
30
0
41
1
10
-1.99503997793931
20
-17.3133442573579
30
0
41
1
10
-1.99503997793931
20
-17.3200454180576
30
0
0
SPLINE
5
13D
100
AcDbEntity
8
SK1
62
256
6
ByLayer
370
18
48
1
60
0
100
AcDbSpline
70
4
71
3
72
45
73
41
40
0
40
0
40
0
40
0
40
0.01389708881282
40
0.0424913851217039
40
0.0710856814305878
40
0.0996799777394718
40
0.15686857035724
40
0.214057162975007
40
0.242651459283891
40
0.271245755592775
40
0.299840051901659
40
0.328434348210543
40
0.357028644519427
40
0.385622940828311
40
0.414217237137195
40
0.428514385291637
40
0.442811533446079
40
0.471405829754963
40
0.485702977909405
40
0.492851551986626
40
0.500000126063847
40
0.507148700141068
40
0.514297274218289
40
0.52859442237273
40
0.557188718681614
40
0.571485866836056
40
0.585783014990498
40
0.614377311299382
40
0.642971607608266
40
0.67156590391715
40
0.700160200226034
40
0.728754496534918
40
0.757348792843802
40
0.785943089152686
40
0.843131681770454
40
0.900320274388221
40
0.928914570697105
40
0.957508867005989
40
0.986103163314873
40
1
40
1
40
1
40
1
41
1
10
-2.2
20
17.5147947904659
30
0
41
1
10
-2.19999999999999
20
17.5080196710856
30
0
41
1
10
-2.2
20
17.4676808523614
30
0
41
1
10
-2.2
20
17.3066647416643
30
0
41
1
10
-2.2
20
16.9766928316826
30
0
41
1
10
-2.2
20
16.3719296090069
30
0
41
1
10
-2.2
20
15.3294662349403
30
0
41
1
10
-2.2
20
13.9476228193307
30
0
41
1
10
-2.2
20
12.6535102764493
30
0
41
1
10
-2.2
20
11.5914143063801
30
0
41
1
10
-2.2
20
10.4396350324424
30
0
41
1
10
-2.2
20
9.19987024087132
30
0
41
1
10
-2.2
20
7.87333968058334
30
0
41
1
10
-2.2
20
6.46078587277509
30
0
41
1
10
-2.2
20
5.21252864051553
30
0
41
1
10
-2.2
20
4.17223690222141
30
0
41
1
10
-2.2
20
3.10486136355075
30
0
41
1
10
-2.2
20
1.99745538275133
30
0
41
1
10
-2.2
20
1.00299590932914
30
0
41
1
10
-2.2
20
0.430523737893537
30
0
41
1
10
-2.2
20
-2.03164063E-08
30
0
41
1
10
-2.2
20
-0.430523794544825
30
0
41
1
10
-2.2
20
-1.00299597482069
30
0
41
1
10
-2.2
20
-1.99745537289451
30
0
41
1
10
-2.2
20
-3.10486150423552
30
0
41
1
10
-2.2
20
-4.17223684682958
30
0
41
1
10
-2.2
20
-5.21252898167785
30
0
41
1
10
-2.2
20
-6.4607857552443
30
0
41
1
10
-2.2
20
-7.87333982787851
30
0
41
1
10
-2.2
20
-9.19987052615136
30
0
41
1
10
-2.2
20
-10.4396347881955
30
0
41
1
10
-2.2
20
-11.5914144609754
30
0
41
1
10
-2.2
20
-12.6535104390874
30
0
41
1
10
-2.2
20
-13.9476224427057
30
0
41
1
10
-2.2
20
-15.3294666616432
30
0
41
1
10
-2.2
20
-16.3719288388599
30
0
41
1
10
-2.2
20
-16.9766929599708
30
0
41
1
10
-2.2
20
-17.3066644250431
30
0
41
1
10
-2.19999999999999
20
-17.4676797229143
30
0
41
1
10
-2.19999999999999
20
-17.5080189064827
30
0
41
1
10
-2.19999999999999
20
-17.5147942092661
30
0
0
SPLINE
5
13E
100
AcDbEntity
8
SK1
62
256
6
ByLayer
370
18
48
1
60
0
100
AcDbSpline
70
4
71
3
72
45
73
41
40
0
40
0
40
0
40
0
40
0.0275257061816884
40
0.0553183195228949
40
0.0831109328641016
40
0.110903546205308
40
0.166488772887721
40
0.222073999570134
40
0.249866612911341
40
0.277659226252548
40
0.305451839593754
40
0.333244452934961
40
0.361037066276168
40
0.388829679617374
40
0.416622292958581
40
0.430518599629184
40
0.444414906299787
40
0.472207519640994
40
0.486103826311597
40
0.493051979646899
40
0.5000001329822
40
0.506948286317502
40
0.513896439652804
40
0.527792746323407
40
0.555585359664614
40
0.569481666335217
40
0.58337797300582
40
0.611170586347027
40
0.638963199688233
40
0.66675581302944
40
0.694548426370646
40
0.722341039711853
40
0.75013365305306
40
0.777926266394266
40
0.833511493076679
40
0.889096719759092
40
0.916889333100299
40
0.944681946441506
40
0.972474559782712
40
1
40
1
40
1
40
1
41
1
10
-28.5
20
16.8545102172366
30
0
41
1
10
-28.5
20
16.8681142899495
30
0
41
1
10
-28.5
20
16.8405427975977
30
0
41
1
10
-28.5
20
16.653119129773
30
0
41
1
10
-28.5
20
16.3328855300396
30
0
41
1
10
-28.5
20
15.7436777114932
30
0
41
1
10
-28.5
20
14.7294539424714
30
0
41
1
10
-28.5
20
13.3839109677473
30
0
41
1
10
-28.5
20
12.1202722318355
30
0
41
1
10
-28.5
20
11.0855103162798
30
0
41
1
10
-28.5
20
9.96451747418803
30
0
41
1
10
-28.5
20
8.75967525472745
30
0
41
1
10
-28.5
20
7.47337302390386
30
0
41
1
10
-28.5
20
6.10815570815362
30
0
41
1
10
-28.5
20
4.90967166078667
30
0
41
1
10
-28.5
20
3.91146685141305
30
0
41
1
10
-28.5
20
2.89299452712916
30
0
41
1
10
-28.5
20
1.85830097558352
30
0
41
1
10
-28.5
20
0.929574056191939
30
0
41
1
10
-28.5
20
0.397463221290906
30
0
41
1
10
-28.5
20
-1.847321585E-07
30
0
41
1
10
-28.5
20
-0.39746341502854
30
0
41
1
10
-28.5
20
-0.929573956929886
30
0
41
1
10
-28.5
20
-1.85830102725041
30
0
41
1
10
-28.5
20
-2.89299469927084
30
0
41
1
10
-28.5
20
-3.9114668992739
30
0
41
1
10
-28.5
20
-4.9096720321497
30
0
41
1
10
-28.5
20
-6.10815549439155
30
0
41
1
10
-28.5
20
-7.47337327542297
30
0
41
1
10
-28.5
20
-8.75967545377557
30
0
41
1
10
-28.5
20
-9.96451720849825
30
0
41
1
10
-28.5
20
-11.0855105352455
30
0
41
1
10
-28.5
20
-12.1202723366856
30
0
41
1
10
-28.5
20
-13.3839106046769
30
0
41
1
10
-28.5
20
-14.7294543359372
30
0
41
1
10
-28.5
20
-15.7436769514769
30
0
41
1
10
-28.5
20
-16.3328856609547
30
0
41
1
10
-28.5
20
-16.6531187925377
30
0
41
1
10
-28.5
20
-16.8405416071795
30
0
41
1
10
-28.5
20
-16.8681139657731
30
0
41
1
10
-28.5
20
-16.8545105045464
30
0
0
SPLINE
5
13F
100
AcDbEntity
8
1
62
256
6
ByLayer
370
18
48
1
60
0
100
AcDbSpline
70
4
71
3
72
18
73
14
40
0
40
0
40
0
40
0
40
0.10650232087748
40
0.209819720888403
40
0.309970050664587
40
0.406972922400341
40
0.500849920825695
40
0.591624858696179
40
0.679324076625891
40
0.763976789997913
40
0.845615488386
40
0.924276395492376
40
1
40
1
40
1
40
1
41
1
10
57.59011863841
20
-30.5169146481771
30
0
41
1
10
57.5885415273357
20
-30.5162356963495
30
0
41
1
10
57.5854344682343
20
-30.5148980965508
30
0
41
1
10
57.5809243323185
20
-30.5125950376114
30
0
41
1
10
57.5766153234622
20
-30.5101336525213
30
0
41
1
10
57.5725126225171
20
-30.5075098420597
30
0
41
1
10
57.5686149102103
20
-30.5047475341628
30
0
41
1
10
57.5649224452295
20
-30.5018629608244
30
0
41
1
10
57.5614353720448
20
-30.4988731471596
30
0
41
1
10
57.5581528367139
20
-30.49579564553
30
0
41
1
10
57.5550778698625
20
-30.4926415847494
30
0
41
1
10
57.5521996835921
20
-30.4894420074179
30
0
41
1
10
57.5504035869187
20
-30.4872081231617
30
0
41
1
10
57.54952262475
20
-30.4861124318507
30
0
0
SPLINE
5
140
100
AcDbEntity
8
1
62
256
6
ByLayer
370
18
48
1
60
0
100
AcDbSpline
70
4
71
3
72
16
73
12
40
0
40
0
40
0
40
0
40
0.117319552192522
40
0.233085853411044
40
0.347299362420217
40
0.459960556948126
40
0.57106993474474
40
0.680628014712977
40
0.788635338118848
40
0.895092469888324
40
1
40
1
40
1
40
1
41
1
10
57.74894541545
20
-30.572267476298
30
0
41
1
10
57.7426777667126
20
-30.5704446731299
30
0
41
1
10
57.730225449707
20
-30.5668231997771
30
0
41
1
10
57.7117192560249
20
-30.5611085912359
30
0
41
1
10
57.6934972967187
20
-30.5552431101865
30
0
41
1
10
57.6755628433777
20
-30.5492133266125
30
0
41
1
10
57.6579151153778
20
-30.5430337309317
30
0
41
1
10
57.6405540288848
20
-30.5367130798227
30
0
41
1
10
57.623480658135
20
-30.5302550550507
30
0
41
1
10
57.6066908752588
20
-30.5236879439445
30
0
41
1
10
57.5956156516797
20
-30.5191613513213
30
0
41
1
10
57.59011863841
20
-30.51691464817
30
0
0
SPLINE
5
141
100
AcDbEntity
8
1
62
256
6
ByLayer
370
18
48
1
60
0
100
AcDbSpline
70
4
71
2
72
10
73
7
40
0
40
0
40
0
40
0.5
40
0.5
40
0.75
40
0.75
40
1
40
1
40
1
41
1
10
57.7489454154435
20
-30.572267476262
30
0
41
1
10
57.8165392416659
20
-30.5917621635151
30
0
41
1
10
57.864235482769
20
-30.6434857110098
30
0
41
1
10
57.8902224727208
20
-30.671666952926
30
0
41
1
10
57.9068593747304
20
-30.7075223538962
30
0
41
1
10
57.9248252361523
20
-30.7462418922267
30
0
41
1
10
57.928946197083
20
-30.789264413028
30
0
0
SPLINE
5
142
100
AcDbEntity
8
1
62
256
6
ByLayer
370
18
48
1
60
0
100
AcDbSpline
70
4
71
2
72
6
73
3
40
0
40
0
40
0
40
1
40
1
40
1
41
1
10
57.9289461971205
20
-30.789264412942
30
0
41
1
10
57.9378374892931
20
-30.8844834459601
30
0
41
1
10
57.9378609595315
20
-30.9799999993024
30
0
0
SPLINE
5
143
100
AcDbEntity
8
1
62
256
6
ByLayer
370
18
48
1
60
0
100
AcDbSpline
70
4
71
3
72
17
73
13
40
0
40
0
40
0
40
0
40
0.100317411817012
40
0.200541310293724
40
0.300680278273645
40
0.400742920447632
40
0.500737861201934
40
0.600673742442874
40
0.700559221399321
40
0.800402968404971
40
0.900213664663601
40
1
40
1
40
1
40
1
41
1
10
57.92894619712
20
-31.210735587058
30
0
41
1
10
57.9295231228817
20
-31.2043912298246
30
0
41
1
10
57.9306764366097
20
-31.1917084294062
30
0
41
1
10
57.9321818251213
20
-31.1726539472122
30
0
41
1
10
57.9335216262512
20
-31.1535914790205
30
0
41
1
10
57.9346798037512
20
-31.1345196957169
30
0
41
1
10
57.9356607269913
20
-31.1154410706663
30
0
41
1
10
57.9364629358429
20
-31.0963570587512
30
0
41
1
10
57.9370879043616
20
-31.0772693864805
30
0
41
1
10
57.937531197509
20
-31.058179706331
30
0
41
1
10
57.9378090731845
20
-31.0390896896565
30
0
41
1
10
57.9378436654888
20
-31.0263627125725
30
0
41
1
10
57.93786095953
20
-31.0200000006976
30
0
0
SPLINE
5
144
100
AcDbEntity
8
1
62
256
6
ByLayer
370
18
48
1
60
0
100
AcDbSpline
70
4
71
3
72
38
73
34
40
0
40
0
40
0
40
0
40
0.0320161803202297
40
0.063413755651724
40
0.0941938978135348
40
0.124357850632137
40
0.153906935795974
40
0.182842559298723
40
0.21116621854074
40
0.23887951016956
40
0.265984138747589
40
0.29248192635147
40
0.318374823219171
40
0.343664919578683
40
0.368354458810705
40
0.392445852120249
40
0.415941694916211
40
0.438844785127742
40
0.461158143719619
40
0.482885037706402
40
0.504029006008724
40
0.551366811163461
40
0.597409666800769
40
0.642207857911434
40
0.685815975457815
40
0.728293199080122
40
0.769703557232096
40
0.810116149643944
40
0.849605314211504
40
0.888250718111334
40
0.926137351649965
40
0.963355403684997
40
1
40
1
40
1
40
1
41
1
10
57.74894541544
20
-31.427732523738
30
0
41
1
10
57.7515736233648
20
-31.4269514392853
30
0
41
1
10
57.756779257937
20
-31.4254043622094
30
0
41
1
10
57.7644507904023
20
-31.4227682841381
30
0
41
1
10
57.7719249095621
20
-31.4199441000572
30
0
41
1
10
57.7791975153459
20
-31.416921089855
30
0
41
1
10
57.7862696764354
20
-31.4137183659082
30
0
41
1
10
57.7931411178642
20
-31.4103470598266
30
0
41
1
10
57.7998119140361
20
-31.4068201212966
30
0
41
1
10
57.8062820488634
20
-31.4031497437452
30
0
41
1
10
57.8125515300023
20
-31.3993480072651
30
0
41
1
10
57.8186203592458
20
-31.3954266889405
30
0
41
1
10
57.8244885401635
20
-31.3913972918273
30
0
41
1
10
57.8301560763678
20
-31.3872710198155
30
0
41
1
10
57.8356229711881
20
-31.3830587686772
30
0
41
1
10
57.840889230658
20
-31.3787711161078
30
0
41
1
10
57.8459548524164
20
-31.3744183110024
30
0
41
1
10
57.8508198658027
20
-31.3700102765179
30
0
41
1
10
57.8554841879108
20
-31.3655565701326
30
0
41
1
10
57.8599481402181
20
-31.3610665051889
30
0
41
1
10
57.8660095567999
20
-31.354641969507
30
0
41
1
10
57.8734588192033
20
-31.3460531831905
30
0
41
1
10
57.8820027422797
20
-31.3349799163678
30
0
41
1
10
57.8898489226435
20
-31.3235305586926
30
0
41
1
10
57.8969976055379
20
-31.3117506191717
30
0
41
1
10
57.9034486190906
20
-31.2996846186172
30
0
41
1
10
57.9092017357358
20
-31.2873766525563
30
0
41
1
10
57.9142571546107
20
-31.274870165371
30
0
41
1
10
57.9186132961071
20
-31.2622074528296
30
0
41
1
10
57.9222748801839
20
-31.2494310234884
30
0
41
1
10
57.9252236999947
20
-31.2365780883644
30
0
41
1
10
57.9275246334318
20
-31.2237000583365
30
0
41
1
10
57.928474801506
20
-31.2150346518978
30
0
41
1
10
57.92894619708
20
-31.210735586972
30
0
0
SPLINE
5
145
100
AcDbEntity
8
1
62
256
6
ByLayer
370
18
48
1
60
0
100
AcDbSpline
70
4
71
2
72
6
73
3
40
0
40
0
40
0
40
1
40
1
40
1
41
1
10
57.748945415452
20
-31.427732523702
30
0
41
1
10
57.6679467190157
20
-31.450984756672
30
0
41
1
10
57.5901186384125
20
-31.48308535183
30
0
0
SPLINE
5
146
100
AcDbEntity
8
1
62
256
6
ByLayer
370
18
48
1
60
0
100
AcDbSpline
70
4
71
2
72
6
73
3
40
0
40
0
40
0
40
1
40
1
40
1
41
1
10
57.5901186384115
20
-31.483085351823
30
0
41
1
10
57.565819759419
20
-31.4932546708633
30
0
41
1
10
57.5495226247505
20
-31.513887568149
30
0
0
LINE
5
7D
100
AcDbEntity
8
1
62
256
6
ByLayer
370
18
48
1
60
0
100
AcDbLine
10
0
20
-24.7
30
0
11
0.3
21
-25
31
0
39
0
210
0
220
0
230
1
0
LINE
5
7E
100
AcDbEntity
8
1
62
256
6
ByLayer
370
18
48
1
60
0
100
AcDbLine
10
0.3
20
25
30
0
11
0
21
24.7
31
0
39
0
210
0
220
0
230
1
0
LINE
5
7F
100
AcDbEntity
8
1
62
256
6
ByLayer
370
18
48
1
60
0
100
AcDbLine
10
20
20
25
30
0
11
0.3
21
25
31
0
39
0
210
0
220
0
230
1
0
LINE
5
80
100
AcDbEntity
8
1
62
256
6
ByLayer
370
18
48
1
60
0
100
AcDbLine
10
0.3
20
-25
30
0
11
20.279208
21
-25
31
0
39
0
210
0
220
0
230
1
0
LINE
5
81
100
AcDbEntity
8
80
62
256
6
ByLayer
370
18
48
1
60
0
100
AcDbLine
10
0
20
0
30
0
11
-5
21
0
31
0
39
0
210
0
220
0
230
1
0
LINE
5
82
100
AcDbEntity
8
81
62
256
6
ByLayer
370
18
48
1
60
0
100
AcDbLine
10
65
20
-33
30
0
11
70
21
-33
31
0
39
0
210
0
220
0
230
1
0
LINE
5
83
100
AcDbEntity
8
1
62
256
6
ByLayer
370
18
48
1
60
0
100
AcDbLine
10
57.805716
20
-32.832888
30
0
11
57.8053
21
-32.599987
31
0
39
0
210
0
220
0
230
1
0
LINE
5
84
100
AcDbEntity
8
1
62
256
6
ByLayer
370
18
48
1
60
0
100
AcDbLine
10
55.336088
20
-32.836401
30
0
11
55.335915
21
-32.73945
31
0
39
0
210
0
220
0
230
1
0
LINE
5
85
100
AcDbEntity
8
1
62
256
6
ByLayer
370
13
48
1
60
0
100
AcDbLine
10
23.2
20
-26.15
30
0
11
21.593742
21
-26.15
31
0
39
0
210
0
220
0
230
1
0
LINE
5
86
100
AcDbEntity
8
1
62
256
6
ByLayer
370
13
48
1
60
0
100
AcDbLine
10
23.2
20
-25.15
30
0
11
23.2
21
-26.15
31
0
39
0
210
0
220
0
230
1
0
LINE
5
87
100
AcDbEntity
8
1
62
256
6
ByLayer
370
18
48
1
60
0
100
AcDbLine
10
26.893237
20
-32.702138
30
0
11
26.893237
21
-26.15
31
0
39
0
210
0
220
0
230
1
0
LINE
5
88
100
AcDbEntity
8
1
62
256
6
ByLayer
370
13
48
1
60
0
100
AcDbLine
10
26.893237
20
-26.15
30
0
11
23.2
21
-26.15
31
0
39
0
210
0
220
0
230
1
0
LINE
5
89
100
AcDbEntity
8
1
62
256
6
ByLayer
370
13
48
1
60
0
100
AcDbLine
10
23.2
20
-32.20416
30
0
11
23.2
21
-26.15
31
0
39
0
210
0
220
0
230
1
0
LINE
5
8A
100
AcDbEntity
8
1
62
256
6
ByLayer
370
18
48
1
60
0
100
AcDbLine
10
53.086958
20
-37.433473
30
0
11
26.519431
21
-37.433473
31
0
39
0
210
0
220
0
230
1
0
LINE
5
8B
100
AcDbEntity
8
1
62
256
6
ByLayer
370
18
48
1
60
0
100
AcDbLine
10
64
20
-32.96973
30
0
11
64
21
-33.279043
31
0
39
0
210
0
220
0
230
1
0
LINE
5
8C
100
AcDbEntity
8
1
62
256
6
ByLayer
370
18
48
1
60
0
100
AcDbLine
10
60.989772
20
-32.832888
30
0
11
57.805716
21
-32.832888
31
0
39
0
210
0
220
0
230
1
0
LINE
5
8D
100
AcDbEntity
8
1
62
256
6
ByLayer
370
18
48
1
60
0
100
AcDbLine
10
55.336088
20
-32.836401
30
0
11
53.826672
21
-32.836401
31
0
39
0
210
0
220
0
230
1
0
LINE
5
8E
100
AcDbEntity
8
1
62
256
6
ByLayer
370
18
48
1
60
0
100
AcDbLine
10
26.893237
20
-32.702138
30
0
11
27.400095
21
-32.702138
31
0
39
0
210
0
220
0
230
1
0
LINE
5
8F
100
AcDbEntity
8
1
62
256
6
ByLayer
370
18
48
1
60
0
100
AcDbLine
10
27.279216
20
-26.15
30
0
11
27.279216
21
-32.681088
31
0
39
0
210
0
220
0
230
1
0
LINE
5
90
100
AcDbEntity
8
1
62
256
6
ByLayer
370
13
48
1
60
0
100
AcDbLine
10
27.4
20
-26.15
30
0
11
27.279216
21
-26.15
31
0
39
0
210
0
220
0
230
1
0
LINE
5
91
100
AcDbEntity
8
1
62
256
6
ByLayer
370
18
48
1
60
0
100
AcDbLine
10
57
20
-30.725031
30
0
11
57
21
-31.274969
31
0
39
0
210
0
220
0
230
1
0
LINE
5
92
100
AcDbEntity
8
1
62
256
6
ByLayer
370
18
48
1
60
0
100
AcDbLine
10
24.399843
20
-25.15
30
0
11
23.400157
21
-25.15
31
0
39
0
210
0
220
0
230
1
0
LINE
5
93
100
AcDbEntity
8
1
62
256
6
ByLayer
370
18
48
1
60
0
100
AcDbLine
10
24.400047
20
13.5
30
0
11
24.065604
21
13.5
31
0
39
0
210
0
220
0
230
1
0
LINE
5
94
100
AcDbEntity
8
1
62
256
6
ByLayer
370
18
48
1
60
0
100
AcDbLine
10
27.400017
20
-32.681088
30
0
11
27.279216
21
-32.681088
31
0
39
0
210
0
220
0
230
1
0
LINE
5
95
100
AcDbEntity
8
1
62
256
6
ByLayer
370
13
48
1
60
0
100
AcDbLine
10
47
20
-29.350006
30
0
11
47
21
-30.251899
31
0
39
0
210
0
220
0
230
1
0
LINE
5
96
100
AcDbEntity
8
1
62
256
6
ByLayer
370
18
48
1
60
0
100
AcDbLine
10
45.4
20
-27.783861
30
0
11
45.4
21
-28.865409
31
0
39
0
210
0
220
0
230
1
0
LINE
5
97
100
AcDbEntity
8
1
62
256
6
ByLayer
370
18
48
1
60
0
100
AcDbLine
10
53.5
20
-29.577276
30
0
11
53.5
21
-32.863165
31
0
39
0
210
0
220
0
230
1
0
LINE
5
98
100
AcDbEntity
8
1
62
256
6
ByLayer
370
13
48
1
60
0
100
AcDbLine
10
45.472857
20
-29.325
30
0
11
43.360149
21
-29.325
31
0
39
0
210
0
220
0
230
1
0
LINE
5
99
100
AcDbEntity
8
1
62
256
6
ByLayer
370
18
48
1
60
0
100
AcDbLine
10
43.360149
20
-33.446174
30
0
11
46.216445
21
-33.446174
31
0
39
0
210
0
220
0
230
1
0
LINE
5
9A
100
AcDbEntity
8
1
62
256
6
ByLayer
370
18
48
1
60
0
100
AcDbLine
10
26.4
20
-25.15
30
0
11
24.4
21
-25.15
31
0
39
0
210
0
220
0
230
1
0
LINE
5
9B
100
AcDbEntity
8
1
62
256
6
ByLayer
370
18
48
1
60
0
100
AcDbLine
10
45.4
20
-15.1
30
0
11
33.9
21
13.5
31
0
39
0
210
0
220
0
230
1
0
LINE
5
9C
100
AcDbEntity
8
1
62
256
6
ByLayer
370
18
48
1
60
0
100
AcDbLine
10
24.4
20
13.5
30
0
11
33.9
21
13.5
31
0
39
0
210
0
220
0
230
1
0
LINE
5
9D
100
AcDbEntity
8
1
62
256
6
ByLayer
370
18
48
1
60
0
100
AcDbLine
10
24.4
20
-25.15
30
0
11
24.4
21
13.5
31
0
39
0
210
0
220
0
230
1
0
LINE
5
9E
100
AcDbEntity
8
1
62
256
6
ByLayer
370
18
48
1
60
0
100
AcDbLine
10
27.4
20
-33.446174
30
0
11
27.4
21
-26.15
31
0
39
0
210
0
220
0
230
1
0
LINE
5
9F
100
AcDbEntity
8
1
62
256
6
ByLayer
370
18
48
1
60
0
100
AcDbLine
10
43.360149
20
-33.446174
30
0
11
27.4
21
-33.446174
31
0
39
0
210
0
220
0
230
1
0
LINE
5
A0
100
AcDbEntity
8
1
62
256
6
ByLayer
370
18
48
1
60
0
100
AcDbLine
10
43.360149
20
-33.446174
30
0
11
43.360149
21
-29.325
31
0
39
0
210
0
220
0
230
1
0
LINE
5
A1
100
AcDbEntity
8
1
62
256
6
ByLayer
370
18
48
1
60
0
100
AcDbLine
10
45.4
20
-27.783861
30
0
11
45.4
21
-15.1
31
0
39
0
210
0
220
0
230
1
0
LINE
5
A2
100
AcDbEntity
8
1
62
256
6
ByLayer
370
13
48
1
60
0
100
AcDbLine
10
21.438319
20
-22.333741
30
0
11
21.438319
21
-25.15
31
0
39
0
210
0
220
0
230
1
0
LINE
5
A3
100
AcDbEntity
8
1
62
256
6
ByLayer
370
18
48
1
60
0
100
AcDbLine
10
23.4
20
-25.15
30
0
11
23.4
21
13.555767
31
0
39
0
210
0
220
0
230
1
0
LINE
5
A4
100
AcDbEntity
8
1
62
256
6
ByLayer
370
18
48
1
60
0
100
AcDbLine
10
22.045216
20
-25.15
30
0
11
23.4
21
-25.15
31
0
39
0
210
0
220
0
230
1
0
LINE
5
A5
100
AcDbEntity
8
1
62
256
6
ByLayer
370
13
48
1
60
0
100
AcDbLine
10
11.461325
20
23.83913
30
0
11
11.461325
21
7.529667
31
0
39
0
210
0
220
0
230
1
0
LINE
5
A6
100
AcDbEntity
8
1
62
256
6
ByLayer
370
13
48
1
60
0
100
AcDbLine
10
11.894338
20
23.666502
30
0
11
11.894338
21
8.055848
31
0
39
0
210
0
220
0
230
1
0
LINE
5
A7
100
AcDbEntity
8
1
62
256
6
ByLayer
370
13
48
1
60
0
100
AcDbLine
10
8.105662
20
-8.055848
30
0
11
8.105662
21
-23.666502
31
0
39
0
210
0
220
0
230
1
0
LINE
5
A8
100
AcDbEntity
8
1
62
256
6
ByLayer
370
13
48
1
60
0
100
AcDbLine
10
8.538675
20
-7.529667
30
0
11
8.538675
21
-23.83913
31
0
39
0
210
0
220
0
230
1
0
LINE
5
A9
100
AcDbEntity
8
1
62
256
6
ByLayer
370
13
48
1
60
0
100
AcDbLine
10
8.105662
20
23.666502
30
0
11
8.105662
21
8.055848
31
0
39
0
210
0
220
0
230
1
0
LINE
5
AA
100
AcDbEntity
8
1
62
256
6
ByLayer
370
13
48
1
60
0
100
AcDbLine
10
8.538675
20
23.83913
30
0
11
8.538675
21
7.529667
31
0
39
0
210
0
220
0
230
1
0
LINE
5
AB
100
AcDbEntity
8
1
62
256
6
ByLayer
370
13
48
1
60
0
100
AcDbLine
10
11.461325
20
-7.529667
30
0
11
11.461325
21
-23.83913
31
0
39
0
210
0
220
0
230
1
0
LINE
5
AC
100
AcDbEntity
8
1
62
256
6
ByLayer
370
13
48
1
60
0
100
AcDbLine
10
11.894338
20
-8.055848
30
0
11
11.894338
21
-23.666502
31
0
39
0
210
0
220
0
230
1
0
LINE
5
AD
100
AcDbEntity
8
1
62
256
6
ByLayer
370
18
48
1
60
0
100
AcDbLine
10
0
20
24.7
30
0
11
0
21
-24.7
31
0
39
0
210
0
220
0
230
1
0
LINE
5
AE
100
AcDbEntity
8
1
62
256
6
ByLayer
370
18
48
1
60
0
100
AcDbLine
10
0.3
20
25
30
0
11
0.3
21
-25
31
0
39
0
210
0
220
0
230
1
0
LINE
5
AF
100
AcDbEntity
8
1
62
256
6
ByLayer
370
18
48
1
60
0
100
AcDbLine
10
11.461325
20
-23.83913
30
0
11
8.538675
21
-23.83913
31
0
39
0
210
0
220
0
230
1
0
LINE
5
B0
100
AcDbEntity
8
1
62
256
6
ByLayer
370
18
48
1
60
0
100
AcDbLine
10
8.538675
20
-7.529667
30
0
11
11.461325
21
-7.529667
31
0
39
0
210
0
220
0
230
1
0
LINE
5
B1
100
AcDbEntity
8
1
62
256
6
ByLayer
370
18
48
1
60
0
100
AcDbLine
10
8.538675
20
23.83913
30
0
11
11.461325
21
23.83913
31
0
39
0
210
0
220
0
230
1
0
LINE
5
B2
100
AcDbEntity
8
1
62
256
6
ByLayer
370
18
48
1
60
0
100
AcDbLine
10
11.461325
20
7.529667
30
0
11
8.538675
21
7.529667
31
0
39
0
210
0
220
0
230
1
0
LINE
5
B3
100
AcDbEntity
8
1
62
256
6
ByLayer
370
18
48
1
60
0
100
AcDbLine
10
20
20
25
30
0
11
20.063901
21
17.67767
31
0
39
0
210
0
220
0
230
1
0
LINE
5
B4
100
AcDbEntity
8
1
62
256
6
ByLayer
370
13
48
1
60
0
100
AcDbLine
10
20.279208
20
-25
30
0
11
20.279208
21
-20.113995
31
0
39
0
210
0
220
0
230
1
0
LINE
5
B5
100
AcDbEntity
8
1
62
256
6
ByLayer
370
18
48
1
60
0
100
AcDbLine
10
20.063901
20
17.67767
30
0
11
20.065756
21
17.465094
31
0
39
0
210
0
220
0
230
1
0
LINE
5
B6
100
AcDbEntity
8
1
62
256
6
ByLayer
370
13
48
1
60
0
100
AcDbLine
10
20.077974
20
-19.154967
30
0
11
20.077974
21
17.185665
31
0
39
0
210
0
220
0
230
1
0
LINE
5
B7
100
AcDbEntity
8
SK1
62
256
6
ByLayer
370
18
48
1
60
0
100
AcDbLine
10
-0.2
20
-17.833485
30
0
11
-0.2
21
-6.078432
31
0
39
0
210
0
220
0
230
1
0
LINE
5
B9
100
AcDbEntity
8
SK1
62
256
6
ByLayer
370
18
48
1
60
0
100
AcDbLine
10
-0.2
20
17.833485
30
0
11
-0.2
21
6.078431
31
0
39
0
210
0
220
0
230
1
0
LINE
5
BA
100
AcDbEntity
8
SK1
62
256
6
ByLayer
370
13
48
1
60
0
100
AcDbLine
10
-1.307107
20
3.918083
30
0
11
-1.307107
21
-3.918083
31
0
39
0
210
0
220
0
230
1
0
LINE
5
BB
100
AcDbEntity
8
SK1
62
256
6
ByLayer
370
18
48
1
60
0
100
AcDbLine
10
-1.99504
20
17.325269
30
0
11
-1.99504
21
17.320045
31
0
39
0
210
0
220
0
230
1
0
LINE
5
BC
100
AcDbEntity
8
SK1
62
256
6
ByLayer
370
18
48
1
60
0
100
AcDbLine
10
-1.99504
20
-17.320045
30
0
11
-1.99504
21
-17.325269
31
0
39
0
210
0
220
0
230
1
0
LINE
5
BD
100
AcDbEntity
8
1
62
256
6
ByLayer
370
18
48
1
60
0
100
AcDbLine
10
58.63
20
-29.4
30
0
11
60.58649
21
-29.4
31
0
39
0
210
0
220
0
230
1
0
LINE
5
BE
100
AcDbEntity
8
1
62
256
6
ByLayer
370
18
48
1
60
0
100
AcDbLine
10
58.63
20
-32.6
30
0
11
60.58649
21
-32.6
31
0
39
0
210
0
220
0
230
1
0
LINE
5
BF
100
AcDbEntity
8
1
62
256
6
ByLayer
370
18
48
1
60
0
100
AcDbLine
10
64.686914
20
-32.999714
30
0
11
61
21
-32.83874
31
0
39
0
210
0
220
0
230
1
0
LINE
5
C0
100
AcDbEntity
8
1
62
256
6
ByLayer
370
18
48
1
60
0
100
AcDbLine
10
64.686914
20
-29.000286
30
0
11
61
21
-29.16126
31
0
39
0
210
0
220
0
230
1
0
LINE
5
C1
100
AcDbEntity
8
1
62
256
6
ByLayer
370
18
48
1
60
0
100
AcDbLine
10
65
20
-32.7
30
0
11
65
21
-29.3
31
0
39
0
210
0
220
0
230
1
0
LINE
5
C2
100
AcDbEntity
8
1
62
256
6
ByLayer
370
18
48
1
60
0
100
AcDbLine
10
61
20
-29.16126
30
0
11
60.58649
21
-29.4
31
0
39
0
210
0
220
0
230
1
0
LINE
5
C3
100
AcDbEntity
8
1
62
256
6
ByLayer
370
18
48
1
60
0
100
AcDbLine
10
61
20
-32.83874
30
0
11
60.58649
21
-32.6
31
0
39
0
210
0
220
0
230
1
0
LINE
5
C4
100
AcDbEntity
8
1
62
256
6
ByLayer
370
13
48
1
60
0
100
AcDbLine
10
57
20
-30.98
30
0
11
57.937861
21
-30.98
31
0
39
0
210
0
220
0
230
1
0
LINE
5
C5
100
AcDbEntity
8
1
62
256
6
ByLayer
370
13
48
1
60
0
100
AcDbLine
10
57
20
-31.02
30
0
11
57.937861
21
-31.02
31
0
39
0
210
0
220
0
230
1
0
LINE
5
C6
100
AcDbEntity
8
1
62
256
6
ByLayer
370
13
48
1
60
0
100
AcDbLine
10
56.999918
20
-30.789264
30
0
11
57.928946
21
-30.789264
31
0
39
0
210
0
220
0
230
1
0
LINE
5
C7
100
AcDbEntity
8
1
62
256
6
ByLayer
370
13
48
1
60
0
100
AcDbLine
10
56.999918
20
-31.210736
30
0
11
57.928946
21
-31.210736
31
0
39
0
210
0
220
0
230
1
0
LINE
5
C8
100
AcDbEntity
8
1
62
256
6
ByLayer
370
13
48
1
60
0
100
AcDbLine
10
56.910754
20
-31.427733
30
0
11
57.748945
21
-31.427733
31
0
39
0
210
0
220
0
230
1
0
LINE
5
C9
100
AcDbEntity
8
1
62
256
6
ByLayer
370
13
48
1
60
0
100
AcDbLine
10
56.910754
20
-30.572267
30
0
11
57.748945
21
-30.572267
31
0
39
0
210
0
220
0
230
1
0
LINE
5
CA
100
AcDbEntity
8
1
62
256
6
ByLayer
370
13
48
1
60
0
100
AcDbLine
10
57.590119
20
-31.483085
30
0
11
56.80632
21
-31.483085
31
0
39
0
210
0
220
0
230
1
0
LINE
5
CB
100
AcDbEntity
8
1
62
256
6
ByLayer
370
13
48
1
60
0
100
AcDbLine
10
57.590119
20
-30.516915
30
0
11
56.80632
21
-30.516915
31
0
39
0
210
0
220
0
230
1
0
LINE
5
CC
100
AcDbEntity
8
1
62
256
6
ByLayer
370
13
48
1
60
0
100
AcDbLine
10
56.772606
20
-30.486112
30
0
11
57.549523
21
-30.486112
31
0
39
0
210
0
220
0
230
1
0
LINE
5
CD
100
AcDbEntity
8
1
62
256
6
ByLayer
370
13
48
1
60
0
100
AcDbLine
10
56.772685
20
-31.513888
30
0
11
57.549523
21
-31.513888
31
0
39
0
210
0
220
0
230
1
0
LINE
5
CE
100
AcDbEntity
8
1
62
256
6
ByLayer
370
13
48
1
60
0
100
AcDbLine
10
56.761059
20
-30.394335
30
0
11
57.477691
21
-30.394335
31
0
39
0
210
0
220
0
230
1
0
LINE
5
CF
100
AcDbEntity
8
1
62
256
6
ByLayer
370
13
48
1
60
0
100
AcDbLine
10
56.761215
20
-31.605665
30
0
11
57.477691
21
-31.605665
31
0
39
0
210
0
220
0
230
1
0
LINE
5
D0
100
AcDbEntity
8
1
62
256
6
ByLayer
370
13
48
1
60
0
100
AcDbLine
10
56.755788
20
-31.649934
30
0
11
57.457959
21
-31.649934
31
0
39
0
210
0
220
0
230
1
0
LINE
5
D1
100
AcDbEntity
8
1
62
256
6
ByLayer
370
13
48
1
60
0
100
AcDbLine
10
56.755478
20
-30.350066
30
0
11
57.457959
21
-30.350066
31
0
39
0
210
0
220
0
230
1
0
LINE
5
D2
100
AcDbEntity
8
1
62
256
6
ByLayer
370
18
48
1
60
0
100
AcDbLine
10
56.636081
20
-32.6
30
0
11
57.334518
21
-32.6
31
0
39
0
210
0
220
0
230
1
0
LINE
5
D3
100
AcDbEntity
8
1
62
256
6
ByLayer
370
13
48
1
60
0
100
AcDbLine
10
56.66675
20
-32.358749
30
0
11
57.334518
21
-32.358749
31
0
39
0
210
0
220
0
230
1
0
LINE
5
D4
100
AcDbEntity
8
1
62
256
6
ByLayer
370
13
48
1
60
0
100
AcDbLine
10
56.668967
20
-32.341384
30
0
11
57.336037
21
-32.341384
31
0
39
0
210
0
220
0
230
1
0
LINE
5
D5
100
AcDbEntity
8
1
62
256
6
ByLayer
370
18
48
1
60
0
100
AcDbLine
10
56.636081
20
-29.4
30
0
11
57.334518
21
-29.4
31
0
39
0
210
0
220
0
230
1
0
LINE
5
D6
100
AcDbEntity
8
1
62
256
6
ByLayer
370
18
48
1
60
0
100
AcDbLine
10
58.63
20
-29.4
30
0
11
57.334518
21
-29.4
31
0
39
0
210
0
220
0
230
1
0
LINE
5
D7
100
AcDbEntity
8
1
62
256
6
ByLayer
370
18
48
1
60
0
100
AcDbLine
10
57.334518
20
-29.4
30
0
11
57.334518
21
-29.641251
31
0
39
0
210
0
220
0
230
1
0
LINE
5
D8
100
AcDbEntity
8
1
62
256
6
ByLayer
370
18
48
1
60
0
100
AcDbLine
10
57.336037
20
-29.658616
30
0
11
57.457959
21
-30.350066
31
0
39
0
210
0
220
0
230
1
0
LINE
5
D9
100
AcDbEntity
8
1
62
256
6
ByLayer
370
18
48
1
60
0
100
AcDbLine
10
57.477691
20
-30.394335
30
0
11
57.549523
21
-30.486112
31
0
39
0
210
0
220
0
230
1
0
LINE
5
DA
100
AcDbEntity
8
1
62
256
6
ByLayer
370
18
48
1
60
0
100
AcDbLine
10
57.937861
20
-31.02
30
0
11
57.937861
21
-30.98
31
0
39
0
210
0
220
0
230
1
0
LINE
5
DB
100
AcDbEntity
8
1
62
256
6
ByLayer
370
18
48
1
60
0
100
AcDbLine
10
57.477691
20
-31.605665
30
0
11
57.549523
21
-31.513888
31
0
39
0
210
0
220
0
230
1
0
LINE
5
DC
100
AcDbEntity
8
1
62
256
6
ByLayer
370
18
48
1
60
0
100
AcDbLine
10
57.336037
20
-32.341384
30
0
11
57.457959
21
-31.649934
31
0
39
0
210
0
220
0
230
1
0
LINE
5
DD
100
AcDbEntity
8
1
62
256
6
ByLayer
370
18
48
1
60
0
100
AcDbLine
10
57.334518
20
-32.6
30
0
11
57.334518
21
-32.358749
31
0
39
0
210
0
220
0
230
1
0
LINE
5
DE
100
AcDbEntity
8
1
62
256
6
ByLayer
370
18
48
1
60
0
100
AcDbLine
10
58.63
20
-32.6
30
0
11
57.334518
21
-32.6
31
0
39
0
210
0
220
0
230
1
0
LINE
5
DF
100
AcDbEntity
8
1
62
256
6
ByLayer
370
18
48
1
60
0
100
AcDbLine
10
58.63
20
-32.6
30
0
11
58.63
21
-29.4
31
0
39
0
210
0
220
0
230
1
0
LINE
5
E0
100
AcDbEntity
8
1
62
256
6
ByLayer
370
13
48
1
60
0
100
AcDbLine
10
56.666448
20
-29.641251
30
0
11
57.334518
21
-29.641251
31
0
39
0
210
0
220
0
230
1
0
LINE
5
E1
100
AcDbEntity
8
1
62
256
6
ByLayer
370
13
48
1
60
0
100
AcDbLine
10
56.668513
20
-29.658616
30
0
11
57.336037
21
-29.658616
31
0
39
0
210
0
220
0
230
1
0
LINE
5
E2
100
AcDbEntity
8
SK2
62
256
6
ByLayer
370
18
48
1
60
0
100
AcDbLine
10
-39.975
20
-25
30
0
11
-39.975
21
25
31
0
39
0
210
0
220
0
230
1
0
LINE
5
E4
100
AcDbEntity
8
SK2
62
256
6
ByLayer
370
18
48
1
60
0
100
AcDbLine
10
-1.2875
20
25
30
0
11
-41.975
21
25
31
0
39
0
210
0
220
0
230
1
0
LINE
5
E5
100
AcDbEntity
8
SK2
62
256
6
ByLayer
370
18
48
1
60
0
100
AcDbLine
10
-1.2875
20
-25
30
0
11
-41.975
21
-25
31
0
39
0
210
0
220
0
230
1
0
LINE
5
E6
100
AcDbEntity
8
1
62
256
6
ByLayer
370
18
48
1
60
1
100
AcDbLine
10
-39.975
20
25
30
0
11
-39.514216
21
21.500002
31
0
39
0
210
0
220
0
230
1
0
LINE
5
E7
100
AcDbEntity
8
1
62
256
6
ByLayer
370
18
48
1
60
1
100
AcDbLine
10
-39.514216
20
21.500002
30
0
11
-40.435784
21
21.499998
31
0
39
0
210
0
220
0
230
1
0
LINE
5
E8
100
AcDbEntity
8
1
62
256
6
ByLayer
370
18
48
1
60
1
100
AcDbLine
10
-40.435784
20
21.499998
30
0
11
-39.975
21
25
31
0
39
0
210
0
220
0
230
1
0
LINE
5
E9
100
AcDbEntity
8
1
62
256
6
ByLayer
370
18
48
1
60
1
100
AcDbLine
10
-39.975
20
-25
30
0
11
-40.435784
21
-21.500002
31
0
39
0
210
0
220
0
230
1
0
LINE
5
EA
100
AcDbEntity
8
1
62
256
6
ByLayer
370
18
48
1
60
1
100
AcDbLine
10
-40.435784
20
-21.500002
30
0
11
-39.514216
21
-21.499998
31
0
39
0
210
0
220
0
230
1
0
LINE
5
EB
100
AcDbEntity
8
1
62
256
6
ByLayer
370
18
48
1
60
1
100
AcDbLine
10
-39.514216
20
-21.499998
30
0
11
-39.975
21
-25
31
0
39
0
210
0
220
0
230
1
0
LINE
5
14B
100
AcDbEntity
8
1
62
256
6
ByLayer
370
18
48
1
60
1
100
AcDbLine
10
-39.975
20
25
30
0
11
-39.514216
21
21.500002
31
0
39
0
210
0
220
0
230
1
0
LINE
5
14C
100
AcDbEntity
8
1
62
256
6
ByLayer
370
18
48
1
60
1
100
AcDbLine
10
-39.514216
20
21.500002
30
0
11
-40.435784
21
21.499998
31
0
39
0
210
0
220
0
230
1
0
LINE
5
14D
100
AcDbEntity
8
1
62
256
6
ByLayer
370
18
48
1
60
1
100
AcDbLine
10
-40.435784
20
21.499998
30
0
11
-39.975
21
25
31
0
39
0
210
0
220
0
230
1
0
LINE
5
14F
100
AcDbEntity
8
1
62
256
6
ByLayer
370
18
48
1
60
1
100
AcDbLine
10
-39.975
20
-25
30
0
11
-40.435784
21
-21.500002
31
0
39
0
210
0
220
0
230
1
0
LINE
5
150
100
AcDbEntity
8
1
62
256
6
ByLayer
370
18
48
1
60
1
100
AcDbLine
10
-40.435784
20
-21.500002
30
0
11
-39.514216
21
-21.499998
31
0
39
0
210
0
220
0
230
1
0
LINE
5
151
100
AcDbEntity
8
1
62
256
6
ByLayer
370
18
48
1
60
1
100
AcDbLine
10
-39.514216
20
-21.499998
30
0
11
-39.975
21
-25
31
0
39
0
210
0
220
0
230
1
0
MTEXT
5
147
100
AcDbEntity
8
SK2
62
256
6
ByLayer
370
18
48
1
60
0
100
AcDbMText
10
-41.539634
20
-4.530622
30
0
210
0
220
0
230
1
1
%%c
40
3.5
41
0
44
1.084337
50
90
71
7
72
5
7
iso_b_vert
0
MTEXT
5
14A
100
AcDbEntity
8
SK2
62
256
6
ByLayer
370
18
48
1
60
0
100
AcDbMText
10
-41.539634
20
2.442034
30
0
210
0
220
0
230
1
1
\W0.6740;50
40
3.5
41
0
44
1.084337
50
90
71
7
72
5
7
iso_b_vert
0
MTEXT
5
153
100
AcDbEntity
8
SK6
62
256
6
ByLayer
370
18
48
1
60
0
100
AcDbMText
10
-14.8145
20
-64.269695
30
0
210
0
220
0
230
1
1
\W0.7533;C2A-CC5-LFH18B-092CB
40
3.5
41
0
44
1.084337
50
0
71
7
72
5
7
iso_b_vert
0
HATCH
5
14E
100
AcDbEntity
8
SK2
62
256
6
ByLayer
370
13
48
1
60
0
100
AcDbHatch
10
0
20
0
30
0
210
0
220
0
230
1
2
ANSI31
70
0
71
0
91
1
92
5
93
3
72
1
10
-39.9750000000002
20
25
11
-39.5142162584474
21
21.5000016925532
72
1
10
-39.5142162584474
20
21.5000016925532
11
-40.4357837415529
21
21.4999983074468
72
1
10
-40.4357837415529
20
21.4999983074468
11
-39.9750000000002
21
25
97
0
75
0
76
1
52
0
41
0.0062
77
0
78
1
53
45
43
0
44
0
45
-0.0139193969876572
46
0.0139193969876572
79
0
47
0
98
1
10
0
20
0
0
HATCH
5
152
100
AcDbEntity
8
SK2
62
256
6
ByLayer
370
13
48
1
60
0
100
AcDbHatch
10
0
20
0
30
0
210
0
220
0
230
1
2
ANSI31
70
0
71
0
91
1
92
5
93
3
72
1
10
-39.9750000000002
20
-25
11
-40.4357837415529
21
-21.5000016925532
72
1
10
-40.4357837415529
20
-21.5000016925532
11
-39.5142162584474
21
-21.4999983074468
72
1
10
-39.5142162584474
20
-21.4999983074468
11
-39.9750000000002
21
-25
97
0
75
0
76
1
52
0
41
0.0062
77
0
78
1
53
45
43
0
44
0
45
-0.0139193969876572
46
0.0139193969876572
79
0
47
0
98
1
10
0
20
0
0
DIMENSION
5
156
100
AcDbEntity
8
2
62
256
6
ByLayer
370
18
48
1
60
0
100
AcDbDimension
2
_U0
10
96.1
20
0
30
0
11
96.1
21
-16.5
31
0
70
32
71
1
72
1
41
1
210
0
220
0
230
1
3
Standard
100
AcDbAlignedDimension
13
65
23
-33
33
0
14
0
24
0
34
0
50
90
100
AcDbRotatedDimension
1001
ACAD
1000
DSTYLE
1002
{
1070
   371
1070
    13
1070
   372
1070
    13
1070
   170
1070
     0
1070
   144
1040
1.0
1070
   277
1070
     2
1070
   284
1070
     8
1070
   278
1070
    46
1070
   146
1040
1.0
1070
   345
1005
16
1070
   347
1005
16
1070
   346
1005
16
1070
   344
1005
0
1070
   343
1005
0
1070
   172
1070
     1
1070
    76
1070
     0
1070
    75
1070
     0
1070
   282
1070
     0
1070
   281
1070
     0
1070
    71
1070
     0
1070
    74
1070
     0
1070
   279
1070
     0
1070
   173
1070
     1
1070
   340
1005
148
1070
   271
1070
     1
1070
   272
1070
     2
1070
    77
1070
     1
1070
    73
1070
     0
1070
   171
1070
     3
1070
   274
1070
     4
1070
   177
1070
     2
1070
   176
1070
     2
1070
   178
1070
     2
1070
    78
1070
     8
1070
    48
1040
-0.1
1070
    41
1040
3.5
1070
   147
1040
1.75
1070
    42
1040
1.5875
1070
    44
1040
2.0
1070
   140
1040
3.5
1002
}
1001
ACAD_DSTYLE_DIM_LINETYPE
1070
   380
1005
16
1001
ACAD_DSTYLE_DIM_EXT1_LINETYPE
1070
   381
1005
16
1001
ACAD_DSTYLE_DIM_EXT2_LINETYPE
1070
   382
1005
16
0
DIMENSION
5
170
100
AcDbEntity
8
2
62
256
6
ByLayer
370
18
48
1
60
0
100
AcDbDimension
2
_U1
10
85.1
20
-33
30
0
11
85.1
21
-31
31
0
70
32
71
1
72
1
41
1
210
0
220
0
230
1
3
Standard
100
AcDbAlignedDimension
13
65
23
-29
33
0
14
65
24
-33
34
0
50
90
100
AcDbRotatedDimension
1001
ACAD
1000
DSTYLE
1002
{
1070
   371
1070
    13
1070
   372
1070
    13
1070
   170
1070
     0
1070
   144
1040
1.0
1070
   277
1070
     2
1070
   284
1070
     8
1070
   278
1070
    46
1070
   146
1040
1.0
1070
   345
1005
16
1070
   347
1005
16
1070
   346
1005
16
1070
   344
1005
0
1070
   343
1005
0
1070
   172
1070
     1
1070
    76
1070
     0
1070
    75
1070
     0
1070
   282
1070
     0
1070
   281
1070
     0
1070
    71
1070
     0
1070
    74
1070
     0
1070
   279
1070
     0
1070
   173
1070
     1
1070
   340
1005
148
1070
   271
1070
     1
1070
   272
1070
     2
1070
    77
1070
     1
1070
    73
1070
     0
1070
   171
1070
     3
1070
   274
1070
     4
1070
   177
1070
     2
1070
   176
1070
     2
1070
   178
1070
     2
1070
    78
1070
     8
1070
    48
1040
-0.1
1070
    41
1040
3.5
1070
   147
1040
1.75
1070
    42
1040
1.5875
1070
    44
1040
2.0
1070
   140
1040
3.5
1002
}
1001
ACAD_DSTYLE_DIM_LINETYPE
1070
   380
1005
16
1001
ACAD_DSTYLE_DIM_EXT1_LINETYPE
1070
   381
1005
16
1001
ACAD_DSTYLE_DIM_EXT2_LINETYPE
1070
   382
1005
16
0
DIMENSION
5
189
100
AcDbEntity
8
2
62
256
6
ByLayer
370
18
48
1
60
0
100
AcDbDimension
2
_U2
10
65
20
18.925
30
0
11
56
21
18.925
31
0
70
32
71
1
72
1
41
1
210
0
220
0
230
1
3
Standard
100
AcDbAlignedDimension
13
47
23
-29.325
33
0
14
65
24
-29
34
0
50
0
100
AcDbRotatedDimension
1001
ACAD
1000
DSTYLE
1002
{
1070
   371
1070
    13
1070
   372
1070
    13
1070
   170
1070
     0
1070
   144
1040
1.0
1070
   277
1070
     2
1070
   284
1070
     8
1070
   278
1070
    46
1070
   146
1040
1.0
1070
   345
1005
16
1070
   347
1005
16
1070
   346
1005
16
1070
   344
1005
0
1070
   343
1005
0
1070
   172
1070
     1
1070
    76
1070
     0
1070
    75
1070
     0
1070
   282
1070
     0
1070
   281
1070
     0
1070
    71
1070
     0
1070
    74
1070
     0
1070
   279
1070
     0
1070
   173
1070
     1
1070
   340
1005
148
1070
   271
1070
     1
1070
   272
1070
     2
1070
    77
1070
     1
1070
    73
1070
     1
1070
   171
1070
     3
1070
   274
1070
     4
1070
   177
1070
     2
1070
   176
1070
     2
1070
   178
1070
     2
1070
    78
1070
     8
1070
    48
1040
-0.1
1070
    41
1040
3.5
1070
   147
1040
1.75
1070
    42
1040
1.5875
1070
    44
1040
2.0
1070
   140
1040
3.5
1002
}
1001
ACAD_DSTYLE_DIM_LINETYPE
1070
   380
1005
16
1001
ACAD_DSTYLE_DIM_EXT1_LINETYPE
1070
   381
1005
16
1001
ACAD_DSTYLE_DIM_EXT2_LINETYPE
1070
   382
1005
16
0
DIMENSION
5
1A1
100
AcDbEntity
8
2
62
256
6
ByLayer
370
18
48
1
60
0
100
AcDbDimension
2
_U3
10
65
20
-50.75
30
0
11
32.5
21
-50.75
31
0
70
32
71
1
72
1
41
1
210
0
220
0
230
1
3
Standard
100
AcDbAlignedDimension
13
0
23
0
33
0
14
65
24
-33
34
0
50
0
100
AcDbRotatedDimension
1001
ACAD
1000
DSTYLE
1002
{
1070
   371
1070
    13
1070
   372
1070
    13
1070
   170
1070
     0
1070
   144
1040
1.0
1070
   277
1070
     2
1070
   284
1070
     8
1070
   278
1070
    46
1070
   146
1040
1.0
1070
   345
1005
16
1070
   347
1005
16
1070
   346
1005
16
1070
   344
1005
0
1070
   343
1005
0
1070
   172
1070
     1
1070
    76
1070
     0
1070
    75
1070
     0
1070
   282
1070
     0
1070
   281
1070
     0
1070
    71
1070
     0
1070
    74
1070
     0
1070
   279
1070
     0
1070
   173
1070
     1
1070
   340
1005
148
1070
   271
1070
     1
1070
   272
1070
     2
1070
    77
1070
     1
1070
    73
1070
     1
1070
   171
1070
     3
1070
   274
1070
     4
1070
   177
1070
     2
1070
   176
1070
     2
1070
   178
1070
     2
1070
    78
1070
     8
1070
    48
1040
-0.1
1070
    41
1040
3.5
1070
   147
1040
1.75
1070
    42
1040
1.5875
1070
    44
1040
2.0
1070
   140
1040
3.5
1002
}
1001
ACAD_DSTYLE_DIM_LINETYPE
1070
   380
1005
16
1001
ACAD_DSTYLE_DIM_EXT1_LINETYPE
1070
   381
1005
16
1001
ACAD_DSTYLE_DIM_EXT2_LINETYPE
1070
   382
1005
16
0
ENDSEC
0
SECTION
2
OBJECTS
0
DICTIONARY
5
228
330
0
100
AcDbDictionary
280
0
281
1
3
ACAD_GROUP
350
229
3
ACAD_MLINESTYLE
350
22a
0
DICTIONARY
5
229
330
0
100
AcDbDictionary
280
0
281
1
0
DICTIONARY
5
22a
330
0
100
AcDbDictionary
280
0
281
1
3
Standard
350
18
0
MLINESTYLE
5
18
330
22a
100
AcDbMlineStyle
2
Standard
70
0
3

62
256
51
90
52
90
71
2
49
-0.5
62
256
6
ByLayer
49
0.5
62
256
6
ByLayer
0
RASTERVARIABLES
5
217
330

100
AcDbRasterVariables
90
0
70
1
71
1
72
1
0
ENDSEC
0
EOF
