0
SECTION
2
HEADER
9
$ACADVER
1
AC1015
9
$DWGCODEPAGE
3
ANSI_1252
9
$HANDSEED
5
269
9
$ANGBASE
50
0
9
$ANGDIR
70
0
9
$ATTMODE
70
1
9
$AUNITS
70
0
9
$AUPREC
70
0
9
$CECOLOR
62
256
9
$CELTSCALE
40
1
9
$CELTYPE
6
ByLayer
9
$CELWEIGHT
370
18
9
$CLAYER
8
0
9
$CMLJUST
70
0
9
$CMLSCALE
40
1
9
$CMLSTYLE
2
Standard
9
$DIMSTYLE
2
Standard
9
$TEXTSIZE
40
0.2
9
$TEXTSTYLE
7
Standard
9
$LUNITS
70
2
9
$LUPREC
70
4
9
$EXTNAMES
290
1
9
$INSUNITS
70
4
9
$LTSCALE
40
1
9
$LWDISPLAY
290
1
9
$PDMODE
70
0
9
$PDSIZE
40
0
9
$PLINEGEN
70
0
0
ENDSEC
0
SECTION
2
CLASSES
0
CLASS
1
RASTERVARIABLES
2
AcDbRasterVariables
3
ISM
90
0
280
0
281
0
0
ENDSEC
0
SECTION
2
TABLES
0
TABLE
2
VPORT
5
25f
100
AcDbSymbolTable
0
VPORT
5
1
100
AcDbSymbolTableRecord
100
AcDbViewportTableRecord
2
*Active
70
0
10
0
20
0
11
1
21
1
12
-1
22
1
13
0
23
0
14
0.5
24
0.5
15
10
25
10
16
0
26
0
36
1
17
0
27
0
37
0
0
ENDTAB
0
TABLE
2
LTYPE
5
260
100
AcDbSymbolTable
0
LTYPE
5
14
100
AcDbSymbolTableRecord
100
AcDbLinetypeTableRecord
70
0
2
ByBlock
3

72
65
73
0
40
0
0
LTYPE
5
15
100
AcDbSymbolTableRecord
100
AcDbLinetypeTableRecord
70
0
2
ByLayer
3

72
65
73
0
40
0
0
LTYPE
5
16
100
AcDbSymbolTableRecord
100
AcDbLinetypeTableRecord
70
0
2
Continuous
3
Solid line
72
65
73
0
40
0
0
LTYPE
5
6E
100
AcDbSymbolTableRecord
100
AcDbLinetypeTableRecord
70
0
2
CENTER
3
____ _ ____ _ ____ _ ____
72
65
73
4
40
47.5
49
22
74
0
49
-8.5
74
0
49
8.5
74
0
49
-8.5
74
0
0
LTYPE
5
6F
100
AcDbSymbolTableRecord
100
AcDbLinetypeTableRecord
70
0
2
DASHED
3
__ __ __ __ __ __ __ __ __
72
65
73
2
40
25.72
49
12.86
74
0
49
-12.86
74
0
0
ENDTAB
0
TABLE
2
LAYER
5
261
100
AcDbSymbolTable
0
LAYER
5
10
100
AcDbSymbolTableRecord
100
AcDbLayerTableRecord
2
0
70
0
62
7
6
Continuous
290
1
370
-3
390
0
0
LAYER
5
71
100
AcDbSymbolTableRecord
100
AcDbLayerTableRecord
2
1
70
0
62
4
6
Continuous
290
1
370
-3
390
0
0
LAYER
5
73
100
AcDbSymbolTableRecord
100
AcDbLayerTableRecord
2
81
70
0
62
-3
6
Continuous
290
1
370
-3
390
0
0
LAYER
5
75
100
AcDbSymbolTableRecord
100
AcDbLayerTableRecord
2
80
70
0
62
-6
6
Continuous
290
1
370
-3
390
0
0
LAYER
5
174
100
AcDbSymbolTableRecord
100
AcDbLayerTableRecord
2
Defpoints
70
0
62
7
6
Continuous
290
0
370
-3
390
0
0
LAYER
5
181
100
AcDbSymbolTableRecord
100
AcDbLayerTableRecord
2
2
70
0
62
7
6
Continuous
290
1
370
-3
390
0
0
LAYER
5
24d
100
AcDbSymbolTableRecord
100
AcDbLayerTableRecord
2
SK6
70
0
62
5
6
Continuous
290
1
370
-3
390
0
0
LAYER
5
24e
100
AcDbSymbolTableRecord
100
AcDbLayerTableRecord
2
SK2
70
0
62
7
6
Continuous
290
1
370
-3
390
0
0
ENDTAB
0
TABLE
2
STYLE
5
262
100
AcDbSymbolTable
0
STYLE
5
11
100
AcDbSymbolTableRecord
100
AcDbTextStyleTableRecord
2
Standard
3
txt
70
0
71
0
40
0
41
1
42
0
50
0
0
STYLE
5
16D
100
AcDbSymbolTableRecord
100
AcDbTextStyleTableRecord
2
iso_b_vert
3
simplex.shx
70
0
71
0
40
0
41
1
42
0
50
0
0
STYLE
5
16E
100
AcDbSymbolTableRecord
100
AcDbTextStyleTableRecord
2
DWGDirectTextStyle
3
simplex
70
0
71
0
40
0
41
1
42
0
50
0
0
ENDTAB
0
TABLE
2
DIMSTYLE
5
263
100
AcDbSymbolTable
100
AcDbDimStyleTable
0
DIMSTYLE
105
27
100
AcDbSymbolTableRecord
100
AcDbDimStyleTableRecord
2
Standard
70
0
3
<>
41
0.18
42
0.0625
44
0.18
140
0.18
147
0.09
73
0
74
0
77
1
271
2
275
0
278
52
280
0
340
11
0
ENDTAB
0
TABLE
2
VIEW
5
264
100
AcDbSymbolTable
0
ENDTAB
0
TABLE
2
UCS
5
265
100
AcDbSymbolTable
0
ENDTAB
0
TABLE
2
APPID
5
266
100
AcDbSymbolTable
0
APPID
5
12
100
AcDbSymbolTableRecord
100
AcDbRegAppTableRecord
2
ACAD
70
0
0
APPID
5
170
100
AcDbSymbolTableRecord
100
AcDbRegAppTableRecord
2
ACAD_DSTYLE_DIMBREAK
70
0
0
APPID
5
20C
100
AcDbSymbolTableRecord
100
AcDbRegAppTableRecord
2
ACAD_DSTYLE_DIM_LINETYPE
70
0
0
APPID
5
20D
100
AcDbSymbolTableRecord
100
AcDbRegAppTableRecord
2
ACAD_DSTYLE_DIM_EXT1_LINETYPE
70
0
0
APPID
5
20E
100
AcDbSymbolTableRecord
100
AcDbRegAppTableRecord
2
ACAD_DSTYLE_DIM_EXT2_LINETYPE
70
0
0
APPID
5
249
100
AcDbSymbolTableRecord
100
AcDbRegAppTableRecord
2
ACAD_MLEADERVER
70
0
0
ENDTAB
0
TABLE
2
BLOCK_RECORD
5
267
100
AcDbSymbolTable
0
BLOCK_RECORD
5
1F
100
AcDbSymbolTableRecord
100
AcDbBlockTableRecord
2
*Model_Space
340
0
70
0
0
BLOCK_RECORD
5
1B
100
AcDbSymbolTableRecord
100
AcDbBlockTableRecord
2
*Paper_Space
340
0
70
0
0
BLOCK_RECORD
5
23
100
AcDbSymbolTableRecord
100
AcDbBlockTableRecord
2
*Paper_Space0
340
0
70
0
0
BLOCK_RECORD
5
175
100
AcDbSymbolTableRecord
100
AcDbBlockTableRecord
2
*D1
340
0
70
0
0
BLOCK_RECORD
5
182
100
AcDbSymbolTableRecord
100
AcDbBlockTableRecord
2
_U0
340
0
70
0
0
BLOCK_RECORD
5
18E
100
AcDbSymbolTableRecord
100
AcDbBlockTableRecord
2
*D3
340
0
70
0
0
BLOCK_RECORD
5
19B
100
AcDbSymbolTableRecord
100
AcDbBlockTableRecord
2
_U1
340
0
70
0
0
BLOCK_RECORD
5
1A7
100
AcDbSymbolTableRecord
100
AcDbBlockTableRecord
2
*D5
340
0
70
0
0
BLOCK_RECORD
5
1B4
100
AcDbSymbolTableRecord
100
AcDbBlockTableRecord
2
_U2
340
0
70
0
0
BLOCK_RECORD
5
1C0
100
AcDbSymbolTableRecord
100
AcDbBlockTableRecord
2
*D7
340
0
70
0
0
BLOCK_RECORD
5
1CD
100
AcDbSymbolTableRecord
100
AcDbBlockTableRecord
2
_U3
340
0
70
0
0
BLOCK_RECORD
5
1D9
100
AcDbSymbolTableRecord
100
AcDbBlockTableRecord
2
*D9
340
0
70
0
0
BLOCK_RECORD
5
1E5
100
AcDbSymbolTableRecord
100
AcDbBlockTableRecord
2
_U4
340
0
70
0
0
ENDTAB
0
ENDSEC
0
SECTION
2
BLOCKS
0
BLOCK
5
20
100
AcDbEntity
8
0
100
AcDbBlockBegin
2
*Model_Space
70
0
10
0
20
0
30
0
3
*Model_Space
0
ENDBLK
5
21
100
AcDbEntity
8
0
100
AcDbBlockEnd
0
BLOCK
5
1C
100
AcDbEntity
8
0
100
AcDbBlockBegin
2
*Paper_Space
70
0
10
0
20
0
30
0
3
*Paper_Space
0
ENDBLK
5
1D
100
AcDbEntity
8
0
100
AcDbBlockEnd
0
BLOCK
5
24
100
AcDbEntity
8
0
100
AcDbBlockBegin
2
*Paper_Space0
70
0
10
0
20
0
30
0
3
*Paper_Space0
0
ENDBLK
5
25
100
AcDbEntity
8
0
100
AcDbBlockEnd
0
BLOCK
5
176
100
AcDbEntity
8
0
100
AcDbBlockBegin
2
*D1
70
1
10
0
20
0
30
0
3
*D1
0
LINE
5
178
100
AcDbEntity
8
0
62
256
6
ByLayer
370
-2
48
1
60
0
100
AcDbLine
10
1.5875
20
0
30
0
11
88.111264
21
0
31
0
39
0
210
0
220
0
230
1
0
LINE
5
179
100
AcDbEntity
8
0
62
256
6
ByLayer
370
-2
48
1
60
0
100
AcDbLine
10
61.5875
20
-27
30
0
11
88.111264
21
-27
31
0
39
0
210
0
220
0
230
1
0
LINE
5
17A
100
AcDbEntity
8
0
62
256
6
ByLayer
370
-2
48
1
60
0
100
AcDbLine
10
86.111264
20
-3.5
30
0
11
86.111264
21
-23.5
31
0
39
0
210
0
220
0
230
1
0
SOLID
5
17B
100
AcDbEntity
8
0
62
256
6
ByLayer
370
-1
48
1
60
0
100
AcDbTrace
10
86.694598
20
-3.5
30
0
11
85.527931
21
-3.5
31
0
12
86.111264
22
0
32
0
13
86.111264
23
0
33
0
39
0
210
0
220
0
230
1
0
SOLID
5
17C
100
AcDbEntity
8
0
62
256
6
ByLayer
370
-1
48
1
60
0
100
AcDbTrace
10
85.527931
20
-23.5
30
0
11
86.694598
21
-23.5
31
0
12
86.111264
22
-27
32
0
13
86.111264
23
-27
33
0
39
0
210
0
220
0
230
1
0
MTEXT
5
17D
100
AcDbEntity
8
0
62
256
6
ByLayer
370
18
48
1
60
0
100
AcDbMText
10
79.111264
20
-13.5
30
0
210
0
220
0
230
1
1
\A1;27
40
3.5
41
0
44
1
50
90
71
5
72
5
7
iso_b_vert
0
POINT
5
17E
100
AcDbEntity
8
Defpoints
62
0
6
ByLayer
370
-1
48
1
60
0
100
AcDbPoint
10
0
20
0
30
0
39
0
210
0
220
0
230
1
50
360
0
POINT
5
17F
100
AcDbEntity
8
Defpoints
62
0
6
ByLayer
370
-1
48
1
60
0
100
AcDbPoint
10
60
20
-27
30
0
39
0
210
0
220
0
230
1
50
360
0
POINT
5
180
100
AcDbEntity
8
Defpoints
62
0
6
ByLayer
370
-1
48
1
60
0
100
AcDbPoint
10
86.111264
20
-27
30
0
39
0
210
0
220
0
230
1
50
360
0
ENDBLK
5
177
100
AcDbEntity
8
0
100
AcDbBlockEnd
0
BLOCK
5
189
100
AcDbEntity
8
0
100
AcDbBlockBegin
2
_U0
70
0
10
0
20
0
30
0
3
_U0
0
MTEXT
5
183
100
AcDbEntity
8
2
62
256
6
ByLayer
370
18
48
1
60
0
100
AcDbMText
10
85.421631
20
-15.432966
30
0
210
0
220
0
230
1
1
\W0.6740;27
40
3.5
41
0
44
1.084337
50
90
71
7
72
5
7
iso_b_vert
0
LINE
5
184
100
AcDbEntity
8
2
62
256
6
ByLayer
370
13
48
1
60
0
100
AcDbLine
10
1.5875
20
0
30
0
11
88.111264
21
0
31
0
39
0
210
0
220
0
230
1
0
LINE
5
185
100
AcDbEntity
8
2
62
256
6
ByLayer
370
13
48
1
60
0
100
AcDbLine
10
61.5875
20
-27
30
0
11
88.111264
21
-27
31
0
39
0
210
0
220
0
230
1
0
LINE
5
186
100
AcDbEntity
8
2
62
256
6
ByLayer
370
13
48
1
60
0
100
AcDbLine
10
86.111264
20
0
30
0
11
86.111264
21
-27
31
0
39
0
210
0
220
0
230
1
0
SOLID
5
187
100
AcDbEntity
8
2
62
256
6
ByLayer
370
18
48
1
60
0
100
AcDbTrace
10
86.111264
20
0
30
0
11
86.572048
21
-3.499998
31
0
12
85.65048
22
-3.500002
32
0
13
85.65048
23
-3.500002
33
0
39
0
210
0
220
0
230
1
0
SOLID
5
188
100
AcDbEntity
8
2
62
256
6
ByLayer
370
18
48
1
60
0
100
AcDbTrace
10
86.111264
20
-27
30
0
11
85.65048
21
-23.500002
31
0
12
86.572048
22
-23.499998
32
0
13
86.572048
23
-23.499998
33
0
39
0
210
0
220
0
230
1
0
ENDBLK
5
18A
100
AcDbEntity
8
0
100
AcDbBlockEnd
0
BLOCK
5
18F
100
AcDbEntity
8
0
100
AcDbBlockBegin
2
*D3
70
1
10
0
20
0
30
0
3
*D3
0
LINE
5
191
100
AcDbEntity
8
0
62
256
6
ByLayer
370
-2
48
1
60
0
100
AcDbLine
10
61.5875
20
-24
30
0
11
77.111264
21
-24
31
0
39
0
210
0
220
0
230
1
0
LINE
5
192
100
AcDbEntity
8
0
62
256
6
ByLayer
370
-2
48
1
60
0
100
AcDbLine
10
61.5875
20
-27
30
0
11
77.111264
21
-27
31
0
39
0
210
0
220
0
230
1
0
LINE
5
193
100
AcDbEntity
8
0
62
256
6
ByLayer
370
-2
48
1
60
0
100
AcDbLine
10
75.111264
20
-20.5
30
0
11
75.111264
21
-17
31
0
39
0
210
0
220
0
230
1
0
LINE
5
194
100
AcDbEntity
8
0
62
256
6
ByLayer
370
-2
48
1
60
0
100
AcDbLine
10
75.111264
20
-30.5
30
0
11
75.111264
21
-34
31
0
39
0
210
0
220
0
230
1
0
SOLID
5
195
100
AcDbEntity
8
0
62
256
6
ByLayer
370
-1
48
1
60
0
100
AcDbTrace
10
74.527931
20
-20.5
30
0
11
75.694598
21
-20.5
31
0
12
75.111264
22
-24
32
0
13
75.111264
23
-24
33
0
39
0
210
0
220
0
230
1
0
SOLID
5
196
100
AcDbEntity
8
0
62
256
6
ByLayer
370
-1
48
1
60
0
100
AcDbTrace
10
75.694598
20
-30.5
30
0
11
74.527931
21
-30.5
31
0
12
75.111264
22
-27
32
0
13
75.111264
23
-27
33
0
39
0
210
0
220
0
230
1
0
MTEXT
5
197
100
AcDbEntity
8
0
62
256
6
ByLayer
370
18
48
1
60
0
100
AcDbMText
10
68.111264
20
-25.5
30
0
210
0
220
0
230
1
1
\A1;3
40
3.5
41
0
44
1
50
90
71
5
72
5
7
iso_b_vert
0
POINT
5
198
100
AcDbEntity
8
Defpoints
62
0
6
ByLayer
370
-1
48
1
60
0
100
AcDbPoint
10
60
20
-24
30
0
39
0
210
0
220
0
230
1
50
360
0
POINT
5
199
100
AcDbEntity
8
Defpoints
62
0
6
ByLayer
370
-1
48
1
60
0
100
AcDbPoint
10
60
20
-27
30
0
39
0
210
0
220
0
230
1
50
360
0
POINT
5
19A
100
AcDbEntity
8
Defpoints
62
0
6
ByLayer
370
-1
48
1
60
0
100
AcDbPoint
10
75.111264
20
-27
30
0
39
0
210
0
220
0
230
1
50
360
0
ENDBLK
5
190
100
AcDbEntity
8
0
100
AcDbBlockEnd
0
BLOCK
5
1A2
100
AcDbEntity
8
0
100
AcDbBlockBegin
2
_U1
70
0
10
0
20
0
30
0
3
_U1
0
MTEXT
5
19C
100
AcDbEntity
8
2
62
256
6
ByLayer
370
18
48
1
60
0
100
AcDbMText
10
74.421631
20
-26.125233
30
0
210
0
220
0
230
1
1
\W0.5404;3
40
3.5
41
0
44
1.084337
50
90
71
7
72
5
7
iso_b_vert
0
LINE
5
19D
100
AcDbEntity
8
2
62
256
6
ByLayer
370
13
48
1
60
0
100
AcDbLine
10
61.5875
20
-24
30
0
11
77.111264
21
-24
31
0
39
0
210
0
220
0
230
1
0
LINE
5
19E
100
AcDbEntity
8
2
62
256
6
ByLayer
370
13
48
1
60
0
100
AcDbLine
10
61.5875
20
-27
30
0
11
77.111264
21
-27
31
0
39
0
210
0
220
0
230
1
0
LINE
5
19F
100
AcDbEntity
8
2
62
256
6
ByLayer
370
13
48
1
60
0
100
AcDbLine
10
75.111264
20
-15.25
30
0
11
75.111264
21
-35.75
31
0
39
0
210
0
220
0
230
1
0
SOLID
5
1A0
100
AcDbEntity
8
2
62
256
6
ByLayer
370
18
48
1
60
0
100
AcDbTrace
10
75.111264
20
-24
30
0
11
74.65048
21
-20.500002
31
0
12
75.572048
22
-20.499998
32
0
13
75.572048
23
-20.499998
33
0
39
0
210
0
220
0
230
1
0
SOLID
5
1A1
100
AcDbEntity
8
2
62
256
6
ByLayer
370
18
48
1
60
0
100
AcDbTrace
10
75.111264
20
-27
30
0
11
75.572048
21
-30.499998
31
0
12
74.65048
22
-30.500002
32
0
13
74.65048
23
-30.500002
33
0
39
0
210
0
220
0
230
1
0
ENDBLK
5
1A3
100
AcDbEntity
8
0
100
AcDbBlockEnd
0
BLOCK
5
1A8
100
AcDbEntity
8
0
100
AcDbBlockBegin
2
*D5
70
1
10
0
20
0
30
0
3
*D5
0
LINE
5
1AA
100
AcDbEntity
8
0
62
256
6
ByLayer
370
-2
48
1
60
0
100
AcDbLine
10
-1.5875
20
-20
30
0
11
-38.6
21
-20
31
0
39
0
210
0
220
0
230
1
0
LINE
5
1AB
100
AcDbEntity
8
0
62
256
6
ByLayer
370
-2
48
1
60
0
100
AcDbLine
10
-1.5875
20
20
30
0
11
-38.6
21
20
31
0
39
0
210
0
220
0
230
1
0
LINE
5
1AC
100
AcDbEntity
8
0
62
256
6
ByLayer
370
-2
48
1
60
0
100
AcDbLine
10
-36.6
20
-16.5
30
0
11
-36.6
21
16.5
31
0
39
0
210
0
220
0
230
1
0
SOLID
5
1AD
100
AcDbEntity
8
0
62
256
6
ByLayer
370
-1
48
1
60
0
100
AcDbTrace
10
-37.183333
20
-16.5
30
0
11
-36.016667
21
-16.5
31
0
12
-36.6
22
-20
32
0
13
-36.6
23
-20
33
0
39
0
210
0
220
0
230
1
0
SOLID
5
1AE
100
AcDbEntity
8
0
62
256
6
ByLayer
370
-1
48
1
60
0
100
AcDbTrace
10
-36.016667
20
16.5
30
0
11
-37.183333
21
16.5
31
0
12
-36.6
22
20
32
0
13
-36.6
23
20
33
0
39
0
210
0
220
0
230
1
0
MTEXT
5
1AF
100
AcDbEntity
8
0
62
256
6
ByLayer
370
18
48
1
60
0
100
AcDbMText
10
-43.6
20
0
30
0
210
0
220
0
230
1
1
\A1;40
40
3.5
41
0
44
1
50
90
71
5
72
5
7
iso_b_vert
0
POINT
5
1B0
100
AcDbEntity
8
Defpoints
62
0
6
ByLayer
370
-1
48
1
60
0
100
AcDbPoint
10
0
20
-20
30
0
39
0
210
0
220
0
230
1
50
360
0
POINT
5
1B1
100
AcDbEntity
8
Defpoints
62
0
6
ByLayer
370
-1
48
1
60
0
100
AcDbPoint
10
0
20
20
30
0
39
0
210
0
220
0
230
1
50
360
0
POINT
5
1B2
100
AcDbEntity
8
Defpoints
62
0
6
ByLayer
370
-1
48
1
60
0
100
AcDbPoint
10
-36.6
20
20
30
0
39
0
210
0
220
0
230
1
50
360
0
ENDBLK
5
1A9
100
AcDbEntity
8
0
100
AcDbBlockEnd
0
BLOCK
5
1BB
100
AcDbEntity
8
0
100
AcDbBlockBegin
2
_U2
70
0
10
0
20
0
30
0
3
_U2
0
MTEXT
5
1B5
100
AcDbEntity
8
SK2
62
256
6
ByLayer
370
18
48
1
60
0
100
AcDbMText
10
-37.289634
20
-2.117233
30
0
210
0
220
0
230
1
1
\W0.7361;40
40
3.5
41
0
44
1.084337
50
90
71
7
72
5
7
iso_b_vert
0
LINE
5
1B6
100
AcDbEntity
8
SK2
62
256
6
ByLayer
370
13
48
1
60
0
100
AcDbLine
10
-1.5875
20
-20
30
0
11
-38.6
21
-20
31
0
39
0
210
0
220
0
230
1
0
LINE
5
1B7
100
AcDbEntity
8
SK2
62
256
6
ByLayer
370
13
48
1
60
0
100
AcDbLine
10
-1.5875
20
20
30
0
11
-38.6
21
20
31
0
39
0
210
0
220
0
230
1
0
LINE
5
1B8
100
AcDbEntity
8
SK2
62
256
6
ByLayer
370
13
48
1
60
0
100
AcDbLine
10
-36.6
20
-20
30
0
11
-36.6
21
20
31
0
39
0
210
0
220
0
230
1
0
SOLID
5
1B9
100
AcDbEntity
8
SK2
62
256
6
ByLayer
370
18
48
1
60
0
100
AcDbTrace
10
-36.6
20
-20
30
0
11
-37.060784
21
-16.500002
31
0
12
-36.139216
22
-16.499998
32
0
13
-36.139216
23
-16.499998
33
0
39
0
210
0
220
0
230
1
0
SOLID
5
1BA
100
AcDbEntity
8
SK2
62
256
6
ByLayer
370
18
48
1
60
0
100
AcDbTrace
10
-36.6
20
20
30
0
11
-36.139216
21
16.500002
31
0
12
-37.060784
22
16.499998
32
0
13
-37.060784
23
16.499998
33
0
39
0
210
0
220
0
230
1
0
ENDBLK
5
1BC
100
AcDbEntity
8
0
100
AcDbBlockEnd
0
BLOCK
5
1C1
100
AcDbEntity
8
0
100
AcDbBlockBegin
2
*D7
70
1
10
0
20
0
30
0
3
*D7
0
LINE
5
1C3
100
AcDbEntity
8
0
62
256
6
ByLayer
370
-2
48
1
60
0
100
AcDbLine
10
45
20
-23.9125
30
0
11
45
21
33.75
31
0
39
0
210
0
220
0
230
1
0
LINE
5
1C4
100
AcDbEntity
8
0
62
256
6
ByLayer
370
-2
48
1
60
0
100
AcDbLine
10
60
20
-23.9125
30
0
11
60
21
33.75
31
0
39
0
210
0
220
0
230
1
0
LINE
5
1C5
100
AcDbEntity
8
0
62
256
6
ByLayer
370
-2
48
1
60
0
100
AcDbLine
10
41.5
20
31.75
30
0
11
38
21
31.75
31
0
39
0
210
0
220
0
230
1
0
LINE
5
1C6
100
AcDbEntity
8
0
62
256
6
ByLayer
370
-2
48
1
60
0
100
AcDbLine
10
63.5
20
31.75
30
0
11
67
21
31.75
31
0
39
0
210
0
220
0
230
1
0
SOLID
5
1C7
100
AcDbEntity
8
0
62
256
6
ByLayer
370
-1
48
1
60
0
100
AcDbTrace
10
41.5
20
31.166667
30
0
11
41.5
21
32.333333
31
0
12
45
22
31.75
32
0
13
45
23
31.75
33
0
39
0
210
0
220
0
230
1
0
SOLID
5
1C8
100
AcDbEntity
8
0
62
256
6
ByLayer
370
-1
48
1
60
0
100
AcDbTrace
10
63.5
20
32.333333
30
0
11
63.5
21
31.166667
31
0
12
60
22
31.75
32
0
13
60
23
31.75
33
0
39
0
210
0
220
0
230
1
0
MTEXT
5
1C9
100
AcDbEntity
8
0
62
256
6
ByLayer
370
18
48
1
60
0
100
AcDbMText
10
52.5
20
38.75
30
0
210
0
220
0
230
1
1
\A1;15
40
3.5
41
0
44
1
50
0
71
5
72
5
7
iso_b_vert
0
POINT
5
1CA
100
AcDbEntity
8
Defpoints
62
0
6
ByLayer
370
-1
48
1
60
0
100
AcDbPoint
10
45
20
-25.5
30
0
39
0
210
0
220
0
230
1
50
360
0
POINT
5
1CB
100
AcDbEntity
8
Defpoints
62
0
6
ByLayer
370
-1
48
1
60
0
100
AcDbPoint
10
60
20
-25.5
30
0
39
0
210
0
220
0
230
1
50
360
0
POINT
5
1CC
100
AcDbEntity
8
Defpoints
62
0
6
ByLayer
370
-1
48
1
60
0
100
AcDbPoint
10
60
20
31.75
30
0
39
0
210
0
220
0
230
1
50
360
0
ENDBLK
5
1C2
100
AcDbEntity
8
0
100
AcDbBlockEnd
0
BLOCK
5
1D4
100
AcDbEntity
8
0
100
AcDbBlockBegin
2
_U3
70
0
10
0
20
0
30
0
3
_U3
0
MTEXT
5
1CE
100
AcDbEntity
8
2
62
256
6
ByLayer
370
18
48
1
60
0
100
AcDbMText
10
51.032467
20
32.782634
30
0
210
0
220
0
230
1
1
\W0.5321;15
40
3.5
41
0
44
1.084337
50
0
71
7
72
5
7
iso_b_vert
0
LINE
5
1CF
100
AcDbEntity
8
2
62
256
6
ByLayer
370
13
48
1
60
0
100
AcDbLine
10
45
20
-23.9125
30
0
11
45
21
33.75
31
0
39
0
210
0
220
0
230
1
0
LINE
5
1D0
100
AcDbEntity
8
2
62
256
6
ByLayer
370
13
48
1
60
0
100
AcDbLine
10
60
20
-23.9125
30
0
11
60
21
33.75
31
0
39
0
210
0
220
0
230
1
0
LINE
5
1D1
100
AcDbEntity
8
2
62
256
6
ByLayer
370
13
48
1
60
0
100
AcDbLine
10
45
20
31.75
30
0
11
60
21
31.75
31
0
39
0
210
0
220
0
230
1
0
SOLID
5
1D2
100
AcDbEntity
8
2
62
256
6
ByLayer
370
18
48
1
60
0
100
AcDbTrace
10
45
20
31.75
30
0
11
48.499998
21
32.210784
31
0
12
48.500002
22
31.289216
32
0
13
48.500002
23
31.289216
33
0
39
0
210
0
220
0
230
1
0
SOLID
5
1D3
100
AcDbEntity
8
2
62
256
6
ByLayer
370
18
48
1
60
0
100
AcDbTrace
10
60
20
31.75
30
0
11
56.500002
21
31.289216
31
0
12
56.499998
22
32.210784
32
0
13
56.499998
23
32.210784
33
0
39
0
210
0
220
0
230
1
0
ENDBLK
5
1D5
100
AcDbEntity
8
0
100
AcDbBlockEnd
0
BLOCK
5
1DA
100
AcDbEntity
8
0
100
AcDbBlockBegin
2
*D9
70
1
10
0
20
0
30
0
3
*D9
0
LINE
5
1DC
100
AcDbEntity
8
0
62
256
6
ByLayer
370
-2
48
1
60
0
100
AcDbLine
10
0
20
-21.5875
30
0
11
0
21
-47.75
31
0
39
0
210
0
220
0
230
1
0
LINE
5
1DD
100
AcDbEntity
8
0
62
256
6
ByLayer
370
-2
48
1
60
0
100
AcDbLine
10
60
20
-28.5875
30
0
11
60
21
-47.75
31
0
39
0
210
0
220
0
230
1
0
LINE
5
1DE
100
AcDbEntity
8
0
62
256
6
ByLayer
370
-2
48
1
60
0
100
AcDbLine
10
3.5
20
-45.75
30
0
11
56.5
21
-45.75
31
0
39
0
210
0
220
0
230
1
0
SOLID
5
1DF
100
AcDbEntity
8
0
62
256
6
ByLayer
370
-1
48
1
60
0
100
AcDbTrace
10
3.5
20
-45.166667
30
0
11
3.5
21
-46.333333
31
0
12
0
22
-45.75
32
0
13
0
23
-45.75
33
0
39
0
210
0
220
0
230
1
0
SOLID
5
1E0
100
AcDbEntity
8
0
62
256
6
ByLayer
370
-1
48
1
60
0
100
AcDbTrace
10
56.5
20
-46.333333
30
0
11
56.5
21
-45.166667
31
0
12
60
22
-45.75
32
0
13
60
23
-45.75
33
0
39
0
210
0
220
0
230
1
0
MTEXT
5
1E1
100
AcDbEntity
8
0
62
256
6
ByLayer
370
18
48
1
60
0
100
AcDbMText
10
30
20
-38.75
30
0
210
0
220
0
230
1
1
\A1;60
40
3.5
41
0
44
1
50
0
71
5
72
5
7
iso_b_vert
0
POINT
5
1E2
100
AcDbEntity
8
Defpoints
62
0
6
ByLayer
370
-1
48
1
60
0
100
AcDbPoint
10
0
20
-20
30
0
39
0
210
0
220
0
230
1
50
360
0
POINT
5
1E3
100
AcDbEntity
8
Defpoints
62
0
6
ByLayer
370
-1
48
1
60
0
100
AcDbPoint
10
60
20
-27
30
0
39
0
210
0
220
0
230
1
50
360
0
POINT
5
1E4
100
AcDbEntity
8
Defpoints
62
0
6
ByLayer
370
-1
48
1
60
0
100
AcDbPoint
10
60
20
-45.75
30
0
39
0
210
0
220
0
230
1
50
360
0
ENDBLK
5
1DB
100
AcDbEntity
8
0
100
AcDbBlockEnd
0
BLOCK
5
1EC
100
AcDbEntity
8
0
100
AcDbBlockBegin
2
_U4
70
0
10
0
20
0
30
0
3
_U4
0
MTEXT
5
1E6
100
AcDbEntity
8
2
62
256
6
ByLayer
370
18
48
1
60
0
100
AcDbMText
10
28.095034
20
-44.717366
30
0
210
0
220
0
230
1
1
\W0.6740;60
40
3.5
41
0
44
1.084337
50
0
71
7
72
5
7
iso_b_vert
0
LINE
5
1E7
100
AcDbEntity
8
2
62
256
6
ByLayer
370
13
48
1
60
0
100
AcDbLine
10
0
20
-21.5875
30
0
11
0
21
-47.75
31
0
39
0
210
0
220
0
230
1
0
LINE
5
1E8
100
AcDbEntity
8
2
62
256
6
ByLayer
370
13
48
1
60
0
100
AcDbLine
10
60
20
-28.5875
30
0
11
60
21
-47.75
31
0
39
0
210
0
220
0
230
1
0
LINE
5
1E9
100
AcDbEntity
8
2
62
256
6
ByLayer
370
13
48
1
60
0
100
AcDbLine
10
0
20
-45.75
30
0
11
60
21
-45.75
31
0
39
0
210
0
220
0
230
1
0
SOLID
5
1EA
100
AcDbEntity
8
2
62
256
6
ByLayer
370
18
48
1
60
0
100
AcDbTrace
10
0
20
-45.75
30
0
11
3.499998
21
-45.289216
31
0
12
3.500002
22
-46.210784
32
0
13
3.500002
23
-46.210784
33
0
39
0
210
0
220
0
230
1
0
SOLID
5
1EB
100
AcDbEntity
8
2
62
256
6
ByLayer
370
18
48
1
60
0
100
AcDbTrace
10
60
20
-45.75
30
0
11
56.500002
21
-46.210784
31
0
12
56.499998
22
-45.289216
32
0
13
56.499998
23
-45.289216
33
0
39
0
210
0
220
0
230
1
0
ENDBLK
5
1ED
100
AcDbEntity
8
0
100
AcDbBlockEnd
0
ENDSEC
0
SECTION
2
ENTITIES
0
ARC
5
DE
100
AcDbEntity
8
1
62
256
6
ByLayer
370
18
48
1
60
0
100
AcDbCircle
39
0
10
45
20
-22.725
30
0
40
1.6
210
0
220
0
230
1
100
AcDbArc
50
180
51
199.177075
0
ARC
5
DF
100
AcDbEntity
8
1
62
256
6
ByLayer
370
18
48
1
60
0
100
AcDbCircle
39
0
10
20.279208
20
-21.2
30
0
40
1.2
210
0
220
0
230
1
100
AcDbArc
50
60.518159
51
90
0
ARC
5
E0
100
AcDbEntity
8
1
62
256
6
ByLayer
370
18
48
1
60
0
100
AcDbCircle
39
0
10
-0.6
20
15
30
0
40
0.999999999999994
210
0
220
0
230
1
100
AcDbArc
50
293.578178
51
306.870857
0
ARC
5
E1
100
AcDbEntity
8
1
62
256
6
ByLayer
370
18
48
1
60
0
100
AcDbCircle
39
0
10
-0.6
20
-15
30
0
40
0.999999999999994
210
0
220
0
230
1
100
AcDbArc
50
53.129143
51
66.421822
0
ARC
5
E3
100
AcDbEntity
8
1
62
256
6
ByLayer
370
18
48
1
60
0
100
AcDbCircle
39
0
10
26.8
20
-21.15
30
0
40
1
210
0
220
0
230
1
100
AcDbArc
50
360
51
90
0
ARC
5
E4
100
AcDbEntity
8
1
62
256
6
ByLayer
370
18
48
1
60
0
100
AcDbCircle
39
0
10
37.85
20
-17.7
30
0
40
1.416
210
0
220
0
230
1
100
AcDbArc
50
96.192438
51
150.190711
0
ARC
5
E5
100
AcDbEntity
8
1
62
256
6
ByLayer
370
18
48
1
60
0
100
AcDbCircle
39
0
10
37.85
20
-17.7
30
0
40
1.416
210
0
220
0
230
1
100
AcDbArc
50
150.190711
51
209.809289
0
ARC
5
E6
100
AcDbEntity
8
1
62
256
6
ByLayer
370
18
48
1
60
0
100
AcDbCircle
39
0
10
37.85
20
-17.7
30
0
40
1.416
210
0
220
0
230
1
100
AcDbArc
50
209.809289
51
263.807562
0
ARC
5
E7
100
AcDbEntity
8
1
62
256
6
ByLayer
370
18
48
1
60
0
100
AcDbCircle
39
0
10
37.85
20
-17.7
30
0
40
1.416
210
0
220
0
230
1
100
AcDbArc
50
276.192438
51
330.190711
0
ARC
5
E8
100
AcDbEntity
8
1
62
256
6
ByLayer
370
18
48
1
60
0
100
AcDbCircle
39
0
10
37.85
20
-17.7
30
0
40
1.416
210
0
220
0
230
1
100
AcDbArc
50
330.190711
51
29.809289
0
ARC
5
E9
100
AcDbEntity
8
1
62
256
6
ByLayer
370
18
48
1
60
0
100
AcDbCircle
39
0
10
37.85
20
-17.7
30
0
40
1.416
210
0
220
0
230
1
100
AcDbArc
50
29.809289
51
83.807562
0
ARC
5
EA
100
AcDbEntity
8
1
62
256
6
ByLayer
370
18
48
1
60
0
100
AcDbCircle
39
0
10
37.85
20
-17.7
30
0
40
1.416
210
0
220
0
230
1
100
AcDbArc
50
263.807562
51
276.192438
0
ARC
5
EB
100
AcDbEntity
8
1
62
256
6
ByLayer
370
18
48
1
60
0
100
AcDbCircle
39
0
10
37.85
20
-17.7
30
0
40
1.9685
210
0
220
0
230
1
100
AcDbArc
50
300.381422
51
0
0
ARC
5
EC
100
AcDbEntity
8
1
62
256
6
ByLayer
370
18
48
1
60
0
100
AcDbCircle
39
0
10
37.85
20
-17.7
30
0
40
1.9685
210
0
220
0
230
1
100
AcDbArc
50
239.618578
51
300.381422
0
ARC
5
ED
100
AcDbEntity
8
1
62
256
6
ByLayer
370
18
48
1
60
0
100
AcDbCircle
39
0
10
37.85
20
-17.7
30
0
40
1.9685
210
0
220
0
230
1
100
AcDbArc
50
180
51
239.618578
0
ARC
5
EE
100
AcDbEntity
8
1
62
256
6
ByLayer
370
18
48
1
60
0
100
AcDbCircle
39
0
10
37.85
20
-17.7
30
0
40
1.9685
210
0
220
0
230
1
100
AcDbArc
50
0
51
59.618578
0
ARC
5
EF
100
AcDbEntity
8
1
62
256
6
ByLayer
370
18
48
1
60
0
100
AcDbCircle
39
0
10
37.85
20
-17.7
30
0
40
1.416
210
0
220
0
230
1
100
AcDbArc
50
83.807562
51
96.192438
0
ARC
5
F0
100
AcDbEntity
8
1
62
256
6
ByLayer
370
18
48
1
60
0
100
AcDbCircle
39
0
10
37.85
20
-17.7
30
0
40
1.9685
210
0
220
0
230
1
100
AcDbArc
50
59.618578
51
120.381422
0
ARC
5
F1
100
AcDbEntity
8
1
62
256
6
ByLayer
370
18
48
1
60
0
100
AcDbCircle
39
0
10
37.85
20
-17.7
30
0
40
1.9685
210
0
220
0
230
1
100
AcDbArc
50
120.381422
51
180
0
CIRCLE
5
E2
100
AcDbEntity
8
1
62
256
6
ByLayer
370
18
48
1
60
0
100
AcDbCircle
10
37.85
20
-17.7
30
0
40
4.55
39
0
210
0
220
0
230
1
0
CIRCLE
5
F2
100
AcDbEntity
8
1
62
256
6
ByLayer
370
18
48
1
60
0
100
AcDbCircle
10
37.85
20
-17.7
30
0
40
4.25
39
0
210
0
220
0
230
1
0
CIRCLE
5
F3
100
AcDbEntity
8
1
62
256
6
ByLayer
370
18
48
1
60
0
100
AcDbCircle
10
37.85
20
-17.7
30
0
40
3.75
39
0
210
0
220
0
230
1
0
ELLIPSE
5
F4
100
AcDbEntity
8
1
62
256
6
ByLayer
370
18
48
1
60
0
100
AcDbEllipse
10
65.357143
20
-104.2
30
0
11
4.74688038052382E-15
21
77.5250000248216
31
0
210
0
220
0
230
1
40
0.714286
41
0.111420333437133
42
0.230716754236032
0
ELLIPSE
5
F5
100
AcDbEntity
8
1
62
256
6
ByLayer
370
18
48
1
60
0
100
AcDbEllipse
10
52.472533
20
-25.568318
30
0
11
0.0445736436151114
21
0.598519399352357
31
0
210
0
220
0
230
1
40
0.953786
41
0
42
6.28318530717959
0
ELLIPSE
5
F6
100
AcDbEntity
8
1
62
256
6
ByLayer
370
18
48
1
60
0
100
AcDbEllipse
10
54.510303
20
-104.199999
30
0
11
4.74688032453227E-15
21
77.52499911038
31
0
210
0
220
0
230
1
40
0.852061
41
0.0176355057122484
42
0.0645401213243736
0
ELLIPSE
5
F7
100
AcDbEntity
8
1
62
256
6
ByLayer
370
18
48
1
60
0
100
AcDbEllipse
10
54.510303
20
-72
30
0
11
2.91915539990277E-15
21
47.6750000649789
31
0
210
0
220
0
230
1
40
0.852061
41
0.0284726761566744
42
0.105069986598935
0
ELLIPSE
5
F8
100
AcDbEntity
8
1
62
256
6
ByLayer
370
18
48
1
60
0
100
AcDbEllipse
10
-1114.794284
20
-71.993314
30
0
11
3857.31526925929
21
15.7183271729715
31
0
210
0
220
0
230
1
40
0.011667
41
1.26310417758902
42
1.26534954398611
0
ELLIPSE
5
F9
100
AcDbEntity
8
1
62
256
6
ByLayer
370
18
48
1
60
0
100
AcDbEllipse
10
45.327516
20
-24.325
30
0
11
-2.78951487299375
21
3.41605763755017E-16
31
0
210
0
220
0
230
1
40
0.573576
41
-0.807944194197999
42
0
0
ELLIPSE
5
FA
100
AcDbEntity
8
1
62
256
6
ByLayer
370
18
48
1
60
0
100
AcDbEllipse
10
57.39074
20
-72
30
0
11
68.0869562412919
21
7.9760830146957E-14
31
0
210
0
220
0
230
1
40
0.700208
41
1.67586631343673
42
1.75380014590058
0
ELLIPSE
5
FB
100
AcDbEntity
8
1
62
256
6
ByLayer
370
18
48
1
60
0
100
AcDbEllipse
10
57.39074
20
-104.200001
30
0
11
110.71717492905
21
1.29700228522057E-13
31
0
210
0
220
0
230
1
40
0.700208
41
1.63533644734555
42
1.67936161095797
0
ELLIPSE
5
FC
100
AcDbEntity
8
1
62
256
6
ByLayer
370
18
48
1
60
0
100
AcDbEllipse
10
16.948929
20
0
30
0
11
9.36741787978128
21
19.7417491527497
31
0
210
0
220
0
230
1
40
0.341999
41
2.04527312608987
42
2.98886640869144
0
ELLIPSE
5
FD
100
AcDbEntity
8
1
62
256
6
ByLayer
370
18
48
1
60
0
100
AcDbEllipse
10
-0.948929
20
0
30
0
11
9.36741787978225
21
-19.7417491527502
31
0
210
0
220
0
230
1
40
0.341999
41
0.152726244898341
42
1.09631952749989
0
ELLIPSE
5
FE
100
AcDbEntity
8
1
62
256
6
ByLayer
370
18
48
1
60
0
100
AcDbEllipse
10
-0.948929
20
0
30
0
11
9.36741787978194
21
19.7417491527498
31
0
210
0
220
0
230
1
40
0.341999
41
-1.0963195274999
42
-0.152726244898351
0
ELLIPSE
5
FF
100
AcDbEntity
8
1
62
256
6
ByLayer
370
18
48
1
60
0
100
AcDbEllipse
10
16.948929
20
0
30
0
11
9.36741787978144
21
-19.7417491527498
31
0
210
0
220
0
230
1
40
0.341999
41
-2.98886640869144
42
-2.04527312608987
0
ELLIPSE
5
100
100
AcDbEntity
8
1
62
256
6
ByLayer
370
18
48
1
60
0
100
AcDbEllipse
10
20.174537
20
0
30
0
11
1.22460635382211E-15
21
19.9999999999957
31
0
210
0
220
0
230
1
40
0.008727
41
0.801290643120804
42
2.34030201046898
0
ELLIPSE
5
101
100
AcDbEntity
8
1
62
256
6
ByLayer
370
18
48
1
60
0
100
AcDbEllipse
10
56.228061
20
-23.55
30
0
11
0.897993681729524
21
1.05195951582326E-15
31
0
210
0
220
0
230
1
40
0.890875
41
-1.5707963267949
42
-1.29515256582535
0
ELLIPSE
5
102
100
AcDbEntity
8
1
62
256
6
ByLayer
370
18
48
1
60
0
100
AcDbEllipse
10
56.095006
20
-25.066064
30
0
11
1.13425636391778
21
1.32873070232335E-15
31
0
210
0
220
0
230
1
40
0.176327
41
-2.80561677258018
42
-1.98717825108436
0
ELLIPSE
5
103
100
AcDbEntity
8
1
62
256
6
ByLayer
370
18
48
1
60
0
100
AcDbEllipse
10
60.223799
20
-23.419859
30
0
11
11.3425635351762
21
-1.15952286932122E-08
31
0
210
0
220
0
230
1
40
0.176327
41
-1.98717824832667
42
-1.91986217389613
0
ELLIPSE
5
104
100
AcDbEntity
8
1
62
256
6
ByLayer
370
18
48
1
60
0
100
AcDbEllipse
10
55.990371
20
-25.5
30
0
11
1.19096918211294
21
1.39516723743867E-15
31
0
210
0
220
0
230
1
40
0.176327
41
0
42
1.22173047639577
0
ELLIPSE
5
105
100
AcDbEntity
8
1
62
256
6
ByLayer
370
18
48
1
60
0
100
AcDbEllipse
10
55.990371
20
-25.5
30
0
11
1.19096918211238
21
1.39516723743801E-15
31
0
210
0
220
0
230
1
40
0.176327
41
-1.22173047639606
42
0
0
ELLIPSE
5
106
100
AcDbEntity
8
1
62
256
6
ByLayer
370
18
48
1
60
0
100
AcDbEllipse
10
60.223799
20
-27.580141
30
0
11
11.3425634022752
21
2.62326979614478E-08
31
0
210
0
220
0
230
1
40
0.176327
41
1.91986216981304
42
1.98717824493751
0
ELLIPSE
5
107
100
AcDbEntity
8
1
62
256
6
ByLayer
370
18
48
1
60
0
100
AcDbEllipse
10
56.095006
20
-25.933936
30
0
11
1.1342563639161
21
1.32873070232138E-15
31
0
210
0
220
0
230
1
40
0.176327
41
1.98717825108369
42
2.80561677258057
0
ELLIPSE
5
108
100
AcDbEntity
8
1
62
256
6
ByLayer
370
18
48
1
60
0
100
AcDbEllipse
10
54.623179
20
-26.525438
30
0
11
0.850692272934752
21
9.96548026738316E-16
31
0
210
0
220
0
230
1
40
0.176327
41
2.80561677258034
42
3.14159265358979
0
ELLIPSE
5
109
100
AcDbEntity
8
1
62
256
6
ByLayer
370
18
48
1
60
0
100
AcDbEllipse
10
56.228061
20
-27.45
30
0
11
0.897993681830117
21
1.0519595159411E-15
31
0
210
0
220
0
230
1
40
0.890875
41
1.29515256585621
42
1.5707963267949
0
ELLIPSE
5
10A
100
AcDbEntity
8
1
62
256
6
ByLayer
370
18
48
1
60
0
100
AcDbEllipse
10
55.571498
20
-24.75
30
0
11
-2.3287088041805E-17
21
-0.126773189709051
31
0
210
0
220
0
230
1
40
0.984808
41
0
42
6.28318530717959
0
ELLIPSE
5
10B
100
AcDbEntity
8
1
62
256
6
ByLayer
370
18
48
1
60
0
100
AcDbEllipse
10
54.623179
20
-24.474562
30
0
11
0.850692273074108
21
9.96548026901566E-16
31
0
210
0
220
0
230
1
40
0.176327
41
3.14159265358979
42
-2.8056167726083
0
POINT
5
70
100
AcDbEntity
8
1
62
256
6
ByLayer
370
18
48
1
60
0
100
AcDbPoint
10
0
20
0
30
0
39
0
210
0
220
0
230
1
50
360
0
POINT
5
72
100
AcDbEntity
8
81
62
256
6
ByLayer
370
18
48
1
60
0
100
AcDbPoint
10
60
20
-27
30
0
39
0
210
0
220
0
230
1
50
360
0
POINT
5
74
100
AcDbEntity
8
80
62
256
6
ByLayer
370
18
48
1
60
0
100
AcDbPoint
10
0
20
0
30
0
39
0
210
0
220
0
230
1
50
360
0
POINT
5
76
100
AcDbEntity
8
81
62
256
6
ByLayer
370
18
48
1
60
0
100
AcDbPoint
10
60
20
-27
30
0
39
0
210
0
220
0
230
1
50
360
0
POINT
5
77
100
AcDbEntity
8
1
62
256
6
ByLayer
370
18
48
1
60
1
100
AcDbPoint
10
0
20
0
30
0
39
0
210
0
220
0
230
1
50
360
0
POINT
5
78
100
AcDbEntity
8
1
62
256
6
ByLayer
370
18
48
1
60
1
100
AcDbPoint
10
60
20
-24
30
0
39
0
210
0
220
0
230
1
50
360
0
POINT
5
79
100
AcDbEntity
8
1
62
256
6
ByLayer
370
18
48
1
60
1
100
AcDbPoint
10
0
20
-20
30
0
39
0
210
0
220
0
230
1
50
360
0
POINT
5
7A
100
AcDbEntity
8
1
62
256
6
ByLayer
370
18
48
1
60
1
100
AcDbPoint
10
0
20
20
30
0
39
0
210
0
220
0
230
1
50
360
0
POINT
5
7B
100
AcDbEntity
8
1
62
256
6
ByLayer
370
18
48
1
60
1
100
AcDbPoint
10
45
20
-25.5
30
0
39
0
210
0
220
0
230
1
50
360
0
POINT
5
7C
100
AcDbEntity
8
1
62
256
6
ByLayer
370
18
48
1
60
1
100
AcDbPoint
10
60
20
-25.5
30
0
39
0
210
0
220
0
230
1
50
360
0
POINT
5
7D
100
AcDbEntity
8
1
62
256
6
ByLayer
370
18
48
1
60
1
100
AcDbPoint
10
0
20
-20
30
0
39
0
210
0
220
0
230
1
50
360
0
SPLINE
5
10C
100
AcDbEntity
8
1
62
256
6
ByLayer
370
18
48
1
60
0
100
AcDbSpline
70
4
71
2
72
6
73
3
40
0
40
0
40
0
40
1
40
1
40
1
41
1
10
-1.49503997793928
20
-13.7130167789402
30
0
41
1
10
-0.944976888873896
20
-13.7267321696587
30
0
41
1
10
-0.394913799811292
20
-13.740447551665
30
0
0
SPLINE
5
10D
100
AcDbEntity
8
1
62
256
6
ByLayer
370
18
48
1
60
0
100
AcDbSpline
70
4
71
2
72
6
73
3
40
0
40
0
40
0
40
1
40
1
40
1
41
1
10
-0.394913799811292
20
13.7404477916605
30
0
41
1
10
-0.944976888873896
20
13.7267324097107
30
0
41
1
10
-1.49503997793928
20
13.7130170190491
30
0
0
SPLINE
5
10E
100
AcDbEntity
8
1
62
256
6
ByLayer
370
18
48
1
60
0
100
AcDbSpline
70
4
71
2
72
6
73
3
40
0
40
0
40
0
40
1
40
1
40
1
41
1
10
-24
20
-12.6317156240216
30
0
41
1
10
-23.249999936895
20
-13.0645339427607
30
0
41
1
10
-22.5
20
-13.4973518251592
30
0
0
SPLINE
5
10F
100
AcDbEntity
8
1
62
256
6
ByLayer
370
18
48
1
60
0
100
AcDbSpline
70
4
71
2
72
6
73
3
40
0
40
0
40
0
40
1
40
1
40
1
41
1
10
-22.5
20
13.4973518870616
30
0
41
1
10
-23.2499999368976
20
13.0645340070691
30
0
41
1
10
-24
20
12.6317156907499
30
0
0
SPLINE
5
110
100
AcDbEntity
8
1
62
256
6
ByLayer
370
18
48
1
60
0
100
AcDbSpline
70
4
71
3
72
13
73
9
40
0
40
0
40
0
40
0
40
0.239505896267058
40
0.368426445719716
40
0.500072184804663
40
0.631705935597398
40
0.760593415643758
40
1
40
1
40
1
40
1
41
1
10
-1.49503997793928
20
13.8252671707288
30
0
41
1
10
-1.52110926509485
20
13.8248650525742
30
0
41
1
10
-1.55883864918067
20
13.8310346548635
30
0
41
1
10
-1.60627567892249
20
13.8540680395026
30
0
41
1
10
-1.63886244003069
20
13.8792240145368
30
0
41
1
10
-1.66563490778341
20
13.9104917120148
30
0
41
1
10
-1.69103207617425
20
13.956689925787
30
0
41
1
10
-1.69909121849835
20
13.9940472396764
30
0
41
1
10
-1.69999999999999
20
14.020094440518
30
0
0
SPLINE
5
111
100
AcDbEntity
8
1
62
256
6
ByLayer
370
18
48
1
60
0
100
AcDbSpline
70
4
71
3
72
13
73
9
40
0
40
0
40
0
40
0
40
0.239406584968136
40
0.368294065212519
40
0.499927816069781
40
0.631573555071368
40
0.760494104316207
40
1
40
1
40
1
40
1
41
1
10
-1.69999999999999
20
-14.0200943498873
30
0
41
1
10
-1.69909121850787
20
-13.9940471489176
30
0
41
1
10
-1.69103207618372
20
-13.9566898348375
30
0
41
1
10
-1.66563490779617
20
-13.9104916208042
30
0
41
1
10
-1.63886244004752
20
-13.8792239231524
30
0
41
1
10
-1.60627567894025
20
-13.8540679479736
30
0
41
1
10
-1.55883864920244
20
-13.8310345631992
30
0
41
1
10
-1.52110926510645
20
-13.8248649608707
30
0
41
1
10
-1.49503997793928
20
-13.825267079015
30
0
0
SPLINE
5
112
100
AcDbEntity
8
1
62
256
6
ByLayer
370
18
48
1
60
0
100
AcDbSpline
70
4
71
2
72
6
73
3
40
0
40
0
40
0
40
1
40
1
40
1
41
1
10
-1.69999999999999
20
14.0158108591592
30
0
41
1
10
-12.0999999986036
20
13.7547063780669
30
0
41
1
10
-22.5
20
13.4936010331935
30
0
0
SPLINE
5
113
100
AcDbEntity
8
1
62
256
6
ByLayer
370
18
48
1
60
0
100
AcDbSpline
70
4
71
2
72
6
73
3
40
0
40
0
40
0
40
1
40
1
40
1
41
1
10
-22.5
20
-13.4936007996938
30
0
41
1
10
-12.0999999986039
20
-13.7547061446862
30
0
41
1
10
-1.69999999999999
20
-14.0158106259661
30
0
0
SPLINE
5
114
100
AcDbEntity
8
1
62
256
6
ByLayer
370
18
48
1
60
0
100
AcDbSpline
70
4
71
3
72
8
73
4
40
0
40
0
40
0
40
0
40
1
40
1
40
1
40
1
41
1
10
21.5988851912138
20
-21.15
30
0
41
1
10
22.0928786530287
20
-23.0231290835831
30
0
41
1
10
22.5887119345757
20
-24.895779306165
30
0
41
1
10
23.0854419187111
20
-26.7681872548499
30
0
0
SPLINE
5
115
100
AcDbEntity
8
1
62
256
6
ByLayer
370
18
48
1
60
0
100
AcDbSpline
70
4
71
3
72
16
73
12
40
0
40
0
40
0
40
0
40
0.25
40
0.25
40
0.375000000000001
40
0.375000000000001
40
0.500000000000001
40
0.500000000000001
40
0.75
40
0.75
40
1
40
1
40
1
40
1
41
1
10
21.4383186059721
20
-20.5738341596074
30
0
41
1
10
21.450877673997
20
-20.6161762000916
30
0
41
1
10
21.4637533696852
20
-20.6603210377275
30
0
41
1
10
21.483514645872
20
-20.7291521729725
30
0
41
1
10
21.4901767638583
20
-20.7525335493079
30
0
41
1
10
21.5036511772369
20
-20.8001802070321
30
0
41
1
10
21.5104783953724
20
-20.8245002179572
30
0
41
1
10
21.5308909357787
20
-20.8977422409363
30
0
41
1
10
21.5444957377094
20
-20.9472540731563
30
0
41
1
10
21.5716962868854
20
-21.0476116908587
30
0
41
1
10
21.5852920314945
20
-21.0984573283327
30
0
41
1
10
21.5988851912138
20
-21.15
30
0
0
SPLINE
5
116
100
AcDbEntity
8
1
62
256
6
ByLayer
370
18
48
1
60
0
100
AcDbSpline
70
4
71
3
72
37
73
33
40
0
40
0
40
0
40
0
40
0.0312500000000011
40
0.0312500000000011
40
0.0625000000000021
40
0.125000000000004
40
0.125000000000004
40
0.250000000000006
40
0.250000000000006
40
0.281250000000006
40
0.281250000000006
40
0.312500000000006
40
0.312500000000006
40
0.375
40
0.375
40
0.499999999999983
40
0.499999999999983
40
0.53124999999998
40
0.53124999999998
40
0.562499999999978
40
0.624999999999978
40
0.687499999999978
40
0.687499999999978
40
0.718749999999978
40
0.718749999999978
40
0.749999999999978
40
0.749999999999978
40
0.874999999999986
40
0.874999999999986
40
0.937499999999993
40
0.937499999999993
40
1
40
1
40
1
40
1
41
1
10
26.0979991993594
20
-20.15
30
0
41
1
10
26.1161596625569
20
-20.15
30
0
41
1
10
26.1343436715721
20
-20.1503025762776
30
0
41
1
10
26.1705404692685
20
-20.1515196643775
30
0
41
1
10
26.2246748030338
20
-20.1542634146374
30
0
41
1
10
26.2783209647337
20
-20.1597933881372
30
0
41
1
10
26.3849379288975
20
-20.1747079219338
30
0
41
1
10
26.4551208774946
20
-20.1897592794783
30
0
41
1
10
26.5415829778381
20
-20.2158024637559
30
0
41
1
10
26.5588116390368
20
-20.2213750019034
30
0
41
1
10
26.5931357597246
20
-20.2332803218201
30
0
41
1
10
26.6102683325626
20
-20.2396289977521
30
0
41
1
10
26.6610060787218
20
-20.2596878790594
30
0
41
1
10
26.6940493017973
20
-20.2744353258394
30
0
41
1
10
26.7907724756647
20
-20.3229089218058
30
0
41
1
10
26.8520714248128
20
-20.3608215019205
30
0
41
1
10
26.9242042253866
20
-20.4161083927452
30
0
41
1
10
26.9384465541441
20
-20.4276015592398
30
0
41
1
10
26.9661892927071
20
-20.4511913425105
30
0
41
1
10
27.0067111080116
20
-20.4874857382757
30
0
41
1
10
27.0688047152749
20
-20.5525094185346
30
0
41
1
10
27.1125622959425
20
-20.6094566175086
30
0
41
1
10
27.1430477949145
20
-20.6541098054289
30
0
41
1
10
27.1528200581636
20
-20.6693186563508
30
0
41
1
10
27.1715554404667
20
-20.7004102576542
30
0
41
1
10
27.1805452052648
20
-20.7163445309867
30
0
41
1
10
27.2230509325826
20
-20.7971584961779
30
0
41
1
10
27.2488697960024
20
-20.8644367321645
30
0
41
1
10
27.2752531168167
20
-20.9693159907482
30
0
41
1
10
27.2819729542626
20
-21.0049415512714
30
0
41
1
10
27.2910147230195
20
-21.0776041037324
30
0
41
1
10
27.2932370625239
20
-21.1138738724258
30
0
41
1
10
27.2932370625239
20
-21.15
30
0
0
SPLINE
5
117
100
AcDbEntity
8
1
62
256
6
ByLayer
370
18
48
1
60
0
100
AcDbSpline
70
4
71
3
72
12
73
8
40
0
40
0
40
0
40
0
40
0.273409229454581
40
0.273409229454581
40
0.546818458909161
40
0.546818458909161
40
1
40
1
40
1
40
1
41
1
10
53.8985087420383
20
-26.820806819052
30
0
41
1
10
53.9822053795999
20
-26.8205208135164
30
0
41
1
10
54.0659020186362
20
-26.8202352391857
30
0
41
1
10
54.2332952996439
20
-26.8196649527379
30
0
41
1
10
54.3169919416176
20
-26.8193802406209
30
0
41
1
10
54.5394175296896
20
-26.8186247576043
30
0
41
1
10
54.6781464783521
20
-26.8181547398392
30
0
41
1
10
54.8168754310099
20
-26.817685905772
30
0
0
SPLINE
5
118
100
AcDbEntity
8
1
62
256
6
ByLayer
370
18
48
1
60
0
100
AcDbSpline
70
4
71
3
72
14
73
10
40
0
40
0
40
0
40
0
40
0.25
40
0.25
40
0.5
40
0.5
40
0.75
40
0.75
40
1
40
1
40
1
40
1
41
1
10
23.0854419187111
20
-26.7681872548499
30
0
41
1
10
23.145411069533
20
-26.8262582464408
30
0
41
1
10
23.2324797219874
20
-26.9111931781773
30
0
41
1
10
23.4543850699225
20
-27.1337271404607
30
0
41
1
10
23.5891706753523
20
-27.2713266584998
30
0
41
1
10
23.8989916789151
20
-27.5986174510419
30
0
41
1
10
24.0739936926539
20
-27.788309756308
30
0
41
1
10
24.4570645916083
20
-28.2196811497005
30
0
41
1
10
24.6651194423146
20
-28.4613611424617
30
0
41
1
10
24.886636837245
20
-28.7292
30
0
0
SPLINE
5
119
100
AcDbEntity
8
1
62
256
6
ByLayer
370
18
48
1
60
0
100
AcDbSpline
70
4
71
3
72
31
73
27
40
0
40
0
40
0
40
0
40
0.0312500000000004
40
0.0312500000000004
40
0.0625000000000008
40
0.0625000000000008
40
0.125000000000003
40
0.125000000000003
40
0.250000000000007
40
0.250000000000007
40
0.312500000000008
40
0.343750000000009
40
0.343750000000009
40
0.37500000000001
40
0.37500000000001
40
0.500000000000008
40
0.500000000000008
40
0.625000000000006
40
0.625000000000006
40
0.687500000000005
40
0.687500000000005
40
0.750000000000004
40
0.750000000000004
40
0.875000000000002
40
0.875000000000002
40
1
40
1
40
1
40
1
41
1
10
27.2932370625239
20
-26.6915125615265
30
0
41
1
10
27.2706495663144
20
-26.6923735870055
30
0
41
1
10
27.2473679485645
20
-26.6932599278553
30
0
41
1
10
27.1994185668289
20
-26.6950793894706
30
0
41
1
10
27.1747314515147
20
-26.6960132387016
30
0
41
1
10
27.0987184753597
20
-26.6988742518808
30
0
41
1
10
27.0456189578495
20
-26.7008542145008
30
0
41
1
10
26.879237879183
20
-26.7069583730558
30
0
41
1
10
26.7589046248306
20
-26.7112466185432
30
0
41
1
10
26.5644516847174
20
-26.717803544298
30
0
41
1
10
26.4637252316284
20
-26.7211132913093
30
0
41
1
10
26.3576724627703
20
-26.72443192476
30
0
41
1
10
26.2857707209033
20
-26.7266420100841
30
0
41
1
10
26.2491871855429
20
-26.7277468646341
30
0
41
1
10
26.0635795049119
20
-26.7332438242
30
0
41
1
10
25.9088143461205
20
-26.7374853612883
30
0
41
1
10
25.5872104606679
20
-26.7454153753987
30
0
41
1
10
25.4203703572777
20
-26.7491045691062
30
0
41
1
10
25.1609169647608
20
-26.7540520505326
30
0
41
1
10
25.0728505387805
20
-26.755604229888
30
0
41
1
10
24.893737906724
20
-26.7584808556145
30
0
41
1
10
24.8036346340723
20
-26.759790188797
30
0
41
1
10
24.5317275500341
20
-26.7633122049181
30
0
41
1
10
24.3483333961271
20
-26.7651186585005
30
0
41
1
10
23.9773536496704
20
-26.7675560543641
30
0
41
1
10
23.7897685947517
20
-26.7681872548499
30
0
41
1
10
23.6
20
-26.7681872548499
30
0
0
SPLINE
5
11A
100
AcDbEntity
8
1
62
256
6
ByLayer
370
18
48
1
60
0
100
AcDbSpline
70
4
71
3
72
33
73
29
40
0
40
0
40
0
40
0
40
0.12500000000002
40
0.12500000000002
40
0.187500000000028
40
0.187500000000028
40
0.250000000000036
40
0.250000000000036
40
0.375000000000059
40
0.375000000000059
40
0.406250000000064
40
0.406250000000064
40
0.437500000000068
40
0.437500000000068
40
0.500000000000072
40
0.500000000000072
40
0.62500000000008
40
0.62500000000008
40
0.656250000000076
40
0.656250000000076
40
0.687500000000072
40
0.687500000000072
40
0.750000000000059
40
0.812500000000045
40
0.812500000000045
40
0.875000000000032
40
0.875000000000032
40
1
40
1
40
1
40
1
41
1
10
26.6397368307141
20
-20.15
30
0
41
1
10
26.7071055833398
20
-20.15
30
0
41
1
10
26.7735131191916
20
-20.1560926942384
30
0
41
1
10
26.8716360316955
20
-20.1742157749651
30
0
41
1
10
26.9040980234391
20
-20.181763718644
30
0
41
1
10
26.9685154439762
20
-20.1999671223352
30
0
41
1
10
27.0005995875381
20
-20.2106842391683
30
0
41
1
10
27.0942590620737
20
-20.2470074316852
30
0
41
1
10
27.153738324511
20
-20.276827698118
30
0
41
1
10
27.224343574264
20
-20.3211910993158
30
0
41
1
10
27.2382758559388
20
-20.3304211683832
30
0
41
1
10
27.2657552067247
20
-20.3496106169166
30
0
41
1
10
27.2793312425635
20
-20.3595926841377
30
0
41
1
10
27.3192581400166
20
-20.3905010109461
30
0
41
1
10
27.3446575522886
20
-20.4122590996417
30
0
41
1
10
27.4172761539094
20
-20.4809191664696
30
0
41
1
10
27.4609510550694
20
-20.5311735123489
30
0
41
1
10
27.5093565962416
20
-20.5998444499838
30
0
41
1
10
27.5187359240127
20
-20.6138950568421
30
0
41
1
10
27.5366582573277
20
-20.6422812788678
30
0
41
1
10
27.5452277297426
20
-20.6566521540188
30
0
41
1
10
27.5697769675414
20
-20.7002908544371
30
0
41
1
10
27.5994237772397
20
-20.7598760962674
30
0
41
1
10
27.6229298975584
20
-20.8222481913017
30
0
41
1
10
27.643288334741
20
-20.8860488117489
30
0
41
1
10
27.6519070702828
20
-20.9188048337166
30
0
41
1
10
27.6724024636082
20
-21.0170990317204
30
0
41
1
10
27.6792156108743
20
-21.0832436260612
30
0
41
1
10
27.6792156108743
20
-21.15
30
0
0
SPLINE
5
11B
100
AcDbEntity
8
1
62
256
6
ByLayer
370
18
48
1
60
0
100
AcDbSpline
70
4
71
3
72
12
73
8
40
0
40
0
40
0
40
0
40
0.250000000000001
40
0.250000000000001
40
0.500000000000002
40
0.500000000000002
40
1
40
1
40
1
40
1
41
1
10
53.3454322008017
20
-26.687055253695
30
0
41
1
10
53.3662470088202
20
-26.6096805860471
30
0
41
1
10
53.3865720099267
20
-26.532006508457
30
0
41
1
10
53.4266341974305
20
-26.3762990329739
30
0
41
1
10
53.4463663005741
20
-26.2982625277815
30
0
41
1
10
53.5049756536662
20
-26.0637942166071
30
0
41
1
10
53.5432814103811
20
-25.9070130673394
30
0
41
1
10
53.5812077706279
20
-25.75
30
0
0
SPLINE
5
11C
100
AcDbEntity
8
1
62
256
6
ByLayer
370
18
48
1
60
0
100
AcDbSpline
70
4
71
3
72
8
73
4
40
0
40
0
40
0
40
0
40
1
40
1
40
1
40
1
41
1
10
53.5812077706279
20
-25.75
30
0
41
1
10
53.6163490340967
20
-25.7294760627793
30
0
41
1
10
53.6514441464643
20
-25.708750141474
30
0
41
1
10
53.6865106453464
20
-25.6878989908994
30
0
0
SPLINE
5
11D
100
AcDbEntity
8
1
62
256
6
ByLayer
370
18
48
1
60
0
100
AcDbSpline
70
4
71
3
72
20
73
16
40
0
40
0
40
0
40
0
40
0.125
40
0.125
40
0.25
40
0.25
40
0.375
40
0.375
40
0.5
40
0.5
40
0.625
40
0.625
40
0.75
40
0.75
40
1
40
1
40
1
40
1
41
1
10
53.7500000000053
20
-25.5488189610531
30
0
41
1
10
53.7500000000053
20
-25.5564235687165
30
0
41
1
10
53.7496122894076
20
-25.5639762744384
30
0
41
1
10
53.7480661815218
20
-25.5789785157967
30
0
41
1
10
53.7469146404436
20
-25.5863325174432
30
0
41
1
10
53.7439160773347
20
-25.6005896613163
30
0
41
1
10
53.7420660944706
20
-25.6075210867982
30
0
41
1
10
53.7376593079985
20
-25.6209865990583
30
0
41
1
10
53.7350908262978
20
-25.627524649763
30
0
41
1
10
53.7294293560826
20
-25.6397475513341
30
0
41
1
10
53.7263182970862
20
-25.6454956293184
30
0
41
1
10
53.7195461549389
20
-25.6562788106681
30
0
41
1
10
53.7158510597948
20
-25.6613509554201
30
0
41
1
10
53.704189305352
20
-25.6751290512659
30
0
41
1
10
53.6957000859098
20
-25.6824347895964
30
0
41
1
10
53.6865106453464
20
-25.6878989908994
30
0
0
SPLINE
5
11E
100
AcDbEntity
8
1
62
256
6
ByLayer
370
18
48
1
60
0
100
AcDbSpline
70
4
71
3
72
20
73
16
40
0
40
0
40
0
40
0
40
0.125000000000003
40
0.125000000000003
40
0.250000000000006
40
0.250000000000006
40
0.375000000000008
40
0.375000000000008
40
0.500000000000011
40
0.500000000000011
40
0.625000000000014
40
0.625000000000014
40
0.750000000000017
40
0.750000000000017
40
1
40
1
40
1
40
1
41
1
10
53.6865106453463
20
-25.3121010091006
30
0
41
1
10
53.6911040884285
20
-25.314832350307
30
0
41
1
10
53.6955397235204
20
-25.3180428738552
30
0
41
1
10
53.7040937531756
20
-25.3254272185598
30
0
41
1
10
53.708225305379
20
-25.3296243603783
30
0
41
1
10
53.7159594784963
20
-25.3387926766347
30
0
41
1
10
53.7195881949015
20
-25.3437814419371
30
0
41
1
10
53.7263617408319
20
-25.3545803174143
30
0
41
1
10
53.7295292230758
20
-25.3604443460191
30
0
41
1
10
53.7352004104125
20
-25.3727365409518
30
0
41
1
10
53.7377115139115
20
-25.3791589968836
30
0
41
1
10
53.7420864241383
20
-25.3925551918343
30
0
41
1
10
53.7439599708086
20
-25.3995770167443
30
0
41
1
10
53.7484779810557
20
-25.4211868229534
30
0
41
1
10
53.75
20
-25.4359842728918
30
0
41
1
10
53.75
20
-25.4511810389476
30
0
0
SPLINE
5
11F
100
AcDbEntity
8
1
62
256
6
ByLayer
370
18
48
1
60
0
100
AcDbSpline
70
4
71
3
72
8
73
4
40
0
40
0
40
0
40
0
40
1
40
1
40
1
40
1
41
1
10
53.581207770628
20
-25.2500000000001
30
0
41
1
10
53.6163519950296
20
-25.2705256665267
30
0
41
1
10
53.6514466721627
20
-25.2912513603502
30
0
41
1
10
53.6865106453463
20
-25.3121010091006
30
0
0
SPLINE
5
120
100
AcDbEntity
8
1
62
256
6
ByLayer
370
18
48
1
60
0
100
AcDbSpline
70
4
71
3
72
12
73
8
40
0
40
0
40
0
40
0
40
0.250000000000003
40
0.250000000000003
40
0.500000000000005
40
0.500000000000005
40
1
40
1
40
1
40
1
41
1
10
53.3538422694955
20
-24.3443235957551
30
0
41
1
10
53.3738308422777
20
-24.4191741965404
30
0
41
1
10
53.3933921291701
20
-24.4942801695344
30
0
41
1
10
53.4319865889325
20
-24.6448077487964
30
0
41
1
10
53.4510158986857
20
-24.7202316638995
30
0
41
1
10
53.5075671453775
20
-24.9468241635702
30
0
41
1
10
53.5445660655151
20
-25.0983053350003
30
0
41
1
10
53.5812077706279
20
-25.25
30
0
0
SPLINE
5
121
100
AcDbEntity
8
1
62
256
6
ByLayer
370
18
48
1
60
0
100
AcDbSpline
70
4
71
3
72
69
73
65
40
0
40
0
40
0
40
0
40
0.0310761714940268
40
0.0310761714940268
40
0.0467039751796097
40
0.0467039751796097
40
0.0623317788651927
40
0.0623317788651927
40
0.124842993607521
40
0.124842993607521
40
0.156098600978685
40
0.171726404664267
40
0.171726404664267
40
0.187354208349848
40
0.187354208349848
40
0.249865423092171
40
0.249865423092171
40
0.281121030463333
40
0.281121030463333
40
0.296748834148913
40
0.296748834148913
40
0.312376637834493
40
0.312376637834493
40
0.374887852576816
40
0.374887852576816
40
0.390515656262397
40
0.390515656262397
40
0.406143459947977
40
0.406143459947977
40
0.437399067319139
40
0.437399067319139
40
0.499910282061461
40
0.499910282061461
40
0.515538085747041
40
0.515538085747041
40
0.531165889432622
40
0.531165889432622
40
0.562421496803783
40
0.562421496803783
40
0.624932711546104
40
0.624932711546104
40
0.640560515231684
40
0.640560515231684
40
0.656188318917265
40
0.656188318917265
40
0.687443926288425
40
0.687443926288425
40
0.749955141030745
40
0.749955141030745
40
0.765582944716325
40
0.765582944716325
40
0.781210748401905
40
0.781210748401905
40
0.812466355773063
40
0.812466355773063
40
0.874977570515377
40
0.874977570515377
40
0.890605374200955
40
0.890605374200955
40
0.906233177886534
40
0.906233177886534
40
0.937488785257688
40
0.937488785257688
40
1
40
1
40
1
40
1
41
1
10
23.7990359918337
20
15.0055080628055
30
0
41
1
10
23.7433885051986
20
15.0084313927504
30
0
41
1
10
23.6884540780992
20
15.0124827145842
30
0
41
1
10
23.6069603767064
20
15.0201493180993
30
0
41
1
10
23.5798711557596
20
15.0229802980604
30
0
41
1
10
23.5260542325526
20
15.0291545403457
30
0
41
1
10
23.4994503159509
20
15.0324842186514
30
0
41
1
10
23.3684249699483
20
15.0501890792994
30
0
41
1
10
23.2694050206975
20
15.0677814505052
30
0
41
1
10
23.1289550695944
20
15.0976898193006
30
0
41
1
10
23.060762996067
20
15.1135280402275
30
0
41
1
10
22.995614714645
20
15.1304025088473
30
0
41
1
10
22.9528659211049
20
15.1418494563833
30
0
41
1
10
22.9318797772108
20
15.1476598035186
30
0
41
1
10
22.8295777782131
20
15.1768479633802
30
0
41
1
10
22.7553876263546
20
15.2008189525991
30
0
41
1
10
22.6550894873479
20
15.2358921519447
30
0
41
1
10
22.6234999807111
20
15.2474363801889
30
0
41
1
10
22.5789285986096
20
15.2642947595496
30
0
41
1
10
22.5645136307265
20
15.269848535401
30
0
41
1
10
22.5367780381649
20
15.2807070541685
30
0
41
1
10
22.5234796473141
20
15.2860025696714
30
0
41
1
10
22.4597968820189
20
15.3117262790845
30
0
41
1
10
22.4177696398276
20
15.3298942864614
30
0
41
1
10
22.3764952067967
20
15.3482327354038
30
0
41
1
10
22.3688077235351
20
15.3516816913948
30
0
41
1
10
22.3545885888229
20
15.3581071538113
30
0
41
1
10
22.348045971414
20
15.3610886890272
30
0
41
1
10
22.3302712721765
20
15.3692362499734
30
0
41
1
10
22.3209649416071
20
15.3735689228491
30
0
41
1
10
22.3004779883792
20
15.3831515492209
30
0
41
1
10
22.2966747937349
20
15.3849753543727
30
0
41
1
10
22.3044302640671
20
15.3813183575691
30
0
41
1
10
22.3066112157778
20
15.380290965659
30
0
41
1
10
22.312255803999
20
15.3776418129444
30
0
41
1
10
22.3157217322522
20
15.3760190466603
30
0
41
1
10
22.3279129061244
20
15.3703398545034
30
0
41
1
10
22.3384568003274
20
15.3654588985011
30
0
41
1
10
22.377064200781
20
15.3478801132701
30
0
41
1
10
22.4120491171946
20
15.3322440498987
30
0
41
1
10
22.467296223381
20
15.3089749755044
30
0
41
1
10
22.4789258150915
20
15.3041351365686
30
0
41
1
10
22.5033622190396
20
15.2941137270731
30
0
41
1
10
22.5161816578976
20
15.2889275904148
30
0
41
1
10
22.5560235907187
20
15.2730672215015
30
0
41
1
10
22.58454277414
20
15.2620433811612
30
0
41
1
10
22.6758288551788
20
15.2281049366861
30
0
41
1
10
22.7442754480108
20
15.2043241107841
30
0
41
1
10
22.8395966787238
20
15.1746664122283
30
0
41
1
10
22.8591530015599
20
15.1687381981443
30
0
41
1
10
22.8992730979025
20
15.1569267997567
30
0
41
1
10
22.9198009996244
20
15.1510550685772
30
0
41
1
10
22.9823686157123
20
15.1337163137363
30
0
41
1
10
23.0255469507409
20
15.1224792650856
30
0
41
1
10
23.1594815137565
20
15.0901456671674
30
0
41
1
10
23.2545993679294
20
15.0704171495309
30
0
41
1
10
23.3813255020962
20
15.049451133937
30
0
41
1
10
23.4071288892454
20
15.0454347815996
30
0
41
1
10
23.4590979248792
20
15.0378755634556
30
0
41
1
10
23.4852874718575
20
15.0343273907725
30
0
41
1
10
23.564466463804
20
15.0244085441616
30
0
41
1
10
23.6180651723716
20
15.0187632336906
30
0
41
1
10
23.781301819909
20
15.0049861501335
30
0
41
1
10
23.8933609680952
20
15
30
0
41
1
10
24.0088791813337
20
15
30
0
0
SPLINE
5
122
100
AcDbEntity
8
1
62
256
6
ByLayer
370
18
48
1
60
0
100
AcDbSpline
70
4
71
3
72
9
73
5
40
0
40
0
40
0
40
0
40
0.0072243839796635
40
1
40
1
40
1
40
1
41
1
10
27.7701322121863
20
-26.6750644628005
30
0
41
1
10
27.7699867756591
20
-26.6750660275654
30
0
41
1
10
27.7497824482035
20
-26.6752865514659
30
0
41
1
10
27.7194767495508
20
-26.6760507504022
30
0
41
1
10
27.6792156108742
20
-26.6773218664371
30
0
0
SPLINE
5
123
100
AcDbEntity
8
1
62
256
6
ByLayer
370
18
48
1
60
0
100
AcDbSpline
70
4
71
3
72
8
73
4
40
0
40
0
40
0
40
0
40
1
40
1
40
1
40
1
41
1
10
53.3538422694955
20
-24.3443235957551
30
0
41
1
10
53.3219991164442
20
-24.3441903590037
30
0
41
1
10
53.2898481096635
20
-24.3441292580601
30
0
41
1
10
53.25738095907
20
-24.3441411873425
30
0
0
SPLINE
5
124
100
AcDbEntity
8
1
62
256
6
ByLayer
370
18
48
1
60
0
100
AcDbSpline
70
4
71
3
72
32
73
28
40
0
40
0
40
0
40
0
40
0.125000000000017
40
0.125000000000017
40
0.156250000000019
40
0.156250000000019
40
0.187500000000021
40
0.187500000000021
40
0.250000000000015
40
0.250000000000015
40
0.374999999999992
40
0.374999999999992
40
0.437499999999979
40
0.437499999999979
40
0.468749999999978
40
0.468749999999978
40
0.499999999999978
40
0.499999999999978
40
0.624999999999985
40
0.624999999999985
40
0.687499999999986
40
0.687499999999986
40
0.749999999999986
40
0.749999999999986
40
0.874999999999993
40
0.874999999999993
40
1
40
1
40
1
40
1
41
1
10
44.9999999999997
20
-24.3472941993999
30
0
41
1
10
44.9135296795288
20
-24.3473284629928
30
0
41
1
10
44.8279398979722
20
-24.3404687765182
30
0
41
1
10
44.7220292874609
20
-24.3234650804876
30
0
41
1
10
44.7009013277553
20
-24.3196402909051
30
0
41
1
10
44.6587544547225
20
-24.3111369615248
30
0
41
1
10
44.6377024658688
20
-24.3064490302465
30
0
41
1
10
44.5751942812396
20
-24.2912153084703
30
0
41
1
10
44.5342551967527
20
-24.2794811063466
30
0
41
1
10
44.4135587532484
20
-24.2397119462434
30
0
41
1
10
44.3359094466465
20
-24.2071379042243
30
0
41
1
10
44.2235963910702
20
-24.1493175315119
30
0
41
1
10
44.1868554330298
20
-24.1285438725841
30
0
41
1
10
44.1328113172012
20
-24.0950852151652
30
0
41
1
10
44.1150350130409
20
-24.0835843482524
30
0
41
1
10
44.0801461876455
20
-24.0600261030401
30
0
41
1
10
44.063002991736
20
-24.047949882508
30
0
41
1
10
43.9787630590976
20
-23.9861129165204
30
0
41
1
10
43.9160669859775
20
-23.9320116824782
30
0
41
1
10
43.828837662783
20
-23.8441382308582
30
0
41
1
10
43.8009024186546
20
-23.813721488199
30
0
41
1
10
43.7473397780698
20
-23.7506117128999
30
0
41
1
10
43.7216268244541
20
-23.7177850816668
30
0
41
1
10
43.6491708465377
20
-23.6174273938729
30
0
41
1
10
43.6067520782296
20
-23.5477185770014
30
0
41
1
10
43.5331909455505
20
-23.4029289136433
30
0
41
1
10
43.5020495344702
20
-23.3278476130133
30
0
41
1
10
43.4767148776497
20
-23.25
30
0
0
SPLINE
5
125
100
AcDbEntity
8
1
62
256
6
ByLayer
370
18
48
1
60
0
100
AcDbSpline
70
4
71
3
72
10
73
6
40
0
40
0
40
0
40
0
40
0.5
40
0.5
40
1
40
1
40
1
40
1
41
1
10
43.4767148776497
20
-23.25
30
0
41
1
10
43.4817428328671
20
-23.25
30
0
41
1
10
43.4853487497499
20
-23.25
30
0
41
1
10
43.4890015865483
20
-23.25
30
0
41
1
10
43.4890472276938
20
-23.25
30
0
41
1
10
43.4873076505231
20
-23.25
30
0
0
SPLINE
5
126
100
AcDbEntity
8
1
62
256
6
ByLayer
370
18
48
1
60
0
100
AcDbSpline
70
4
71
3
72
14
73
10
40
0
40
0
40
0
40
0
40
0.124999999999998
40
0.124999999999998
40
0.249999999999996
40
0.249999999999996
40
0.499999999999998
40
0.499999999999998
40
1
40
1
40
1
40
1
41
1
10
43.4
20
-23.7366048404603
30
0
41
1
10
43.4
20
-23.7608296257753
30
0
41
1
10
43.4006375358227
20
-23.7852602142307
30
0
41
1
10
43.4032336809317
20
-23.834518978168
30
0
41
1
10
43.4052019535099
20
-23.8594249229649
30
0
41
1
10
43.4130867548529
20
-23.9340013119542
30
0
41
1
10
43.4209594033556
20
-23.9835529605857
30
0
41
1
10
43.4523481744224
20
-24.1314684879608
30
0
41
1
10
43.4835679981895
20
-24.229115948647
30
0
41
1
10
43.5256559116732
20
-24.324999999997
30
0
0
SPLINE
5
127
100
AcDbEntity
8
1
62
256
6
ByLayer
370
18
48
1
60
0
100
AcDbSpline
70
4
71
3
72
30
73
26
40
0
40
0
40
0
40
0
40
0.125000000000002
40
0.125000000000002
40
0.250000000000004
40
0.250000000000004
40
0.312500000000006
40
0.312500000000006
40
0.375000000000007
40
0.375000000000007
40
0.500000000000019
40
0.500000000000019
40
0.562500000000022
40
0.562500000000022
40
0.625000000000025
40
0.625000000000025
40
0.750000000000022
40
0.750000000000022
40
0.781250000000021
40
0.781250000000021
40
0.81250000000002
40
0.81250000000002
40
0.875000000000015
40
0.875000000000015
40
1
40
1
40
1
40
1
41
1
10
45
20
-25.1211018188763
30
0
41
1
10
44.9291889460184
20
-25.1302782640062
30
0
41
1
10
44.8583457207055
20
-25.1347813801346
30
0
41
1
10
44.7165928565701
20
-25.1341401353292
30
0
41
1
10
44.6456832554647
20
-25.129001253326
30
0
41
1
10
44.5392644615407
20
-25.1133917044866
30
0
41
1
10
44.5037391776245
20
-25.1068481922302
30
0
41
1
10
44.4335024779915
20
-25.0911499389189
30
0
41
1
10
44.3986920949222
20
-25.0819847707984
30
0
41
1
10
44.2952133068146
20
-25.0504195195945
30
0
41
1
10
44.2274904001473
20
-25.0239790163283
30
0
41
1
10
44.1280195121821
20
-24.9752867122162
30
0
41
1
10
44.0951174402067
20
-24.9574764566404
30
0
41
1
10
44.0309226767983
20
-24.9191092124727
30
0
41
1
10
43.9995549518334
20
-24.8985264121063
30
0
41
1
10
43.9077173591162
20
-24.8324335662709
30
0
41
1
10
43.8494939139026
20
-24.7826158162878
30
0
41
1
10
43.7809617932978
20
-24.7121992919307
30
0
41
1
10
43.767444034025
20
-24.6976751342161
30
0
41
1
10
43.7410971292803
20
-24.6680509536795
30
0
41
1
10
43.7282429469855
20
-24.6529276946479
30
0
41
1
10
43.6906418425096
20
-24.6066208712521
30
0
41
1
10
43.6668548193131
20
-24.5745017648471
30
0
41
1
10
43.5994176448277
20
-24.4743201173515
30
0
41
1
10
43.5596588433598
20
-24.4024649674434
30
0
41
1
10
43.5256559116723
20
-24.324999999995
30
0
0
SPLINE
5
128
100
AcDbEntity
8
1
62
256
6
ByLayer
370
18
48
1
60
0
100
AcDbSpline
70
4
71
3
72
10
73
6
40
0
40
0
40
0
40
0
40
0.5
40
0.5
40
1
40
1
40
1
40
1
41
1
10
21.4383186059721
20
-20.15
30
0
41
1
10
21.5026528358627
20
-20.15
30
0
41
1
10
21.5818577082164
20
-20.15
30
0
41
1
10
21.766539840066
20
-20.15
30
0
41
1
10
21.8719977371025
20
-20.15
30
0
41
1
10
21.9886571763103
20
-20.15
30
0
0
SPLINE
5
129
100
AcDbEntity
8
1
62
256
6
ByLayer
370
18
48
1
60
0
100
AcDbSpline
70
4
71
3
72
18
73
14
40
0
40
0
40
0
40
0
40
0.0624999999999988
40
0.0624999999999988
40
0.124999999999998
40
0.124999999999998
40
0.249999999999997
40
0.249999999999997
40
0.499999999999998
40
0.499999999999998
40
0.749999999999999
40
0.749999999999999
40
1
40
1
40
1
40
1
41
1
10
20.9749422055416
20
16.393234489462
30
0
41
1
10
20.9578740509367
20
16.413099607807
30
0
41
1
10
20.9407590886763
20
16.433414320122
30
0
41
1
10
20.9065329462642
20
16.4748919245164
30
0
41
1
10
20.8894202828978
20
16.4960572295005
30
0
41
1
10
20.8383230901622
20
16.5606175083423
30
0
41
1
10
20.8045485606962
20
16.6051184681944
30
0
41
1
10
20.7050028347259
20
16.7423086576596
30
0
41
1
10
20.6410636854555
20
16.8386896302834
30
0
41
1
10
20.5215247977279
20
17.0373988862565
30
0
41
1
10
20.4659188123211
20
17.1397134703294
30
0
41
1
10
20.364859941692
20
17.3464105920789
30
0
41
1
10
20.3193961016117
20
17.4507802673112
30
0
41
1
10
20.2792076144253
20
17.5544724136169
30
0
0
SPLINE
5
12A
100
AcDbEntity
8
1
62
256
6
ByLayer
370
18
48
1
60
0
100
AcDbSpline
70
4
71
3
72
26
73
22
40
0
40
0
40
0
40
0
40
0.125000000000002
40
0.125000000000002
40
0.250000000000005
40
0.250000000000005
40
0.312500000000005
40
0.312500000000005
40
0.375000000000006
40
0.375000000000006
40
0.500000000000004
40
0.500000000000004
40
0.625000000000003
40
0.625000000000003
40
0.687500000000001
40
0.687500000000001
40
0.749999999999999
40
0.749999999999999
40
0.875
40
0.875
40
1
40
1
40
1
40
1
41
1
10
21.4383186059721
20
-20.5738341596074
30
0
41
1
10
21.4282921676443
20
-20.5400307072536
30
0
41
1
10
21.4168537008597
20
-20.5084470824273
30
0
41
1
10
21.3918083014479
20
-20.4491875429736
30
0
41
1
10
21.3781974059814
20
-20.4215146674384
30
0
41
1
10
21.3565671749255
20
-20.3827323156501
30
0
41
1
10
21.3491543838031
20
-20.3702610455864
30
0
41
1
10
21.3339925499541
20
-20.3462150713793
30
0
41
1
10
21.3262217494445
20
-20.3346105181947
30
0
41
1
10
21.3026846287149
20
-20.3013725794568
30
0
41
1
10
21.2867400604275
20
-20.2813565713525
30
0
41
1
10
21.2550299973976
20
-20.2453378021303
30
0
41
1
10
21.2392602085073
20
-20.229334981262
30
0
41
1
10
21.2163491722416
20
-20.2083396048386
30
0
41
1
10
21.2088204159244
20
-20.2018309173627
30
0
41
1
10
21.1942205278229
20
-20.1899134143514
30
0
41
1
10
21.1871780012397
20
-20.1845258030517
30
0
41
1
10
21.1670105551621
20
-20.1700673764835
30
0
41
1
10
21.1548386465906
20
-20.1626900431081
30
0
41
1
10
21.1341970370319
20
-20.1526584258336
30
0
41
1
10
21.1257270499297
20
-20.15
30
0
41
1
10
21.1198011678432
20
-20.15
30
0
0
SPLINE
5
12B
100
AcDbEntity
8
1
62
256
6
ByLayer
370
18
48
1
60
0
100
AcDbSpline
70
4
71
3
72
32
73
28
40
0
40
0
40
0
40
0
40
0.0235550906291225
40
0.0353326359436841
40
0.0412214086009648
40
0.0412214086009648
40
0.0441657949296052
40
0.0441657949296052
40
0.0471101812582455
40
0.094220362516491
40
0.188440725032983
40
0.188440725032983
40
0.376881450065966
40
0.376881450065966
40
0.471101812582457
40
0.471101812582457
40
0.565322175098949
40
0.565322175098949
40
0.65954253761544
40
0.65954253761544
40
0.753762900131932
40
0.753762900131932
40
0.847983262648423
40
0.847983262648423
40
0.942203625164915
40
0.942203625164915
40
1
40
1
40
1
40
1
41
1
10
21.4383186059721
20
-20.15
30
0
41
1
10
21.4352125163844
20
-20.15
30
0
41
1
10
21.4303254295411
20
-20.15
30
0
41
1
10
21.4242457891085
20
-20.15
30
0
41
1
10
21.4215613977361
20
-20.15
30
0
41
1
10
21.4202062441116
20
-20.15
30
0
41
1
10
21.4197600907791
20
-20.15
30
0
41
1
10
21.4188593785309
20
-20.15
30
0
41
1
10
21.4111681473593
20
-20.15
30
0
41
1
10
21.3872891301368
20
-20.15
30
0
41
1
10
21.3597029991068
20
-20.15
30
0
41
1
10
21.3002759894113
20
-20.15
30
0
41
1
10
21.2549520224745
20
-20.15
30
0
41
1
10
21.1838151754295
20
-20.15
30
0
41
1
10
21.1595823294864
20
-20.15
30
0
41
1
10
21.111132603327
20
-20.15
30
0
41
1
10
21.0869130848902
20
-20.15
30
0
41
1
10
21.0397657642752
20
-20.15
30
0
41
1
10
21.0168365256431
20
-20.15
30
0
41
1
10
20.9738221524157
20
-20.15
30
0
41
1
10
20.953740253316
20
-20.15
30
0
41
1
10
20.918238561867
20
-20.15
30
0
41
1
10
20.9028318109912
20
-20.15
30
0
41
1
10
20.8785390466694
20
-20.15
30
0
41
1
10
20.8696753147384
20
-20.15
30
0
41
1
10
20.8617266030498
20
-20.15
30
0
41
1
10
20.8601916472874
20
-20.15
30
0
41
1
10
20.8601646059713
20
-20.15
30
0
0
SPLINE
5
12C
100
AcDbEntity
8
1
62
256
6
ByLayer
370
13
48
1
60
0
100
AcDbSpline
70
4
71
3
72
18
73
14
40
0
40
0
40
0
40
0
40
0.0047272517206327
40
0.0849380751976793
40
0.165148898674726
40
0.325570545628819
40
0.405781369105865
40
0.485992192582912
40
0.646413839537005
40
0.806835486491098
40
0.887046309968145
40
0.967257133445191
40
1
40
1
40
1
40
1
41
1
10
-0.394913799811292
20
-5.00116108217654
30
0
41
1
10
-0.394913799811292
20
-5.02384266526144
30
0
41
1
10
-0.394913799811292
20
-5.43069780454795
30
0
41
1
10
-0.394913799811292
20
-6.19788950405021
30
0
41
1
10
-0.394913799811292
20
-7.59985122616763
30
0
41
1
10
-0.394913799811292
20
-8.86359092653058
30
0
41
1
10
-0.394913799811292
20
-9.98771978618731
30
0
41
1
10
-0.394913799811292
20
-11.015314225612
30
0
41
1
10
-0.394913799811292
20
-12.1118907902116
30
0
41
1
10
-0.394913799811292
20
-12.9393754432253
30
0
41
1
10
-0.394913799811292
20
-13.4200270263956
30
0
41
1
10
-0.394913799811292
20
-13.6305385249135
30
0
41
1
10
-0.394913799811292
20
-13.71810121976
30
0
41
1
10
-0.39491379981132
20
-13.7403540821428
30
0
0
SPLINE
5
12D
100
AcDbEntity
8
1
62
256
6
ByLayer
370
18
48
1
60
0
100
AcDbSpline
70
4
71
3
72
9
73
5
40
0
40
0
40
0
40
0
40
0.60138769746966
40
1
40
1
40
1
40
1
41
1
10
-0.394913799811292
20
-13.7403545289423
30
0
41
1
10
-0.394913799811292
20
-13.772614717468
30
0
41
1
10
-0.394913799811292
20
-13.8153202987598
30
0
41
1
10
-0.394913799811292
20
-13.8386282511807
30
0
41
1
10
-0.394913799811292
20
-13.8446595289407
30
0
0
SPLINE
5
12E
100
AcDbEntity
8
1
62
256
6
ByLayer
370
18
48
1
60
0
100
AcDbSpline
70
4
71
3
72
9
73
5
40
0
40
0
40
0
40
0
40
0.398611407755272
40
1
40
1
40
1
40
1
41
1
10
-0.394913799811292
20
13.8446596982822
30
0
41
1
10
-0.394913799811292
20
13.8386284705405
30
0
41
1
10
-0.394913799811292
20
13.8153206302247
30
0
41
1
10
-0.394913799811292
20
13.7726150014334
30
0
41
1
10
-0.394913799811292
20
13.7403546982822
30
0
0
SPLINE
5
12F
100
AcDbEntity
8
1
62
256
6
ByLayer
370
13
48
1
60
0
100
AcDbSpline
70
4
71
3
72
18
73
14
40
0
40
0
40
0
40
0
40
0.0327429338946482
40
0.112953748821195
40
0.193164563747742
40
0.353586193600836
40
0.514007823453931
40
0.594218638380478
40
0.674429453307025
40
0.834851083160119
40
0.915061898086666
40
0.995272713013213
40
1
40
1
40
1
40
1
41
1
10
-0.394913799811292
20
13.7403545625824
30
0
41
1
10
-0.394913799811292
20
13.7181016404892
30
0
41
1
10
-0.394913799811292
20
13.6305387837986
30
0
41
1
10
-0.394913799811292
20
13.4200269261686
30
0
41
1
10
-0.394913799811292
20
12.9393760577865
30
0
41
1
10
-0.394913799811292
20
12.1118904563386
30
0
41
1
10
-0.394913799811292
20
11.0153145242408
30
0
41
1
10
-0.394913799811292
20
9.98771966705354
30
0
41
1
10
-0.394913799811292
20
8.86359091499725
30
0
41
1
10
-0.394913799811292
20
7.59985108367658
30
0
41
1
10
-0.394913799811292
20
6.19788936064779
30
0
41
1
10
-0.394913799811292
20
5.43069766104711
30
0
41
1
10
-0.394913799811292
20
5.02384231959817
30
0
41
1
10
-0.394913799811292
20
5.00116056257954
30
0
0
SPLINE
5
130
100
AcDbEntity
8
1
62
256
6
ByLayer
370
18
48
1
60
0
100
AcDbSpline
70
4
71
3
72
34
73
30
40
0
40
0
40
0
40
0
40
0.0312500000000008
40
0.0312500000000008
40
0.0625000000000016
40
0.0625000000000016
40
0.125000000000006
40
0.125000000000006
40
0.250000000000012
40
0.250000000000012
40
0.375000000000018
40
0.375000000000018
40
0.43750000000002
40
0.43750000000002
40
0.468750000000021
40
0.468750000000021
40
0.500000000000021
40
0.500000000000021
40
0.625000000000018
40
0.625000000000018
40
0.750000000000014
40
0.750000000000014
40
0.781250000000013
40
0.781250000000013
40
0.812500000000012
40
0.812500000000012
40
0.875000000000007
40
0.875000000000007
40
1
40
1
40
1
40
1
41
1
10
20.9749422055425
20
16.3932344894627
30
0
41
1
10
20.9941848952418
20
16.3708384942892
30
0
41
1
10
21.0137768074567
20
16.3485376165374
30
0
41
1
10
21.0536807620485
20
16.3041340345678
30
0
41
1
10
21.0739924488661
20
16.2820332472175
30
0
41
1
10
21.1357558080176
20
16.2163377201451
30
0
41
1
10
21.1781236927349
20
16.1732496324142
30
0
41
1
10
21.3089129032915
20
16.0461958079538
30
0
41
1
10
21.4010076780348
20
15.9644336934907
30
0
41
1
10
21.5958353426447
20
15.8073716139366
30
0
41
1
10
21.6985622161929
20
15.7320675338221
30
0
41
1
10
21.8615936130733
20
15.6245886977926
30
0
41
1
10
21.9174316764754
20
15.5896777263543
30
0
41
1
10
22.0035981692331
20
15.5387920126877
30
0
41
1
10
22.0327606727988
20
15.5220559190938
30
0
41
1
10
22.0917366540067
20
15.4892018116105
30
0
41
1
10
22.1215044727483
20
15.4731078754942
30
0
41
1
10
22.2717637740067
20
15.3943306255607
30
0
41
1
10
22.3965003027779
20
15.3367061758881
30
0
41
1
10
22.655804293816
20
15.2332141501595
30
0
41
1
10
22.7903648151656
20
15.1873380415565
30
0
41
1
10
22.9654979567374
20
15.1383062460198
30
0
41
1
10
23.0008527015304
20
15.1289257449162
30
0
41
1
10
23.0716890024555
20
15.1111688335733
30
0
41
1
10
23.1072410568952
20
15.1027721612805
30
0
41
1
10
23.2143000271938
20
15.0790321978965
30
0
41
1
10
23.28620943426
20
15.0651378271444
30
0
41
1
10
23.503567834598
20
15.02932902727
30
0
41
1
10
23.6506411343773
20
15.013267682572
30
0
41
1
10
23.8
20
15.0054575371382
30
0
0
SPLINE
5
131
100
AcDbEntity
8
1
62
256
6
ByLayer
370
18
48
1
60
0
100
AcDbSpline
70
4
71
3
72
16
73
12
40
0
40
0
40
0
40
0
40
0.25
40
0.25
40
0.5
40
0.5
40
0.625
40
0.625
40
0.750000000000001
40
0.750000000000001
40
1
40
1
40
1
40
1
41
1
10
20.2792076144253
20
15.1448692328525
30
0
41
1
10
20.3201715223188
20
15.2444656321548
30
0
41
1
10
20.3665354962305
20
15.3430299345556
30
0
41
1
10
20.4689984179546
20
15.5412003491607
30
0
41
1
10
20.5251031941275
20
15.6408085689639
30
0
41
1
10
20.6151111965872
20
15.7937791264686
30
0
41
1
10
20.6460816370516
20
15.8453666875585
30
0
41
1
10
20.7096165306427
20
15.9502536504022
30
0
41
1
10
20.7420899013881
20
16.0034039489183
30
0
41
1
10
20.8406836562816
20
16.1652840525235
30
0
41
1
10
20.9081092501896
20
16.2765867021221
30
0
41
1
10
20.9749422055424
20
16.3932344894627
30
0
0
SPLINE
5
132
100
AcDbEntity
8
1
62
256
6
ByLayer
370
18
48
1
60
0
100
AcDbSpline
70
4
71
3
72
28
73
24
40
0
40
0
40
0
40
0
40
0.0312500000000009
40
0.0312500000000009
40
0.0625000000000019
40
0.0625000000000019
40
0.125
40
0.125
40
0.249999999999997
40
0.249999999999997
40
0.312499999999997
40
0.312499999999997
40
0.374999999999997
40
0.374999999999997
40
0.499999999999999
40
0.499999999999999
40
0.625
40
0.625
40
0.750000000000002
40
0.750000000000002
40
0.875000000000001
40
0.875000000000001
40
1
40
1
40
1
40
1
41
1
10
21.4383186059727
20
-17.5243635992808
30
0
41
1
10
21.431744226581
20
-17.4914418419165
30
0
41
1
10
21.4244988568804
20
-17.4588010376329
30
0
41
1
10
21.4087968250166
20
-17.394038027597
30
0
41
1
10
21.4003247864614
20
-17.361866722207
30
0
41
1
10
21.3734301533068
20
-17.2666622611058
30
0
41
1
10
21.3535128871016
20
-17.204799260921
30
0
41
1
10
21.2891131614757
20
-17.0232848821776
30
0
41
1
10
21.2400209059795
20
-16.9076822447031
30
0
41
1
10
21.1609429341794
20
-16.7404660711645
30
0
41
1
10
21.1336635091697
20
-16.6857681929136
30
0
41
1
10
21.0777894722231
20
-16.5782048623018
30
0
41
1
10
21.0494747948797
20
-16.5258729875046
30
0
41
1
10
20.9641165028048
20
-16.3725848583649
30
0
41
1
10
20.9066777519226
20
-16.2753089699922
30
0
41
1
10
20.7937023040609
20
-16.0876415698582
30
0
41
1
10
20.738157189203
20
-15.9972597581102
30
0
41
1
10
20.6311880660356
20
-15.8208764928887
30
0
41
1
10
20.579760619701
20
-15.7348777356121
30
0
41
1
10
20.4826915720299
20
-15.5649928120256
30
0
41
1
10
20.4370482842042
20
-15.4811061377265
30
0
41
1
10
20.3527245343366
20
-15.3133929144801
30
0
41
1
10
20.3140426333
20
-15.229564337103
30
0
41
1
10
20.2792076144253
20
-15.1448692328525
30
0
0
SPLINE
5
133
100
AcDbEntity
8
1
62
256
6
ByLayer
370
18
48
1
60
0
100
AcDbSpline
70
4
71
3
72
8
73
4
40
0
40
0
40
0
40
0
40
1
40
1
40
1
40
1
41
1
10
21.9886571763103
20
-20.15
30
0
41
1
10
21.7972217970425
20
-19.2738735160455
30
0
41
1
10
21.6129439860788
20
-18.3988148669937
30
0
41
1
10
21.4383186059721
20
-17.524363599281
30
0
0
SPLINE
5
134
100
AcDbEntity
8
1
62
256
6
ByLayer
370
18
48
1
60
0
100
AcDbSpline
70
4
71
3
72
39
73
35
40
0
40
0
40
0
40
0
40
0.0233594643776255
40
0.0513972056069201
40
0.0794349468362146
40
0.107472688065509
40
0.163548170524098
40
0.219623652982688
40
0.247661394211982
40
0.275699135441277
40
0.331774617899866
40
0.35981235912916
40
0.387850100358455
40
0.41588784158775
40
0.443925582817044
40
0.471963324046339
40
0.485982194660986
40
0.500001065275633
40
0.514019935890281
40
0.528038806504928
40
0.556076547734222
40
0.584114288963517
40
0.612152030192812
40
0.640189771422106
40
0.668227512651401
40
0.72430299510999
40
0.752340736339284
40
0.780378477568579
40
0.836453960027168
40
0.892529442485758
40
0.920567183715052
40
0.948604924944346
40
0.976642666173641
40
1
40
1
40
1
40
1
41
1
10
-24
20
-12.6317140948702
30
0
41
1
10
-24
20
-12.6344703702213
30
0
41
1
10
-24
20
-12.6094822618671
30
0
41
1
10
-24
20
-12.4743689830171
30
0
41
1
10
-24
20
-12.230146179188
30
0
41
1
10
-24
20
-11.778244241418
30
0
41
1
10
-24
20
-11.0029092636263
30
0
41
1
10
-24
20
-9.97333247862687
30
0
41
1
10
-24
20
-9.00198713477033
30
0
41
1
10
-24
20
-7.94098140173097
30
0
41
1
10
-24
20
-6.76812921007328
30
0
41
1
10
-24
20
-5.45799637564653
30
0
41
1
10
-24
20
-4.42753733029454
30
0
41
1
10
-24
20
-3.35000222974921
30
0
41
1
10
-24
20
-2.23771741989395
30
0
41
1
10
-24
20
-1.30515932004789
30
0
41
1
10
-24
20
-0.551100854738877
30
0
41
1
10
-24
20
-2.454147534E-07
30
0
41
1
10
-24
20
0.551100895559586
30
0
41
1
10
-24
20
1.30515943417129
30
0
41
1
10
-24
20
2.23771697460674
30
0
41
1
10
-24
20
3.35000208235883
30
0
41
1
10
-24
20
4.4275375451636
30
0
41
1
10
-24
20
5.45799609225458
30
0
41
1
10
-24
20
6.76812911518888
30
0
41
1
10
-24
20
7.94098139760015
30
0
41
1
10
-24
20
9.00198709358403
30
0
41
1
10
-24
20
9.97333275207075
30
0
41
1
10
-24
20
11.0029089912388
30
0
41
1
10
-24
20
11.7782448377074
30
0
41
1
10
-24
20
12.2301460729139
30
0
41
1
10
-24
20
12.4743692733745
30
0
41
1
10
-24
20
12.6094790904009
30
0
41
1
10
-24
20
12.6344684111639
30
0
41
1
10
-24
20
12.6317149364562
30
0
0
SPLINE
5
135
100
AcDbEntity
8
1
62
256
6
ByLayer
370
18
48
1
60
0
100
AcDbSpline
70
4
71
3
72
9
73
5
40
0
40
0
40
0
40
0
40
0.558773201091965
40
1
40
1
40
1
40
1
41
1
10
-1.49503997793926
20
13.8252670527175
30
0
41
1
10
-1.49503997793926
20
13.8253385754336
30
0
41
1
10
-1.49503997793926
20
13.8032101863686
30
0
41
1
10
-1.49503997793926
20
13.7451767930985
30
0
41
1
10
-1.49503997793928
20
13.7130156697813
30
0
0
SPLINE
5
136
100
AcDbEntity
8
1
62
256
6
ByLayer
370
13
48
1
60
0
100
AcDbSpline
70
4
71
3
72
20
73
16
40
0
40
0
40
0
40
0
40
0.028317187673421
40
0.0975854516720217
40
0.166853715670622
40
0.305390243667824
40
0.443926771665025
40
0.513195035663626
40
0.582463299662227
40
0.720999827659428
40
0.790268091658029
40
0.85953635565663
40
0.92880461965523
40
0.998072883653831
40
1
40
1
40
1
40
1
41
1
10
-1.49503997793926
20
13.713015669781
30
0
41
1
10
-1.49503997793926
20
13.6907766312382
30
0
41
1
10
-1.49503997793928
20
13.6033357132655
30
0
41
1
10
-1.49503997793928
20
13.3930993868039
30
0
41
1
10
-1.49503997793928
20
12.9130991355629
30
0
41
1
10
-1.49503997793928
20
12.0867937065467
30
0
41
1
10
-1.49503997793928
20
10.9917340076615
30
0
41
1
10
-1.49503997793928
20
9.96541209516295
30
0
41
1
10
-1.49503997793928
20
8.84271184628204
30
0
41
1
10
-1.49503997793928
20
7.58102884110858
30
0
41
1
10
-1.49503997793928
20
6.18114524290198
30
0
41
1
10
-1.49503997793928
20
5.06527592408099
30
0
41
1
10
-1.49503997793928
20
3.88412508952482
30
0
41
1
10
-1.49503997793928
20
3.04345441166049
30
0
41
1
10
-1.49503997793928
20
2.60753527399982
30
0
41
1
10
-1.49503997793928
20
2.59572866980201
30
0
0
SPLINE
5
137
100
AcDbEntity
8
1
62
256
6
ByLayer
370
13
48
1
60
0
100
AcDbSpline
70
4
71
3
72
20
73
16
40
0
40
0
40
0
40
0
40
0.0019270700262581
40
0.0711953294826544
40
0.140463588939051
40
0.209731848395447
40
0.279000107851843
40
0.417536626764636
40
0.486804886221032
40
0.556073145677428
40
0.694609664590221
40
0.833146183503013
40
0.90241444295941
40
0.971682702415806
40
1
40
1
40
1
40
1
41
1
10
-1.49503997793928
20
-2.59572959682796
30
0
41
1
10
-1.49503997793928
20
-2.60753591899177
30
0
41
1
10
-1.49503997793928
20
-3.04345481646683
30
0
41
1
10
-1.49503997793928
20
-3.88412534084222
30
0
41
1
10
-1.49503997793928
20
-5.0652758228772
30
0
41
1
10
-1.49503997793928
20
-6.18114538947242
30
0
41
1
10
-1.49503997793928
20
-7.58102898252227
30
0
41
1
10
-1.49503997793928
20
-8.84271185764786
30
0
41
1
10
-1.49503997793928
20
-9.96541221253273
30
0
41
1
10
-1.49503997793928
20
-10.9917337096027
30
0
41
1
10
-1.49503997793928
20
-12.0867940390283
30
0
41
1
10
-1.49503997793928
20
-12.9130985214152
30
0
41
1
10
-1.49503997793928
20
-13.3930994871677
30
0
41
1
10
-1.49503997793928
20
-13.6033356716408
30
0
41
1
10
-1.49503997793928
20
-13.6907765202193
30
0
41
1
10
-1.49503997793928
20
-13.7130155968051
30
0
0
SPLINE
5
138
100
AcDbEntity
8
1
62
256
6
ByLayer
370
18
48
1
60
0
100
AcDbSpline
70
4
71
3
72
9
73
5
40
0
40
0
40
0
40
0
40
0.442559157926634
40
1
40
1
40
1
40
1
41
1
10
-1.49503997793928
20
-13.7130150342548
30
0
41
1
10
-1.49503997793928
20
-13.7451762618296
30
0
41
1
10
-1.49503997793928
20
-13.8030351463854
30
0
41
1
10
-1.49503997793928
20
-13.8252049460404
30
0
41
1
10
-1.49503997793931
20
-13.8252670342544
30
0
0
SPLINE
5
139
100
AcDbEntity
8
1
62
256
6
ByLayer
370
18
48
1
60
0
100
AcDbSpline
70
4
71
3
72
50
73
46
40
0
40
0
40
0
40
0
40
0.125000000000012
40
0.125000000000012
40
0.250000000000024
40
0.250000000000024
40
0.312500000000031
40
0.312500000000031
40
0.375000000000038
40
0.375000000000038
40
0.437500000000045
40
0.437500000000045
40
0.468750000000048
40
0.468750000000048
40
0.48437500000005
40
0.48437500000005
40
0.500000000000052
40
0.500000000000052
40
0.515625000000054
40
0.515625000000054
40
0.523437500000057
40
0.523437500000057
40
0.531250000000059
40
0.531250000000059
40
0.535156250000059
40
0.535156250000059
40
0.539062500000059
40
0.539062500000059
40
0.546875000000059
40
0.546875000000059
40
0.562500000000056
40
0.562500000000056
40
0.578125000000054
40
0.578125000000054
40
0.593750000000052
40
0.593750000000052
40
0.625000000000048
40
0.625000000000048
40
0.68750000000004
40
0.68750000000004
40
0.750000000000032
40
0.750000000000032
40
0.875000000000016
40
0.875000000000016
40
1
40
1
40
1
40
1
41
1
10
-1.49503997793928
20
-2.59572959682799
30
0
41
1
10
-1.50259580380231
20
-2.54970538090487
30
0
41
1
10
-1.5104440791938
20
-2.5037485497009
30
0
41
1
10
-1.52696140207524
20
-2.41209242042987
30
0
41
1
10
-1.53561964544304
20
-2.36637992038092
30
0
41
1
10
-1.54962149943921
20
-2.29823508774663
30
0
41
1
10
-1.55445799280432
20
-2.27560423600821
30
0
41
1
10
-1.56462503300466
20
-2.23061031941455
30
0
41
1
10
-1.56994933734998
20
-2.20824327444524
30
0
41
1
10
-1.58141440210633
20
-2.1639829941042
30
0
41
1
10
-1.58752132339228
20
-2.14206819971534
30
0
41
1
10
-1.5980018377696
20
-2.11000295822438
30
0
41
1
10
-1.60173135359588
20
-2.09941136011767
30
0
41
1
10
-1.60792208521562
20
-2.0840854996479
30
0
41
1
10
-1.61008417279069
20
-2.0790771956942
30
0
41
1
10
-1.61471614069211
20
-2.06937654210969
30
0
41
1
10
-1.61717970743425
20
-2.06467763004105
30
0
41
1
10
-1.62266900676536
20
-2.05586039978144
30
0
41
1
10
-1.62570082643288
20
-2.05168607565219
30
0
41
1
10
-1.63098239203811
20
-2.04685996014615
30
0
41
1
10
-1.6329019457323
20
-2.04547928392895
30
0
41
1
10
-1.63699263810764
20
-2.04373469956386
30
0
41
1
10
-1.63921911624004
20
-2.04338149066749
30
0
41
1
10
-1.64253578152042
20
-2.04402974687966
30
0
41
1
10
-1.64365346396514
20
-2.04444453700538
30
0
41
1
10
-1.64576913847839
20
-2.04559596629972
30
0
41
1
10
-1.64678471429062
20
-2.04633307019134
30
0
41
1
10
-1.64972344115719
20
-2.04895713823333
30
0
41
1
10
-1.65146277058665
20
-2.05118187975825
30
0
41
1
10
-1.65615085025311
20
-2.05848683766303
30
0
41
1
10
-1.6585367992972
20
-2.06399527606521
30
0
41
1
10
-1.66277344227467
20
-2.07547629075165
30
0
41
1
10
-1.66455510466849
20
-2.0813878802806
30
0
41
1
10
-1.66776761506961
20
-2.09338046474815
30
0
41
1
10
-1.66917976470285
20
-2.09942277841125
30
0
41
1
10
-1.67305217630945
20
-2.11760538297838
30
0
41
1
10
-1.67515949014842
20
-2.12981712458023
30
0
41
1
10
-1.68075232756121
20
-2.16659121971193
30
0
41
1
10
-1.68351230038942
20
-2.19134004598717
30
0
41
1
10
-1.68813273270567
20
-2.24066381962933
30
0
41
1
10
-1.68996451253321
20
-2.26528111364473
30
0
41
1
10
-1.69458987013775
20
-2.33904299616424
30
0
41
1
10
-1.6965250123217
20
-2.38809848078017
30
0
41
1
10
-1.69914629015307
20
-2.48605219520391
30
0
41
1
10
-1.69980283176193
20
-2.53494813104055
30
0
41
1
10
-1.69999999999999
20
-2.58377808521789
30
0
0
SPLINE
5
13A
100
AcDbEntity
8
1
62
256
6
ByLayer
370
18
48
1
60
0
100
AcDbSpline
70
4
71
3
72
8
73
4
40
0
40
0
40
0
40
0
40
1
40
1
40
1
40
1
41
1
10
-1.30710678118655
20
-3.62853433720642
30
0
41
1
10
-1.37356947571646
20
-3.29172452904805
30
0
41
1
10
-1.4372004972023
20
-2.94804273884375
30
0
41
1
10
-1.49503997793928
20
-2.59572959682799
30
0
0
SPLINE
5
13B
100
AcDbEntity
8
1
62
256
6
ByLayer
370
18
48
1
60
0
100
AcDbSpline
70
4
71
3
72
8
73
4
40
0
40
0
40
0
40
0
40
1
40
1
40
1
40
1
41
1
10
-1.49503997793928
20
2.59572866974992
30
0
41
1
10
-1.43720046286555
20
2.94804131885212
30
0
41
1
10
-1.37356940710868
20
3.29172262772087
30
0
41
1
10
-1.30710678118655
20
3.62853202212773
30
0
0
SPLINE
5
13C
100
AcDbEntity
8
1
62
256
6
ByLayer
370
18
48
1
60
0
100
AcDbSpline
70
4
71
3
72
50
73
46
40
0
40
0
40
0
40
0
40
0.125000000000011
40
0.125000000000011
40
0.250000000000021
40
0.250000000000021
40
0.312500000000027
40
0.312500000000027
40
0.375000000000032
40
0.375000000000032
40
0.406250000000035
40
0.406250000000035
40
0.421875000000036
40
0.421875000000036
40
0.437500000000038
40
0.437500000000038
40
0.453125000000039
40
0.453125000000039
40
0.460937500000039
40
0.460937500000039
40
0.468750000000038
40
0.468750000000038
40
0.476562500000038
40
0.476562500000038
40
0.484375000000037
40
0.484375000000037
40
0.492187500000037
40
0.492187500000037
40
0.500000000000036
40
0.500000000000036
40
0.515625000000035
40
0.515625000000035
40
0.531250000000034
40
0.531250000000034
40
0.562500000000032
40
0.562500000000032
40
0.625000000000028
40
0.625000000000028
40
0.687500000000023
40
0.687500000000023
40
0.750000000000019
40
0.750000000000019
40
0.87500000000001
40
0.87500000000001
40
1
40
1
40
1
40
1
41
1
10
-1.69999999999999
20
2.58377729734613
30
0
41
1
10
-1.69980436369318
20
2.53532682713825
30
0
41
1
10
-1.69915633746155
20
2.48678291130128
30
0
41
1
10
-1.69657077641125
20
2.38945991149225
30
0
41
1
10
-1.69465688317246
20
2.34062742639441
30
0
41
1
10
-1.69011547560279
20
2.26744567235394
30
0
41
1
10
-1.68832031406808
20
2.24305704289955
30
0
41
1
10
-1.68382251839571
20
2.19430149785723
30
0
41
1
10
-1.6811538035131
20
2.16993349213547
30
0
41
1
10
-1.67575012136615
20
2.13342095957782
30
0
41
1
10
-1.67370679113651
20
2.12121687034826
30
0
41
1
10
-1.66999109272726
20
2.10307013790924
30
0
41
1
10
-1.66864594862511
20
2.09706546109075
30
0
41
1
10
-1.66562961649734
20
2.08519083778748
30
0
41
1
10
-1.66396430018824
20
2.07931848353303
30
0
41
1
10
-1.66005581238082
20
2.06781172737621
30
0
41
1
10
-1.65780271049238
20
2.06209889338854
30
0
41
1
10
-1.65360265881839
20
2.05440095769973
30
0
41
1
10
-1.65203540861353
20
2.05194214116116
30
0
41
1
10
-1.64851622596237
20
2.04772090624601
30
0
41
1
10
-1.64651873271586
20
2.04593477970201
30
0
41
1
10
-1.64226262858722
20
2.043768326699
30
0
41
1
10
-1.63997873447315
20
2.04341449775865
30
0
41
1
10
-1.63568436966969
20
2.04410116240959
30
0
41
1
10
-1.63361913581855
20
2.0450986814044
30
0
41
1
10
-1.62982987335099
20
2.04777834300637
30
0
41
1
10
-1.62808309003236
20
2.04945955976308
30
0
41
1
10
-1.62484301170014
20
2.0531239146128
30
0
41
1
10
-1.62333314102943
20
2.05512691093279
30
0
41
1
10
-1.61901669792689
20
2.06146559975113
30
0
41
1
10
-1.61642392925381
20
2.06612103362772
30
0
41
1
10
-1.61160259165956
20
2.07573673930193
30
0
41
1
10
-1.60936320219
20
2.08073614174975
30
0
41
1
10
-1.60299914819288
20
2.09599696577877
30
0
41
1
10
-1.59920684184681
20
2.10654042134561
30
0
41
1
10
-1.58850203306028
20
2.13871110702169
30
0
41
1
10
-1.58228349561369
20
2.16081267675321
30
0
41
1
10
-1.57063755711232
20
2.20542457669759
30
0
41
1
10
-1.56523752837913
20
2.22799607735607
30
0
41
1
10
-1.55494638829134
20
2.27335583269641
30
0
41
1
10
-1.5500606785543
20
2.29615277543081
30
0
41
1
10
-1.53593092606573
20
2.36476035150477
30
0
41
1
10
-1.52720389146864
20
2.41078220609728
30
0
41
1
10
-1.51055736408901
20
2.5030840028657
30
0
41
1
10
-1.50265060758178
20
2.54937072424823
30
0
41
1
10
-1.49503997793928
20
2.59572866980201
30
0
0
SPLINE
5
13D
100
AcDbEntity
8
1
62
256
6
ByLayer
370
18
48
1
60
0
100
AcDbSpline
70
4
71
3
72
21
73
17
40
0
40
0
40
0
40
0
40
0.0053471909150097
40
0.0675275880787078
40
0.129707985242406
40
0.191888382406104
40
0.254068779569802
40
0.378429573897198
40
0.440609971060896
40
0.502790368224594
40
0.627151162551991
40
0.751511956879387
40
0.813692354043085
40
0.875872751206783
40
0.938053148370481
40
1
40
1
40
1
40
1
41
1
10
-1.69999999999999
20
-2.58377808521789
30
0
41
1
10
-1.69999999999999
20
-2.6211130853342
30
0
41
1
10
-1.69999999999999
20
-3.09163207213675
30
0
41
1
10
-1.69999999999999
20
-3.97134131573901
30
0
41
1
10
-1.69999999999999
20
-5.16941096177055
30
0
41
1
10
-1.69999999999999
20
-6.29922705440438
30
0
41
1
10
-1.69999999999999
20
-7.71376588282689
30
0
41
1
10
-1.69999999999999
20
-8.98995375595479
30
0
41
1
10
-1.69999999999999
20
-10.1227281115305
30
0
41
1
10
-1.69999999999999
20
-11.1580265629749
30
0
41
1
10
-1.69999999999999
20
-12.2637795792515
30
0
41
1
10
-1.69999999999999
20
-13.0984067777707
30
0
41
1
10
-1.69999999999999
20
-13.5829959818305
30
0
41
1
10
-1.69999999999999
20
-13.8477062499051
30
0
41
1
10
-1.69999999999999
20
-14.0038343025346
30
0
41
1
10
-1.69999999999999
20
-14.0272338768868
30
0
41
1
10
-1.69999999999999
20
-14.0158119586119
30
0
0
SPLINE
5
13E
100
AcDbEntity
8
1
62
256
6
ByLayer
370
18
48
1
60
0
100
AcDbSpline
70
4
71
3
72
28
73
24
40
0
40
0
40
0
40
0
40
0.0625
40
0.0625
40
0.125
40
0.125
40
0.25
40
0.25
40
0.375
40
0.375
40
0.5
40
0.5
40
0.53125
40
0.53125
40
0.5625
40
0.5625
40
0.625
40
0.625
40
0.75
40
0.75
40
0.875
40
0.875
40
1
40
1
40
1
40
1
41
1
10
-1.69999999999999
20
-2.58377808521789
30
0
41
1
10
-1.7165348045867
20
-2.4797818566588
30
0
41
1
10
-1.73252928227532
20
-2.37518275958956
30
0
41
1
10
-1.76321329032666
20
-2.16467276723154
30
0
41
1
10
-1.7779104307611
20
-2.05868937391003
30
0
41
1
10
-1.8194991935238
20
-1.74011907259904
30
0
41
1
10
-1.84395869573467
20
-1.52647783394633
30
0
41
1
10
-1.88456941336776
20
-1.09633072422011
30
0
41
1
10
-1.90073152159664
20
-0.879827175945792
30
0
41
1
10
-1.92269285742202
20
-0.443534065874189
30
0
41
1
10
-1.9285260192795
20
-0.2237512458141
30
0
41
1
10
-1.92857376506791
20
0.0532112388235646
30
0
41
1
10
-1.92821915648835
20
0.108715900509111
30
0
41
1
10
-1.92678890529308
20
0.219949147197781
30
0
41
1
10
-1.92571062209052
20
0.275747908317783
30
0
41
1
10
-1.92143351430278
20
0.442459814342243
30
0
41
1
10
-1.91719408999322
20
0.552958450347262
30
0
41
1
10
-1.90057185673115
20
0.882620801089502
30
0
41
1
10
-1.88427766240593
20
1.09995043784016
30
0
41
1
10
-1.84353399204588
20
1.53043779083347
30
0
41
1
10
-1.81907192909574
20
1.7435914590406
30
0
41
1
10
-1.76383853333439
20
2.16627904107367
30
0
41
1
10
-1.7330653294344
20
2.37581216989977
30
0
41
1
10
-1.69999999999999
20
2.58377729734613
30
0
0
SPLINE
5
13F
100
AcDbEntity
8
1
62
256
6
ByLayer
370
18
48
1
60
0
100
AcDbSpline
70
4
71
3
72
21
73
17
40
0
40
0
40
0
40
0
40
0.0619470339094902
40
0.12412741661788
40
0.186307799326269
40
0.248488182034659
40
0.372848947451438
40
0.497209712868217
40
0.559390095576606
40
0.621570478284996
40
0.745931243701775
40
0.808111626410165
40
0.870292009118554
40
0.932472391826944
40
0.994652774535333
40
1
40
1
40
1
40
1
41
1
10
-1.69999999999999
20
14.0158119280726
30
0
41
1
10
-1.69999999999999
20
14.0272339859861
30
0
41
1
10
-1.69999999999999
20
14.0038349658218
30
0
41
1
10
-1.69999999999999
20
13.8477064954836
30
0
41
1
10
-1.69999999999999
20
13.5829958824317
30
0
41
1
10
-1.69999999999999
20
13.0984073948343
30
0
41
1
10
-1.69999999999999
20
12.2637792369573
30
0
41
1
10
-1.69999999999999
20
11.158026865053
30
0
41
1
10
-1.69999999999999
20
10.1227279817209
30
0
41
1
10
-1.69999999999999
20
8.9899537434076
30
0
41
1
10
-1.69999999999999
20
7.71376573381551
30
0
41
1
10
-1.69999999999999
20
6.29922693017525
30
0
41
1
10
-1.69999999999999
20
5.16941104441418
30
0
41
1
10
-1.69999999999999
20
3.97134104745157
30
0
41
1
10
-1.69999999999999
20
3.09163174208075
30
0
41
1
10
-1.69999999999999
20
2.62111254506641
30
0
41
1
10
-1.69999999999999
20
2.58377729734613
30
0
0
SPLINE
5
140
100
AcDbEntity
8
1
62
256
6
ByLayer
370
18
48
1
60
0
100
AcDbSpline
70
4
71
3
72
39
73
35
40
0
40
0
40
0
40
0
40
0.0277680114381075
40
0.0555463621738433
40
0.0833247129095791
40
0.111103063645315
40
0.166659765116787
40
0.222216466588258
40
0.249994817323994
40
0.27777316805973
40
0.333329869531202
40
0.361108220266938
40
0.388886571002673
40
0.416664921738409
40
0.444443272474145
40
0.472221623209881
40
0.486110798577749
40
0.499999973945617
40
0.513889149313485
40
0.527778324681352
40
0.555556675417088
40
0.583335026152824
40
0.61111337688856
40
0.638891727624296
40
0.666670078360032
40
0.722226779831503
40
0.750005130567239
40
0.777783481302975
40
0.833340182774447
40
0.888896884245918
40
0.916675234981654
40
0.94445358571739
40
0.972231936453126
40
1
40
1
40
1
40
1
41
1
10
-22.5
20
13.4936008037936
30
0
41
1
10
-22.5
20
13.5046599454888
30
0
41
1
10
-22.5
20
13.48219729045
30
0
41
1
10
-22.5
20
13.3308795934982
30
0
41
1
10
-22.5
20
13.0738789920944
30
0
41
1
10
-22.5
20
12.6015916721314
30
0
41
1
10
-22.5
20
11.7892769425394
30
0
41
1
10
-22.5
20
10.7121918739409
30
0
41
1
10
-22.5
20
9.70096045673193
30
0
41
1
10
-22.5
20
8.5951948167403
30
0
41
1
10
-22.5
20
7.35789505897995
30
0
41
1
10
-22.5
20
5.98264719956148
30
0
41
1
10
-22.5
20
4.89022238185544
30
0
41
1
10
-22.5
20
3.73751305004353
30
0
41
1
10
-22.5
20
2.52988134516508
30
0
41
1
10
-22.5
20
1.48826022368627
30
0
41
1
10
-22.5
20
0.637225639727404
30
0
41
1
10
-22.5
20
-1.01300202E-07
30
0
41
1
10
-22.5
20
-0.63722566300541
30
0
41
1
10
-22.5
20
-1.48826017841199
30
0
41
1
10
-22.5
20
-2.52988151772914
30
0
41
1
10
-22.5
20
-3.73751327283387
30
0
41
1
10
-22.5
20
-4.89022224945154
30
0
41
1
10
-22.5
20
-5.98264738368823
30
0
41
1
10
-22.5
20
-7.35789518762175
30
0
41
1
10
-22.5
20
-8.59519482612015
30
0
41
1
10
-22.5
20
-9.70096055319001
30
0
41
1
10
-22.5
20
-10.7121915826386
30
0
41
1
10
-22.5
20
-11.7892772585257
30
0
41
1
10
-22.5
20
-12.6015910628856
30
0
41
1
10
-22.5
20
-13.0738790940806
30
0
41
1
10
-22.5
20
-13.3308793310681
30
0
41
1
10
-22.5
20
-13.4821969001654
30
0
41
1
10
-22.5
20
-13.5046599490262
30
0
41
1
10
-22.5
20
-13.4936006585394
30
0
0
SPLINE
5
141
100
AcDbEntity
8
1
62
256
6
ByLayer
370
18
48
1
60
0
100
AcDbSpline
70
4
71
3
72
38
73
34
40
0
40
0
40
0
40
0
40
0.0156249999999996
40
0.0156249999999996
40
0.0312499999999992
40
0.0312499999999992
40
0.0468749999999988
40
0.0468749999999988
40
0.0624999999999983
40
0.0624999999999983
40
0.078124999999998
40
0.078124999999998
40
0.0937499999999976
40
0.0937499999999976
40
0.124999999999999
40
0.124999999999999
40
0.156249999999999
40
0.156249999999999
40
0.1875
40
0.1875
40
0.25
40
0.25
40
0.312499999999999
40
0.312499999999999
40
0.374999999999998
40
0.374999999999998
40
0.499999999999998
40
0.499999999999998
40
0.624999999999998
40
0.624999999999998
40
0.749999999999998
40
0.749999999999998
40
1
40
1
40
1
40
1
41
1
10
-0.394913799807426
20
5.0011605625827
30
0
41
1
10
-0.391748910596078
20
4.99861131394746
30
0
41
1
10
-0.388451589186332
20
4.99624657017242
30
0
41
1
10
-0.381503554974358
20
4.99201030025074
30
0
41
1
10
-0.377826935749425
20
4.99013013351933
30
0
41
1
10
-0.37019986687929
20
4.9871503845547
30
0
41
1
10
-0.3662371079634
20
4.9860363417142
30
0
41
1
10
-0.357908257096028
20
4.98482371680851
30
0
41
1
10
-0.353680105344097
20
4.98475614855749
30
0
41
1
10
-0.34521522964755
20
4.98581465317102
30
0
41
1
10
-0.340970311890743
20
4.98696063906132
30
0
41
1
10
-0.332955447380499
20
4.99024185405489
30
0
41
1
10
-0.329074985885256
20
4.99241446107197
30
0
41
1
10
-0.318315705389409
20
4.99984728402768
30
0
41
1
10
-0.312085221061153
20
5.00607580183632
30
0
41
1
10
-0.301009391388107
20
5.0195415451586
30
0
41
1
10
-0.296146757253467
20
5.02681840776788
30
0
41
1
10
-0.287438460226014
20
5.04163217306021
30
0
41
1
10
-0.283588617018012
20
5.04917503165311
30
0
41
1
10
-0.272989810767712
20
5.0720552884666
30
0
41
1
10
-0.267174521639589
20
5.08763962812168
30
0
41
1
10
-0.256872941279795
20
5.11914471875505
30
0
41
1
10
-0.252415474864932
20
5.13507348952746
30
0
41
1
10
-0.244408671816387
20
5.1671511226622
30
0
41
1
10
-0.240869472301739
20
5.1832943458636
30
0
41
1
10
-0.231309806286362
20
5.2316498923106
30
0
41
1
10
-0.226295439932073
20
5.26391096451732
30
0
41
1
10
-0.217912063161606
20
5.32841102024764
30
0
41
1
10
-0.214571990692121
20
5.3605854115099
30
0
41
1
10
-0.209086134714454
20
5.42467998239266
30
0
41
1
10
-0.206944102194683
20
5.45662122321775
30
0
41
1
10
-0.201889292857544
20
5.55215860517754
30
0
41
1
10
-0.200325582586345
20
5.61546983787082
30
0
41
1
10
-0.199999999999363
20
5.67845150386444
30
0
0
SPLINE
5
142
100
AcDbEntity
8
1
62
256
6
ByLayer
370
18
48
1
60
0
100
AcDbSpline
70
4
71
3
72
51
73
47
40
0
40
0
40
0
40
0
40
0.125
40
0.125
40
0.250000000000001
40
0.250000000000001
40
0.375000000000001
40
0.375000000000001
40
0.500000000000001
40
0.500000000000001
40
0.562500000000002
40
0.562500000000002
40
0.625000000000003
40
0.625000000000003
40
0.656250000000003
40
0.656250000000003
40
0.687500000000004
40
0.687500000000004
40
0.750000000000003
40
0.750000000000003
40
0.781250000000003
40
0.781250000000003
40
0.796875000000003
40
0.796875000000003
40
0.812500000000003
40
0.812500000000003
40
0.843750000000002
40
0.843750000000002
40
0.859375000000002
40
0.859375000000002
40
0.875000000000001
40
0.882812500000001
40
0.882812500000001
40
0.890625000000001
40
0.890625000000001
40
0.906250000000001
40
0.914062500000001
40
0.914062500000001
40
0.921875000000001
40
0.921875000000001
40
0.9375
40
0.953125
40
0.953125
40
0.96875
40
0.96875
40
1
40
1
40
1
40
1
41
1
10
-1.30710678118751
20
3.62853202212813
30
0
41
1
10
-1.29190613640859
20
3.70556358522939
30
0
41
1
10
-1.27564950878531
20
3.7820205106818
30
0
41
1
10
-1.24060841320622
20
3.93375870314148
30
0
41
1
10
-1.22181063294732
20
4.00910669461106
30
0
41
1
10
-1.18115763731655
20
4.15813319978361
30
0
41
1
10
-1.15931218721892
20
4.23182333008765
30
0
41
1
10
-1.11159177403968
20
4.37733091027962
30
0
41
1
10
-1.08574263925135
20
4.44915525032008
30
0
41
1
10
-1.04258655138119
20
4.55515277213792
30
0
41
1
10
-1.02746285247525
20
4.59019333091888
30
0
41
1
10
-0.995317234370305
20
4.65958274004282
30
0
41
1
10
-0.978301889811434
20
4.69393335632202
30
0
41
1
10
-0.950840081220861
20
4.74480636515824
30
0
41
1
10
-0.941360422010973
20
4.76165452150423
30
0
41
1
10
-0.921612206817855
20
4.79509560720325
30
0
41
1
10
-0.911330345780556
20
4.81170689277053
30
0
41
1
10
-0.879296662789443
20
4.86066233047501
30
0
41
1
10
-0.856343638951387
20
4.89227865327604
30
0
41
1
10
-0.818026122235779
20
4.93731968624948
30
0
41
1
10
-0.804596803075015
20
4.95193103239396
30
0
41
1
10
-0.783093038222916
20
4.97302905184745
30
0
41
1
10
-0.775696659387535
20
4.9799241664696
30
0
41
1
10
-0.760349771776134
20
4.99338317091983
30
0
41
1
10
-0.752392350049945
20
4.999948849948
30
0
41
1
10
-0.727880800919934
20
5.01875181169186
30
0
41
1
10
-0.710603681718226
20
5.03020967742904
30
0
41
1
10
-0.68262925493238
20
5.04504465543113
30
0
41
1
10
-0.672891603682132
20
5.04961808259611
30
0
41
1
10
-0.652894042393314
20
5.05762851177528
30
0
41
1
10
-0.63755105348244
20
5.06277719842694
30
0
41
1
10
-0.621612371118459
20
5.06644388397413
30
0
41
1
10
-0.610843200204982
20
5.06853179751513
30
0
41
1
10
-0.605373228252517
20
5.06939770112723
30
0
41
1
10
-0.589024240534229
20
5.07139043996949
30
0
41
1
10
-0.572669010460402
20
5.07220433725334
30
0
41
1
10
-0.556304392511265
20
5.07124292633216
30
0
41
1
10
-0.545392549087381
20
5.07020599311227
30
0
41
1
10
-0.539919309159188
20
5.06948506381411
30
0
41
1
10
-0.523814898152125
20
5.06678978581303
30
0
41
1
10
-0.50297983481218
20
5.06177117057427
30
0
41
1
10
-0.483228911030722
20
5.05432574420999
30
0
41
1
10
-0.463947967840653
20
5.04582591451216
30
0
41
1
10
-0.45453441672953
20
5.04103707702356
30
0
41
1
10
-0.427464692677432
20
5.02563245237855
30
0
41
1
10
-0.410735023483483
20
5.01390421017646
30
0
41
1
10
-0.394913799810496
20
5.00116056255814
30
0
0
SPLINE
5
143
100
AcDbEntity
8
1
62
256
6
ByLayer
370
18
48
1
60
0
100
AcDbSpline
70
4
71
3
72
51
73
47
40
0
40
0
40
0
40
0
40
0.0312499999999998
40
0.0312499999999998
40
0.0468749999999998
40
0.0468749999999998
40
0.0624999999999999
40
0.0624999999999999
40
0.0781250000000002
40
0.0859375000000003
40
0.0859375000000003
40
0.0937500000000004
40
0.0937500000000004
40
0.125000000000001
40
0.125000000000001
40
0.132812500000001
40
0.132812500000001
40
0.140625000000001
40
0.140625000000001
40
0.156250000000001
40
0.156250000000001
40
0.171875000000001
40
0.171875000000001
40
0.1875
40
0.1875
40
0.21875
40
0.21875
40
0.250000000000001
40
0.250000000000001
40
0.312500000000001
40
0.312500000000001
40
0.375000000000001
40
0.375000000000001
40
0.437500000000001
40
0.437500000000001
40
0.500000000000001
40
0.500000000000001
40
0.562500000000002
40
0.562500000000002
40
0.625000000000002
40
0.625000000000002
40
0.750000000000001
40
0.750000000000001
40
0.875
40
0.875
40
1
40
1
40
1
40
1
41
1
10
-0.394913799811292
20
-5.00116108217659
30
0
41
1
10
-0.410665386495026
20
-5.01384862569722
30
0
41
1
10
-0.427444682539459
20
-5.02560401094567
30
0
41
1
10
-0.45422581270239
20
-5.04087055985525
30
0
41
1
10
-0.463438908679222
20
-5.04557564745028
30
0
41
1
10
-0.482560235211111
20
-5.05405619211425
30
0
41
1
10
-0.492542658095488
20
-5.05785401853598
30
0
41
1
10
-0.512988129699522
20
-5.06417699720825
30
0
41
1
10
-0.528606239136934
20
-5.06795442924033
30
0
41
1
10
-0.544698986354916
20
-5.07012184570777
30
0
41
1
10
-0.555539481232216
20
-5.07118703454174
30
0
41
1
10
-0.561044214178423
20
-5.0715296778481
30
0
41
1
10
-0.588380278389167
20
-5.07223202598755
30
0
41
1
10
-0.609788395540534
20
-5.06961980113229
30
0
41
1
10
-0.636038898961743
20
-5.06284104440826
30
0
41
1
10
-0.641273399804732
20
-5.06130432437081
30
0
41
1
10
-0.651523728611267
20
-5.05794894419779
30
0
41
1
10
-0.656561241457752
20
-5.05612553121156
30
0
41
1
10
-0.671435209911522
20
-5.05025831011366
30
0
41
1
10
-0.681034016074335
20
-5.04581904881579
30
0
41
1
10
-0.699699693093578
20
-5.0360533513589
30
0
41
1
10
-0.708803295444653
20
-5.03069978836885
30
0
41
1
10
-0.726275289417998
20
-5.01942067172476
30
0
41
1
10
-0.734670547069527
20
-5.01348585979886
30
0
41
1
10
-0.759028353676314
20
-4.99496074537163
30
0
41
1
10
-0.774172797668427
20
-4.98165817730296
30
0
41
1
10
-0.802914827069742
20
-4.95369126459417
30
0
41
1
10
-0.81654709362823
20
-4.93896729549496
30
0
41
1
10
-0.855145617589443
20
-4.89385654551648
30
0
41
1
10
-0.878053724810229
20
-4.86240606869328
30
0
41
1
10
-0.920529370906081
20
-4.79779601403041
30
0
41
1
10
-0.940052913520788
20
-4.76461628090829
30
0
41
1
10
-0.976740804435963
20
-4.69698582221125
30
0
41
1
10
-0.993913112071084
20
-4.66248133856587
30
0
41
1
10
-1.02632348400363
20
-4.59277716864142
30
0
41
1
10
-1.04157111619293
20
-4.55755616008759
30
0
41
1
10
-1.07057669597754
20
-4.48649265752218
30
0
41
1
10
-1.08433177378575
20
-4.4506493409462
30
0
41
1
10
-1.11062583028021
20
-4.37841416747673
30
0
41
1
10
-1.12316712175576
20
-4.34200882575533
30
0
41
1
10
-1.15918165202706
20
-4.23227919141885
30
0
41
1
10
-1.18109081197508
20
-4.1583703791232
30
0
41
1
10
-1.22178607754876
20
-4.0092085502001
30
0
41
1
10
-1.24056171778477
20
-3.9339536596444
30
0
41
1
10
-1.27561460874023
20
-3.78218340304136
30
0
41
1
10
-1.29188624779786
20
-3.70566670397201
30
0
41
1
10
-1.30710678118655
20
-3.62853433720645
30
0
0
SPLINE
5
144
100
AcDbEntity
8
1
62
256
6
ByLayer
370
18
48
1
60
0
100
AcDbSpline
70
4
71
3
72
40
73
36
40
0
40
0
40
0
40
0
40
0.249999999999998
40
0.249999999999998
40
0.374999999999997
40
0.374999999999997
40
0.499999999999996
40
0.499999999999996
40
0.624999999999995
40
0.624999999999995
40
0.687499999999996
40
0.687499999999996
40
0.749999999999997
40
0.749999999999997
40
0.812499999999998
40
0.812499999999998
40
0.843749999999998
40
0.843749999999998
40
0.874999999999999
40
0.874999999999999
40
0.890624999999999
40
0.890624999999999
40
0.906249999999999
40
0.906249999999999
40
0.921874999999999
40
0.921874999999999
40
0.937499999999999
40
0.937499999999999
40
0.953125
40
0.953125
40
0.96875
40
0.96875
40
0.984375
40
0.984375
40
1
40
1
40
1
40
1
41
1
10
-0.199999999999989
20
-5.67845201642962
30
0
41
1
10
-0.200325540023954
20
-5.61547854140437
30
0
41
1
10
-0.201889470916569
20
-5.5522215486582
30
0
41
1
10
-0.206929588208141
20
-5.45686315009974
30
0
41
1
10
-0.209064130076882
20
-5.42499801712538
30
0
41
1
10
-0.214523044028141
20
-5.36109790788328
30
0
41
1
10
-0.217841153282251
20
-5.32906305985333
30
0
41
1
10
-0.226165642229006
20
-5.26480643303958
30
0
41
1
10
-0.231149880121421
20
-5.23258507573854
30
0
41
1
10
-0.240700146478559
20
-5.18409077433588
30
0
41
1
10
-0.244243877237125
20
-5.16786639775964
30
0
41
1
10
-0.252257427302879
20
-5.13565463294324
30
0
41
1
10
-0.25672321424554
20
-5.1196426801294
30
0
41
1
10
-0.267068575155207
20
-5.0879254663663
30
0
41
1
10
-0.272916655032191
20
-5.07221259840796
30
0
41
1
10
-0.2836305969536
20
-5.04908544639636
30
0
41
1
10
-0.287559273211855
20
-5.04140704567578
30
0
41
1
10
-0.296286725692681
20
-5.02660153595323
30
0
41
1
10
-0.301074093098094
20
-5.01945615581229
30
0
41
1
10
-0.30934926961055
20
-5.00940629678661
30
0
41
1
10
-0.312316306979511
20
-5.00615011165598
30
0
41
1
10
-0.318616604997231
20
-5.00011766639525
30
0
41
1
10
-0.321954234540101
20
-4.99732874567789
30
0
41
1
10
-0.329143040072353
20
-4.99237354459822
30
0
41
1
10
-0.333015725026712
20
-4.99021187411824
30
0
41
1
10
-0.341034463404839
20
-4.9869408469134
30
0
41
1
10
-0.345285948994132
20
-4.98580083402234
30
0
41
1
10
-0.353728848469103
20
-4.98475618750666
30
0
41
1
10
-0.358001975899754
20
-4.98483227377295
30
0
41
1
10
-0.366274570071312
20
-4.98604804966439
30
0
41
1
10
-0.370231991198068
20
-4.98716039898099
30
0
41
1
10
-0.377874829705576
20
-4.99015247985739
30
0
41
1
10
-0.381540018186683
20
-4.99203141004628
30
0
41
1
10
-0.388463488029402
20
-4.99625601274579
30
0
41
1
10
-0.391753438827749
20
-4.99861548354417
30
0
41
1
10
-0.394913799811292
20
-5.00116108217654
30
0
0
SPLINE
5
145
100
AcDbEntity
8
1
62
256
6
ByLayer
370
18
48
1
60
0
100
AcDbSpline
70
4
71
3
72
38
73
34
40
0
40
0
40
0
40
0
40
0.0156249999999999
40
0.0156249999999999
40
0.0312499999999999
40
0.0312499999999999
40
0.046875
40
0.046875
40
0.0625
40
0.0625
40
0.078125
40
0.078125
40
0.09375
40
0.09375
40
0.125
40
0.125
40
0.15625
40
0.15625
40
0.187500000000001
40
0.187500000000001
40
0.250000000000001
40
0.250000000000001
40
0.312500000000001
40
0.312500000000001
40
0.375000000000001
40
0.375000000000001
40
0.5
40
0.5
40
0.625
40
0.625
40
0.75
40
0.75
40
1
40
1
40
1
40
1
41
1
10
-0.394913799814617
20
-13.8446595289409
30
0
41
1
10
-0.391749296202079
20
-13.844842490927
30
0
41
1
10
-0.388452375608779
20
-13.8450961903932
30
0
41
1
10
-0.381505168769735
20
-13.8457938151623
30
0
41
1
10
-0.377829013893773
20
-13.846241915681
30
0
41
1
10
-0.37020286020072
20
-13.8473733313911
30
0
41
1
10
-0.366240526544658
20
-13.8480563938372
30
0
41
1
10
-0.357912392007819
20
-13.849739303977
30
0
41
1
10
-0.35368463570066
20
-13.8507136617023
30
0
41
1
10
-0.345220189226779
20
-13.8529238754024
30
0
41
1
10
-0.34097552899587
20
-13.854165851519
30
0
41
1
10
-0.332960961810869
20
-13.8567502285021
30
0
41
1
10
-0.32908060069505
20
-13.8581264595614
30
0
41
1
10
-0.318321797663032
20
-13.8622381003803
30
0
41
1
10
-0.312091372528215
20
-13.865022403485
30
0
41
1
10
-0.301015966388746
20
-13.8704509077418
30
0
41
1
10
-0.296153419957164
20
-13.8731079755536
30
0
41
1
10
-0.287445517218686
20
-13.8782073044309
30
0
41
1
10
-0.283595780474968
20
-13.8806523483052
30
0
41
1
10
-0.272997114041203
20
-13.887771829979
30
0
41
1
10
-0.267181679795726
20
-13.8922335922221
30
0
41
1
10
-0.256879537942353
20
-13.9007947938235
30
0
41
1
10
-0.252421658911771
20
-13.9048892296203
30
0
41
1
10
-0.244413939321589
20
-13.9127918287046
30
0
41
1
10
-0.240874255815299
20
-13.9165963734792
30
0
41
1
10
-0.231313142997891
20
-13.9275805879124
30
0
41
1
10
-0.226297832831563
20
-13.9343664914099
30
0
41
1
10
-0.217912944663453
20
-13.947127348993
30
0
41
1
10
-0.214572317075465
20
-13.9530845047233
30
0
41
1
10
-0.209085750971354
20
-13.964280444998
30
0
41
1
10
-0.2069435651986
20
-13.9695217949656
30
0
41
1
10
-0.201888714477093
20
-13.9843134154886
30
0
41
1
10
-0.200325526921631
20
-13.992937784021
30
0
41
1
10
-0.199999999999989
20
-14.0005306290776
30
0
0
SPLINE
5
146
100
AcDbEntity
8
1
62
256
6
ByLayer
370
18
48
1
60
0
100
AcDbSpline
70
4
71
3
72
40
73
36
40
0
40
0
40
0
40
0
40
0.249999999999996
40
0.249999999999996
40
0.374999999999994
40
0.374999999999994
40
0.499999999999993
40
0.499999999999993
40
0.62499999999999
40
0.62499999999999
40
0.68749999999999
40
0.68749999999999
40
0.74999999999999
40
0.74999999999999
40
0.812499999999991
40
0.812499999999991
40
0.843749999999991
40
0.843749999999991
40
0.874999999999992
40
0.874999999999992
40
0.890624999999993
40
0.890624999999993
40
0.906249999999994
40
0.906249999999994
40
0.921874999999995
40
0.921874999999995
40
0.937499999999996
40
0.937499999999996
40
0.953124999999997
40
0.953124999999997
40
0.968749999999998
40
0.968749999999998
40
0.984374999999999
40
0.984374999999999
40
1
40
1
40
1
40
1
41
1
10
-0.199999999999989
20
14.0005308360297
30
0
41
1
10
-0.200325484931824
20
13.9929389755075
30
0
41
1
10
-0.20188889975347
20
13.984321015747
30
0
41
1
10
-0.20692906436895
20
13.9695604951636
30
0
41
1
10
-0.209063760504819
20
13.9643331642488
30
0
41
1
10
-0.214523379010927
20
13.9531770452386
30
0
41
1
10
-0.217842040597958
20
13.9472498215878
30
0
41
1
10
-0.226167999261975
20
13.9345502713768
30
0
41
1
10
-0.231153161037895
20
13.9277833881154
30
0
41
1
10
-0.240704867227095
20
13.9167821274841
30
0
41
1
10
-0.24424909757019
20
13.9129633802222
30
0
41
1
10
-0.252263586587105
20
13.9050370743236
30
0
41
1
10
-0.256729802109732
20
13.9009261566768
30
0
41
1
10
-0.26707577372062
20
13.8923152006563
30
0
41
1
10
-0.272924030069333
20
13.8878208927885
30
0
41
1
10
-0.2836379135897
20
13.8806243248759
30
0
41
1
10
-0.287566520738551
20
13.8781327420571
30
0
41
1
10
-0.296293809253314
20
13.8730299294695
30
0
41
1
10
-0.301081039190592
20
13.8704177140821
30
0
41
1
10
-0.309355911672156
20
13.866364075454
30
0
41
1
10
-0.312322841306013
20
13.8649804039333
30
0
41
1
10
-0.318622944145005
20
13.8622234641578
30
0
41
1
10
-0.321960461861948
20
13.8608465411072
30
0
41
1
10
-0.329149016141258
20
13.858101654615
30
0
41
1
10
-0.333021571763879
20
13.8567295936368
30
0
41
1
10
-0.341039973310558
20
13.8541465128493
30
0
41
1
10
-0.345291253771677
20
13.8529042812469
30
0
41
1
10
-0.353733594241362
20
13.8507022641717
30
0
41
1
10
-0.358006392495952
20
13.8497192387353
30
0
41
1
10
-0.366278137943908
20
13.8480502152413
30
0
41
1
10
-0.370235109341735
20
13.8473680380174
30
0
41
1
10
-0.377877027729255
20
13.846235641883
30
0
41
1
10
-0.381541736392848
20
13.8457899488977
30
0
41
1
10
-0.388464315595599
20
13.845095524037
30
0
41
1
10
-0.391753842527152
20
13.8448423969163
30
0
41
1
10
-0.394913799811292
20
13.8446596982822
30
0
0
SPLINE
5
147
100
AcDbEntity
8
1
62
256
6
ByLayer
370
18
48
1
60
0
100
AcDbSpline
70
4
71
3
72
12
73
8
40
0
40
0
40
0
40
0
40
0.5
40
0.5
40
0.75
40
0.75
40
1
40
1
40
1
40
1
41
1
10
20.0491750809145
20
-13.9156055725456
30
0
41
1
10
20.0510178103657
20
-14.1335820037072
30
0
41
1
10
20.0695062886525
20
-14.3449925935648
30
0
41
1
10
20.1255267231704
20
-14.6523197138197
30
0
41
1
10
20.148933629704
20
-14.753128898599
30
0
41
1
10
20.2060594507484
20
-14.9514672538127
30
0
41
1
10
20.2397752830648
20
-15.0489965873567
30
0
41
1
10
20.2792076144253
20
-15.1448692328525
30
0
0
SPLINE
5
148
100
AcDbEntity
8
1
62
256
6
ByLayer
370
18
48
1
60
0
100
AcDbSpline
70
4
71
3
72
12
73
8
40
0
40
0
40
0
40
0
40
0.250000000000001
40
0.250000000000001
40
0.500000000000001
40
0.500000000000001
40
1
40
1
40
1
40
1
41
1
10
20.2792076144253
20
15.1448692328525
30
0
41
1
10
20.2397752830648
20
15.0489965873567
30
0
41
1
10
20.2060594507484
20
14.9514672538127
30
0
41
1
10
20.148933629704
20
14.753128898599
30
0
41
1
10
20.1255267231704
20
14.6523197138197
30
0
41
1
10
20.0695062886525
20
14.3449925935648
30
0
41
1
10
20.0510178103657
20
14.1335820037072
30
0
41
1
10
20.0491750809145
20
13.9156055725456
30
0
0
SPLINE
5
149
100
AcDbEntity
8
1
62
256
6
ByLayer
370
18
48
1
60
0
100
AcDbSpline
70
4
71
3
72
14
73
10
40
0
40
0
40
0
40
0
40
0.25
40
0.25
40
0.500000000000001
40
0.500000000000001
40
0.75
40
0.75
40
1
40
1
40
1
40
1
41
1
10
20.009031489077
20
18.9650938580065
30
0
41
1
10
20.0098538092763
20
18.8708652963928
30
0
41
1
10
20.0140412700175
20
18.7706425008102
30
0
41
1
10
20.0318979812089
20
18.558462533891
30
0
41
1
10
20.0455598863306
20
18.4465047827357
30
0
41
1
10
20.0856313692891
20
18.2110872069956
30
0
41
1
10
20.1120276170517
20
18.0876264793781
30
0
41
1
10
20.1816534449692
20
17.8294357266309
30
0
41
1
10
20.224857325194
20
17.6947040704241
30
0
41
1
10
20.2792076144253
20
17.5544724136169
30
0
0
SPLINE
5
14A
100
AcDbEntity
8
1
62
256
6
ByLayer
370
18
48
1
60
0
100
AcDbSpline
70
4
71
3
72
25
73
21
40
0
40
0
40
0
40
0
40
0.249999999999986
40
0.249999999999986
40
0.374999999999983
40
0.374999999999983
40
0.499999999999979
40
0.499999999999979
40
0.562499999999983
40
0.562499999999983
40
0.624999999999986
40
0.68749999999999
40
0.68749999999999
40
0.749999999999993
40
0.749999999999993
40
0.874999999999991
40
0.874999999999991
40
0.937499999999996
40
0.937499999999996
40
1
40
1
40
1
40
1
41
1
10
9.33660254037861
20
-19.0245744101322
30
0
41
1
10
9.32720842156829
20
-19.0356185274184
30
0
41
1
10
9.31588453947575
20
-19.0464153092313
30
0
41
1
10
9.29525647265243
20
-19.0619278372253
30
0
41
1
10
9.28776218432895
20
-19.0669920754349
30
0
41
1
10
9.27124506170023
20
-19.0768715139989
30
0
41
1
10
9.26222766550282
20
-19.0816874304591
30
0
41
1
10
9.24718147390908
20
-19.0886774015103
30
0
41
1
10
9.24190585527097
20
-19.0909686533589
30
0
41
1
10
9.23090181997068
20
-19.095399659777
30
0
41
1
10
9.21941536169066
20
-19.0996940974827
30
0
41
1
10
9.20680755935996
20
-19.1036766400565
30
0
41
1
10
9.19352784170755
20
-19.1074753109817
30
0
41
1
10
9.1865295196101
20
-19.109288210346
30
0
41
1
10
9.16442417341895
20
-19.1143521510704
30
0
41
1
10
9.14859952398743
20
-19.1171586755843
30
0
41
1
10
9.12253667740623
20
-19.1201714845572
30
0
41
1
10
9.11355518087368
20
-19.1209563802606
30
0
41
1
10
9.09541273714802
20
-19.1220079254874
30
0
41
1
10
9.08618793610023
20
-19.1222825906925
30
0
41
1
10
9.07679491924327
20
-19.1222825906925
30
0
0
SPLINE
5
14B
100
AcDbEntity
8
1
62
256
6
ByLayer
370
18
48
1
60
0
100
AcDbSpline
70
4
71
3
72
26
73
22
40
0
40
0
40
0
40
0
40
0.0624999999999999
40
0.0624999999999999
40
0.125
40
0.125
40
0.1875
40
0.1875
40
0.25
40
0.25
40
0.3125
40
0.3125
40
0.375
40
0.375
40
0.500000000000001
40
0.500000000000001
40
0.625000000000002
40
0.625000000000002
40
0.750000000000004
40
0.750000000000004
40
1
40
1
40
1
40
1
41
1
10
6.92320508075687
20
-19.1222825906926
30
0
41
1
10
6.91382447246664
20
-19.1222825906926
30
0
41
1
10
6.90445612562743
20
-19.1220042459418
30
0
41
1
10
6.88616578647202
20
-19.1209361972228
30
0
41
1
10
6.877306029935
20
-19.1201548450203
30
0
41
1
10
6.86008230329932
20
-19.1181607182976
30
0
41
1
10
6.85165205969534
20
-19.1169347436763
30
0
41
1
10
6.83564492760419
20
-19.1141675067423
30
0
41
1
10
6.82805305136273
20
-19.1126296584783
30
0
41
1
10
6.81353466302775
20
-19.1093020671091
30
0
41
1
10
6.80660916084835
20
-19.1075119510364
30
0
41
1
10
6.79332109685251
20
-19.1037159413756
30
0
41
1
10
6.78693692536262
20
-19.1017017213015
30
0
41
1
10
6.76873667859329
20
-19.0954500347066
30
0
41
1
10
6.75782269201741
20
-19.0910025433169
30
0
41
1
10
6.73776606630176
20
-19.0816841489935
30
0
41
1
10
6.72865815863287
20
-19.07681905156
30
0
41
1
10
6.712104492701
20
-19.0669068299453
30
0
41
1
10
6.70461359775268
20
-19.061836585657
30
0
41
1
10
6.68402554771032
20
-19.0463346141653
30
0
41
1
10
6.67278813956517
20
-19.0356144845435
30
0
41
1
10
6.66339745962154
20
-19.0245744101322
30
0
0
SPLINE
5
14C
100
AcDbEntity
8
1
62
256
6
ByLayer
370
18
48
1
60
0
100
AcDbSpline
70
4
71
3
72
25
73
21
40
0
40
0
40
0
40
0
40
0.249999999999997
40
0.249999999999997
40
0.374999999999989
40
0.374999999999989
40
0.499999999999981
40
0.499999999999981
40
0.562499999999982
40
0.562499999999982
40
0.624999999999983
40
0.687499999999984
40
0.687499999999984
40
0.749999999999985
40
0.749999999999985
40
0.874999999999995
40
0.874999999999995
40
0.937499999999998
40
0.937499999999998
40
1
40
1
40
1
40
1
41
1
10
6.66339745962154
20
-6.16973001948571
30
0
41
1
10
6.67279157843183
20
-6.13567510453117
30
0
41
1
10
6.68411546052437
20
-6.10206728171741
30
0
41
1
10
6.70474352734769
20
-6.05336249030208
30
0
41
1
10
6.71223781567116
20
-6.03739036016586
30
0
41
1
10
6.72875493829989
20
-6.00610043240181
30
0
41
1
10
6.73777233449729
20
-5.99078025293949
30
0
41
1
10
6.75281852609103
20
-5.96845506553063
30
0
41
1
10
6.75809414472914
20
-5.96112164449841
30
0
41
1
10
6.76909818002943
20
-5.9469124104387
30
0
41
1
10
6.78058463830945
20
-5.93311315635253
30
0
41
1
10
6.79319244064015
20
-5.9202685823868
30
0
41
1
10
6.80647215829256
20
-5.90799699523123
30
0
41
1
10
6.81347048039001
20
-5.90212985895329
30
0
41
1
10
6.83557582658116
20
-5.88571770958595
30
0
41
1
10
6.85140047601269
20
-5.87658838136372
30
0
41
1
10
6.87746332259391
20
-5.86677544388641
30
0
41
1
10
6.88644481912644
20
-5.8642160875483
30
0
41
1
10
6.90458726285212
20
-5.8607863051715
30
0
41
1
10
6.91381206389988
20
-5.85988980456938
30
0
41
1
10
6.92320508075687
20
-5.85988980456938
30
0
0
SPLINE
5
14D
100
AcDbEntity
8
1
62
256
6
ByLayer
370
18
48
1
60
0
100
AcDbSpline
70
4
71
3
72
26
73
22
40
0
40
0
40
0
40
0
40
0.0624999999999997
40
0.0624999999999997
40
0.124999999999999
40
0.124999999999999
40
0.187499999999999
40
0.187499999999999
40
0.249999999999999
40
0.249999999999999
40
0.312499999999998
40
0.312499999999998
40
0.374999999999998
40
0.374999999999998
40
0.499999999999998
40
0.499999999999998
40
0.624999999999999
40
0.624999999999999
40
0.749999999999999
40
0.749999999999999
40
1
40
1
40
1
40
1
41
1
10
9.07679491924327
20
-5.85988980456941
30
0
41
1
10
9.0861755275335
20
-5.85988980456941
30
0
41
1
10
9.09554387437268
20
-5.86079831910379
30
0
41
1
10
9.11383421352809
20
-5.86428190495297
30
0
41
1
10
9.12269397006511
20
-5.86682965857773
30
0
41
1
10
9.13991769670079
20
-5.8733246368358
30
0
41
1
10
9.1483479403048
20
-5.87731470491121
30
0
41
1
10
9.16435507239592
20
-5.88630806692444
30
0
41
1
10
9.17194694863738
20
-5.89130031342685
30
0
41
1
10
9.18646533697236
20
-5.90208491578252
30
0
41
1
10
9.19339083915176
20
-5.90787848896434
30
0
41
1
10
9.2066789031476
20
-5.92014175764382
30
0
41
1
10
9.21306307463749
20
-5.92663822853584
30
0
41
1
10
9.23126332140683
20
-5.94676259304853
30
0
41
1
10
9.24217730798267
20
-5.96102885758611
30
0
41
1
10
9.26223393369835
20
-5.99079069805944
30
0
41
1
10
9.27134184136725
20
-6.00626721095978
30
0
41
1
10
9.28789550729911
20
-6.0376597182682
30
0
41
1
10
9.29538640224743
20
-6.05364979751815
30
0
41
1
10
9.31597445228977
20
-6.10231901184949
30
0
41
1
10
9.32721186043494
20
-6.13568757087467
30
0
41
1
10
9.33660254037858
20
-6.16973001948574
30
0
0
SPLINE
5
14E
100
AcDbEntity
8
1
62
256
6
ByLayer
370
18
48
1
60
0
100
AcDbSpline
70
4
71
3
72
25
73
21
40
0
40
0
40
0
40
0
40
0.250000000000006
40
0.250000000000006
40
0.375000000000002
40
0.375000000000002
40
0.499999999999997
40
0.499999999999997
40
0.562499999999998
40
0.562499999999998
40
0.624999999999999
40
0.6875
40
0.6875
40
0.750000000000001
40
0.750000000000001
40
0.874999999999999
40
0.874999999999999
40
0.9375
40
0.9375
40
1
40
1
40
1
40
1
41
1
10
6.66339745962154
20
19.0245744101322
30
0
41
1
10
6.67279157843183
20
19.0356185274184
30
0
41
1
10
6.68411546052437
20
19.0464153092313
30
0
41
1
10
6.70474352734769
20
19.0619278372253
30
0
41
1
10
6.71223781567116
20
19.0669920754349
30
0
41
1
10
6.72875493829989
20
19.0768715139989
30
0
41
1
10
6.73777233449729
20
19.0816874304591
30
0
41
1
10
6.75281852609103
20
19.0886774015103
30
0
41
1
10
6.75809414472914
20
19.0909686533589
30
0
41
1
10
6.76909818002946
20
19.095399659777
30
0
41
1
10
6.78058463830945
20
19.0996940974827
30
0
41
1
10
6.79319244064015
20
19.1036766400565
30
0
41
1
10
6.80647215829256
20
19.1074753109818
30
0
41
1
10
6.81347048039001
20
19.109288210346
30
0
41
1
10
6.83557582658119
20
19.1143521510704
30
0
41
1
10
6.85140047601269
20
19.1171586755844
30
0
41
1
10
6.87746332259388
20
19.1201714845572
30
0
41
1
10
6.88644481912644
20
19.1209563802606
30
0
41
1
10
6.90458726285212
20
19.1220079254874
30
0
41
1
10
6.91381206389988
20
19.1222825906925
30
0
41
1
10
6.92320508075687
20
19.1222825906925
30
0
0
SPLINE
5
14F
100
AcDbEntity
8
1
62
256
6
ByLayer
370
18
48
1
60
0
100
AcDbSpline
70
4
71
3
72
26
73
22
40
0
40
0
40
0
40
0
40
0.0624999999999977
40
0.0624999999999977
40
0.124999999999995
40
0.124999999999995
40
0.187499999999993
40
0.187499999999993
40
0.249999999999991
40
0.249999999999991
40
0.312499999999989
40
0.312499999999989
40
0.374999999999986
40
0.374999999999986
40
0.499999999999987
40
0.499999999999987
40
0.624999999999987
40
0.624999999999987
40
0.749999999999988
40
0.749999999999988
40
1
40
1
40
1
40
1
41
1
10
9.07679491924327
20
19.1222825906926
30
0
41
1
10
9.0861755275335
20
19.1222825906926
30
0
41
1
10
9.09554387437268
20
19.1220042459417
30
0
41
1
10
9.11383421352812
20
19.1209361972228
30
0
41
1
10
9.12269397006514
20
19.1201548450203
30
0
41
1
10
9.13991769670082
20
19.1181607182976
30
0
41
1
10
9.14834794030483
20
19.1169347436763
30
0
41
1
10
9.16435507239595
20
19.1141675067423
30
0
41
1
10
9.17194694863741
20
19.1126296584783
30
0
41
1
10
9.18646533697239
20
19.1093020671091
30
0
41
1
10
9.19339083915179
20
19.1075119510364
30
0
41
1
10
9.20667890314763
20
19.1037159413756
30
0
41
1
10
9.21306307463752
20
19.1017017213015
30
0
41
1
10
9.23126332140686
20
19.0954500347066
30
0
41
1
10
9.24217730798273
20
19.0910025433169
30
0
41
1
10
9.26223393369838
20
19.0816841489935
30
0
41
1
10
9.27134184136727
20
19.07681905156
30
0
41
1
10
9.28789550729917
20
19.0669068299453
30
0
41
1
10
9.29538640224746
20
19.061836585657
30
0
41
1
10
9.31597445228982
20
19.0463346141653
30
0
41
1
10
9.32721186043506
20
19.0356144845434
30
0
41
1
10
9.33660254037869
20
19.0245744101321
30
0
0
SPLINE
5
150
100
AcDbEntity
8
1
62
256
6
ByLayer
370
18
48
1
60
0
100
AcDbSpline
70
4
71
3
72
25
73
21
40
0
40
0
40
0
40
0
40
0.249999999999976
40
0.249999999999976
40
0.374999999999968
40
0.374999999999968
40
0.499999999999958
40
0.499999999999958
40
0.562499999999959
40
0.562499999999959
40
0.62499999999996
40
0.687499999999961
40
0.687499999999961
40
0.749999999999962
40
0.749999999999962
40
0.874999999999977
40
0.874999999999977
40
0.937499999999988
40
0.937499999999988
40
1
40
1
40
1
40
1
41
1
10
9.33660254037869
20
6.16973001948611
30
0
41
1
10
9.32720842156843
20
6.13567510453157
30
0
41
1
10
9.31588453947577
20
6.10206728171747
30
0
41
1
10
9.29525647265245
20
6.05336249030211
30
0
41
1
10
9.28776218432898
20
6.03739036016592
30
0
41
1
10
9.27124506170026
20
6.00610043240187
30
0
41
1
10
9.26222766550285
20
5.99078025293954
30
0
41
1
10
9.24718147390911
20
5.96845506553066
30
0
41
1
10
9.241905855271
20
5.96112164449843
30
0
41
1
10
9.23090181997071
20
5.94691241043876
30
0
41
1
10
9.2194147994463
20
5.93311363814723
30
0
41
1
10
9.20680755935999
20
5.92026858238683
30
0
41
1
10
9.19352784170758
20
5.90799699523126
30
0
41
1
10
9.1865295196101
20
5.90212985895334
30
0
41
1
10
9.16442417341895
20
5.88571770958598
30
0
41
1
10
9.14859952398746
20
5.87658838136372
30
0
41
1
10
9.12253667740623
20
5.86677544388644
30
0
41
1
10
9.1135551808737
20
5.8642160875483
30
0
41
1
10
9.09541273714802
20
5.86078630517153
30
0
41
1
10
9.08618793610023
20
5.85988980456943
30
0
41
1
10
9.07679491924327
20
5.85988980456941
30
0
0
SPLINE
5
151
100
AcDbEntity
8
1
62
256
6
ByLayer
370
18
48
1
60
0
100
AcDbSpline
70
4
71
3
72
26
73
22
40
0
40
0
40
0
40
0
40
0.0624999999999992
40
0.0624999999999992
40
0.124999999999998
40
0.124999999999998
40
0.187499999999998
40
0.187499999999998
40
0.249999999999997
40
0.249999999999997
40
0.312499999999996
40
0.312499999999996
40
0.374999999999995
40
0.374999999999995
40
0.499999999999995
40
0.499999999999995
40
0.624999999999994
40
0.624999999999994
40
0.749999999999994
40
0.749999999999994
40
1
40
1
40
1
40
1
41
1
10
6.92320508075687
20
5.85988980456935
30
0
41
1
10
6.91382447246664
20
5.85988980456935
30
0
41
1
10
6.90445612562743
20
5.86079831910374
30
0
41
1
10
6.88616578647202
20
5.86428190495292
30
0
41
1
10
6.87730602993503
20
5.86682965857767
30
0
41
1
10
6.86008230329932
20
5.87332463683575
30
0
41
1
10
6.85165205969534
20
5.87731470491119
30
0
41
1
10
6.83564492760419
20
5.88630806692441
30
0
41
1
10
6.82805305136273
20
5.8913003134268
30
0
41
1
10
6.81353466302775
20
5.90208491578247
30
0
41
1
10
6.80660916084838
20
5.90787848896431
30
0
41
1
10
6.79332109685251
20
5.92014175764379
30
0
41
1
10
6.78693692536262
20
5.92663822853581
30
0
41
1
10
6.76873667859329
20
5.9467625930485
30
0
41
1
10
6.75782269201744
20
5.96102885758609
30
0
41
1
10
6.73776606630176
20
5.99079069805941
30
0
41
1
10
6.72865815863287
20
6.00626721095975
30
0
41
1
10
6.712104492701
20
6.03765971826817
30
0
41
1
10
6.70461359775271
20
6.05364979751812
30
0
41
1
10
6.68402554771035
20
6.10231901184949
30
0
41
1
10
6.67278813956517
20
6.13568757087467
30
0
41
1
10
6.66339745962154
20
6.16973001948571
30
0
0
SPLINE
5
152
100
AcDbEntity
8
1
62
256
6
ByLayer
370
18
48
1
60
0
100
AcDbSpline
70
4
71
3
72
34
73
30
40
0
40
0
40
0
40
0
40
0.125000000000001
40
0.125000000000001
40
0.187500000000002
40
0.187500000000002
40
0.218750000000003
40
0.218750000000003
40
0.250000000000004
40
0.250000000000004
40
0.375000000000003
40
0.375000000000003
40
0.406250000000007
40
0.406250000000007
40
0.437500000000012
40
0.500000000000014
40
0.562500000000017
40
0.562500000000017
40
0.62500000000002
40
0.62500000000002
40
0.687500000000022
40
0.687500000000022
40
0.750000000000025
40
0.750000000000025
40
0.875000000000014
40
0.875000000000014
40
0.937500000000007
40
0.937500000000007
40
1
40
1
40
1
40
1
41
1
10
36.7025489664151
20
-19.0281523379786
30
0
41
1
10
36.7156655382213
20
-18.9791605406677
30
0
41
1
10
36.7242978158907
20
-18.929054901581
30
0
41
1
10
36.7302079603998
20
-18.8518976275393
30
0
41
1
10
36.7309965236357
20
-18.8258420498826
30
0
41
1
10
36.7302694906401
20
-18.7861721053907
30
0
41
1
10
36.7297058008467
20
-18.7728201914697
30
0
41
1
10
36.7279158768879
20
-18.7460462641006
30
0
41
1
10
36.7266940984729
20
-18.7326678100599
30
0
41
1
10
36.7189332840545
20
-18.6658054580946
30
0
41
1
10
36.7075101517204
20
-18.6124105635002
30
0
41
1
10
36.6857673502638
20
-18.5455886245496
30
0
41
1
10
36.6810308549537
20
-18.532203806776
30
0
41
1
10
36.6709353515531
20
-18.5058521630066
30
0
41
1
10
36.6548097146694
20
-18.4667940070401
30
0
41
1
10
36.6230753596689
20
-18.4040139333799
30
0
41
1
10
36.5924691963574
20
-18.3562753174227
30
0
41
1
10
36.5591503075509
20
-18.3098302684517
30
0
41
1
10
36.5415356800511
20
-18.2878136047356
30
0
41
1
10
36.5045539812253
20
-18.2460507829755
30
0
41
1
10
36.4851804496706
20
-18.2262970086682
30
0
41
1
10
36.4447150948979
20
-18.1889396946713
30
0
41
1
10
36.4235404771085
20
-18.1712931406015
30
0
41
1
10
36.35901579413
20
-18.1226269571249
30
0
41
1
10
36.314226845169
20
-18.0953601516259
30
0
41
1
10
36.2444307949715
20
-18.0612075572781
30
0
41
1
10
36.2206491547374
20
-18.0509341260477
30
0
41
1
10
36.1726088449967
20
-18.0327806188033
30
0
41
1
10
36.1483707597728
20
-18.0248979334757
30
0
41
1
10
36.1239045598557
20
-18.0181619695468
30
0
0
SPLINE
5
153
100
AcDbEntity
8
1
62
256
6
ByLayer
370
18
48
1
60
0
100
AcDbSpline
70
4
71
3
72
26
73
22
40
0
40
0
40
0
40
0
40
0.125000000000019
40
0.125000000000019
40
0.250000000000038
40
0.250000000000038
40
0.312500000000059
40
0.312500000000059
40
0.375000000000079
40
0.375000000000079
40
0.500000000000099
40
0.500000000000099
40
0.562500000000087
40
0.562500000000087
40
0.625000000000074
40
0.625000000000074
40
0.75000000000005
40
0.75000000000005
40
0.875000000000025
40
0.875000000000025
40
1
40
1
40
1
40
1
41
1
10
35.8815
20
-17.7
30
0
41
1
10
35.8815
20
-17.7187420838797
30
0
41
1
10
35.8831372044954
20
-17.737790024121
30
0
41
1
10
35.8895147193171
20
-17.7746705458543
30
0
41
1
10
35.8942272083345
20
-17.7926468374794
30
0
41
1
10
35.9035346138969
20
-17.8189272305608
30
0
41
1
10
35.9070324749046
20
-17.827613610563
30
0
41
1
10
35.9146658697639
20
-17.844482547616
30
0
41
1
10
35.9188009007351
20
-17.8526773955159
30
0
41
1
10
35.9321176705843
20
-17.8765732518195
30
0
41
1
10
35.9422054375067
20
-17.8915899369246
30
0
41
1
10
35.9590952929138
20
-17.9127755394084
30
0
41
1
10
35.9650073826156
20
-17.9195919185691
30
0
41
1
10
35.9772026281571
20
-17.9325595895107
30
0
41
1
10
35.9835087032146
20
-17.9387403827712
30
0
41
1
10
36.0030236472242
20
-17.9564090822013
30
0
41
1
10
36.0168258723379
20
-17.9670282709711
30
0
41
1
10
36.0459544667601
20
-17.9860013809461
30
0
41
1
10
36.0610227058138
20
-17.9941811588046
30
0
41
1
10
36.0918822523001
20
-18.008022019824
30
0
41
1
10
36.1077051105119
20
-18.0137019836554
30
0
41
1
10
36.1239045598557
20
-18.0181619695468
30
0
0
SPLINE
5
154
100
AcDbEntity
8
1
62
256
6
ByLayer
370
18
48
1
60
0
100
AcDbSpline
70
4
71
3
72
24
73
20
40
0
40
0
40
0
40
0
40
0.0625000000000033
40
0.0625000000000033
40
0.125000000000007
40
0.125000000000007
40
0.249999999999979
40
0.249999999999979
40
0.31249999999998
40
0.31249999999998
40
0.374999999999981
40
0.374999999999981
40
0.499999999999985
40
0.499999999999985
40
0.624999999999989
40
0.624999999999989
40
0.749999999999994
40
0.749999999999994
40
1
40
1
40
1
40
1
41
1
10
36.8544231104048
20
-19.3981810583398
30
0
41
1
10
36.8463213901868
20
-19.3934313378224
30
0
41
1
10
36.8383501907726
20
-19.3882897889865
30
0
41
1
10
36.8229069342991
20
-19.377355321586
30
0
41
1
10
36.8154823048632
20
-19.371600827775
30
0
41
1
10
36.7940672483723
20
-19.3535070564051
30
0
41
1
10
36.7809297604749
20
-19.3403431053359
30
0
41
1
10
36.7629195220238
20
-19.3189603728398
30
0
41
1
10
36.7571946455442
20
-19.3115431209205
30
0
41
1
10
36.7465290865014
20
-19.2964570188402
30
0
41
1
10
36.7415574654853
20
-19.2887541685168
30
0
41
1
10
36.7276847696398
20
-19.2651865615503
30
0
41
1
10
36.7198192822715
20
-19.2488655560664
30
0
41
1
10
36.70680967244
20
-19.2150376500416
30
0
41
1
10
36.7018349390982
20
-19.197973394896
30
0
41
1
10
36.6946760075167
20
-19.1636029977597
30
0
41
1
10
36.6924906930814
20
-19.146237058748
30
0
41
1
10
36.6900607899539
20
-19.09416944413
30
0
41
1
10
36.6938607082312
20
-19.0606039107085
30
0
41
1
10
36.7025489664151
20
-19.0281523379786
30
0
0
SPLINE
5
155
100
AcDbEntity
8
1
62
256
6
ByLayer
370
18
48
1
60
0
100
AcDbSpline
70
4
71
3
72
18
73
14
40
0
40
0
40
0
40
0
40
0.249999999999991
40
0.249999999999991
40
0.374999999999967
40
0.374999999999967
40
0.437499999999971
40
0.437499999999971
40
0.499999999999975
40
0.499999999999975
40
0.749999999999987
40
0.749999999999987
40
1
40
1
40
1
40
1
41
1
10
37.6972587066235
20
-19.1077379362998
30
0
41
1
10
37.6528337171423
20
-19.1160970234351
30
0
41
1
10
37.6104712723168
20
-19.127805923863
30
0
41
1
10
37.5495124020601
20
-19.1497852995847
30
0
41
1
10
37.529627187147
20
-19.1578539822308
30
0
41
1
10
37.5004148537566
20
-19.1710409062468
30
0
41
1
10
37.4907801565428
20
-19.175617474447
30
0
41
1
10
37.4717121243907
20
-19.1851307090048
30
0
41
1
10
37.4622579701755
20
-19.1900791241439
30
0
41
1
10
37.4157912081224
20
-19.2155498531435
30
0
41
1
10
37.381166656145
20
-19.2382169974673
30
0
41
1
10
37.3162930246902
20
-19.2877505294598
30
0
41
1
10
37.2860508004758
20
-19.314621396562
30
0
41
1
10
37.2578822958328
20
-19.3435826280888
30
0
0
SPLINE
5
156
100
AcDbEntity
8
1
62
256
6
ByLayer
370
18
48
1
60
0
100
AcDbSpline
70
4
71
3
72
24
73
20
40
0
40
0
40
0
40
0
40
0.124999999999993
40
0.124999999999993
40
0.187500000000014
40
0.187500000000014
40
0.250000000000036
40
0.250000000000036
40
0.375000000000037
40
0.375000000000037
40
0.500000000000037
40
0.500000000000037
40
0.625000000000038
40
0.625000000000038
40
0.687500000000033
40
0.687500000000033
40
0.750000000000028
40
0.750000000000028
40
1
40
1
40
1
40
1
41
1
10
36.8544231104048
20
-19.3981810583398
30
0
41
1
10
36.8710491574261
20
-19.4079282570253
30
0
41
1
10
36.8883617511803
20
-19.4161357366899
30
0
41
1
10
36.9153474437873
20
-19.4261657634977
30
0
41
1
10
36.9245473711185
20
-19.4291359412957
30
0
41
1
10
36.9431445348273
20
-19.4342485495552
30
0
41
1
10
36.9524509205632
20
-19.4363695892661
30
0
41
1
10
36.9803910341182
20
-19.4414963446131
30
0
41
1
10
36.9990456597562
20
-19.4432740738269
30
0
41
1
10
37.0363999419419
20
-19.4436815034584
30
0
41
1
10
37.0552389224263
20
-19.4422604780044
30
0
41
1
10
37.0914151049205
20
-19.4364872949031
30
0
41
1
10
37.108930473553
20
-19.4321586246314
30
0
41
1
10
37.1343888768184
20
-19.4236520963912
30
0
41
1
10
37.142738497813
20
-19.4204791393988
30
0
41
1
10
37.1591639408511
20
-19.41346298447
30
0
41
1
10
37.1672667445912
20
-19.4096028514273
30
0
41
1
10
37.2064158715205
20
-19.3889846413071
30
0
41
1
10
37.2339249856771
20
-19.3682141523736
30
0
41
1
10
37.2578822958328
20
-19.3435826280888
30
0
0
SPLINE
5
157
100
AcDbEntity
8
1
62
256
6
ByLayer
370
18
48
1
60
0
100
AcDbSpline
70
4
71
3
72
24
73
20
40
0
40
0
40
0
40
0
40
0.249999999999972
40
0.249999999999972
40
0.312499999999967
40
0.312499999999967
40
0.374999999999962
40
0.374999999999962
40
0.499999999999963
40
0.499999999999963
40
0.624999999999963
40
0.624999999999963
40
0.749999999999964
40
0.749999999999964
40
0.812499999999986
40
0.812499999999986
40
0.875000000000007
40
0.875000000000007
40
1
40
1
40
1
40
1
41
1
10
38.4421177041672
20
-19.3435826280888
30
0
41
1
10
38.4660750143229
20
-19.3682141523736
30
0
41
1
10
38.4935841284794
20
-19.3889846413071
30
0
41
1
10
38.5327332554088
20
-19.4096028514273
30
0
41
1
10
38.5408360591489
20
-19.41346298447
30
0
41
1
10
38.5572615021869
20
-19.4204791393988
30
0
41
1
10
38.5656111231816
20
-19.4236520963912
30
0
41
1
10
38.591069526447
20
-19.4321586246314
30
0
41
1
10
38.6085848950795
20
-19.4364872949031
30
0
41
1
10
38.6447610775736
20
-19.4422604780044
30
0
41
1
10
38.6636000580581
20
-19.4436815034584
30
0
41
1
10
38.7009543402438
20
-19.4432740738269
30
0
41
1
10
38.7196089658818
20
-19.4414963446131
30
0
41
1
10
38.7475490794368
20
-19.4363695892661
30
0
41
1
10
38.7568554651727
20
-19.4342485495552
30
0
41
1
10
38.7754526288816
20
-19.4291359412957
30
0
41
1
10
38.7846525562127
20
-19.4261657634977
30
0
41
1
10
38.8116382488197
20
-19.4161357366899
30
0
41
1
10
38.828950842574
20
-19.4079282570253
30
0
41
1
10
38.8455768895952
20
-19.3981810583398
30
0
0
SPLINE
5
158
100
AcDbEntity
8
1
62
256
6
ByLayer
370
18
48
1
60
0
100
AcDbSpline
70
4
71
3
72
17
73
13
40
0
40
0
40
0
40
0
40
0.250000000000039
40
0.250000000000039
40
0.500000000000078
40
0.500000000000078
40
0.562500000000084
40
0.562500000000084
40
0.62500000000009
40
0.750000000000069
40
0.750000000000069
40
1
40
1
40
1
40
1
41
1
10
38.4421177041672
20
-19.3435826280888
30
0
41
1
10
38.4139523188094
20
-19.3146246036311
30
0
41
1
10
38.3837257578645
20
-19.2877690589036
30
0
41
1
10
38.3189216766128
20
-19.238280261633
30
0
41
1
10
38.2843506951335
20
-19.2156427078131
30
0
41
1
10
38.2379885118563
20
-19.1902105226124
30
0
41
1
10
38.228534709811
20
-19.1852575520369
30
0
41
1
10
38.2094252761132
20
-19.1757163583554
30
0
41
1
10
38.1804620369478
20
-19.1619501115274
30
0
41
1
10
38.1505862767429
20
-19.1498230334515
30
0
41
1
10
38.0895493879215
20
-19.1278090763269
30
0
41
1
10
38.0471581972668
20
-19.1160955020356
30
0
41
1
10
38.0027412933765
20
-19.1077379362998
30
0
0
SPLINE
5
159
100
AcDbEntity
8
1
62
256
6
ByLayer
370
18
48
1
60
0
100
AcDbSpline
70
4
71
3
72
34
73
30
40
0
40
0
40
0
40
0
40
0.125000000000018
40
0.125000000000018
40
0.187500000000028
40
0.187500000000028
40
0.218750000000033
40
0.218750000000033
40
0.250000000000038
40
0.250000000000038
40
0.375000000000053
40
0.375000000000053
40
0.406250000000055
40
0.406250000000055
40
0.437500000000057
40
0.500000000000054
40
0.562500000000051
40
0.562500000000051
40
0.625000000000048
40
0.625000000000048
40
0.687500000000045
40
0.687500000000045
40
0.750000000000041
40
0.750000000000041
40
0.875000000000019
40
0.875000000000019
40
0.93750000000001
40
0.93750000000001
40
1
40
1
40
1
40
1
41
1
10
38.9974510335849
20
-16.3718476620214
30
0
41
1
10
38.9843344617788
20
-16.4208394593323
30
0
41
1
10
38.9757021841093
20
-16.470945098419
30
0
41
1
10
38.9697920396002
20
-16.5481023724607
30
0
41
1
10
38.9690034763643
20
-16.5741579501174
30
0
41
1
10
38.9697305093599
20
-16.6138278946093
30
0
41
1
10
38.9702941991533
20
-16.6271798085303
30
0
41
1
10
38.9720841231121
20
-16.6539537358994
30
0
41
1
10
38.9733059015271
20
-16.6673321899401
30
0
41
1
10
38.9810667159455
20
-16.7341945419054
30
0
41
1
10
38.9924898482796
20
-16.7875894364998
30
0
41
1
10
39.0142326497362
20
-16.8544113754504
30
0
41
1
10
39.0189691450463
20
-16.867796193224
30
0
41
1
10
39.0290646484468
20
-16.8941478369934
30
0
41
1
10
39.0451902853305
20
-16.9332059929599
30
0
41
1
10
39.0769246403311
20
-16.9959860666201
30
0
41
1
10
39.1075308036426
20
-17.0437246825773
30
0
41
1
10
39.1408496924491
20
-17.0901697315483
30
0
41
1
10
39.1584643199489
20
-17.1121863952644
30
0
41
1
10
39.1954460187747
20
-17.1539492170246
30
0
41
1
10
39.2148195503294
20
-17.1737029913318
30
0
41
1
10
39.2552849051021
20
-17.2110603053288
30
0
41
1
10
39.2764595228915
20
-17.2287068593986
30
0
41
1
10
39.34098420587
20
-17.2773730428752
30
0
41
1
10
39.385773154831
20
-17.3046398483741
30
0
41
1
10
39.4555692050285
20
-17.338792442722
30
0
41
1
10
39.4793508452626
20
-17.3490658739523
30
0
41
1
10
39.5273911550032
20
-17.3672193811968
30
0
41
1
10
39.5516292402272
20
-17.3751020665243
30
0
41
1
10
39.5760954401443
20
-17.3818380304532
30
0
0
SPLINE
5
15A
100
AcDbEntity
8
1
62
256
6
ByLayer
370
18
48
1
60
0
100
AcDbSpline
70
4
71
3
72
26
73
22
40
0
40
0
40
0
40
0
40
0.125000000000019
40
0.125000000000019
40
0.250000000000038
40
0.250000000000038
40
0.312500000000059
40
0.312500000000059
40
0.375000000000079
40
0.375000000000079
40
0.500000000000099
40
0.500000000000099
40
0.562500000000087
40
0.562500000000087
40
0.625000000000074
40
0.625000000000074
40
0.75000000000005
40
0.75000000000005
40
0.875000000000025
40
0.875000000000025
40
1
40
1
40
1
40
1
41
1
10
39.8185
20
-17.7
30
0
41
1
10
39.8185
20
-17.6812579161203
30
0
41
1
10
39.8168627955046
20
-17.662209975879
30
0
41
1
10
39.8104852806829
20
-17.6253294541457
30
0
41
1
10
39.8057727916655
20
-17.6073531625207
30
0
41
1
10
39.7964653861032
20
-17.5810727694392
30
0
41
1
10
39.7929675250953
20
-17.5723863894371
30
0
41
1
10
39.785334130236
20
-17.555517452384
30
0
41
1
10
39.7811990992649
20
-17.5473226044842
30
0
41
1
10
39.7678823294157
20
-17.5234267481805
30
0
41
1
10
39.7577945624934
20
-17.5084100630755
30
0
41
1
10
39.7409047070862
20
-17.4872244605916
30
0
41
1
10
39.7349926173844
20
-17.4804080814309
30
0
41
1
10
39.7227973718429
20
-17.4674404104893
30
0
41
1
10
39.7164912967854
20
-17.4612596172288
30
0
41
1
10
39.6969763527758
20
-17.4435909177987
30
0
41
1
10
39.6831741276621
20
-17.4329717290289
30
0
41
1
10
39.6540455332399
20
-17.4139986190539
30
0
41
1
10
39.6389772941862
20
-17.4058188411954
30
0
41
1
10
39.6081177476999
20
-17.3919779801761
30
0
41
1
10
39.5922948894881
20
-17.3862980163446
30
0
41
1
10
39.5760954401443
20
-17.3818380304532
30
0
0
SPLINE
5
15B
100
AcDbEntity
8
1
62
256
6
ByLayer
370
18
48
1
60
0
100
AcDbSpline
70
4
71
3
72
24
73
20
40
0
40
0
40
0
40
0
40
0.0625000000000253
40
0.0625000000000253
40
0.12500000000005
40
0.12500000000005
40
0.250000000000067
40
0.250000000000067
40
0.31250000000006
40
0.31250000000006
40
0.375000000000054
40
0.375000000000054
40
0.500000000000044
40
0.500000000000044
40
0.625000000000033
40
0.625000000000033
40
0.750000000000023
40
0.750000000000023
40
1
40
1
40
1
40
1
41
1
10
38.8455768895952
20
-16.0018189416603
30
0
41
1
10
38.8536786098132
20
-16.0065686621776
30
0
41
1
10
38.8616498092273
20
-16.0117102110135
30
0
41
1
10
38.8770930657009
20
-16.022644678414
30
0
41
1
10
38.8845176951368
20
-16.0283991722251
30
0
41
1
10
38.9059327516277
20
-16.046492943595
30
0
41
1
10
38.9190702395251
20
-16.0596568946641
30
0
41
1
10
38.9370804779762
20
-16.0810396271602
30
0
41
1
10
38.9428053544558
20
-16.0884568790795
30
0
41
1
10
38.9534709134985
20
-16.1035429811598
30
0
41
1
10
38.9584425345147
20
-16.1112458314832
30
0
41
1
10
38.9723152303602
20
-16.1348134384497
30
0
41
1
10
38.9801807177285
20
-16.1511344439336
30
0
41
1
10
38.9931903275599
20
-16.1849623499584
30
0
41
1
10
38.9981650609018
20
-16.202026605104
30
0
41
1
10
39.0053239924833
20
-16.2363970022404
30
0
41
1
10
39.0075093069186
20
-16.253762941252
30
0
41
1
10
39.0099392100461
20
-16.30583055587
30
0
41
1
10
39.0061392917688
20
-16.3393960892915
30
0
41
1
10
38.9974510335849
20
-16.3718476620214
30
0
0
SPLINE
5
15C
100
AcDbEntity
8
1
62
256
6
ByLayer
370
18
48
1
60
0
100
AcDbSpline
70
4
71
3
72
26
73
22
40
0
40
0
40
0
40
0
40
0.249999999999942
40
0.249999999999942
40
0.312499999999927
40
0.312499999999927
40
0.374999999999912
40
0.374999999999912
40
0.499999999999913
40
0.499999999999913
40
0.562499999999921
40
0.562499999999921
40
0.624999999999929
40
0.624999999999929
40
0.749999999999946
40
0.749999999999946
40
0.812499999999955
40
0.812499999999955
40
0.874999999999965
40
0.874999999999965
40
1
40
1
40
1
40
1
41
1
10
39.5760954401443
20
-18.0181619695468
30
0
41
1
10
39.608577033349
20
-18.0092192305469
30
0
41
1
10
39.6394636897319
20
-17.9954876322591
30
0
41
1
10
39.6757985173218
20
-17.971835338829
30
0
41
1
10
39.6829774574242
20
-17.9667495067731
30
0
41
1
10
39.6968593945605
20
-17.9560530091763
30
0
41
1
10
39.7035815944469
20
-17.9504333990712
30
0
41
1
10
39.723086726309
20
-17.9327595033493
30
0
41
1
10
39.7352128086365
20
-17.9198957841168
30
0
41
1
10
39.7519894067492
20
-17.898881054868
30
0
41
1
10
39.7573451171932
20
-17.8915883106091
30
0
41
1
10
39.7675515660364
20
-17.8763916134438
30
0
41
1
10
39.7723621129043
20
-17.8685411707113
30
0
41
1
10
39.7857244929385
20
-17.8445437728381
30
0
41
1
10
39.7932969040447
20
-17.8278334996496
30
0
41
1
10
39.8025839798513
20
-17.8016705104134
30
0
41
1
10
39.8053327315827
20
-17.7927656700965
30
0
41
1
10
39.8101016941039
20
-17.7745707697433
30
0
41
1
10
39.8121145255045
20
-17.7652845989499
30
0
41
1
10
39.8169035837134
20
-17.7374812768526
30
0
41
1
10
39.8185
20
-17.71880895329
30
0
41
1
10
39.8185
20
-17.7
30
0
0
SPLINE
5
15D
100
AcDbEntity
8
1
62
256
6
ByLayer
370
18
48
1
60
0
100
AcDbSpline
70
4
71
3
72
34
73
30
40
0
40
0
40
0
40
0
40
0.124999999999993
40
0.124999999999993
40
0.187499999999991
40
0.187499999999991
40
0.218749999999984
40
0.218749999999984
40
0.249999999999977
40
0.249999999999977
40
0.374999999999974
40
0.374999999999974
40
0.406249999999974
40
0.406249999999974
40
0.437499999999974
40
0.499999999999978
40
0.562499999999982
40
0.562499999999982
40
0.624999999999985
40
0.624999999999985
40
0.687499999999989
40
0.687499999999989
40
0.749999999999993
40
0.749999999999993
40
0.874999999999997
40
0.874999999999997
40
0.937499999999999
40
0.937499999999999
40
1
40
1
40
1
40
1
41
1
10
39.5760954401443
20
-18.0181619695468
30
0
41
1
10
39.5271975525843
20
-18.0316243955843
30
0
41
1
10
39.4796067266957
20
-18.0495186520746
30
0
41
1
10
39.4100557864906
20
-18.0834427074956
30
0
41
1
10
39.3871794008967
20
-18.0959401462236
30
0
41
1
10
39.3533247225697
20
-18.1166305781722
30
0
41
1
10
39.3420914112425
20
-18.1238696464605
30
0
41
1
10
39.3198994037252
20
-18.1389547957833
30
0
41
1
10
39.3089760296461
20
-18.1467750039595
30
0
41
1
10
39.2552204348245
20
-18.1872859904911
30
0
41
1
10
39.2149351448543
20
-18.2241451570225
30
0
41
1
10
39.1682858555198
20
-18.2766976577683
30
0
41
1
10
39.1591345739274
20
-18.2875531522008
30
0
41
1
10
39.1415074414109
20
-18.3095897675602
30
0
41
1
10
39.1159684487655
20
-18.3432548145305
30
0
41
1
10
39.077858997146
20
-18.402382443831
30
0
41
1
10
39.0521554089177
20
-18.4529298677765
30
0
41
1
10
39.0289394627027
20
-18.5051631063884
30
0
41
1
10
39.018854848855
20
-18.5314938663051
30
0
41
1
10
39.0015306383227
20
-18.5845188699141
30
0
41
1
10
38.9942877398841
20
-18.6112225356447
30
0
41
1
10
38.9825259354201
20
-18.6650247101004
30
0
41
1
10
38.9780117958389
20
-18.692216397077
30
0
41
1
10
38.9686621854646
20
-18.7724935208944
30
0
41
1
10
38.967791913146
20
-18.8249222467065
30
0
41
1
10
38.9736288679527
20
-18.9024065588862
30
0
41
1
10
38.9767938693939
20
-18.9281182805367
30
0
41
1
10
38.98542982563
20
-18.9787427947224
30
0
41
1
10
38.9908881190691
20
-19.00363915096
30
0
41
1
10
38.9974510335849
20
-19.0281523379786
30
0
0
SPLINE
5
15E
100
AcDbEntity
8
1
62
256
6
ByLayer
370
18
48
1
60
0
100
AcDbSpline
70
4
71
3
72
24
73
20
40
0
40
0
40
0
40
0
40
0.0625000000000033
40
0.0625000000000033
40
0.125000000000007
40
0.125000000000007
40
0.249999999999979
40
0.249999999999979
40
0.31249999999998
40
0.31249999999998
40
0.374999999999981
40
0.374999999999981
40
0.499999999999985
40
0.499999999999985
40
0.624999999999989
40
0.624999999999989
40
0.749999999999994
40
0.749999999999994
40
1
40
1
40
1
40
1
41
1
10
38.8455768895952
20
-19.3981810583398
30
0
41
1
10
38.8536786098132
20
-19.3934313378224
30
0
41
1
10
38.8616498092273
20
-19.3882897889865
30
0
41
1
10
38.8770930657009
20
-19.377355321586
30
0
41
1
10
38.8845176951368
20
-19.371600827775
30
0
41
1
10
38.9059327516277
20
-19.3535070564051
30
0
41
1
10
38.9190702395251
20
-19.3403431053359
30
0
41
1
10
38.9370804779762
20
-19.3189603728398
30
0
41
1
10
38.9428053544559
20
-19.3115431209206
30
0
41
1
10
38.9534709134985
20
-19.2964570188402
30
0
41
1
10
38.9584425345147
20
-19.2887541685168
30
0
41
1
10
38.9723152303602
20
-19.2651865615503
30
0
41
1
10
38.9801807177285
20
-19.2488655560664
30
0
41
1
10
38.9931903275599
20
-19.2150376500416
30
0
41
1
10
38.9981650609018
20
-19.197973394896
30
0
41
1
10
39.0053239924833
20
-19.1636029977597
30
0
41
1
10
39.0075093069186
20
-19.146237058748
30
0
41
1
10
39.009939210046
20
-19.09416944413
30
0
41
1
10
39.0061392917688
20
-19.0606039107085
30
0
41
1
10
38.9974510335849
20
-19.0281523379786
30
0
0
SPLINE
5
15F
100
AcDbEntity
8
1
62
256
6
ByLayer
370
18
48
1
60
0
100
AcDbSpline
70
4
71
3
72
17
73
13
40
0
40
0
40
0
40
0
40
0.249999999999973
40
0.249999999999973
40
0.499999999999946
40
0.499999999999946
40
0.562499999999944
40
0.562499999999944
40
0.624999999999942
40
0.749999999999963
40
0.749999999999963
40
1
40
1
40
1
40
1
41
1
10
37.2578822958328
20
-16.0564173719113
30
0
41
1
10
37.2860476811905
20
-16.0853753963689
30
0
41
1
10
37.3162742421354
20
-16.1122309410963
30
0
41
1
10
37.381078323387
20
-16.1617197383669
30
0
41
1
10
37.4156493048662
20
-16.1843572921868
30
0
41
1
10
37.4620114881434
20
-16.2097894773875
30
0
41
1
10
37.4714652901887
20
-16.214742447963
30
0
41
1
10
37.4905747238864
20
-16.2242836416444
30
0
41
1
10
37.5195379630518
20
-16.2380498884725
30
0
41
1
10
37.5494137232566
20
-16.2501769665483
30
0
41
1
10
37.6104506120781
20
-16.2721909236731
30
0
41
1
10
37.652841802733
20
-16.2839044979644
30
0
41
1
10
37.6972587066235
20
-16.2922620637002
30
0
0
SPLINE
5
160
100
AcDbEntity
8
1
62
256
6
ByLayer
370
18
48
1
60
0
100
AcDbSpline
70
4
71
3
72
18
73
14
40
0
40
0
40
0
40
0
40
0.249999999999958
40
0.249999999999958
40
0.374999999999942
40
0.374999999999942
40
0.437499999999949
40
0.437499999999949
40
0.499999999999956
40
0.499999999999956
40
0.749999999999978
40
0.749999999999978
40
1
40
1
40
1
40
1
41
1
10
38.0027412933765
20
-16.2922620637002
30
0
41
1
10
38.0471662828573
20
-16.2839029765649
30
0
41
1
10
38.0895287276828
20
-16.2721940761371
30
0
41
1
10
38.1504875979396
20
-16.2502147004155
30
0
41
1
10
38.1703728128528
20
-16.2421460177693
30
0
41
1
10
38.1995851462434
20
-16.2289590937532
30
0
41
1
10
38.2092198434572
20
-16.224382525553
30
0
41
1
10
38.2282878756095
20
-16.2148692909951
30
0
41
1
10
38.2377420298248
20
-16.209920875856
30
0
41
1
10
38.2842087918777
20
-16.1844501468564
30
0
41
1
10
38.318833343855
20
-16.1617830025327
30
0
41
1
10
38.3837069753097
20
-16.1122494705403
30
0
41
1
10
38.4139491995241
20
-16.0853786034381
30
0
41
1
10
38.4421177041672
20
-16.0564173719113
30
0
0
SPLINE
5
161
100
AcDbEntity
8
1
62
256
6
ByLayer
370
18
48
1
60
0
100
AcDbSpline
70
4
71
3
72
24
73
20
40
0
40
0
40
0
40
0
40
0.124999999999993
40
0.124999999999993
40
0.187500000000014
40
0.187500000000014
40
0.250000000000036
40
0.250000000000036
40
0.375000000000037
40
0.375000000000037
40
0.500000000000037
40
0.500000000000037
40
0.625000000000038
40
0.625000000000038
40
0.687500000000033
40
0.687500000000033
40
0.750000000000028
40
0.750000000000028
40
1
40
1
40
1
40
1
41
1
10
38.8455768895952
20
-16.0018189416603
30
0
41
1
10
38.828950842574
20
-15.9920717429747
30
0
41
1
10
38.8116382488197
20
-15.9838642633101
30
0
41
1
10
38.7846525562127
20
-15.9738342365023
30
0
41
1
10
38.7754526288816
20
-15.9708640587043
30
0
41
1
10
38.7568554651727
20
-15.9657514504449
30
0
41
1
10
38.7475490794368
20
-15.9636304107339
30
0
41
1
10
38.7196089658818
20
-15.958503655387
30
0
41
1
10
38.7009543402438
20
-15.9567259261731
30
0
41
1
10
38.6636000580581
20
-15.9563184965417
30
0
41
1
10
38.6447610775736
20
-15.9577395219957
30
0
41
1
10
38.6085848950795
20
-15.9635127050969
30
0
41
1
10
38.591069526447
20
-15.9678413753686
30
0
41
1
10
38.5656111231816
20
-15.9763479036088
30
0
41
1
10
38.5572615021869
20
-15.9795208606013
30
0
41
1
10
38.5408360591489
20
-15.9865370155301
30
0
41
1
10
38.5327332554088
20
-15.9903971485727
30
0
41
1
10
38.4935841284794
20
-16.0110153586929
30
0
41
1
10
38.4660750143229
20
-16.0317858476264
30
0
41
1
10
38.4421177041672
20
-16.0564173719113
30
0
0
SPLINE
5
162
100
AcDbEntity
8
1
62
256
6
ByLayer
370
18
48
1
60
0
100
AcDbSpline
70
4
71
3
72
24
73
20
40
0
40
0
40
0
40
0
40
0.249999999999972
40
0.249999999999972
40
0.312499999999967
40
0.312499999999967
40
0.374999999999962
40
0.374999999999962
40
0.499999999999963
40
0.499999999999963
40
0.624999999999963
40
0.624999999999963
40
0.749999999999964
40
0.749999999999964
40
0.812499999999986
40
0.812499999999986
40
0.875000000000007
40
0.875000000000007
40
1
40
1
40
1
40
1
41
1
10
37.2578822958328
20
-16.0564173719113
30
0
41
1
10
37.2339249856771
20
-16.0317858476264
30
0
41
1
10
37.2064158715205
20
-16.0110153586929
30
0
41
1
10
37.1672667445912
20
-15.9903971485727
30
0
41
1
10
37.1591639408511
20
-15.9865370155301
30
0
41
1
10
37.142738497813
20
-15.9795208606013
30
0
41
1
10
37.1343888768184
20
-15.9763479036088
30
0
41
1
10
37.108930473553
20
-15.9678413753686
30
0
41
1
10
37.0914151049205
20
-15.9635127050969
30
0
41
1
10
37.0552389224264
20
-15.9577395219957
30
0
41
1
10
37.0363999419419
20
-15.9563184965417
30
0
41
1
10
36.9990456597562
20
-15.9567259261731
30
0
41
1
10
36.9803910341182
20
-15.958503655387
30
0
41
1
10
36.9524509205632
20
-15.9636304107339
30
0
41
1
10
36.9431445348273
20
-15.9657514504449
30
0
41
1
10
36.9245473711185
20
-15.9708640587043
30
0
41
1
10
36.9153474437873
20
-15.9738342365023
30
0
41
1
10
36.8883617511803
20
-15.9838642633101
30
0
41
1
10
36.8710491574261
20
-15.9920717429747
30
0
41
1
10
36.8544231104048
20
-16.0018189416603
30
0
0
SPLINE
5
163
100
AcDbEntity
8
1
62
256
6
ByLayer
370
18
48
1
60
0
100
AcDbSpline
70
4
71
3
72
34
73
30
40
0
40
0
40
0
40
0
40
0.124999999999993
40
0.124999999999993
40
0.187499999999991
40
0.187499999999991
40
0.218749999999984
40
0.218749999999984
40
0.249999999999977
40
0.249999999999977
40
0.374999999999974
40
0.374999999999974
40
0.406249999999974
40
0.406249999999974
40
0.437499999999974
40
0.499999999999978
40
0.562499999999982
40
0.562499999999982
40
0.624999999999985
40
0.624999999999985
40
0.687499999999989
40
0.687499999999989
40
0.749999999999993
40
0.749999999999993
40
0.874999999999997
40
0.874999999999997
40
0.937499999999999
40
0.937499999999999
40
1
40
1
40
1
40
1
41
1
10
36.1239045598557
20
-17.3818380304532
30
0
41
1
10
36.1728024474156
20
-17.3683756044158
30
0
41
1
10
36.2203932733043
20
-17.3504813479254
30
0
41
1
10
36.2899442135094
20
-17.3165572925044
30
0
41
1
10
36.3128205991032
20
-17.3040598537764
30
0
41
1
10
36.3466752774303
20
-17.2833694218278
30
0
41
1
10
36.3579085887575
20
-17.2761303535396
30
0
41
1
10
36.3801005962748
20
-17.2610452042167
30
0
41
1
10
36.3910239703539
20
-17.2532249960406
30
0
41
1
10
36.4447795651754
20
-17.2127140095089
30
0
41
1
10
36.4850648551457
20
-17.1758548429775
30
0
41
1
10
36.5317141444802
20
-17.1233023422317
30
0
41
1
10
36.5408654260726
20
-17.1124468477992
30
0
41
1
10
36.5584925585892
20
-17.0904102324398
30
0
41
1
10
36.5840315512345
20
-17.0567451854695
30
0
41
1
10
36.622141002854
20
-16.9976175561691
30
0
41
1
10
36.6478445910823
20
-16.9470701322235
30
0
41
1
10
36.6710605372974
20
-16.8948368936117
30
0
41
1
10
36.681145151145
20
-16.868506133695
30
0
41
1
10
36.6984693616773
20
-16.8154811300859
30
0
41
1
10
36.7057122601159
20
-16.7887774643553
30
0
41
1
10
36.7174740645799
20
-16.7349752898997
30
0
41
1
10
36.7219882041611
20
-16.707783602923
30
0
41
1
10
36.7313378145354
20
-16.6275064791057
30
0
41
1
10
36.732208086854
20
-16.5750777532936
30
0
41
1
10
36.7263711320473
20
-16.4975934411139
30
0
41
1
10
36.7232061306061
20
-16.4718817194633
30
0
41
1
10
36.71457017437
20
-16.4212572052777
30
0
41
1
10
36.7091118809309
20
-16.39636084904
30
0
41
1
10
36.7025489664151
20
-16.3718476620214
30
0
0
SPLINE
5
164
100
AcDbEntity
8
1
62
256
6
ByLayer
370
18
48
1
60
0
100
AcDbSpline
70
4
71
3
72
24
73
20
40
0
40
0
40
0
40
0
40
0.0625000000000033
40
0.0625000000000033
40
0.125000000000007
40
0.125000000000007
40
0.249999999999979
40
0.249999999999979
40
0.31249999999998
40
0.31249999999998
40
0.374999999999981
40
0.374999999999981
40
0.499999999999985
40
0.499999999999985
40
0.624999999999989
40
0.624999999999989
40
0.749999999999994
40
0.749999999999994
40
1
40
1
40
1
40
1
41
1
10
36.8544231104048
20
-16.0018189416603
30
0
41
1
10
36.8463213901868
20
-16.0065686621776
30
0
41
1
10
36.8383501907726
20
-16.0117102110135
30
0
41
1
10
36.8229069342991
20
-16.022644678414
30
0
41
1
10
36.8154823048632
20
-16.0283991722251
30
0
41
1
10
36.7940672483723
20
-16.046492943595
30
0
41
1
10
36.7809297604749
20
-16.0596568946641
30
0
41
1
10
36.7629195220238
20
-16.0810396271602
30
0
41
1
10
36.7571946455442
20
-16.0884568790795
30
0
41
1
10
36.7465290865014
20
-16.1035429811598
30
0
41
1
10
36.7415574654853
20
-16.1112458314832
30
0
41
1
10
36.7276847696398
20
-16.1348134384497
30
0
41
1
10
36.7198192822715
20
-16.1511344439336
30
0
41
1
10
36.70680967244
20
-16.1849623499584
30
0
41
1
10
36.7018349390982
20
-16.202026605104
30
0
41
1
10
36.6946760075167
20
-16.2363970022404
30
0
41
1
10
36.6924906930814
20
-16.253762941252
30
0
41
1
10
36.6900607899539
20
-16.30583055587
30
0
41
1
10
36.6938607082312
20
-16.3393960892915
30
0
41
1
10
36.7025489664151
20
-16.3718476620214
30
0
0
SPLINE
5
165
100
AcDbEntity
8
1
62
256
6
ByLayer
370
18
48
1
60
0
100
AcDbSpline
70
4
71
3
72
26
73
22
40
0
40
0
40
0
40
0
40
0.249999999999942
40
0.249999999999942
40
0.312499999999927
40
0.312499999999927
40
0.374999999999912
40
0.374999999999912
40
0.499999999999913
40
0.499999999999913
40
0.562499999999921
40
0.562499999999921
40
0.624999999999929
40
0.624999999999929
40
0.749999999999946
40
0.749999999999946
40
0.812499999999955
40
0.812499999999955
40
0.874999999999965
40
0.874999999999965
40
1
40
1
40
1
40
1
41
1
10
36.1239045598557
20
-17.3818380304532
30
0
41
1
10
36.091422966651
20
-17.3907807694531
30
0
41
1
10
36.0605363102681
20
-17.4045123677409
30
0
41
1
10
36.0242014826782
20
-17.428164661171
30
0
41
1
10
36.0170225425758
20
-17.4332504932269
30
0
41
1
10
36.0031406054395
20
-17.4439469908237
30
0
41
1
10
35.9964184055531
20
-17.4495666009289
30
0
41
1
10
35.976913273691
20
-17.4672404966507
30
0
41
1
10
35.9647871913635
20
-17.4801042158832
30
0
41
1
10
35.9480105932508
20
-17.5011189451321
30
0
41
1
10
35.9426548828068
20
-17.5084116893909
30
0
41
1
10
35.9324484339636
20
-17.5236083865562
30
0
41
1
10
35.9276378870957
20
-17.5314588292887
30
0
41
1
10
35.9142755070615
20
-17.5554562271619
30
0
41
1
10
35.9067030959552
20
-17.5721665003504
30
0
41
1
10
35.8974160201486
20
-17.5983294895866
30
0
41
1
10
35.8946672684173
20
-17.6072343299036
30
0
41
1
10
35.8898983058961
20
-17.6254292302567
30
0
41
1
10
35.8878854744954
20
-17.6347154010501
30
0
41
1
10
35.8830964162866
20
-17.6625187231474
30
0
41
1
10
35.8815
20
-17.68119104671
30
0
41
1
10
35.8815
20
-17.7
30
0
0
SPLINE
5
166
100
AcDbEntity
8
1
62
256
6
ByLayer
370
18
48
1
60
0
100
AcDbSpline
70
4
71
2
72
6
73
3
40
0
40
0
40
0
40
1
40
1
40
1
41
1.03186391735993
10
59.7999899980506
20
-27.0031513524258
30
0
41
1.03138264657361
10
59.6777789448563
20
-27.0031513524258
30
0
41
1.03186391735993
10
59.5557958399112
20
-26.9956905461133
30
0
0
SPLINE
5
167
100
AcDbEntity
8
1
62
256
6
ByLayer
370
18
48
1
60
0
100
AcDbSpline
70
4
71
2
72
6
73
3
40
0
40
0
40
0
40
1
40
1
40
1
41
1.03186391735993
10
59.9999899980506
20
-26.8031513524259
30
0
41
0.729637973226922
10
59.9999899980506
20
-27.0031513524258
30
0
41
1.03186391735993
10
59.7999899980506
20
-27.0031513524258
30
0
0
SPLINE
5
168
100
AcDbEntity
8
1
62
256
6
ByLayer
370
18
48
1
60
0
100
AcDbSpline
70
4
71
2
72
6
73
3
40
0
40
0
40
0
40
1
40
1
40
1
41
1.03186391735993
10
59.7999899980506
20
-23.9968486475742
30
0
41
0.729637973226922
10
59.9999899980506
20
-23.9968486475742
30
0
41
1.03186391735993
10
59.9999899980506
20
-24.1968486475741
30
0
0
SPLINE
5
169
100
AcDbEntity
8
1
62
256
6
ByLayer
370
18
48
1
60
0
100
AcDbSpline
70
4
71
2
72
6
73
3
40
0
40
0
40
0
40
1
40
1
40
1
41
1.03186391735993
10
59.5557958399112
20
-24.0043094538867
30
0
41
1.03138264657361
10
59.6777789448563
20
-23.9968486475742
30
0
41
1.03186391735993
10
59.7999899980506
20
-23.9968486475742
30
0
0
SPLINE
5
16A
100
AcDbEntity
8
1
62
256
6
ByLayer
370
18
48
1
60
0
100
AcDbSpline
70
4
71
3
72
8
73
4
40
0
40
0
40
0
40
0
40
1
40
1
40
1
40
1
41
1
10
57.4196694163912
20
-24.081125024782
30
0
41
1
10
57.432464869562
20
-24.0779008471108
30
0
41
1
10
57.4455611420818
20
-24.0759995976199
30
0
41
1
10
57.458733010777
20
-24.0754385382393
30
0
0
SPLINE
5
16B
100
AcDbEntity
8
1
62
256
6
ByLayer
370
18
48
1
60
0
100
AcDbSpline
70
4
71
3
72
8
73
4
40
0
40
0
40
0
40
0
40
1
40
1
40
1
40
1
41
1
10
57.458733010784
20
-26.924561461761
30
0
41
1
10
57.4455611270319
20
-26.9240004017392
30
0
41
1
10
57.4324648843562
20
-26.9220991566169
30
0
41
1
10
57.4196694163936
20
-26.9188749752186
30
0
0
LINE
5
7E
100
AcDbEntity
8
81
62
256
6
ByLayer
370
18
48
1
60
0
100
AcDbLine
10
55
20
-27
30
0
11
60
21
-27
31
0
39
0
210
0
220
0
230
1
0
LINE
5
7F
100
AcDbEntity
8
80
62
256
6
ByLayer
370
18
48
1
60
0
100
AcDbLine
10
0
20
0
30
0
11
-5
21
0
31
0
39
0
210
0
220
0
230
1
0
LINE
5
80
100
AcDbEntity
8
1
62
256
6
ByLayer
370
18
48
1
60
0
100
AcDbLine
10
20
20
20
30
0
11
0.3
21
20
31
0
39
0
210
0
220
0
230
1
0
LINE
5
81
100
AcDbEntity
8
1
62
256
6
ByLayer
370
18
48
1
60
0
100
AcDbLine
10
0.3
20
-20
30
0
11
20.279208
21
-20
31
0
39
0
210
0
220
0
230
1
0
LINE
5
82
100
AcDbEntity
8
1
62
256
6
ByLayer
370
18
48
1
60
0
100
AcDbLine
10
0
20
-19.7
30
0
11
0.3
21
-20
31
0
39
0
210
0
220
0
230
1
0
LINE
5
83
100
AcDbEntity
8
1
62
256
6
ByLayer
370
18
48
1
60
0
100
AcDbLine
10
0.3
20
20
30
0
11
0
21
19.7
31
0
39
0
210
0
220
0
230
1
0
LINE
5
84
100
AcDbEntity
8
1
62
256
6
ByLayer
370
18
48
1
60
0
100
AcDbLine
10
53.898509
20
-26.820807
30
0
11
53.896886
21
-26.649996
31
0
39
0
210
0
220
0
230
1
0
LINE
5
85
100
AcDbEntity
8
1
62
256
6
ByLayer
370
18
48
1
60
0
100
AcDbLine
10
54.816875
20
-26.817686
30
0
11
54.815282
21
-26.649992
31
0
39
0
210
0
220
0
230
1
0
LINE
5
86
100
AcDbEntity
8
1
62
256
6
ByLayer
370
13
48
1
60
0
100
AcDbLine
10
23.6
20
-21.15
30
0
11
21.598885
21
-21.15
31
0
39
0
210
0
220
0
230
1
0
LINE
5
87
100
AcDbEntity
8
1
62
256
6
ByLayer
370
13
48
1
60
0
100
AcDbLine
10
23.6
20
-20.15
30
0
11
23.6
21
-21.15
31
0
39
0
210
0
220
0
230
1
0
LINE
5
88
100
AcDbEntity
8
1
62
256
6
ByLayer
370
18
48
1
60
0
100
AcDbLine
10
59.2
20
-26.973926
30
0
11
59.2
21
-27.155719
31
0
39
0
210
0
220
0
230
1
0
LINE
5
89
100
AcDbEntity
8
1
62
256
6
ByLayer
370
18
48
1
60
0
100
AcDbLine
10
57.018026
20
-26.817686
30
0
11
54.816875
21
-26.817686
31
0
39
0
210
0
220
0
230
1
0
LINE
5
8A
100
AcDbEntity
8
1
62
256
6
ByLayer
370
18
48
1
60
0
100
AcDbLine
10
53.898509
20
-26.820807
30
0
11
50.46096
21
-26.820807
31
0
39
0
210
0
220
0
230
1
0
LINE
5
8B
100
AcDbEntity
8
1
62
256
6
ByLayer
370
18
48
1
60
0
100
AcDbLine
10
27.293237
20
-26.691513
30
0
11
27.800085
21
-26.691513
31
0
39
0
210
0
220
0
230
1
0
LINE
5
8C
100
AcDbEntity
8
1
62
256
6
ByLayer
370
18
48
1
60
0
100
AcDbLine
10
23.6
20
-26.768187
30
0
11
23.085442
21
-26.768187
31
0
39
0
210
0
220
0
230
1
0
LINE
5
8D
100
AcDbEntity
8
1
62
256
6
ByLayer
370
18
48
1
60
0
100
AcDbLine
10
24.886637
20
-28.7292
30
0
11
52.694246
21
-28.7292
31
0
39
0
210
0
220
0
230
1
0
LINE
5
8E
100
AcDbEntity
8
1
62
256
6
ByLayer
370
18
48
1
60
0
100
AcDbLine
10
27.293237
20
-26.691513
30
0
11
27.293237
21
-21.15
31
0
39
0
210
0
220
0
230
1
0
LINE
5
8F
100
AcDbEntity
8
1
62
256
6
ByLayer
370
13
48
1
60
0
100
AcDbLine
10
27.293237
20
-21.15
30
0
11
23.6
21
-21.15
31
0
39
0
210
0
220
0
230
1
0
LINE
5
90
100
AcDbEntity
8
1
62
256
6
ByLayer
370
13
48
1
60
0
100
AcDbLine
10
23.6
20
-26.768187
30
0
11
23.6
21
-21.15
31
0
39
0
210
0
220
0
230
1
0
LINE
5
91
100
AcDbEntity
8
1
62
256
6
ByLayer
370
18
48
1
60
0
100
AcDbLine
10
27.679216
20
-21.15
30
0
11
27.679216
21
-26.677322
31
0
39
0
210
0
220
0
230
1
0
LINE
5
92
100
AcDbEntity
8
1
62
256
6
ByLayer
370
13
48
1
60
0
100
AcDbLine
10
27.8
20
-21.15
30
0
11
27.679216
21
-21.15
31
0
39
0
210
0
220
0
230
1
0
LINE
5
93
100
AcDbEntity
8
1
62
256
6
ByLayer
370
18
48
1
60
0
100
AcDbLine
10
53.75
20
-25.451181
30
0
11
53.75
21
-25.548819
31
0
39
0
210
0
220
0
230
1
0
LINE
5
94
100
AcDbEntity
8
1
62
256
6
ByLayer
370
18
48
1
60
0
100
AcDbLine
10
24.799843
20
-20.15
30
0
11
23.800157
21
-20.15
31
0
39
0
210
0
220
0
230
1
0
LINE
5
95
100
AcDbEntity
8
1
62
256
6
ByLayer
370
18
48
1
60
0
100
AcDbLine
10
24.800019
20
15
30
0
11
24.008879
21
15
31
0
39
0
210
0
220
0
230
1
0
LINE
5
96
100
AcDbEntity
8
1
62
256
6
ByLayer
370
18
48
1
60
0
100
AcDbLine
10
27.800057
20
-26.677322
30
0
11
27.679216
21
-26.677322
31
0
39
0
210
0
220
0
230
1
0
LINE
5
97
100
AcDbEntity
8
1
62
256
6
ByLayer
370
13
48
1
60
0
100
AcDbLine
10
45
20
-24.347294
30
0
11
45
21
-25.121102
31
0
39
0
210
0
220
0
230
1
0
LINE
5
98
100
AcDbEntity
8
1
62
256
6
ByLayer
370
18
48
1
60
0
100
AcDbLine
10
43.4
20
-23.168411
30
0
11
43.4
21
-23.736605
31
0
39
0
210
0
220
0
230
1
0
LINE
5
99
100
AcDbEntity
8
1
62
256
6
ByLayer
370
18
48
1
60
0
100
AcDbLine
10
26.8
20
-20.15
30
0
11
24.8
21
-20.15
31
0
39
0
210
0
220
0
230
1
0
LINE
5
9A
100
AcDbEntity
8
1
62
256
6
ByLayer
370
18
48
1
60
0
100
AcDbLine
10
43.4
20
-13.15
30
0
11
34.3
21
15
31
0
39
0
210
0
220
0
230
1
0
LINE
5
9B
100
AcDbEntity
8
1
62
256
6
ByLayer
370
18
48
1
60
0
100
AcDbLine
10
43.4
20
-23.168411
30
0
11
43.4
21
-13.15
31
0
39
0
210
0
220
0
230
1
0
LINE
5
9C
100
AcDbEntity
8
1
62
256
6
ByLayer
370
18
48
1
60
0
100
AcDbLine
10
24.8
20
15
30
0
11
34.3
21
15
31
0
39
0
210
0
220
0
230
1
0
LINE
5
9D
100
AcDbEntity
8
1
62
256
6
ByLayer
370
18
48
1
60
0
100
AcDbLine
10
24.8
20
-20.15
30
0
11
24.8
21
15
31
0
39
0
210
0
220
0
230
1
0
LINE
5
9E
100
AcDbEntity
8
1
62
256
6
ByLayer
370
18
48
1
60
0
100
AcDbLine
10
27.8
20
-27.131423
30
0
11
27.8
21
-21.15
31
0
39
0
210
0
220
0
230
1
0
LINE
5
9F
100
AcDbEntity
8
1
62
256
6
ByLayer
370
18
48
1
60
0
100
AcDbLine
10
42.538001
20
-27.131423
30
0
11
27.8
21
-27.131423
31
0
39
0
210
0
220
0
230
1
0
LINE
5
A0
100
AcDbEntity
8
1
62
256
6
ByLayer
370
18
48
1
60
0
100
AcDbLine
10
50.25
20
-24.587917
30
0
11
50.25
21
-26.836406
31
0
39
0
210
0
220
0
230
1
0
LINE
5
A1
100
AcDbEntity
8
1
62
256
6
ByLayer
370
13
48
1
60
0
100
AcDbLine
10
43.525656
20
-24.325
30
0
11
42.538001
21
-24.325
31
0
39
0
210
0
220
0
230
1
0
LINE
5
A2
100
AcDbEntity
8
1
62
256
6
ByLayer
370
18
48
1
60
0
100
AcDbLine
10
42.538001
20
-27.131423
30
0
11
42.538001
21
-24.325
31
0
39
0
210
0
220
0
230
1
0
LINE
5
A3
100
AcDbEntity
8
1
62
256
6
ByLayer
370
18
48
1
60
0
100
AcDbLine
10
42.538001
20
-27.131423
30
0
11
45.394297
21
-27.131423
31
0
39
0
210
0
220
0
230
1
0
LINE
5
A4
100
AcDbEntity
8
1
62
256
6
ByLayer
370
13
48
1
60
0
100
AcDbLine
10
21.438319
20
-17.524364
30
0
11
21.438319
21
-20.15
31
0
39
0
210
0
220
0
230
1
0
LINE
5
A5
100
AcDbEntity
8
1
62
256
6
ByLayer
370
18
48
1
60
0
100
AcDbLine
10
23.8
20
-20.15
30
0
11
23.8
21
15.005458
31
0
39
0
210
0
220
0
230
1
0
LINE
5
A6
100
AcDbEntity
8
1
62
256
6
ByLayer
370
18
48
1
60
0
100
AcDbLine
10
21.988657
20
-20.15
30
0
11
23.8
21
-20.15
31
0
39
0
210
0
220
0
230
1
0
LINE
5
A7
100
AcDbEntity
8
1
62
256
6
ByLayer
370
13
48
1
60
0
100
AcDbLine
10
-1.307107
20
3.628532
30
0
11
-1.307107
21
-3.628534
31
0
39
0
210
0
220
0
230
1
0
LINE
5
A8
100
AcDbEntity
8
1
62
256
6
ByLayer
370
18
48
1
60
0
100
AcDbLine
10
-0.2
20
-14.083485
30
0
11
-0.2
21
-5.678452
31
0
39
0
210
0
220
0
230
1
0
LINE
5
A9
100
AcDbEntity
8
1
62
256
6
ByLayer
370
18
48
1
60
0
100
AcDbLine
10
-0.2
20
14.083485
30
0
11
-0.2
21
5.678452
31
0
39
0
210
0
220
0
230
1
0
LINE
5
AA
100
AcDbEntity
8
1
62
256
6
ByLayer
370
13
48
1
60
0
100
AcDbLine
10
9.076795
20
19.122283
30
0
11
9.076795
21
5.85989
31
0
39
0
210
0
220
0
230
1
0
LINE
5
AB
100
AcDbEntity
8
1
62
256
6
ByLayer
370
13
48
1
60
0
100
AcDbLine
10
9.336603
20
19.024574
30
0
11
9.336603
21
6.16973
31
0
39
0
210
0
220
0
230
1
0
LINE
5
AC
100
AcDbEntity
8
1
62
256
6
ByLayer
370
13
48
1
60
0
100
AcDbLine
10
6.663397
20
-6.16973
30
0
11
6.663397
21
-19.024574
31
0
39
0
210
0
220
0
230
1
0
LINE
5
AD
100
AcDbEntity
8
1
62
256
6
ByLayer
370
13
48
1
60
0
100
AcDbLine
10
6.923205
20
-5.85989
30
0
11
6.923205
21
-19.122283
31
0
39
0
210
0
220
0
230
1
0
LINE
5
AE
100
AcDbEntity
8
1
62
256
6
ByLayer
370
13
48
1
60
0
100
AcDbLine
10
9.076795
20
-5.85989
30
0
11
9.076795
21
-19.122283
31
0
39
0
210
0
220
0
230
1
0
LINE
5
AF
100
AcDbEntity
8
1
62
256
6
ByLayer
370
13
48
1
60
0
100
AcDbLine
10
9.336603
20
-6.16973
30
0
11
9.336603
21
-19.024574
31
0
39
0
210
0
220
0
230
1
0
LINE
5
B0
100
AcDbEntity
8
1
62
256
6
ByLayer
370
13
48
1
60
0
100
AcDbLine
10
6.663397
20
19.024574
30
0
11
6.663397
21
6.16973
31
0
39
0
210
0
220
0
230
1
0
LINE
5
B1
100
AcDbEntity
8
1
62
256
6
ByLayer
370
13
48
1
60
0
100
AcDbLine
10
6.923205
20
19.122283
30
0
11
6.923205
21
5.85989
31
0
39
0
210
0
220
0
230
1
0
LINE
5
B2
100
AcDbEntity
8
1
62
256
6
ByLayer
370
13
48
1
60
0
100
AcDbLine
10
20.279208
20
17.554472
30
0
11
20.279208
21
15.144869
31
0
39
0
210
0
220
0
230
1
0
LINE
5
B3
100
AcDbEntity
8
1
62
256
6
ByLayer
370
18
48
1
60
0
100
AcDbLine
10
20.009031
20
18.965094
30
0
11
20
21
20
31
0
39
0
210
0
220
0
230
1
0
LINE
5
B4
100
AcDbEntity
8
1
62
256
6
ByLayer
370
13
48
1
60
0
100
AcDbLine
10
20.279208
20
-20
30
0
11
20.279208
21
-15.144869
31
0
39
0
210
0
220
0
230
1
0
LINE
5
B5
100
AcDbEntity
8
1
62
256
6
ByLayer
370
18
48
1
60
0
100
AcDbLine
10
9.076795
20
-19.122283
30
0
11
6.923205
21
-19.122283
31
0
39
0
210
0
220
0
230
1
0
LINE
5
B6
100
AcDbEntity
8
1
62
256
6
ByLayer
370
18
48
1
60
0
100
AcDbLine
10
6.923205
20
-5.85989
30
0
11
9.076795
21
-5.85989
31
0
39
0
210
0
220
0
230
1
0
LINE
5
B7
100
AcDbEntity
8
1
62
256
6
ByLayer
370
18
48
1
60
0
100
AcDbLine
10
6.923205
20
19.122283
30
0
11
9.076795
21
19.122283
31
0
39
0
210
0
220
0
230
1
0
LINE
5
B8
100
AcDbEntity
8
1
62
256
6
ByLayer
370
18
48
1
60
0
100
AcDbLine
10
9.076795
20
5.85989
30
0
11
6.923205
21
5.85989
31
0
39
0
210
0
220
0
230
1
0
LINE
5
B9
100
AcDbEntity
8
1
62
256
6
ByLayer
370
13
48
1
60
0
100
AcDbLine
10
20.049175
20
-13.915606
30
0
11
20.049175
21
13.915606
31
0
39
0
210
0
220
0
230
1
0
LINE
5
BA
100
AcDbEntity
8
1
62
256
6
ByLayer
370
18
48
1
60
0
100
AcDbLine
10
0.3
20
20
30
0
11
0.3
21
-20
31
0
39
0
210
0
220
0
230
1
0
LINE
5
BB
100
AcDbEntity
8
1
62
256
6
ByLayer
370
18
48
1
60
0
100
AcDbLine
10
0
20
19.7
30
0
11
0
21
-19.7
31
0
39
0
210
0
220
0
230
1
0
LINE
5
BC
100
AcDbEntity
8
1
62
256
6
ByLayer
370
18
48
1
60
0
100
AcDbLine
10
58.609011
20
-24.062217
30
0
11
59.555796
21
-24.004309
31
0
39
0
210
0
220
0
230
1
0
LINE
5
BD
100
AcDbEntity
8
1
62
256
6
ByLayer
370
18
48
1
60
0
100
AcDbLine
10
59.555796
20
-26.995691
30
0
11
58.609011
21
-26.937783
31
0
39
0
210
0
220
0
230
1
0
LINE
5
BE
100
AcDbEntity
8
1
62
256
6
ByLayer
370
18
48
1
60
0
100
AcDbLine
10
59.99999
20
-24.196849
30
0
11
59.99999
21
-26.803151
31
0
39
0
210
0
220
0
230
1
0
LINE
5
BF
100
AcDbEntity
8
1
62
256
6
ByLayer
370
18
48
1
60
0
100
AcDbLine
10
57.851573
20
-24.058705
30
0
11
58.609011
21
-24.062217
31
0
39
0
210
0
220
0
230
1
0
LINE
5
C0
100
AcDbEntity
8
1
62
256
6
ByLayer
370
18
48
1
60
0
100
AcDbLine
10
58.609011
20
-26.937783
30
0
11
57.851573
21
-26.941295
31
0
39
0
210
0
220
0
230
1
0
LINE
5
C1
100
AcDbEntity
8
1
62
256
6
ByLayer
370
18
48
1
60
0
100
AcDbLine
10
58.609011
20
-26.937783
30
0
11
58.609011
21
-24.062217
31
0
39
0
210
0
220
0
230
1
0
LINE
5
C2
100
AcDbEntity
8
1
62
256
6
ByLayer
370
13
48
1
60
0
100
AcDbLine
10
57.18134
20
-25.5
30
0
11
53.749782
21
-25.5
31
0
39
0
210
0
220
0
230
1
0
LINE
5
C3
100
AcDbEntity
8
1
62
256
6
ByLayer
370
13
48
1
60
0
100
AcDbLine
10
56.397706
20
-25.697335
30
0
11
53.670484
21
-25.697335
31
0
39
0
210
0
220
0
230
1
0
LINE
5
C4
100
AcDbEntity
8
1
62
256
6
ByLayer
370
13
48
1
60
0
100
AcDbLine
10
53.670484
20
-25.302665
30
0
11
56.397706
21
-25.302665
31
0
39
0
210
0
220
0
230
1
0
LINE
5
C5
100
AcDbEntity
8
1
62
256
6
ByLayer
370
13
48
1
60
0
100
AcDbLine
10
53.664692
20
-25.299244
30
0
11
56.344414
21
-25.299244
31
0
39
0
210
0
220
0
230
1
0
LINE
5
C6
100
AcDbEntity
8
1
62
256
6
ByLayer
370
13
48
1
60
0
100
AcDbLine
10
53.664692
20
-25.700756
30
0
11
56.344414
21
-25.700756
31
0
39
0
210
0
220
0
230
1
0
LINE
5
C7
100
AcDbEntity
8
1
62
256
6
ByLayer
370
13
48
1
60
0
100
AcDbLine
10
53.580781
20
-25.248976
30
0
11
55.636252
21
-25.248976
31
0
39
0
210
0
220
0
230
1
0
LINE
5
C8
100
AcDbEntity
8
1
62
256
6
ByLayer
370
13
48
1
60
0
100
AcDbLine
10
53.580781
20
-25.751024
30
0
11
55.636252
21
-25.751024
31
0
39
0
210
0
220
0
230
1
0
LINE
5
C9
100
AcDbEntity
8
1
62
256
6
ByLayer
370
13
48
1
60
0
100
AcDbLine
10
53.551458
20
-25.867998
30
0
11
55.024167
21
-25.867998
31
0
39
0
210
0
220
0
230
1
0
LINE
5
CA
100
AcDbEntity
8
1
62
256
6
ByLayer
370
13
48
1
60
0
100
AcDbLine
10
53.551458
20
-25.132002
30
0
11
55.024167
21
-25.132002
31
0
39
0
210
0
220
0
230
1
0
LINE
5
CB
100
AcDbEntity
8
1
62
256
6
ByLayer
370
13
48
1
60
0
100
AcDbLine
10
53.398531
20
-26.475984
30
0
11
53.82005
21
-26.475984
31
0
39
0
210
0
220
0
230
1
0
LINE
5
CC
100
AcDbEntity
8
1
62
256
6
ByLayer
370
18
48
1
60
0
100
AcDbLine
10
56.228061
20
-24.35
30
0
11
53.772487
21
-24.35
31
0
39
0
210
0
220
0
230
1
0
LINE
5
CD
100
AcDbEntity
8
1
62
256
6
ByLayer
370
18
48
1
60
0
100
AcDbLine
10
53.772487
20
-26.65
30
0
11
56.228061
21
-26.65
31
0
39
0
210
0
220
0
230
1
0
LINE
5
CE
100
AcDbEntity
8
1
62
256
6
ByLayer
370
18
48
1
60
0
100
AcDbLine
10
56.472465
20
-24.3198
30
0
11
57.419669
21
-24.081125
31
0
39
0
210
0
220
0
230
1
0
LINE
5
CF
100
AcDbEntity
8
1
62
256
6
ByLayer
370
18
48
1
60
0
100
AcDbLine
10
55.024167
20
-25.132002
30
0
11
53.82005
21
-24.524016
31
0
39
0
210
0
220
0
230
1
0
LINE
5
D0
100
AcDbEntity
8
1
62
256
6
ByLayer
370
18
48
1
60
0
100
AcDbLine
10
56.397706
20
-25.302665
30
0
11
56.344414
21
-25.299244
31
0
39
0
210
0
220
0
230
1
0
LINE
5
D1
100
AcDbEntity
8
1
62
256
6
ByLayer
370
18
48
1
60
0
100
AcDbLine
10
56.344414
20
-25.700756
30
0
11
56.397706
21
-25.697335
31
0
39
0
210
0
220
0
230
1
0
LINE
5
D2
100
AcDbEntity
8
1
62
256
6
ByLayer
370
18
48
1
60
0
100
AcDbLine
10
53.82005
20
-26.475984
30
0
11
55.024167
21
-25.867998
31
0
39
0
210
0
220
0
230
1
0
LINE
5
D3
100
AcDbEntity
8
1
62
256
6
ByLayer
370
18
48
1
60
0
100
AcDbLine
10
57.419669
20
-26.918875
30
0
11
56.472465
21
-26.6802
31
0
39
0
210
0
220
0
230
1
0
LINE
5
D4
100
AcDbEntity
8
1
62
256
6
ByLayer
370
18
48
1
60
0
100
AcDbLine
10
57.851573
20
-26.941295
30
0
11
57.458733
21
-26.924561
31
0
39
0
210
0
220
0
230
1
0
LINE
5
D5
100
AcDbEntity
8
1
62
256
6
ByLayer
370
18
48
1
60
0
100
AcDbLine
10
57.851573
20
-26.941295
30
0
11
57.851573
21
-24.058705
31
0
39
0
210
0
220
0
230
1
0
LINE
5
D6
100
AcDbEntity
8
1
62
256
6
ByLayer
370
18
48
1
60
0
100
AcDbLine
10
57.458733
20
-24.075439
30
0
11
57.851573
21
-24.058705
31
0
39
0
210
0
220
0
230
1
0
LINE
5
D7
100
AcDbEntity
8
1
62
256
6
ByLayer
370
18
48
1
60
0
100
AcDbLine
10
53.354684
20
-26.65
30
0
11
53.772487
21
-26.65
31
0
39
0
210
0
220
0
230
1
0
LINE
5
D8
100
AcDbEntity
8
1
62
256
6
ByLayer
370
18
48
1
60
0
100
AcDbLine
10
53.772487
20
-26.65
30
0
11
53.772487
21
-26.525438
31
0
39
0
210
0
220
0
230
1
0
LINE
5
D9
100
AcDbEntity
8
1
62
256
6
ByLayer
370
13
48
1
60
0
100
AcDbLine
10
53.772487
20
-26.525438
30
0
11
53.386043
21
-26.525438
31
0
39
0
210
0
220
0
230
1
0
LINE
5
DA
100
AcDbEntity
8
1
62
256
6
ByLayer
370
18
48
1
60
0
100
AcDbLine
10
53.772487
20
-24.35
30
0
11
53.355156
21
-24.35
31
0
39
0
210
0
220
0
230
1
0
LINE
5
DB
100
AcDbEntity
8
1
62
256
6
ByLayer
370
18
48
1
60
0
100
AcDbLine
10
53.772487
20
-24.474562
30
0
11
53.772487
21
-24.35
31
0
39
0
210
0
220
0
230
1
0
LINE
5
DC
100
AcDbEntity
8
1
62
256
6
ByLayer
370
13
48
1
60
0
100
AcDbLine
10
53.82005
20
-24.524016
30
0
11
53.39889
21
-24.524016
31
0
39
0
210
0
220
0
230
1
0
LINE
5
DD
100
AcDbEntity
8
1
62
256
6
ByLayer
370
13
48
1
60
0
100
AcDbLine
10
53.386514
20
-24.474562
30
0
11
53.772487
21
-24.474562
31
0
39
0
210
0
220
0
230
1
0
MTEXT
5
16C
100
AcDbEntity
8
SK6
62
256
6
ByLayer
370
18
48
1
60
0
100
AcDbMText
10
-16.808868
20
-59.421284
30
0
210
0
220
0
230
1
1
\W0.7606;C2A-CC4-LFG15B-090CB
40
3.5
41
0
44
1.084337
50
0
71
7
72
5
7
iso_b_vert
0
DIMENSION
5
171
100
AcDbEntity
8
2
62
256
6
ByLayer
370
18
48
1
60
0
100
AcDbDimension
2
_U0
10
86.111264
20
-27
30
0
11
86.111264
21
-13.5
31
0
70
32
71
1
72
1
41
1
210
0
220
0
230
1
3
Standard
100
AcDbAlignedDimension
13
0
23
0
33
0
14
60
24
-27
34
0
50
90
100
AcDbRotatedDimension
1001
ACAD
1000
DSTYLE
1002
{
1070
   371
1070
    13
1070
   372
1070
    13
1070
   170
1070
     0
1070
   144
1040
1.0
1070
   277
1070
     2
1070
   284
1070
     8
1070
   278
1070
    46
1070
   146
1040
1.0
1070
   345
1005
16
1070
   347
1005
16
1070
   346
1005
16
1070
   344
1005
0
1070
   343
1005
0
1070
   172
1070
     1
1070
    76
1070
     0
1070
    75
1070
     0
1070
   282
1070
     0
1070
   281
1070
     0
1070
    71
1070
     0
1070
    74
1070
     0
1070
   279
1070
     0
1070
   173
1070
     1
1070
   340
1005
16D
1070
   271
1070
     2
1070
   272
1070
     2
1070
    77
1070
     1
1070
    73
1070
     0
1070
   171
1070
     3
1070
   274
1070
     4
1070
   177
1070
     2
1070
   176
1070
     2
1070
   178
1070
     2
1070
    78
1070
     8
1070
    48
1040
-0.1
1070
    41
1040
3.5
1070
   147
1040
1.75
1070
    42
1040
1.5875
1070
    44
1040
2.0
1070
   140
1040
3.5
1002
}
1001
ACAD_DSTYLE_DIM_LINETYPE
1070
   380
1005
16
1001
ACAD_DSTYLE_DIM_EXT1_LINETYPE
1070
   381
1005
16
1001
ACAD_DSTYLE_DIM_EXT2_LINETYPE
1070
   382
1005
16
0
DIMENSION
5
18B
100
AcDbEntity
8
2
62
256
6
ByLayer
370
18
48
1
60
0
100
AcDbDimension
2
_U1
10
75.111264
20
-27
30
0
11
75.111264
21
-25.5
31
0
70
32
71
1
72
1
41
1
210
0
220
0
230
1
3
Standard
100
AcDbAlignedDimension
13
60
23
-24
33
0
14
60
24
-27
34
0
50
90
100
AcDbRotatedDimension
1001
ACAD
1000
DSTYLE
1002
{
1070
   371
1070
    13
1070
   372
1070
    13
1070
   170
1070
     0
1070
   144
1040
1.0
1070
   277
1070
     2
1070
   284
1070
     8
1070
   278
1070
    46
1070
   146
1040
1.0
1070
   345
1005
16
1070
   347
1005
16
1070
   346
1005
16
1070
   344
1005
0
1070
   343
1005
0
1070
   172
1070
     1
1070
    76
1070
     0
1070
    75
1070
     0
1070
   282
1070
     0
1070
   281
1070
     0
1070
    71
1070
     0
1070
    74
1070
     0
1070
   279
1070
     0
1070
   173
1070
     1
1070
   340
1005
16D
1070
   271
1070
     2
1070
   272
1070
     2
1070
    77
1070
     1
1070
    73
1070
     0
1070
   171
1070
     3
1070
   274
1070
     4
1070
   177
1070
     2
1070
   176
1070
     2
1070
   178
1070
     2
1070
    78
1070
     8
1070
    48
1040
-0.1
1070
    41
1040
3.5
1070
   147
1040
1.75
1070
    42
1040
1.5875
1070
    44
1040
2.0
1070
   140
1040
3.5
1002
}
1001
ACAD_DSTYLE_DIM_LINETYPE
1070
   380
1005
16
1001
ACAD_DSTYLE_DIM_EXT1_LINETYPE
1070
   381
1005
16
1001
ACAD_DSTYLE_DIM_EXT2_LINETYPE
1070
   382
1005
16
0
DIMENSION
5
1A4
100
AcDbEntity
8
SK2
62
256
6
ByLayer
370
18
48
1
60
0
100
AcDbDimension
2
_U2
10
-36.6
20
20
30
0
11
-36.6
21
0
31
0
70
32
71
1
72
1
41
1
210
0
220
0
230
1
3
Standard
100
AcDbAlignedDimension
13
0
23
-20
33
0
14
0
24
20
34
0
50
90
100
AcDbRotatedDimension
1001
ACAD
1000
DSTYLE
1002
{
1070
   371
1070
    13
1070
   372
1070
    13
1070
   170
1070
     0
1070
   144
1040
1.0
1070
   277
1070
     2
1070
   284
1070
     8
1070
   278
1070
    46
1070
   146
1040
1.0
1070
   345
1005
16
1070
   347
1005
16
1070
   346
1005
16
1070
   344
1005
0
1070
   343
1005
0
1070
   172
1070
     1
1070
    76
1070
     0
1070
    75
1070
     0
1070
   282
1070
     0
1070
   281
1070
     0
1070
    71
1070
     0
1070
    74
1070
     0
1070
   279
1070
     0
1070
   173
1070
     1
1070
   340
1005
16D
1070
   271
1070
     2
1070
   272
1070
     2
1070
    77
1070
     1
1070
    73
1070
     0
1070
   171
1070
     3
1070
   274
1070
     4
1070
   177
1070
     2
1070
   176
1070
     2
1070
   178
1070
     2
1070
    78
1070
     8
1070
    48
1040
-0.1
1070
    41
1040
3.5
1070
   147
1040
1.75
1070
    42
1040
1.5875
1070
    44
1040
2.0
1070
   140
1040
3.5
1002
}
1001
ACAD_DSTYLE_DIM_LINETYPE
1070
   380
1005
16
1001
ACAD_DSTYLE_DIM_EXT1_LINETYPE
1070
   381
1005
16
1001
ACAD_DSTYLE_DIM_EXT2_LINETYPE
1070
   382
1005
16
0
DIMENSION
5
1BD
100
AcDbEntity
8
2
62
256
6
ByLayer
370
18
48
1
60
0
100
AcDbDimension
2
_U3
10
60
20
31.75
30
0
11
52.5
21
31.75
31
0
70
32
71
1
72
1
41
1
210
0
220
0
230
1
3
Standard
100
AcDbAlignedDimension
13
45
23
-25.5
33
0
14
60
24
-25.5
34
0
50
0
100
AcDbRotatedDimension
1001
ACAD
1000
DSTYLE
1002
{
1070
   371
1070
    13
1070
   372
1070
    13
1070
   170
1070
     0
1070
   144
1040
1.0
1070
   277
1070
     2
1070
   284
1070
     8
1070
   278
1070
    46
1070
   146
1040
1.0
1070
   345
1005
16
1070
   347
1005
16
1070
   346
1005
16
1070
   344
1005
0
1070
   343
1005
0
1070
   172
1070
     1
1070
    76
1070
     0
1070
    75
1070
     0
1070
   282
1070
     0
1070
   281
1070
     0
1070
    71
1070
     0
1070
    74
1070
     0
1070
   279
1070
     0
1070
   173
1070
     1
1070
   340
1005
16D
1070
   271
1070
     1
1070
   272
1070
     2
1070
    77
1070
     1
1070
    73
1070
     1
1070
   171
1070
     3
1070
   274
1070
     4
1070
   177
1070
     2
1070
   176
1070
     2
1070
   178
1070
     2
1070
    78
1070
     8
1070
    48
1040
-0.1
1070
    41
1040
3.5
1070
   147
1040
1.75
1070
    42
1040
1.5875
1070
    44
1040
2.0
1070
   140
1040
3.5
1002
}
1001
ACAD_DSTYLE_DIM_LINETYPE
1070
   380
1005
16
1001
ACAD_DSTYLE_DIM_EXT1_LINETYPE
1070
   381
1005
16
1001
ACAD_DSTYLE_DIM_EXT2_LINETYPE
1070
   382
1005
16
0
DIMENSION
5
1D6
100
AcDbEntity
8
2
62
256
6
ByLayer
370
18
48
1
60
0
100
AcDbDimension
2
_U4
10
60
20
-45.75
30
0
11
30
21
-45.75
31
0
70
32
71
1
72
1
41
1
210
0
220
0
230
1
3
Standard
100
AcDbAlignedDimension
13
0
23
-20
33
0
14
60
24
-27
34
0
50
0
100
AcDbRotatedDimension
1001
ACAD
1000
DSTYLE
1002
{
1070
   371
1070
    13
1070
   372
1070
    13
1070
   170
1070
     0
1070
   144
1040
1.0
1070
   277
1070
     2
1070
   284
1070
     8
1070
   278
1070
    46
1070
   146
1040
1.0
1070
   345
1005
16
1070
   347
1005
16
1070
   346
1005
16
1070
   344
1005
0
1070
   343
1005
0
1070
   172
1070
     1
1070
    76
1070
     0
1070
    75
1070
     0
1070
   282
1070
     0
1070
   281
1070
     0
1070
    71
1070
     0
1070
    74
1070
     0
1070
   279
1070
     0
1070
   173
1070
     1
1070
   340
1005
16D
1070
   271
1070
     1
1070
   272
1070
     2
1070
    77
1070
     1
1070
    73
1070
     1
1070
   171
1070
     3
1070
   274
1070
     4
1070
   177
1070
     2
1070
   176
1070
     2
1070
   178
1070
     2
1070
    78
1070
     8
1070
    48
1040
-0.1
1070
    41
1040
3.5
1070
   147
1040
1.75
1070
    42
1040
1.5875
1070
    44
1040
2.0
1070
   140
1040
3.5
1002
}
1001
ACAD_DSTYLE_DIM_LINETYPE
1070
   380
1005
16
1001
ACAD_DSTYLE_DIM_EXT1_LINETYPE
1070
   381
1005
16
1001
ACAD_DSTYLE_DIM_EXT2_LINETYPE
1070
   382
1005
16
0
ENDSEC
0
SECTION
2
OBJECTS
0
DICTIONARY
5
25c
330
0
100
AcDbDictionary
280
0
281
1
3
ACAD_GROUP
350
25d
3
ACAD_MLINESTYLE
350
25e
0
DICTIONARY
5
25d
330
0
100
AcDbDictionary
280
0
281
1
0
DICTIONARY
5
25e
330
0
100
AcDbDictionary
280
0
281
1
3
Standard
350
18
0
MLINESTYLE
5
18
330
25e
100
AcDbMlineStyle
2
Standard
70
0
3

62
256
51
90
52
90
71
2
49
-0.5
62
256
6
ByLayer
49
0.5
62
256
6
ByLayer
0
RASTERVARIABLES
5
24c
330

100
AcDbRasterVariables
90
0
70
1
71
1
72
1
0
ENDSEC
0
EOF
