0
SECTION
2
HEADER
9
$ACADVER
1
AC1015
9
$DWGCODEPAGE
3
ANSI_1252
9
$HANDSEED
5
26e
9
$ANGBASE
50
0
9
$ANGDIR
70
0
9
$ATTMODE
70
1
9
$AUNITS
70
0
9
$AUPREC
70
0
9
$CECOLOR
62
256
9
$CELTSCALE
40
1
9
$CELTYPE
6
ByLayer
9
$CELWEIGHT
370
18
9
$CLAYER
8
0
9
$CMLJUST
70
0
9
$CMLSCALE
40
1
9
$CMLSTYLE
2
Standard
9
$DIMSTYLE
2
Standard
9
$TEXTSIZE
40
0.2
9
$TEXTSTYLE
7
Standard
9
$LUNITS
70
2
9
$LUPREC
70
4
9
$EXTNAMES
290
1
9
$INSUNITS
70
4
9
$LTSCALE
40
1
9
$LWDISPLAY
290
1
9
$PDMODE
70
0
9
$PDSIZE
40
0
9
$PLINEGEN
70
0
0
ENDSEC
0
SECTION
2
CLASSES
0
CLASS
1
RASTERVARIABLES
2
AcDbRasterVariables
3
ISM
90
0
280
0
281
0
0
ENDSEC
0
SECTION
2
TABLES
0
TABLE
2
VPORT
5
264
100
AcDbSymbolTable
0
VPORT
5
1
100
AcDbSymbolTableRecord
100
AcDbViewportTableRecord
2
*Active
70
0
10
0
20
0
11
1
21
1
12
-1
22
1
13
0
23
0
14
0.5
24
0.5
15
10
25
10
16
0
26
0
36
1
17
0
27
0
37
0
0
ENDTAB
0
TABLE
2
LTYPE
5
265
100
AcDbSymbolTable
0
LTYPE
5
14
100
AcDbSymbolTableRecord
100
AcDbLinetypeTableRecord
70
0
2
ByBlock
3

72
65
73
0
40
0
0
LTYPE
5
15
100
AcDbSymbolTableRecord
100
AcDbLinetypeTableRecord
70
0
2
ByLayer
3

72
65
73
0
40
0
0
LTYPE
5
16
100
AcDbSymbolTableRecord
100
AcDbLinetypeTableRecord
70
0
2
Continuous
3
Solid line
72
65
73
0
40
0
0
LTYPE
5
6E
100
AcDbSymbolTableRecord
100
AcDbLinetypeTableRecord
70
0
2
CENTER
3
____ _ ____ _ ____ _ ____
72
65
73
4
40
47.5
49
22
74
0
49
-8.5
74
0
49
8.5
74
0
49
-8.5
74
0
0
LTYPE
5
6F
100
AcDbSymbolTableRecord
100
AcDbLinetypeTableRecord
70
0
2
DASHED
3
__ __ __ __ __ __ __ __ __
72
65
73
2
40
25.72
49
12.86
74
0
49
-12.86
74
0
0
ENDTAB
0
TABLE
2
LAYER
5
266
100
AcDbSymbolTable
0
LAYER
5
10
100
AcDbSymbolTableRecord
100
AcDbLayerTableRecord
2
0
70
0
62
7
6
Continuous
290
1
370
-3
390
0
0
LAYER
5
71
100
AcDbSymbolTableRecord
100
AcDbLayerTableRecord
2
1
70
0
62
4
6
Continuous
290
1
370
-3
390
0
0
LAYER
5
73
100
AcDbSymbolTableRecord
100
AcDbLayerTableRecord
2
81
70
0
62
-3
6
Continuous
290
1
370
-3
390
0
0
LAYER
5
75
100
AcDbSymbolTableRecord
100
AcDbLayerTableRecord
2
80
70
0
62
-6
6
Continuous
290
1
370
-3
390
0
0
LAYER
5
179
100
AcDbSymbolTableRecord
100
AcDbLayerTableRecord
2
Defpoints
70
0
62
7
6
Continuous
290
0
370
-3
390
0
0
LAYER
5
186
100
AcDbSymbolTableRecord
100
AcDbLayerTableRecord
2
2
70
0
62
7
6
Continuous
290
1
370
-3
390
0
0
LAYER
5
252
100
AcDbSymbolTableRecord
100
AcDbLayerTableRecord
2
SK6
70
0
62
5
6
Continuous
290
1
370
-3
390
0
0
LAYER
5
253
100
AcDbSymbolTableRecord
100
AcDbLayerTableRecord
2
SK2
70
0
62
7
6
Continuous
290
1
370
-3
390
0
0
ENDTAB
0
TABLE
2
STYLE
5
267
100
AcDbSymbolTable
0
STYLE
5
11
100
AcDbSymbolTableRecord
100
AcDbTextStyleTableRecord
2
Standard
3
txt
70
0
71
0
40
0
41
1
42
0
50
0
0
STYLE
5
172
100
AcDbSymbolTableRecord
100
AcDbTextStyleTableRecord
2
iso_b_vert
3
simplex.shx
70
0
71
0
40
0
41
1
42
0
50
0
0
STYLE
5
173
100
AcDbSymbolTableRecord
100
AcDbTextStyleTableRecord
2
DWGDirectTextStyle
3
simplex
70
0
71
0
40
0
41
1
42
0
50
0
0
ENDTAB
0
TABLE
2
DIMSTYLE
5
268
100
AcDbSymbolTable
100
AcDbDimStyleTable
0
DIMSTYLE
105
27
100
AcDbSymbolTableRecord
100
AcDbDimStyleTableRecord
2
Standard
70
0
3
<>
41
0.18
42
0.0625
44
0.18
140
0.18
147
0.09
73
0
74
0
77
1
271
2
275
0
278
52
280
0
340
11
0
ENDTAB
0
TABLE
2
VIEW
5
269
100
AcDbSymbolTable
0
ENDTAB
0
TABLE
2
UCS
5
26a
100
AcDbSymbolTable
0
ENDTAB
0
TABLE
2
APPID
5
26b
100
AcDbSymbolTable
0
APPID
5
12
100
AcDbSymbolTableRecord
100
AcDbRegAppTableRecord
2
ACAD
70
0
0
APPID
5
175
100
AcDbSymbolTableRecord
100
AcDbRegAppTableRecord
2
ACAD_DSTYLE_DIMBREAK
70
0
0
APPID
5
211
100
AcDbSymbolTableRecord
100
AcDbRegAppTableRecord
2
ACAD_DSTYLE_DIM_LINETYPE
70
0
0
APPID
5
212
100
AcDbSymbolTableRecord
100
AcDbRegAppTableRecord
2
ACAD_DSTYLE_DIM_EXT1_LINETYPE
70
0
0
APPID
5
213
100
AcDbSymbolTableRecord
100
AcDbRegAppTableRecord
2
ACAD_DSTYLE_DIM_EXT2_LINETYPE
70
0
0
APPID
5
24E
100
AcDbSymbolTableRecord
100
AcDbRegAppTableRecord
2
ACAD_MLEADERVER
70
0
0
ENDTAB
0
TABLE
2
BLOCK_RECORD
5
26c
100
AcDbSymbolTable
0
BLOCK_RECORD
5
1F
100
AcDbSymbolTableRecord
100
AcDbBlockTableRecord
2
*Model_Space
340
0
70
0
0
BLOCK_RECORD
5
1B
100
AcDbSymbolTableRecord
100
AcDbBlockTableRecord
2
*Paper_Space
340
0
70
0
0
BLOCK_RECORD
5
23
100
AcDbSymbolTableRecord
100
AcDbBlockTableRecord
2
*Paper_Space0
340
0
70
0
0
BLOCK_RECORD
5
17A
100
AcDbSymbolTableRecord
100
AcDbBlockTableRecord
2
*D1
340
0
70
0
0
BLOCK_RECORD
5
187
100
AcDbSymbolTableRecord
100
AcDbBlockTableRecord
2
_U0
340
0
70
0
0
BLOCK_RECORD
5
193
100
AcDbSymbolTableRecord
100
AcDbBlockTableRecord
2
*D3
340
0
70
0
0
BLOCK_RECORD
5
1A0
100
AcDbSymbolTableRecord
100
AcDbBlockTableRecord
2
_U1
340
0
70
0
0
BLOCK_RECORD
5
1AC
100
AcDbSymbolTableRecord
100
AcDbBlockTableRecord
2
*D5
340
0
70
0
0
BLOCK_RECORD
5
1B9
100
AcDbSymbolTableRecord
100
AcDbBlockTableRecord
2
_U2
340
0
70
0
0
BLOCK_RECORD
5
1C5
100
AcDbSymbolTableRecord
100
AcDbBlockTableRecord
2
*D7
340
0
70
0
0
BLOCK_RECORD
5
1D2
100
AcDbSymbolTableRecord
100
AcDbBlockTableRecord
2
_U3
340
0
70
0
0
BLOCK_RECORD
5
1DE
100
AcDbSymbolTableRecord
100
AcDbBlockTableRecord
2
*D9
340
0
70
0
0
BLOCK_RECORD
5
1EA
100
AcDbSymbolTableRecord
100
AcDbBlockTableRecord
2
_U4
340
0
70
0
0
ENDTAB
0
ENDSEC
0
SECTION
2
BLOCKS
0
BLOCK
5
20
100
AcDbEntity
8
0
100
AcDbBlockBegin
2
*Model_Space
70
0
10
0
20
0
30
0
3
*Model_Space
0
ENDBLK
5
21
100
AcDbEntity
8
0
100
AcDbBlockEnd
0
BLOCK
5
1C
100
AcDbEntity
8
0
100
AcDbBlockBegin
2
*Paper_Space
70
0
10
0
20
0
30
0
3
*Paper_Space
0
ENDBLK
5
1D
100
AcDbEntity
8
0
100
AcDbBlockEnd
0
BLOCK
5
24
100
AcDbEntity
8
0
100
AcDbBlockBegin
2
*Paper_Space0
70
0
10
0
20
0
30
0
3
*Paper_Space0
0
ENDBLK
5
25
100
AcDbEntity
8
0
100
AcDbBlockEnd
0
BLOCK
5
17B
100
AcDbEntity
8
0
100
AcDbBlockBegin
2
*D1
70
1
10
0
20
0
30
0
3
*D1
0
LINE
5
17D
100
AcDbEntity
8
0
62
256
6
ByLayer
370
-2
48
1
60
0
100
AcDbLine
10
1.5875
20
0
30
0
11
88.111264
21
0
31
0
39
0
210
0
220
0
230
1
0
LINE
5
17E
100
AcDbEntity
8
0
62
256
6
ByLayer
370
-2
48
1
60
0
100
AcDbLine
10
61.5875
20
-27
30
0
11
88.111264
21
-27
31
0
39
0
210
0
220
0
230
1
0
LINE
5
17F
100
AcDbEntity
8
0
62
256
6
ByLayer
370
-2
48
1
60
0
100
AcDbLine
10
86.111264
20
-3.5
30
0
11
86.111264
21
-23.5
31
0
39
0
210
0
220
0
230
1
0
SOLID
5
180
100
AcDbEntity
8
0
62
256
6
ByLayer
370
-1
48
1
60
0
100
AcDbTrace
10
86.694598
20
-3.5
30
0
11
85.527931
21
-3.5
31
0
12
86.111264
22
0
32
0
13
86.111264
23
0
33
0
39
0
210
0
220
0
230
1
0
SOLID
5
181
100
AcDbEntity
8
0
62
256
6
ByLayer
370
-1
48
1
60
0
100
AcDbTrace
10
85.527931
20
-23.5
30
0
11
86.694598
21
-23.5
31
0
12
86.111264
22
-27
32
0
13
86.111264
23
-27
33
0
39
0
210
0
220
0
230
1
0
MTEXT
5
182
100
AcDbEntity
8
0
62
256
6
ByLayer
370
18
48
1
60
0
100
AcDbMText
10
79.111264
20
-13.5
30
0
210
0
220
0
230
1
1
\A1;27
40
3.5
41
0
44
1
50
90
71
5
72
5
7
iso_b_vert
0
POINT
5
183
100
AcDbEntity
8
Defpoints
62
0
6
ByLayer
370
-1
48
1
60
0
100
AcDbPoint
10
0
20
0
30
0
39
0
210
0
220
0
230
1
50
360
0
POINT
5
184
100
AcDbEntity
8
Defpoints
62
0
6
ByLayer
370
-1
48
1
60
0
100
AcDbPoint
10
60
20
-27
30
0
39
0
210
0
220
0
230
1
50
360
0
POINT
5
185
100
AcDbEntity
8
Defpoints
62
0
6
ByLayer
370
-1
48
1
60
0
100
AcDbPoint
10
86.111264
20
-27
30
0
39
0
210
0
220
0
230
1
50
360
0
ENDBLK
5
17C
100
AcDbEntity
8
0
100
AcDbBlockEnd
0
BLOCK
5
18E
100
AcDbEntity
8
0
100
AcDbBlockBegin
2
_U0
70
0
10
0
20
0
30
0
3
_U0
0
MTEXT
5
188
100
AcDbEntity
8
2
62
256
6
ByLayer
370
18
48
1
60
0
100
AcDbMText
10
85.421631
20
-15.432966
30
0
210
0
220
0
230
1
1
\W0.6740;27
40
3.5
41
0
44
1.084337
50
90
71
7
72
5
7
iso_b_vert
0
LINE
5
189
100
AcDbEntity
8
2
62
256
6
ByLayer
370
13
48
1
60
0
100
AcDbLine
10
1.5875
20
0
30
0
11
88.111264
21
0
31
0
39
0
210
0
220
0
230
1
0
LINE
5
18A
100
AcDbEntity
8
2
62
256
6
ByLayer
370
13
48
1
60
0
100
AcDbLine
10
61.5875
20
-27
30
0
11
88.111264
21
-27
31
0
39
0
210
0
220
0
230
1
0
LINE
5
18B
100
AcDbEntity
8
2
62
256
6
ByLayer
370
13
48
1
60
0
100
AcDbLine
10
86.111264
20
0
30
0
11
86.111264
21
-27
31
0
39
0
210
0
220
0
230
1
0
SOLID
5
18C
100
AcDbEntity
8
2
62
256
6
ByLayer
370
18
48
1
60
0
100
AcDbTrace
10
86.111264
20
0
30
0
11
86.572048
21
-3.499998
31
0
12
85.65048
22
-3.500002
32
0
13
85.65048
23
-3.500002
33
0
39
0
210
0
220
0
230
1
0
SOLID
5
18D
100
AcDbEntity
8
2
62
256
6
ByLayer
370
18
48
1
60
0
100
AcDbTrace
10
86.111264
20
-27
30
0
11
85.65048
21
-23.500002
31
0
12
86.572048
22
-23.499998
32
0
13
86.572048
23
-23.499998
33
0
39
0
210
0
220
0
230
1
0
ENDBLK
5
18F
100
AcDbEntity
8
0
100
AcDbBlockEnd
0
BLOCK
5
194
100
AcDbEntity
8
0
100
AcDbBlockBegin
2
*D3
70
1
10
0
20
0
30
0
3
*D3
0
LINE
5
196
100
AcDbEntity
8
0
62
256
6
ByLayer
370
-2
48
1
60
0
100
AcDbLine
10
61.5875
20
-24.000082
30
0
11
77.111264
21
-24.000082
31
0
39
0
210
0
220
0
230
1
0
LINE
5
197
100
AcDbEntity
8
0
62
256
6
ByLayer
370
-2
48
1
60
0
100
AcDbLine
10
61.5875
20
-27
30
0
11
77.111264
21
-27
31
0
39
0
210
0
220
0
230
1
0
LINE
5
198
100
AcDbEntity
8
0
62
256
6
ByLayer
370
-2
48
1
60
0
100
AcDbLine
10
75.111264
20
-20.500082
30
0
11
75.111264
21
-17.000082
31
0
39
0
210
0
220
0
230
1
0
LINE
5
199
100
AcDbEntity
8
0
62
256
6
ByLayer
370
-2
48
1
60
0
100
AcDbLine
10
75.111264
20
-30.5
30
0
11
75.111264
21
-34
31
0
39
0
210
0
220
0
230
1
0
SOLID
5
19A
100
AcDbEntity
8
0
62
256
6
ByLayer
370
-1
48
1
60
0
100
AcDbTrace
10
74.527931
20
-20.500082
30
0
11
75.694598
21
-20.500082
31
0
12
75.111264
22
-24.000082
32
0
13
75.111264
23
-24.000082
33
0
39
0
210
0
220
0
230
1
0
SOLID
5
19B
100
AcDbEntity
8
0
62
256
6
ByLayer
370
-1
48
1
60
0
100
AcDbTrace
10
75.694598
20
-30.5
30
0
11
74.527931
21
-30.5
31
0
12
75.111264
22
-27
32
0
13
75.111264
23
-27
33
0
39
0
210
0
220
0
230
1
0
MTEXT
5
19C
100
AcDbEntity
8
0
62
256
6
ByLayer
370
18
48
1
60
0
100
AcDbMText
10
68.111264
20
-25.500041
30
0
210
0
220
0
230
1
1
\A1;3
40
3.5
41
0
44
1
50
90
71
5
72
5
7
iso_b_vert
0
POINT
5
19D
100
AcDbEntity
8
Defpoints
62
0
6
ByLayer
370
-1
48
1
60
0
100
AcDbPoint
10
60
20
-24.000082
30
0
39
0
210
0
220
0
230
1
50
360
0
POINT
5
19E
100
AcDbEntity
8
Defpoints
62
0
6
ByLayer
370
-1
48
1
60
0
100
AcDbPoint
10
60
20
-27
30
0
39
0
210
0
220
0
230
1
50
360
0
POINT
5
19F
100
AcDbEntity
8
Defpoints
62
0
6
ByLayer
370
-1
48
1
60
0
100
AcDbPoint
10
75.111264
20
-27
30
0
39
0
210
0
220
0
230
1
50
360
0
ENDBLK
5
195
100
AcDbEntity
8
0
100
AcDbBlockEnd
0
BLOCK
5
1A7
100
AcDbEntity
8
0
100
AcDbBlockBegin
2
_U1
70
0
10
0
20
0
30
0
3
_U1
0
MTEXT
5
1A1
100
AcDbEntity
8
2
62
256
6
ByLayer
370
18
48
1
60
0
100
AcDbMText
10
74.421631
20
-26.125274
30
0
210
0
220
0
230
1
1
\W0.5404;3
40
3.5
41
0
44
1.084337
50
90
71
7
72
5
7
iso_b_vert
0
LINE
5
1A2
100
AcDbEntity
8
2
62
256
6
ByLayer
370
13
48
1
60
0
100
AcDbLine
10
61.5875
20
-24.000082
30
0
11
77.111264
21
-24.000082
31
0
39
0
210
0
220
0
230
1
0
LINE
5
1A3
100
AcDbEntity
8
2
62
256
6
ByLayer
370
13
48
1
60
0
100
AcDbLine
10
61.5875
20
-27
30
0
11
77.111264
21
-27
31
0
39
0
210
0
220
0
230
1
0
LINE
5
1A4
100
AcDbEntity
8
2
62
256
6
ByLayer
370
13
48
1
60
0
100
AcDbLine
10
75.111264
20
-15.250082
30
0
11
75.111264
21
-35.75
31
0
39
0
210
0
220
0
230
1
0
SOLID
5
1A5
100
AcDbEntity
8
2
62
256
6
ByLayer
370
18
48
1
60
0
100
AcDbTrace
10
75.111264
20
-24.000082
30
0
11
74.65048
21
-20.500084
31
0
12
75.572048
22
-20.500081
32
0
13
75.572048
23
-20.500081
33
0
39
0
210
0
220
0
230
1
0
SOLID
5
1A6
100
AcDbEntity
8
2
62
256
6
ByLayer
370
18
48
1
60
0
100
AcDbTrace
10
75.111264
20
-27
30
0
11
75.572048
21
-30.499998
31
0
12
74.65048
22
-30.500002
32
0
13
74.65048
23
-30.500002
33
0
39
0
210
0
220
0
230
1
0
ENDBLK
5
1A8
100
AcDbEntity
8
0
100
AcDbBlockEnd
0
BLOCK
5
1AD
100
AcDbEntity
8
0
100
AcDbBlockBegin
2
*D5
70
1
10
0
20
0
30
0
3
*D5
0
LINE
5
1AF
100
AcDbEntity
8
0
62
256
6
ByLayer
370
-2
48
1
60
0
100
AcDbLine
10
-1.5875
20
-20
30
0
11
-38.6
21
-20
31
0
39
0
210
0
220
0
230
1
0
LINE
5
1B0
100
AcDbEntity
8
0
62
256
6
ByLayer
370
-2
48
1
60
0
100
AcDbLine
10
-1.5875
20
20
30
0
11
-38.6
21
20
31
0
39
0
210
0
220
0
230
1
0
LINE
5
1B1
100
AcDbEntity
8
0
62
256
6
ByLayer
370
-2
48
1
60
0
100
AcDbLine
10
-36.6
20
-16.5
30
0
11
-36.6
21
16.5
31
0
39
0
210
0
220
0
230
1
0
SOLID
5
1B2
100
AcDbEntity
8
0
62
256
6
ByLayer
370
-1
48
1
60
0
100
AcDbTrace
10
-37.183333
20
-16.5
30
0
11
-36.016667
21
-16.5
31
0
12
-36.6
22
-20
32
0
13
-36.6
23
-20
33
0
39
0
210
0
220
0
230
1
0
SOLID
5
1B3
100
AcDbEntity
8
0
62
256
6
ByLayer
370
-1
48
1
60
0
100
AcDbTrace
10
-36.016667
20
16.5
30
0
11
-37.183333
21
16.5
31
0
12
-36.6
22
20
32
0
13
-36.6
23
20
33
0
39
0
210
0
220
0
230
1
0
MTEXT
5
1B4
100
AcDbEntity
8
0
62
256
6
ByLayer
370
18
48
1
60
0
100
AcDbMText
10
-43.6
20
0
30
0
210
0
220
0
230
1
1
\A1;40
40
3.5
41
0
44
1
50
90
71
5
72
5
7
iso_b_vert
0
POINT
5
1B5
100
AcDbEntity
8
Defpoints
62
0
6
ByLayer
370
-1
48
1
60
0
100
AcDbPoint
10
0
20
-20
30
0
39
0
210
0
220
0
230
1
50
360
0
POINT
5
1B6
100
AcDbEntity
8
Defpoints
62
0
6
ByLayer
370
-1
48
1
60
0
100
AcDbPoint
10
0
20
20
30
0
39
0
210
0
220
0
230
1
50
360
0
POINT
5
1B7
100
AcDbEntity
8
Defpoints
62
0
6
ByLayer
370
-1
48
1
60
0
100
AcDbPoint
10
-36.6
20
20
30
0
39
0
210
0
220
0
230
1
50
360
0
ENDBLK
5
1AE
100
AcDbEntity
8
0
100
AcDbBlockEnd
0
BLOCK
5
1C0
100
AcDbEntity
8
0
100
AcDbBlockBegin
2
_U2
70
0
10
0
20
0
30
0
3
_U2
0
MTEXT
5
1BA
100
AcDbEntity
8
SK2
62
256
6
ByLayer
370
18
48
1
60
0
100
AcDbMText
10
-37.289634
20
-2.117233
30
0
210
0
220
0
230
1
1
\W0.7361;40
40
3.5
41
0
44
1.084337
50
90
71
7
72
5
7
iso_b_vert
0
LINE
5
1BB
100
AcDbEntity
8
SK2
62
256
6
ByLayer
370
13
48
1
60
0
100
AcDbLine
10
-1.5875
20
-20
30
0
11
-38.6
21
-20
31
0
39
0
210
0
220
0
230
1
0
LINE
5
1BC
100
AcDbEntity
8
SK2
62
256
6
ByLayer
370
13
48
1
60
0
100
AcDbLine
10
-1.5875
20
20
30
0
11
-38.6
21
20
31
0
39
0
210
0
220
0
230
1
0
LINE
5
1BD
100
AcDbEntity
8
SK2
62
256
6
ByLayer
370
13
48
1
60
0
100
AcDbLine
10
-36.6
20
-20
30
0
11
-36.6
21
20
31
0
39
0
210
0
220
0
230
1
0
SOLID
5
1BE
100
AcDbEntity
8
SK2
62
256
6
ByLayer
370
18
48
1
60
0
100
AcDbTrace
10
-36.6
20
-20
30
0
11
-37.060784
21
-16.500002
31
0
12
-36.139216
22
-16.499998
32
0
13
-36.139216
23
-16.499998
33
0
39
0
210
0
220
0
230
1
0
SOLID
5
1BF
100
AcDbEntity
8
SK2
62
256
6
ByLayer
370
18
48
1
60
0
100
AcDbTrace
10
-36.6
20
20
30
0
11
-36.139216
21
16.500002
31
0
12
-37.060784
22
16.499998
32
0
13
-37.060784
23
16.499998
33
0
39
0
210
0
220
0
230
1
0
ENDBLK
5
1C1
100
AcDbEntity
8
0
100
AcDbBlockEnd
0
BLOCK
5
1C6
100
AcDbEntity
8
0
100
AcDbBlockBegin
2
*D7
70
1
10
0
20
0
30
0
3
*D7
0
LINE
5
1C8
100
AcDbEntity
8
0
62
256
6
ByLayer
370
-2
48
1
60
0
100
AcDbLine
10
45
20
-23.912582
30
0
11
45
21
33.749918
31
0
39
0
210
0
220
0
230
1
0
LINE
5
1C9
100
AcDbEntity
8
0
62
256
6
ByLayer
370
-2
48
1
60
0
100
AcDbLine
10
60
20
-23.912582
30
0
11
60
21
33.749918
31
0
39
0
210
0
220
0
230
1
0
LINE
5
1CA
100
AcDbEntity
8
0
62
256
6
ByLayer
370
-2
48
1
60
0
100
AcDbLine
10
41.5
20
31.749918
30
0
11
38
21
31.749918
31
0
39
0
210
0
220
0
230
1
0
LINE
5
1CB
100
AcDbEntity
8
0
62
256
6
ByLayer
370
-2
48
1
60
0
100
AcDbLine
10
63.5
20
31.749918
30
0
11
67
21
31.749918
31
0
39
0
210
0
220
0
230
1
0
SOLID
5
1CC
100
AcDbEntity
8
0
62
256
6
ByLayer
370
-1
48
1
60
0
100
AcDbTrace
10
41.5
20
31.166584
30
0
11
41.5
21
32.333251
31
0
12
45
22
31.749918
32
0
13
45
23
31.749918
33
0
39
0
210
0
220
0
230
1
0
SOLID
5
1CD
100
AcDbEntity
8
0
62
256
6
ByLayer
370
-1
48
1
60
0
100
AcDbTrace
10
63.5
20
32.333251
30
0
11
63.5
21
31.166584
31
0
12
60
22
31.749918
32
0
13
60
23
31.749918
33
0
39
0
210
0
220
0
230
1
0
MTEXT
5
1CE
100
AcDbEntity
8
0
62
256
6
ByLayer
370
18
48
1
60
0
100
AcDbMText
10
52.5
20
38.749918
30
0
210
0
220
0
230
1
1
\A1;15
40
3.5
41
0
44
1
50
0
71
5
72
5
7
iso_b_vert
0
POINT
5
1CF
100
AcDbEntity
8
Defpoints
62
0
6
ByLayer
370
-1
48
1
60
0
100
AcDbPoint
10
45
20
-25.500082
30
0
39
0
210
0
220
0
230
1
50
360
0
POINT
5
1D0
100
AcDbEntity
8
Defpoints
62
0
6
ByLayer
370
-1
48
1
60
0
100
AcDbPoint
10
60
20
-25.500082
30
0
39
0
210
0
220
0
230
1
50
360
0
POINT
5
1D1
100
AcDbEntity
8
Defpoints
62
0
6
ByLayer
370
-1
48
1
60
0
100
AcDbPoint
10
60
20
31.749918
30
0
39
0
210
0
220
0
230
1
50
360
0
ENDBLK
5
1C7
100
AcDbEntity
8
0
100
AcDbBlockEnd
0
BLOCK
5
1D9
100
AcDbEntity
8
0
100
AcDbBlockBegin
2
_U3
70
0
10
0
20
0
30
0
3
_U3
0
MTEXT
5
1D3
100
AcDbEntity
8
2
62
256
6
ByLayer
370
18
48
1
60
0
100
AcDbMText
10
51.032467
20
32.782551
30
0
210
0
220
0
230
1
1
\W0.5321;15
40
3.5
41
0
44
1.084337
50
0
71
7
72
5
7
iso_b_vert
0
LINE
5
1D4
100
AcDbEntity
8
2
62
256
6
ByLayer
370
13
48
1
60
0
100
AcDbLine
10
45
20
-23.912582
30
0
11
45
21
33.749918
31
0
39
0
210
0
220
0
230
1
0
LINE
5
1D5
100
AcDbEntity
8
2
62
256
6
ByLayer
370
13
48
1
60
0
100
AcDbLine
10
60
20
-23.912582
30
0
11
60
21
33.749918
31
0
39
0
210
0
220
0
230
1
0
LINE
5
1D6
100
AcDbEntity
8
2
62
256
6
ByLayer
370
13
48
1
60
0
100
AcDbLine
10
45
20
31.749918
30
0
11
60
21
31.749918
31
0
39
0
210
0
220
0
230
1
0
SOLID
5
1D7
100
AcDbEntity
8
2
62
256
6
ByLayer
370
18
48
1
60
0
100
AcDbTrace
10
45
20
31.749918
30
0
11
48.499998
21
32.210701
31
0
12
48.500002
22
31.289134
32
0
13
48.500002
23
31.289134
33
0
39
0
210
0
220
0
230
1
0
SOLID
5
1D8
100
AcDbEntity
8
2
62
256
6
ByLayer
370
18
48
1
60
0
100
AcDbTrace
10
60
20
31.749918
30
0
11
56.500002
21
31.289134
31
0
12
56.499998
22
32.210701
32
0
13
56.499998
23
32.210701
33
0
39
0
210
0
220
0
230
1
0
ENDBLK
5
1DA
100
AcDbEntity
8
0
100
AcDbBlockEnd
0
BLOCK
5
1DF
100
AcDbEntity
8
0
100
AcDbBlockBegin
2
*D9
70
1
10
0
20
0
30
0
3
*D9
0
LINE
5
1E1
100
AcDbEntity
8
0
62
256
6
ByLayer
370
-2
48
1
60
0
100
AcDbLine
10
0
20
-21.5875
30
0
11
0
21
-47.75
31
0
39
0
210
0
220
0
230
1
0
LINE
5
1E2
100
AcDbEntity
8
0
62
256
6
ByLayer
370
-2
48
1
60
0
100
AcDbLine
10
60
20
-28.5875
30
0
11
60
21
-47.75
31
0
39
0
210
0
220
0
230
1
0
LINE
5
1E3
100
AcDbEntity
8
0
62
256
6
ByLayer
370
-2
48
1
60
0
100
AcDbLine
10
3.5
20
-45.75
30
0
11
56.5
21
-45.75
31
0
39
0
210
0
220
0
230
1
0
SOLID
5
1E4
100
AcDbEntity
8
0
62
256
6
ByLayer
370
-1
48
1
60
0
100
AcDbTrace
10
3.5
20
-45.166667
30
0
11
3.5
21
-46.333333
31
0
12
0
22
-45.75
32
0
13
0
23
-45.75
33
0
39
0
210
0
220
0
230
1
0
SOLID
5
1E5
100
AcDbEntity
8
0
62
256
6
ByLayer
370
-1
48
1
60
0
100
AcDbTrace
10
56.5
20
-46.333333
30
0
11
56.5
21
-45.166667
31
0
12
60
22
-45.75
32
0
13
60
23
-45.75
33
0
39
0
210
0
220
0
230
1
0
MTEXT
5
1E6
100
AcDbEntity
8
0
62
256
6
ByLayer
370
18
48
1
60
0
100
AcDbMText
10
30
20
-38.75
30
0
210
0
220
0
230
1
1
\A1;60
40
3.5
41
0
44
1
50
0
71
5
72
5
7
iso_b_vert
0
POINT
5
1E7
100
AcDbEntity
8
Defpoints
62
0
6
ByLayer
370
-1
48
1
60
0
100
AcDbPoint
10
0
20
-20
30
0
39
0
210
0
220
0
230
1
50
360
0
POINT
5
1E8
100
AcDbEntity
8
Defpoints
62
0
6
ByLayer
370
-1
48
1
60
0
100
AcDbPoint
10
60
20
-27
30
0
39
0
210
0
220
0
230
1
50
360
0
POINT
5
1E9
100
AcDbEntity
8
Defpoints
62
0
6
ByLayer
370
-1
48
1
60
0
100
AcDbPoint
10
60
20
-45.75
30
0
39
0
210
0
220
0
230
1
50
360
0
ENDBLK
5
1E0
100
AcDbEntity
8
0
100
AcDbBlockEnd
0
BLOCK
5
1F1
100
AcDbEntity
8
0
100
AcDbBlockBegin
2
_U4
70
0
10
0
20
0
30
0
3
_U4
0
MTEXT
5
1EB
100
AcDbEntity
8
2
62
256
6
ByLayer
370
18
48
1
60
0
100
AcDbMText
10
28.095034
20
-44.717366
30
0
210
0
220
0
230
1
1
\W0.6740;60
40
3.5
41
0
44
1.084337
50
0
71
7
72
5
7
iso_b_vert
0
LINE
5
1EC
100
AcDbEntity
8
2
62
256
6
ByLayer
370
13
48
1
60
0
100
AcDbLine
10
0
20
-21.5875
30
0
11
0
21
-47.75
31
0
39
0
210
0
220
0
230
1
0
LINE
5
1ED
100
AcDbEntity
8
2
62
256
6
ByLayer
370
13
48
1
60
0
100
AcDbLine
10
60
20
-28.5875
30
0
11
60
21
-47.75
31
0
39
0
210
0
220
0
230
1
0
LINE
5
1EE
100
AcDbEntity
8
2
62
256
6
ByLayer
370
13
48
1
60
0
100
AcDbLine
10
0
20
-45.75
30
0
11
60
21
-45.75
31
0
39
0
210
0
220
0
230
1
0
SOLID
5
1EF
100
AcDbEntity
8
2
62
256
6
ByLayer
370
18
48
1
60
0
100
AcDbTrace
10
0
20
-45.75
30
0
11
3.499998
21
-45.289216
31
0
12
3.500002
22
-46.210784
32
0
13
3.500002
23
-46.210784
33
0
39
0
210
0
220
0
230
1
0
SOLID
5
1F0
100
AcDbEntity
8
2
62
256
6
ByLayer
370
18
48
1
60
0
100
AcDbTrace
10
60
20
-45.75
30
0
11
56.500002
21
-46.210784
31
0
12
56.499998
22
-45.289216
32
0
13
56.499998
23
-45.289216
33
0
39
0
210
0
220
0
230
1
0
ENDBLK
5
1F2
100
AcDbEntity
8
0
100
AcDbBlockEnd
0
ENDSEC
0
SECTION
2
ENTITIES
0
ARC
5
E0
100
AcDbEntity
8
1
62
256
6
ByLayer
370
18
48
1
60
0
100
AcDbCircle
39
0
10
45
20
-22.725082
30
0
40
1.6
210
0
220
0
230
1
100
AcDbArc
50
180
51
199.162727
0
ARC
5
E1
100
AcDbEntity
8
1
62
256
6
ByLayer
370
18
48
1
60
0
100
AcDbCircle
39
0
10
20.279208
20
-21.2
30
0
40
1.2
210
0
220
0
230
1
100
AcDbArc
50
60.51706
51
90
0
ARC
5
E2
100
AcDbEntity
8
1
62
256
6
ByLayer
370
18
48
1
60
0
100
AcDbCircle
39
0
10
-0.6
20
15
30
0
40
0.999999999999994
210
0
220
0
230
1
100
AcDbArc
50
293.578178
51
306.870857
0
ARC
5
E3
100
AcDbEntity
8
1
62
256
6
ByLayer
370
18
48
1
60
0
100
AcDbCircle
39
0
10
-0.6
20
-15
30
0
40
0.999999999999994
210
0
220
0
230
1
100
AcDbArc
50
53.129143
51
66.421822
0
ARC
5
E5
100
AcDbEntity
8
1
62
256
6
ByLayer
370
18
48
1
60
0
100
AcDbCircle
39
0
10
26.8
20
-21.15
30
0
40
1
210
0
220
0
230
1
100
AcDbArc
50
360
51
90
0
ARC
5
E6
100
AcDbEntity
8
1
62
256
6
ByLayer
370
18
48
1
60
0
100
AcDbCircle
39
0
10
37.85
20
-17.699794
30
0
40
1.416
210
0
220
0
230
1
100
AcDbArc
50
96.192438
51
150.190711
0
ARC
5
E7
100
AcDbEntity
8
1
62
256
6
ByLayer
370
18
48
1
60
0
100
AcDbCircle
39
0
10
37.85
20
-17.699794
30
0
40
1.416
210
0
220
0
230
1
100
AcDbArc
50
150.190711
51
209.809289
0
ARC
5
E8
100
AcDbEntity
8
1
62
256
6
ByLayer
370
18
48
1
60
0
100
AcDbCircle
39
0
10
37.85
20
-17.699794
30
0
40
1.416
210
0
220
0
230
1
100
AcDbArc
50
209.809289
51
263.807562
0
ARC
5
E9
100
AcDbEntity
8
1
62
256
6
ByLayer
370
18
48
1
60
0
100
AcDbCircle
39
0
10
37.85
20
-17.699794
30
0
40
1.416
210
0
220
0
230
1
100
AcDbArc
50
276.192438
51
330.190711
0
ARC
5
EA
100
AcDbEntity
8
1
62
256
6
ByLayer
370
18
48
1
60
0
100
AcDbCircle
39
0
10
37.85
20
-17.699794
30
0
40
1.416
210
0
220
0
230
1
100
AcDbArc
50
29.809289
51
83.807562
0
ARC
5
EB
100
AcDbEntity
8
1
62
256
6
ByLayer
370
18
48
1
60
0
100
AcDbCircle
39
0
10
37.85
20
-17.699794
30
0
40
1.416
210
0
220
0
230
1
100
AcDbArc
50
330.190711
51
29.809289
0
ARC
5
EC
100
AcDbEntity
8
1
62
256
6
ByLayer
370
18
48
1
60
0
100
AcDbCircle
39
0
10
37.85
20
-17.699794
30
0
40
1.9685
210
0
220
0
230
1
100
AcDbArc
50
180
51
239.618578
0
ARC
5
ED
100
AcDbEntity
8
1
62
256
6
ByLayer
370
18
48
1
60
0
100
AcDbCircle
39
0
10
37.85
20
-17.699794
30
0
40
1.9685
210
0
220
0
230
1
100
AcDbArc
50
0
51
59.618578
0
ARC
5
EE
100
AcDbEntity
8
1
62
256
6
ByLayer
370
18
48
1
60
0
100
AcDbCircle
39
0
10
37.85
20
-17.699794
30
0
40
1.9685
210
0
220
0
230
1
100
AcDbArc
50
120.381422
51
180
0
ARC
5
EF
100
AcDbEntity
8
1
62
256
6
ByLayer
370
18
48
1
60
0
100
AcDbCircle
39
0
10
37.85
20
-17.699794
30
0
40
1.9685
210
0
220
0
230
1
100
AcDbArc
50
239.618578
51
300.381422
0
ARC
5
F0
100
AcDbEntity
8
1
62
256
6
ByLayer
370
18
48
1
60
0
100
AcDbCircle
39
0
10
37.85
20
-17.699794
30
0
40
1.416
210
0
220
0
230
1
100
AcDbArc
50
263.807562
51
276.192438
0
ARC
5
F1
100
AcDbEntity
8
1
62
256
6
ByLayer
370
18
48
1
60
0
100
AcDbCircle
39
0
10
37.85
20
-17.699794
30
0
40
1.416
210
0
220
0
230
1
100
AcDbArc
50
83.807562
51
96.192438
0
ARC
5
F2
100
AcDbEntity
8
1
62
256
6
ByLayer
370
18
48
1
60
0
100
AcDbCircle
39
0
10
37.85
20
-17.699794
30
0
40
1.9685
210
0
220
0
230
1
100
AcDbArc
50
59.618578
51
120.381422
0
ARC
5
F3
100
AcDbEntity
8
1
62
256
6
ByLayer
370
18
48
1
60
0
100
AcDbCircle
39
0
10
37.85
20
-17.699794
30
0
40
1.9685
210
0
220
0
230
1
100
AcDbArc
50
300.381422
51
0
0
CIRCLE
5
E4
100
AcDbEntity
8
1
62
256
6
ByLayer
370
18
48
1
60
0
100
AcDbCircle
10
37.85
20
-17.699794
30
0
40
4.55
39
0
210
0
220
0
230
1
0
CIRCLE
5
F4
100
AcDbEntity
8
1
62
256
6
ByLayer
370
18
48
1
60
0
100
AcDbCircle
10
37.85
20
-17.699794
30
0
40
4.25
39
0
210
0
220
0
230
1
0
CIRCLE
5
F5
100
AcDbEntity
8
1
62
256
6
ByLayer
370
18
48
1
60
0
100
AcDbCircle
10
37.85
20
-17.699794
30
0
40
3.75
39
0
210
0
220
0
230
1
0
ELLIPSE
5
F6
100
AcDbEntity
8
1
62
256
6
ByLayer
370
18
48
1
60
0
100
AcDbEllipse
10
424.557469
20
-72.727895
30
0
11
907.849467642753
21
-14.4529357365002
31
0
210
0
220
0
230
1
40
0.048164
41
1.99102630513771
42
1.99213416703335
0
ELLIPSE
5
F7
100
AcDbEntity
8
1
62
256
6
ByLayer
370
18
48
1
60
0
100
AcDbEllipse
10
65.357143
20
-74.200082
30
0
11
2.90997084829139E-15
21
47.5250000003424
31
0
210
0
220
0
230
1
40
0.714286
41
0.182387738175719
42
0.406388427345003
0
ELLIPSE
5
F8
100
AcDbEntity
8
1
62
256
6
ByLayer
370
18
48
1
60
0
100
AcDbEllipse
10
52.457714
20
-25.598524
30
0
11
0.0634457774651346
21
0.597001912996392
31
0
210
0
220
0
230
1
40
0.95313
41
0
42
6.28318530717959
0
ELLIPSE
5
F9
100
AcDbEntity
8
1
62
256
6
ByLayer
370
18
48
1
60
0
100
AcDbEllipse
10
54.496818
20
-74.200082
30
0
11
2.90997084978251E-15
21
47.525000024695
31
0
210
0
220
0
230
1
40
0.851994
41
0.0288276716661562
42
0.105076291959565
0
ELLIPSE
5
FA
100
AcDbEntity
8
1
62
256
6
ByLayer
370
18
48
1
60
0
100
AcDbEllipse
10
54.496818
20
-60.500082
30
0
11
2.21500674234398E-15
21
36.1749999978402
31
0
210
0
220
0
230
1
40
0.851994
41
0.0366375261379438
42
0.138230152858055
0
ELLIPSE
5
FB
100
AcDbEntity
8
1
62
256
6
ByLayer
370
18
48
1
60
0
100
AcDbEllipse
10
-780.953975
20
-60.484812
30
0
11
2926.42267605076
21
11.5641837819751
31
0
210
0
220
0
230
1
40
0.011707
41
1.28167917733343
42
1.28462166818063
0
ELLIPSE
5
FC
100
AcDbEntity
8
1
62
256
6
ByLayer
370
18
48
1
60
0
100
AcDbEllipse
10
57.368308
20
-60.500082
30
0
11
51.6604214138179
21
6.05178778018109E-14
31
0
210
0
220
0
230
1
40
0.700246
41
1.70902647965139
42
1.81256017994209
0
ELLIPSE
5
FD
100
AcDbEntity
8
1
62
256
6
ByLayer
370
18
48
1
60
0
100
AcDbEllipse
10
57.368308
20
-74.200082
30
0
11
67.8690124965859
21
7.95055187780439E-14
31
0
210
0
220
0
230
1
40
0.700246
41
1.67587261880969
42
1.74814378256196
0
ELLIPSE
5
FE
100
AcDbEntity
8
1
62
256
6
ByLayer
370
18
48
1
60
0
100
AcDbEllipse
10
45.32818
20
-24.325082
30
0
11
-2.78941224234496
21
3.41593195540556E-16
31
0
210
0
220
0
230
1
40
0.573598
41
-0.80757927342044
42
0
0
ELLIPSE
5
FF
100
AcDbEntity
8
1
62
256
6
ByLayer
370
18
48
1
60
0
100
AcDbEllipse
10
16.948929
20
0
30
0
11
9.36741787978128
21
19.7417491527497
31
0
210
0
220
0
230
1
40
0.341999
41
2.04527312608987
42
2.98886640869144
0
ELLIPSE
5
100
100
AcDbEntity
8
1
62
256
6
ByLayer
370
18
48
1
60
0
100
AcDbEllipse
10
-0.948929
20
0
30
0
11
9.36741787978225
21
-19.7417491527502
31
0
210
0
220
0
230
1
40
0.341999
41
0.152726244898341
42
1.09631952749989
0
ELLIPSE
5
101
100
AcDbEntity
8
1
62
256
6
ByLayer
370
18
48
1
60
0
100
AcDbEllipse
10
-0.948929
20
0
30
0
11
9.36741787978194
21
19.7417491527498
31
0
210
0
220
0
230
1
40
0.341999
41
-1.0963195274999
42
-0.152726244898351
0
ELLIPSE
5
102
100
AcDbEntity
8
1
62
256
6
ByLayer
370
18
48
1
60
0
100
AcDbEllipse
10
16.948929
20
0
30
0
11
9.36741787978144
21
-19.7417491527498
31
0
210
0
220
0
230
1
40
0.341999
41
-2.98886640869144
42
-2.04527312608987
0
ELLIPSE
5
103
100
AcDbEntity
8
1
62
256
6
ByLayer
370
18
48
1
60
0
100
AcDbEllipse
10
20.174537
20
0
30
0
11
1.22460635382281E-15
21
20.000000000007
31
0
210
0
220
0
230
1
40
0.008727
41
0.800164879799665
42
2.34142777379014
0
ELLIPSE
5
104
100
AcDbEntity
8
1
62
256
6
ByLayer
370
18
48
1
60
0
100
AcDbEllipse
10
56.228061
20
-23.542236
30
0
11
0.897965179771416
21
-0.00803157383143479
31
0
210
0
220
0
230
1
40
0.890811
41
-1.56282890718006
42
-1.2871851462443
0
ELLIPSE
5
105
100
AcDbEntity
8
1
62
256
6
ByLayer
370
18
48
1
60
0
100
AcDbEllipse
10
54.623179
20
-24.463784
30
0
11
0.85069222502058
21
-0.00162116581817398
31
0
210
0
220
0
230
1
40
0.176317
41
-3.14125664654094
42
-2.80528076555324
0
ELLIPSE
5
106
100
AcDbEntity
8
1
62
256
6
ByLayer
370
18
48
1
60
0
100
AcDbEllipse
10
56.095006
20
-25.057971
30
0
11
1.13425629987292
21
-0.00216155443064193
31
0
210
0
220
0
230
1
40
0.176317
41
-2.80528076553014
42
-1.98684224402653
0
ELLIPSE
5
107
100
AcDbEntity
8
1
62
256
6
ByLayer
370
18
48
1
60
0
100
AcDbEllipse
10
60.223799
20
-23.41948
30
0
11
11.3425629372466
21
-0.0216155510334294
31
0
210
0
220
0
230
1
40
0.176317
41
-1.98684224240427
42
-1.91952616819373
0
ELLIPSE
5
108
100
AcDbEntity
8
1
62
256
6
ByLayer
370
18
48
1
60
0
100
AcDbEllipse
10
55.990371
20
-25.49169
30
0
11
1.19096911488282
21
-0.00226963215027875
31
0
210
0
220
0
230
1
40
0.176317
41
0.000336007049327986
42
1.22206648344476
0
ELLIPSE
5
109
100
AcDbEntity
8
1
62
256
6
ByLayer
370
18
48
1
60
0
100
AcDbEllipse
10
55.990371
20
-25.49169
30
0
11
1.19096911488402
21
-0.00226963215059838
31
0
210
0
220
0
230
1
40
0.176317
41
-1.22139446934538
42
0.000336007049310729
0
ELLIPSE
5
10A
100
AcDbEntity
8
1
62
256
6
ByLayer
370
18
48
1
60
0
100
AcDbEllipse
10
60.223799
20
-27.579534
30
0
11
11.3425628669983
21
-0.0216155293551055
31
0
210
0
220
0
230
1
40
0.176317
41
1.9201981800825
42
1.98751425465855
0
ELLIPSE
5
10B
100
AcDbEntity
8
1
62
256
6
ByLayer
370
18
48
1
60
0
100
AcDbEllipse
10
56.095006
20
-25.925796
30
0
11
1.13425629989304
21
-0.00216155442964363
31
0
210
0
220
0
230
1
40
0.176317
41
1.98751425813656
42
2.80595277963065
0
ELLIPSE
5
10C
100
AcDbEntity
8
1
62
256
6
ByLayer
370
18
48
1
60
0
100
AcDbEllipse
10
54.623179
20
-26.514547
30
0
11
0.850692225119222
21
-0.00162116582901776
31
0
210
0
220
0
230
1
40
0.176317
41
2.80595277967219
42
-3.14125664653951
0
ELLIPSE
5
10D
100
AcDbEntity
8
1
62
256
6
ByLayer
370
18
48
1
60
0
100
AcDbEllipse
10
56.228061
20
-27.442022
30
0
11
0.897965179758365
21
-0.00803157377498795
31
0
210
0
220
0
230
1
40
0.890811
41
1.30311998539936
42
1.57876374633946
0
ELLIPSE
5
10E
100
AcDbEntity
8
1
62
256
6
ByLayer
370
18
48
1
60
0
100
AcDbEllipse
10
55.571498
20
-24.740958
30
0
11
0.00751561974882483
21
-0.126550215680568
31
0
210
0
220
0
230
1
40
0.984754
41
0
42
6.28318530717959
0
POINT
5
70
100
AcDbEntity
8
1
62
256
6
ByLayer
370
18
48
1
60
0
100
AcDbPoint
10
0
20
0
30
0
39
0
210
0
220
0
230
1
50
360
0
POINT
5
72
100
AcDbEntity
8
81
62
256
6
ByLayer
370
18
48
1
60
0
100
AcDbPoint
10
60
20
-27
30
0
39
0
210
0
220
0
230
1
50
360
0
POINT
5
74
100
AcDbEntity
8
80
62
256
6
ByLayer
370
18
48
1
60
0
100
AcDbPoint
10
0
20
0
30
0
39
0
210
0
220
0
230
1
50
360
0
POINT
5
76
100
AcDbEntity
8
81
62
256
6
ByLayer
370
18
48
1
60
0
100
AcDbPoint
10
60
20
-27
30
0
39
0
210
0
220
0
230
1
50
360
0
POINT
5
77
100
AcDbEntity
8
1
62
256
6
ByLayer
370
18
48
1
60
1
100
AcDbPoint
10
0
20
0
30
0
39
0
210
0
220
0
230
1
50
360
0
POINT
5
78
100
AcDbEntity
8
1
62
256
6
ByLayer
370
18
48
1
60
1
100
AcDbPoint
10
60
20
-24.000082
30
0
39
0
210
0
220
0
230
1
50
360
0
POINT
5
79
100
AcDbEntity
8
1
62
256
6
ByLayer
370
18
48
1
60
1
100
AcDbPoint
10
0
20
-20
30
0
39
0
210
0
220
0
230
1
50
360
0
POINT
5
7A
100
AcDbEntity
8
1
62
256
6
ByLayer
370
18
48
1
60
1
100
AcDbPoint
10
0
20
20
30
0
39
0
210
0
220
0
230
1
50
360
0
POINT
5
7B
100
AcDbEntity
8
1
62
256
6
ByLayer
370
18
48
1
60
1
100
AcDbPoint
10
45
20
-25.500082
30
0
39
0
210
0
220
0
230
1
50
360
0
POINT
5
7C
100
AcDbEntity
8
1
62
256
6
ByLayer
370
18
48
1
60
1
100
AcDbPoint
10
60
20
-25.500082
30
0
39
0
210
0
220
0
230
1
50
360
0
POINT
5
7D
100
AcDbEntity
8
1
62
256
6
ByLayer
370
18
48
1
60
1
100
AcDbPoint
10
0
20
-20
30
0
39
0
210
0
220
0
230
1
50
360
0
SPLINE
5
10F
100
AcDbEntity
8
1
62
256
6
ByLayer
370
18
48
1
60
0
100
AcDbSpline
70
4
71
2
72
6
73
3
40
0
40
0
40
0
40
1
40
1
40
1
41
1
10
-1.49503997793928
20
-13.7130167789402
30
0
41
1
10
-0.944976888873896
20
-13.7267321696587
30
0
41
1
10
-0.394913799811292
20
-13.740447551665
30
0
0
SPLINE
5
110
100
AcDbEntity
8
1
62
256
6
ByLayer
370
18
48
1
60
0
100
AcDbSpline
70
4
71
2
72
6
73
3
40
0
40
0
40
0
40
1
40
1
40
1
41
1
10
-0.394913799811292
20
13.7404477916605
30
0
41
1
10
-0.944976888873896
20
13.7267324097107
30
0
41
1
10
-1.49503997793928
20
13.7130170190491
30
0
0
SPLINE
5
111
100
AcDbEntity
8
1
62
256
6
ByLayer
370
18
48
1
60
0
100
AcDbSpline
70
4
71
2
72
6
73
3
40
0
40
0
40
0
40
1
40
1
40
1
41
1
10
-24
20
-12.6317156240216
30
0
41
1
10
-23.249999936895
20
-13.0645339427607
30
0
41
1
10
-22.5
20
-13.4973518251592
30
0
0
SPLINE
5
112
100
AcDbEntity
8
1
62
256
6
ByLayer
370
18
48
1
60
0
100
AcDbSpline
70
4
71
2
72
6
73
3
40
0
40
0
40
0
40
1
40
1
40
1
41
1
10
-22.5
20
13.4973518870616
30
0
41
1
10
-23.2499999368976
20
13.0645340070691
30
0
41
1
10
-24
20
12.6317156907499
30
0
0
SPLINE
5
113
100
AcDbEntity
8
1
62
256
6
ByLayer
370
18
48
1
60
0
100
AcDbSpline
70
4
71
3
72
13
73
9
40
0
40
0
40
0
40
0
40
0.239505896267058
40
0.368426445719716
40
0.500072184804663
40
0.631705935597398
40
0.760593415643758
40
1
40
1
40
1
40
1
41
1
10
-1.49503997793928
20
13.8252671707288
30
0
41
1
10
-1.52110926509485
20
13.8248650525742
30
0
41
1
10
-1.55883864918067
20
13.8310346548635
30
0
41
1
10
-1.60627567892249
20
13.8540680395026
30
0
41
1
10
-1.63886244003069
20
13.8792240145369
30
0
41
1
10
-1.66563490778341
20
13.9104917120148
30
0
41
1
10
-1.69103207617425
20
13.956689925787
30
0
41
1
10
-1.69909121849835
20
13.9940472396764
30
0
41
1
10
-1.69999999999999
20
14.020094440518
30
0
0
SPLINE
5
114
100
AcDbEntity
8
1
62
256
6
ByLayer
370
18
48
1
60
0
100
AcDbSpline
70
4
71
3
72
13
73
9
40
0
40
0
40
0
40
0
40
0.239406584968136
40
0.368294065212519
40
0.499927816069781
40
0.631573555071368
40
0.760494104316207
40
1
40
1
40
1
40
1
41
1
10
-1.69999999999999
20
-14.0200943498873
30
0
41
1
10
-1.69909121850787
20
-13.9940471489176
30
0
41
1
10
-1.69103207618372
20
-13.9566898348375
30
0
41
1
10
-1.66563490779617
20
-13.9104916208042
30
0
41
1
10
-1.63886244004752
20
-13.8792239231524
30
0
41
1
10
-1.60627567894025
20
-13.8540679479736
30
0
41
1
10
-1.55883864920244
20
-13.8310345631992
30
0
41
1
10
-1.52110926510645
20
-13.8248649608707
30
0
41
1
10
-1.49503997793928
20
-13.825267079015
30
0
0
SPLINE
5
115
100
AcDbEntity
8
1
62
256
6
ByLayer
370
18
48
1
60
0
100
AcDbSpline
70
4
71
2
72
6
73
3
40
0
40
0
40
0
40
1
40
1
40
1
41
1
10
-1.69999999999999
20
14.0158108591592
30
0
41
1
10
-12.0999999986036
20
13.7547063780669
30
0
41
1
10
-22.5
20
13.4936010331935
30
0
0
SPLINE
5
116
100
AcDbEntity
8
1
62
256
6
ByLayer
370
18
48
1
60
0
100
AcDbSpline
70
4
71
2
72
6
73
3
40
0
40
0
40
0
40
1
40
1
40
1
41
1
10
-22.5
20
-13.4936007996938
30
0
41
1
10
-12.0999999986039
20
-13.7547061446862
30
0
41
1
10
-1.69999999999999
20
-14.0158106259661
30
0
0
SPLINE
5
117
100
AcDbEntity
8
1
62
256
6
ByLayer
370
18
48
1
60
0
100
AcDbSpline
70
4
71
3
72
8
73
4
40
0
40
0
40
0
40
0
40
1
40
1
40
1
40
1
41
1
10
21.5996294000863
20
-21.15
30
0
41
1
10
22.0988627630338
20
-23.043242461665
30
0
41
1
10
22.5999909941688
20
-24.9359993822635
30
0
41
1
10
23.1020343636073
20
-26.8285058420561
30
0
0
SPLINE
5
118
100
AcDbEntity
8
1
62
256
6
ByLayer
370
18
48
1
60
0
100
AcDbSpline
70
4
71
3
72
16
73
12
40
0
40
0
40
0
40
0
40
0.250000000000004
40
0.250000000000004
40
0.375000000000004
40
0.375000000000004
40
0.500000000000003
40
0.500000000000003
40
0.750000000000002
40
0.750000000000002
40
1
40
1
40
1
40
1
41
1
10
21.4383186059721
20
-20.5713786381932
30
0
41
1
10
21.4509264572046
20
-20.6138415298283
30
0
41
1
10
21.4638550641363
20
-20.6581308948899
30
0
41
1
10
21.483701145995
20
-20.7272112508428
30
0
41
1
10
21.4903924483377
20
-20.7506811534846
30
0
41
1
10
21.5039270389432
20
-20.7985157891721
30
0
41
1
10
21.5107876003391
20
-20.8229435926501
30
0
41
1
10
21.5313025927857
20
-20.8965254861463
30
0
41
1
10
21.5449749510801
20
-20.9462712069042
30
0
41
1
10
21.572309117288
20
-21.047110018517
30
0
41
1
10
21.5859709228627
20
-21.098202962861
30
0
41
1
10
21.5996294000863
20
-21.15
30
0
0
SPLINE
5
119
100
AcDbEntity
8
1
62
256
6
ByLayer
370
18
48
1
60
0
100
AcDbSpline
70
4
71
3
72
37
73
33
40
0
40
0
40
0
40
0
40
0.0312499999999999
40
0.0312499999999999
40
0.0624999999999998
40
0.124999999999999
40
0.124999999999999
40
0.250000000000005
40
0.250000000000005
40
0.281250000000007
40
0.281250000000007
40
0.31250000000001
40
0.31250000000001
40
0.375000000000015
40
0.375000000000015
40
0.500000000000026
40
0.500000000000026
40
0.531250000000025
40
0.531250000000025
40
0.562500000000025
40
0.625000000000019
40
0.687500000000014
40
0.687500000000014
40
0.718750000000009
40
0.718750000000009
40
0.750000000000003
40
0.750000000000003
40
0.874999999999998
40
0.874999999999998
40
0.937499999999999
40
0.937499999999999
40
1
40
1
40
1
40
1
41
1
10
26.0980430980133
20
-20.15
30
0
41
1
10
26.1162035254955
20
-20.15
30
0
41
1
10
26.1343872657174
20
-20.1503025824595
30
0
41
1
10
26.1705836502362
20
-20.1515196867924
30
0
41
1
10
26.2247173921931
20
-20.1542634718054
30
0
41
1
10
26.2783630464426
20
-20.1597935144031
30
0
41
1
10
26.3849791102437
20
-20.1747082462797
30
0
41
1
10
26.4551616109287
20
-20.1897598121741
30
0
41
1
10
26.5416233536893
20
-20.2158034405549
30
0
41
1
10
26.5588519535168
20
-20.2213760769887
30
0
41
1
10
26.5931759721783
20
-20.2332816159887
30
0
41
1
10
26.6103084251024
20
-20.2396303868157
30
0
41
1
10
26.6610454002757
20
-20.2596893834309
30
0
41
1
10
26.6940881619297
20
-20.2744369142505
30
0
41
1
10
26.7908100970828
20
-20.3229108129451
30
0
41
1
10
26.8521084151136
20
-20.3608236580102
30
0
41
1
10
26.9242406273294
20
-20.4161110994535
30
0
41
1
10
26.9384828319246
20
-20.4276043803774
30
0
41
1
10
26.9662249790131
20
-20.4511940834262
30
0
41
1
10
27.00674596593
20
-20.4874883676626
30
0
41
1
10
27.068838459772
20
-20.5525119274736
30
0
41
1
10
27.1125953836099
20
-20.6094591483842
30
0
41
1
10
27.1430804586598
20
-20.6541124189716
30
0
41
1
10
27.1528525920443
20
-20.6693213085329
30
0
41
1
10
27.1715877340215
20
-20.7004130137701
30
0
41
1
10
27.1805774370482
20
-20.7163474526614
30
0
41
1
10
27.2230820288717
20
-20.7971606013338
30
0
41
1
10
27.2489003700178
20
-20.8644383463771
30
0
41
1
10
27.2752832016542
20
-20.9693172057348
30
0
41
1
10
27.2820029262008
20
-21.004942689619
30
0
41
1
10
27.2910445246975
20
-21.0776052247439
30
0
41
1
10
27.2932667544509
20
-21.1138741838896
30
0
41
1
10
27.2932667544509
20
-21.15
30
0
0
SPLINE
5
11A
100
AcDbEntity
8
1
62
256
6
ByLayer
370
18
48
1
60
0
100
AcDbSpline
70
4
71
3
72
22
73
18
40
0
40
0
40
0
40
0
40
0.03125
40
0.03125
40
0.0625
40
0.125
40
0.125
40
0.25
40
0.25
40
0.375
40
0.375
40
0.5
40
0.5
40
0.625
40
0.75
40
0.875
40
1
40
1
40
1
40
1
41
1
10
23.1020343636073
20
-26.8285058420561
30
0
41
1
10
23.1117445332095
20
-26.8417405709676
30
0
41
1
10
23.1220777633883
20
-26.8558510489577
30
0
41
1
10
23.1438992397295
20
-26.8857199917618
30
0
41
1
10
23.1783828971705
20
-26.9330214324209
30
0
41
1
10
23.218005421847
20
-26.9877571797908
30
0
41
1
10
23.3037846806597
20
-27.1069999930854
30
0
41
1
10
23.3696831121522
20
-27.1995176997636
30
0
41
1
10
23.5171732340131
20
-27.4099948940479
30
0
41
1
10
23.5987619387656
20
-27.5279549362856
30
0
41
1
10
23.7759310889511
20
-27.7888977855436
30
0
41
1
10
23.8715095314171
20
-27.9318810470306
30
0
41
1
10
24.0750691719014
20
-28.2426190309755
30
0
41
1
10
24.2910293562852
20
-28.5781291467917
30
0
41
1
10
24.6478861266795
20
-29.1554225820319
30
0
41
1
10
25.0339108033321
20
-29.8069006760391
30
0
41
1
10
25.3085774137301
20
-30.2910671938141
30
0
41
1
10
25.4497972173857
20
-30.5457822459516
30
0
0
SPLINE
5
11B
100
AcDbEntity
8
1
62
256
6
ByLayer
370
18
48
1
60
0
100
AcDbSpline
70
4
71
3
72
31
73
27
40
0
40
0
40
0
40
0
40
0.0312499999999989
40
0.0312499999999989
40
0.0624999999999978
40
0.0624999999999978
40
0.124999999999996
40
0.124999999999996
40
0.24999999999999
40
0.24999999999999
40
0.312499999999989
40
0.343749999999989
40
0.343749999999989
40
0.374999999999989
40
0.374999999999989
40
0.499999999999991
40
0.499999999999991
40
0.624999999999993
40
0.624999999999993
40
0.687499999999994
40
0.687499999999994
40
0.749999999999995
40
0.749999999999995
40
0.874999999999998
40
0.874999999999998
40
1
40
1
40
1
40
1
41
1
10
27.2932667544509
20
-26.7025518134508
30
0
41
1
10
27.2706799712018
20
-26.7039705937475
30
0
41
1
10
27.2473996479905
20
-26.7054305559417
30
0
41
1
10
27.1994541655157
20
-26.7084265667692
30
0
41
1
10
27.1747728792607
20
-26.7099636150029
30
0
41
1
10
27.0987543410213
20
-26.7146729229914
30
0
41
1
10
27.0456537923336
20
-26.7179302975717
30
0
41
1
10
26.8792789088548
20
-26.7279685969503
30
0
41
1
10
26.7589622518752
20
-26.7350153442362
30
0
41
1
10
26.5645557453479
20
-26.7457853882681
30
0
41
1
10
26.4638578567834
20
-26.7512206251492
30
0
41
1
10
26.3578419608545
20
-26.7566691578074
30
0
41
1
10
26.2859666684203
20
-26.7602974336014
30
0
41
1
10
26.2494068201792
20
-26.7621106802081
30
0
41
1
10
26.0638133233246
20
-26.7711368545147
30
0
41
1
10
25.9090621833212
20
-26.7781002879059
30
0
41
1
10
25.5874850066891
20
-26.7911185748551
30
0
41
1
10
25.4206576002176
20
-26.7971745965472
30
0
41
1
10
25.1612165166522
20
-26.8052964201975
30
0
41
1
10
25.0731664979473
20
-26.8078441768154
30
0
41
1
10
24.8940279731768
20
-26.8125674314537
30
0
41
1
10
24.8039105028999
20
-26.8147173070176
30
0
41
1
10
24.5319567032982
20
-26.8205004139378
30
0
41
1
10
24.348525906841
20
-26.8234667288224
30
0
41
1
10
23.9774600122632
20
-26.8274692332472
30
0
41
1
10
23.7898254580258
20
-26.8285058420561
30
0
41
1
10
23.6000000000001
20
-26.8285058420561
30
0
0
SPLINE
5
11C
100
AcDbEntity
8
1
62
256
6
ByLayer
370
18
48
1
60
0
100
AcDbSpline
70
4
71
3
72
33
73
29
40
0
40
0
40
0
40
0
40
0.125000000000011
40
0.125000000000011
40
0.187500000000013
40
0.187500000000013
40
0.250000000000015
40
0.250000000000015
40
0.375000000000022
40
0.375000000000022
40
0.406250000000021
40
0.406250000000021
40
0.437500000000021
40
0.437500000000021
40
0.500000000000015
40
0.500000000000015
40
0.625000000000005
40
0.625000000000005
40
0.656250000000005
40
0.656250000000005
40
0.687500000000006
40
0.687500000000006
40
0.750000000000003
40
0.812500000000001
40
0.812500000000001
40
0.874999999999998
40
0.874999999999998
40
1
40
1
40
1
40
1
41
1
10
26.6397548681207
20
-20.15
30
0
41
1
10
26.7071235900176
20
-20.15
30
0
41
1
10
26.7735305856536
20
-20.1560927052971
30
0
41
1
10
26.8716532872172
20
-20.1742158796205
30
0
41
1
10
26.9041152326204
20
-20.1817638674815
30
0
41
1
10
26.968532607879
20
-20.1999673987924
30
0
41
1
10
27.0006166662573
20
-20.2106845762262
30
0
41
1
10
27.0942756370982
20
-20.2470078444428
30
0
41
1
10
27.1537546635637
20
-20.2768281832411
30
0
41
1
10
27.2243597151896
20
-20.3211917582634
30
0
41
1
10
27.2382919621078
20
-20.3304218663252
30
0
41
1
10
27.2657712524799
20
-20.3496114030624
30
0
41
1
10
27.2793472979892
20
-20.3595935481814
30
0
41
1
10
27.319273890009
20
-20.3905018500776
30
0
41
1
10
27.3446731278484
20
-20.4122599283221
30
0
41
1
10
27.4172912768619
20
-20.4809199961288
30
0
41
1
10
27.4609659705737
20
-20.5311743847564
30
0
41
1
10
27.5093713226491
20
-20.5998454808938
30
0
41
1
10
27.518750576346
20
-20.6138960672267
30
0
41
1
10
27.5366727486694
20
-20.6422822079097
30
0
41
1
10
27.5452421479736
20
-20.6566530457441
30
0
41
1
10
27.569791185667
20
-20.7002916453336
30
0
41
1
10
27.5994377797219
20
-20.759876782334
30
0
41
1
10
27.6229437595299
20
-20.8222488435784
30
0
41
1
10
27.6433020812902
20
-20.8860494727432
30
0
41
1
10
27.6519207423389
20
-20.9188054265957
30
0
41
1
10
27.6724159393895
20
-21.0170992523026
30
0
41
1
10
27.6792290519489
20
-21.0832436887237
30
0
41
1
10
27.6792290519489
20
-21.15
30
0
0
SPLINE
5
11D
100
AcDbEntity
8
1
62
256
6
ByLayer
370
18
48
1
60
0
100
AcDbSpline
70
4
71
3
72
12
73
8
40
0
40
0
40
0
40
0
40
0.499999999999998
40
0.499999999999998
40
0.749999999999999
40
0.749999999999999
40
1
40
1
40
1
40
1
41
1
10
53.5795232165226
20
-25.7386564389705
30
0
41
1
10
53.5395442837329
20
-25.8990474430574
30
0
41
1
10
53.4991165588721
20
-26.0591765747836
30
0
41
1
10
53.4370905384438
20
-26.2984898808921
30
0
41
1
10
53.416179404244
20
-26.3781124157631
30
0
41
1
10
53.3736207729644
20
-26.5368935240852
30
0
41
1
10
53.3519808208285
20
-26.6160568513919
30
0
41
1
10
53.3297189723238
20
-26.6948283393892
30
0
0
SPLINE
5
11E
100
AcDbEntity
8
1
62
256
6
ByLayer
370
18
48
1
60
0
100
AcDbSpline
70
4
71
3
72
8
73
4
40
0
40
0
40
0
40
0
40
1
40
1
40
1
40
1
41
1
10
53.6852868060414
20
-25.677852027742
30
0
41
1
10
53.6500694598595
20
-25.6982738915426
30
0
41
1
10
53.6148212413661
20
-25.7185681213337
30
0
41
1
10
53.5795232165226
20
-25.7386564389705
30
0
0
SPLINE
5
11F
100
AcDbEntity
8
1
62
256
6
ByLayer
370
18
48
1
60
0
100
AcDbSpline
70
4
71
3
72
20
73
16
40
0
40
0
40
0
40
0
40
0.124999999999993
40
0.124999999999993
40
0.249999999999985
40
0.249999999999985
40
0.374999999999977
40
0.374999999999977
40
0.49999999999997
40
0.49999999999997
40
0.624999999999962
40
0.624999999999962
40
0.749999999999955
40
0.749999999999955
40
1
40
1
40
1
40
1
41
1
10
53.7496863740523
20
-25.5395559449707
30
0
41
1
10
53.7496375646394
20
-25.5471525948014
30
0
41
1
10
53.7492021579058
20
-25.5546941478733
30
0
41
1
10
53.7475619201478
20
-25.5696675978395
30
0
41
1
10
53.7463579779289
20
-25.5770424304103
30
0
41
1
10
53.7432628775956
20
-25.5912770268751
30
0
41
1
10
53.7413669721508
20
-25.5981836378797
30
0
41
1
10
53.7368781709918
20
-25.611575316262
30
0
41
1
10
53.7342639870161
20
-25.6180905073957
30
0
41
1
10
53.7285135135146
20
-25.6302585097147
30
0
41
1
10
53.7253629077739
20
-25.6359673422812
30
0
41
1
10
53.7185252090886
20
-25.6466540857899
30
0
41
1
10
53.7148099441244
20
-25.6516633614941
30
0
41
1
10
53.7030319832835
20
-25.6653236884791
30
0
41
1
10
53.6944919552895
20
-25.6725141381907
30
0
41
1
10
53.6852868060414
20
-25.677852027742
30
0
0
SPLINE
5
120
100
AcDbEntity
8
1
62
256
6
ByLayer
370
18
48
1
60
0
100
AcDbSpline
70
4
71
2
72
6
73
3
40
0
40
0
40
0
40
1
40
1
40
1
41
0.50001057224568
10
53.7503135572973
20
-25.4419203781046
30
0
41
0.49998942775432
10
53.7500000079617
20
-25.4907422664824
30
0
41
0.50001057224568
10
53.7496863740523
20
-25.5395559449705
30
0
0
SPLINE
5
121
100
AcDbEntity
8
1
62
256
6
ByLayer
370
18
48
1
60
0
100
AcDbSpline
70
4
71
3
72
20
73
16
40
0
40
0
40
0
40
0
40
0.125000000000003
40
0.125000000000003
40
0.250000000000006
40
0.250000000000006
40
0.375000000000008
40
0.375000000000008
40
0.500000000000011
40
0.500000000000011
40
0.625000000000014
40
0.625000000000014
40
0.750000000000017
40
0.750000000000017
40
1
40
1
40
1
40
1
41
1
10
53.6877457839945
20
-25.30206366433
30
0
41
1
10
53.6922945921403
20
-25.3048364098961
30
0
41
1
10
53.6966925522305
20
-25.3080862697051
30
0
41
1
10
53.7051819605288
20
-25.3155554495136
30
0
41
1
10
53.7092944017698
20
-25.319806885667
30
0
41
1
10
53.716981982468
20
-25.329081233064
30
0
41
1
10
53.7205817733737
20
-25.3341186120022
30
0
41
1
10
53.7272879456194
20
-25.3450026548946
30
0
41
1
10
53.7304167142542
20
-25.3509020568895
30
0
41
1
10
53.736018195603
20
-25.363284341604
30
0
41
1
10
53.7384896925447
20
-25.3697443772791
30
0
41
1
10
53.7427787035869
20
-25.3831985563388
30
0
41
1
10
53.7446035993189
20
-25.3902294182842
30
0
41
1
10
53.7489887339147
20
-25.4119285475628
30
0
41
1
10
53.750411009287
20
-25.4267464018635
30
0
41
1
10
53.7503135572973
20
-25.4419203781049
30
0
0
SPLINE
5
122
100
AcDbEntity
8
1
62
256
6
ByLayer
370
18
48
1
60
0
100
AcDbSpline
70
4
71
3
72
8
73
4
40
0
40
0
40
0
40
0
40
1
40
1
40
1
40
1
41
1
10
53.5829242122739
20
-25.2386708258087
30
0
41
1
10
53.6179078012894
20
-25.2596324108532
30
0
41
1
10
53.6528420702902
20
-25.2807879555476
30
0
41
1
10
53.6877457839945
20
-25.30206366433
30
0
0
SPLINE
5
123
100
AcDbEntity
8
1
62
256
6
ByLayer
370
18
48
1
60
0
100
AcDbSpline
70
4
71
3
72
10
73
6
40
0
40
0
40
0
40
0
40
0.5
40
0.5
40
1
40
1
40
1
40
1
41
1
10
53.3678706676646
20
-24.3493585320115
30
0
41
1
10
53.4054042456788
20
-24.4966033687903
30
0
41
1
10
53.4416352216678
20
-24.6445982564956
30
0
41
1
10
53.5130137842327
20
-24.9412118580769
30
0
41
1
10
53.5481207265146
20
-25.0898539753329
30
0
41
1
10
53.5829242122739
20
-25.2386708258087
30
0
0
SPLINE
5
124
100
AcDbEntity
8
1
62
256
6
ByLayer
370
18
48
1
60
0
100
AcDbSpline
70
4
71
3
72
69
73
65
40
0
40
0
40
0
40
0
40
0.0310760224110275
40
0.0310760224110275
40
0.0467038285011705
40
0.0467038285011705
40
0.0623316345913137
40
0.0623316345913137
40
0.124842858951886
40
0.124842858951886
40
0.156098471132173
40
0.171726277222317
40
0.171726277222317
40
0.187354083312461
40
0.187354083312461
40
0.249865307673039
40
0.249865307673039
40
0.281120919853328
40
0.281120919853328
40
0.296748725943473
40
0.296748725943473
40
0.312376532033618
40
0.312376532033618
40
0.374887756394199
40
0.374887756394199
40
0.390515562484344
40
0.390515562484344
40
0.40614336857449
40
0.40614336857449
40
0.43739898075478
40
0.43739898075478
40
0.499910205115362
40
0.499910205115362
40
0.515538011205507
40
0.515538011205507
40
0.531165817295652
40
0.531165817295652
40
0.562421429475943
40
0.562421429475943
40
0.624932653836524
40
0.624932653836524
40
0.640560459926669
40
0.640560459926669
40
0.656188266016815
40
0.656188266016815
40
0.687443878197105
40
0.687443878197105
40
0.749955102557686
40
0.749955102557686
40
0.76558290864783
40
0.76558290864783
40
0.781210714737975
40
0.781210714737975
40
0.812466326918264
40
0.812466326918264
40
0.874977551278842
40
0.874977551278842
40
0.890605357368987
40
0.890605357368987
40
0.906233163459132
40
0.906233163459132
40
0.937488775639422
40
0.937488775639422
40
1
40
1
40
1
40
1
41
1
10
23.7990351654636
20
15.0057136381022
30
0
41
1
10
23.743387972705
20
15.0086369390791
30
0
41
1
10
23.6884538312989
20
15.0126882202134
30
0
41
1
10
23.606960412175
20
15.020354759491
30
0
41
1
10
23.5798711955866
20
15.0231857263838
30
0
41
1
10
23.5260542806038
20
15.0293599425012
30
0
41
1
10
23.4994503846331
20
15.0326896056702
30
0
41
1
10
23.3684250995669
20
15.0503943949647
30
0
41
1
10
23.2694051812793
20
15.0679867097069
30
0
41
1
10
23.1289552575892
20
15.0978949986104
30
0
41
1
10
23.0607631929405
20
15.1137331807619
30
0
41
1
10
22.9956149141341
20
15.1306076128966
30
0
41
1
10
22.9528661210356
20
15.1420545366693
30
0
41
1
10
22.9318799863747
20
15.1478648695665
30
0
41
1
10
22.8295780157553
20
15.1770529635413
30
0
41
1
10
22.7553878735538
20
15.2010239053852
30
0
41
1
10
22.6550897349381
20
15.2360970437206
30
0
41
1
10
22.6235002260455
20
15.2476412532995
30
0
41
1
10
22.5789288374206
20
15.2644996074095
30
0
41
1
10
22.5645138657708
20
15.2700533757122
30
0
41
1
10
22.5367782734048
20
15.2809118769735
30
0
41
1
10
22.523479881898
20
15.2862073843185
30
0
41
1
10
22.4597971098379
20
15.3119310559668
30
0
41
1
10
22.417769851205
20
15.3300990428317
30
0
41
1
10
22.3764953869136
20
15.3484374788819
30
0
41
1
10
22.3688078968577
20
15.3518864329304
30
0
41
1
10
22.3545887475268
20
15.3583118927437
30
0
41
1
10
22.3480461216533
20
15.3612934275862
30
0
41
1
10
22.330271401127
20
15.3694409868291
30
0
41
1
10
22.3209650534569
20
15.3737736616696
30
0
41
1
10
22.300478041966
20
15.3833563022902
30
0
41
1
10
22.2966747992508
20
15.3851801281047
30
0
41
1
10
22.3044302023357
20
15.381523167586
30
0
41
1
10
22.3066111402344
20
15.3804957834539
30
0
41
1
10
22.312255700202
20
15.3778466472423
30
0
41
1
10
22.3157216132403
20
15.3762238900466
30
0
41
1
10
22.3279127405391
20
15.370544726378
30
0
41
1
10
22.3384566022841
20
15.3656637910958
30
0
41
1
10
22.3770639027493
20
15.3480850714053
30
0
41
1
10
22.412048749086
20
15.3324490561565
30
0
41
1
10
22.4672957670099
20
15.3091800428595
30
0
41
1
10
22.4789253410285
20
15.3043402161967
30
0
41
1
10
22.503361709586
20
15.2943188312633
30
0
41
1
10
22.5161811290454
20
15.2891327075903
30
0
41
1
10
22.5560230026924
20
15.2732723777066
30
0
41
1
10
22.5845421466537
20
15.2622485630351
30
0
41
1
10
22.6758281097252
20
15.228310193669
30
0
41
1
10
22.7442746244871
20
15.204529415264
30
0
41
1
10
22.8395957591103
20
15.1748717710786
30
0
41
1
10
22.8591520628009
20
15.1689435676227
30
0
41
1
10
22.8992721210104
20
15.1571321899674
30
0
41
1
10
22.9198000011562
20
15.1512604696257
30
0
41
1
10
22.9823675550857
20
15.1339217455605
30
0
41
1
10
23.0255458492786
20
15.1226847160058
30
0
41
1
10
23.1594802916232
20
15.0903511710153
30
0
41
1
10
23.2545980677928
20
15.0706226828455
30
0
41
1
10
23.3813241076101
20
15.0496566966797
30
0
41
1
10
23.4071274756719
20
15.0456403499287
30
0
41
1
10
23.4590964717846
20
15.038081142375
30
0
41
1
10
23.4852859993673
20
15.0345329745454
30
0
41
1
10
23.5644649342171
20
15.0246141412256
30
0
41
1
10
23.6180636061725
20
15.0189688379234
30
0
41
1
10
23.7813001482505
20
15.0051917712325
30
0
41
1
10
23.8933592319383
20
15.000205626154
30
0
41
1
10
24.0088773868614
20
15.0002056261541
30
0
0
SPLINE
5
125
100
AcDbEntity
8
1
62
256
6
ByLayer
370
18
48
1
60
0
100
AcDbSpline
70
4
71
3
72
9
73
5
40
0
40
0
40
0
40
0
40
0.0072621057621566
40
1
40
1
40
1
40
1
41
1
10
27.7701373352249
20
-26.6752228626978
30
0
41
1
10
27.7699911543489
20
-26.6752258295571
30
0
41
1
10
27.7497885206779
20
-26.6756408087535
30
0
41
1
10
27.7194850370034
20
-26.6769422112006
30
0
41
1
10
27.6792290519489
20
-26.6790696611944
30
0
0
SPLINE
5
126
100
AcDbEntity
8
1
62
256
6
ByLayer
370
18
48
1
60
0
100
AcDbSpline
70
4
71
3
72
8
73
4
40
0
40
0
40
0
40
0
40
1
40
1
40
1
40
1
41
1
10
53.3678706676646
20
-24.3493585320115
30
0
41
1
10
53.331378496905
20
-24.3491339788167
30
0
41
1
10
53.2945221743227
20
-24.3490304766715
30
0
41
1
10
53.2572948447396
20
-24.3490479461207
30
0
0
SPLINE
5
127
100
AcDbEntity
8
1
62
256
6
ByLayer
370
18
48
1
60
0
100
AcDbSpline
70
4
71
3
72
31
73
27
40
0
40
0
40
0
40
0
40
0.125000000000015
40
0.125000000000015
40
0.187500000000018
40
0.187500000000018
40
0.25000000000002
40
0.25000000000002
40
0.375000000000025
40
0.375000000000025
40
0.437500000000026
40
0.437500000000026
40
0.468750000000022
40
0.468750000000022
40
0.500000000000019
40
0.500000000000019
40
0.624999999999997
40
0.624999999999997
40
0.687499999999989
40
0.718749999999985
40
0.718749999999985
40
0.749999999999981
40
0.749999999999981
40
0.874999999999991
40
0.874999999999991
40
1
40
1
40
1
40
1
41
1
10
44.9999999999997
20
-24.3530775396122
30
0
41
1
10
44.9124567245443
20
-24.3531219002181
30
0
41
1
10
44.8258839175433
20
-24.3461172872954
30
0
41
1
10
44.6974422802649
20
-24.325313859993
30
0
41
1
10
44.6548380517392
20
-24.3166477678831
30
0
41
1
10
44.5702259850235
20
-24.2958363042778
30
0
41
1
10
44.5287061679526
20
-24.2838136899865
30
0
41
1
10
44.4064124462465
20
-24.2430862916906
30
0
41
1
10
44.3278903121194
20
-24.2097506594534
30
0
41
1
10
44.2145255963221
20
-24.1506604346247
30
0
41
1
10
44.1774773452105
20
-24.1294418817401
30
0
41
1
10
44.1230360330927
20
-24.0952879768863
30
0
41
1
10
44.1050496002237
20
-24.083493924647
30
0
41
1
10
44.0697806256827
20
-24.0593435830114
30
0
41
1
10
44.0524617399794
20
-24.0469661672854
30
0
41
1
10
43.9674122788213
20
-23.9835995062762
30
0
41
1
10
43.9042868630208
20
-23.9281999975408
30
0
41
1
10
43.8167130848501
20
-23.8382874770409
30
0
41
1
10
43.7747135460487
20
-23.7916195094397
30
0
41
1
10
43.735424402836
20
-23.7423558536316
30
0
41
1
10
43.7098426784911
20
-23.7089282385244
30
0
41
1
10
43.6973751387401
20
-23.6919421682516
30
0
41
1
10
43.6370994784541
20
-23.6063025741514
30
0
41
1
10
43.5950040525962
20
-23.5349771406815
30
0
41
1
10
43.5225497237568
20
-23.3869347332639
30
0
41
1
10
43.4921916632321
20
-23.3102173723072
30
0
41
1
10
43.4678928511294
20
-23.2307165052409
30
0
0
SPLINE
5
128
100
AcDbEntity
8
1
62
256
6
ByLayer
370
18
48
1
60
0
100
AcDbSpline
70
4
71
3
72
10
73
6
40
0
40
0
40
0
40
0
40
0.5
40
0.5
40
1
40
1
40
1
40
1
41
1
10
43.4889577325095
20
-23.2562413665229
30
0
41
1
10
43.4898142251905
20
-23.2519873847327
30
0
41
1
10
43.4883142903424
20
-23.2477329139491
30
0
41
1
10
43.480974880647
20
-23.2392241907971
30
0
41
1
10
43.4751403248883
20
-23.2349702203736
30
0
41
1
10
43.4678928511293
20
-23.230716505241
30
0
0
SPLINE
5
129
100
AcDbEntity
8
1
62
256
6
ByLayer
370
18
48
1
60
0
100
AcDbSpline
70
4
71
3
72
38
73
34
40
0
40
0
40
0
40
0
40
0.12500000000002
40
0.12500000000002
40
0.156250000000024
40
0.156250000000024
40
0.187500000000029
40
0.187500000000029
40
0.250000000000036
40
0.250000000000036
40
0.375000000000044
40
0.375000000000044
40
0.437500000000048
40
0.437500000000048
40
0.468750000000047
40
0.468750000000047
40
0.500000000000047
40
0.500000000000047
40
0.625000000000046
40
0.625000000000046
40
0.656250000000045
40
0.656250000000045
40
0.687500000000045
40
0.687500000000045
40
0.750000000000039
40
0.750000000000039
40
0.812500000000032
40
0.812500000000032
40
0.843750000000027
40
0.843750000000027
40
0.875000000000023
40
0.875000000000023
40
1
40
1
40
1
40
1
41
1
10
45.0000000000002
20
-25.3771528418972
30
0
41
1
10
44.9187324633987
20
-25.3911854326662
30
0
41
1
10
44.83708765873
20
-25.3990943083274
30
0
41
1
10
44.7345265406987
20
-25.4007815558508
30
0
41
1
10
44.7139889059815
20
-25.40070653895
30
0
41
1
10
44.672861299915
20
-25.3997069908282
30
0
41
1
10
44.6522409108128
20
-25.3987802386152
30
0
41
1
10
44.5905302440486
20
-25.3946975153999
30
0
41
1
10
44.5496822219378
20
-25.3902531950519
30
0
41
1
10
44.4280384821206
20
-25.3716168892069
30
0
41
1
10
44.3481351267285
20
-25.3521684717819
30
0
41
1
10
44.2302834876486
20
-25.3111949167362
30
0
41
1
10
44.1913352738976
20
-25.2955598354608
30
0
41
1
10
44.1334648308791
20
-25.2688563959893
30
0
41
1
10
44.1142657827878
20
-25.2594080382775
30
0
41
1
10
44.0764156620236
20
-25.2395630544401
30
0
41
1
10
44.057720002672
20
-25.2291468052601
30
0
41
1
10
43.9654117114495
20
-25.1745472675846
30
0
41
1
10
43.8952724690152
20
-25.1228879391988
30
0
41
1
10
43.8129314686487
20
-25.046835044394
30
0
41
1
10
43.7967385225092
20
-25.0310446201889
30
0
41
1
10
43.765262050328
20
-24.9986230165997
30
0
41
1
10
43.749932826303
20
-24.9819510312078
30
0
41
1
10
43.7051826887881
20
-24.9305396867583
30
0
41
1
10
43.6769965044261
20
-24.8944081027058
30
0
41
1
10
43.6240380091693
20
-24.8182956045227
30
0
41
1
10
43.59926493022
20
-24.7783155564159
30
0
41
1
10
43.5648286235683
20
-24.7152748004658
30
0
41
1
10
43.5538602028242
20
-24.6938428659534
30
0
41
1
10
43.5331069999472
20
-24.6504884192171
30
0
41
1
10
43.5232942144245
20
-24.6285152564689
30
0
41
1
10
43.4770140250355
20
-24.5171882960293
30
0
41
1
10
43.4488249530075
20
-24.4234893134592
30
0
41
1
10
43.4296056004545
20
-24.3250822459527
30
0
0
SPLINE
5
12A
100
AcDbEntity
8
1
62
256
6
ByLayer
370
18
48
1
60
0
100
AcDbSpline
70
4
71
3
72
8
73
4
40
0
40
0
40
0
40
0
40
1
40
1
40
1
40
1
41
1
10
43.4000000000001
20
-24.0228481840274
30
0
41
1
10
43.4000000000001
20
-24.1229782273416
30
0
41
1
10
43.4098146226591
20
-24.2237483387584
30
0
41
1
10
43.4296056004544
20
-24.325082245952
30
0
0
SPLINE
5
12B
100
AcDbEntity
8
1
62
256
6
ByLayer
370
18
48
1
60
0
100
AcDbSpline
70
4
71
3
72
10
73
6
40
0
40
0
40
0
40
0
40
0.5
40
0.5
40
1
40
1
40
1
40
1
41
1
10
21.4383186059721
20
-20.15
30
0
41
1
10
21.5024818706682
20
-20.15
30
0
41
1
10
21.5814369775895
20
-20.15
30
0
41
1
10
21.7654908575225
20
-20.15
30
0
41
1
10
21.8705705078241
20
-20.15
30
0
41
1
10
21.9868030672709
20
-20.15
30
0
0
SPLINE
5
12C
100
AcDbEntity
8
1
62
256
6
ByLayer
370
18
48
1
60
0
100
AcDbSpline
70
4
71
3
72
16
73
12
40
0
40
0
40
0
40
0
40
0.124999999999999
40
0.124999999999999
40
0.249999999999998
40
0.249999999999998
40
0.499999999999999
40
0.499999999999999
40
0.749999999999999
40
0.749999999999999
40
1
40
1
40
1
40
1
41
1
10
20.9711620903975
20
16.3978440491177
30
0
41
1
10
20.937169844697
20
16.4375229183558
30
0
41
1
10
20.9029775037535
20
16.4790198274099
30
0
41
1
10
20.8351993288314
20
16.5648905542059
30
0
41
1
10
20.8016083812335
20
16.6092659722278
30
0
41
1
10
20.7026193967027
20
16.7460260159131
30
0
41
1
10
20.6390583727695
20
16.8420486434266
30
0
41
1
10
20.5202216877664
20
17.0399497339291
30
0
41
1
10
20.4649398865836
20
17.1418147792102
30
0
41
1
10
20.3644396386326
20
17.3475764949923
30
0
41
1
10
20.3192104649632
20
17.4514606132939
30
0
41
1
10
20.2792076144253
20
17.5546734097798
30
0
0
SPLINE
5
12D
100
AcDbEntity
8
1
62
256
6
ByLayer
370
18
48
1
60
0
100
AcDbSpline
70
4
71
3
72
26
73
22
40
0
40
0
40
0
40
0
40
0.124999999999998
40
0.124999999999998
40
0.249999999999996
40
0.249999999999996
40
0.312499999999997
40
0.312499999999997
40
0.374999999999997
40
0.374999999999997
40
0.5
40
0.5
40
0.625000000000002
40
0.625000000000002
40
0.687500000000004
40
0.687500000000004
40
0.750000000000006
40
0.750000000000006
40
0.875000000000003
40
0.875000000000003
40
1
40
1
40
1
40
1
41
1
10
21.4383186059721
20
-20.5713786381932
30
0
41
1
10
21.428339523502
20
-20.5377693664993
30
0
41
1
10
21.416961958954
20
-20.5063617602222
30
0
41
1
10
21.3920587706537
20
-20.4474279949159
30
0
41
1
10
21.3785292568354
20
-20.4199047847891
30
0
41
1
10
21.3570334245432
20
-20.3813315152886
30
0
41
1
10
21.3496675007382
20
-20.368927346004
30
0
41
1
10
21.3346031215024
20
-20.3450108890075
30
0
41
1
10
21.3268821793193
20
-20.3334679540336
30
0
41
1
10
21.3035193503974
20
-20.3004349920729
30
0
41
1
10
21.2876942543587
20
-20.280539276325
30
0
41
1
10
21.2562240208611
20
-20.2447356054011
30
0
41
1
10
21.2405746684273
20
-20.2288275584788
30
0
41
1
10
21.2178395471074
20
-20.2079578335332
30
0
41
1
10
21.2103673457999
20
-20.2014872435373
30
0
41
1
10
21.1958859886617
20
-20.1896472048216
30
0
41
1
10
21.1889003732593
20
-20.1842946757189
30
0
41
1
10
21.1688941185109
20
-20.1699308733238
30
0
41
1
10
21.1568171378238
20
-20.1626026286859
30
0
41
1
10
21.1363230450369
20
-20.1526392139545
30
0
41
1
10
21.1279056543527
20
-20.15
30
0
41
1
10
21.1219994880534
20
-20.15
30
0
0
SPLINE
5
12E
100
AcDbEntity
8
1
62
256
6
ByLayer
370
18
48
1
60
0
100
AcDbSpline
70
4
71
3
72
29
73
25
40
0
40
0
40
0
40
0
40
0.0235788682328248
40
0.0235788682328248
40
0.0471577364656497
40
0.0471577364656497
40
0.0943154729312992
40
0.188630945862598
40
0.188630945862598
40
0.377261891725197
40
0.377261891725197
40
0.471577364656496
40
0.471577364656496
40
0.565892837587795
40
0.565892837587795
40
0.660208310519095
40
0.660208310519095
40
0.754523783450394
40
0.754523783450394
40
0.848839256381693
40
0.848839256381693
40
0.943154729312992
40
0.943154729312992
40
1
40
1
40
1
40
1
41
1
10
21.4383186059721
20
-20.15
30
0
41
1
10
21.4352398521798
20
-20.15
30
0
41
1
10
21.4320116298215
20
-20.15
30
0
41
1
10
21.4252716752669
20
-20.15
30
0
41
1
10
21.4217550930645
20
-20.15
30
0
41
1
10
21.4108362496353
20
-20.15
30
0
41
1
10
21.3874137613026
20
-20.15
30
0
41
1
10
21.3597764313257
20
-20.15
30
0
41
1
10
21.3002285084745
20
-20.15
30
0
41
1
10
21.2547989177614
20
-20.15
30
0
41
1
10
21.1835009719389
20
-20.15
30
0
41
1
10
21.1592140237525
20
-20.15
30
0
41
1
10
21.1106627175084
20
-20.15
30
0
41
1
10
21.0863956680037
20
-20.15
30
0
41
1
10
21.0391696758777
20
-20.15
30
0
41
1
10
21.016209265299
20
-20.15
30
0
41
1
10
20.9731612344948
20
-20.15
30
0
41
1
10
20.9530769510664
20
-20.15
30
0
41
1
10
20.9176130784177
20
-20.15
30
0
41
1
10
20.9022468054697
20
-20.15
30
0
41
1
10
20.8780875704213
20
-20.15
30
0
41
1
10
20.8693171846899
20
-20.15
30
0
41
1
10
20.8616101573686
20
-20.15
30
0
41
1
10
20.86015641885
20
-20.15
30
0
41
1
10
20.8601646759261
20
-20.15
30
0
0
SPLINE
5
12F
100
AcDbEntity
8
1
62
256
6
ByLayer
370
13
48
1
60
0
100
AcDbSpline
70
4
71
3
72
18
73
14
40
0
40
0
40
0
40
0
40
0.0047272517206614
40
0.0849380751981959
40
0.16514889867573
40
0.325570545630799
40
0.405781369108334
40
0.485992192585869
40
0.646413839540937
40
0.806835486496006
40
0.887046309973541
40
0.967257133451075
40
1
40
1
40
1
40
1
41
1
10
-0.394913799811292
20
-5.00116108217654
30
0
41
1
10
-0.394913799811292
20
-5.02384266526144
30
0
41
1
10
-0.394913799811292
20
-5.43069780454792
30
0
41
1
10
-0.394913799811292
20
-6.19788950405021
30
0
41
1
10
-0.394913799811292
20
-7.59985122616763
30
0
41
1
10
-0.394913799811292
20
-8.86359092653058
30
0
41
1
10
-0.394913799811292
20
-9.98771978618734
30
0
41
1
10
-0.394913799811292
20
-11.015314225612
30
0
41
1
10
-0.394913799811292
20
-12.1118907902116
30
0
41
1
10
-0.394913799811292
20
-12.9393754432253
30
0
41
1
10
-0.394913799811292
20
-13.4200270263956
30
0
41
1
10
-0.394913799811292
20
-13.6305385249069
30
0
41
1
10
-0.394913799811292
20
-13.7181012197506
30
0
41
1
10
-0.394913799811292
20
-13.7403540821304
30
0
0
SPLINE
5
130
100
AcDbEntity
8
1
62
256
6
ByLayer
370
18
48
1
60
0
100
AcDbSpline
70
4
71
3
72
9
73
5
40
0
40
0
40
0
40
0
40
0.601387697259607
40
1
40
1
40
1
40
1
41
1
10
-0.394913799811292
20
-13.7403545290271
30
0
41
1
10
-0.394913799811292
20
-13.772614717513
30
0
41
1
10
-0.394913799811292
20
-13.8153202987722
30
0
41
1
10
-0.394913799811292
20
-13.8386282511807
30
0
41
1
10
-0.394913799811292
20
-13.8446595289407
30
0
0
SPLINE
5
131
100
AcDbEntity
8
1
62
256
6
ByLayer
370
18
48
1
60
0
100
AcDbSpline
70
4
71
3
72
9
73
5
40
0
40
0
40
0
40
0
40
0.398611407755156
40
1
40
1
40
1
40
1
41
1
10
-0.394913799811292
20
13.8446596982821
30
0
41
1
10
-0.394913799811292
20
13.8386284705405
30
0
41
1
10
-0.394913799811292
20
13.8153206302247
30
0
41
1
10
-0.394913799811292
20
13.7726150014335
30
0
41
1
10
-0.394913799811292
20
13.7403546982822
30
0
0
SPLINE
5
132
100
AcDbEntity
8
1
62
256
6
ByLayer
370
13
48
1
60
0
100
AcDbSpline
70
4
71
3
72
18
73
14
40
0
40
0
40
0
40
0
40
0.0327429338860354
40
0.112953748813297
40
0.193164563740558
40
0.353586193595081
40
0.514007823449603
40
0.594218638376864
40
0.674429453304126
40
0.834851083158648
40
0.91506189808591
40
0.995272713013171
40
1
40
1
40
1
40
1
41
1
10
-0.394913799811292
20
13.7403545625642
30
0
41
1
10
-0.394913799811292
20
13.7181016404755
30
0
41
1
10
-0.394913799811292
20
13.6305387837889
30
0
41
1
10
-0.394913799811292
20
13.4200269261686
30
0
41
1
10
-0.394913799811292
20
12.9393760577865
30
0
41
1
10
-0.394913799811292
20
12.1118904563386
30
0
41
1
10
-0.394913799811292
20
11.0153145242408
30
0
41
1
10
-0.394913799811292
20
9.98771966705354
30
0
41
1
10
-0.394913799811292
20
8.86359091499725
30
0
41
1
10
-0.394913799811292
20
7.59985108367658
30
0
41
1
10
-0.394913799811292
20
6.19788936064779
30
0
41
1
10
-0.394913799811292
20
5.43069766104711
30
0
41
1
10
-0.394913799811292
20
5.02384231959817
30
0
41
1
10
-0.394913799811292
20
5.00116056257954
30
0
0
SPLINE
5
133
100
AcDbEntity
8
1
62
256
6
ByLayer
370
18
48
1
60
0
100
AcDbSpline
70
4
71
3
72
34
73
30
40
0
40
0
40
0
40
0
40
0.031249999999997
40
0.031249999999997
40
0.0624999999999941
40
0.0624999999999941
40
0.124999999999993
40
0.124999999999993
40
0.249999999999993
40
0.249999999999993
40
0.374999999999992
40
0.374999999999992
40
0.437499999999994
40
0.437499999999994
40
0.468749999999994
40
0.468749999999994
40
0.499999999999995
40
0.499999999999995
40
0.624999999999993
40
0.624999999999993
40
0.749999999999991
40
0.749999999999991
40
0.781249999999991
40
0.781249999999991
40
0.812499999999992
40
0.812499999999992
40
0.874999999999996
40
0.874999999999996
40
1
40
1
40
1
40
1
41
1
10
20.9711620903976
20
16.3978440491188
30
0
41
1
10
20.9903979135447
20
16.3753902307372
30
0
41
1
10
21.0099837235663
20
16.3530316339211
30
0
41
1
10
21.0498769945779
20
16.3085128451382
30
0
41
1
10
21.0701921576626
20
16.2863457106263
30
0
41
1
10
21.1319706930443
20
16.2204513304024
30
0
41
1
10
21.1743526544159
20
16.1772326741024
30
0
41
1
10
21.305195800458
20
16.0497933046663
30
0
41
1
10
21.3973420955207
20
15.9677823613291
30
0
41
1
10
21.5923040154394
20
15.8102400188938
30
0
41
1
10
21.6951136090099
20
15.7347044877218
30
0
41
1
10
21.8582937375802
20
15.6268927006097
30
0
41
1
10
21.9141855003686
20
15.5918731225972
30
0
41
1
10
22.0004390352964
20
15.54082829396
30
0
41
1
10
22.0296272642001
20
15.5240421338576
30
0
41
1
10
22.0886848570786
20
15.4910740638162
30
0
41
1
10
22.1184945093761
20
15.4749243285877
30
0
41
1
10
22.268968137563
20
15.3958740360271
30
0
41
1
10
22.3938925469323
20
15.338050099492
30
0
41
1
10
22.653607029223
20
15.2341995995566
30
0
41
1
10
22.7883901187545
20
15.1881644502103
30
0
41
1
10
22.963826129298
20
15.1389628452953
30
0
41
1
10
22.9992503642377
20
15.129547799106
30
0
41
1
10
23.0702247050155
20
15.111726504214
30
0
41
1
10
23.1058463462046
20
15.1032996054853
30
0
41
1
10
23.2131157723624
20
15.0794748485888
30
0
41
1
10
23.2851677415951
20
15.0655317875938
30
0
41
1
10
23.5029606552209
20
15.0296006688895
30
0
41
1
10
23.6503326848463
20
15.0134892766502
30
0
41
1
10
23.8000000000001
20
15.0056630694577
30
0
0
SPLINE
5
134
100
AcDbEntity
8
1
62
256
6
ByLayer
370
18
48
1
60
0
100
AcDbSpline
70
4
71
3
72
18
73
14
40
0
40
0
40
0
40
0
40
0.250000000000003
40
0.250000000000003
40
0.500000000000006
40
0.500000000000006
40
0.625000000000006
40
0.625000000000006
40
0.687500000000006
40
0.687500000000006
40
0.750000000000006
40
0.750000000000006
40
1
40
1
40
1
40
1
41
1
10
20.2792076144253
20
15.1580428550149
30
0
41
1
10
20.3199743435796
20
15.2569899217943
30
0
41
1
10
20.366090703447
20
15.3549161941657
30
0
41
1
10
20.4679736941024
20
15.5517903912136
30
0
41
1
10
20.5237460080573
20
15.6507403747088
30
0
41
1
10
20.6132176873532
20
15.8026682512435
30
0
41
1
10
20.6440032391395
20
15.8538989544997
30
0
41
1
10
20.6913727868659
20
15.932009162889
30
0
41
1
10
20.7073558941727
20
15.9582490174756
30
0
41
1
10
20.7395679189426
20
16.0110523479194
30
0
41
1
10
20.7558082605937
20
16.0376346903592
30
0
41
1
10
20.8375306617912
20
16.1715920801196
30
0
41
1
10
20.9046163953103
20
16.2820874049723
30
0
41
1
10
20.9711620903974
20
16.3978440491181
30
0
0
SPLINE
5
135
100
AcDbEntity
8
1
62
256
6
ByLayer
370
18
48
1
60
0
100
AcDbSpline
70
4
71
3
72
28
73
24
40
0
40
0
40
0
40
0
40
0.0312499999999986
40
0.0312499999999986
40
0.062499999999997
40
0.062499999999997
40
0.124999999999998
40
0.124999999999998
40
0.249999999999999
40
0.249999999999999
40
0.312499999999999
40
0.312499999999999
40
0.374999999999998
40
0.374999999999998
40
0.499999999999999
40
0.499999999999999
40
0.624999999999999
40
0.624999999999999
40
0.749999999999999
40
0.749999999999999
40
0.875
40
0.875
40
1
40
1
40
1
40
1
41
1
10
21.4383186059727
20
-17.5344468147606
30
0
41
1
10
21.4317443888466
20
-17.5015494911658
30
0
41
1
10
21.4244992944268
20
-17.468933978915
30
0
41
1
10
21.4087980870359
20
-17.4042231109542
30
0
41
1
10
21.4003259928273
20
-17.3720760571414
30
0
41
1
10
21.373425975568
20
-17.2769290038056
30
0
41
1
10
21.3535052867628
20
-17.2151094298509
30
0
41
1
10
21.289097242381
20
-17.0337373959414
30
0
41
1
10
21.2400021587358
20
-16.9182455866869
30
0
41
1
10
21.1609254525846
20
-16.7512122113045
30
0
41
1
10
21.1336473259371
20
-16.6965780820466
30
0
41
1
10
21.077777510091
20
-16.5891471259879
30
0
41
1
10
21.0494526445554
20
-16.5368590548183
30
0
41
1
10
20.9640849405895
20
-16.3837454133535
30
0
41
1
10
20.9066425664628
20
-16.286594013999
30
0
41
1
10
20.793664073985
20
-16.0991870143786
30
0
41
1
10
20.7381195079041
20
-16.0089411605353
30
0
41
1
10
20.6311540691524
20
-15.8328383533255
30
0
41
1
10
20.5797297415962
20
-15.7469841200788
30
0
41
1
10
20.4826681565943
20
-15.5773947848565
30
0
41
1
10
20.4370292036647
20
-15.493659189452
30
0
41
1
10
20.352714614097
20
-15.3262530000913
30
0
41
1
10
20.3140375362394
20
-15.2425803852793
30
0
41
1
10
20.2792076144253
20
-15.1580428550149
30
0
0
SPLINE
5
136
100
AcDbEntity
8
1
62
256
6
ByLayer
370
18
48
1
60
0
100
AcDbSpline
70
4
71
3
72
8
73
4
40
0
40
0
40
0
40
0
40
1
40
1
40
1
40
1
41
1
10
21.9868030672709
20
-20.15
30
0
41
1
10
21.7960487376393
20
-19.2772352270913
30
0
41
1
10
21.6123973681342
20
-18.4055353808869
30
0
41
1
10
21.4383186059721
20
-17.5344468147609
30
0
0
SPLINE
5
137
100
AcDbEntity
8
1
62
256
6
ByLayer
370
18
48
1
60
0
100
AcDbSpline
70
4
71
3
72
39
73
35
40
0
40
0
40
0
40
0
40
0.0233594637664444
40
0.0513972049778391
40
0.0794349461892339
40
0.107472687400629
40
0.163548169823418
40
0.219623652246208
40
0.247661393457602
40
0.275699134668997
40
0.331774617091787
40
0.359812358303181
40
0.387850099514576
40
0.415887840725971
40
0.443925581937366
40
0.47196332314876
40
0.485982193754458
40
0.500001064360155
40
0.514019934965853
40
0.52803880557155
40
0.556076546782945
40
0.58411428799434
40
0.612152029205734
40
0.640189770417129
40
0.668227511628524
40
0.724302994051313
40
0.752340735262708
40
0.780378476474103
40
0.836453958896892
40
0.892529441319682
40
0.920567182531077
40
0.948604923742471
40
0.976642664953866
40
1
40
1
40
1
40
1
41
1
10
-24
20
-12.6317140950813
30
0
41
1
10
-24
20
-12.6344703696415
30
0
41
1
10
-24
20
-12.6094822608529
30
0
41
1
10
-24
20
-12.4743689830171
30
0
41
1
10
-24
20
-12.230146179188
30
0
41
1
10
-24
20
-11.778244241418
30
0
41
1
10
-24
20
-11.0029092636263
30
0
41
1
10
-24
20
-9.97333247862687
30
0
41
1
10
-24
20
-9.00198713477033
30
0
41
1
10
-24
20
-7.94098140173097
30
0
41
1
10
-24
20
-6.76812921007328
30
0
41
1
10
-24
20
-5.45799637564653
30
0
41
1
10
-24
20
-4.42753733029454
30
0
41
1
10
-24
20
-3.35000222974921
30
0
41
1
10
-24
20
-2.23771741989395
30
0
41
1
10
-24
20
-1.30515932004789
30
0
41
1
10
-24
20
-0.551100854738877
30
0
41
1
10
-24
20
-2.454147534E-07
30
0
41
1
10
-24
20
0.551100895559586
30
0
41
1
10
-24
20
1.30515943417129
30
0
41
1
10
-24
20
2.23771697460674
30
0
41
1
10
-24
20
3.35000208235883
30
0
41
1
10
-24
20
4.4275375451636
30
0
41
1
10
-24
20
5.45799609225458
30
0
41
1
10
-24
20
6.76812911518888
30
0
41
1
10
-24
20
7.94098139760015
30
0
41
1
10
-24
20
9.00198709358403
30
0
41
1
10
-24
20
9.97333275207072
30
0
41
1
10
-24
20
11.0029089912388
30
0
41
1
10
-24
20
11.7782448377074
30
0
41
1
10
-24
20
12.2301460729139
30
0
41
1
10
-24
20
12.4743692733745
30
0
41
1
10
-24
20
12.609479092501
30
0
41
1
10
-24
20
12.6344684123645
30
0
41
1
10
-24
20
12.6317149360195
30
0
0
SPLINE
5
138
100
AcDbEntity
8
1
62
256
6
ByLayer
370
18
48
1
60
0
100
AcDbSpline
70
4
71
3
72
9
73
5
40
0
40
0
40
0
40
0
40
0.558773255506277
40
1
40
1
40
1
40
1
41
1
10
-1.49503997793928
20
13.8252670526703
30
0
41
1
10
-1.49503997793928
20
13.8253385808796
30
0
41
1
10
-1.49503997793928
20
13.8032101935146
30
0
41
1
10
-1.49503997793928
20
13.7451767931235
30
0
41
1
10
-1.49503997793928
20
13.7130156698283
30
0
0
SPLINE
5
139
100
AcDbEntity
8
1
62
256
6
ByLayer
370
13
48
1
60
0
100
AcDbSpline
70
4
71
3
72
20
73
16
40
0
40
0
40
0
40
0
40
0.0283171876926234
40
0.0975854516898551
40
0.166853715687087
40
0.305390243681551
40
0.443926771676014
40
0.513195035673246
40
0.582463299670478
40
0.720999827664942
40
0.790268091662174
40
0.859536355659405
40
0.928804619656637
40
0.998072883653869
40
1
40
1
40
1
40
1
41
1
10
-1.49503997793928
20
13.7130156698276
30
0
41
1
10
-1.49503997793928
20
13.6907766312736
30
0
41
1
10
-1.49503997793928
20
13.6033357132904
30
0
41
1
10
-1.49503997793928
20
13.3930993868039
30
0
41
1
10
-1.49503997793928
20
12.9130991355629
30
0
41
1
10
-1.49503997793928
20
12.0867937065467
30
0
41
1
10
-1.49503997793928
20
10.9917340076615
30
0
41
1
10
-1.49503997793928
20
9.96541209516295
30
0
41
1
10
-1.49503997793928
20
8.84271184628204
30
0
41
1
10
-1.49503997793928
20
7.58102884110858
30
0
41
1
10
-1.49503997793928
20
6.18114524290198
30
0
41
1
10
-1.49503997793928
20
5.06527592408099
30
0
41
1
10
-1.49503997793928
20
3.88412508952482
30
0
41
1
10
-1.49503997793928
20
3.04345441166049
30
0
41
1
10
-1.49503997793928
20
2.60753527399982
30
0
41
1
10
-1.49503997793928
20
2.59572866980201
30
0
0
SPLINE
5
13A
100
AcDbEntity
8
1
62
256
6
ByLayer
370
13
48
1
60
0
100
AcDbSpline
70
4
71
3
72
20
73
16
40
0
40
0
40
0
40
0
40
0.0019270700262484
40
0.0711953294822943
40
0.14046358893834
40
0.209731848394386
40
0.279000107850432
40
0.417536626762524
40
0.48680488621857
40
0.556073145674616
40
0.694609664586707
40
0.833146183498799
40
0.902414442954845
40
0.971682702410891
40
1
40
1
40
1
40
1
41
1
10
-1.49503997793928
20
-2.59572959682796
30
0
41
1
10
-1.49503997793928
20
-2.60753591899177
30
0
41
1
10
-1.49503997793928
20
-3.04345481646683
30
0
41
1
10
-1.49503997793928
20
-3.88412534084222
30
0
41
1
10
-1.49503997793928
20
-5.0652758228772
30
0
41
1
10
-1.49503997793928
20
-6.18114538947242
30
0
41
1
10
-1.49503997793928
20
-7.58102898252227
30
0
41
1
10
-1.49503997793928
20
-8.84271185764786
30
0
41
1
10
-1.49503997793928
20
-9.96541221253273
30
0
41
1
10
-1.49503997793928
20
-10.9917337096027
30
0
41
1
10
-1.49503997793928
20
-12.0867940390283
30
0
41
1
10
-1.49503997793928
20
-12.9130985214152
30
0
41
1
10
-1.49503997793928
20
-13.3930994871677
30
0
41
1
10
-1.49503997793928
20
-13.6033356716472
30
0
41
1
10
-1.49503997793926
20
-13.6907765202283
30
0
41
1
10
-1.49503997793926
20
-13.713015596817
30
0
0
SPLINE
5
13B
100
AcDbEntity
8
1
62
256
6
ByLayer
370
18
48
1
60
0
100
AcDbSpline
70
4
71
3
72
9
73
5
40
0
40
0
40
0
40
0
40
0.442559125633661
40
1
40
1
40
1
40
1
41
1
10
-1.49503997793928
20
-13.7130150342792
30
0
41
1
10
-1.49503997793928
20
-13.7451762618425
30
0
41
1
10
-1.49503997793928
20
-13.8030351506016
30
0
41
1
10
-1.49503997793928
20
-13.8252049492696
30
0
41
1
10
-1.49503997793928
20
-13.8252670342787
30
0
0
SPLINE
5
13C
100
AcDbEntity
8
1
62
256
6
ByLayer
370
18
48
1
60
0
100
AcDbSpline
70
4
71
3
72
50
73
46
40
0
40
0
40
0
40
0
40
0.125000000000012
40
0.125000000000012
40
0.250000000000024
40
0.250000000000024
40
0.312500000000031
40
0.312500000000031
40
0.375000000000038
40
0.375000000000038
40
0.437500000000045
40
0.437500000000045
40
0.468750000000048
40
0.468750000000048
40
0.48437500000005
40
0.48437500000005
40
0.500000000000052
40
0.500000000000052
40
0.515625000000054
40
0.515625000000054
40
0.523437500000057
40
0.523437500000057
40
0.531250000000059
40
0.531250000000059
40
0.535156250000059
40
0.535156250000059
40
0.539062500000059
40
0.539062500000059
40
0.546875000000059
40
0.546875000000059
40
0.562500000000056
40
0.562500000000056
40
0.578125000000054
40
0.578125000000054
40
0.593750000000052
40
0.593750000000052
40
0.625000000000048
40
0.625000000000048
40
0.68750000000004
40
0.68750000000004
40
0.750000000000032
40
0.750000000000032
40
0.875000000000016
40
0.875000000000016
40
1
40
1
40
1
40
1
41
1
10
-1.49503997793928
20
-2.59572959682799
30
0
41
1
10
-1.50259580380231
20
-2.54970538090487
30
0
41
1
10
-1.5104440791938
20
-2.5037485497009
30
0
41
1
10
-1.52696140207524
20
-2.41209242042987
30
0
41
1
10
-1.53561964544304
20
-2.36637992038092
30
0
41
1
10
-1.54962149943921
20
-2.29823508774663
30
0
41
1
10
-1.55445799280432
20
-2.27560423600821
30
0
41
1
10
-1.56462503300466
20
-2.23061031941455
30
0
41
1
10
-1.56994933734998
20
-2.20824327444524
30
0
41
1
10
-1.58141440210633
20
-2.1639829941042
30
0
41
1
10
-1.58752132339228
20
-2.14206819971534
30
0
41
1
10
-1.5980018377696
20
-2.11000295822438
30
0
41
1
10
-1.60173135359588
20
-2.09941136011767
30
0
41
1
10
-1.60792208521562
20
-2.0840854996479
30
0
41
1
10
-1.61008417279069
20
-2.0790771956942
30
0
41
1
10
-1.61471614069211
20
-2.06937654210969
30
0
41
1
10
-1.61717970743425
20
-2.06467763004105
30
0
41
1
10
-1.62266900676536
20
-2.05586039978144
30
0
41
1
10
-1.62570082643288
20
-2.05168607565219
30
0
41
1
10
-1.63098239203811
20
-2.04685996014615
30
0
41
1
10
-1.6329019457323
20
-2.04547928392895
30
0
41
1
10
-1.63699263810764
20
-2.04373469956386
30
0
41
1
10
-1.63921911624004
20
-2.04338149066749
30
0
41
1
10
-1.64253578152042
20
-2.04402974687966
30
0
41
1
10
-1.64365346396514
20
-2.04444453700538
30
0
41
1
10
-1.64576913847839
20
-2.04559596629972
30
0
41
1
10
-1.64678471429062
20
-2.04633307019134
30
0
41
1
10
-1.64972344115719
20
-2.04895713823333
30
0
41
1
10
-1.65146277058665
20
-2.05118187975825
30
0
41
1
10
-1.65615085025311
20
-2.05848683766303
30
0
41
1
10
-1.6585367992972
20
-2.06399527606521
30
0
41
1
10
-1.66277344227467
20
-2.07547629075165
30
0
41
1
10
-1.66455510466849
20
-2.0813878802806
30
0
41
1
10
-1.66776761506961
20
-2.09338046474815
30
0
41
1
10
-1.66917976470285
20
-2.09942277841125
30
0
41
1
10
-1.67305217630945
20
-2.11760538297838
30
0
41
1
10
-1.67515949014842
20
-2.12981712458023
30
0
41
1
10
-1.68075232756121
20
-2.16659121971193
30
0
41
1
10
-1.68351230038942
20
-2.19134004598717
30
0
41
1
10
-1.68813273270567
20
-2.24066381962936
30
0
41
1
10
-1.68996451253321
20
-2.26528111364473
30
0
41
1
10
-1.69458987013775
20
-2.33904299616424
30
0
41
1
10
-1.6965250123217
20
-2.38809848078014
30
0
41
1
10
-1.69914629015307
20
-2.48605219520391
30
0
41
1
10
-1.69980283176193
20
-2.53494813104055
30
0
41
1
10
-1.69999999999999
20
-2.58377808521789
30
0
0
SPLINE
5
13D
100
AcDbEntity
8
1
62
256
6
ByLayer
370
18
48
1
60
0
100
AcDbSpline
70
4
71
3
72
8
73
4
40
0
40
0
40
0
40
0
40
1
40
1
40
1
40
1
41
1
10
-1.30710678118655
20
-3.62853433720642
30
0
41
1
10
-1.37356947571646
20
-3.29172452904805
30
0
41
1
10
-1.4372004972023
20
-2.94804273884375
30
0
41
1
10
-1.49503997793928
20
-2.59572959682799
30
0
0
SPLINE
5
13E
100
AcDbEntity
8
1
62
256
6
ByLayer
370
18
48
1
60
0
100
AcDbSpline
70
4
71
3
72
8
73
4
40
0
40
0
40
0
40
0
40
1
40
1
40
1
40
1
41
1
10
-1.49503997793928
20
2.59572866974992
30
0
41
1
10
-1.43720046286555
20
2.94804131885212
30
0
41
1
10
-1.37356940710868
20
3.29172262772087
30
0
41
1
10
-1.30710678118655
20
3.62853202212773
30
0
0
SPLINE
5
13F
100
AcDbEntity
8
1
62
256
6
ByLayer
370
18
48
1
60
0
100
AcDbSpline
70
4
71
3
72
50
73
46
40
0
40
0
40
0
40
0
40
0.125000000000011
40
0.125000000000011
40
0.250000000000021
40
0.250000000000021
40
0.312500000000027
40
0.312500000000027
40
0.375000000000032
40
0.375000000000032
40
0.406250000000035
40
0.406250000000035
40
0.421875000000036
40
0.421875000000036
40
0.437500000000038
40
0.437500000000038
40
0.453125000000039
40
0.453125000000039
40
0.460937500000039
40
0.460937500000039
40
0.468750000000038
40
0.468750000000038
40
0.476562500000038
40
0.476562500000038
40
0.484375000000037
40
0.484375000000037
40
0.492187500000037
40
0.492187500000037
40
0.500000000000036
40
0.500000000000036
40
0.515625000000035
40
0.515625000000035
40
0.531250000000034
40
0.531250000000034
40
0.562500000000032
40
0.562500000000032
40
0.625000000000028
40
0.625000000000028
40
0.687500000000023
40
0.687500000000023
40
0.750000000000019
40
0.750000000000019
40
0.87500000000001
40
0.87500000000001
40
1
40
1
40
1
40
1
41
1
10
-1.69999999999999
20
2.58377729734613
30
0
41
1
10
-1.69980436369318
20
2.53532682713825
30
0
41
1
10
-1.69915633746155
20
2.48678291130128
30
0
41
1
10
-1.69657077641125
20
2.38945991149225
30
0
41
1
10
-1.69465688317246
20
2.34062742639441
30
0
41
1
10
-1.69011547560279
20
2.26744567235394
30
0
41
1
10
-1.68832031406808
20
2.24305704289955
30
0
41
1
10
-1.68382251839571
20
2.19430149785723
30
0
41
1
10
-1.6811538035131
20
2.16993349213547
30
0
41
1
10
-1.67575012136615
20
2.13342095957782
30
0
41
1
10
-1.67370679113651
20
2.12121687034826
30
0
41
1
10
-1.66999109272726
20
2.10307013790924
30
0
41
1
10
-1.66864594862511
20
2.09706546109075
30
0
41
1
10
-1.66562961649734
20
2.08519083778748
30
0
41
1
10
-1.66396430018824
20
2.07931848353303
30
0
41
1
10
-1.66005581238082
20
2.06781172737621
30
0
41
1
10
-1.65780271049238
20
2.06209889338854
30
0
41
1
10
-1.65360265881839
20
2.05440095769973
30
0
41
1
10
-1.65203540861353
20
2.05194214116116
30
0
41
1
10
-1.64851622596237
20
2.04772090624601
30
0
41
1
10
-1.64651873271586
20
2.04593477970201
30
0
41
1
10
-1.64226262858722
20
2.043768326699
30
0
41
1
10
-1.63997873447315
20
2.04341449775865
30
0
41
1
10
-1.63568436966969
20
2.04410116240959
30
0
41
1
10
-1.63361913581855
20
2.0450986814044
30
0
41
1
10
-1.62982987335099
20
2.04777834300637
30
0
41
1
10
-1.62808309003236
20
2.04945955976308
30
0
41
1
10
-1.62484301170014
20
2.0531239146128
30
0
41
1
10
-1.62333314102943
20
2.05512691093279
30
0
41
1
10
-1.61901669792689
20
2.06146559975113
30
0
41
1
10
-1.61642392925381
20
2.06612103362772
30
0
41
1
10
-1.61160259165956
20
2.07573673930193
30
0
41
1
10
-1.60936320219
20
2.08073614174975
30
0
41
1
10
-1.60299914819288
20
2.09599696577877
30
0
41
1
10
-1.59920684184681
20
2.10654042134561
30
0
41
1
10
-1.58850203306028
20
2.13871110702169
30
0
41
1
10
-1.58228349561369
20
2.16081267675321
30
0
41
1
10
-1.57063755711232
20
2.20542457669759
30
0
41
1
10
-1.56523752837913
20
2.22799607735607
30
0
41
1
10
-1.55494638829134
20
2.27335583269641
30
0
41
1
10
-1.5500606785543
20
2.29615277543081
30
0
41
1
10
-1.53593092606573
20
2.36476035150477
30
0
41
1
10
-1.52720389146864
20
2.41078220609728
30
0
41
1
10
-1.51055736408901
20
2.5030840028657
30
0
41
1
10
-1.50265060758178
20
2.54937072424823
30
0
41
1
10
-1.49503997793928
20
2.59572866980201
30
0
0
SPLINE
5
140
100
AcDbEntity
8
1
62
256
6
ByLayer
370
18
48
1
60
0
100
AcDbSpline
70
4
71
3
72
21
73
17
40
0
40
0
40
0
40
0
40
0.0053471909139439
40
0.0675275880652485
40
0.129707985216553
40
0.191888382367858
40
0.254068779519162
40
0.378429573821771
40
0.440609970973076
40
0.50279036812438
40
0.62715116242699
40
0.751511956729599
40
0.813692353880903
40
0.875872751032208
40
0.938053148183513
40
1
40
1
40
1
40
1
41
1
10
-1.69999999999999
20
-2.58377808521789
30
0
41
1
10
-1.69999999999999
20
-2.6211130853342
30
0
41
1
10
-1.69999999999999
20
-3.09163207213677
30
0
41
1
10
-1.69999999999999
20
-3.97134131573901
30
0
41
1
10
-1.69999999999999
20
-5.16941096177055
30
0
41
1
10
-1.69999999999999
20
-6.29922705440438
30
0
41
1
10
-1.69999999999999
20
-7.71376588282689
30
0
41
1
10
-1.69999999999999
20
-8.98995375595479
30
0
41
1
10
-1.69999999999999
20
-10.1227281115305
30
0
41
1
10
-1.69999999999999
20
-11.1580265629749
30
0
41
1
10
-1.69999999999999
20
-12.2637795792515
30
0
41
1
10
-1.69999999999999
20
-13.0984067777707
30
0
41
1
10
-1.69999999999999
20
-13.5829959818305
30
0
41
1
10
-1.69999999999999
20
-13.8477062499051
30
0
41
1
10
-1.69999999999999
20
-14.0038343027017
30
0
41
1
10
-1.69999999999999
20
-14.027233876962
30
0
41
1
10
-1.69999999999999
20
-14.0158119585016
30
0
0
SPLINE
5
141
100
AcDbEntity
8
1
62
256
6
ByLayer
370
18
48
1
60
0
100
AcDbSpline
70
4
71
3
72
28
73
24
40
0
40
0
40
0
40
0
40
0.0625
40
0.0625
40
0.125
40
0.125
40
0.25
40
0.25
40
0.375
40
0.375
40
0.5
40
0.5
40
0.53125
40
0.53125
40
0.5625
40
0.5625
40
0.625
40
0.625
40
0.75
40
0.75
40
0.875
40
0.875
40
1
40
1
40
1
40
1
41
1
10
-1.69999999999999
20
-2.58377808521789
30
0
41
1
10
-1.7165348045867
20
-2.4797818566588
30
0
41
1
10
-1.73252928227532
20
-2.37518275958956
30
0
41
1
10
-1.76321329032666
20
-2.16467276723154
30
0
41
1
10
-1.7779104307611
20
-2.05868937391003
30
0
41
1
10
-1.8194991935238
20
-1.74011907259904
30
0
41
1
10
-1.84395869573467
20
-1.52647783394633
30
0
41
1
10
-1.88456941336776
20
-1.09633072422011
30
0
41
1
10
-1.90073152159664
20
-0.879827175945792
30
0
41
1
10
-1.92269285742202
20
-0.443534065874189
30
0
41
1
10
-1.9285260192795
20
-0.2237512458141
30
0
41
1
10
-1.92857376506791
20
0.0532112388235646
30
0
41
1
10
-1.92821915648835
20
0.108715900509111
30
0
41
1
10
-1.92678890529308
20
0.219949147197781
30
0
41
1
10
-1.92571062209052
20
0.275747908317783
30
0
41
1
10
-1.92143351430278
20
0.442459814342243
30
0
41
1
10
-1.91719408999322
20
0.552958450347262
30
0
41
1
10
-1.90057185673115
20
0.882620801089502
30
0
41
1
10
-1.88427766240593
20
1.09995043784016
30
0
41
1
10
-1.84353399204588
20
1.53043779083347
30
0
41
1
10
-1.81907192909574
20
1.7435914590406
30
0
41
1
10
-1.76383853333439
20
2.16627904107367
30
0
41
1
10
-1.7330653294344
20
2.37581216989977
30
0
41
1
10
-1.69999999999999
20
2.58377729734613
30
0
0
SPLINE
5
142
100
AcDbEntity
8
1
62
256
6
ByLayer
370
18
48
1
60
0
100
AcDbSpline
70
4
71
3
72
21
73
17
40
0
40
0
40
0
40
0
40
0.061947034237803
40
0.12412741692443
40
0.186307799611057
40
0.248488182297683
40
0.372848947670937
40
0.49720971304419
40
0.559390095730817
40
0.621570478417444
40
0.745931243790698
40
0.808111626477324
40
0.870292009163951
40
0.932472391850578
40
0.994652774537205
40
1
40
1
40
1
40
1
41
1
10
-1.69999999999999
20
14.0158119278791
30
0
41
1
10
-1.69999999999999
20
14.027233986118
30
0
41
1
10
-1.69999999999999
20
14.0038349661151
30
0
41
1
10
-1.69999999999999
20
13.8477064954836
30
0
41
1
10
-1.69999999999999
20
13.5829958824317
30
0
41
1
10
-1.69999999999999
20
13.0984073948343
30
0
41
1
10
-1.69999999999999
20
12.2637792369573
30
0
41
1
10
-1.69999999999999
20
11.158026865053
30
0
41
1
10
-1.69999999999999
20
10.1227279817209
30
0
41
1
10
-1.69999999999999
20
8.9899537434076
30
0
41
1
10
-1.69999999999999
20
7.71376573381551
30
0
41
1
10
-1.69999999999999
20
6.29922693017525
30
0
41
1
10
-1.69999999999999
20
5.16941104441418
30
0
41
1
10
-1.69999999999999
20
3.97134104745157
30
0
41
1
10
-1.69999999999999
20
3.09163174208075
30
0
41
1
10
-1.69999999999999
20
2.62111254506641
30
0
41
1
10
-1.69999999999999
20
2.58377729734613
30
0
0
SPLINE
5
143
100
AcDbEntity
8
1
62
256
6
ByLayer
370
18
48
1
60
0
100
AcDbSpline
70
4
71
3
72
39
73
35
40
0
40
0
40
0
40
0
40
0.027768010712953
40
0.0555463614458698
40
0.0833247121787866
40
0.111103062911703
40
0.166659764377537
40
0.22221646584337
40
0.249994816576287
40
0.277773167309204
40
0.333329868775038
40
0.361108219507954
40
0.388886570240871
40
0.416664920973788
40
0.444443271706705
40
0.472221622439622
40
0.48611079780608
40
0.499999973172538
40
0.513889148538997
40
0.527778323905455
40
0.555556674638372
40
0.583335025371288
40
0.611113376104205
40
0.638891726837122
40
0.666670077570039
40
0.722226779035873
40
0.750005129768789
40
0.777783480501706
40
0.83334018196754
40
0.888896883433373
40
0.91667523416629
40
0.944453584899207
40
0.972231935632123
40
1
40
1
40
1
40
1
41
1
10
-22.5
20
13.4936008046568
30
0
41
1
10
-22.5
20
13.5046599449046
30
0
41
1
10
-22.5
20
13.4821972891382
30
0
41
1
10
-22.5
20
13.3308795934982
30
0
41
1
10
-22.5
20
13.0738789920944
30
0
41
1
10
-22.5
20
12.6015916721314
30
0
41
1
10
-22.5
20
11.7892769425394
30
0
41
1
10
-22.5
20
10.7121918739409
30
0
41
1
10
-22.5
20
9.70096045673193
30
0
41
1
10
-22.5
20
8.5951948167403
30
0
41
1
10
-22.5
20
7.35789505897995
30
0
41
1
10
-22.5
20
5.98264719956148
30
0
41
1
10
-22.5
20
4.89022238185547
30
0
41
1
10
-22.5
20
3.73751305004353
30
0
41
1
10
-22.5
20
2.52988134516508
30
0
41
1
10
-22.5
20
1.48826022368627
30
0
41
1
10
-22.5
20
0.637225639727404
30
0
41
1
10
-22.5
20
-1.01300202E-07
30
0
41
1
10
-22.5
20
-0.63722566300541
30
0
41
1
10
-22.5
20
-1.48826017841199
30
0
41
1
10
-22.5
20
-2.52988151772914
30
0
41
1
10
-22.5
20
-3.73751327283387
30
0
41
1
10
-22.5
20
-4.89022224945154
30
0
41
1
10
-22.5
20
-5.98264738368823
30
0
41
1
10
-22.5
20
-7.35789518762175
30
0
41
1
10
-22.5
20
-8.59519482612015
30
0
41
1
10
-22.5
20
-9.70096055319001
30
0
41
1
10
-22.5
20
-10.7121915826386
30
0
41
1
10
-22.5
20
-11.7892772585257
30
0
41
1
10
-22.5
20
-12.6015910628856
30
0
41
1
10
-22.5
20
-13.0738790940806
30
0
41
1
10
-22.5
20
-13.3308793310681
30
0
41
1
10
-22.5
20
-13.4821969016614
30
0
41
1
10
-22.5
20
-13.5046599496925
30
0
41
1
10
-22.5
20
-13.4936006575551
30
0
0
SPLINE
5
144
100
AcDbEntity
8
1
62
256
6
ByLayer
370
18
48
1
60
0
100
AcDbSpline
70
4
71
3
72
38
73
34
40
0
40
0
40
0
40
0
40
0.0156249999999998
40
0.0156249999999998
40
0.0312499999999996
40
0.0312499999999996
40
0.0468749999999993
40
0.0468749999999993
40
0.0624999999999991
40
0.0624999999999991
40
0.0781249999999989
40
0.0781249999999989
40
0.0937499999999988
40
0.0937499999999988
40
0.124999999999998
40
0.124999999999998
40
0.156249999999997
40
0.156249999999997
40
0.187499999999996
40
0.187499999999996
40
0.249999999999995
40
0.249999999999995
40
0.312499999999993
40
0.312499999999993
40
0.374999999999992
40
0.374999999999992
40
0.499999999999993
40
0.499999999999993
40
0.624999999999995
40
0.624999999999995
40
0.749999999999996
40
0.749999999999996
40
1
40
1
40
1
40
1
41
1
10
-0.394913799807426
20
5.0011605625827
30
0
41
1
10
-0.391748910595936
20
4.99861131394735
30
0
41
1
10
-0.388451589186047
20
4.99624657017219
30
0
41
1
10
-0.381503554973733
20
4.99201030025037
30
0
41
1
10
-0.377826935748601
20
4.99013013351893
30
0
41
1
10
-0.370199866878068
20
4.98715038455433
30
0
41
1
10
-0.36623710796195
20
4.98603634171386
30
0
41
1
10
-0.357908257094152
20
4.98482371680839
30
0
41
1
10
-0.353680105341994
20
4.98475614855752
30
0
41
1
10
-0.345215229645106
20
4.98581465317153
30
0
41
1
10
-0.340970311888157
20
4.98696063906212
30
0
41
1
10
-0.332955447377685
20
4.99024185405628
30
0
41
1
10
-0.329074985882386
20
4.99241446107368
30
0
41
1
10
-0.318315705386453
20
4.99984728403027
30
0
41
1
10
-0.31208522105814
20
5.00607580183947
30
0
41
1
10
-0.301009391385094
20
5.01954154516272
30
0
41
1
10
-0.296146757250483
20
5.02681840777248
30
0
41
1
10
-0.287438460223086
20
5.04163217306564
30
0
41
1
10
-0.283588617015113
20
5.04917503165893
30
0
41
1
10
-0.272989810764841
20
5.07205528847362
30
0
41
1
10
-0.267174521636747
20
5.08763962812947
30
0
41
1
10
-0.25687294127701
20
5.11914471876437
30
0
41
1
10
-0.252415474862204
20
5.13507348953752
30
0
41
1
10
-0.244408671813716
20
5.16715112267377
30
0
41
1
10
-0.240869472299124
20
5.18329434587591
30
0
41
1
10
-0.231309806283861
20
5.23164989232507
30
0
41
1
10
-0.226295439929686
20
5.26391096453324
30
0
41
1
10
-0.217912063159474
20
5.3284110202664
30
0
41
1
10
-0.214571990690132
20
5.36058541153008
30
0
41
1
10
-0.209086134712749
20
5.42467998241563
30
0
41
1
10
-0.206944102193148
20
5.45662122324208
30
0
41
1
10
-0.201889292856521
20
5.55215860520599
30
0
41
1
10
-0.200325582586999
20
5.61546983788409
30
0
41
1
10
-0.199999999999989
20
5.67845150388044
30
0
0
SPLINE
5
145
100
AcDbEntity
8
1
62
256
6
ByLayer
370
18
48
1
60
0
100
AcDbSpline
70
4
71
3
72
51
73
47
40
0
40
0
40
0
40
0
40
0.125
40
0.125
40
0.250000000000001
40
0.250000000000001
40
0.375000000000001
40
0.375000000000001
40
0.500000000000001
40
0.500000000000001
40
0.562500000000002
40
0.562500000000002
40
0.625000000000003
40
0.625000000000003
40
0.656250000000003
40
0.656250000000003
40
0.687500000000004
40
0.687500000000004
40
0.750000000000003
40
0.750000000000003
40
0.781250000000003
40
0.781250000000003
40
0.796875000000003
40
0.796875000000003
40
0.812500000000003
40
0.812500000000003
40
0.843750000000002
40
0.843750000000002
40
0.859375000000002
40
0.859375000000002
40
0.875000000000001
40
0.882812500000001
40
0.882812500000001
40
0.890625000000001
40
0.890625000000001
40
0.906250000000001
40
0.914062500000001
40
0.914062500000001
40
0.921875000000001
40
0.921875000000001
40
0.9375
40
0.953125
40
0.953125
40
0.96875
40
0.96875
40
1
40
1
40
1
40
1
41
1
10
-1.30710678118751
20
3.62853202212816
30
0
41
1
10
-1.29190613640859
20
3.70556358522939
30
0
41
1
10
-1.27564950878531
20
3.7820205106818
30
0
41
1
10
-1.24060841320622
20
3.93375870314148
30
0
41
1
10
-1.22181063294732
20
4.00910669461106
30
0
41
1
10
-1.18115763731655
20
4.15813319978361
30
0
41
1
10
-1.15931218721892
20
4.23182333008765
30
0
41
1
10
-1.11159177403968
20
4.37733091027962
30
0
41
1
10
-1.08574263925135
20
4.44915525032008
30
0
41
1
10
-1.04258655138119
20
4.55515277213792
30
0
41
1
10
-1.02746285247525
20
4.59019333091888
30
0
41
1
10
-0.995317234370305
20
4.65958274004282
30
0
41
1
10
-0.978301889811434
20
4.69393335632202
30
0
41
1
10
-0.950840081220861
20
4.74480636515827
30
0
41
1
10
-0.941360422010973
20
4.76165452150423
30
0
41
1
10
-0.921612206817855
20
4.79509560720325
30
0
41
1
10
-0.911330345780556
20
4.81170689277053
30
0
41
1
10
-0.879296662789443
20
4.86066233047501
30
0
41
1
10
-0.856343638951387
20
4.89227865327604
30
0
41
1
10
-0.818026122235779
20
4.93731968624948
30
0
41
1
10
-0.804596803075015
20
4.95193103239396
30
0
41
1
10
-0.783093038222916
20
4.97302905184745
30
0
41
1
10
-0.775696659387535
20
4.9799241664696
30
0
41
1
10
-0.760349771776134
20
4.99338317091983
30
0
41
1
10
-0.752392350049945
20
4.999948849948
30
0
41
1
10
-0.727880800919934
20
5.01875181169186
30
0
41
1
10
-0.710603681718226
20
5.03020967742904
30
0
41
1
10
-0.68262925493238
20
5.04504465543113
30
0
41
1
10
-0.672891603682132
20
5.04961808259611
30
0
41
1
10
-0.652894042393314
20
5.05762851177528
30
0
41
1
10
-0.63755105348244
20
5.06277719842694
30
0
41
1
10
-0.621612371118459
20
5.06644388397413
30
0
41
1
10
-0.610843200204982
20
5.06853179751513
30
0
41
1
10
-0.605373228252517
20
5.06939770112723
30
0
41
1
10
-0.589024240534229
20
5.07139043996949
30
0
41
1
10
-0.572669010460402
20
5.07220433725334
30
0
41
1
10
-0.556304392511265
20
5.07124292633216
30
0
41
1
10
-0.545392549087381
20
5.07020599311227
30
0
41
1
10
-0.539919309159188
20
5.06948506381411
30
0
41
1
10
-0.523814898152125
20
5.06678978581303
30
0
41
1
10
-0.50297983481218
20
5.06177117057427
30
0
41
1
10
-0.483228911030722
20
5.05432574420999
30
0
41
1
10
-0.463947967840653
20
5.04582591451216
30
0
41
1
10
-0.45453441672953
20
5.04103707702356
30
0
41
1
10
-0.427464692677432
20
5.02563245237855
30
0
41
1
10
-0.410735023483483
20
5.01390421017646
30
0
41
1
10
-0.394913799810496
20
5.00116056255814
30
0
0
SPLINE
5
146
100
AcDbEntity
8
1
62
256
6
ByLayer
370
18
48
1
60
0
100
AcDbSpline
70
4
71
3
72
51
73
47
40
0
40
0
40
0
40
0
40
0.0312499999999998
40
0.0312499999999998
40
0.0468749999999998
40
0.0468749999999998
40
0.0624999999999999
40
0.0624999999999999
40
0.0781250000000002
40
0.0859375000000003
40
0.0859375000000003
40
0.0937500000000004
40
0.0937500000000004
40
0.125000000000001
40
0.125000000000001
40
0.132812500000001
40
0.132812500000001
40
0.140625000000001
40
0.140625000000001
40
0.156250000000001
40
0.156250000000001
40
0.171875000000001
40
0.171875000000001
40
0.1875
40
0.1875
40
0.21875
40
0.21875
40
0.250000000000001
40
0.250000000000001
40
0.312500000000001
40
0.312500000000001
40
0.375000000000001
40
0.375000000000001
40
0.437500000000001
40
0.437500000000001
40
0.500000000000001
40
0.500000000000001
40
0.562500000000002
40
0.562500000000002
40
0.625000000000002
40
0.625000000000002
40
0.750000000000001
40
0.750000000000001
40
0.875
40
0.875
40
1
40
1
40
1
40
1
41
1
10
-0.394913799811292
20
-5.00116108217659
30
0
41
1
10
-0.410665386495026
20
-5.01384862569722
30
0
41
1
10
-0.427444682539459
20
-5.02560401094567
30
0
41
1
10
-0.45422581270239
20
-5.04087055985525
30
0
41
1
10
-0.463438908679222
20
-5.04557564745028
30
0
41
1
10
-0.482560235211111
20
-5.05405619211425
30
0
41
1
10
-0.492542658095488
20
-5.05785401853598
30
0
41
1
10
-0.512988129699522
20
-5.06417699720825
30
0
41
1
10
-0.528606239136934
20
-5.06795442924033
30
0
41
1
10
-0.544698986354916
20
-5.07012184570777
30
0
41
1
10
-0.555539481232216
20
-5.07118703454174
30
0
41
1
10
-0.561044214178423
20
-5.0715296778481
30
0
41
1
10
-0.588380278389167
20
-5.07223202598755
30
0
41
1
10
-0.609788395540534
20
-5.06961980113229
30
0
41
1
10
-0.636038898961743
20
-5.06284104440826
30
0
41
1
10
-0.641273399804732
20
-5.06130432437081
30
0
41
1
10
-0.651523728611267
20
-5.05794894419779
30
0
41
1
10
-0.656561241457752
20
-5.05612553121156
30
0
41
1
10
-0.671435209911522
20
-5.05025831011366
30
0
41
1
10
-0.681034016074335
20
-5.04581904881579
30
0
41
1
10
-0.699699693093578
20
-5.0360533513589
30
0
41
1
10
-0.708803295444653
20
-5.03069978836885
30
0
41
1
10
-0.726275289417998
20
-5.01942067172476
30
0
41
1
10
-0.734670547069527
20
-5.01348585979886
30
0
41
1
10
-0.759028353676314
20
-4.99496074537163
30
0
41
1
10
-0.774172797668427
20
-4.98165817730296
30
0
41
1
10
-0.802914827069742
20
-4.95369126459417
30
0
41
1
10
-0.81654709362823
20
-4.93896729549496
30
0
41
1
10
-0.855145617589443
20
-4.89385654551648
30
0
41
1
10
-0.878053724810229
20
-4.86240606869328
30
0
41
1
10
-0.920529370906081
20
-4.79779601403041
30
0
41
1
10
-0.940052913520788
20
-4.76461628090829
30
0
41
1
10
-0.976740804435963
20
-4.69698582221125
30
0
41
1
10
-0.993913112071084
20
-4.66248133856587
30
0
41
1
10
-1.02632348400363
20
-4.59277716864142
30
0
41
1
10
-1.04157111619293
20
-4.55755616008759
30
0
41
1
10
-1.07057669597754
20
-4.48649265752218
30
0
41
1
10
-1.08433177378575
20
-4.4506493409462
30
0
41
1
10
-1.11062583028021
20
-4.37841416747673
30
0
41
1
10
-1.12316712175576
20
-4.34200882575533
30
0
41
1
10
-1.15918165202706
20
-4.23227919141883
30
0
41
1
10
-1.18109081197508
20
-4.1583703791232
30
0
41
1
10
-1.22178607754876
20
-4.0092085502001
30
0
41
1
10
-1.24056171778477
20
-3.9339536596444
30
0
41
1
10
-1.27561460874023
20
-3.78218340304136
30
0
41
1
10
-1.29188624779786
20
-3.70566670397201
30
0
41
1
10
-1.30710678118655
20
-3.62853433720645
30
0
0
SPLINE
5
147
100
AcDbEntity
8
1
62
256
6
ByLayer
370
18
48
1
60
0
100
AcDbSpline
70
4
71
3
72
40
73
36
40
0
40
0
40
0
40
0
40
0.249999999999997
40
0.249999999999997
40
0.374999999999995
40
0.374999999999995
40
0.499999999999993
40
0.499999999999993
40
0.624999999999991
40
0.624999999999991
40
0.687499999999992
40
0.687499999999992
40
0.749999999999992
40
0.749999999999992
40
0.812499999999993
40
0.812499999999993
40
0.843749999999992
40
0.843749999999992
40
0.874999999999992
40
0.874999999999992
40
0.890624999999993
40
0.890624999999993
40
0.906249999999994
40
0.906249999999994
40
0.921874999999995
40
0.921874999999995
40
0.937499999999996
40
0.937499999999996
40
0.953124999999997
40
0.953124999999997
40
0.968749999999998
40
0.968749999999998
40
0.984374999999999
40
0.984374999999999
40
1
40
1
40
1
40
1
41
1
10
-0.199999999999989
20
-5.6784520164293
30
0
41
1
10
-0.200325540023954
20
-5.61547854140406
30
0
41
1
10
-0.201889470916598
20
-5.55222154865803
30
0
41
1
10
-0.206929588208141
20
-5.45686315009959
30
0
41
1
10
-0.209064130076882
20
-5.42499801712523
30
0
41
1
10
-0.214523044028141
20
-5.36109790788316
30
0
41
1
10
-0.217841153282251
20
-5.32906305985318
30
0
41
1
10
-0.226165642229034
20
-5.2648064330395
30
0
41
1
10
-0.23114988012145
20
-5.23258507573846
30
0
41
1
10
-0.240700146478559
20
-5.1840907743358
30
0
41
1
10
-0.244243877237153
20
-5.16786639775955
30
0
41
1
10
-0.252257427302908
20
-5.13565463294319
30
0
41
1
10
-0.256723214245568
20
-5.11964268012935
30
0
41
1
10
-0.267068575155236
20
-5.08792546636624
30
0
41
1
10
-0.272916655032219
20
-5.0722125984079
30
0
41
1
10
-0.283630596953657
20
-5.0490854463963
30
0
41
1
10
-0.287559273211883
20
-5.04140704567575
30
0
41
1
10
-0.29628672569271
20
-5.0266015359532
30
0
41
1
10
-0.301074093098151
20
-5.01945615581226
30
0
41
1
10
-0.309349269610607
20
-5.00940629678658
30
0
41
1
10
-0.31231630697954
20
-5.00615011165595
30
0
41
1
10
-0.31861660499726
20
-5.00011766639523
30
0
41
1
10
-0.321954234540129
20
-4.99732874567789
30
0
41
1
10
-0.329143040072381
20
-4.99237354459819
30
0
41
1
10
-0.33301572502674
20
-4.99021187411824
30
0
41
1
10
-0.341034463404867
20
-4.9869408469134
30
0
41
1
10
-0.34528594899416
20
-4.98580083402231
30
0
41
1
10
-0.353728848469132
20
-4.98475618750666
30
0
41
1
10
-0.358001975899782
20
-4.98483227377295
30
0
41
1
10
-0.366274570071312
20
-4.98604804966439
30
0
41
1
10
-0.370231991198097
20
-4.98716039898099
30
0
41
1
10
-0.377874829705576
20
-4.99015247985739
30
0
41
1
10
-0.381540018186683
20
-4.99203141004631
30
0
41
1
10
-0.388463488029373
20
-4.99625601274579
30
0
41
1
10
-0.391753438827749
20
-4.99861548354417
30
0
41
1
10
-0.394913799811292
20
-5.00116108217654
30
0
0
SPLINE
5
148
100
AcDbEntity
8
1
62
256
6
ByLayer
370
18
48
1
60
0
100
AcDbSpline
70
4
71
3
72
38
73
34
40
0
40
0
40
0
40
0
40
0.0156249999999999
40
0.0156249999999999
40
0.03125
40
0.03125
40
0.046875
40
0.046875
40
0.0625000000000001
40
0.0625000000000001
40
0.0781250000000001
40
0.0781250000000001
40
0.0937500000000001
40
0.0937500000000001
40
0.125000000000001
40
0.125000000000001
40
0.156250000000002
40
0.156250000000002
40
0.187500000000003
40
0.187500000000003
40
0.250000000000004
40
0.250000000000004
40
0.312500000000004
40
0.312500000000004
40
0.375000000000005
40
0.375000000000005
40
0.500000000000004
40
0.500000000000004
40
0.625000000000002
40
0.625000000000002
40
0.750000000000001
40
0.750000000000001
40
1
40
1
40
1
40
1
41
1
10
-0.394913799814617
20
-13.8446595289409
30
0
41
1
10
-0.391749296202079
20
-13.8448424909269
30
0
41
1
10
-0.388452375608779
20
-13.8450961903932
30
0
41
1
10
-0.381505168769735
20
-13.8457938151623
30
0
41
1
10
-0.377829013893802
20
-13.846241915681
30
0
41
1
10
-0.37020286020072
20
-13.8473733313911
30
0
41
1
10
-0.366240526544658
20
-13.8480563938372
30
0
41
1
10
-0.357912392007819
20
-13.849739303977
30
0
41
1
10
-0.353684635700688
20
-13.8507136617023
30
0
41
1
10
-0.345220189226808
20
-13.8529238754024
30
0
41
1
10
-0.340975528995898
20
-13.854165851519
30
0
41
1
10
-0.332960961810898
20
-13.8567502285021
30
0
41
1
10
-0.329080600695079
20
-13.8581264595614
30
0
41
1
10
-0.318321797663032
20
-13.8622381003803
30
0
41
1
10
-0.312091372528243
20
-13.8650224034849
30
0
41
1
10
-0.301015966388775
20
-13.8704509077418
30
0
41
1
10
-0.296153419957164
20
-13.8731079755536
30
0
41
1
10
-0.287445517218686
20
-13.8782073044309
30
0
41
1
10
-0.283595780474968
20
-13.8806523483052
30
0
41
1
10
-0.272997114041232
20
-13.887771829979
30
0
41
1
10
-0.267181679795755
20
-13.8922335922221
30
0
41
1
10
-0.256879537942382
20
-13.9007947938235
30
0
41
1
10
-0.2524216589118
20
-13.9048892296203
30
0
41
1
10
-0.244413939321618
20
-13.9127918287045
30
0
41
1
10
-0.240874255815328
20
-13.9165963734791
30
0
41
1
10
-0.231313142997919
20
-13.9275805879124
30
0
41
1
10
-0.226297832831591
20
-13.9343664914098
30
0
41
1
10
-0.217912944663482
20
-13.947127348993
30
0
41
1
10
-0.214572317075493
20
-13.9530845047233
30
0
41
1
10
-0.209085750971383
20
-13.964280444998
30
0
41
1
10
-0.206943565198628
20
-13.9695217949656
30
0
41
1
10
-0.201888714477093
20
-13.9843134154885
30
0
41
1
10
-0.200325526921631
20
-13.9929377840209
30
0
41
1
10
-0.199999999999989
20
-14.0005306290775
30
0
0
SPLINE
5
149
100
AcDbEntity
8
1
62
256
6
ByLayer
370
18
48
1
60
0
100
AcDbSpline
70
4
71
3
72
40
73
36
40
0
40
0
40
0
40
0
40
0.249999999999998
40
0.249999999999998
40
0.374999999999998
40
0.374999999999998
40
0.499999999999997
40
0.499999999999997
40
0.624999999999998
40
0.624999999999998
40
0.687499999999998
40
0.687499999999998
40
0.749999999999998
40
0.749999999999998
40
0.812499999999999
40
0.812499999999999
40
0.84375
40
0.84375
40
0.875000000000001
40
0.875000000000001
40
0.890625000000001
40
0.890625000000001
40
0.90625
40
0.90625
40
0.921875
40
0.921875
40
0.9375
40
0.9375
40
0.953125
40
0.953125
40
0.96875
40
0.96875
40
0.984375
40
0.984375
40
1
40
1
40
1
40
1
41
1
10
-0.199999999999989
20
14.0005308360297
30
0
41
1
10
-0.200325484931824
20
13.9929389755075
30
0
41
1
10
-0.201888899753499
20
13.9843210157469
30
0
41
1
10
-0.206929064368978
20
13.9695604951635
30
0
41
1
10
-0.209063760504847
20
13.9643331642487
30
0
41
1
10
-0.214523379010956
20
13.9531770452386
30
0
41
1
10
-0.217842040597986
20
13.9472498215878
30
0
41
1
10
-0.226167999261975
20
13.9345502713768
30
0
41
1
10
-0.231153161037923
20
13.9277833881154
30
0
41
1
10
-0.240704867227123
20
13.916782127484
30
0
41
1
10
-0.244249097570219
20
13.9129633802222
30
0
41
1
10
-0.252263586587134
20
13.9050370743235
30
0
41
1
10
-0.25672980210976
20
13.9009261566768
30
0
41
1
10
-0.267075773720649
20
13.8923152006562
30
0
41
1
10
-0.272924030069333
20
13.8878208927885
30
0
41
1
10
-0.2836379135897
20
13.8806243248759
30
0
41
1
10
-0.287566520738551
20
13.8781327420571
30
0
41
1
10
-0.296293809253314
20
13.8730299294695
30
0
41
1
10
-0.301081039190621
20
13.870417714082
30
0
41
1
10
-0.309355911672185
20
13.866364075454
30
0
41
1
10
-0.312322841306013
20
13.8649804039333
30
0
41
1
10
-0.318622944145005
20
13.8622234641578
30
0
41
1
10
-0.321960461861977
20
13.8608465411072
30
0
41
1
10
-0.329149016141258
20
13.858101654615
30
0
41
1
10
-0.333021571763879
20
13.8567295936368
30
0
41
1
10
-0.341039973310558
20
13.8541465128493
30
0
41
1
10
-0.345291253771677
20
13.8529042812469
30
0
41
1
10
-0.353733594241362
20
13.8507022641717
30
0
41
1
10
-0.35800639249598
20
13.8497192387353
30
0
41
1
10
-0.366278137943937
20
13.8480502152413
30
0
41
1
10
-0.370235109341735
20
13.8473680380174
30
0
41
1
10
-0.377877027729255
20
13.8462356418831
30
0
41
1
10
-0.381541736392848
20
13.8457899488977
30
0
41
1
10
-0.388464315595599
20
13.8450955240371
30
0
41
1
10
-0.391753842527152
20
13.8448423969163
30
0
41
1
10
-0.394913799811292
20
13.8446596982821
30
0
0
SPLINE
5
14A
100
AcDbEntity
8
1
62
256
6
ByLayer
370
18
48
1
60
0
100
AcDbSpline
70
4
71
3
72
12
73
8
40
0
40
0
40
0
40
0
40
0.500000000000001
40
0.500000000000001
40
0.75
40
0.75
40
1
40
1
40
1
40
1
41
1
10
20.049311872628
20
-13.9317684469856
30
0
41
1
10
20.0511543758225
20
-14.1492277164763
30
0
41
1
10
20.0696384797651
20
-14.3601299802857
30
0
41
1
10
20.1256306249519
20
-14.6667092558927
30
0
41
1
10
20.1490244584008
20
-14.7672716021553
30
0
41
1
10
20.206113677309
20
-14.9651214516541
30
0
41
1
10
20.2398059946943
20
-15.0624091169248
30
0
41
1
10
20.2792076144253
20
-15.1580428550149
30
0
0
SPLINE
5
14B
100
AcDbEntity
8
1
62
256
6
ByLayer
370
18
48
1
60
0
100
AcDbSpline
70
4
71
3
72
12
73
8
40
0
40
0
40
0
40
0
40
0.249999999999999
40
0.249999999999999
40
0.499999999999999
40
0.499999999999999
40
1
40
1
40
1
40
1
41
1
10
20.2792076144253
20
15.1580428550149
30
0
41
1
10
20.2398059946943
20
15.0624091169248
30
0
41
1
10
20.206113677309
20
14.9651214516541
30
0
41
1
10
20.1490244584008
20
14.7672716021553
30
0
41
1
10
20.125630624952
20
14.6667092558927
30
0
41
1
10
20.0696384797651
20
14.3601299802857
30
0
41
1
10
20.0511543758225
20
14.1492277164763
30
0
41
1
10
20.049311872628
20
13.9317684469856
30
0
0
SPLINE
5
14C
100
AcDbEntity
8
1
62
256
6
ByLayer
370
18
48
1
60
0
100
AcDbSpline
70
4
71
3
72
14
73
10
40
0
40
0
40
0
40
0
40
0.25
40
0.25
40
0.5
40
0.5
40
0.75
40
0.75
40
1
40
1
40
1
40
1
41
1
10
20.0090296946047
20
18.9652994841606
30
0
41
1
10
20.0098519881431
20
18.8710739775866
30
0
41
1
10
20.0140392106171
20
18.7708533644198
30
0
41
1
10
20.0318953474874
20
18.5586760429565
30
0
41
1
10
20.0455569156268
20
18.446718754759
30
0
41
1
10
20.0856280428731
20
18.2113003977464
30
0
41
1
10
20.112024269641
20
18.0878384257856
30
0
41
1
10
20.1816509258025
20
17.8296434786073
30
0
41
1
10
20.2248556500389
20
17.6949088720878
30
0
41
1
10
20.2792076144253
20
17.5546734097798
30
0
0
SPLINE
5
14D
100
AcDbEntity
8
1
62
256
6
ByLayer
370
18
48
1
60
0
100
AcDbSpline
70
4
71
3
72
25
73
21
40
0
40
0
40
0
40
0
40
0.249999999999986
40
0.249999999999986
40
0.374999999999983
40
0.374999999999983
40
0.499999999999979
40
0.499999999999979
40
0.562499999999983
40
0.562499999999983
40
0.624999999999986
40
0.68749999999999
40
0.68749999999999
40
0.749999999999993
40
0.749999999999993
40
0.874999999999991
40
0.874999999999991
40
0.937499999999996
40
0.937499999999996
40
1
40
1
40
1
40
1
41
1
10
9.33660254037861
20
-19.0245744101322
30
0
41
1
10
9.32720842156829
20
-19.0356185274184
30
0
41
1
10
9.31588453947575
20
-19.0464153092313
30
0
41
1
10
9.29525647265243
20
-19.0619278372253
30
0
41
1
10
9.28776218432895
20
-19.0669920754349
30
0
41
1
10
9.27124506170023
20
-19.0768715139989
30
0
41
1
10
9.26222766550282
20
-19.0816874304591
30
0
41
1
10
9.24718147390908
20
-19.0886774015103
30
0
41
1
10
9.24190585527097
20
-19.0909686533589
30
0
41
1
10
9.23090181997068
20
-19.095399659777
30
0
41
1
10
9.21941536169066
20
-19.0996940974827
30
0
41
1
10
9.20680755935996
20
-19.1036766400565
30
0
41
1
10
9.19352784170755
20
-19.1074753109818
30
0
41
1
10
9.1865295196101
20
-19.109288210346
30
0
41
1
10
9.16442417341895
20
-19.1143521510704
30
0
41
1
10
9.14859952398743
20
-19.1171586755843
30
0
41
1
10
9.12253667740623
20
-19.1201714845572
30
0
41
1
10
9.11355518087368
20
-19.1209563802606
30
0
41
1
10
9.09541273714802
20
-19.1220079254874
30
0
41
1
10
9.08618793610023
20
-19.1222825906925
30
0
41
1
10
9.07679491924327
20
-19.1222825906925
30
0
0
SPLINE
5
14E
100
AcDbEntity
8
1
62
256
6
ByLayer
370
18
48
1
60
0
100
AcDbSpline
70
4
71
3
72
26
73
22
40
0
40
0
40
0
40
0
40
0.0624999999999999
40
0.0624999999999999
40
0.125
40
0.125
40
0.1875
40
0.1875
40
0.25
40
0.25
40
0.3125
40
0.3125
40
0.375
40
0.375
40
0.500000000000001
40
0.500000000000001
40
0.625000000000002
40
0.625000000000002
40
0.750000000000004
40
0.750000000000004
40
1
40
1
40
1
40
1
41
1
10
6.92320508075687
20
-19.1222825906926
30
0
41
1
10
6.91382447246664
20
-19.1222825906926
30
0
41
1
10
6.90445612562743
20
-19.1220042459418
30
0
41
1
10
6.88616578647202
20
-19.1209361972228
30
0
41
1
10
6.877306029935
20
-19.1201548450203
30
0
41
1
10
6.86008230329932
20
-19.1181607182976
30
0
41
1
10
6.85165205969534
20
-19.1169347436763
30
0
41
1
10
6.83564492760419
20
-19.1141675067423
30
0
41
1
10
6.82805305136273
20
-19.1126296584783
30
0
41
1
10
6.81353466302775
20
-19.1093020671091
30
0
41
1
10
6.80660916084835
20
-19.1075119510364
30
0
41
1
10
6.79332109685251
20
-19.1037159413756
30
0
41
1
10
6.78693692536262
20
-19.1017017213015
30
0
41
1
10
6.76873667859329
20
-19.0954500347066
30
0
41
1
10
6.75782269201741
20
-19.0910025433169
30
0
41
1
10
6.73776606630176
20
-19.0816841489935
30
0
41
1
10
6.72865815863287
20
-19.07681905156
30
0
41
1
10
6.712104492701
20
-19.0669068299453
30
0
41
1
10
6.70461359775268
20
-19.061836585657
30
0
41
1
10
6.68402554771032
20
-19.0463346141653
30
0
41
1
10
6.67278813956517
20
-19.0356144845436
30
0
41
1
10
6.66339745962154
20
-19.0245744101322
30
0
0
SPLINE
5
14F
100
AcDbEntity
8
1
62
256
6
ByLayer
370
18
48
1
60
0
100
AcDbSpline
70
4
71
3
72
25
73
21
40
0
40
0
40
0
40
0
40
0.249999999999997
40
0.249999999999997
40
0.374999999999989
40
0.374999999999989
40
0.499999999999981
40
0.499999999999981
40
0.562499999999982
40
0.562499999999982
40
0.624999999999983
40
0.687499999999984
40
0.687499999999984
40
0.749999999999985
40
0.749999999999985
40
0.874999999999995
40
0.874999999999995
40
0.937499999999998
40
0.937499999999998
40
1
40
1
40
1
40
1
41
1
10
6.66339745962154
20
-6.16973001948571
30
0
41
1
10
6.67279157843183
20
-6.13567510453117
30
0
41
1
10
6.68411546052437
20
-6.10206728171741
30
0
41
1
10
6.70474352734769
20
-6.05336249030208
30
0
41
1
10
6.71223781567116
20
-6.03739036016586
30
0
41
1
10
6.72875493829989
20
-6.00610043240181
30
0
41
1
10
6.73777233449729
20
-5.99078025293949
30
0
41
1
10
6.75281852609103
20
-5.96845506553063
30
0
41
1
10
6.75809414472914
20
-5.96112164449841
30
0
41
1
10
6.76909818002943
20
-5.9469124104387
30
0
41
1
10
6.78058463830945
20
-5.93311315635253
30
0
41
1
10
6.79319244064015
20
-5.9202685823868
30
0
41
1
10
6.80647215829256
20
-5.90799699523123
30
0
41
1
10
6.81347048039001
20
-5.90212985895329
30
0
41
1
10
6.83557582658116
20
-5.88571770958595
30
0
41
1
10
6.85140047601269
20
-5.87658838136372
30
0
41
1
10
6.87746332259391
20
-5.86677544388641
30
0
41
1
10
6.88644481912644
20
-5.8642160875483
30
0
41
1
10
6.90458726285212
20
-5.8607863051715
30
0
41
1
10
6.91381206389988
20
-5.85988980456938
30
0
41
1
10
6.92320508075687
20
-5.85988980456938
30
0
0
SPLINE
5
150
100
AcDbEntity
8
1
62
256
6
ByLayer
370
18
48
1
60
0
100
AcDbSpline
70
4
71
3
72
26
73
22
40
0
40
0
40
0
40
0
40
0.0624999999999997
40
0.0624999999999997
40
0.124999999999999
40
0.124999999999999
40
0.187499999999999
40
0.187499999999999
40
0.249999999999999
40
0.249999999999999
40
0.312499999999998
40
0.312499999999998
40
0.374999999999998
40
0.374999999999998
40
0.499999999999998
40
0.499999999999998
40
0.624999999999999
40
0.624999999999999
40
0.749999999999999
40
0.749999999999999
40
1
40
1
40
1
40
1
41
1
10
9.07679491924327
20
-5.85988980456941
30
0
41
1
10
9.0861755275335
20
-5.85988980456941
30
0
41
1
10
9.09554387437268
20
-5.86079831910379
30
0
41
1
10
9.11383421352809
20
-5.86428190495297
30
0
41
1
10
9.12269397006511
20
-5.86682965857773
30
0
41
1
10
9.13991769670079
20
-5.8733246368358
30
0
41
1
10
9.1483479403048
20
-5.87731470491121
30
0
41
1
10
9.16435507239592
20
-5.88630806692444
30
0
41
1
10
9.17194694863738
20
-5.89130031342685
30
0
41
1
10
9.18646533697236
20
-5.90208491578252
30
0
41
1
10
9.19339083915176
20
-5.90787848896434
30
0
41
1
10
9.2066789031476
20
-5.92014175764382
30
0
41
1
10
9.21306307463749
20
-5.92663822853584
30
0
41
1
10
9.23126332140683
20
-5.94676259304853
30
0
41
1
10
9.24217730798267
20
-5.96102885758611
30
0
41
1
10
9.26223393369835
20
-5.99079069805944
30
0
41
1
10
9.27134184136725
20
-6.00626721095978
30
0
41
1
10
9.28789550729911
20
-6.0376597182682
30
0
41
1
10
9.29538640224743
20
-6.05364979751815
30
0
41
1
10
9.31597445228977
20
-6.10231901184949
30
0
41
1
10
9.32721186043494
20
-6.13568757087469
30
0
41
1
10
9.33660254037858
20
-6.16973001948574
30
0
0
SPLINE
5
151
100
AcDbEntity
8
1
62
256
6
ByLayer
370
18
48
1
60
0
100
AcDbSpline
70
4
71
3
72
25
73
21
40
0
40
0
40
0
40
0
40
0.250000000000006
40
0.250000000000006
40
0.375000000000002
40
0.375000000000002
40
0.499999999999997
40
0.499999999999997
40
0.562499999999998
40
0.562499999999998
40
0.624999999999999
40
0.6875
40
0.6875
40
0.750000000000001
40
0.750000000000001
40
0.874999999999999
40
0.874999999999999
40
0.9375
40
0.9375
40
1
40
1
40
1
40
1
41
1
10
6.66339745962154
20
19.0245744101322
30
0
41
1
10
6.67279157843183
20
19.0356185274184
30
0
41
1
10
6.68411546052437
20
19.0464153092313
30
0
41
1
10
6.70474352734769
20
19.0619278372253
30
0
41
1
10
6.71223781567116
20
19.0669920754349
30
0
41
1
10
6.72875493829989
20
19.0768715139989
30
0
41
1
10
6.73777233449729
20
19.0816874304591
30
0
41
1
10
6.75281852609103
20
19.0886774015103
30
0
41
1
10
6.75809414472914
20
19.0909686533589
30
0
41
1
10
6.76909818002946
20
19.095399659777
30
0
41
1
10
6.78058463830945
20
19.0996940974827
30
0
41
1
10
6.79319244064015
20
19.1036766400565
30
0
41
1
10
6.80647215829256
20
19.1074753109818
30
0
41
1
10
6.81347048039001
20
19.109288210346
30
0
41
1
10
6.83557582658119
20
19.1143521510704
30
0
41
1
10
6.85140047601269
20
19.1171586755844
30
0
41
1
10
6.87746332259388
20
19.1201714845572
30
0
41
1
10
6.88644481912644
20
19.1209563802606
30
0
41
1
10
6.90458726285212
20
19.1220079254874
30
0
41
1
10
6.91381206389988
20
19.1222825906925
30
0
41
1
10
6.92320508075687
20
19.1222825906925
30
0
0
SPLINE
5
152
100
AcDbEntity
8
1
62
256
6
ByLayer
370
18
48
1
60
0
100
AcDbSpline
70
4
71
3
72
26
73
22
40
0
40
0
40
0
40
0
40
0.0624999999999977
40
0.0624999999999977
40
0.124999999999995
40
0.124999999999995
40
0.187499999999993
40
0.187499999999993
40
0.249999999999991
40
0.249999999999991
40
0.312499999999989
40
0.312499999999989
40
0.374999999999986
40
0.374999999999986
40
0.499999999999987
40
0.499999999999987
40
0.624999999999987
40
0.624999999999987
40
0.749999999999988
40
0.749999999999988
40
1
40
1
40
1
40
1
41
1
10
9.07679491924327
20
19.1222825906925
30
0
41
1
10
9.0861755275335
20
19.1222825906925
30
0
41
1
10
9.09554387437268
20
19.1220042459418
30
0
41
1
10
9.11383421352812
20
19.1209361972228
30
0
41
1
10
9.12269397006514
20
19.1201548450203
30
0
41
1
10
9.13991769670082
20
19.1181607182976
30
0
41
1
10
9.14834794030483
20
19.1169347436763
30
0
41
1
10
9.16435507239595
20
19.1141675067423
30
0
41
1
10
9.17194694863741
20
19.1126296584783
30
0
41
1
10
9.18646533697239
20
19.1093020671091
30
0
41
1
10
9.19339083915179
20
19.1075119510364
30
0
41
1
10
9.20667890314763
20
19.1037159413756
30
0
41
1
10
9.21306307463752
20
19.1017017213015
30
0
41
1
10
9.23126332140686
20
19.0954500347066
30
0
41
1
10
9.24217730798273
20
19.0910025433169
30
0
41
1
10
9.26223393369838
20
19.0816841489935
30
0
41
1
10
9.27134184136727
20
19.07681905156
30
0
41
1
10
9.28789550729917
20
19.0669068299453
30
0
41
1
10
9.29538640224746
20
19.061836585657
30
0
41
1
10
9.31597445228982
20
19.0463346141653
30
0
41
1
10
9.32721186043506
20
19.0356144845434
30
0
41
1
10
9.33660254037869
20
19.0245744101321
30
0
0
SPLINE
5
153
100
AcDbEntity
8
1
62
256
6
ByLayer
370
18
48
1
60
0
100
AcDbSpline
70
4
71
3
72
25
73
21
40
0
40
0
40
0
40
0
40
0.249999999999976
40
0.249999999999976
40
0.374999999999968
40
0.374999999999968
40
0.499999999999958
40
0.499999999999958
40
0.562499999999959
40
0.562499999999959
40
0.62499999999996
40
0.687499999999961
40
0.687499999999961
40
0.749999999999962
40
0.749999999999962
40
0.874999999999977
40
0.874999999999977
40
0.937499999999988
40
0.937499999999988
40
1
40
1
40
1
40
1
41
1
10
9.33660254037869
20
6.16973001948611
30
0
41
1
10
9.32720842156843
20
6.13567510453157
30
0
41
1
10
9.31588453947577
20
6.10206728171747
30
0
41
1
10
9.29525647265245
20
6.05336249030211
30
0
41
1
10
9.28776218432898
20
6.03739036016592
30
0
41
1
10
9.27124506170026
20
6.00610043240187
30
0
41
1
10
9.26222766550285
20
5.99078025293954
30
0
41
1
10
9.24718147390911
20
5.96845506553066
30
0
41
1
10
9.241905855271
20
5.96112164449843
30
0
41
1
10
9.23090181997071
20
5.94691241043876
30
0
41
1
10
9.2194147994463
20
5.93311363814723
30
0
41
1
10
9.20680755935999
20
5.92026858238683
30
0
41
1
10
9.19352784170758
20
5.90799699523126
30
0
41
1
10
9.1865295196101
20
5.90212985895334
30
0
41
1
10
9.16442417341895
20
5.88571770958598
30
0
41
1
10
9.14859952398746
20
5.87658838136372
30
0
41
1
10
9.12253667740623
20
5.86677544388644
30
0
41
1
10
9.1135551808737
20
5.8642160875483
30
0
41
1
10
9.09541273714802
20
5.86078630517153
30
0
41
1
10
9.08618793610023
20
5.85988980456943
30
0
41
1
10
9.07679491924327
20
5.85988980456941
30
0
0
SPLINE
5
154
100
AcDbEntity
8
1
62
256
6
ByLayer
370
18
48
1
60
0
100
AcDbSpline
70
4
71
3
72
26
73
22
40
0
40
0
40
0
40
0
40
0.0624999999999992
40
0.0624999999999992
40
0.124999999999998
40
0.124999999999998
40
0.187499999999998
40
0.187499999999998
40
0.249999999999997
40
0.249999999999997
40
0.312499999999996
40
0.312499999999996
40
0.374999999999995
40
0.374999999999995
40
0.499999999999995
40
0.499999999999995
40
0.624999999999994
40
0.624999999999994
40
0.749999999999994
40
0.749999999999994
40
1
40
1
40
1
40
1
41
1
10
6.92320508075687
20
5.85988980456935
30
0
41
1
10
6.91382447246664
20
5.85988980456935
30
0
41
1
10
6.90445612562743
20
5.86079831910374
30
0
41
1
10
6.88616578647202
20
5.86428190495292
30
0
41
1
10
6.87730602993503
20
5.86682965857767
30
0
41
1
10
6.86008230329932
20
5.87332463683575
30
0
41
1
10
6.85165205969534
20
5.87731470491119
30
0
41
1
10
6.83564492760419
20
5.88630806692441
30
0
41
1
10
6.82805305136273
20
5.8913003134268
30
0
41
1
10
6.81353466302775
20
5.90208491578247
30
0
41
1
10
6.80660916084838
20
5.90787848896431
30
0
41
1
10
6.79332109685251
20
5.92014175764379
30
0
41
1
10
6.78693692536262
20
5.92663822853581
30
0
41
1
10
6.76873667859329
20
5.9467625930485
30
0
41
1
10
6.75782269201744
20
5.96102885758609
30
0
41
1
10
6.73776606630176
20
5.99079069805941
30
0
41
1
10
6.72865815863287
20
6.00626721095975
30
0
41
1
10
6.712104492701
20
6.03765971826817
30
0
41
1
10
6.70461359775271
20
6.05364979751812
30
0
41
1
10
6.68402554771035
20
6.10231901184949
30
0
41
1
10
6.67278813956517
20
6.13568757087467
30
0
41
1
10
6.66339745962154
20
6.16973001948571
30
0
0
SPLINE
5
155
100
AcDbEntity
8
1
62
256
6
ByLayer
370
18
48
1
60
0
100
AcDbSpline
70
4
71
3
72
34
73
30
40
0
40
0
40
0
40
0
40
0.125000000000021
40
0.125000000000021
40
0.187500000000031
40
0.187500000000031
40
0.218750000000036
40
0.218750000000036
40
0.250000000000041
40
0.250000000000041
40
0.375000000000066
40
0.375000000000066
40
0.406250000000065
40
0.406250000000065
40
0.437500000000065
40
0.500000000000057
40
0.562500000000049
40
0.562500000000049
40
0.625000000000041
40
0.625000000000041
40
0.687500000000033
40
0.687500000000033
40
0.750000000000026
40
0.750000000000026
40
0.875000000000014
40
0.875000000000014
40
0.937500000000007
40
0.937500000000007
40
1
40
1
40
1
40
1
41
1
10
38.997451033585
20
-16.3716420358674
30
0
41
1
10
38.9843344617789
20
-16.4206338331783
30
0
41
1
10
38.9757021841095
20
-16.470739472265
30
0
41
1
10
38.9697920396004
20
-16.5478967463066
30
0
41
1
10
38.9690034763644
20
-16.5739523239634
30
0
41
1
10
38.96973050936
20
-16.6136222684553
30
0
41
1
10
38.9702941991534
20
-16.6269741823763
30
0
41
1
10
38.9720841231122
20
-16.6537481097453
30
0
41
1
10
38.9733059015272
20
-16.6671265637861
30
0
41
1
10
38.9810667159456
20
-16.7339889157514
30
0
41
1
10
38.9924898482797
20
-16.7873838103458
30
0
41
1
10
39.0142326497363
20
-16.8542057492963
30
0
41
1
10
39.0189691450464
20
-16.8675905670699
30
0
41
1
10
39.029064648447
20
-16.8939422108394
30
0
41
1
10
39.0451902853307
20
-16.9330003668058
30
0
41
1
10
39.0769246403312
20
-16.995780440466
30
0
41
1
10
39.1075308036427
20
-17.0435190564232
30
0
41
1
10
39.1408496924493
20
-17.0899641053943
30
0
41
1
10
39.158464319949
20
-17.1119807691104
30
0
41
1
10
39.1954460187748
20
-17.1537435908705
30
0
41
1
10
39.2148195503295
20
-17.1734973651778
30
0
41
1
10
39.2552849051023
20
-17.2108546791747
30
0
41
1
10
39.2764595228916
20
-17.2285012332445
30
0
41
1
10
39.3409842058701
20
-17.2771674167211
30
0
41
1
10
39.3857731548311
20
-17.3044342222201
30
0
41
1
10
39.4555692050286
20
-17.3385868165679
30
0
41
1
10
39.4793508452628
20
-17.3488602477982
30
0
41
1
10
39.5273911550034
20
-17.3670137550427
30
0
41
1
10
39.5516292402274
20
-17.3748964403703
30
0
41
1
10
39.5760954401444
20
-17.3816324042991
30
0
0
SPLINE
5
156
100
AcDbEntity
8
1
62
256
6
ByLayer
370
18
48
1
60
0
100
AcDbSpline
70
4
71
3
72
26
73
22
40
0
40
0
40
0
40
0
40
0.125000000000007
40
0.125000000000007
40
0.250000000000014
40
0.250000000000014
40
0.3125
40
0.3125
40
0.374999999999986
40
0.374999999999986
40
0.499999999999975
40
0.499999999999975
40
0.562499999999978
40
0.562499999999978
40
0.624999999999981
40
0.624999999999981
40
0.749999999999988
40
0.749999999999988
40
0.874999999999994
40
0.874999999999994
40
1
40
1
40
1
40
1
41
1
10
39.8185000000001
20
-17.699794373846
30
0
41
1
10
39.8185000000001
20
-17.6810522899663
30
0
41
1
10
39.8168627955047
20
-17.6620043497249
30
0
41
1
10
39.810485280683
20
-17.6251238279916
30
0
41
1
10
39.8057727916656
20
-17.6071475363666
30
0
41
1
10
39.7964653861033
20
-17.5808671432851
30
0
41
1
10
39.7929675250955
20
-17.572180763283
30
0
41
1
10
39.7853341302362
20
-17.55531182623
30
0
41
1
10
39.781199099265
20
-17.5471169783301
30
0
41
1
10
39.7678823294158
20
-17.5232211220265
30
0
41
1
10
39.7577945624935
20
-17.5082044369214
30
0
41
1
10
39.7409047070863
20
-17.4870188344376
30
0
41
1
10
39.7349926173846
20
-17.4802024552769
30
0
41
1
10
39.722797371843
20
-17.4672347843352
30
0
41
1
10
39.7164912967855
20
-17.4610539910748
30
0
41
1
10
39.6969763527759
20
-17.4433852916446
30
0
41
1
10
39.6831741276622
20
-17.4327661028749
30
0
41
1
10
39.65404553324
20
-17.4137929928998
30
0
41
1
10
39.6389772941864
20
-17.4056132150414
30
0
41
1
10
39.6081177477
20
-17.391772354022
30
0
41
1
10
39.5922948894882
20
-17.3860923901905
30
0
41
1
10
39.5760954401444
20
-17.3816324042991
30
0
0
SPLINE
5
157
100
AcDbEntity
8
1
62
256
6
ByLayer
370
18
48
1
60
0
100
AcDbSpline
70
4
71
3
72
24
73
20
40
0
40
0
40
0
40
0
40
0.0624999999999793
40
0.0624999999999793
40
0.124999999999959
40
0.124999999999959
40
0.249999999999953
40
0.249999999999953
40
0.312499999999957
40
0.312499999999957
40
0.37499999999996
40
0.37499999999996
40
0.499999999999969
40
0.499999999999969
40
0.624999999999979
40
0.624999999999979
40
0.749999999999988
40
0.749999999999988
40
1
40
1
40
1
40
1
41
1
10
38.8455768895953
20
-16.0016133155062
30
0
41
1
10
38.8536786098133
20
-16.0063630360235
30
0
41
1
10
38.8616498092275
20
-16.0115045848595
30
0
41
1
10
38.877093065701
20
-16.0224390522599
30
0
41
1
10
38.8845176951369
20
-16.028193546071
30
0
41
1
10
38.9059327516278
20
-16.0462873174409
30
0
41
1
10
38.9190702395252
20
-16.0594512685101
30
0
41
1
10
38.9370804779764
20
-16.0808340010062
30
0
41
1
10
38.942805354456
20
-16.0882512529254
30
0
41
1
10
38.9534709134987
20
-16.1033373550057
30
0
41
1
10
38.9584425345148
20
-16.1110402053292
30
0
41
1
10
38.9723152303604
20
-16.1346078122957
30
0
41
1
10
38.9801807177286
20
-16.1509288177796
30
0
41
1
10
38.9931903275601
20
-16.1847567238044
30
0
41
1
10
38.9981650609019
20
-16.20182097895
30
0
41
1
10
39.0053239924834
20
-16.2361913760863
30
0
41
1
10
39.0075093069187
20
-16.2535573150979
30
0
41
1
10
39.0099392100462
20
-16.305624929716
30
0
41
1
10
39.006139291769
20
-16.3391904631375
30
0
41
1
10
38.997451033585
20
-16.3716420358674
30
0
0
SPLINE
5
158
100
AcDbEntity
8
1
62
256
6
ByLayer
370
18
48
1
60
0
100
AcDbSpline
70
4
71
3
72
34
73
30
40
0
40
0
40
0
40
0
40
0.125000000000022
40
0.125000000000022
40
0.187500000000032
40
0.187500000000032
40
0.218750000000037
40
0.218750000000037
40
0.250000000000043
40
0.250000000000043
40
0.375000000000068
40
0.375000000000068
40
0.406250000000068
40
0.406250000000068
40
0.437500000000068
40
0.50000000000006
40
0.562500000000051
40
0.562500000000051
40
0.625000000000043
40
0.625000000000043
40
0.687500000000035
40
0.687500000000035
40
0.750000000000027
40
0.750000000000027
40
0.875000000000015
40
0.875000000000015
40
0.937500000000008
40
0.937500000000008
40
1
40
1
40
1
40
1
41
1
10
36.7025489664152
20
-19.0279467118245
30
0
41
1
10
36.7156655382214
20
-18.9789549145137
30
0
41
1
10
36.7242978158908
20
-18.9288492754269
30
0
41
1
10
36.7302079603998
20
-18.8516920013853
30
0
41
1
10
36.7309965236358
20
-18.8256364237285
30
0
41
1
10
36.7302694906402
20
-18.7859664792366
30
0
41
1
10
36.7297058008468
20
-18.7726145653156
30
0
41
1
10
36.727915876888
20
-18.7458406379466
30
0
41
1
10
36.726694098473
20
-18.7324621839058
30
0
41
1
10
36.7189332840546
20
-18.6655998319405
30
0
41
1
10
36.7075101517205
20
-18.6122049373461
30
0
41
1
10
36.6857673502639
20
-18.5453829983955
30
0
41
1
10
36.6810308549538
20
-18.531998180622
30
0
41
1
10
36.6709353515533
20
-18.5056465368525
30
0
41
1
10
36.6548097146696
20
-18.4665883808861
30
0
41
1
10
36.623075359669
20
-18.4038083072259
30
0
41
1
10
36.5924691963575
20
-18.3560696912687
30
0
41
1
10
36.559150307551
20
-18.3096246422976
30
0
41
1
10
36.5415356800512
20
-18.2876079785816
30
0
41
1
10
36.5045539812255
20
-18.2458451568214
30
0
41
1
10
36.4851804496707
20
-18.2260913825141
30
0
41
1
10
36.444715094898
20
-18.1887340685172
30
0
41
1
10
36.4235404771087
20
-18.1710875144474
30
0
41
1
10
36.3590157941301
20
-18.1224213309708
30
0
41
1
10
36.3142268451692
20
-18.0951545254719
30
0
41
1
10
36.2444307949716
20
-18.061001931124
30
0
41
1
10
36.2206491547375
20
-18.0507284998937
30
0
41
1
10
36.1726088449969
20
-18.0325749926492
30
0
41
1
10
36.1483707597729
20
-18.0246923073216
30
0
41
1
10
36.1239045598558
20
-18.0179563433928
30
0
0
SPLINE
5
159
100
AcDbEntity
8
1
62
256
6
ByLayer
370
18
48
1
60
0
100
AcDbSpline
70
4
71
3
72
26
73
22
40
0
40
0
40
0
40
0
40
0.125000000000007
40
0.125000000000007
40
0.250000000000014
40
0.250000000000014
40
0.3125
40
0.3125
40
0.374999999999986
40
0.374999999999986
40
0.499999999999975
40
0.499999999999975
40
0.562499999999978
40
0.562499999999978
40
0.624999999999981
40
0.624999999999981
40
0.749999999999988
40
0.749999999999988
40
0.874999999999994
40
0.874999999999994
40
1
40
1
40
1
40
1
41
1
10
35.8815000000001
20
-17.699794373846
30
0
41
1
10
35.8815000000001
20
-17.7185364577256
30
0
41
1
10
35.8831372044955
20
-17.7375843979669
30
0
41
1
10
35.8895147193172
20
-17.7744649197003
30
0
41
1
10
35.8942272083346
20
-17.7924412113253
30
0
41
1
10
35.9035346138969
20
-17.8187216044068
30
0
41
1
10
35.9070324749048
20
-17.8274079844089
30
0
41
1
10
35.9146658697641
20
-17.8442769214619
30
0
41
1
10
35.9188009007352
20
-17.8524717693618
30
0
41
1
10
35.9321176705844
20
-17.8763676256654
30
0
41
1
10
35.9422054375068
20
-17.8913843107705
30
0
41
1
10
35.9590952929139
20
-17.9125699132543
30
0
41
1
10
35.9650073826157
20
-17.919386292415
30
0
41
1
10
35.9772026281572
20
-17.9323539633567
30
0
41
1
10
35.9835087032147
20
-17.9385347566171
30
0
41
1
10
36.0030236472243
20
-17.9562034560473
30
0
41
1
10
36.0168258723381
20
-17.966822644817
30
0
41
1
10
36.0459544667602
20
-17.9857957547921
30
0
41
1
10
36.0610227058139
20
-17.9939755326505
30
0
41
1
10
36.0918822523002
20
-18.0078163936699
30
0
41
1
10
36.107705110512
20
-18.0134963575014
30
0
41
1
10
36.1239045598558
20
-18.0179563433928
30
0
0
SPLINE
5
15A
100
AcDbEntity
8
1
62
256
6
ByLayer
370
18
48
1
60
0
100
AcDbSpline
70
4
71
3
72
24
73
20
40
0
40
0
40
0
40
0
40
0.0624999999999947
40
0.0624999999999947
40
0.124999999999989
40
0.124999999999989
40
0.250000000000015
40
0.250000000000015
40
0.312500000000013
40
0.312500000000013
40
0.375000000000011
40
0.375000000000011
40
0.50000000000001
40
0.50000000000001
40
0.625000000000009
40
0.625000000000009
40
0.750000000000008
40
0.750000000000008
40
1
40
1
40
1
40
1
41
1
10
36.8544231104049
20
-19.3979754321857
30
0
41
1
10
36.846321390187
20
-19.3932257116684
30
0
41
1
10
36.8383501907728
20
-19.3880841628324
30
0
41
1
10
36.8229069342992
20
-19.377149695432
30
0
41
1
10
36.8154823048633
20
-19.3713952016209
30
0
41
1
10
36.7940672483724
20
-19.353301430251
30
0
41
1
10
36.780929760475
20
-19.3401374791818
30
0
41
1
10
36.7629195220239
20
-19.3187547466857
30
0
41
1
10
36.7571946455443
20
-19.3113374947665
30
0
41
1
10
36.7465290865015
20
-19.2962513926862
30
0
41
1
10
36.7415574654854
20
-19.2885485423628
30
0
41
1
10
36.7276847696399
20
-19.2649809353962
30
0
41
1
10
36.7198192822716
20
-19.2486599299123
30
0
41
1
10
36.7068096724402
20
-19.2148320238875
30
0
41
1
10
36.7018349390983
20
-19.1977677687419
30
0
41
1
10
36.6946760075168
20
-19.1633973716056
30
0
41
1
10
36.6924906930815
20
-19.146031432594
30
0
41
1
10
36.6900607899541
20
-19.093963817976
30
0
41
1
10
36.6938607082313
20
-19.0603982845544
30
0
41
1
10
36.7025489664153
20
-19.0279467118245
30
0
0
SPLINE
5
15B
100
AcDbEntity
8
1
62
256
6
ByLayer
370
18
48
1
60
0
100
AcDbSpline
70
4
71
3
72
34
73
30
40
0
40
0
40
0
40
0
40
0.124999999999977
40
0.124999999999977
40
0.187499999999963
40
0.187499999999963
40
0.218749999999963
40
0.218749999999963
40
0.249999999999962
40
0.249999999999962
40
0.374999999999967
40
0.374999999999967
40
0.406249999999967
40
0.406249999999967
40
0.437499999999967
40
0.49999999999997
40
0.562499999999973
40
0.562499999999973
40
0.624999999999976
40
0.624999999999976
40
0.687499999999978
40
0.687499999999978
40
0.749999999999981
40
0.749999999999981
40
0.87499999999999
40
0.87499999999999
40
0.937499999999995
40
0.937499999999995
40
1
40
1
40
1
40
1
41
1
10
36.1239045598558
20
-17.3816324042991
30
0
41
1
10
36.1728024474158
20
-17.3681699782617
30
0
41
1
10
36.2203932733044
20
-17.3502757217714
30
0
41
1
10
36.2899442135095
20
-17.3163516663503
30
0
41
1
10
36.3128205991034
20
-17.3038542276224
30
0
41
1
10
36.3466752774304
20
-17.2831637956738
30
0
41
1
10
36.3579085887576
20
-17.2759247273855
30
0
41
1
10
36.3801005962749
20
-17.2608395780626
30
0
41
1
10
36.391023970354
20
-17.2530193698865
30
0
41
1
10
36.4447795651756
20
-17.2125083833548
30
0
41
1
10
36.4850648551458
20
-17.1756492168234
30
0
41
1
10
36.5317141444803
20
-17.1230967160777
30
0
41
1
10
36.5408654260727
20
-17.1122412216451
30
0
41
1
10
36.5584925585893
20
-17.0902046062858
30
0
41
1
10
36.5840315512346
20
-17.0565395593154
30
0
41
1
10
36.6221410028541
20
-16.997411930015
30
0
41
1
10
36.6478445910825
20
-16.9468645060695
30
0
41
1
10
36.6710605372975
20
-16.8946312674576
30
0
41
1
10
36.6811451511451
20
-16.8683005075409
30
0
41
1
10
36.6984693616774
20
-16.8152755039319
30
0
41
1
10
36.705712260116
20
-16.7885718382012
30
0
41
1
10
36.71747406458
20
-16.7347696637456
30
0
41
1
10
36.7219882041613
20
-16.7075779767689
30
0
41
1
10
36.7313378145355
20
-16.6273008529516
30
0
41
1
10
36.7322080868541
20
-16.5748721271395
30
0
41
1
10
36.7263711320474
20
-16.4973878149598
30
0
41
1
10
36.7232061306062
20
-16.4716760933093
30
0
41
1
10
36.7145701743702
20
-16.4210515791236
30
0
41
1
10
36.709111880931
20
-16.396155222886
30
0
41
1
10
36.7025489664152
20
-16.3716420358674
30
0
0
SPLINE
5
15C
100
AcDbEntity
8
1
62
256
6
ByLayer
370
18
48
1
60
0
100
AcDbSpline
70
4
71
3
72
24
73
20
40
0
40
0
40
0
40
0
40
0.0624999999999947
40
0.0624999999999947
40
0.124999999999989
40
0.124999999999989
40
0.250000000000015
40
0.250000000000015
40
0.312500000000013
40
0.312500000000013
40
0.375000000000011
40
0.375000000000011
40
0.50000000000001
40
0.50000000000001
40
0.625000000000009
40
0.625000000000009
40
0.750000000000008
40
0.750000000000008
40
1
40
1
40
1
40
1
41
1
10
36.8544231104049
20
-16.0016133155062
30
0
41
1
10
36.846321390187
20
-16.0063630360235
30
0
41
1
10
36.8383501907728
20
-16.0115045848595
30
0
41
1
10
36.8229069342992
20
-16.0224390522599
30
0
41
1
10
36.8154823048633
20
-16.028193546071
30
0
41
1
10
36.7940672483724
20
-16.0462873174409
30
0
41
1
10
36.780929760475
20
-16.0594512685101
30
0
41
1
10
36.7629195220239
20
-16.0808340010062
30
0
41
1
10
36.7571946455443
20
-16.0882512529254
30
0
41
1
10
36.7465290865015
20
-16.1033373550057
30
0
41
1
10
36.7415574654854
20
-16.1110402053292
30
0
41
1
10
36.7276847696399
20
-16.1346078122957
30
0
41
1
10
36.7198192822716
20
-16.1509288177796
30
0
41
1
10
36.7068096724402
20
-16.1847567238044
30
0
41
1
10
36.7018349390983
20
-16.20182097895
30
0
41
1
10
36.6946760075168
20
-16.2361913760863
30
0
41
1
10
36.6924906930815
20
-16.2535573150979
30
0
41
1
10
36.6900607899541
20
-16.3056249297159
30
0
41
1
10
36.6938607082313
20
-16.3391904631375
30
0
41
1
10
36.7025489664153
20
-16.3716420358674
30
0
0
SPLINE
5
15D
100
AcDbEntity
8
1
62
256
6
ByLayer
370
18
48
1
60
0
100
AcDbSpline
70
4
71
3
72
26
73
22
40
0
40
0
40
0
40
0
40
0.250000000000055
40
0.250000000000055
40
0.312500000000067
40
0.312500000000067
40
0.37500000000008
40
0.37500000000008
40
0.500000000000073
40
0.500000000000073
40
0.562500000000072
40
0.562500000000072
40
0.62500000000007
40
0.62500000000007
40
0.750000000000064
40
0.750000000000064
40
0.812500000000052
40
0.812500000000052
40
0.875000000000039
40
0.875000000000039
40
1
40
1
40
1
40
1
41
1
10
36.1239045598558
20
-17.3816324042991
30
0
41
1
10
36.0914229666511
20
-17.390575143299
30
0
41
1
10
36.0605363102682
20
-17.4043067415869
30
0
41
1
10
36.0242014826783
20
-17.4279590350169
30
0
41
1
10
36.0170225425759
20
-17.4330448670728
30
0
41
1
10
36.0031406054396
20
-17.4437413646696
30
0
41
1
10
35.9964184055532
20
-17.4493609747748
30
0
41
1
10
35.9769132736911
20
-17.4670348704967
30
0
41
1
10
35.9647871913637
20
-17.4798985897291
30
0
41
1
10
35.9480105932509
20
-17.500913318978
30
0
41
1
10
35.9426548828069
20
-17.5082060632369
30
0
41
1
10
35.9324484339637
20
-17.5234027604021
30
0
41
1
10
35.9276378870958
20
-17.5312532031347
30
0
41
1
10
35.9142755070616
20
-17.5552506010079
30
0
41
1
10
35.9067030959554
20
-17.5719608741964
30
0
41
1
10
35.8974160201488
20
-17.5981238634326
30
0
41
1
10
35.8946672684174
20
-17.6070287037495
30
0
41
1
10
35.8898983058962
20
-17.6252236041027
30
0
41
1
10
35.8878854744956
20
-17.634509774896
30
0
41
1
10
35.8830964162867
20
-17.6623130969934
30
0
41
1
10
35.8815000000001
20
-17.6809854205559
30
0
41
1
10
35.8815000000001
20
-17.699794373846
30
0
0
SPLINE
5
15E
100
AcDbEntity
8
1
62
256
6
ByLayer
370
18
48
1
60
0
100
AcDbSpline
70
4
71
3
72
18
73
14
40
0
40
0
40
0
40
0
40
0.250000000000008
40
0.250000000000008
40
0.375000000000032
40
0.375000000000032
40
0.437500000000028
40
0.437500000000028
40
0.500000000000024
40
0.500000000000024
40
0.750000000000012
40
0.750000000000012
40
1
40
1
40
1
40
1
41
1
10
37.6972587066236
20
-19.1075323101458
30
0
41
1
10
37.6528337171425
20
-19.1158913972811
30
0
41
1
10
37.6104712723169
20
-19.127600297709
30
0
41
1
10
37.5495124020602
20
-19.1495796734306
30
0
41
1
10
37.5296271871471
20
-19.1576483560767
30
0
41
1
10
37.5004148537567
20
-19.1708352800928
30
0
41
1
10
37.490780156543
20
-19.1754118482929
30
0
41
1
10
37.4717121243909
20
-19.1849250828508
30
0
41
1
10
37.4622579701756
20
-19.1898734979898
30
0
41
1
10
37.4157912081225
20
-19.2153442269895
30
0
41
1
10
37.3811666561451
20
-19.2380113713132
30
0
41
1
10
37.3162930246904
20
-19.2875449033057
30
0
41
1
10
37.2860508004759
20
-19.3144157704079
30
0
41
1
10
37.2578822958329
20
-19.3433770019347
30
0
0
SPLINE
5
15F
100
AcDbEntity
8
1
62
256
6
ByLayer
370
18
48
1
60
0
100
AcDbSpline
70
4
71
3
72
24
73
20
40
0
40
0
40
0
40
0
40
0.125000000000047
40
0.125000000000047
40
0.187500000000046
40
0.187500000000046
40
0.250000000000044
40
0.250000000000044
40
0.375000000000043
40
0.375000000000043
40
0.500000000000042
40
0.500000000000042
40
0.625000000000041
40
0.625000000000041
40
0.687500000000042
40
0.687500000000042
40
0.750000000000043
40
0.750000000000043
40
1
40
1
40
1
40
1
41
1
10
36.8544231104049
20
-19.3979754321857
30
0
41
1
10
36.8710491574262
20
-19.4077226308713
30
0
41
1
10
36.8883617511805
20
-19.4159301105358
30
0
41
1
10
36.9153474437874
20
-19.4259601373436
30
0
41
1
10
36.9245473711186
20
-19.4289303151417
30
0
41
1
10
36.9431445348275
20
-19.4340429234011
30
0
41
1
10
36.9524509205633
20
-19.436163963112
30
0
41
1
10
36.9803910341183
20
-19.441290718459
30
0
41
1
10
36.9990456597563
20
-19.4430684476729
30
0
41
1
10
37.036399941942
20
-19.4434758773043
30
0
41
1
10
37.0552389224265
20
-19.4420548518503
30
0
41
1
10
37.0914151049206
20
-19.4362816687491
30
0
41
1
10
37.1089304735531
20
-19.4319529984774
30
0
41
1
10
37.1343888768185
20
-19.4234464702372
30
0
41
1
10
37.1427384978132
20
-19.4202735132447
30
0
41
1
10
37.1591639408512
20
-19.4132573583159
30
0
41
1
10
37.1672667445914
20
-19.4093972252733
30
0
41
1
10
37.2064158715206
20
-19.388779015153
30
0
41
1
10
37.2339249856772
20
-19.3680085262195
30
0
41
1
10
37.2578822958329
20
-19.3433770019347
30
0
0
SPLINE
5
160
100
AcDbEntity
8
1
62
256
6
ByLayer
370
18
48
1
60
0
100
AcDbSpline
70
4
71
3
72
24
73
20
40
0
40
0
40
0
40
0
40
0.249999999999979
40
0.249999999999979
40
0.312499999999985
40
0.312499999999985
40
0.374999999999992
40
0.374999999999992
40
0.500000000000002
40
0.500000000000002
40
0.625000000000012
40
0.625000000000012
40
0.750000000000021
40
0.750000000000021
40
0.812500000000004
40
0.812500000000004
40
0.874999999999986
40
0.874999999999986
40
1
40
1
40
1
40
1
41
1
10
38.4421177041673
20
-19.3433770019347
30
0
41
1
10
38.466075014323
20
-19.3680085262195
30
0
41
1
10
38.4935841284796
20
-19.388779015153
30
0
41
1
10
38.5327332554089
20
-19.4093972252732
30
0
41
1
10
38.540836059149
20
-19.4132573583159
30
0
41
1
10
38.5572615021871
20
-19.4202735132447
30
0
41
1
10
38.5656111231817
20
-19.4234464702372
30
0
41
1
10
38.5910695264471
20
-19.4319529984774
30
0
41
1
10
38.6085848950796
20
-19.4362816687491
30
0
41
1
10
38.6447610775737
20
-19.4420548518503
30
0
41
1
10
38.6636000580582
20
-19.4434758773043
30
0
41
1
10
38.7009543402439
20
-19.4430684476729
30
0
41
1
10
38.7196089658819
20
-19.441290718459
30
0
41
1
10
38.7475490794369
20
-19.436163963112
30
0
41
1
10
38.7568554651728
20
-19.4340429234011
30
0
41
1
10
38.7754526288817
20
-19.4289303151417
30
0
41
1
10
38.7846525562128
20
-19.4259601373436
30
0
41
1
10
38.8116382488198
20
-19.4159301105358
30
0
41
1
10
38.8289508425741
20
-19.4077226308713
30
0
41
1
10
38.8455768895953
20
-19.3979754321857
30
0
0
SPLINE
5
161
100
AcDbEntity
8
1
62
256
6
ByLayer
370
18
48
1
60
0
100
AcDbSpline
70
4
71
3
72
17
73
13
40
0
40
0
40
0
40
0
40
0.249999999999946
40
0.249999999999946
40
0.499999999999891
40
0.499999999999891
40
0.562499999999889
40
0.562499999999889
40
0.624999999999887
40
0.749999999999915
40
0.749999999999915
40
1
40
1
40
1
40
1
41
1
10
38.4421177041673
20
-19.3433770019347
30
0
41
1
10
38.4139523188096
20
-19.314418977477
30
0
41
1
10
38.3837257578647
20
-19.2875634327496
30
0
41
1
10
38.3189216766129
20
-19.238074635479
30
0
41
1
10
38.2843506951336
20
-19.215437081659
30
0
41
1
10
38.2379885118564
20
-19.1900048964583
30
0
41
1
10
38.2285347098111
20
-19.1850519258828
30
0
41
1
10
38.2094252761134
20
-19.1755107322013
30
0
41
1
10
38.1804620369479
20
-19.1617444853733
30
0
41
1
10
38.1505862767431
20
-19.1496174072975
30
0
41
1
10
38.0895493879216
20
-19.1276034501728
30
0
41
1
10
38.0471581972669
20
-19.1158898758816
30
0
41
1
10
38.0027412933766
20
-19.1075323101458
30
0
0
SPLINE
5
162
100
AcDbEntity
8
1
62
256
6
ByLayer
370
18
48
1
60
0
100
AcDbSpline
70
4
71
3
72
17
73
13
40
0
40
0
40
0
40
0
40
0.250000000000055
40
0.250000000000055
40
0.500000000000109
40
0.500000000000109
40
0.562500000000104
40
0.562500000000104
40
0.625000000000099
40
0.750000000000064
40
0.750000000000064
40
1
40
1
40
1
40
1
41
1
10
37.2578822958329
20
-16.0562117457572
30
0
41
1
10
37.2860476811906
20
-16.0851697702148
30
0
41
1
10
37.3162742421355
20
-16.1120253149423
30
0
41
1
10
37.3810783233871
20
-16.1615141122128
30
0
41
1
10
37.4156493048663
20
-16.1841516660327
30
0
41
1
10
37.4620114881435
20
-16.2095838512334
30
0
41
1
10
37.4714652901888
20
-16.2145368218089
30
0
41
1
10
37.4905747238865
20
-16.2240780154904
30
0
41
1
10
37.5195379630519
20
-16.2378442623184
30
0
41
1
10
37.5494137232567
20
-16.2499713403943
30
0
41
1
10
37.6104506120783
20
-16.271985297519
30
0
41
1
10
37.6528418027331
20
-16.2836988718103
30
0
41
1
10
37.6972587066236
20
-16.2920564375461
30
0
0
SPLINE
5
163
100
AcDbEntity
8
1
62
256
6
ByLayer
370
18
48
1
60
0
100
AcDbSpline
70
4
71
3
72
18
73
14
40
0
40
0
40
0
40
0
40
0.250000000000047
40
0.250000000000047
40
0.375000000000069
40
0.375000000000069
40
0.437500000000062
40
0.437500000000062
40
0.500000000000054
40
0.500000000000054
40
0.750000000000027
40
0.750000000000027
40
1
40
1
40
1
40
1
41
1
10
38.0027412933766
20
-16.2920564375461
30
0
41
1
10
38.0471662828575
20
-16.2836973504109
30
0
41
1
10
38.089528727683
20
-16.271988449983
30
0
41
1
10
38.1504875979398
20
-16.2500090742614
30
0
41
1
10
38.170372812853
20
-16.2419403916153
30
0
41
1
10
38.1995851462436
20
-16.2287534675991
30
0
41
1
10
38.2092198434574
20
-16.2241768993989
30
0
41
1
10
38.2282878756096
20
-16.214663664841
30
0
41
1
10
38.2377420298249
20
-16.2097152497019
30
0
41
1
10
38.2842087918778
20
-16.1842445207024
30
0
41
1
10
38.3188333438551
20
-16.1615773763787
30
0
41
1
10
38.3837069753098
20
-16.1120438443863
30
0
41
1
10
38.4139491995243
20
-16.085172977284
30
0
41
1
10
38.4421177041673
20
-16.0562117457572
30
0
0
SPLINE
5
164
100
AcDbEntity
8
1
62
256
6
ByLayer
370
18
48
1
60
0
100
AcDbSpline
70
4
71
3
72
24
73
20
40
0
40
0
40
0
40
0
40
0.125000000000047
40
0.125000000000047
40
0.187500000000046
40
0.187500000000046
40
0.250000000000044
40
0.250000000000044
40
0.375000000000043
40
0.375000000000043
40
0.500000000000042
40
0.500000000000042
40
0.625000000000041
40
0.625000000000041
40
0.687500000000042
40
0.687500000000042
40
0.750000000000043
40
0.750000000000043
40
1
40
1
40
1
40
1
41
1
10
38.8455768895953
20
-16.0016133155062
30
0
41
1
10
38.8289508425741
20
-15.9918661168206
30
0
41
1
10
38.8116382488198
20
-15.9836586371561
30
0
41
1
10
38.7846525562128
20
-15.9736286103483
30
0
41
1
10
38.7754526288817
20
-15.9706584325502
30
0
41
1
10
38.7568554651728
20
-15.9655458242908
30
0
41
1
10
38.7475490794369
20
-15.9634247845799
30
0
41
1
10
38.7196089658819
20
-15.9582980292329
30
0
41
1
10
38.7009543402439
20
-15.9565203000191
30
0
41
1
10
38.6636000580582
20
-15.9561128703876
30
0
41
1
10
38.6447610775737
20
-15.9575338958416
30
0
41
1
10
38.6085848950796
20
-15.9633070789429
30
0
41
1
10
38.5910695264471
20
-15.9676357492145
30
0
41
1
10
38.5656111231817
20
-15.9761422774547
30
0
41
1
10
38.5572615021871
20
-15.9793152344472
30
0
41
1
10
38.540836059149
20
-15.986331389376
30
0
41
1
10
38.5327332554089
20
-15.9901915224187
30
0
41
1
10
38.4935841284795
20
-16.0108097325389
30
0
41
1
10
38.4660750143231
20
-16.0315802214724
30
0
41
1
10
38.4421177041673
20
-16.0562117457572
30
0
0
SPLINE
5
165
100
AcDbEntity
8
1
62
256
6
ByLayer
370
18
48
1
60
0
100
AcDbSpline
70
4
71
3
72
24
73
20
40
0
40
0
40
0
40
0
40
0.249999999999979
40
0.249999999999979
40
0.312499999999985
40
0.312499999999985
40
0.374999999999992
40
0.374999999999992
40
0.500000000000002
40
0.500000000000002
40
0.625000000000012
40
0.625000000000012
40
0.750000000000021
40
0.750000000000021
40
0.812500000000004
40
0.812500000000004
40
0.874999999999986
40
0.874999999999986
40
1
40
1
40
1
40
1
41
1
10
37.2578822958329
20
-16.0562117457572
30
0
41
1
10
37.2339249856772
20
-16.0315802214724
30
0
41
1
10
37.2064158715207
20
-16.0108097325389
30
0
41
1
10
37.1672667445913
20
-15.9901915224187
30
0
41
1
10
37.1591639408512
20
-15.986331389376
30
0
41
1
10
37.1427384978132
20
-15.9793152344472
30
0
41
1
10
37.1343888768186
20
-15.9761422774547
30
0
41
1
10
37.1089304735531
20
-15.9676357492145
30
0
41
1
10
37.0914151049206
20
-15.9633070789429
30
0
41
1
10
37.0552389224265
20
-15.9575338958416
30
0
41
1
10
37.0363999419421
20
-15.9561128703876
30
0
41
1
10
36.9990456597563
20
-15.9565203000191
30
0
41
1
10
36.9803910341184
20
-15.9582980292329
30
0
41
1
10
36.9524509205633
20
-15.9634247845799
30
0
41
1
10
36.9431445348274
20
-15.9655458242908
30
0
41
1
10
36.9245473711186
20
-15.9706584325502
30
0
41
1
10
36.9153474437874
20
-15.9736286103483
30
0
41
1
10
36.8883617511805
20
-15.9836586371561
30
0
41
1
10
36.8710491574262
20
-15.9918661168206
30
0
41
1
10
36.8544231104049
20
-16.0016133155062
30
0
0
SPLINE
5
166
100
AcDbEntity
8
1
62
256
6
ByLayer
370
18
48
1
60
0
100
AcDbSpline
70
4
71
3
72
26
73
22
40
0
40
0
40
0
40
0
40
0.250000000000055
40
0.250000000000055
40
0.312500000000067
40
0.312500000000067
40
0.37500000000008
40
0.37500000000008
40
0.500000000000073
40
0.500000000000073
40
0.562500000000072
40
0.562500000000072
40
0.62500000000007
40
0.62500000000007
40
0.750000000000064
40
0.750000000000064
40
0.812500000000052
40
0.812500000000052
40
0.875000000000039
40
0.875000000000039
40
1
40
1
40
1
40
1
41
1
10
39.5760954401444
20
-18.0179563433928
30
0
41
1
10
39.6085770333491
20
-18.0090136043929
30
0
41
1
10
39.639463689732
20
-17.995282006105
30
0
41
1
10
39.6757985173219
20
-17.971629712675
30
0
41
1
10
39.6829774574243
20
-17.9665438806191
30
0
41
1
10
39.6968593945606
20
-17.9558473830223
30
0
41
1
10
39.7035815944471
20
-17.9502277729171
30
0
41
1
10
39.7230867263092
20
-17.9325538771953
30
0
41
1
10
39.7352128086366
20
-17.9196901579628
30
0
41
1
10
39.7519894067493
20
-17.8986754287139
30
0
41
1
10
39.7573451171934
20
-17.891382684455
30
0
41
1
10
39.7675515660365
20
-17.8761859872898
30
0
41
1
10
39.7723621129044
20
-17.8683355445572
30
0
41
1
10
39.7857244929386
20
-17.8443381466841
30
0
41
1
10
39.7932969040448
20
-17.8276278734955
30
0
41
1
10
39.8025839798515
20
-17.8014648842593
30
0
41
1
10
39.8053327315828
20
-17.7925600439424
30
0
41
1
10
39.810101694104
20
-17.7743651435892
30
0
41
1
10
39.8121145255046
20
-17.7650789727959
30
0
41
1
10
39.8169035837135
20
-17.7372756506985
30
0
41
1
10
39.8185000000001
20
-17.718603327136
30
0
41
1
10
39.8185000000001
20
-17.699794373846
30
0
0
SPLINE
5
167
100
AcDbEntity
8
1
62
256
6
ByLayer
370
18
48
1
60
0
100
AcDbSpline
70
4
71
3
72
34
73
30
40
0
40
0
40
0
40
0
40
0.124999999999977
40
0.124999999999977
40
0.187499999999963
40
0.187499999999963
40
0.218749999999963
40
0.218749999999963
40
0.249999999999962
40
0.249999999999962
40
0.374999999999967
40
0.374999999999967
40
0.406249999999967
40
0.406249999999967
40
0.437499999999967
40
0.49999999999997
40
0.562499999999973
40
0.562499999999973
40
0.624999999999976
40
0.624999999999976
40
0.687499999999978
40
0.687499999999978
40
0.749999999999981
40
0.749999999999981
40
0.87499999999999
40
0.87499999999999
40
0.937499999999995
40
0.937499999999995
40
1
40
1
40
1
40
1
41
1
10
39.5760954401444
20
-18.0179563433928
30
0
41
1
10
39.5271975525844
20
-18.0314187694302
30
0
41
1
10
39.4796067266958
20
-18.0493130259205
30
0
41
1
10
39.4100557864907
20
-18.0832370813416
30
0
41
1
10
39.3871794008969
20
-18.0957345200695
30
0
41
1
10
39.3533247225698
20
-18.1164249520182
30
0
41
1
10
39.3420914112426
20
-18.1236640203064
30
0
41
1
10
39.3198994037253
20
-18.1387491696293
30
0
41
1
10
39.3089760296462
20
-18.1465693778054
30
0
41
1
10
39.2552204348247
20
-18.187080364337
30
0
41
1
10
39.2149351448544
20
-18.2239395308684
30
0
41
1
10
39.1682858555199
20
-18.2764920316142
30
0
41
1
10
39.1591345739275
20
-18.2873475260468
30
0
41
1
10
39.141507441411
20
-18.3093841414061
30
0
41
1
10
39.1159684487656
20
-18.3430491883765
30
0
41
1
10
39.0778589971461
20
-18.4021768176769
30
0
41
1
10
39.0521554089178
20
-18.4527242416225
30
0
41
1
10
39.0289394627028
20
-18.5049574802343
30
0
41
1
10
39.0188548488551
20
-18.531288240151
30
0
41
1
10
39.0015306383228
20
-18.5843132437601
30
0
41
1
10
38.9942877398842
20
-18.6110169094907
30
0
41
1
10
38.9825259354202
20
-18.6648190839463
30
0
41
1
10
38.978011795839
20
-18.692010770923
30
0
41
1
10
38.9686621854648
20
-18.7722878947403
30
0
41
1
10
38.9677919131461
20
-18.8247166205524
30
0
41
1
10
38.9736288679528
20
-18.9022009327321
30
0
41
1
10
38.976793869394
20
-18.9279126543826
30
0
41
1
10
38.9854298256301
20
-18.9785371685683
30
0
41
1
10
38.9908881190692
20
-19.0034335248059
30
0
41
1
10
38.997451033585
20
-19.0279467118245
30
0
0
SPLINE
5
168
100
AcDbEntity
8
1
62
256
6
ByLayer
370
18
48
1
60
0
100
AcDbSpline
70
4
71
3
72
24
73
20
40
0
40
0
40
0
40
0
40
0.0624999999999947
40
0.0624999999999947
40
0.124999999999989
40
0.124999999999989
40
0.250000000000015
40
0.250000000000015
40
0.312500000000013
40
0.312500000000013
40
0.375000000000011
40
0.375000000000011
40
0.50000000000001
40
0.50000000000001
40
0.625000000000009
40
0.625000000000009
40
0.750000000000008
40
0.750000000000008
40
1
40
1
40
1
40
1
41
1
10
38.8455768895953
20
-19.3979754321857
30
0
41
1
10
38.8536786098133
20
-19.3932257116684
30
0
41
1
10
38.8616498092275
20
-19.3880841628324
30
0
41
1
10
38.877093065701
20
-19.377149695432
30
0
41
1
10
38.8845176951369
20
-19.3713952016209
30
0
41
1
10
38.9059327516278
20
-19.353301430251
30
0
41
1
10
38.9190702395252
20
-19.3401374791818
30
0
41
1
10
38.9370804779764
20
-19.3187547466858
30
0
41
1
10
38.942805354456
20
-19.3113374947665
30
0
41
1
10
38.9534709134987
20
-19.2962513926862
30
0
41
1
10
38.9584425345148
20
-19.2885485423628
30
0
41
1
10
38.9723152303604
20
-19.2649809353962
30
0
41
1
10
38.9801807177286
20
-19.2486599299123
30
0
41
1
10
38.9931903275601
20
-19.2148320238875
30
0
41
1
10
38.9981650609019
20
-19.1977677687419
30
0
41
1
10
39.0053239924834
20
-19.1633973716056
30
0
41
1
10
39.0075093069187
20
-19.146031432594
30
0
41
1
10
39.0099392100462
20
-19.093963817976
30
0
41
1
10
39.0061392917689
20
-19.0603982845544
30
0
41
1
10
38.997451033585
20
-19.0279467118245
30
0
0
SPLINE
5
169
100
AcDbEntity
8
1
62
256
6
ByLayer
370
18
48
1
60
0
100
AcDbSpline
70
4
71
2
72
6
73
3
40
0
40
0
40
0
40
1
40
1
40
1
41
1.03186391735993
10
59.7999899980507
20
-27.0031520326597
30
0
41
1.03138264657361
10
59.6777789448564
20
-27.0031520326597
30
0
41
1.03186391735993
10
59.5557958399113
20
-26.9956916354279
30
0
0
SPLINE
5
16A
100
AcDbEntity
8
1
62
256
6
ByLayer
370
18
48
1
60
0
100
AcDbSpline
70
4
71
2
72
6
73
3
40
0
40
0
40
0
40
1
40
1
40
1
41
1.03186391735993
10
59.9999899980507
20
-26.8031629987866
30
0
41
0.729637973226922
10
59.9999899980507
20
-27.0031520326597
30
0
41
1.03186391735993
10
59.7999899980507
20
-27.0031520326597
30
0
0
SPLINE
5
16B
100
AcDbEntity
8
1
62
256
6
ByLayer
370
18
48
1
60
0
100
AcDbSpline
70
4
71
2
72
6
73
3
40
0
40
0
40
0
40
1
40
1
40
1
41
1.03186391735993
10
59.7999899980507
20
-23.9970141652928
30
0
41
0.729637973226922
10
59.9999899980507
20
-23.9970141652928
30
0
41
1.03186391735993
10
59.9999899980507
20
-24.1970031991659
30
0
0
SPLINE
5
16C
100
AcDbEntity
8
1
62
256
6
ByLayer
370
18
48
1
60
0
100
AcDbSpline
70
4
71
2
72
6
73
3
40
0
40
0
40
0
40
1
40
1
40
1
41
1.03186391735993
10
59.5557958399113
20
-24.0044745625246
30
0
41
1.03138264657361
10
59.6777789448564
20
-23.9970141652928
30
0
41
1.03186391735993
10
59.7999899980507
20
-23.9970141652928
30
0
0
SPLINE
5
16D
100
AcDbEntity
8
1
62
256
6
ByLayer
370
18
48
1
60
0
100
AcDbSpline
70
4
71
3
72
8
73
4
40
0
40
0
40
0
40
0
40
1
40
1
40
1
40
1
41
1
10
57.4196694163913
20
-24.0755321359209
30
0
41
1
10
57.4324648695622
20
-24.0723317613012
30
0
41
1
10
57.4455611420819
20
-24.0704547977753
30
0
41
1
10
57.4587330107771
20
-24.0699180904612
30
0
0
SPLINE
5
16E
100
AcDbEntity
8
1
62
256
6
ByLayer
370
18
48
1
60
0
100
AcDbSpline
70
4
71
3
72
8
73
4
40
0
40
0
40
0
40
0
40
1
40
1
40
1
40
1
41
1
10
57.4587330107841
20
-26.9188847947652
30
0
41
1
10
57.445561127032
20
-26.9182994441756
30
0
41
1
10
57.4324648843563
20
-26.9163741216367
30
0
41
1
10
57.4196694163938
20
-26.9131264907272
30
0
0
SPLINE
5
16F
100
AcDbEntity
8
1
62
256
6
ByLayer
370
18
48
1
60
0
100
AcDbSpline
70
4
71
3
72
8
73
4
40
0
40
0
40
0
40
0
40
1
40
1
40
1
40
1
41
1
10
53.2517200000016
20
-26.6981013534787
30
0
41
1
10
54.0761466688464
20
-26.6981019957027
30
0
41
1
10
54.9005733361726
20
-26.6981028821594
30
0
41
1
10
55.7250000000001
20
-26.6981040128844
30
0
0
SPLINE
5
170
100
AcDbEntity
8
1
62
256
6
ByLayer
370
18
48
1
60
0
100
AcDbSpline
70
4
71
3
72
8
73
4
40
0
40
0
40
0
40
0
40
1
40
1
40
1
40
1
41
1
10
56.5725149999992
20
-26.6981052613138
30
0
41
1
10
56.2900101020916
20
-26.6981048164915
30
0
41
1
10
56.0075051042735
20
-26.6981044003483
30
0
41
1
10
55.7250000000001
20
-26.6981040128844
30
0
0
LINE
5
7E
100
AcDbEntity
8
80
62
256
6
ByLayer
370
18
48
1
60
0
100
AcDbLine
10
0
20
0
30
0
11
-5
21
0
31
0
39
0
210
0
220
0
230
1
0
LINE
5
7F
100
AcDbEntity
8
81
62
256
6
ByLayer
370
18
48
1
60
0
100
AcDbLine
10
55
20
-27
30
0
11
60
21
-27
31
0
39
0
210
0
220
0
230
1
0
LINE
5
80
100
AcDbEntity
8
1
62
256
6
ByLayer
370
18
48
1
60
0
100
AcDbLine
10
20
20
20
30
0
11
0.3
21
20
31
0
39
0
210
0
220
0
230
1
0
LINE
5
81
100
AcDbEntity
8
1
62
256
6
ByLayer
370
18
48
1
60
0
100
AcDbLine
10
0.3
20
-20
30
0
11
20.279208
21
-20
31
0
39
0
210
0
220
0
230
1
0
LINE
5
82
100
AcDbEntity
8
1
62
256
6
ByLayer
370
18
48
1
60
0
100
AcDbLine
10
0
20
-19.7
30
0
11
0.3
21
-20
31
0
39
0
210
0
220
0
230
1
0
LINE
5
83
100
AcDbEntity
8
1
62
256
6
ByLayer
370
18
48
1
60
0
100
AcDbLine
10
0.3
20
20
30
0
11
0
21
19.7
31
0
39
0
210
0
220
0
230
1
0
LINE
5
84
100
AcDbEntity
8
1
62
256
6
ByLayer
370
18
48
1
60
0
100
AcDbLine
10
54.817281
20
-26.909801
30
0
11
54.815277
21
-26.698099
31
0
39
0
210
0
220
0
230
1
0
LINE
5
85
100
AcDbEntity
8
1
62
256
6
ByLayer
370
18
48
1
60
0
100
AcDbLine
10
53.898929
20
-26.914974
30
0
11
53.896876
21
-26.698087
31
0
39
0
210
0
220
0
230
1
0
LINE
5
86
100
AcDbEntity
8
1
62
256
6
ByLayer
370
13
48
1
60
0
100
AcDbLine
10
23.6
20
-21.15
30
0
11
21.599629
21
-21.15
31
0
39
0
210
0
220
0
230
1
0
LINE
5
87
100
AcDbEntity
8
1
62
256
6
ByLayer
370
13
48
1
60
0
100
AcDbLine
10
23.6
20
-20.15
30
0
11
23.6
21
-21.15
31
0
39
0
210
0
220
0
230
1
0
LINE
5
88
100
AcDbEntity
8
1
62
256
6
ByLayer
370
18
48
1
60
0
100
AcDbLine
10
59.2
20
-26.973936
30
0
11
59.2
21
-27.46336
31
0
39
0
210
0
220
0
230
1
0
LINE
5
89
100
AcDbEntity
8
1
62
256
6
ByLayer
370
18
48
1
60
0
100
AcDbLine
10
57.406509
20
-26.909801
30
0
11
54.817281
21
-26.909801
31
0
39
0
210
0
220
0
230
1
0
LINE
5
8A
100
AcDbEntity
8
1
62
256
6
ByLayer
370
18
48
1
60
0
100
AcDbLine
10
53.898929
20
-26.914974
30
0
11
50.433646
21
-26.914974
31
0
39
0
210
0
220
0
230
1
0
LINE
5
8B
100
AcDbEntity
8
1
62
256
6
ByLayer
370
18
48
1
60
0
100
AcDbLine
10
27.293267
20
-26.702552
30
0
11
27.800172
21
-26.702552
31
0
39
0
210
0
220
0
230
1
0
LINE
5
8C
100
AcDbEntity
8
1
62
256
6
ByLayer
370
18
48
1
60
0
100
AcDbLine
10
23.6
20
-26.828506
30
0
11
23.102034
21
-26.828506
31
0
39
0
210
0
220
0
230
1
0
LINE
5
8D
100
AcDbEntity
8
1
62
256
6
ByLayer
370
18
48
1
60
0
100
AcDbLine
10
25.449797
20
-30.545782
30
0
11
51.938307
21
-30.545782
31
0
39
0
210
0
220
0
230
1
0
LINE
5
8E
100
AcDbEntity
8
1
62
256
6
ByLayer
370
18
48
1
60
0
100
AcDbLine
10
27.293267
20
-26.702552
30
0
11
27.293267
21
-21.15
31
0
39
0
210
0
220
0
230
1
0
LINE
5
8F
100
AcDbEntity
8
1
62
256
6
ByLayer
370
13
48
1
60
0
100
AcDbLine
10
27.293267
20
-21.15
30
0
11
23.6
21
-21.15
31
0
39
0
210
0
220
0
230
1
0
LINE
5
90
100
AcDbEntity
8
1
62
256
6
ByLayer
370
13
48
1
60
0
100
AcDbLine
10
23.6
20
-26.828506
30
0
11
23.6
21
-21.15
31
0
39
0
210
0
220
0
230
1
0
LINE
5
91
100
AcDbEntity
8
1
62
256
6
ByLayer
370
18
48
1
60
0
100
AcDbLine
10
27.679229
20
-21.15
30
0
11
27.679229
21
-26.67907
31
0
39
0
210
0
220
0
230
1
0
LINE
5
92
100
AcDbEntity
8
1
62
256
6
ByLayer
370
13
48
1
60
0
100
AcDbLine
10
27.8
20
-21.15
30
0
11
27.679229
21
-21.15
31
0
39
0
210
0
220
0
230
1
0
LINE
5
93
100
AcDbEntity
8
1
62
256
6
ByLayer
370
18
48
1
60
0
100
AcDbLine
10
24.799843
20
-20.15
30
0
11
23.800157
21
-20.15
31
0
39
0
210
0
220
0
230
1
0
LINE
5
94
100
AcDbEntity
8
1
62
256
6
ByLayer
370
18
48
1
60
0
100
AcDbLine
10
24.800017
20
15.000206
30
0
11
24.008877
21
15.000206
31
0
39
0
210
0
220
0
230
1
0
LINE
5
95
100
AcDbEntity
8
1
62
256
6
ByLayer
370
18
48
1
60
0
100
AcDbLine
10
27.800063
20
-26.67907
30
0
11
27.679229
21
-26.67907
31
0
39
0
210
0
220
0
230
1
0
LINE
5
96
100
AcDbEntity
8
1
62
256
6
ByLayer
370
13
48
1
60
0
100
AcDbLine
10
45
20
-24.353078
30
0
11
45
21
-25.377153
31
0
39
0
210
0
220
0
230
1
0
LINE
5
97
100
AcDbEntity
8
1
62
256
6
ByLayer
370
18
48
1
60
0
100
AcDbLine
10
42.538768
20
-27.420506
30
0
11
45.394908
21
-27.420506
31
0
39
0
210
0
220
0
230
1
0
LINE
5
98
100
AcDbEntity
8
1
62
256
6
ByLayer
370
18
48
1
60
0
100
AcDbLine
10
50.25
20
-24.670141
30
0
11
50.25
21
-26.937203
31
0
39
0
210
0
220
0
230
1
0
LINE
5
99
100
AcDbEntity
8
1
62
256
6
ByLayer
370
18
48
1
60
0
100
AcDbLine
10
43.4
20
-23.168897
30
0
11
43.4
21
-24.022848
31
0
39
0
210
0
220
0
230
1
0
LINE
5
9A
100
AcDbEntity
8
1
62
256
6
ByLayer
370
13
48
1
60
0
100
AcDbLine
10
43.429606
20
-24.325082
30
0
11
42.538768
21
-24.325082
31
0
39
0
210
0
220
0
230
1
0
LINE
5
9B
100
AcDbEntity
8
1
62
256
6
ByLayer
370
18
48
1
60
0
100
AcDbLine
10
26.8
20
-20.15
30
0
11
24.8
21
-20.15
31
0
39
0
210
0
220
0
230
1
0
LINE
5
9C
100
AcDbEntity
8
1
62
256
6
ByLayer
370
18
48
1
60
0
100
AcDbLine
10
43.4
20
-23.168897
30
0
11
43.4
21
-13.149794
31
0
39
0
210
0
220
0
230
1
0
LINE
5
9D
100
AcDbEntity
8
1
62
256
6
ByLayer
370
18
48
1
60
0
100
AcDbLine
10
24.8
20
-20.15
30
0
11
24.8
21
15.000206
31
0
39
0
210
0
220
0
230
1
0
LINE
5
9E
100
AcDbEntity
8
1
62
256
6
ByLayer
370
18
48
1
60
0
100
AcDbLine
10
27.8
20
-27.420506
30
0
11
27.8
21
-21.15
31
0
39
0
210
0
220
0
230
1
0
LINE
5
9F
100
AcDbEntity
8
1
62
256
6
ByLayer
370
18
48
1
60
0
100
AcDbLine
10
24.8
20
15.000206
30
0
11
34.3
21
15.000206
31
0
39
0
210
0
220
0
230
1
0
LINE
5
A0
100
AcDbEntity
8
1
62
256
6
ByLayer
370
18
48
1
60
0
100
AcDbLine
10
42.538768
20
-27.420506
30
0
11
27.8
21
-27.420506
31
0
39
0
210
0
220
0
230
1
0
LINE
5
A1
100
AcDbEntity
8
1
62
256
6
ByLayer
370
18
48
1
60
0
100
AcDbLine
10
42.538768
20
-27.420506
30
0
11
42.538768
21
-24.325082
31
0
39
0
210
0
220
0
230
1
0
LINE
5
A2
100
AcDbEntity
8
1
62
256
6
ByLayer
370
18
48
1
60
0
100
AcDbLine
10
43.4
20
-13.149794
30
0
11
34.3
21
15.000206
31
0
39
0
210
0
220
0
230
1
0
LINE
5
A3
100
AcDbEntity
8
1
62
256
6
ByLayer
370
13
48
1
60
0
100
AcDbLine
10
21.438319
20
-17.534447
30
0
11
21.438319
21
-20.15
31
0
39
0
210
0
220
0
230
1
0
LINE
5
A4
100
AcDbEntity
8
1
62
256
6
ByLayer
370
18
48
1
60
0
100
AcDbLine
10
23.8
20
-20.15
30
0
11
23.8
21
15.005663
31
0
39
0
210
0
220
0
230
1
0
LINE
5
A5
100
AcDbEntity
8
1
62
256
6
ByLayer
370
18
48
1
60
0
100
AcDbLine
10
21.986803
20
-20.15
30
0
11
23.8
21
-20.15
31
0
39
0
210
0
220
0
230
1
0
LINE
5
A6
100
AcDbEntity
8
1
62
256
6
ByLayer
370
13
48
1
60
0
100
AcDbLine
10
-1.307107
20
3.628532
30
0
11
-1.307107
21
-3.628534
31
0
39
0
210
0
220
0
230
1
0
LINE
5
A7
100
AcDbEntity
8
1
62
256
6
ByLayer
370
18
48
1
60
0
100
AcDbLine
10
-0.2
20
-14.083485
30
0
11
-0.2
21
-5.678452
31
0
39
0
210
0
220
0
230
1
0
LINE
5
A8
100
AcDbEntity
8
1
62
256
6
ByLayer
370
18
48
1
60
0
100
AcDbLine
10
-0.2
20
14.083485
30
0
11
-0.2
21
5.678452
31
0
39
0
210
0
220
0
230
1
0
LINE
5
A9
100
AcDbEntity
8
1
62
256
6
ByLayer
370
13
48
1
60
0
100
AcDbLine
10
9.076795
20
19.122283
30
0
11
9.076795
21
5.85989
31
0
39
0
210
0
220
0
230
1
0
LINE
5
AA
100
AcDbEntity
8
1
62
256
6
ByLayer
370
13
48
1
60
0
100
AcDbLine
10
9.336603
20
19.024574
30
0
11
9.336603
21
6.16973
31
0
39
0
210
0
220
0
230
1
0
LINE
5
AB
100
AcDbEntity
8
1
62
256
6
ByLayer
370
13
48
1
60
0
100
AcDbLine
10
6.663397
20
-6.16973
30
0
11
6.663397
21
-19.024574
31
0
39
0
210
0
220
0
230
1
0
LINE
5
AC
100
AcDbEntity
8
1
62
256
6
ByLayer
370
13
48
1
60
0
100
AcDbLine
10
6.923205
20
-5.85989
30
0
11
6.923205
21
-19.122283
31
0
39
0
210
0
220
0
230
1
0
LINE
5
AD
100
AcDbEntity
8
1
62
256
6
ByLayer
370
13
48
1
60
0
100
AcDbLine
10
9.076795
20
-5.85989
30
0
11
9.076795
21
-19.122283
31
0
39
0
210
0
220
0
230
1
0
LINE
5
AE
100
AcDbEntity
8
1
62
256
6
ByLayer
370
13
48
1
60
0
100
AcDbLine
10
9.336603
20
-6.16973
30
0
11
9.336603
21
-19.024574
31
0
39
0
210
0
220
0
230
1
0
LINE
5
AF
100
AcDbEntity
8
1
62
256
6
ByLayer
370
13
48
1
60
0
100
AcDbLine
10
6.663397
20
19.024574
30
0
11
6.663397
21
6.16973
31
0
39
0
210
0
220
0
230
1
0
LINE
5
B0
100
AcDbEntity
8
1
62
256
6
ByLayer
370
13
48
1
60
0
100
AcDbLine
10
6.923205
20
19.122283
30
0
11
6.923205
21
5.85989
31
0
39
0
210
0
220
0
230
1
0
LINE
5
B1
100
AcDbEntity
8
1
62
256
6
ByLayer
370
13
48
1
60
0
100
AcDbLine
10
20.279208
20
17.554673
30
0
11
20.279208
21
15.158043
31
0
39
0
210
0
220
0
230
1
0
LINE
5
B2
100
AcDbEntity
8
1
62
256
6
ByLayer
370
18
48
1
60
0
100
AcDbLine
10
20.00903
20
18.965299
30
0
11
20
21
20
31
0
39
0
210
0
220
0
230
1
0
LINE
5
B3
100
AcDbEntity
8
1
62
256
6
ByLayer
370
13
48
1
60
0
100
AcDbLine
10
20.279208
20
-20
30
0
11
20.279208
21
-15.158043
31
0
39
0
210
0
220
0
230
1
0
LINE
5
B4
100
AcDbEntity
8
1
62
256
6
ByLayer
370
18
48
1
60
0
100
AcDbLine
10
9.076795
20
-19.122283
30
0
11
6.923205
21
-19.122283
31
0
39
0
210
0
220
0
230
1
0
LINE
5
B5
100
AcDbEntity
8
1
62
256
6
ByLayer
370
18
48
1
60
0
100
AcDbLine
10
6.923205
20
-5.85989
30
0
11
9.076795
21
-5.85989
31
0
39
0
210
0
220
0
230
1
0
LINE
5
B6
100
AcDbEntity
8
1
62
256
6
ByLayer
370
18
48
1
60
0
100
AcDbLine
10
6.923205
20
19.122283
30
0
11
9.076795
21
19.122283
31
0
39
0
210
0
220
0
230
1
0
LINE
5
B7
100
AcDbEntity
8
1
62
256
6
ByLayer
370
18
48
1
60
0
100
AcDbLine
10
9.076795
20
5.85989
30
0
11
6.923205
21
5.85989
31
0
39
0
210
0
220
0
230
1
0
LINE
5
B8
100
AcDbEntity
8
1
62
256
6
ByLayer
370
13
48
1
60
0
100
AcDbLine
10
20.049312
20
-13.931768
30
0
11
20.049312
21
13.931768
31
0
39
0
210
0
220
0
230
1
0
LINE
5
B9
100
AcDbEntity
8
1
62
256
6
ByLayer
370
18
48
1
60
0
100
AcDbLine
10
0.3
20
20
30
0
11
0.3
21
-20
31
0
39
0
210
0
220
0
230
1
0
LINE
5
BA
100
AcDbEntity
8
1
62
256
6
ByLayer
370
18
48
1
60
0
100
AcDbLine
10
0
20
19.7
30
0
11
0
21
-19.7
31
0
39
0
210
0
220
0
230
1
0
LINE
5
BB
100
AcDbEntity
8
1
62
256
6
ByLayer
370
18
48
1
60
0
100
AcDbLine
10
59.555796
20
-26.995692
30
0
11
58.609011
21
-26.937787
31
0
39
0
210
0
220
0
230
1
0
LINE
5
BC
100
AcDbEntity
8
1
62
256
6
ByLayer
370
18
48
1
60
0
100
AcDbLine
10
58.609011
20
-24.062379
30
0
11
59.555796
21
-24.004475
31
0
39
0
210
0
220
0
230
1
0
LINE
5
BD
100
AcDbEntity
8
1
62
256
6
ByLayer
370
18
48
1
60
0
100
AcDbLine
10
59.99999
20
-24.197003
30
0
11
59.99999
21
-26.803163
31
0
39
0
210
0
220
0
230
1
0
LINE
5
BE
100
AcDbEntity
8
1
62
256
6
ByLayer
370
18
48
1
60
0
100
AcDbLine
10
58.609011
20
-26.937787
30
0
11
57.851573
21
-26.936342
31
0
39
0
210
0
220
0
230
1
0
LINE
5
BF
100
AcDbEntity
8
1
62
256
6
ByLayer
370
18
48
1
60
0
100
AcDbLine
10
57.851573
20
-24.053911
30
0
11
58.609011
21
-24.062379
31
0
39
0
210
0
220
0
230
1
0
LINE
5
C0
100
AcDbEntity
8
1
62
256
6
ByLayer
370
18
48
1
60
0
100
AcDbLine
10
58.609011
20
-26.937787
30
0
11
58.609011
21
-24.062379
31
0
39
0
210
0
220
0
230
1
0
LINE
5
C1
100
AcDbEntity
8
1
62
256
6
ByLayer
370
13
48
1
60
0
100
AcDbLine
10
57.18134
20
-25.493889
30
0
11
53.749782
21
-25.493889
31
0
39
0
210
0
220
0
230
1
0
LINE
5
C2
100
AcDbEntity
8
1
62
256
6
ByLayer
370
13
48
1
60
0
100
AcDbLine
10
53.676082
20
-25.295118
30
0
11
56.397706
21
-25.295118
31
0
39
0
210
0
220
0
230
1
0
LINE
5
C3
100
AcDbEntity
8
1
62
256
6
ByLayer
370
13
48
1
60
0
100
AcDbLine
10
56.397706
20
-25.689767
30
0
11
53.664486
21
-25.689767
31
0
39
0
210
0
220
0
230
1
0
LINE
5
C4
100
AcDbEntity
8
1
62
256
6
ByLayer
370
13
48
1
60
0
100
AcDbLine
10
53.670442
20
-25.291599
30
0
11
56.344414
21
-25.291599
31
0
39
0
210
0
220
0
230
1
0
LINE
5
C5
100
AcDbEntity
8
1
62
256
6
ByLayer
370
13
48
1
60
0
100
AcDbLine
10
53.658744
20
-25.693089
30
0
11
56.344414
21
-25.693089
31
0
39
0
210
0
220
0
230
1
0
LINE
5
C6
100
AcDbEntity
8
1
62
256
6
ByLayer
370
13
48
1
60
0
100
AcDbLine
10
53.585008
20
-25.240026
30
0
11
55.636252
21
-25.240026
31
0
39
0
210
0
220
0
230
1
0
LINE
5
C7
100
AcDbEntity
8
1
62
256
6
ByLayer
370
13
48
1
60
0
100
AcDbLine
10
53.578668
20
-25.742047
30
0
11
55.636252
21
-25.742047
31
0
39
0
210
0
220
0
230
1
0
LINE
5
C8
100
AcDbEntity
8
1
62
256
6
ByLayer
370
13
48
1
60
0
100
AcDbLine
10
53.554598
20
-25.121928
30
0
11
55.024167
21
-25.121928
31
0
39
0
210
0
220
0
230
1
0
LINE
5
C9
100
AcDbEntity
8
1
62
256
6
ByLayer
370
18
48
1
60
0
100
AcDbLine
10
53.772487
20
-24.337658
30
0
11
46.227513
21
-24.337658
31
0
39
0
210
0
220
0
230
1
0
LINE
5
CA
100
AcDbEntity
8
1
62
256
6
ByLayer
370
13
48
1
60
0
100
AcDbLine
10
53.82005
20
-24.511752
30
0
11
53.407127
21
-24.511752
31
0
39
0
210
0
220
0
230
1
0
LINE
5
CB
100
AcDbEntity
8
1
62
256
6
ByLayer
370
13
48
1
60
0
100
AcDbLine
10
53.39512
20
-24.462213
30
0
11
53.772487
21
-24.462213
31
0
39
0
210
0
220
0
230
1
0
LINE
5
CC
100
AcDbEntity
8
1
62
256
6
ByLayer
370
13
48
1
60
0
100
AcDbLine
10
53.549574
20
-25.857884
30
0
11
55.024167
21
-25.857884
31
0
39
0
210
0
220
0
230
1
0
LINE
5
CD
100
AcDbEntity
8
1
62
256
6
ByLayer
370
13
48
1
60
0
100
AcDbLine
10
53.390653
20
-26.463614
30
0
11
53.82005
21
-26.463614
31
0
39
0
210
0
220
0
230
1
0
LINE
5
CE
100
AcDbEntity
8
1
62
256
6
ByLayer
370
18
48
1
60
0
100
AcDbLine
10
56.472465
20
-24.312445
30
0
11
57.419669
21
-24.075532
31
0
39
0
210
0
220
0
230
1
0
LINE
5
CF
100
AcDbEntity
8
1
62
256
6
ByLayer
370
18
48
1
60
0
100
AcDbLine
10
56.228061
20
-24.342192
30
0
11
53.772487
21
-24.337658
31
0
39
0
210
0
220
0
230
1
0
LINE
5
D0
100
AcDbEntity
8
1
62
256
6
ByLayer
370
18
48
1
60
0
100
AcDbLine
10
53.772487
20
-24.462213
30
0
11
53.772487
21
-24.337658
31
0
39
0
210
0
220
0
230
1
0
LINE
5
D1
100
AcDbEntity
8
1
62
256
6
ByLayer
370
18
48
1
60
0
100
AcDbLine
10
55.024167
20
-25.121928
30
0
11
53.82005
21
-24.511752
31
0
39
0
210
0
220
0
230
1
0
LINE
5
D2
100
AcDbEntity
8
1
62
256
6
ByLayer
370
18
48
1
60
0
100
AcDbLine
10
56.397706
20
-25.295118
30
0
11
56.344414
21
-25.291599
31
0
39
0
210
0
220
0
230
1
0
LINE
5
D3
100
AcDbEntity
8
1
62
256
6
ByLayer
370
18
48
1
60
0
100
AcDbLine
10
56.344414
20
-25.693089
30
0
11
56.397706
21
-25.689767
31
0
39
0
210
0
220
0
230
1
0
LINE
5
D4
100
AcDbEntity
8
1
62
256
6
ByLayer
370
18
48
1
60
0
100
AcDbLine
10
53.82005
20
-26.463614
30
0
11
55.024167
21
-25.857884
31
0
39
0
210
0
220
0
230
1
0
LINE
5
D5
100
AcDbEntity
8
1
62
256
6
ByLayer
370
18
48
1
60
0
100
AcDbLine
10
57.419669
20
-26.913126
30
0
11
56.472465
21
-26.672715
31
0
39
0
210
0
220
0
230
1
0
LINE
5
D6
100
AcDbEntity
8
1
62
256
6
ByLayer
370
18
48
1
60
0
100
AcDbLine
10
57.851573
20
-26.936342
30
0
11
57.458733
21
-26.918885
31
0
39
0
210
0
220
0
230
1
0
LINE
5
D7
100
AcDbEntity
8
1
62
256
6
ByLayer
370
18
48
1
60
0
100
AcDbLine
10
57.851573
20
-26.936342
30
0
11
57.851573
21
-24.053911
31
0
39
0
210
0
220
0
230
1
0
LINE
5
D8
100
AcDbEntity
8
1
62
256
6
ByLayer
370
18
48
1
60
0
100
AcDbLine
10
57.458733
20
-24.069918
30
0
11
57.851573
21
-24.053911
31
0
39
0
210
0
220
0
230
1
0
LINE
5
D9
100
AcDbEntity
8
1
62
256
6
ByLayer
370
18
48
1
60
0
100
AcDbLine
10
53.772487
20
-26.637532
30
0
11
53.772487
21
-26.512977
31
0
39
0
210
0
220
0
230
1
0
LINE
5
DA
100
AcDbEntity
8
1
62
256
6
ByLayer
370
13
48
1
60
0
100
AcDbLine
10
53.772487
20
-26.512977
30
0
11
53.377673
21
-26.512977
31
0
39
0
210
0
220
0
230
1
0
LINE
5
DB
100
AcDbEntity
8
1
62
256
6
ByLayer
370
18
48
1
60
0
100
AcDbLine
10
53.772487
20
-26.637532
30
0
11
56.228061
21
-26.642066
31
0
39
0
210
0
220
0
230
1
0
LINE
5
DC
100
AcDbEntity
8
1
62
256
6
ByLayer
370
18
48
1
60
0
100
AcDbLine
10
53.344781
20
-26.637532
30
0
11
53.772487
21
-26.637532
31
0
39
0
210
0
220
0
230
1
0
LINE
5
DD
100
AcDbEntity
8
1
62
256
6
ByLayer
370
13
48
1
60
0
100
AcDbLine
10
56.286743
20
-26.643884
30
0
11
56.228061
21
-26.642066
31
0
39
0
210
0
220
0
230
1
0
LINE
5
DE
100
AcDbEntity
8
1
62
256
6
ByLayer
370
18
48
1
60
0
100
AcDbLine
10
46.227513
20
-24.352461
30
0
11
46.227513
21
-24.337658
31
0
39
0
210
0
220
0
230
1
0
LINE
5
DF
100
AcDbEntity
8
1
62
256
6
ByLayer
370
18
48
1
60
0
100
AcDbLine
10
44.891873
20
-24.340124
30
0
11
46.227513
21
-24.337658
31
0
39
0
210
0
220
0
230
1
0
MTEXT
5
171
100
AcDbEntity
8
SK6
62
256
6
ByLayer
370
18
48
1
60
0
100
AcDbMText
10
-16.808868
20
-62.296559
30
0
210
0
220
0
230
1
1
\W0.7606;C2A-CC4-LFG15B-067CB
40
3.5
41
0
44
1.084337
50
0
71
7
72
5
7
iso_b_vert
0
DIMENSION
5
176
100
AcDbEntity
8
2
62
256
6
ByLayer
370
18
48
1
60
0
100
AcDbDimension
2
_U0
10
86.111264
20
-27
30
0
11
86.111264
21
-13.5
31
0
70
32
71
1
72
1
41
1
210
0
220
0
230
1
3
Standard
100
AcDbAlignedDimension
13
0
23
0
33
0
14
60
24
-27
34
0
50
90
100
AcDbRotatedDimension
1001
ACAD
1000
DSTYLE
1002
{
1070
   371
1070
    13
1070
   372
1070
    13
1070
   170
1070
     0
1070
   144
1040
1.0
1070
   277
1070
     2
1070
   284
1070
     8
1070
   278
1070
    46
1070
   146
1040
1.0
1070
   345
1005
16
1070
   347
1005
16
1070
   346
1005
16
1070
   344
1005
0
1070
   343
1005
0
1070
   172
1070
     1
1070
    76
1070
     0
1070
    75
1070
     0
1070
   282
1070
     0
1070
   281
1070
     0
1070
    71
1070
     0
1070
    74
1070
     0
1070
   279
1070
     0
1070
   173
1070
     1
1070
   340
1005
172
1070
   271
1070
     2
1070
   272
1070
     2
1070
    77
1070
     1
1070
    73
1070
     0
1070
   171
1070
     3
1070
   274
1070
     4
1070
   177
1070
     2
1070
   176
1070
     2
1070
   178
1070
     2
1070
    78
1070
     8
1070
    48
1040
-0.1
1070
    41
1040
3.5
1070
   147
1040
1.75
1070
    42
1040
1.5875
1070
    44
1040
2.0
1070
   140
1040
3.5
1002
}
1001
ACAD_DSTYLE_DIM_LINETYPE
1070
   380
1005
16
1001
ACAD_DSTYLE_DIM_EXT1_LINETYPE
1070
   381
1005
16
1001
ACAD_DSTYLE_DIM_EXT2_LINETYPE
1070
   382
1005
16
0
DIMENSION
5
190
100
AcDbEntity
8
2
62
256
6
ByLayer
370
18
48
1
60
0
100
AcDbDimension
2
_U1
10
75.111264
20
-27
30
0
11
75.111264
21
-25.500041
31
0
70
32
71
1
72
1
41
1
210
0
220
0
230
1
3
Standard
100
AcDbAlignedDimension
13
60
23
-24.000082
33
0
14
60
24
-27
34
0
50
90
100
AcDbRotatedDimension
1001
ACAD
1000
DSTYLE
1002
{
1070
   371
1070
    13
1070
   372
1070
    13
1070
   170
1070
     0
1070
   144
1040
1.0
1070
   277
1070
     2
1070
   284
1070
     8
1070
   278
1070
    46
1070
   146
1040
1.0
1070
   345
1005
16
1070
   347
1005
16
1070
   346
1005
16
1070
   344
1005
0
1070
   343
1005
0
1070
   172
1070
     1
1070
    76
1070
     0
1070
    75
1070
     0
1070
   282
1070
     0
1070
   281
1070
     0
1070
    71
1070
     0
1070
    74
1070
     0
1070
   279
1070
     0
1070
   173
1070
     1
1070
   340
1005
172
1070
   271
1070
     2
1070
   272
1070
     2
1070
    77
1070
     1
1070
    73
1070
     0
1070
   171
1070
     3
1070
   274
1070
     4
1070
   177
1070
     2
1070
   176
1070
     2
1070
   178
1070
     2
1070
    78
1070
     8
1070
    48
1040
-0.1
1070
    41
1040
3.5
1070
   147
1040
1.75
1070
    42
1040
1.5875
1070
    44
1040
2.0
1070
   140
1040
3.5
1002
}
1001
ACAD_DSTYLE_DIM_LINETYPE
1070
   380
1005
16
1001
ACAD_DSTYLE_DIM_EXT1_LINETYPE
1070
   381
1005
16
1001
ACAD_DSTYLE_DIM_EXT2_LINETYPE
1070
   382
1005
16
0
DIMENSION
5
1A9
100
AcDbEntity
8
SK2
62
256
6
ByLayer
370
18
48
1
60
0
100
AcDbDimension
2
_U2
10
-36.6
20
20
30
0
11
-36.6
21
0
31
0
70
32
71
1
72
1
41
1
210
0
220
0
230
1
3
Standard
100
AcDbAlignedDimension
13
0
23
-20
33
0
14
0
24
20
34
0
50
90
100
AcDbRotatedDimension
1001
ACAD
1000
DSTYLE
1002
{
1070
   371
1070
    13
1070
   372
1070
    13
1070
   170
1070
     0
1070
   144
1040
1.0
1070
   277
1070
     2
1070
   284
1070
     8
1070
   278
1070
    46
1070
   146
1040
1.0
1070
   345
1005
16
1070
   347
1005
16
1070
   346
1005
16
1070
   344
1005
0
1070
   343
1005
0
1070
   172
1070
     1
1070
    76
1070
     0
1070
    75
1070
     0
1070
   282
1070
     0
1070
   281
1070
     0
1070
    71
1070
     0
1070
    74
1070
     0
1070
   279
1070
     0
1070
   173
1070
     1
1070
   340
1005
172
1070
   271
1070
     2
1070
   272
1070
     2
1070
    77
1070
     1
1070
    73
1070
     0
1070
   171
1070
     3
1070
   274
1070
     4
1070
   177
1070
     2
1070
   176
1070
     2
1070
   178
1070
     2
1070
    78
1070
     8
1070
    48
1040
-0.1
1070
    41
1040
3.5
1070
   147
1040
1.75
1070
    42
1040
1.5875
1070
    44
1040
2.0
1070
   140
1040
3.5
1002
}
1001
ACAD_DSTYLE_DIM_LINETYPE
1070
   380
1005
16
1001
ACAD_DSTYLE_DIM_EXT1_LINETYPE
1070
   381
1005
16
1001
ACAD_DSTYLE_DIM_EXT2_LINETYPE
1070
   382
1005
16
0
DIMENSION
5
1C2
100
AcDbEntity
8
2
62
256
6
ByLayer
370
18
48
1
60
0
100
AcDbDimension
2
_U3
10
60
20
31.749918
30
0
11
52.5
21
31.749918
31
0
70
32
71
1
72
1
41
1
210
0
220
0
230
1
3
Standard
100
AcDbAlignedDimension
13
45
23
-25.500082
33
0
14
60
24
-25.500082
34
0
50
0
100
AcDbRotatedDimension
1001
ACAD
1000
DSTYLE
1002
{
1070
   371
1070
    13
1070
   372
1070
    13
1070
   170
1070
     0
1070
   144
1040
1.0
1070
   277
1070
     2
1070
   284
1070
     8
1070
   278
1070
    46
1070
   146
1040
1.0
1070
   345
1005
16
1070
   347
1005
16
1070
   346
1005
16
1070
   344
1005
0
1070
   343
1005
0
1070
   172
1070
     1
1070
    76
1070
     0
1070
    75
1070
     0
1070
   282
1070
     0
1070
   281
1070
     0
1070
    71
1070
     0
1070
    74
1070
     0
1070
   279
1070
     0
1070
   173
1070
     1
1070
   340
1005
172
1070
   271
1070
     1
1070
   272
1070
     2
1070
    77
1070
     1
1070
    73
1070
     1
1070
   171
1070
     3
1070
   274
1070
     4
1070
   177
1070
     2
1070
   176
1070
     2
1070
   178
1070
     2
1070
    78
1070
     8
1070
    48
1040
-0.1
1070
    41
1040
3.5
1070
   147
1040
1.75
1070
    42
1040
1.5875
1070
    44
1040
2.0
1070
   140
1040
3.5
1002
}
1001
ACAD_DSTYLE_DIM_LINETYPE
1070
   380
1005
16
1001
ACAD_DSTYLE_DIM_EXT1_LINETYPE
1070
   381
1005
16
1001
ACAD_DSTYLE_DIM_EXT2_LINETYPE
1070
   382
1005
16
0
DIMENSION
5
1DB
100
AcDbEntity
8
2
62
256
6
ByLayer
370
18
48
1
60
0
100
AcDbDimension
2
_U4
10
60
20
-45.75
30
0
11
30
21
-45.75
31
0
70
32
71
1
72
1
41
1
210
0
220
0
230
1
3
Standard
100
AcDbAlignedDimension
13
0
23
-20
33
0
14
60
24
-27
34
0
50
0
100
AcDbRotatedDimension
1001
ACAD
1000
DSTYLE
1002
{
1070
   371
1070
    13
1070
   372
1070
    13
1070
   170
1070
     0
1070
   144
1040
1.0
1070
   277
1070
     2
1070
   284
1070
     8
1070
   278
1070
    46
1070
   146
1040
1.0
1070
   345
1005
16
1070
   347
1005
16
1070
   346
1005
16
1070
   344
1005
0
1070
   343
1005
0
1070
   172
1070
     1
1070
    76
1070
     0
1070
    75
1070
     0
1070
   282
1070
     0
1070
   281
1070
     0
1070
    71
1070
     0
1070
    74
1070
     0
1070
   279
1070
     0
1070
   173
1070
     1
1070
   340
1005
172
1070
   271
1070
     1
1070
   272
1070
     2
1070
    77
1070
     1
1070
    73
1070
     1
1070
   171
1070
     3
1070
   274
1070
     4
1070
   177
1070
     2
1070
   176
1070
     2
1070
   178
1070
     2
1070
    78
1070
     8
1070
    48
1040
-0.1
1070
    41
1040
3.5
1070
   147
1040
1.75
1070
    42
1040
1.5875
1070
    44
1040
2.0
1070
   140
1040
3.5
1002
}
1001
ACAD_DSTYLE_DIM_LINETYPE
1070
   380
1005
16
1001
ACAD_DSTYLE_DIM_EXT1_LINETYPE
1070
   381
1005
16
1001
ACAD_DSTYLE_DIM_EXT2_LINETYPE
1070
   382
1005
16
0
ENDSEC
0
SECTION
2
OBJECTS
0
DICTIONARY
5
261
330
0
100
AcDbDictionary
280
0
281
1
3
ACAD_GROUP
350
262
3
ACAD_MLINESTYLE
350
263
0
DICTIONARY
5
262
330
0
100
AcDbDictionary
280
0
281
1
0
DICTIONARY
5
263
330
0
100
AcDbDictionary
280
0
281
1
3
Standard
350
18
0
MLINESTYLE
5
18
330
263
100
AcDbMlineStyle
2
Standard
70
0
3

62
256
51
90
52
90
71
2
49
-0.5
62
256
6
ByLayer
49
0.5
62
256
6
ByLayer
0
RASTERVARIABLES
5
251
330

100
AcDbRasterVariables
90
0
70
1
71
1
72
1
0
ENDSEC
0
EOF
