0
SECTION
2
HEADER
9
$ACADVER
1
AC1015
9
$DWGCODEPAGE
3
ANSI_1252
9
$HANDSEED
5
270
9
$ANGBASE
50
0
9
$ANGDIR
70
0
9
$ATTMODE
70
1
9
$AUNITS
70
0
9
$AUPREC
70
0
9
$CECOLOR
62
256
9
$CELTSCALE
40
1
9
$CELTYPE
6
ByLayer
9
$CELWEIGHT
370
18
9
$CLAYER
8
0
9
$CMLJUST
70
0
9
$CMLSCALE
40
1
9
$CMLSTYLE
2
Standard
9
$DIMSTYLE
2
Standard
9
$TEXTSIZE
40
0.2
9
$TEXTSTYLE
7
Standard
9
$LUNITS
70
2
9
$LUPREC
70
4
9
$EXTNAMES
290
1
9
$INSUNITS
70
4
9
$LTSCALE
40
1
9
$LWDISPLAY
290
1
9
$PDMODE
70
0
9
$PDSIZE
40
0
9
$PLINEGEN
70
0
0
ENDSEC
0
SECTION
2
CLASSES
0
CLASS
1
RASTERVARIABLES
2
AcDbRasterVariables
3
ISM
90
0
280
0
281
0
0
ENDSEC
0
SECTION
2
TABLES
0
TABLE
2
VPORT
5
266
100
AcDbSymbolTable
0
VPORT
5
1
100
AcDbSymbolTableRecord
100
AcDbViewportTableRecord
2
*Active
70
0
10
0
20
0
11
1
21
1
12
-1
22
1
13
0
23
0
14
0.5
24
0.5
15
10
25
10
16
0
26
0
36
1
17
0
27
0
37
0
0
ENDTAB
0
TABLE
2
LTYPE
5
267
100
AcDbSymbolTable
0
LTYPE
5
14
100
AcDbSymbolTableRecord
100
AcDbLinetypeTableRecord
70
0
2
ByBlock
3

72
65
73
0
40
0
0
LTYPE
5
15
100
AcDbSymbolTableRecord
100
AcDbLinetypeTableRecord
70
0
2
ByLayer
3

72
65
73
0
40
0
0
LTYPE
5
16
100
AcDbSymbolTableRecord
100
AcDbLinetypeTableRecord
70
0
2
Continuous
3
Solid line
72
65
73
0
40
0
0
LTYPE
5
6E
100
AcDbSymbolTableRecord
100
AcDbLinetypeTableRecord
70
0
2
CENTER
3
____ _ ____ _ ____ _ ____
72
65
73
4
40
47.5
49
22
74
0
49
-8.5
74
0
49
8.5
74
0
49
-8.5
74
0
0
LTYPE
5
6F
100
AcDbSymbolTableRecord
100
AcDbLinetypeTableRecord
70
0
2
DASHED
3
__ __ __ __ __ __ __ __ __
72
65
73
2
40
25.72
49
12.86
74
0
49
-12.86
74
0
0
ENDTAB
0
TABLE
2
LAYER
5
268
100
AcDbSymbolTable
0
LAYER
5
10
100
AcDbSymbolTableRecord
100
AcDbLayerTableRecord
2
0
70
0
62
7
6
Continuous
290
1
370
-3
390
0
0
LAYER
5
71
100
AcDbSymbolTableRecord
100
AcDbLayerTableRecord
2
1
70
0
62
4
6
Continuous
290
1
370
-3
390
0
0
LAYER
5
73
100
AcDbSymbolTableRecord
100
AcDbLayerTableRecord
2
80
70
0
62
-6
6
Continuous
290
1
370
-3
390
0
0
LAYER
5
75
100
AcDbSymbolTableRecord
100
AcDbLayerTableRecord
2
81
70
0
62
-3
6
Continuous
290
1
370
-3
390
0
0
LAYER
5
17B
100
AcDbSymbolTableRecord
100
AcDbLayerTableRecord
2
Defpoints
70
0
62
7
6
Continuous
290
0
370
-3
390
0
0
LAYER
5
188
100
AcDbSymbolTableRecord
100
AcDbLayerTableRecord
2
2
70
0
62
7
6
Continuous
290
1
370
-3
390
0
0
LAYER
5
254
100
AcDbSymbolTableRecord
100
AcDbLayerTableRecord
2
SK6
70
0
62
5
6
Continuous
290
1
370
-3
390
0
0
LAYER
5
255
100
AcDbSymbolTableRecord
100
AcDbLayerTableRecord
2
SK2
70
0
62
7
6
Continuous
290
1
370
-3
390
0
0
ENDTAB
0
TABLE
2
STYLE
5
269
100
AcDbSymbolTable
0
STYLE
5
11
100
AcDbSymbolTableRecord
100
AcDbTextStyleTableRecord
2
Standard
3
txt
70
0
71
0
40
0
41
1
42
0
50
0
0
STYLE
5
174
100
AcDbSymbolTableRecord
100
AcDbTextStyleTableRecord
2
iso_b_vert
3
simplex.shx
70
0
71
0
40
0
41
1
42
0
50
0
0
STYLE
5
175
100
AcDbSymbolTableRecord
100
AcDbTextStyleTableRecord
2
DWGDirectTextStyle
3
simplex
70
0
71
0
40
0
41
1
42
0
50
0
0
ENDTAB
0
TABLE
2
DIMSTYLE
5
26a
100
AcDbSymbolTable
100
AcDbDimStyleTable
0
DIMSTYLE
105
27
100
AcDbSymbolTableRecord
100
AcDbDimStyleTableRecord
2
Standard
70
0
3
<>
41
0.18
42
0.0625
44
0.18
140
0.18
147
0.09
73
0
74
0
77
1
271
2
275
0
278
52
280
0
340
11
0
ENDTAB
0
TABLE
2
VIEW
5
26b
100
AcDbSymbolTable
0
ENDTAB
0
TABLE
2
UCS
5
26c
100
AcDbSymbolTable
0
ENDTAB
0
TABLE
2
APPID
5
26d
100
AcDbSymbolTable
0
APPID
5
12
100
AcDbSymbolTableRecord
100
AcDbRegAppTableRecord
2
ACAD
70
0
0
APPID
5
177
100
AcDbSymbolTableRecord
100
AcDbRegAppTableRecord
2
ACAD_DSTYLE_DIMBREAK
70
0
0
APPID
5
213
100
AcDbSymbolTableRecord
100
AcDbRegAppTableRecord
2
ACAD_DSTYLE_DIM_LINETYPE
70
0
0
APPID
5
214
100
AcDbSymbolTableRecord
100
AcDbRegAppTableRecord
2
ACAD_DSTYLE_DIM_EXT1_LINETYPE
70
0
0
APPID
5
215
100
AcDbSymbolTableRecord
100
AcDbRegAppTableRecord
2
ACAD_DSTYLE_DIM_EXT2_LINETYPE
70
0
0
APPID
5
250
100
AcDbSymbolTableRecord
100
AcDbRegAppTableRecord
2
ACAD_MLEADERVER
70
0
0
ENDTAB
0
TABLE
2
BLOCK_RECORD
5
26e
100
AcDbSymbolTable
0
BLOCK_RECORD
5
1F
100
AcDbSymbolTableRecord
100
AcDbBlockTableRecord
2
*Model_Space
340
0
70
0
0
BLOCK_RECORD
5
1B
100
AcDbSymbolTableRecord
100
AcDbBlockTableRecord
2
*Paper_Space
340
0
70
0
0
BLOCK_RECORD
5
23
100
AcDbSymbolTableRecord
100
AcDbBlockTableRecord
2
*Paper_Space0
340
0
70
0
0
BLOCK_RECORD
5
17C
100
AcDbSymbolTableRecord
100
AcDbBlockTableRecord
2
*D1
340
0
70
0
0
BLOCK_RECORD
5
189
100
AcDbSymbolTableRecord
100
AcDbBlockTableRecord
2
_U0
340
0
70
0
0
BLOCK_RECORD
5
195
100
AcDbSymbolTableRecord
100
AcDbBlockTableRecord
2
*D3
340
0
70
0
0
BLOCK_RECORD
5
1A2
100
AcDbSymbolTableRecord
100
AcDbBlockTableRecord
2
_U1
340
0
70
0
0
BLOCK_RECORD
5
1AE
100
AcDbSymbolTableRecord
100
AcDbBlockTableRecord
2
*D5
340
0
70
0
0
BLOCK_RECORD
5
1BB
100
AcDbSymbolTableRecord
100
AcDbBlockTableRecord
2
_U2
340
0
70
0
0
BLOCK_RECORD
5
1C7
100
AcDbSymbolTableRecord
100
AcDbBlockTableRecord
2
*D7
340
0
70
0
0
BLOCK_RECORD
5
1D4
100
AcDbSymbolTableRecord
100
AcDbBlockTableRecord
2
_U3
340
0
70
0
0
BLOCK_RECORD
5
1E0
100
AcDbSymbolTableRecord
100
AcDbBlockTableRecord
2
*D9
340
0
70
0
0
BLOCK_RECORD
5
1EC
100
AcDbSymbolTableRecord
100
AcDbBlockTableRecord
2
_U4
340
0
70
0
0
ENDTAB
0
ENDSEC
0
SECTION
2
BLOCKS
0
BLOCK
5
20
100
AcDbEntity
8
0
100
AcDbBlockBegin
2
*Model_Space
70
0
10
0
20
0
30
0
3
*Model_Space
0
ENDBLK
5
21
100
AcDbEntity
8
0
100
AcDbBlockEnd
0
BLOCK
5
1C
100
AcDbEntity
8
0
100
AcDbBlockBegin
2
*Paper_Space
70
0
10
0
20
0
30
0
3
*Paper_Space
0
ENDBLK
5
1D
100
AcDbEntity
8
0
100
AcDbBlockEnd
0
BLOCK
5
24
100
AcDbEntity
8
0
100
AcDbBlockBegin
2
*Paper_Space0
70
0
10
0
20
0
30
0
3
*Paper_Space0
0
ENDBLK
5
25
100
AcDbEntity
8
0
100
AcDbBlockEnd
0
BLOCK
5
17D
100
AcDbEntity
8
0
100
AcDbBlockBegin
2
*D1
70
1
10
0
20
0
30
0
3
*D1
0
LINE
5
17F
100
AcDbEntity
8
0
62
256
6
ByLayer
370
-2
48
1
60
0
100
AcDbLine
10
1.5875
20
0
30
0
11
93.1
21
0
31
0
39
0
210
0
220
0
230
1
0
LINE
5
180
100
AcDbEntity
8
0
62
256
6
ByLayer
370
-2
48
1
60
0
100
AcDbLine
10
61.5875
20
27
30
0
11
93.1
21
27
31
0
39
0
210
0
220
0
230
1
0
LINE
5
181
100
AcDbEntity
8
0
62
256
6
ByLayer
370
-2
48
1
60
0
100
AcDbLine
10
91.1
20
3.5
30
0
11
91.1
21
23.5
31
0
39
0
210
0
220
0
230
1
0
SOLID
5
182
100
AcDbEntity
8
0
62
256
6
ByLayer
370
-1
48
1
60
0
100
AcDbTrace
10
90.516667
20
3.5
30
0
11
91.683333
21
3.5
31
0
12
91.1
22
0
32
0
13
91.1
23
0
33
0
39
0
210
0
220
0
230
1
0
SOLID
5
183
100
AcDbEntity
8
0
62
256
6
ByLayer
370
-1
48
1
60
0
100
AcDbTrace
10
91.683333
20
23.5
30
0
11
90.516667
21
23.5
31
0
12
91.1
22
27
32
0
13
91.1
23
27
33
0
39
0
210
0
220
0
230
1
0
MTEXT
5
184
100
AcDbEntity
8
0
62
256
6
ByLayer
370
18
48
1
60
0
100
AcDbMText
10
84.1
20
13.5
30
0
210
0
220
0
230
1
1
\A1;27
40
3.5
41
0
44
1
50
90
71
5
72
5
7
iso_b_vert
0
POINT
5
185
100
AcDbEntity
8
Defpoints
62
0
6
ByLayer
370
-1
48
1
60
0
100
AcDbPoint
10
0
20
0
30
0
39
0
210
0
220
0
230
1
50
360
0
POINT
5
186
100
AcDbEntity
8
Defpoints
62
0
6
ByLayer
370
-1
48
1
60
0
100
AcDbPoint
10
60
20
27
30
0
39
0
210
0
220
0
230
1
50
360
0
POINT
5
187
100
AcDbEntity
8
Defpoints
62
0
6
ByLayer
370
-1
48
1
60
0
100
AcDbPoint
10
91.1
20
27
30
0
39
0
210
0
220
0
230
1
50
360
0
ENDBLK
5
17E
100
AcDbEntity
8
0
100
AcDbBlockEnd
0
BLOCK
5
190
100
AcDbEntity
8
0
100
AcDbBlockBegin
2
_U0
70
0
10
0
20
0
30
0
3
_U0
0
MTEXT
5
18A
100
AcDbEntity
8
2
62
256
6
ByLayer
370
18
48
1
60
0
100
AcDbMText
10
90.410366
20
11.567034
30
0
210
0
220
0
230
1
1
\W0.6740;27
40
3.5
41
0
44
1.084337
50
90
71
7
72
5
7
iso_b_vert
0
LINE
5
18B
100
AcDbEntity
8
2
62
256
6
ByLayer
370
13
48
1
60
0
100
AcDbLine
10
1.5875
20
0
30
0
11
93.1
21
0
31
0
39
0
210
0
220
0
230
1
0
LINE
5
18C
100
AcDbEntity
8
2
62
256
6
ByLayer
370
13
48
1
60
0
100
AcDbLine
10
61.5875
20
27
30
0
11
93.1
21
27
31
0
39
0
210
0
220
0
230
1
0
LINE
5
18D
100
AcDbEntity
8
2
62
256
6
ByLayer
370
13
48
1
60
0
100
AcDbLine
10
91.1
20
0
30
0
11
91.1
21
27
31
0
39
0
210
0
220
0
230
1
0
SOLID
5
18E
100
AcDbEntity
8
2
62
256
6
ByLayer
370
18
48
1
60
0
100
AcDbTrace
10
91.1
20
0
30
0
11
90.639216
21
3.499998
31
0
12
91.560784
22
3.500002
32
0
13
91.560784
23
3.500002
33
0
39
0
210
0
220
0
230
1
0
SOLID
5
18F
100
AcDbEntity
8
2
62
256
6
ByLayer
370
18
48
1
60
0
100
AcDbTrace
10
91.1
20
27
30
0
11
91.560784
21
23.500002
31
0
12
90.639216
22
23.499998
32
0
13
90.639216
23
23.499998
33
0
39
0
210
0
220
0
230
1
0
ENDBLK
5
191
100
AcDbEntity
8
0
100
AcDbBlockEnd
0
BLOCK
5
196
100
AcDbEntity
8
0
100
AcDbBlockBegin
2
*D3
70
1
10
0
20
0
30
0
3
*D3
0
LINE
5
198
100
AcDbEntity
8
0
62
256
6
ByLayer
370
-2
48
1
60
0
100
AcDbLine
10
61.5875
20
24.001791
30
0
11
82.1
21
24.001791
31
0
39
0
210
0
220
0
230
1
0
LINE
5
199
100
AcDbEntity
8
0
62
256
6
ByLayer
370
-2
48
1
60
0
100
AcDbLine
10
61.5875
20
27
30
0
11
82.1
21
27
31
0
39
0
210
0
220
0
230
1
0
LINE
5
19A
100
AcDbEntity
8
0
62
256
6
ByLayer
370
-2
48
1
60
0
100
AcDbLine
10
80.1
20
20.501791
30
0
11
80.1
21
17.001791
31
0
39
0
210
0
220
0
230
1
0
LINE
5
19B
100
AcDbEntity
8
0
62
256
6
ByLayer
370
-2
48
1
60
0
100
AcDbLine
10
80.1
20
30.5
30
0
11
80.1
21
34
31
0
39
0
210
0
220
0
230
1
0
SOLID
5
19C
100
AcDbEntity
8
0
62
256
6
ByLayer
370
-1
48
1
60
0
100
AcDbTrace
10
80.683333
20
20.501791
30
0
11
79.516667
21
20.501791
31
0
12
80.1
22
24.001791
32
0
13
80.1
23
24.001791
33
0
39
0
210
0
220
0
230
1
0
SOLID
5
19D
100
AcDbEntity
8
0
62
256
6
ByLayer
370
-1
48
1
60
0
100
AcDbTrace
10
79.516667
20
30.5
30
0
11
80.683333
21
30.5
31
0
12
80.1
22
27
32
0
13
80.1
23
27
33
0
39
0
210
0
220
0
230
1
0
MTEXT
5
19E
100
AcDbEntity
8
0
62
256
6
ByLayer
370
18
48
1
60
0
100
AcDbMText
10
73.1
20
25.500895
30
0
210
0
220
0
230
1
1
\A1;3
40
3.5
41
0
44
1
50
90
71
5
72
5
7
iso_b_vert
0
POINT
5
19F
100
AcDbEntity
8
Defpoints
62
0
6
ByLayer
370
-1
48
1
60
0
100
AcDbPoint
10
60
20
24.001791
30
0
39
0
210
0
220
0
230
1
50
360
0
POINT
5
1A0
100
AcDbEntity
8
Defpoints
62
0
6
ByLayer
370
-1
48
1
60
0
100
AcDbPoint
10
60
20
27
30
0
39
0
210
0
220
0
230
1
50
360
0
POINT
5
1A1
100
AcDbEntity
8
Defpoints
62
0
6
ByLayer
370
-1
48
1
60
0
100
AcDbPoint
10
80.1
20
27
30
0
39
0
210
0
220
0
230
1
50
360
0
ENDBLK
5
197
100
AcDbEntity
8
0
100
AcDbBlockEnd
0
BLOCK
5
1A9
100
AcDbEntity
8
0
100
AcDbBlockBegin
2
_U1
70
0
10
0
20
0
30
0
3
_U1
0
MTEXT
5
1A3
100
AcDbEntity
8
2
62
256
6
ByLayer
370
18
48
1
60
0
100
AcDbMText
10
79.410366
20
24.875662
30
0
210
0
220
0
230
1
1
\W0.5404;3
40
3.5
41
0
44
1.084337
50
90
71
7
72
5
7
iso_b_vert
0
LINE
5
1A4
100
AcDbEntity
8
2
62
256
6
ByLayer
370
13
48
1
60
0
100
AcDbLine
10
61.5875
20
24.001791
30
0
11
82.1
21
24.001791
31
0
39
0
210
0
220
0
230
1
0
LINE
5
1A5
100
AcDbEntity
8
2
62
256
6
ByLayer
370
13
48
1
60
0
100
AcDbLine
10
61.5875
20
27
30
0
11
82.1
21
27
31
0
39
0
210
0
220
0
230
1
0
LINE
5
1A6
100
AcDbEntity
8
2
62
256
6
ByLayer
370
13
48
1
60
0
100
AcDbLine
10
80.1
20
15.251791
30
0
11
80.1
21
35.75
31
0
39
0
210
0
220
0
230
1
0
SOLID
5
1A7
100
AcDbEntity
8
2
62
256
6
ByLayer
370
18
48
1
60
0
100
AcDbTrace
10
80.1
20
24.001791
30
0
11
80.560784
21
20.501792
31
0
12
79.639216
22
20.501789
32
0
13
79.639216
23
20.501789
33
0
39
0
210
0
220
0
230
1
0
SOLID
5
1A8
100
AcDbEntity
8
2
62
256
6
ByLayer
370
18
48
1
60
0
100
AcDbTrace
10
80.1
20
27
30
0
11
79.639216
21
30.499998
31
0
12
80.560784
22
30.500002
32
0
13
80.560784
23
30.500002
33
0
39
0
210
0
220
0
230
1
0
ENDBLK
5
1AA
100
AcDbEntity
8
0
100
AcDbBlockEnd
0
BLOCK
5
1AF
100
AcDbEntity
8
0
100
AcDbBlockBegin
2
*D5
70
1
10
0
20
0
30
0
3
*D5
0
LINE
5
1B1
100
AcDbEntity
8
0
62
256
6
ByLayer
370
-2
48
1
60
0
100
AcDbLine
10
-1.5875
20
20
30
0
11
-38.6
21
20
31
0
39
0
210
0
220
0
230
1
0
LINE
5
1B2
100
AcDbEntity
8
0
62
256
6
ByLayer
370
-2
48
1
60
0
100
AcDbLine
10
-1.5875
20
-20
30
0
11
-38.6
21
-20
31
0
39
0
210
0
220
0
230
1
0
LINE
5
1B3
100
AcDbEntity
8
0
62
256
6
ByLayer
370
-2
48
1
60
0
100
AcDbLine
10
-36.6
20
16.5
30
0
11
-36.6
21
-16.5
31
0
39
0
210
0
220
0
230
1
0
SOLID
5
1B4
100
AcDbEntity
8
0
62
256
6
ByLayer
370
-1
48
1
60
0
100
AcDbTrace
10
-36.016667
20
16.5
30
0
11
-37.183333
21
16.5
31
0
12
-36.6
22
20
32
0
13
-36.6
23
20
33
0
39
0
210
0
220
0
230
1
0
SOLID
5
1B5
100
AcDbEntity
8
0
62
256
6
ByLayer
370
-1
48
1
60
0
100
AcDbTrace
10
-37.183333
20
-16.5
30
0
11
-36.016667
21
-16.5
31
0
12
-36.6
22
-20
32
0
13
-36.6
23
-20
33
0
39
0
210
0
220
0
230
1
0
MTEXT
5
1B6
100
AcDbEntity
8
0
62
256
6
ByLayer
370
18
48
1
60
0
100
AcDbMText
10
-43.6
20
0
30
0
210
0
220
0
230
1
1
\A1;40
40
3.5
41
0
44
1
50
90
71
5
72
5
7
iso_b_vert
0
POINT
5
1B7
100
AcDbEntity
8
Defpoints
62
0
6
ByLayer
370
-1
48
1
60
0
100
AcDbPoint
10
0
20
20
30
0
39
0
210
0
220
0
230
1
50
360
0
POINT
5
1B8
100
AcDbEntity
8
Defpoints
62
0
6
ByLayer
370
-1
48
1
60
0
100
AcDbPoint
10
0
20
-20
30
0
39
0
210
0
220
0
230
1
50
360
0
POINT
5
1B9
100
AcDbEntity
8
Defpoints
62
0
6
ByLayer
370
-1
48
1
60
0
100
AcDbPoint
10
-36.6
20
-20
30
0
39
0
210
0
220
0
230
1
50
360
0
ENDBLK
5
1B0
100
AcDbEntity
8
0
100
AcDbBlockEnd
0
BLOCK
5
1C2
100
AcDbEntity
8
0
100
AcDbBlockBegin
2
_U2
70
0
10
0
20
0
30
0
3
_U2
0
MTEXT
5
1BC
100
AcDbEntity
8
SK2
62
256
6
ByLayer
370
18
48
1
60
0
100
AcDbMText
10
-37.289634
20
-2.117233
30
0
210
0
220
0
230
1
1
\W0.7361;40
40
3.5
41
0
44
1.084337
50
90
71
7
72
5
7
iso_b_vert
0
LINE
5
1BD
100
AcDbEntity
8
SK2
62
256
6
ByLayer
370
13
48
1
60
0
100
AcDbLine
10
-1.5875
20
20
30
0
11
-38.6
21
20
31
0
39
0
210
0
220
0
230
1
0
LINE
5
1BE
100
AcDbEntity
8
SK2
62
256
6
ByLayer
370
13
48
1
60
0
100
AcDbLine
10
-1.5875
20
-20
30
0
11
-38.6
21
-20
31
0
39
0
210
0
220
0
230
1
0
LINE
5
1BF
100
AcDbEntity
8
SK2
62
256
6
ByLayer
370
13
48
1
60
0
100
AcDbLine
10
-36.6
20
20
30
0
11
-36.6
21
-20
31
0
39
0
210
0
220
0
230
1
0
SOLID
5
1C0
100
AcDbEntity
8
SK2
62
256
6
ByLayer
370
18
48
1
60
0
100
AcDbTrace
10
-36.6
20
20
30
0
11
-36.139216
21
16.500002
31
0
12
-37.060784
22
16.499998
32
0
13
-37.060784
23
16.499998
33
0
39
0
210
0
220
0
230
1
0
SOLID
5
1C1
100
AcDbEntity
8
SK2
62
256
6
ByLayer
370
18
48
1
60
0
100
AcDbTrace
10
-36.6
20
-20
30
0
11
-37.060784
21
-16.500002
31
0
12
-36.139216
22
-16.499998
32
0
13
-36.139216
23
-16.499998
33
0
39
0
210
0
220
0
230
1
0
ENDBLK
5
1C3
100
AcDbEntity
8
0
100
AcDbBlockEnd
0
BLOCK
5
1C8
100
AcDbEntity
8
0
100
AcDbBlockBegin
2
*D7
70
1
10
0
20
0
30
0
3
*D7
0
LINE
5
1CA
100
AcDbEntity
8
0
62
256
6
ByLayer
370
-2
48
1
60
0
100
AcDbLine
10
45
20
23.914291
30
0
11
45
21
-37.248209
31
0
39
0
210
0
220
0
230
1
0
LINE
5
1CB
100
AcDbEntity
8
0
62
256
6
ByLayer
370
-2
48
1
60
0
100
AcDbLine
10
60
20
23.914291
30
0
11
60
21
-37.248209
31
0
39
0
210
0
220
0
230
1
0
LINE
5
1CC
100
AcDbEntity
8
0
62
256
6
ByLayer
370
-2
48
1
60
0
100
AcDbLine
10
41.5
20
-35.248209
30
0
11
38
21
-35.248209
31
0
39
0
210
0
220
0
230
1
0
LINE
5
1CD
100
AcDbEntity
8
0
62
256
6
ByLayer
370
-2
48
1
60
0
100
AcDbLine
10
63.5
20
-35.248209
30
0
11
67
21
-35.248209
31
0
39
0
210
0
220
0
230
1
0
SOLID
5
1CE
100
AcDbEntity
8
0
62
256
6
ByLayer
370
-1
48
1
60
0
100
AcDbTrace
10
41.5
20
-35.831543
30
0
11
41.5
21
-34.664876
31
0
12
45
22
-35.248209
32
0
13
45
23
-35.248209
33
0
39
0
210
0
220
0
230
1
0
SOLID
5
1CF
100
AcDbEntity
8
0
62
256
6
ByLayer
370
-1
48
1
60
0
100
AcDbTrace
10
63.5
20
-34.664876
30
0
11
63.5
21
-35.831543
31
0
12
60
22
-35.248209
32
0
13
60
23
-35.248209
33
0
39
0
210
0
220
0
230
1
0
MTEXT
5
1D0
100
AcDbEntity
8
0
62
256
6
ByLayer
370
18
48
1
60
0
100
AcDbMText
10
52.5
20
-28.248209
30
0
210
0
220
0
230
1
1
\A1;15
40
3.5
41
0
44
1
50
0
71
5
72
5
7
iso_b_vert
0
POINT
5
1D1
100
AcDbEntity
8
Defpoints
62
0
6
ByLayer
370
-1
48
1
60
0
100
AcDbPoint
10
45
20
25.501791
30
0
39
0
210
0
220
0
230
1
50
360
0
POINT
5
1D2
100
AcDbEntity
8
Defpoints
62
0
6
ByLayer
370
-1
48
1
60
0
100
AcDbPoint
10
60
20
25.501791
30
0
39
0
210
0
220
0
230
1
50
360
0
POINT
5
1D3
100
AcDbEntity
8
Defpoints
62
0
6
ByLayer
370
-1
48
1
60
0
100
AcDbPoint
10
60
20
-35.248209
30
0
39
0
210
0
220
0
230
1
50
360
0
ENDBLK
5
1C9
100
AcDbEntity
8
0
100
AcDbBlockEnd
0
BLOCK
5
1DB
100
AcDbEntity
8
0
100
AcDbBlockBegin
2
_U3
70
0
10
0
20
0
30
0
3
_U3
0
MTEXT
5
1D5
100
AcDbEntity
8
2
62
256
6
ByLayer
370
18
48
1
60
0
100
AcDbMText
10
51.032467
20
-34.215576
30
0
210
0
220
0
230
1
1
\W0.5321;15
40
3.5
41
0
44
1.084337
50
0
71
7
72
5
7
iso_b_vert
0
LINE
5
1D6
100
AcDbEntity
8
2
62
256
6
ByLayer
370
13
48
1
60
0
100
AcDbLine
10
45
20
23.914291
30
0
11
45
21
-37.248209
31
0
39
0
210
0
220
0
230
1
0
LINE
5
1D7
100
AcDbEntity
8
2
62
256
6
ByLayer
370
13
48
1
60
0
100
AcDbLine
10
60
20
23.914291
30
0
11
60
21
-37.248209
31
0
39
0
210
0
220
0
230
1
0
LINE
5
1D8
100
AcDbEntity
8
2
62
256
6
ByLayer
370
13
48
1
60
0
100
AcDbLine
10
45
20
-35.248209
30
0
11
60
21
-35.248209
31
0
39
0
210
0
220
0
230
1
0
SOLID
5
1D9
100
AcDbEntity
8
2
62
256
6
ByLayer
370
18
48
1
60
0
100
AcDbTrace
10
45
20
-35.248209
30
0
11
48.499998
21
-34.787425
31
0
12
48.500002
22
-35.708993
32
0
13
48.500002
23
-35.708993
33
0
39
0
210
0
220
0
230
1
0
SOLID
5
1DA
100
AcDbEntity
8
2
62
256
6
ByLayer
370
18
48
1
60
0
100
AcDbTrace
10
60
20
-35.248209
30
0
11
56.500002
21
-35.708993
31
0
12
56.499998
22
-34.787425
32
0
13
56.499998
23
-34.787425
33
0
39
0
210
0
220
0
230
1
0
ENDBLK
5
1DC
100
AcDbEntity
8
0
100
AcDbBlockEnd
0
BLOCK
5
1E1
100
AcDbEntity
8
0
100
AcDbBlockBegin
2
*D9
70
1
10
0
20
0
30
0
3
*D9
0
LINE
5
1E3
100
AcDbEntity
8
0
62
256
6
ByLayer
370
-2
48
1
60
0
100
AcDbLine
10
0
20
21.5875
30
0
11
0
21
44.25
31
0
39
0
210
0
220
0
230
1
0
LINE
5
1E4
100
AcDbEntity
8
0
62
256
6
ByLayer
370
-2
48
1
60
0
100
AcDbLine
10
60
20
28.5875
30
0
11
60
21
44.25
31
0
39
0
210
0
220
0
230
1
0
LINE
5
1E5
100
AcDbEntity
8
0
62
256
6
ByLayer
370
-2
48
1
60
0
100
AcDbLine
10
3.5
20
42.25
30
0
11
56.5
21
42.25
31
0
39
0
210
0
220
0
230
1
0
SOLID
5
1E6
100
AcDbEntity
8
0
62
256
6
ByLayer
370
-1
48
1
60
0
100
AcDbTrace
10
3.5
20
42.833333
30
0
11
3.5
21
41.666667
31
0
12
0
22
42.25
32
0
13
0
23
42.25
33
0
39
0
210
0
220
0
230
1
0
SOLID
5
1E7
100
AcDbEntity
8
0
62
256
6
ByLayer
370
-1
48
1
60
0
100
AcDbTrace
10
56.5
20
41.666667
30
0
11
56.5
21
42.833333
31
0
12
60
22
42.25
32
0
13
60
23
42.25
33
0
39
0
210
0
220
0
230
1
0
MTEXT
5
1E8
100
AcDbEntity
8
0
62
256
6
ByLayer
370
18
48
1
60
0
100
AcDbMText
10
30
20
49.25
30
0
210
0
220
0
230
1
1
\A1;60
40
3.5
41
0
44
1
50
0
71
5
72
5
7
iso_b_vert
0
POINT
5
1E9
100
AcDbEntity
8
Defpoints
62
0
6
ByLayer
370
-1
48
1
60
0
100
AcDbPoint
10
0
20
20
30
0
39
0
210
0
220
0
230
1
50
360
0
POINT
5
1EA
100
AcDbEntity
8
Defpoints
62
0
6
ByLayer
370
-1
48
1
60
0
100
AcDbPoint
10
60
20
27
30
0
39
0
210
0
220
0
230
1
50
360
0
POINT
5
1EB
100
AcDbEntity
8
Defpoints
62
0
6
ByLayer
370
-1
48
1
60
0
100
AcDbPoint
10
60
20
42.25
30
0
39
0
210
0
220
0
230
1
50
360
0
ENDBLK
5
1E2
100
AcDbEntity
8
0
100
AcDbBlockEnd
0
BLOCK
5
1F3
100
AcDbEntity
8
0
100
AcDbBlockBegin
2
_U4
70
0
10
0
20
0
30
0
3
_U4
0
MTEXT
5
1ED
100
AcDbEntity
8
2
62
256
6
ByLayer
370
18
48
1
60
0
100
AcDbMText
10
28.095034
20
43.282634
30
0
210
0
220
0
230
1
1
\W0.6740;60
40
3.5
41
0
44
1.084337
50
0
71
7
72
5
7
iso_b_vert
0
LINE
5
1EE
100
AcDbEntity
8
2
62
256
6
ByLayer
370
13
48
1
60
0
100
AcDbLine
10
0
20
21.5875
30
0
11
0
21
44.25
31
0
39
0
210
0
220
0
230
1
0
LINE
5
1EF
100
AcDbEntity
8
2
62
256
6
ByLayer
370
13
48
1
60
0
100
AcDbLine
10
60
20
28.5875
30
0
11
60
21
44.25
31
0
39
0
210
0
220
0
230
1
0
LINE
5
1F0
100
AcDbEntity
8
2
62
256
6
ByLayer
370
13
48
1
60
0
100
AcDbLine
10
0
20
42.25
30
0
11
60
21
42.25
31
0
39
0
210
0
220
0
230
1
0
SOLID
5
1F1
100
AcDbEntity
8
2
62
256
6
ByLayer
370
18
48
1
60
0
100
AcDbTrace
10
0
20
42.25
30
0
11
3.499998
21
42.710784
31
0
12
3.500002
22
41.789216
32
0
13
3.500002
23
41.789216
33
0
39
0
210
0
220
0
230
1
0
SOLID
5
1F2
100
AcDbEntity
8
2
62
256
6
ByLayer
370
18
48
1
60
0
100
AcDbTrace
10
60
20
42.25
30
0
11
56.500002
21
41.789216
31
0
12
56.499998
22
42.710784
32
0
13
56.499998
23
42.710784
33
0
39
0
210
0
220
0
230
1
0
ENDBLK
5
1F4
100
AcDbEntity
8
0
100
AcDbBlockEnd
0
ENDSEC
0
SECTION
2
ENTITIES
0
ARC
5
E2
100
AcDbEntity
8
1
62
256
6
ByLayer
370
18
48
1
60
0
100
AcDbCircle
39
0
10
45
20
22.726791
30
0
40
1.6
210
0
220
0
230
1
100
AcDbArc
50
161.064133
51
180
0
ARC
5
E3
100
AcDbEntity
8
1
62
256
6
ByLayer
370
18
48
1
60
0
100
AcDbCircle
39
0
10
20.279208
20
21.2
30
0
40
1.2
210
0
220
0
230
1
100
AcDbArc
50
270
51
299.539652
0
ARC
5
E4
100
AcDbEntity
8
1
62
256
6
ByLayer
370
18
48
1
60
0
100
AcDbCircle
39
0
10
-0.6
20
15
30
0
40
0.999999999999994
210
0
220
0
230
1
100
AcDbArc
50
293.578178
51
306.870857
0
ARC
5
E5
100
AcDbEntity
8
1
62
256
6
ByLayer
370
18
48
1
60
0
100
AcDbCircle
39
0
10
-0.6
20
-15
30
0
40
0.999999999999994
210
0
220
0
230
1
100
AcDbArc
50
53.129143
51
66.421822
0
ARC
5
E7
100
AcDbEntity
8
1
62
256
6
ByLayer
370
18
48
1
60
0
100
AcDbCircle
39
0
10
26.8
20
21.15
30
0
40
1
210
0
220
0
230
1
100
AcDbArc
50
270
51
0
0
ARC
5
E8
100
AcDbEntity
8
1
62
256
6
ByLayer
370
18
48
1
60
0
100
AcDbCircle
39
0
10
37.85
20
17.695518
30
0
40
1.416
210
0
220
0
230
1
100
AcDbArc
50
209.809289
51
263.807562
0
ARC
5
E9
100
AcDbEntity
8
1
62
256
6
ByLayer
370
18
48
1
60
0
100
AcDbCircle
39
0
10
37.85
20
17.695518
30
0
40
1.416
210
0
220
0
230
1
100
AcDbArc
50
29.809289
51
83.807562
0
ARC
5
EA
100
AcDbEntity
8
1
62
256
6
ByLayer
370
18
48
1
60
0
100
AcDbCircle
39
0
10
37.85
20
17.695518
30
0
40
1.416
210
0
220
0
230
1
100
AcDbArc
50
96.192438
51
150.190711
0
ARC
5
EB
100
AcDbEntity
8
1
62
256
6
ByLayer
370
18
48
1
60
0
100
AcDbCircle
39
0
10
37.85
20
17.695518
30
0
40
1.416
210
0
220
0
230
1
100
AcDbArc
50
276.192438
51
330.190711
0
ARC
5
EC
100
AcDbEntity
8
1
62
256
6
ByLayer
370
18
48
1
60
0
100
AcDbCircle
39
0
10
37.85
20
17.695518
30
0
40
1.416
210
0
220
0
230
1
100
AcDbArc
50
330.190711
51
29.809289
0
ARC
5
ED
100
AcDbEntity
8
1
62
256
6
ByLayer
370
18
48
1
60
0
100
AcDbCircle
39
0
10
37.85
20
17.695518
30
0
40
1.416
210
0
220
0
230
1
100
AcDbArc
50
150.190711
51
209.809289
0
ARC
5
F0
100
AcDbEntity
8
1
62
256
6
ByLayer
370
18
48
1
60
0
100
AcDbCircle
39
0
10
37.85
20
17.695518
30
0
40
1.9685
210
0
220
0
230
1
100
AcDbArc
50
300.381422
51
0
0
ARC
5
F1
100
AcDbEntity
8
1
62
256
6
ByLayer
370
18
48
1
60
0
100
AcDbCircle
39
0
10
37.85
20
17.695518
30
0
40
1.9685
210
0
220
0
230
1
100
AcDbArc
50
180
51
239.618578
0
ARC
5
F2
100
AcDbEntity
8
1
62
256
6
ByLayer
370
18
48
1
60
0
100
AcDbCircle
39
0
10
37.85
20
17.695518
30
0
40
1.9685
210
0
220
0
230
1
100
AcDbArc
50
120.381422
51
180
0
ARC
5
F3
100
AcDbEntity
8
1
62
256
6
ByLayer
370
18
48
1
60
0
100
AcDbCircle
39
0
10
37.85
20
17.695518
30
0
40
1.416
210
0
220
0
230
1
100
AcDbArc
50
83.807562
51
96.192438
0
ARC
5
F4
100
AcDbEntity
8
1
62
256
6
ByLayer
370
18
48
1
60
0
100
AcDbCircle
39
0
10
37.85
20
17.695518
30
0
40
1.9685
210
0
220
0
230
1
100
AcDbArc
50
59.618578
51
120.381422
0
ARC
5
F5
100
AcDbEntity
8
1
62
256
6
ByLayer
370
18
48
1
60
0
100
AcDbCircle
39
0
10
37.85
20
17.695518
30
0
40
1.9685
210
0
220
0
230
1
100
AcDbArc
50
0
51
59.618578
0
ARC
5
F6
100
AcDbEntity
8
1
62
256
6
ByLayer
370
18
48
1
60
0
100
AcDbCircle
39
0
10
37.85
20
17.695518
30
0
40
1.9685
210
0
220
0
230
1
100
AcDbArc
50
239.618578
51
300.381422
0
ARC
5
F7
100
AcDbEntity
8
1
62
256
6
ByLayer
370
18
48
1
60
0
100
AcDbCircle
39
0
10
37.85
20
17.695518
30
0
40
1.416
210
0
220
0
230
1
100
AcDbArc
50
263.807562
51
276.192438
0
CIRCLE
5
E6
100
AcDbEntity
8
1
62
256
6
ByLayer
370
18
48
1
60
0
100
AcDbCircle
10
37.85
20
17.695518
30
0
40
4.55
39
0
210
0
220
0
230
1
0
CIRCLE
5
EE
100
AcDbEntity
8
1
62
256
6
ByLayer
370
18
48
1
60
0
100
AcDbCircle
10
37.85
20
17.695518
30
0
40
4.25
39
0
210
0
220
0
230
1
0
CIRCLE
5
EF
100
AcDbEntity
8
1
62
256
6
ByLayer
370
18
48
1
60
0
100
AcDbCircle
10
37.85
20
17.695518
30
0
40
3.75
39
0
210
0
220
0
230
1
0
ELLIPSE
5
F8
100
AcDbEntity
8
1
62
256
6
ByLayer
370
18
48
1
60
0
100
AcDbEllipse
10
65.357143
20
54.201791
30
0
11
1.68536449445494E-15
21
27.5250000001125
31
0
210
0
220
0
230
1
40
0.714286
41
2.49204864077935
42
2.82306370612126
0
ELLIPSE
5
F9
100
AcDbEntity
8
1
62
256
6
ByLayer
370
18
48
1
60
0
100
AcDbEllipse
10
292.268303
20
54.179041
30
0
11
535.335784748355
21
7.81289370808542
31
0
210
0
220
0
230
1
40
0.049257
41
-2.03299181555982
42
-2.03107688595482
0
ELLIPSE
5
FA
100
AcDbEntity
8
1
62
256
6
ByLayer
370
18
48
1
60
0
100
AcDbEllipse
10
52.404646
20
25.66219
30
0
11
0.0965434677236633
21
-0.593103840344927
31
0
210
0
220
0
230
1
40
0.949739
41
0
42
6.28318530717959
0
ELLIPSE
5
FB
100
AcDbEntity
8
1
62
256
6
ByLayer
370
18
48
1
60
0
100
AcDbEllipse
10
54.445768
20
54.201791
30
0
11
1.68536449424588E-15
21
27.5249999966982
31
0
210
0
220
0
230
1
40
0.850602
41
2.96141123510657
42
3.09138183848054
0
ELLIPSE
5
FC
100
AcDbEntity
8
1
62
256
6
ByLayer
370
18
48
1
60
0
100
AcDbEllipse
10
54.445768
20
48.001791
30
0
11
1.44962777131542E-15
21
23.6749999996436
31
0
210
0
220
0
230
1
40
0.850602
41
2.93170434944695
42
3.0902878326185
0
ELLIPSE
5
FD
100
AcDbEntity
8
1
62
256
6
ByLayer
370
18
48
1
60
0
100
AcDbEllipse
10
-395.563848
20
47.996037
30
0
11
1915.41086838254
21
-6.70369116733041
31
0
210
0
220
0
230
1
40
0.011851
41
-1.33866678650723
42
-1.33423483978021
0
ELLIPSE
5
FE
100
AcDbEntity
8
1
62
256
6
ByLayer
370
18
48
1
60
0
100
AcDbEllipse
10
45.341992
20
24.326791
30
0
11
-2.78728064893888
21
3.41332159257671E-16
31
0
210
0
220
0
230
1
40
0.574036
41
0
42
0.799962675405
0
ELLIPSE
5
FF
100
AcDbEntity
8
1
62
256
6
ByLayer
370
18
48
1
60
0
100
AcDbEllipse
10
57.286218
20
48.001791
30
0
11
33.7710378867926
21
3.95612635000029E-14
31
0
210
0
220
0
230
1
40
0.701044
41
-1.94315052128328
42
-1.78068463093659
0
ELLIPSE
5
100
100
AcDbEntity
8
1
62
256
6
ByLayer
370
18
48
1
60
0
100
AcDbEllipse
10
57.286218
20
54.201791
30
0
11
39.2628434151956
21
4.59946685474945E-14
31
0
210
0
220
0
230
1
40
0.701044
41
-1.87815381665786
42
-1.7509777452641
0
ELLIPSE
5
101
100
AcDbEntity
8
1
62
256
6
ByLayer
370
18
48
1
60
0
100
AcDbEllipse
10
-0.948929
20
0
30
0
11
9.3674178797821
21
19.7417491527499
31
0
210
0
220
0
230
1
40
0.341999
41
-1.0963195274999
42
-0.152726244898346
0
ELLIPSE
5
102
100
AcDbEntity
8
1
62
256
6
ByLayer
370
18
48
1
60
0
100
AcDbEllipse
10
16.948929
20
0
30
0
11
9.36741787978119
21
-19.7417491527495
31
0
210
0
220
0
230
1
40
0.341999
41
-2.98886640869143
42
-2.04527312608987
0
ELLIPSE
5
103
100
AcDbEntity
8
1
62
256
6
ByLayer
370
18
48
1
60
0
100
AcDbEllipse
10
16.948929
20
0
30
0
11
9.36741787978142
21
19.7417491527498
31
0
210
0
220
0
230
1
40
0.341999
41
2.04527312608987
42
2.98886640869144
0
ELLIPSE
5
104
100
AcDbEntity
8
1
62
256
6
ByLayer
370
18
48
1
60
0
100
AcDbEllipse
10
-0.948929
20
0
30
0
11
9.36741787978197
21
-19.7417491527498
31
0
210
0
220
0
230
1
40
0.341999
41
0.15272624489835
42
1.0963195274999
0
ELLIPSE
5
105
100
AcDbEntity
8
1
62
256
6
ByLayer
370
18
48
1
60
0
100
AcDbEllipse
10
20.174537
20
0
30
0
11
1.22460635382205E-15
21
19.9999999999946
31
0
210
0
220
0
230
1
40
0.008727
41
0.796090407340249
42
2.34550224624958
0
ELLIPSE
5
106
100
AcDbEntity
8
1
62
256
6
ByLayer
370
18
48
1
60
0
100
AcDbEllipse
10
56.228061
20
27.412362
30
0
11
0.897388106537471
21
0.0370697017711319
31
0
210
0
220
0
230
1
40
0.889495
41
-1.60752344554577
42
-1.33187968462331
0
ELLIPSE
5
107
100
AcDbEntity
8
1
62
256
6
ByLayer
370
18
48
1
60
0
100
AcDbEllipse
10
54.623179
20
26.47508
30
0
11
0.850691230753269
21
0.00756198883181184
31
0
210
0
220
0
230
1
40
0.176103
41
3.14002723516009
42
-2.80718219103911
0
ELLIPSE
5
108
100
AcDbEntity
8
1
62
256
6
ByLayer
370
18
48
1
60
0
100
AcDbEllipse
10
56.095006
20
25.896962
30
0
11
1.13425497415239
21
0.0100826517678814
31
0
210
0
220
0
230
1
40
0.176103
41
-2.80718219101031
42
-1.98874366951488
0
ELLIPSE
5
109
100
AcDbEntity
8
1
62
256
6
ByLayer
370
18
48
1
60
0
100
AcDbEllipse
10
60.223799
20
27.576765
30
0
11
11.3425495239673
21
0.100826491383544
31
0
210
0
220
0
230
1
40
0.176103
41
-1.98874366368432
42
-1.92142758866502
0
ELLIPSE
5
10A
100
AcDbEntity
8
1
62
256
6
ByLayer
370
18
48
1
60
0
100
AcDbEllipse
10
55.990371
20
25.462643
30
0
11
1.19096772285746
21
0.0105867843559426
31
0
210
0
220
0
230
1
40
0.176103
41
-0.00156541842913047
42
1.22016505796658
0
ELLIPSE
5
10B
100
AcDbEntity
8
1
62
256
6
ByLayer
370
18
48
1
60
0
100
AcDbEllipse
10
55.990371
20
25.462643
30
0
11
1.19096772286145
21
0.010586784355447
31
0
210
0
220
0
230
1
40
0.176103
41
-1.22329589482253
42
-0.00156541842927769
0
ELLIPSE
5
10C
100
AcDbEntity
8
1
62
256
6
ByLayer
370
18
48
1
60
0
100
AcDbEllipse
10
60.223799
20
23.42145
30
0
11
11.3425502771943
21
0.100826463536795
31
0
210
0
220
0
230
1
40
0.176103
41
1.91829677529493
42
1.98561284639163
0
ELLIPSE
5
10D
100
AcDbEntity
8
1
62
256
6
ByLayer
370
18
48
1
60
0
100
AcDbEllipse
10
56.095006
20
25.030126
30
0
11
1.13425497414725
21
0.0100826517677737
31
0
210
0
220
0
230
1
40
0.176103
41
1.98561283265367
42
2.80405135415159
0
ELLIPSE
5
10E
100
AcDbEntity
8
1
62
256
6
ByLayer
370
18
48
1
60
0
100
AcDbEllipse
10
54.623179
20
24.426653
30
0
11
0.850691230477748
21
0.00756198882869148
31
0
210
0
220
0
230
1
40
0.176103
41
2.80405135412393
42
3.14002723515975
0
ELLIPSE
5
10F
100
AcDbEntity
8
1
62
256
6
ByLayer
370
18
48
1
60
0
100
AcDbEllipse
10
56.228061
20
23.517018
30
0
11
0.897388106543548
21
0.0370697019930882
31
0
210
0
220
0
230
1
40
0.889495
41
1.25842544684816
42
1.53406920776674
0
ELLIPSE
5
110
100
AcDbEntity
8
1
62
256
6
ByLayer
370
18
48
1
60
0
100
AcDbEllipse
10
55.571498
20
26.208139
30
0
11
-0.0338464717181127
21
-0.122171428661705
31
0
210
0
220
0
230
1
40
0.983632
41
0
42
6.28318530717959
0
POINT
5
70
100
AcDbEntity
8
1
62
256
6
ByLayer
370
18
48
1
60
0
100
AcDbPoint
10
0
20
0
30
0
39
0
210
0
220
0
230
1
50
360
0
POINT
5
72
100
AcDbEntity
8
80
62
256
6
ByLayer
370
18
48
1
60
0
100
AcDbPoint
10
0
20
0
30
0
39
0
210
0
220
0
230
1
50
360
0
POINT
5
74
100
AcDbEntity
8
81
62
256
6
ByLayer
370
18
48
1
60
0
100
AcDbPoint
10
60
20
27
30
0
39
0
210
0
220
0
230
1
50
360
0
POINT
5
76
100
AcDbEntity
8
81
62
256
6
ByLayer
370
18
48
1
60
0
100
AcDbPoint
10
60
20
27
30
0
39
0
210
0
220
0
230
1
50
360
0
POINT
5
77
100
AcDbEntity
8
1
62
256
6
ByLayer
370
18
48
1
60
1
100
AcDbPoint
10
0
20
0
30
0
39
0
210
0
220
0
230
1
50
360
0
POINT
5
78
100
AcDbEntity
8
1
62
256
6
ByLayer
370
18
48
1
60
1
100
AcDbPoint
10
60
20
24.001791
30
0
39
0
210
0
220
0
230
1
50
360
0
POINT
5
79
100
AcDbEntity
8
1
62
256
6
ByLayer
370
18
48
1
60
1
100
AcDbPoint
10
0
20
20
30
0
39
0
210
0
220
0
230
1
50
360
0
POINT
5
7A
100
AcDbEntity
8
1
62
256
6
ByLayer
370
18
48
1
60
1
100
AcDbPoint
10
0
20
-20
30
0
39
0
210
0
220
0
230
1
50
360
0
POINT
5
7B
100
AcDbEntity
8
1
62
256
6
ByLayer
370
18
48
1
60
1
100
AcDbPoint
10
45
20
25.501791
30
0
39
0
210
0
220
0
230
1
50
360
0
POINT
5
7C
100
AcDbEntity
8
1
62
256
6
ByLayer
370
18
48
1
60
1
100
AcDbPoint
10
60
20
25.501791
30
0
39
0
210
0
220
0
230
1
50
360
0
POINT
5
7D
100
AcDbEntity
8
1
62
256
6
ByLayer
370
18
48
1
60
1
100
AcDbPoint
10
0
20
20
30
0
39
0
210
0
220
0
230
1
50
360
0
SPLINE
5
111
100
AcDbEntity
8
1
62
256
6
ByLayer
370
18
48
1
60
0
100
AcDbSpline
70
4
71
2
72
6
73
3
40
0
40
0
40
0
40
1
40
1
40
1
41
1
10
-0.394913799811292
20
13.740447551665
30
0
41
1
10
-0.944976888873896
20
13.7267321696587
30
0
41
1
10
-1.49503997793928
20
13.7130167789402
30
0
0
SPLINE
5
112
100
AcDbEntity
8
1
62
256
6
ByLayer
370
18
48
1
60
0
100
AcDbSpline
70
4
71
2
72
6
73
3
40
0
40
0
40
0
40
1
40
1
40
1
41
1
10
-1.49503997793928
20
-13.7130170190491
30
0
41
1
10
-0.944976888873896
20
-13.7267324097107
30
0
41
1
10
-0.394913799811292
20
-13.7404477916605
30
0
0
SPLINE
5
113
100
AcDbEntity
8
1
62
256
6
ByLayer
370
18
48
1
60
0
100
AcDbSpline
70
4
71
2
72
6
73
3
40
0
40
0
40
0
40
1
40
1
40
1
41
1
10
-22.5
20
13.4973518251592
30
0
41
1
10
-23.249999936895
20
13.0645339427607
30
0
41
1
10
-24
20
12.6317156240216
30
0
0
SPLINE
5
114
100
AcDbEntity
8
1
62
256
6
ByLayer
370
18
48
1
60
0
100
AcDbSpline
70
4
71
2
72
6
73
3
40
0
40
0
40
0
40
1
40
1
40
1
41
1
10
-24
20
-12.6317156907499
30
0
41
1
10
-23.2499999368976
20
-13.0645340070691
30
0
41
1
10
-22.5
20
-13.4973518870616
30
0
0
SPLINE
5
115
100
AcDbEntity
8
1
62
256
6
ByLayer
370
18
48
1
60
0
100
AcDbSpline
70
4
71
3
72
13
73
9
40
0
40
0
40
0
40
0
40
0.239406584356306
40
0.368294064402718
40
0.499927815195488
40
0.631573554280459
40
0.76049410373315
40
1
40
1
40
1
40
1
41
1
10
-1.7
20
-14.020094440518
30
0
41
1
10
-1.69909121849834
20
-13.9940472396764
30
0
41
1
10
-1.69103207617424
20
-13.956689925787
30
0
41
1
10
-1.6656349077834
20
-13.9104917120148
30
0
41
1
10
-1.63886244003065
20
-13.8792240145368
30
0
41
1
10
-1.60627567892244
20
-13.8540680395026
30
0
41
1
10
-1.55883864918063
20
-13.8310346548635
30
0
41
1
10
-1.52110926509484
20
-13.8248650525742
30
0
41
1
10
-1.49503997793928
20
-13.8252671707288
30
0
0
SPLINE
5
116
100
AcDbEntity
8
1
62
256
6
ByLayer
370
18
48
1
60
0
100
AcDbSpline
70
4
71
3
72
13
73
9
40
0
40
0
40
0
40
0
40
0.239505895683994
40
0.368426444928811
40
0.500072183930363
40
0.631705934787577
40
0.760593415031946
40
1
40
1
40
1
40
1
41
1
10
-1.49503997793928
20
13.825267079015
30
0
41
1
10
-1.52110926510646
20
13.8248649608707
30
0
41
1
10
-1.55883864920249
20
13.8310345631992
30
0
41
1
10
-1.60627567894029
20
13.8540679479737
30
0
41
1
10
-1.63886244004753
20
13.8792239231524
30
0
41
1
10
-1.6656349077962
20
13.9104916208042
30
0
41
1
10
-1.69103207618372
20
13.9566898348375
30
0
41
1
10
-1.69909121850789
20
13.9940471489176
30
0
41
1
10
-1.7
20
14.0200943498873
30
0
0
SPLINE
5
117
100
AcDbEntity
8
1
62
256
6
ByLayer
370
18
48
1
60
0
100
AcDbSpline
70
4
71
2
72
6
73
3
40
0
40
0
40
0
40
1
40
1
40
1
41
1
10
-1.7
20
14.0158106259661
30
0
41
1
10
-12.0999999986039
20
13.7547061446862
30
0
41
1
10
-22.5
20
13.4936007996938
30
0
0
SPLINE
5
118
100
AcDbEntity
8
1
62
256
6
ByLayer
370
18
48
1
60
0
100
AcDbSpline
70
4
71
2
72
6
73
3
40
0
40
0
40
0
40
1
40
1
40
1
41
1
10
-22.5
20
-13.4936010331935
30
0
41
1
10
-12.0999999986036
20
-13.7547063780669
30
0
41
1
10
-1.7
20
-14.0158108591592
30
0
0
SPLINE
5
119
100
AcDbEntity
8
1
62
256
6
ByLayer
370
18
48
1
60
0
100
AcDbSpline
70
4
71
3
72
8
73
4
40
0
40
0
40
0
40
0
40
1
40
1
40
1
40
1
41
1
10
23.1365697795477
20
26.9505721620482
30
0
41
1
10
22.6238430784379
20
25.0173966098492
30
0
41
1
10
22.1120813817879
20
23.0839499362498
30
0
41
1
10
21.6023550340779
20
21.15
30
0
0
SPLINE
5
11A
100
AcDbEntity
8
1
62
256
6
ByLayer
370
18
48
1
60
0
100
AcDbSpline
70
4
71
3
72
15
73
11
40
0
40
0
40
0
40
0
40
0.250000000000004
40
0.500000000000008
40
0.500000000000008
40
0.625000000000011
40
0.625000000000011
40
0.750000000000013
40
0.750000000000013
40
1
40
1
40
1
40
1
41
1
10
21.6023550340779
20
21.15
30
0
41
1
10
21.5884567235663
20
21.0972684964225
30
0
41
1
10
21.5606478068549
20
20.9932660118806
30
0
41
1
10
21.5328064524426
20
20.8920578835652
30
0
41
1
10
21.5119147367428
20
20.817229363475
30
0
41
1
10
21.504933740618
20
20.7924141057769
30
0
41
1
10
21.4911790574939
20
20.7438948693164
30
0
41
1
10
21.4843810934636
20
20.7201030664495
30
0
41
1
10
21.4642253178857
20
20.6501181352929
30
0
41
1
10
21.4511038268155
20
20.6053064857938
30
0
41
1
10
21.4383186059721
20
20.562410053367
30
0
0
SPLINE
5
11B
100
AcDbEntity
8
1
62
256
6
ByLayer
370
18
48
1
60
0
100
AcDbSpline
70
4
71
3
72
37
73
33
40
0
40
0
40
0
40
0
40
0.0312499999999997
40
0.0312499999999997
40
0.0624999999999994
40
0.124999999999993
40
0.124999999999993
40
0.24999999999998
40
0.24999999999998
40
0.281249999999978
40
0.281249999999978
40
0.312499999999977
40
0.312499999999977
40
0.374999999999974
40
0.374999999999974
40
0.499999999999974
40
0.499999999999974
40
0.531249999999972
40
0.531249999999972
40
0.562499999999971
40
0.624999999999969
40
0.687499999999966
40
0.687499999999966
40
0.718749999999969
40
0.718749999999969
40
0.749999999999972
40
0.749999999999972
40
0.874999999999984
40
0.874999999999984
40
0.937499999999992
40
0.937499999999992
40
1
40
1
40
1
40
1
41
1
10
26.0989545864874
20
20.15
30
0
41
1
10
26.1171142679564
20
20.15
30
0
41
1
10
26.1352923050888
20
20.1503027079118
30
0
41
1
10
26.1714801216303
20
20.1515201467564
30
0
41
1
10
26.2256015924087
20
20.1542646499387
30
0
41
1
10
26.2792367279211
20
20.1597961252024
30
0
41
1
10
26.3858341337385
20
20.174714968318
30
0
41
1
10
26.4560073603409
20
20.1897708624199
30
0
41
1
10
26.5424617140507
20
20.2158237221711
30
0
41
1
10
26.5596890468725
20
20.2213984018104
30
0
41
1
10
26.5940109619951
20
20.233308495548
30
0
41
1
10
26.611140792333
20
20.2396591866484
30
0
41
1
10
26.6618617831318
20
20.2597205797326
30
0
41
1
10
26.6948949794483
20
20.2744698581276
30
0
41
1
10
26.7915912391757
20
20.3229500541221
30
0
41
1
10
26.8528764807424
20
20.3608684129984
30
0
41
1
10
26.9249965092068
20
20.416167312505
30
0
41
1
10
26.9392360338027
20
20.4276628858186
30
0
41
1
10
26.9669659164005
20
20.4512509297292
30
0
41
1
10
27.0074697266485
20
20.4875429088327
30
0
41
1
10
27.0695397982676
20
20.5525634363248
30
0
41
1
10
27.1132824422722
20
20.6095116875764
30
0
41
1
10
27.1437587292011
20
20.6541666933211
30
0
41
1
10
27.1535281704753
20
20.6693763917826
30
0
41
1
10
27.1722583304449
20
20.7004702691584
30
0
41
1
10
27.1812466948014
20
20.7164080454313
30
0
41
1
10
27.2237277387864
20
20.7972042690777
30
0
41
1
10
27.249535249368
20
20.8644718441564
30
0
41
1
10
27.2759079346904
20
20.9693424539544
30
0
41
1
10
27.2826253169165
20
21.0049663605144
30
0
41
1
10
27.2916633802612
20
21.0776285659466
30
0
41
1
10
27.2938833258952
20
21.1138806403998
30
0
41
1
10
27.2938833258952
20
21.15
30
0
0
SPLINE
5
11C
100
AcDbEntity
8
1
62
256
6
ByLayer
370
18
48
1
60
0
100
AcDbSpline
70
4
71
3
72
27
73
23
40
0
40
0
40
0
40
0
40
0.125
40
0.125
40
0.250000000000001
40
0.250000000000001
40
0.375000000000001
40
0.375000000000001
40
0.500000000000001
40
0.500000000000001
40
0.625000000000001
40
0.625000000000001
40
0.656250000000001
40
0.656250000000001
40
0.671875000000001
40
0.671875000000001
40
0.687500000000001
40
0.750000000000001
40
0.750000000000001
40
0.875
40
0.875
40
1
40
1
40
1
40
1
41
1
10
25.5734196479449
20
32.2819907939878
30
0
41
1
10
25.4327854206195
20
31.9302744120531
30
0
41
1
10
25.2955435774824
20
31.5946722856185
30
0
41
1
10
25.0284890616
20
30.9550200802801
30
0
41
1
10
24.8986754951987
20
30.6509706289934
30
0
41
1
10
24.647367514713
20
30.0741554049058
30
0
41
1
10
24.5258719928853
20
29.8013893530926
30
0
41
1
10
24.2923672155818
20
29.2872723925229
30
0
41
1
10
24.1803567494747
20
29.0459202543331
30
0
41
1
10
23.9673015902397
20
28.5951847520461
30
0
41
1
10
23.8662557504385
20
28.385799031517
30
0
41
1
10
23.7479445429934
20
28.1446903329569
30
0
41
1
10
23.7246830026985
20
28.0975010391637
30
0
41
1
10
23.6904159262168
20
28.0282818539296
30
0
41
1
10
23.679097522431
20
28.0054691388979
30
0
41
1
10
23.6567188743134
20
27.9604595909878
30
0
41
1
10
23.6013881611113
20
27.8494159441765
30
0
41
1
10
23.5491636227089
20
27.7457456972112
30
0
41
1
10
23.4300059533206
20
27.5109393577916
30
0
41
1
10
23.3588080352598
20
27.3730561899718
30
0
41
1
10
23.2341087493777
20
27.134154712379
30
0
41
1
10
23.1806105606047
20
27.0331369226906
30
0
41
1
10
23.1365697795477
20
26.9505721620482
30
0
0
SPLINE
5
11D
100
AcDbEntity
8
1
62
256
6
ByLayer
370
18
48
1
60
0
100
AcDbSpline
70
4
71
3
72
28
73
24
40
0
40
0
40
0
40
0
40
0.125000000000001
40
0.125000000000001
40
0.250000000000003
40
0.250000000000003
40
0.312500000000003
40
0.312500000000003
40
0.375000000000004
40
0.375000000000004
40
0.500000000000005
40
0.500000000000005
40
0.562500000000005
40
0.562500000000005
40
0.625000000000004
40
0.625000000000004
40
0.750000000000003
40
0.750000000000003
40
0.875000000000002
40
0.875000000000002
40
0.937500000000001
40
0.937500000000001
40
1
40
1
40
1
40
1
41
1
10
23.6000000000001
20
26.9505721620482
30
0
41
1
10
23.7900633506553
20
26.9505721620482
30
0
41
1
10
23.9779099703734
20
26.9487387828392
30
0
41
1
10
24.3493547847768
20
26.9416620620891
30
0
41
1
10
24.5329524148689
20
26.9364180064687
30
0
41
1
10
24.8051271337678
20
26.9261956469561
30
0
41
1
10
24.895331228854
20
26.9223948112424
30
0
41
1
10
25.0745620379877
20
26.9140481620217
30
0
41
1
10
25.1625884571629
20
26.909549412636
30
0
41
1
10
25.4220390113704
20
26.8952041253443
30
0
41
1
10
25.588854641462
20
26.8845085306998
30
0
41
1
10
25.8300115419512
20
26.8672610380619
30
0
41
1
10
25.9088809489184
20
26.8613110984373
30
0
41
1
10
26.063552027811
20
26.8490933776513
30
0
41
1
10
26.139386127568
20
26.8428227477779
30
0
41
1
10
26.3619715612069
20
26.8236815244357
30
0
41
1
10
26.5007189384126
20
26.8107542936645
30
0
41
1
10
26.7597289997921
20
26.7853384283547
30
0
41
1
10
26.8799893397131
20
26.7728474142777
30
0
41
1
10
27.0463337145171
20
26.7550079653963
30
0
41
1
10
27.0994330127237
20
26.7492111353204
30
0
41
1
10
27.2008033229511
20
26.7380170305748
30
0
41
1
10
27.2487265986999
20
26.732658385028
30
0
41
1
10
27.2938833258952
20
26.7275816917483
30
0
0
SPLINE
5
11E
100
AcDbEntity
8
1
62
256
6
ByLayer
370
18
48
1
60
0
100
AcDbSpline
70
4
71
3
72
33
73
29
40
0
40
0
40
0
40
0
40
0.125000000000002
40
0.125000000000002
40
0.187500000000002
40
0.187500000000002
40
0.250000000000003
40
0.312500000000003
40
0.312500000000003
40
0.343750000000005
40
0.343750000000005
40
0.375000000000006
40
0.375000000000006
40
0.50000000000001
40
0.50000000000001
40
0.562500000000014
40
0.562500000000014
40
0.593750000000013
40
0.593750000000013
40
0.625000000000013
40
0.625000000000013
40
0.750000000000008
40
0.750000000000008
40
0.812500000000006
40
0.812500000000006
40
0.875000000000004
40
0.875000000000004
40
1
40
1
40
1
40
1
41
1
10
27.679508095348
20
21.15
30
0
41
1
10
27.679508095348
20
21.08324498437
30
0
41
1
10
27.672695702231
20
21.0171038229033
30
0
41
1
10
27.6522045776588
20
20.9188177228682
30
0
41
1
10
27.6435874669992
20
20.8860631987436
30
0
41
1
10
27.6232315393432
20
20.8222623824411
30
0
41
1
10
27.5997284741084
20
20.759891017687
30
0
41
1
10
27.5700863540482
20
20.7003080538865
30
0
41
1
10
27.5455414684454
20
20.6566715457997
30
0
41
1
10
27.5369735862129
20
20.6423014821922
30
0
41
1
10
27.5190547546648
20
20.6139170294358
30
0
41
1
10
27.5096770504419
20
20.5998668870619
30
0
41
1
10
27.4612756184153
20
20.5311924922416
30
0
41
1
10
27.4176052268171
20
20.4809372124573
30
0
41
1
10
27.3449964679151
20
20.4122771213373
30
0
41
1
10
27.3196008494093
20
20.3905192594986
30
0
41
1
10
27.2796805955933
20
20.359611474463
30
0
41
1
10
27.2661043677973
20
20.3496277258156
30
0
41
1
10
27.2386263282771
20
20.3304363555845
30
0
41
1
10
27.2246948012981
20
20.3212054369807
30
0
41
1
10
27.1540938550871
20
20.2768382490264
30
0
41
1
10
27.0946197222906
20
20.2470164067865
30
0
41
1
10
27.0009712023644
20
20.2106915671064
30
0
41
1
10
26.9688889351105
20
20.1999731393942
30
0
41
1
10
26.9044724919166
20
20.1817669563779
30
0
41
1
10
26.8720115050838
20
20.1742180507045
30
0
41
1
10
26.7738931736917
20
20.1560929326399
30
0
41
1
10
26.7074974156574
20
20.15
30
0
41
1
10
26.6401293229087
20
20.15
30
0
0
SPLINE
5
11F
100
AcDbEntity
8
1
62
256
6
ByLayer
370
18
48
1
60
0
100
AcDbSpline
70
4
71
3
72
10
73
6
40
0
40
0
40
0
40
0
40
0.5
40
0.5
40
1
40
1
40
1
40
1
41
1
10
53.5894774401265
20
25.1986730354131
30
0
41
1
10
53.560564448365
20
25.058304769586
30
0
41
1
10
53.5314971813463
20
24.9180137050582
30
0
41
1
10
53.4728109070076
20
24.6377076738604
30
0
41
1
10
53.4432040796359
20
24.4976866121897
30
0
41
1
10
53.4130439183014
20
24.3579424458653
30
0
0
SPLINE
5
120
100
AcDbEntity
8
1
62
256
6
ByLayer
370
18
48
1
60
0
100
AcDbSpline
70
4
71
3
72
8
73
4
40
0
40
0
40
0
40
0
40
1
40
1
40
1
40
1
41
1
10
53.692363436338
20
25.2667640394593
30
0
41
1
10
53.65810352635
20
25.243939393703
30
0
41
1
10
53.6238142234153
20
25.2212206662044
30
0
41
1
10
53.5894774401265
20
25.1986730354131
30
0
0
SPLINE
5
121
100
AcDbEntity
8
1
62
256
6
ByLayer
370
18
48
1
60
0
100
AcDbSpline
70
4
71
3
72
18
73
14
40
0
40
0
40
0
40
0
40
0.25
40
0.25
40
0.500000000000001
40
0.500000000000001
40
0.625000000000001
40
0.625000000000001
40
0.75
40
0.75
40
0.875
40
0.875
40
1
40
1
40
1
40
1
41
1
10
53.7514608730977
20
25.4094083102952
30
0
41
1
10
53.7519115881654
20
25.394346699454
30
0
41
1
10
53.7508513921882
20
25.3794332667738
30
0
41
1
10
53.7457028420426
20
25.3502221902267
30
0
41
1
10
53.7417405880256
20
25.3365798835683
30
0
41
1
10
53.7337617741528
20
25.3175289761827
30
0
41
1
10
53.7307974249649
20
25.3115236237523
30
0
41
1
10
53.7243659437427
20
25.3003296832162
30
0
41
1
10
53.7208872158911
20
25.2951135739646
30
0
41
1
10
53.7134023201788
20
25.285445199888
30
0
41
1
10
53.709401404835
20
25.281013704225
30
0
41
1
10
53.7011285205788
20
25.2731800934061
30
0
41
1
10
53.6968272721167
20
25.2697379372424
30
0
41
1
10
53.692363436338
20
25.2667640394593
30
0
0
SPLINE
5
122
100
AcDbEntity
8
1
62
256
6
ByLayer
370
18
48
1
60
0
100
AcDbSpline
70
4
71
2
72
6
73
3
40
0
40
0
40
0
40
1
40
1
40
1
41
0.500000253808211
10
53.7485376385186
20
25.5069948570839
30
0
41
0.499999746191789
10
53.7500001743483
20
25.4582206924254
30
0
41
0.500000253808211
10
53.7514608730976
20
25.4094083102952
30
0
0
SPLINE
5
123
100
AcDbEntity
8
1
62
256
6
ByLayer
370
18
48
1
60
0
100
AcDbSpline
70
4
71
3
72
18
73
14
40
0
40
0
40
0
40
0
40
0.12499999999999
40
0.12499999999999
40
0.249999999999979
40
0.249999999999979
40
0.499999999999987
40
0.499999999999987
40
0.749999999999993
40
0.749999999999993
40
0.874999999999997
40
0.874999999999997
40
1
40
1
40
1
40
1
41
1
10
53.6809038918297
20
25.6423523047797
30
0
41
1
10
53.6855367732889
20
25.6399089851328
30
0
41
1
10
53.6900368609665
20
25.6369821665444
30
0
41
1
10
53.6987672457618
20
25.6301462284764
30
0
41
1
10
53.7030305086032
20
25.626198772188
30
0
41
1
10
53.7151007180621
20
25.6130875233972
30
0
41
1
10
53.7221957636522
20
25.6027460561981
30
0
41
1
10
53.7343785755211
20
25.5786873564329
30
0
41
1
10
53.7391839600652
20
25.565501429098
30
0
41
1
10
53.7443585380491
20
25.5441937001795
30
0
41
1
10
53.7457389359085
20
25.5368001899735
30
0
41
1
10
53.7477059832108
20
25.5220033555556
30
0
41
1
10
53.7483115563736
20
25.5145344793925
30
0
41
1
10
53.7485376385186
20
25.5069948570839
30
0
0
SPLINE
5
124
100
AcDbEntity
8
1
62
256
6
ByLayer
370
18
48
1
60
0
100
AcDbSpline
70
4
71
3
72
8
73
4
40
0
40
0
40
0
40
0
40
1
40
1
40
1
40
1
41
1
10
53.5736322631645
20
25.698359610068
30
0
41
1
10
53.6094329169492
20
25.6798883336165
30
0
41
1
10
53.6451838352478
20
25.6611905843263
30
0
41
1
10
53.6809038918297
20
25.6423523047797
30
0
0
SPLINE
5
125
100
AcDbEntity
8
1
62
256
6
ByLayer
370
18
48
1
60
0
100
AcDbSpline
70
4
71
3
72
14
73
10
40
0
40
0
40
0
40
0
40
0.25
40
0.25
40
0.5
40
0.5
40
0.75
40
0.75
40
1
40
1
40
1
40
1
41
1
10
53.2706843938166
20
26.711480500913
30
0
41
1
10
53.2988099296255
20
26.6291666413372
30
0
41
1
10
53.3255718218188
20
26.5458491543362
30
0
41
1
10
53.3777242465949
20
26.3782048740178
30
0
41
1
10
53.4030865897502
20
26.2938573335767
30
0
41
1
10
53.4529682890661
20
26.1245418230919
30
0
41
1
10
53.4774809140994
20
26.0395630283551
30
0
41
1
10
53.52594159284
20
25.8692195509898
30
0
41
1
10
53.5498857746891
20
25.7838558794295
30
0
41
1
10
53.5736322631649
20
25.6983596100682
30
0
0
SPLINE
5
126
100
AcDbEntity
8
1
62
256
6
ByLayer
370
18
48
1
60
0
100
AcDbSpline
70
4
71
3
72
69
73
65
40
0
40
0
40
0
40
0
40
0.0625116405697696
40
0.0625116405697696
40
0.0937674608546536
40
0.0937674608546536
40
0.109395370997096
40
0.109395370997096
40
0.125023281139539
40
0.125023281139539
40
0.187534921709314
40
0.187534921709314
40
0.218790741994202
40
0.218790741994202
40
0.234418652136645
40
0.234418652136645
40
0.250046562279089
40
0.250046562279089
40
0.312558202848863
40
0.312558202848863
40
0.34381402313375
40
0.34381402313375
40
0.359441933276193
40
0.359441933276193
40
0.375069843418636
40
0.375069843418636
40
0.437581483988409
40
0.437581483988409
40
0.468837304273296
40
0.468837304273296
40
0.484465214415739
40
0.484465214415739
40
0.500093124558182
40
0.500093124558182
40
0.562604765127953
40
0.562604765127953
40
0.593860585412838
40
0.593860585412838
40
0.609488495555281
40
0.609488495555281
40
0.625116405697724
40
0.625116405697724
40
0.687628046267494
40
0.687628046267494
40
0.703255956409936
40
0.703255956409936
40
0.718883866552378
40
0.718883866552378
40
0.750139686837262
40
0.750139686837262
40
0.81265132740703
40
0.81265132740703
40
0.828279237549471
40
0.828279237549471
40
0.843907147691913
40
0.875162967976795
40
0.875162967976795
40
0.937674608546559
40
0.937674608546559
40
0.953302518689
40
0.953302518689
40
0.96893042883144
40
0.96893042883144
40
1
40
1
40
1
40
1
41
1
10
24.0088400645778
20
-15.0044823362635
30
0
41
1
10
23.8933231225396
20
-15.0044823362635
30
0
41
1
10
23.7812653803299
20
-15.0094683762024
30
0
41
1
10
23.6180310316585
20
-15.0232450921035
30
0
41
1
10
23.5644331211853
20
-15.0288902463039
30
0
41
1
10
23.4852553738632
20
-15.0388088031899
30
0
41
1
10
23.4590662496821
20
-15.0423568700765
30
0
41
1
10
23.4070980755527
20
-15.0499158573689
30
0
41
1
10
23.3812951044832
20
-15.0539320879299
30
0
41
1
10
23.2545710269986
20
-15.0748974620391
30
0
41
1
10
23.1594548731815
20
-15.0946253373474
30
0
41
1
10
23.0255229406144
20
-15.1269577815309
30
0
41
1
10
22.9823454957435
20
-15.13819441392
30
0
41
1
10
22.9197792346143
20
-15.155532497903
30
0
41
1
10
22.8992518032264
20
-15.1614039928332
30
0
41
1
10
22.8591325381312
20
-15.1732149392911
30
0
41
1
10
22.8395766326351
20
-15.1791429217042
30
0
41
1
10
22.7442574965376
20
-15.2087994350765
30
0
41
1
10
22.6758126055151
20
-15.2325792256242
30
0
41
1
10
22.5845290959836
20
-15.2665160328562
30
0
41
1
10
22.5560107727294
20
-15.2775393136644
30
0
41
1
10
22.5161701298105
20
-15.2933988318029
30
0
41
1
10
22.5033511138285
20
-15.2985846853986
30
0
41
1
10
22.4789154813426
20
-15.3086055594855
30
0
41
1
10
22.4672862752854
20
-15.3134451308918
30
0
41
1
10
22.4120410930866
20
-15.3367128734748
30
0
41
1
10
22.3770577042379
20
-15.3523478878664
30
0
41
1
10
22.3384524833728
20
-15.3699252444396
30
0
41
1
10
22.3279092967047
20
-15.3748057487865
30
0
41
1
10
22.3157191380567
20
-15.3804843199573
30
0
41
1
10
22.3122535414695
20
-15.3821068881301
30
0
41
1
10
22.3066095691323
20
-15.3847556811128
30
0
41
1
10
22.3044289185031
20
-15.3857829034792
30
0
41
1
10
22.2966749140558
20
-15.3894391093448
30
0
41
1
10
22.3004791565681
20
-15.3876148537933
30
0
41
1
10
22.3209673798431
20
-15.3780319168357
30
0
41
1
10
22.330274083182
20
-15.3736992011319
30
0
41
1
10
22.3480492464836
20
-15.3655516773202
30
0
41
1
10
22.3545920483967
20
-15.36257015025
30
0
41
1
10
22.3688115017775
20
-15.3561447445826
30
0
41
1
10
22.376499133146
20
-15.3526958309334
30
0
41
1
10
22.417774247614
20
-15.334357663025
30
0
41
1
10
22.459801848213
20
-15.316190102776
30
0
41
1
10
22.5234847609895
20
-15.29046721657
30
0
41
1
10
22.5367831661442
20
-15.2851718788972
30
0
41
1
10
22.5645187544487
20
-15.2743137417349
30
0
41
1
10
22.5789338044015
20
-15.2687601304488
30
0
41
1
10
22.6235053287127
20
-15.2519023015089
30
0
41
1
10
22.6550948845297
20
-15.2403584801351
30
0
41
1
10
22.7553930150338
20
-15.2052866107048
30
0
41
1
10
22.8295829564061
20
-15.1813166541773
30
0
41
1
10
22.9318843368286
20
-15.1521299305302
30
0
41
1
10
22.9528702793442
20
-15.1463198937927
30
0
41
1
10
22.9956190632717
20
-15.1348734642545
30
0
41
1
10
23.0607672876952
20
-15.1179997909473
30
0
41
1
10
23.1289591677012
20
-15.1021624152553
30
0
41
1
10
23.2694085212859
20
-15.0722557879667
30
0
41
1
10
23.3684277956211
20
-15.0546646475691
30
0
41
1
10
23.4994518133533
20
-15.0369613423022
30
0
41
1
10
23.526055280072
20
-15.0336319939707
30
0
41
1
10
23.5798720239897
20
-15.0274583221053
30
0
41
1
10
23.6069611499209
20
-15.0246276270125
30
0
41
1
10
23.6884426645115
20
-15.0169629912905
30
0
41
1
10
23.7433646722844
20
-15.0129128905467
30
0
41
1
10
23.7989994021827
20
-15.0099902663084
30
0
0
SPLINE
5
127
100
AcDbEntity
8
1
62
256
6
ByLayer
370
18
48
1
60
0
100
AcDbSpline
70
4
71
3
72
8
73
4
40
0
40
0
40
0
40
0
40
1
40
1
40
1
40
1
41
1
10
27.679508095348
20
26.6849796643809
30
0
41
1
10
27.7193702662285
20
26.6810073117242
30
0
41
1
10
27.7492366897609
20
26.6784513093863
30
0
41
1
10
27.7693170598534
20
26.6773749243377
30
0
0
SPLINE
5
128
100
AcDbEntity
8
1
62
256
6
ByLayer
370
18
48
1
60
0
100
AcDbSpline
70
4
71
3
72
10
73
6
40
0
40
0
40
0
40
0
40
0.5
40
0.5
40
1
40
1
40
1
40
1
41
1
10
53.4130439183014
20
24.3579424458653
30
0
41
1
10
53.3876678326582
20
24.3576378400288
30
0
41
1
10
53.3616498412411
20
24.3574113125404
30
0
41
1
10
53.3095139835101
20
24.3571227489732
30
0
41
1
10
53.2833337041748
20
24.3570590900018
30
0
41
1
10
53.2570400976379
20
24.3570759918497
30
0
0
SPLINE
5
129
100
AcDbEntity
8
1
62
256
6
ByLayer
370
18
48
1
60
0
100
AcDbSpline
70
4
71
3
72
10
73
6
40
0
40
0
40
0
40
0
40
0.700263186270836
40
0.700263186270836
40
1
40
1
40
1
40
1
41
1
10
43.4458477350819
20
23.1635482441285
30
0
41
1
10
43.4569623667697
20
23.1826803178549
30
0
41
1
10
43.4678903833102
20
23.2018126133694
30
0
41
1
10
43.4802962576431
20
23.2291379945128
30
0
41
1
10
43.4836008703073
20
23.2373287215249
30
0
41
1
10
43.4864050524305
20
23.2455193947961
30
0
0
SPLINE
5
12A
100
AcDbEntity
8
1
62
256
6
ByLayer
370
18
48
1
60
0
100
AcDbSpline
70
4
71
3
72
30
73
26
40
0
40
0
40
0
40
0
40
0.125
40
0.25
40
0.25
40
0.281250000000003
40
0.281250000000003
40
0.312500000000006
40
0.375000000000008
40
0.375000000000008
40
0.500000000000019
40
0.500000000000019
40
0.531250000000018
40
0.531250000000018
40
0.562500000000018
40
0.625000000000017
40
0.625000000000017
40
0.750000000000018
40
0.750000000000018
40
0.781250000000012
40
0.781250000000012
40
0.812500000000005
40
0.875
40
0.875
40
1
40
1
40
1
40
1
41
1
10
43.4458477350819
20
23.1635482441285
30
0
41
1
10
43.4668723071237
20
23.2479684394137
30
0
41
1
10
43.5225232223584
20
23.4112233819886
30
0
41
1
10
43.604376666346
20
23.5637184860045
30
0
41
1
10
43.6640967255297
20
23.655512156805
30
0
41
1
10
43.6764708056487
20
23.6736875136281
30
0
41
1
10
43.7018524616549
20
23.709345764891
30
0
41
1
10
43.7409583070177
20
23.7619235726407
30
0
41
1
10
43.7831202079084
20
23.8118114270618
30
0
41
1
10
43.8714813047402
20
23.9080334912922
30
0
41
1
10
43.9357425099798
20
23.9674690896639
30
0
41
1
10
44.0230619552324
20
24.0356083726563
30
0
41
1
10
44.0409225824802
20
24.0489573841393
30
0
41
1
10
44.077086270913
20
24.0748250709657
30
0
41
1
10
44.1320058928306
20
24.1123985539663
30
0
41
1
10
44.1889156280615
20
24.1463464738946
30
0
41
1
10
44.3053561071379
20
24.2094673936588
30
0
41
1
10
44.3864588615803
20
24.2452158962742
30
0
41
1
10
44.4923525030869
20
24.2816757935418
30
0
41
1
10
44.5137945948076
20
24.2885643479233
30
0
41
1
10
44.5569785651522
20
24.3014452525553
30
0
41
1
10
44.621986794592
20
24.319361523006
30
0
41
1
10
44.6876806899101
20
24.3331300189021
30
0
41
1
10
44.8199715508359
20
24.3552040992577
30
0
41
1
10
44.9093629284176
20
24.3626763377442
30
0
41
1
10
44.9999999999989
20
24.3626130431991
30
0
0
SPLINE
5
12B
100
AcDbEntity
8
1
62
256
6
ByLayer
370
18
48
1
60
0
100
AcDbSpline
70
4
71
3
72
45
73
41
40
0
40
0
40
0
40
0
40
0.0312500000000047
40
0.046875000000007
40
0.046875000000007
40
0.0625000000000094
40
0.0625000000000094
40
0.125000000000023
40
0.125000000000023
40
0.187500000000037
40
0.187500000000037
40
0.218750000000046
40
0.234375000000049
40
0.234375000000049
40
0.250000000000051
40
0.250000000000051
40
0.312500000000056
40
0.375000000000062
40
0.375000000000062
40
0.406250000000062
40
0.406250000000062
40
0.437500000000063
40
0.437500000000063
40
0.500000000000063
40
0.500000000000063
40
0.53125000000006
40
0.53125000000006
40
0.562500000000057
40
0.562500000000057
40
0.625000000000046
40
0.625000000000046
40
0.750000000000029
40
0.750000000000029
40
0.781250000000027
40
0.781250000000027
40
0.812500000000026
40
0.812500000000026
40
0.875000000000015
40
0.875000000000015
40
1
40
1
40
1
40
1
41
1
10
43.4
20
24.6767357442148
30
0
41
1
10
43.4
20
24.7050047125877
30
0
41
1
10
43.4009560704519
20
24.7474798304741
30
0
41
1
10
43.4034243539393
20
24.7900683011391
30
0
41
1
10
43.4054166346399
20
24.818486607302
30
0
41
1
10
43.4065884936691
20
24.8327301580997
30
0
41
1
10
43.4132961786195
20
24.9035602806473
30
0
41
1
10
43.4213789078404
20
24.9592349363606
30
0
41
1
10
43.4431178656436
20
25.0685542491836
30
0
41
1
10
43.4567728570042
20
25.1221993569183
30
0
41
1
10
43.4816900483281
20
25.2010517956741
30
0
41
1
10
43.4952598253983
20
25.2400732968381
30
0
41
1
10
43.5105706401053
20
25.278460671443
30
0
41
1
10
43.521175147231
20
25.3039075495522
30
0
41
1
10
43.5266869899715
20
25.3165813663087
30
0
41
1
10
43.5550235608367
20
25.3790576109706
30
0
41
1
10
43.6055639162309
20
25.4739638710119
30
0
41
1
10
43.6662111284247
20
25.5590471580831
30
0
41
1
10
43.7155010732554
20
25.6191619504163
30
0
41
1
10
43.7325725059198
20
25.6385891725583
30
0
41
1
10
43.7679793113981
20
25.6761650461894
30
0
41
1
10
43.7861168670991
20
25.6941050364853
30
0
41
1
10
43.8417706439219
20
25.7455009892048
30
0
41
1
10
43.880524366362
20
25.7765399810487
30
0
41
1
10
43.9409637074909
20
25.818589222
30
0
41
1
10
43.961495914121
20
25.8318522064953
30
0
41
1
10
44.0033141545243
20
25.8569058715777
30
0
41
1
10
44.0246608616399
20
25.8687266959006
30
0
41
1
10
44.0893632208021
20
25.9017896708789
30
0
41
1
10
44.1331467822566
20
25.9205489904888
30
0
41
1
10
44.2662240964527
20
25.9680889575285
30
0
41
1
10
44.3572287553372
20
25.9882111863762
30
0
41
1
10
44.4734602880396
20
26.0008350995119
30
0
41
1
10
44.4967713541352
20
26.0027171107768
30
0
41
1
10
44.5431811373882
20
26.0052380202624
30
0
41
1
10
44.5663308955763
20
26.0058827545527
30
0
41
1
10
44.6356238618268
20
26.0060713339188
30
0
41
1
10
44.6816111953496
20
26.003874399806
30
0
41
1
10
44.8190032342625
20
25.9909183668707
30
0
41
1
10
44.9098423544881
20
25.9738429133281
30
0
41
1
10
45.0000000000007
20
25.9491568711568
30
0
0
SPLINE
5
12C
100
AcDbEntity
8
1
62
256
6
ByLayer
370
18
48
1
60
0
100
AcDbSpline
70
4
71
3
72
10
73
6
40
0
40
0
40
0
40
0
40
0.5
40
0.5
40
1
40
1
40
1
40
1
41
1
10
21.4383186059721
20
20.15
30
0
41
1
10
21.5018619489905
20
20.15
30
0
41
1
10
21.5799129116668
20
20.15
30
0
41
1
10
21.7616929294032
20
20.15
30
0
41
1
10
21.8654037132943
20
20.15
30
0
41
1
10
21.9800908467317
20
20.15
30
0
0
SPLINE
5
12D
100
AcDbEntity
8
1
62
256
6
ByLayer
370
18
48
1
60
0
100
AcDbSpline
70
4
71
3
72
16
73
12
40
0
40
0
40
0
40
0
40
0.25
40
0.25
40
0.5
40
0.5
40
0.75
40
0.75
40
0.875
40
0.875
40
1
40
1
40
1
40
1
41
1
10
20.2792076144253
20
-17.558853827009
30
0
41
1
10
20.3185930353956
20
-17.4572418684917
30
0
41
1
10
20.3630446915512
20
-17.3549744797247
30
0
41
1
10
20.4616994226714
20
-17.1523232347549
30
0
41
1
10
20.5159125170608
20
-17.0519509495739
30
0
41
1
10
20.6324357725286
20
-16.8567356740981
30
0
41
1
10
20.6947517450304
20
-16.7619052122704
30
0
41
1
10
20.7919036265313
20
-16.626583402273
30
0
41
1
10
20.8248880996881
20
-16.5826292365544
30
0
41
1
10
20.8915025372591
20
-16.4974663227394
30
0
41
1
10
20.9251544458015
20
-16.4562346976766
30
0
41
1
10
20.9586643990848
20
-16.4167365199909
30
0
0
SPLINE
5
12E
100
AcDbEntity
8
1
62
256
6
ByLayer
370
18
48
1
60
0
100
AcDbSpline
70
4
71
3
72
30
73
26
40
0
40
0
40
0
40
0
40
0.0474649537593587
40
0.0474649537593587
40
0.0593311921991983
40
0.0593311921991983
40
0.0711974306390379
40
0.0949299075187167
40
0.189859815037432
40
0.189859815037432
40
0.379719630074864
40
0.379719630074864
40
0.47464953759358
40
0.47464953759358
40
0.569579445112296
40
0.569579445112296
40
0.664509352631011
40
0.664509352631011
40
0.759439260149727
40
0.759439260149727
40
0.854369167668443
40
0.854369167668443
40
0.949299075187159
40
0.949299075187159
40
1
40
1
40
1
40
1
41
1
10
21.4383186059721
20
20.15
30
0
41
1
10
21.4321459949055
20
20.15
30
0
41
1
10
21.4253736060532
20
20.15
30
0
41
1
10
21.4162353971218
20
20.15
30
0
41
1
10
21.4143750992174
20
20.15
30
0
41
1
10
21.4105778208348
20
20.15
30
0
41
1
10
21.4047844248678
20
20.15
30
0
41
1
10
21.382500838563
20
20.15
30
0
41
1
10
21.3592798647158
20
20.15
30
0
41
1
10
21.2992339051328
20
20.15
30
0
41
1
10
21.2534142984133
20
20.15
30
0
41
1
10
21.1815612378251
20
20.15
30
0
41
1
10
21.1570944789788
20
20.15
30
0
41
1
10
21.1082202647393
20
20.15
30
0
41
1
10
21.0838098463734
20
20.15
30
0
41
1
10
21.0363691672498
20
20.15
30
0
41
1
10
21.0133373006863
20
20.15
30
0
41
1
10
20.9702620521388
20
20.15
30
0
41
1
10
20.9502224472266
20
20.15
30
0
41
1
10
20.9150111432978
20
20.15
30
0
41
1
10
20.8998538263354
20
20.15
30
0
41
1
10
20.8763045670482
20
20.15
30
0
41
1
10
20.8679361818214
20
20.15
30
0
41
1
10
20.8613041679447
20
20.15
30
0
41
1
10
20.8601532192736
20
20.15
30
0
41
1
10
20.8601658103535
20
20.15
30
0
0
SPLINE
5
12F
100
AcDbEntity
8
1
62
256
6
ByLayer
370
18
48
1
60
0
100
AcDbSpline
70
4
71
3
72
26
73
22
40
0
40
0
40
0
40
0
40
0.125
40
0.125
40
0.249999999999999
40
0.249999999999999
40
0.312499999999999
40
0.312499999999999
40
0.375
40
0.375
40
0.500000000000002
40
0.500000000000002
40
0.625000000000004
40
0.625000000000004
40
0.687500000000005
40
0.687500000000005
40
0.750000000000005
40
0.750000000000005
40
0.875000000000003
40
0.875000000000003
40
1
40
1
40
1
40
1
41
1
10
21.129982189761
20
20.15
30
0
41
1
10
21.135813995732
20
20.15
30
0
41
1
10
21.1440400076946
20
20.152569649012
30
0
41
1
10
21.1639998236623
20
20.1622855251685
30
0
41
1
10
21.1757338801851
20
20.1694354557826
30
0
41
1
10
21.1951579679335
20
20.1834553571948
30
0
41
1
10
21.2019380665843
20
20.1886803641671
30
0
41
1
10
21.2159913628444
20
20.2002388198026
30
0
41
1
10
21.2232569362316
20
20.2065688436986
30
0
41
1
10
21.2453555339585
20
20.2269806424517
30
0
41
1
10
21.2605689779623
20
20.2425433058421
30
0
41
1
10
21.2911709954898
20
20.2775636601361
30
0
41
1
10
21.3065635041079
20
20.2970215499327
30
0
41
1
10
21.3292952077177
20
20.3293094164044
30
0
41
1
10
21.3368272508315
20
20.3406158532131
30
0
41
1
10
21.3515368749063
20
20.3640581636053
30
0
41
1
10
21.3587321690973
20
20.3762167269775
30
0
41
1
10
21.3797386448478
20
20.4140249059895
30
0
41
1
10
21.3929717770459
20
20.4410006990411
30
0
41
1
10
21.4173568618443
20
20.4987439885336
30
0
41
1
10
21.4285124484081
20
20.529508848103
30
0
41
1
10
21.4383186059721
20
20.562410053367
30
0
0
SPLINE
5
130
100
AcDbEntity
8
1
62
256
6
ByLayer
370
18
48
1
60
0
100
AcDbSpline
70
4
71
3
72
9
73
5
40
0
40
0
40
0
40
0
40
0.398612302526601
40
1
40
1
40
1
40
1
41
1
10
-0.394913799811292
20
13.8446595289407
30
0
41
1
10
-0.394913799811292
20
13.8386282511807
30
0
41
1
10
-0.394913799811292
20
13.8153202987596
30
0
41
1
10
-0.394913799811292
20
13.7726147174671
30
0
41
1
10
-0.39491379981132
20
13.7403545289407
30
0
0
SPLINE
5
131
100
AcDbEntity
8
1
62
256
6
ByLayer
370
13
48
1
60
0
100
AcDbSpline
70
4
71
3
72
18
73
14
40
0
40
0
40
0
40
0
40
0.0327428666106804
40
0.112953690083094
40
0.193164513555507
40
0.353586160500334
40
0.51400780744516
40
0.594218630917574
40
0.674429454389987
40
0.834851101334814
40
0.915061924807227
40
0.99527274827964
40
1
40
1
40
1
40
1
41
1
10
-0.394913799811292
20
13.7403540822606
30
0
41
1
10
-0.394913799811292
20
13.7181012198496
30
0
41
1
10
-0.394913799811292
20
13.6305385249764
30
0
41
1
10
-0.394913799811292
20
13.4200270263956
30
0
41
1
10
-0.394913799811292
20
12.9393754432253
30
0
41
1
10
-0.394913799811292
20
12.1118907902116
30
0
41
1
10
-0.394913799811292
20
11.015314225612
30
0
41
1
10
-0.394913799811292
20
9.98771978618731
30
0
41
1
10
-0.394913799811292
20
8.86359092653058
30
0
41
1
10
-0.394913799811292
20
7.59985122616763
30
0
41
1
10
-0.394913799811292
20
6.19788950405021
30
0
41
1
10
-0.394913799811292
20
5.43069780454792
30
0
41
1
10
-0.394913799811292
20
5.02384266526144
30
0
41
1
10
-0.394913799811292
20
5.00116108217654
30
0
0
SPLINE
5
132
100
AcDbEntity
8
1
62
256
6
ByLayer
370
13
48
1
60
0
100
AcDbSpline
70
4
71
3
72
18
73
14
40
0
40
0
40
0
40
0
40
0.0047272869868306
40
0.0849381019141186
40
0.165148916841407
40
0.325570546695983
40
0.405781361623271
40
0.485992176550559
40
0.646413806405135
40
0.806835436259711
40
0.887046251186999
40
0.967257066114287
40
1
40
1
40
1
40
1
41
1
10
-0.394913799811292
20
-5.00116056257954
30
0
41
1
10
-0.394913799811292
20
-5.02384231959817
30
0
41
1
10
-0.394913799811292
20
-5.43069766104711
30
0
41
1
10
-0.394913799811292
20
-6.19788936064779
30
0
41
1
10
-0.394913799811292
20
-7.59985108367658
30
0
41
1
10
-0.394913799811292
20
-8.86359091499725
30
0
41
1
10
-0.394913799811292
20
-9.98771966705354
30
0
41
1
10
-0.394913799811292
20
-11.0153145242408
30
0
41
1
10
-0.394913799811292
20
-12.1118904563386
30
0
41
1
10
-0.394913799811292
20
-12.9393760577865
30
0
41
1
10
-0.394913799811292
20
-13.4200269261686
30
0
41
1
10
-0.394913799811292
20
-13.6305387837885
30
0
41
1
10
-0.394913799811292
20
-13.718101640475
30
0
41
1
10
-0.394913799811292
20
-13.7403545625636
30
0
0
SPLINE
5
133
100
AcDbEntity
8
1
62
256
6
ByLayer
370
18
48
1
60
0
100
AcDbSpline
70
4
71
3
72
9
73
5
40
0
40
0
40
0
40
0
40
0.601388592281256
40
1
40
1
40
1
40
1
41
1
10
-0.394913799811292
20
-13.7403546982674
30
0
41
1
10
-0.394913799811292
20
-13.7726150014256
30
0
41
1
10
-0.394913799811292
20
-13.8153206302226
30
0
41
1
10
-0.394913799811292
20
-13.8386284705405
30
0
41
1
10
-0.394913799811292
20
-13.8446596982822
30
0
0
SPLINE
5
134
100
AcDbEntity
8
1
62
256
6
ByLayer
370
18
48
1
60
0
100
AcDbSpline
70
4
71
3
72
8
73
4
40
0
40
0
40
0
40
0
40
1
40
1
40
1
40
1
41
1
10
21.9800908467317
20
20.15
30
0
41
1
10
21.791799425625
20
19.2893803946058
30
0
41
1
10
21.6104154104642
20
18.4298150250554
30
0
41
1
10
21.4383186059721
20
17.5708743206714
30
0
0
SPLINE
5
135
100
AcDbEntity
8
1
62
256
6
ByLayer
370
18
48
1
60
0
100
AcDbSpline
70
4
71
3
72
30
73
26
40
0
40
0
40
0
40
0
40
0.125
40
0.125
40
0.25
40
0.25
40
0.375
40
0.375
40
0.5
40
0.5
40
0.625
40
0.625
40
0.656249999999999
40
0.656249999999999
40
0.687499999999997
40
0.687499999999997
40
0.749999999999998
40
0.749999999999998
40
0.874999999999999
40
0.874999999999999
40
0.9375
40
0.9375
40
0.96875
40
0.96875
40
1
40
1
40
1
40
1
41
1
10
20.2792076144253
20
15.2056238711761
30
0
41
1
10
20.3140188444839
20
15.2895924810251
30
0
41
1
10
20.3526782320863
20
15.3727020156163
30
0
41
1
10
20.436959258686
20
15.5389997310812
30
0
41
1
10
20.4825823471692
20
15.6221899050621
30
0
41
1
10
20.579616666246
20
15.7907121396914
30
0
41
1
10
20.6310296249765
20
15.8760446407141
30
0
41
1
10
20.7379816888695
20
16.0511350458157
30
0
41
1
10
20.7935243100162
20
16.140890142575
30
0
41
1
10
20.9065140451902
20
16.3273573229387
30
0
41
1
10
20.9639697153698
20
16.4240594905625
30
0
41
1
10
21.035138174173
20
16.5511296682157
30
0
41
1
10
21.0493370940222
20
16.5768548867764
30
0
41
1
10
21.0776091643416
20
16.6289816675073
30
0
41
1
10
21.0916954877685
20
16.6554084330355
30
0
41
1
10
21.1335868765534
20
16.7356241217468
30
0
41
1
10
21.1608606301457
20
16.7900287247274
30
0
41
1
10
21.2399337153851
20
16.9564041242406
30
0
41
1
10
21.2890396539207
20
17.0714972532418
30
0
41
1
10
21.3534785614882
20
17.252357982151
30
0
41
1
10
21.3734118601785
20
17.3140217165898
30
0
41
1
10
21.4003316192294
20
17.4089631084695
30
0
41
1
10
21.4088024230309
20
17.4410171347117
30
0
41
1
10
21.424500774219
20
17.5055403697542
30
0
41
1
10
21.4317449287564
20
17.5380648855663
30
0
41
1
10
21.4383186059729
20
17.5708743206711
30
0
0
SPLINE
5
136
100
AcDbEntity
8
1
62
256
6
ByLayer
370
18
48
1
60
0
100
AcDbSpline
70
4
71
3
72
18
73
14
40
0
40
0
40
0
40
0
40
0.249999999999995
40
0.249999999999995
40
0.312499999999992
40
0.312499999999992
40
0.37499999999999
40
0.37499999999999
40
0.49999999999999
40
0.49999999999999
40
0.749999999999995
40
0.749999999999995
40
1
40
1
40
1
40
1
41
1
10
20.9586643990843
20
-16.416736519991
30
0
41
1
10
20.8930799706658
20
-16.3039346716982
30
0
41
1
10
20.8271210674691
20
-16.1961257136409
30
0
41
1
10
20.7468496486629
20
-16.0653132634289
30
0
41
1
10
20.7309018335123
20
-16.0393491391129
30
0
41
1
10
20.6992761598948
20
-15.9877633941496
30
0
41
1
10
20.6835904683846
20
-15.962128773511
30
0
41
1
10
20.6371499929319
20
-15.8858748468175
30
0
41
1
10
20.6069739244506
20
-15.8358395319042
30
0
41
1
10
20.519269723141
20
-15.6874085861866
30
0
41
1
10
20.4645924160361
20
-15.5906718913912
30
0
41
1
10
20.3646211074918
20
-15.398160550964
30
0
41
1
10
20.31932188231
20
-15.3023840058717
30
0
41
1
10
20.2792076144253
20
-15.2056238711761
30
0
0
SPLINE
5
137
100
AcDbEntity
8
1
62
256
6
ByLayer
370
18
48
1
60
0
100
AcDbSpline
70
4
71
3
72
32
73
28
40
0
40
0
40
0
40
0
40
0.125000000000006
40
0.125000000000006
40
0.187500000000008
40
0.187500000000008
40
0.218750000000007
40
0.218750000000007
40
0.250000000000007
40
0.250000000000007
40
0.375000000000006
40
0.375000000000006
40
0.500000000000006
40
0.500000000000006
40
0.562500000000005
40
0.562500000000005
40
0.625000000000004
40
0.625000000000004
40
0.750000000000003
40
0.750000000000003
40
0.875000000000002
40
0.875000000000002
40
0.937500000000001
40
0.937500000000001
40
0.96875
40
0.96875
40
1
40
1
40
1
40
1
41
1
10
23.8
20
-15.0099378281341
30
0
41
1
10
23.6493070468392
20
-15.0178162548246
30
0
41
1
10
23.5009420166791
20
-15.0340933695568
30
0
41
1
10
23.2817051849393
20
-15.070430721158
30
0
41
1
10
23.2091795474034
20
-15.0845356119566
30
0
41
1
10
23.101210987407
20
-15.1086423402797
30
0
41
1
10
23.065358198532
20
-15.1171697748118
30
0
41
1
10
22.9939253671548
20
-15.1352052540514
30
0
41
1
10
22.9582726642194
20
-15.1447346152047
30
0
41
1
10
22.7818310705428
20
-15.1945009379901
30
0
41
1
10
22.6463094421941
20
-15.2410651445985
30
0
41
1
10
22.3852336565113
20
-15.3461082592809
30
0
41
1
10
22.2596866252154
20
-15.4045959329373
30
0
41
1
10
22.0782666728035
20
-15.5005464996942
30
0
41
1
10
22.0188085958044
20
-15.5339945439199
30
0
41
1
10
21.9034203678584
20
-15.6027594398211
30
0
41
1
10
21.8473512939398
20
-15.6381399760925
30
0
41
1
10
21.6836805131455
20
-15.7470582886013
30
0
41
1
10
21.5805986780783
20
-15.8233629562862
30
0
41
1
10
21.3851964483915
20
-15.9825010464436
30
0
41
1
10
21.2928821346858
20
-16.0653386594495
30
0
41
1
10
21.1618650208377
20
-16.1940586390613
30
0
41
1
10
21.1194381172055
20
-16.237710943398
30
0
41
1
10
21.0576120381674
20
-16.3042656737354
30
0
41
1
10
21.0372977432886
20
-16.3266404098455
30
0
41
1
10
20.9974414283143
20
-16.3715411284875
30
0
41
1
10
20.9778766410952
20
-16.3940910527699
30
0
41
1
10
20.9586643990845
20
-16.4167365199916
30
0
0
SPLINE
5
138
100
AcDbEntity
8
1
62
256
6
ByLayer
370
18
48
1
60
0
100
AcDbSpline
70
4
71
3
72
39
73
35
40
0
40
0
40
0
40
0
40
0.0233594682544023
40
0.0513972094669535
40
0.0794349506795046
40
0.107472691892056
40
0.163548174317158
40
0.21962365674226
40
0.247661397954811
40
0.275699139167363
40
0.331774621592465
40
0.359812362805016
40
0.387850104017567
40
0.415887845230118
40
0.44392558644267
40
0.471963327655221
40
0.485982198261496
40
0.500001068867772
40
0.514019939474047
40
0.528038810080323
40
0.556076551292874
40
0.584114292505425
40
0.612152033717976
40
0.640189774930528
40
0.668227516143079
40
0.724302998568181
40
0.752340739780732
40
0.780378480993283
40
0.836453963418386
40
0.892529445843488
40
0.920567187056039
40
0.94860492826859
40
0.976642669481141
40
1
40
1
40
1
40
1
41
1
10
-24
20
-12.6317141812479
30
0
41
1
10
-24
20
-12.6344704866736
30
0
41
1
10
-24
20
-12.6094827209416
30
0
41
1
10
-24
20
-12.4743692733745
30
0
41
1
10
-24
20
-12.2301460729139
30
0
41
1
10
-24
20
-11.7782448377074
30
0
41
1
10
-24
20
-11.0029089912388
30
0
41
1
10
-24
20
-9.97333275207075
30
0
41
1
10
-24
20
-9.00198709358403
30
0
41
1
10
-24
20
-7.94098139760015
30
0
41
1
10
-24
20
-6.76812911518888
30
0
41
1
10
-24
20
-5.45799609225458
30
0
41
1
10
-24
20
-4.4275375451636
30
0
41
1
10
-24
20
-3.35000208235883
30
0
41
1
10
-24
20
-2.23771697460674
30
0
41
1
10
-24
20
-1.30515943417129
30
0
41
1
10
-24
20
-0.551100895559586
30
0
41
1
10
-24
20
2.454147534E-07
30
0
41
1
10
-24
20
0.551100854738877
30
0
41
1
10
-24
20
1.30515932004789
30
0
41
1
10
-24
20
2.23771741989395
30
0
41
1
10
-24
20
3.35000222974921
30
0
41
1
10
-24
20
4.42753733029454
30
0
41
1
10
-24
20
5.45799637564653
30
0
41
1
10
-24
20
6.76812921007328
30
0
41
1
10
-24
20
7.94098140173097
30
0
41
1
10
-24
20
9.00198713477033
30
0
41
1
10
-24
20
9.97333247862687
30
0
41
1
10
-24
20
11.0029092636263
30
0
41
1
10
-24
20
11.778244241418
30
0
41
1
10
-24
20
12.230146179188
30
0
41
1
10
-24
20
12.4743689830171
30
0
41
1
10
-24
20
12.6094786323466
30
0
41
1
10
-24
20
12.6344682952637
30
0
41
1
10
-24
20
12.6317148498592
30
0
0
SPLINE
5
139
100
AcDbEntity
8
1
62
256
6
ByLayer
370
13
48
1
60
0
100
AcDbSpline
70
4
71
3
72
20
73
16
40
0
40
0
40
0
40
0
40
0.0019271163461556
40
0.0711953803442764
40
0.140463644342397
40
0.209731908340518
40
0.279000172338639
40
0.417536700334881
40
0.486804964333001
40
0.556073228331122
40
0.694609756327364
40
0.833146284323605
40
0.902414548321726
40
0.971682812319847
40
1
40
1
40
1
40
1
41
1
10
-1.49503997793928
20
-2.59572866980201
30
0
41
1
10
-1.49503997793928
20
-2.60753527399982
30
0
41
1
10
-1.49503997793928
20
-3.04345441166049
30
0
41
1
10
-1.49503997793928
20
-3.88412508952482
30
0
41
1
10
-1.49503997793928
20
-5.06527592408099
30
0
41
1
10
-1.49503997793928
20
-6.18114524290198
30
0
41
1
10
-1.49503997793928
20
-7.58102884110858
30
0
41
1
10
-1.49503997793928
20
-8.84271184628204
30
0
41
1
10
-1.49503997793928
20
-9.96541209516295
30
0
41
1
10
-1.49503997793928
20
-10.9917340076615
30
0
41
1
10
-1.49503997793928
20
-12.0867937065467
30
0
41
1
10
-1.49503997793928
20
-12.9130991355629
30
0
41
1
10
-1.49503997793928
20
-13.3930993868039
30
0
41
1
10
-1.49503997793928
20
-13.6033357132742
30
0
41
1
10
-1.49503997793928
20
-13.6907766312506
30
0
41
1
10
-1.49503997793928
20
-13.7130156697973
30
0
0
SPLINE
5
13A
100
AcDbEntity
8
1
62
256
6
ByLayer
370
18
48
1
60
0
100
AcDbSpline
70
4
71
3
72
9
73
5
40
0
40
0
40
0
40
0
40
0.442601367065043
40
1
40
1
40
1
40
1
41
1
10
-1.49503997793928
20
-13.7130150941643
30
0
41
1
10
-1.49503997793928
20
-13.7451764875707
30
0
41
1
10
-1.49503997793926
20
-13.8030300883817
30
0
41
1
10
-1.49503997793926
20
-13.8252009301951
30
0
41
1
10
-1.49503997793928
20
-13.8252670941644
30
0
0
SPLINE
5
13B
100
AcDbEntity
8
1
62
256
6
ByLayer
370
18
48
1
60
0
100
AcDbSpline
70
4
71
3
72
9
73
5
40
0
40
0
40
0
40
0
40
0.558795763387251
40
1
40
1
40
1
40
1
41
1
10
-1.49503997793928
20
13.8252669419259
30
0
41
1
10
-1.49503997793928
20
13.8253406304864
30
0
41
1
10
-1.49503997793928
20
13.8032126966407
30
0
41
1
10
-1.49503997793928
20
13.7451765604207
30
0
41
1
10
-1.49503997793926
20
13.7130155968022
30
0
0
SPLINE
5
13C
100
AcDbEntity
8
1
62
256
6
ByLayer
370
13
48
1
60
0
100
AcDbSpline
70
4
71
3
72
20
73
16
40
0
40
0
40
0
40
0
40
0.028317297582502
40
0.0975855570390189
40
0.166853816495536
40
0.30539033540857
40
0.443926854321603
40
0.51319511377812
40
0.582463373234637
40
0.720999892147671
40
0.790268151604188
40
0.859536411060705
40
0.928804670517222
40
0.998072929973739
40
1
40
1
40
1
40
1
41
1
10
-1.49503997793928
20
13.713015596801
30
0
41
1
10
-1.49503997793928
20
13.6907765202162
30
0
41
1
10
-1.49503997793928
20
13.6033356716386
30
0
41
1
10
-1.49503997793928
20
13.3930994871677
30
0
41
1
10
-1.49503997793928
20
12.9130985214152
30
0
41
1
10
-1.49503997793928
20
12.0867940390283
30
0
41
1
10
-1.49503997793928
20
10.9917337096027
30
0
41
1
10
-1.49503997793928
20
9.96541221253273
30
0
41
1
10
-1.49503997793928
20
8.84271185764786
30
0
41
1
10
-1.49503997793928
20
7.58102898252227
30
0
41
1
10
-1.49503997793928
20
6.18114538947242
30
0
41
1
10
-1.49503997793928
20
5.0652758228772
30
0
41
1
10
-1.49503997793928
20
3.88412534084222
30
0
41
1
10
-1.49503997793928
20
3.04345481646683
30
0
41
1
10
-1.49503997793928
20
2.60753591899177
30
0
41
1
10
-1.49503997793928
20
2.59572959682796
30
0
0
SPLINE
5
13D
100
AcDbEntity
8
1
62
256
6
ByLayer
370
18
48
1
60
0
100
AcDbSpline
70
4
71
3
72
21
73
17
40
0
40
0
40
0
40
0
40
0.0619468517633996
40
0.124127248918223
40
0.186307646073047
40
0.24848804322787
40
0.372848837537518
40
0.497209631847165
40
0.559390029001988
40
0.621570426156812
40
0.745931220466459
40
0.808111617621283
40
0.870292014776106
40
0.93247241193093
40
0.994652809085753
40
1
40
1
40
1
40
1
41
1
10
-1.69999999999999
20
14.0158119585329
30
0
41
1
10
-1.69999999999997
20
14.0272338769406
30
0
41
1
10
-1.70000000000002
20
14.0038343026542
30
0
41
1
10
-1.7
20
13.8477062499051
30
0
41
1
10
-1.7
20
13.5829959818305
30
0
41
1
10
-1.7
20
13.0984067777707
30
0
41
1
10
-1.7
20
12.2637795792515
30
0
41
1
10
-1.7
20
11.1580265629749
30
0
41
1
10
-1.7
20
10.1227281115305
30
0
41
1
10
-1.7
20
8.98995375595479
30
0
41
1
10
-1.7
20
7.71376588282689
30
0
41
1
10
-1.7
20
6.29922705440438
30
0
41
1
10
-1.7
20
5.16941096177055
30
0
41
1
10
-1.7
20
3.97134131573901
30
0
41
1
10
-1.7
20
3.09163207213675
30
0
41
1
10
-1.7
20
2.6211130853342
30
0
41
1
10
-1.7
20
2.58377808521789
30
0
0
SPLINE
5
13E
100
AcDbEntity
8
1
62
256
6
ByLayer
370
18
48
1
60
0
100
AcDbSpline
70
4
71
3
72
21
73
17
40
0
40
0
40
0
40
0
40
0.0053472254646081
40
0.0675276081723163
40
0.129707990880024
40
0.191888373587733
40
0.254068756295441
40
0.378429521710857
40
0.440609904418566
40
0.502790287126274
40
0.62715105254169
40
0.751511817957106
40
0.813692200664815
40
0.875872583372523
40
0.938052966080231
40
1
40
1
40
1
40
1
41
1
10
-1.7
20
-2.58377729734613
30
0
41
1
10
-1.7
20
-2.62111254506641
30
0
41
1
10
-1.7
20
-3.09163174208075
30
0
41
1
10
-1.7
20
-3.97134104745157
30
0
41
1
10
-1.7
20
-5.16941104441418
30
0
41
1
10
-1.7
20
-6.29922693017525
30
0
41
1
10
-1.7
20
-7.71376573381551
30
0
41
1
10
-1.7
20
-8.9899537434076
30
0
41
1
10
-1.7
20
-10.1227279817209
30
0
41
1
10
-1.7
20
-11.158026865053
30
0
41
1
10
-1.7
20
-12.2637792369573
30
0
41
1
10
-1.7
20
-13.0984073948343
30
0
41
1
10
-1.7
20
-13.5829958824317
30
0
41
1
10
-1.7
20
-13.8477064954836
30
0
41
1
10
-1.70000000000002
20
-14.003834965831
30
0
41
1
10
-1.70000000000002
20
-14.0272339859902
30
0
41
1
10
-1.69999999999999
20
-14.0158119280666
30
0
0
SPLINE
5
13F
100
AcDbEntity
8
1
62
256
6
ByLayer
370
18
48
1
60
0
100
AcDbSpline
70
4
71
3
72
39
73
35
40
0
40
0
40
0
40
0
40
0.027768477128221
40
0.0555468278559519
40
0.0833251785836828
40
0.111103529311414
40
0.166660230766876
40
0.222216932222337
40
0.249995282950068
40
0.277773633677799
40
0.333330335133261
40
0.361108685860992
40
0.388887036588723
40
0.416665387316454
40
0.444443738044185
40
0.472222088771916
40
0.486111264135781
40
0.500000439499646
40
0.513889614863512
40
0.527778790227377
40
0.555557140955108
40
0.583335491682839
40
0.61111384241057
40
0.638892193138301
40
0.666670543866032
40
0.722227245321494
40
0.750005596049225
40
0.777783946776955
40
0.833340648232417
40
0.888897349687879
40
0.91667570041561
40
0.944454051143341
40
0.972232401871072
40
1
40
1
40
1
40
1
41
1
10
-22.5
20
13.4936001643592
30
0
41
1
10
-22.5
20
13.504660283534
30
0
41
1
10
-22.5
20
13.4821976512426
30
0
41
1
10
-22.5
20
13.3308793310681
30
0
41
1
10
-22.5
20
13.0738790940806
30
0
41
1
10
-22.5
20
12.6015910628856
30
0
41
1
10
-22.5
20
11.7892772585257
30
0
41
1
10
-22.5
20
10.7121915826386
30
0
41
1
10
-22.5
20
9.70096055319001
30
0
41
1
10
-22.5
20
8.59519482612015
30
0
41
1
10
-22.5
20
7.35789518762175
30
0
41
1
10
-22.5
20
5.98264738368823
30
0
41
1
10
-22.5
20
4.89022224945154
30
0
41
1
10
-22.5
20
3.73751327283387
30
0
41
1
10
-22.5
20
2.52988151772914
30
0
41
1
10
-22.5
20
1.48826017841199
30
0
41
1
10
-22.5
20
0.63722566300541
30
0
41
1
10
-22.5
20
1.01300202E-07
30
0
41
1
10
-22.5
20
-0.637225639727404
30
0
41
1
10
-22.5
20
-1.48826022368627
30
0
41
1
10
-22.5
20
-2.52988134516508
30
0
41
1
10
-22.5
20
-3.73751305004353
30
0
41
1
10
-22.5
20
-4.89022238185544
30
0
41
1
10
-22.5
20
-5.98264719956148
30
0
41
1
10
-22.5
20
-7.35789505897995
30
0
41
1
10
-22.5
20
-8.5951948167403
30
0
41
1
10
-22.5
20
-9.70096045673193
30
0
41
1
10
-22.5
20
-10.7121918739409
30
0
41
1
10
-22.5
20
-11.7892769425394
30
0
41
1
10
-22.5
20
-12.6015916721314
30
0
41
1
10
-22.5
20
-13.0738789920944
30
0
41
1
10
-22.5
20
-13.3308795934982
30
0
41
1
10
-22.5
20
-13.4821965398949
30
0
41
1
10
-22.5
20
-13.5046596112108
30
0
41
1
10
-22.5
20
-13.4936012975942
30
0
0
SPLINE
5
140
100
AcDbEntity
8
1
62
256
6
ByLayer
370
18
48
1
60
0
100
AcDbSpline
70
4
71
3
72
50
73
46
40
0
40
0
40
0
40
0
40
0.124999999999984
40
0.124999999999984
40
0.249999999999968
40
0.249999999999968
40
0.31249999999996
40
0.31249999999996
40
0.374999999999952
40
0.374999999999952
40
0.406249999999948
40
0.406249999999948
40
0.421874999999946
40
0.421874999999946
40
0.437499999999944
40
0.437499999999944
40
0.453124999999941
40
0.453124999999941
40
0.460937499999941
40
0.460937499999941
40
0.464843749999941
40
0.464843749999941
40
0.468749999999941
40
0.468749999999941
40
0.476562499999943
40
0.476562499999943
40
0.484374999999946
40
0.484374999999946
40
0.499999999999948
40
0.499999999999948
40
0.51562499999995
40
0.51562499999995
40
0.531249999999952
40
0.531249999999952
40
0.562499999999955
40
0.562499999999955
40
0.624999999999962
40
0.624999999999962
40
0.687499999999969
40
0.687499999999969
40
0.749999999999976
40
0.749999999999976
40
0.874999999999988
40
0.874999999999988
40
1
40
1
40
1
40
1
41
1
10
-1.7
20
2.58377808521789
30
0
41
1
10
-1.69980283176194
20
2.53494813104055
30
0
41
1
10
-1.69914629015307
20
2.48605219520391
30
0
41
1
10
-1.6965250123217
20
2.38809848078017
30
0
41
1
10
-1.69458987013775
20
2.33904299616424
30
0
41
1
10
-1.68996451253322
20
2.26528111364473
30
0
41
1
10
-1.68813273270565
20
2.24066381962933
30
0
41
1
10
-1.68351230038941
20
2.19134004598717
30
0
41
1
10
-1.68075232756121
20
2.16659121971193
30
0
41
1
10
-1.6751594901484
20
2.12981712458023
30
0
41
1
10
-1.67305217630947
20
2.11760538297838
30
0
41
1
10
-1.66917976470286
20
2.09942277841125
30
0
41
1
10
-1.66776761506961
20
2.09338046474815
30
0
41
1
10
-1.66455510466849
20
2.0813878802806
30
0
41
1
10
-1.66277344227467
20
2.07547629075165
30
0
41
1
10
-1.6585367992972
20
2.06399527606521
30
0
41
1
10
-1.65615085025311
20
2.05848683766303
30
0
41
1
10
-1.65146277058666
20
2.05118187975825
30
0
41
1
10
-1.64972344115721
20
2.04895713823333
30
0
41
1
10
-1.64678471429062
20
2.04633307019134
30
0
41
1
10
-1.64576913847839
20
2.04559596629972
30
0
41
1
10
-1.64365346396515
20
2.04444453700538
30
0
41
1
10
-1.64253578152041
20
2.04402974687966
30
0
41
1
10
-1.63921911624004
20
2.04338149066749
30
0
41
1
10
-1.63699263810763
20
2.04373469956386
30
0
41
1
10
-1.6329019457323
20
2.04547928392895
30
0
41
1
10
-1.63098239203809
20
2.04685996014615
30
0
41
1
10
-1.62570082643286
20
2.05168607565219
30
0
41
1
10
-1.62266900676535
20
2.05586039978144
30
0
41
1
10
-1.61717970743425
20
2.06467763004105
30
0
41
1
10
-1.61471614069212
20
2.06937654210969
30
0
41
1
10
-1.61008417279068
20
2.0790771956942
30
0
41
1
10
-1.60792208521562
20
2.0840854996479
30
0
41
1
10
-1.60173135359587
20
2.09941136011767
30
0
41
1
10
-1.59800183776959
20
2.11000295822438
30
0
41
1
10
-1.58752132339228
20
2.14206819971534
30
0
41
1
10
-1.58141440210635
20
2.1639829941042
30
0
41
1
10
-1.56994933734997
20
2.20824327444524
30
0
41
1
10
-1.56462503300465
20
2.23061031941455
30
0
41
1
10
-1.55445799280432
20
2.27560423600821
30
0
41
1
10
-1.5496214994392
20
2.29823508774663
30
0
41
1
10
-1.53561964544302
20
2.36637992038092
30
0
41
1
10
-1.52696140207523
20
2.41209242042987
30
0
41
1
10
-1.51044407919379
20
2.5037485497009
30
0
41
1
10
-1.50259580380231
20
2.54970538090487
30
0
41
1
10
-1.49503997793928
20
2.59572959682799
30
0
0
SPLINE
5
141
100
AcDbEntity
8
1
62
256
6
ByLayer
370
18
48
1
60
0
100
AcDbSpline
70
4
71
3
72
28
73
24
40
0
40
0
40
0
40
0
40
0.125
40
0.125
40
0.25
40
0.25
40
0.375
40
0.375
40
0.4375
40
0.4375
40
0.46875
40
0.46875
40
0.5
40
0.5
40
0.625
40
0.625
40
0.75
40
0.75
40
0.875
40
0.875
40
0.9375
40
0.9375
40
1
40
1
40
1
40
1
41
1
10
-1.7
20
-2.58377729734613
30
0
41
1
10
-1.7330653294344
20
-2.37581216989977
30
0
41
1
10
-1.76383853333438
20
-2.16627904107367
30
0
41
1
10
-1.81907192909576
20
-1.7435914590406
30
0
41
1
10
-1.84353399204588
20
-1.53043779083347
30
0
41
1
10
-1.88427766240595
20
-1.09995043784016
30
0
41
1
10
-1.90057185673113
20
-0.882620801089502
30
0
41
1
10
-1.91719408999322
20
-0.552958450347262
30
0
41
1
10
-1.92143351430276
20
-0.442459814342243
30
0
41
1
10
-1.92571062209051
20
-0.275747908317783
30
0
41
1
10
-1.92678890529307
20
-0.219949147197781
30
0
41
1
10
-1.92821915648835
20
-0.108715900509111
30
0
41
1
10
-1.92857376506791
20
-0.0532112388235646
30
0
41
1
10
-1.9285260192795
20
0.2237512458141
30
0
41
1
10
-1.92269285742202
20
0.443534065874189
30
0
41
1
10
-1.90073152159664
20
0.879827175945792
30
0
41
1
10
-1.88456941336776
20
1.09633072422011
30
0
41
1
10
-1.84395869573467
20
1.52647783394633
30
0
41
1
10
-1.8194991935238
20
1.74011907259904
30
0
41
1
10
-1.7779104307611
20
2.05868937391003
30
0
41
1
10
-1.76321329032666
20
2.16467276723154
30
0
41
1
10
-1.73252928227532
20
2.37518275958956
30
0
41
1
10
-1.71653480458672
20
2.4797818566588
30
0
41
1
10
-1.7
20
2.58377808521789
30
0
0
SPLINE
5
142
100
AcDbEntity
8
1
62
256
6
ByLayer
370
18
48
1
60
0
100
AcDbSpline
70
4
71
3
72
50
73
46
40
0
40
0
40
0
40
0
40
0.12499999999999
40
0.12499999999999
40
0.249999999999981
40
0.249999999999981
40
0.312499999999977
40
0.312499999999977
40
0.374999999999973
40
0.374999999999973
40
0.437499999999968
40
0.437499999999968
40
0.468749999999966
40
0.468749999999966
40
0.484374999999965
40
0.484374999999965
40
0.499999999999964
40
0.499999999999964
40
0.507812499999963
40
0.507812499999963
40
0.515624999999963
40
0.515624999999963
40
0.523437499999962
40
0.523437499999962
40
0.531249999999962
40
0.531249999999962
40
0.539062499999961
40
0.539062499999961
40
0.546874999999961
40
0.546874999999961
40
0.562499999999962
40
0.562499999999962
40
0.578124999999964
40
0.578124999999964
40
0.593749999999965
40
0.593749999999965
40
0.624999999999968
40
0.624999999999968
40
0.687499999999973
40
0.687499999999973
40
0.749999999999979
40
0.749999999999979
40
0.874999999999989
40
0.874999999999989
40
1
40
1
40
1
40
1
41
1
10
-1.49503997793928
20
-2.59572866980201
30
0
41
1
10
-1.50265060758178
20
-2.54937072424823
30
0
41
1
10
-1.510557364089
20
-2.5030840028657
30
0
41
1
10
-1.52720389146864
20
-2.41078220609728
30
0
41
1
10
-1.53593092606574
20
-2.36476035150477
30
0
41
1
10
-1.55006067855432
20
-2.29615277543081
30
0
41
1
10
-1.55494638829134
20
-2.27335583269641
30
0
41
1
10
-1.56523752837914
20
-2.22799607735607
30
0
41
1
10
-1.57063755711233
20
-2.20542457669759
30
0
41
1
10
-1.58228349561369
20
-2.16081267675321
30
0
41
1
10
-1.58850203306027
20
-2.13871110702169
30
0
41
1
10
-1.59920684184681
20
-2.10654042134561
30
0
41
1
10
-1.60299914819286
20
-2.09599696577877
30
0
41
1
10
-1.60936320218998
20
-2.08073614174975
30
0
41
1
10
-1.61160259165956
20
-2.07573673930193
30
0
41
1
10
-1.61642392925381
20
-2.06612103362772
30
0
41
1
10
-1.61901669792691
20
-2.06146559975113
30
0
41
1
10
-1.62333314102943
20
-2.05512691093279
30
0
41
1
10
-1.62484301170014
20
-2.0531239146128
30
0
41
1
10
-1.62808309003236
20
-2.04945955976308
30
0
41
1
10
-1.62982987335099
20
-2.04777834300637
30
0
41
1
10
-1.63361913581856
20
-2.0450986814044
30
0
41
1
10
-1.6356843696697
20
-2.04410116240959
30
0
41
1
10
-1.63997873447313
20
-2.04341449775865
30
0
41
1
10
-1.64226262858723
20
-2.043768326699
30
0
41
1
10
-1.64651873271588
20
-2.04593477970201
30
0
41
1
10
-1.64851622596237
20
-2.04772090624601
30
0
41
1
10
-1.65203540861354
20
-2.05194214116116
30
0
41
1
10
-1.65360265881839
20
-2.05440095769973
30
0
41
1
10
-1.65780271049239
20
-2.06209889338854
30
0
41
1
10
-1.6600558123808
20
-2.06781172737621
30
0
41
1
10
-1.66396430018823
20
-2.07931848353303
30
0
41
1
10
-1.66562961649734
20
-2.08519083778748
30
0
41
1
10
-1.6686459486251
20
-2.09706546109075
30
0
41
1
10
-1.66999109272727
20
-2.10307013790924
30
0
41
1
10
-1.67370679113651
20
-2.12121687034826
30
0
41
1
10
-1.67575012136615
20
-2.13342095957782
30
0
41
1
10
-1.6811538035131
20
-2.16993349213547
30
0
41
1
10
-1.68382251839573
20
-2.19430149785723
30
0
41
1
10
-1.68832031406806
20
-2.24305704289955
30
0
41
1
10
-1.69011547560279
20
-2.26744567235394
30
0
41
1
10
-1.69465688317244
20
-2.34062742639441
30
0
41
1
10
-1.69657077641125
20
-2.38945991149225
30
0
41
1
10
-1.69915633746155
20
-2.48678291130128
30
0
41
1
10
-1.69980436369318
20
-2.53532682713825
30
0
41
1
10
-1.7
20
-2.58377729734613
30
0
0
SPLINE
5
143
100
AcDbEntity
8
1
62
256
6
ByLayer
370
18
48
1
60
0
100
AcDbSpline
70
4
71
3
72
8
73
4
40
0
40
0
40
0
40
0
40
1
40
1
40
1
40
1
41
1
10
-1.30710678118655
20
-3.62853202212773
30
0
41
1
10
-1.37356940710868
20
-3.29172262772087
30
0
41
1
10
-1.43720046286555
20
-2.94804131885212
30
0
41
1
10
-1.49503997793928
20
-2.59572866974992
30
0
0
SPLINE
5
144
100
AcDbEntity
8
1
62
256
6
ByLayer
370
18
48
1
60
0
100
AcDbSpline
70
4
71
3
72
8
73
4
40
0
40
0
40
0
40
0
40
1
40
1
40
1
40
1
41
1
10
-1.49503997793928
20
2.59572959682799
30
0
41
1
10
-1.4372004972023
20
2.94804273884375
30
0
41
1
10
-1.37356947571646
20
3.29172452904805
30
0
41
1
10
-1.30710678118655
20
3.62853433720642
30
0
0
SPLINE
5
145
100
AcDbEntity
8
1
62
256
6
ByLayer
370
18
48
1
60
0
100
AcDbSpline
70
4
71
3
72
38
73
34
40
0
40
0
40
0
40
0
40
0.250000000000004
40
0.250000000000004
40
0.375000000000005
40
0.375000000000005
40
0.500000000000007
40
0.500000000000007
40
0.625000000000008
40
0.625000000000008
40
0.687500000000007
40
0.687500000000007
40
0.750000000000005
40
0.750000000000005
40
0.812500000000004
40
0.812500000000004
40
0.843750000000003
40
0.843750000000003
40
0.875000000000002
40
0.875000000000002
40
0.906250000000001
40
0.906250000000001
40
0.921875000000001
40
0.921875000000001
40
0.937500000000001
40
0.937500000000001
40
0.953125000000001
40
0.953125000000001
40
0.96875
40
0.96875
40
0.984375
40
0.984375
40
1
40
1
40
1
40
1
41
1
10
-0.199999999999989
20
-5.67845150388044
30
0
41
1
10
-0.200325582586999
20
-5.61546983788409
30
0
41
1
10
-0.201889292856521
20
-5.55215860520599
30
0
41
1
10
-0.206944102193148
20
-5.45662122324208
30
0
41
1
10
-0.209086134712749
20
-5.42467998241563
30
0
41
1
10
-0.214571990690132
20
-5.36058541153008
30
0
41
1
10
-0.217912063159474
20
-5.3284110202664
30
0
41
1
10
-0.226295439929686
20
-5.26391096453324
30
0
41
1
10
-0.231309806283861
20
-5.23164989232507
30
0
41
1
10
-0.240869472299124
20
-5.18329434587591
30
0
41
1
10
-0.244408671813716
20
-5.16715112267377
30
0
41
1
10
-0.252415474862204
20
-5.13507348953752
30
0
41
1
10
-0.25687294127701
20
-5.11914471876437
30
0
41
1
10
-0.267174521636747
20
-5.08763962812947
30
0
41
1
10
-0.272989810764841
20
-5.07205528847362
30
0
41
1
10
-0.283588617015113
20
-5.04917503165893
30
0
41
1
10
-0.287438460223086
20
-5.04163217306564
30
0
41
1
10
-0.296146757250483
20
-5.02681840777248
30
0
41
1
10
-0.301009391385094
20
-5.01954154516272
30
0
41
1
10
-0.31208522105814
20
-5.00607580183947
30
0
41
1
10
-0.318315705386453
20
-4.99984728403027
30
0
41
1
10
-0.329074985882386
20
-4.99241446107368
30
0
41
1
10
-0.332955447377685
20
-4.99024185405628
30
0
41
1
10
-0.340970311888157
20
-4.98696063906212
30
0
41
1
10
-0.345215229645106
20
-4.98581465317153
30
0
41
1
10
-0.353680105341994
20
-4.98475614855752
30
0
41
1
10
-0.357908257094152
20
-4.98482371680839
30
0
41
1
10
-0.36623710796195
20
-4.98603634171386
30
0
41
1
10
-0.370199866878068
20
-4.98715038455433
30
0
41
1
10
-0.377826935748601
20
-4.99013013351893
30
0
41
1
10
-0.381503554973733
20
-4.99201030025037
30
0
41
1
10
-0.388451589186047
20
-4.99624657017219
30
0
41
1
10
-0.391748910595936
20
-4.99861131394735
30
0
41
1
10
-0.394913799807426
20
-5.0011605625827
30
0
0
SPLINE
5
146
100
AcDbEntity
8
1
62
256
6
ByLayer
370
18
48
1
60
0
100
AcDbSpline
70
4
71
3
72
40
73
36
40
0
40
0
40
0
40
0
40
0.0156249999999999
40
0.0156249999999999
40
0.0312499999999999
40
0.0312499999999999
40
0.0468749999999998
40
0.0468749999999998
40
0.0624999999999997
40
0.0624999999999997
40
0.0781249999999996
40
0.0781249999999996
40
0.0937499999999996
40
0.0937499999999996
40
0.109375
40
0.109375
40
0.124999999999999
40
0.124999999999999
40
0.15625
40
0.15625
40
0.187500000000001
40
0.187500000000001
40
0.250000000000002
40
0.250000000000002
40
0.312500000000002
40
0.312500000000002
40
0.375000000000002
40
0.375000000000002
40
0.500000000000003
40
0.500000000000003
40
0.625000000000002
40
0.625000000000002
40
0.750000000000002
40
0.750000000000002
40
1
40
1
40
1
40
1
41
1
10
-0.394913799811292
20
-13.8446596982822
30
0
41
1
10
-0.391753842527152
20
-13.8448423969163
30
0
41
1
10
-0.388464315595599
20
-13.8450955240371
30
0
41
1
10
-0.381541736392848
20
-13.8457899488977
30
0
41
1
10
-0.377877027729255
20
-13.8462356418831
30
0
41
1
10
-0.370235109341735
20
-13.8473680380174
30
0
41
1
10
-0.366278137943937
20
-13.8480502152413
30
0
41
1
10
-0.35800639249598
20
-13.8497192387353
30
0
41
1
10
-0.353733594241362
20
-13.8507022641717
30
0
41
1
10
-0.345291253771677
20
-13.8529042812469
30
0
41
1
10
-0.341039973310558
20
-13.8541465128493
30
0
41
1
10
-0.333021571763879
20
-13.8567295936368
30
0
41
1
10
-0.329149016141258
20
-13.858101654615
30
0
41
1
10
-0.321960461861977
20
-13.8608465411072
30
0
41
1
10
-0.318622944145005
20
-13.8622234641578
30
0
41
1
10
-0.312322841306013
20
-13.8649804039333
30
0
41
1
10
-0.309355911672185
20
-13.866364075454
30
0
41
1
10
-0.301081039190621
20
-13.870417714082
30
0
41
1
10
-0.296293809253314
20
-13.8730299294695
30
0
41
1
10
-0.287566520738551
20
-13.8781327420571
30
0
41
1
10
-0.2836379135897
20
-13.8806243248759
30
0
41
1
10
-0.272924030069333
20
-13.8878208927885
30
0
41
1
10
-0.267075773720649
20
-13.8923152006562
30
0
41
1
10
-0.25672980210976
20
-13.9009261566768
30
0
41
1
10
-0.252263586587134
20
-13.9050370743235
30
0
41
1
10
-0.244249097570219
20
-13.9129633802222
30
0
41
1
10
-0.240704867227123
20
-13.916782127484
30
0
41
1
10
-0.231153161037923
20
-13.9277833881154
30
0
41
1
10
-0.226167999261975
20
-13.9345502713768
30
0
41
1
10
-0.217842040597986
20
-13.9472498215878
30
0
41
1
10
-0.214523379010956
20
-13.9531770452386
30
0
41
1
10
-0.209063760504847
20
-13.9643331642487
30
0
41
1
10
-0.206929064368978
20
-13.9695604951635
30
0
41
1
10
-0.201888899753499
20
-13.9843210157469
30
0
41
1
10
-0.200325484931824
20
-13.9929389755075
30
0
41
1
10
-0.199999999999989
20
-14.0005308360297
30
0
0
SPLINE
5
147
100
AcDbEntity
8
1
62
256
6
ByLayer
370
18
48
1
60
0
100
AcDbSpline
70
4
71
3
72
38
73
34
40
0
40
0
40
0
40
0
40
0.249999999999999
40
0.249999999999999
40
0.374999999999998
40
0.374999999999998
40
0.499999999999996
40
0.499999999999996
40
0.624999999999995
40
0.624999999999995
40
0.687499999999996
40
0.687499999999996
40
0.749999999999996
40
0.749999999999996
40
0.812499999999997
40
0.812499999999997
40
0.843749999999998
40
0.843749999999998
40
0.874999999999999
40
0.874999999999999
40
0.90625
40
0.90625
40
0.921875
40
0.921875
40
0.9375
40
0.9375
40
0.953125
40
0.953125
40
0.96875
40
0.96875
40
0.984375
40
0.984375
40
1
40
1
40
1
40
1
41
1
10
-0.199999999999989
20
14.0005306290775
30
0
41
1
10
-0.200325526921631
20
13.9929377840209
30
0
41
1
10
-0.201888714477093
20
13.9843134154885
30
0
41
1
10
-0.206943565198628
20
13.9695217949656
30
0
41
1
10
-0.209085750971383
20
13.964280444998
30
0
41
1
10
-0.214572317075493
20
13.9530845047233
30
0
41
1
10
-0.217912944663482
20
13.947127348993
30
0
41
1
10
-0.226297832831591
20
13.9343664914098
30
0
41
1
10
-0.231313142997919
20
13.9275805879124
30
0
41
1
10
-0.240874255815328
20
13.9165963734791
30
0
41
1
10
-0.244413939321618
20
13.9127918287045
30
0
41
1
10
-0.2524216589118
20
13.9048892296203
30
0
41
1
10
-0.256879537942382
20
13.9007947938235
30
0
41
1
10
-0.267181679795755
20
13.8922335922221
30
0
41
1
10
-0.272997114041232
20
13.887771829979
30
0
41
1
10
-0.283595780474968
20
13.8806523483052
30
0
41
1
10
-0.287445517218686
20
13.8782073044309
30
0
41
1
10
-0.296153419957164
20
13.8731079755536
30
0
41
1
10
-0.301015966388775
20
13.8704509077418
30
0
41
1
10
-0.312091372528243
20
13.8650224034849
30
0
41
1
10
-0.318321797663032
20
13.8622381003803
30
0
41
1
10
-0.329080600695079
20
13.8581264595614
30
0
41
1
10
-0.332960961810898
20
13.8567502285021
30
0
41
1
10
-0.340975528995898
20
13.854165851519
30
0
41
1
10
-0.345220189226808
20
13.8529238754024
30
0
41
1
10
-0.353684635700688
20
13.8507136617023
30
0
41
1
10
-0.357912392007819
20
13.849739303977
30
0
41
1
10
-0.366240526544658
20
13.8480563938372
30
0
41
1
10
-0.37020286020072
20
13.8473733313911
30
0
41
1
10
-0.377829013893802
20
13.846241915681
30
0
41
1
10
-0.381505168769735
20
13.8457938151623
30
0
41
1
10
-0.388452375608779
20
13.8450961903932
30
0
41
1
10
-0.391749296202079
20
13.844842490927
30
0
41
1
10
-0.394913799814617
20
13.8446595289409
30
0
0
SPLINE
5
148
100
AcDbEntity
8
1
62
256
6
ByLayer
370
18
48
1
60
0
100
AcDbSpline
70
4
71
3
72
40
73
36
40
0
40
0
40
0
40
0
40
0.015625000000001
40
0.015625000000001
40
0.031250000000002
40
0.031250000000002
40
0.0468750000000029
40
0.0468750000000029
40
0.0625000000000039
40
0.0625000000000039
40
0.0781250000000049
40
0.0781250000000049
40
0.0937500000000059
40
0.0937500000000059
40
0.109375000000007
40
0.109375000000007
40
0.125000000000008
40
0.125000000000008
40
0.156250000000007
40
0.156250000000007
40
0.187500000000007
40
0.187500000000007
40
0.250000000000008
40
0.250000000000008
40
0.312500000000008
40
0.312500000000008
40
0.375000000000009
40
0.375000000000009
40
0.500000000000007
40
0.500000000000007
40
0.625000000000005
40
0.625000000000005
40
0.750000000000003
40
0.750000000000003
40
1
40
1
40
1
40
1
41
1
10
-0.394913799811292
20
5.00116108217654
30
0
41
1
10
-0.391753438827749
20
4.99861548354417
30
0
41
1
10
-0.388463488029373
20
4.99625601274579
30
0
41
1
10
-0.381540018186683
20
4.99203141004631
30
0
41
1
10
-0.377874829705576
20
4.99015247985739
30
0
41
1
10
-0.370231991198097
20
4.98716039898099
30
0
41
1
10
-0.366274570071312
20
4.98604804966439
30
0
41
1
10
-0.358001975899782
20
4.98483227377295
30
0
41
1
10
-0.353728848469132
20
4.98475618750666
30
0
41
1
10
-0.34528594899416
20
4.98580083402231
30
0
41
1
10
-0.341034463404867
20
4.9869408469134
30
0
41
1
10
-0.33301572502674
20
4.99021187411824
30
0
41
1
10
-0.329143040072381
20
4.99237354459819
30
0
41
1
10
-0.321954234540129
20
4.99732874567786
30
0
41
1
10
-0.31861660499726
20
5.00011766639523
30
0
41
1
10
-0.31231630697954
20
5.00615011165595
30
0
41
1
10
-0.309349269610607
20
5.00940629678658
30
0
41
1
10
-0.301074093098151
20
5.01945615581226
30
0
41
1
10
-0.29628672569271
20
5.0266015359532
30
0
41
1
10
-0.287559273211883
20
5.04140704567575
30
0
41
1
10
-0.283630596953657
20
5.0490854463963
30
0
41
1
10
-0.272916655032219
20
5.0722125984079
30
0
41
1
10
-0.267068575155236
20
5.08792546636624
30
0
41
1
10
-0.256723214245568
20
5.11964268012935
30
0
41
1
10
-0.252257427302908
20
5.13565463294319
30
0
41
1
10
-0.244243877237153
20
5.16786639775955
30
0
41
1
10
-0.240700146478559
20
5.1840907743358
30
0
41
1
10
-0.23114988012145
20
5.23258507573846
30
0
41
1
10
-0.226165642229034
20
5.2648064330395
30
0
41
1
10
-0.217841153282251
20
5.32906305985318
30
0
41
1
10
-0.214523044028141
20
5.36109790788316
30
0
41
1
10
-0.209064130076882
20
5.42499801712523
30
0
41
1
10
-0.206929588208141
20
5.45686315009959
30
0
41
1
10
-0.201889470916598
20
5.55222154865803
30
0
41
1
10
-0.200325540023954
20
5.61547854140406
30
0
41
1
10
-0.199999999999989
20
5.6784520164293
30
0
0
SPLINE
5
149
100
AcDbEntity
8
1
62
256
6
ByLayer
370
18
48
1
60
0
100
AcDbSpline
70
4
71
3
72
51
73
47
40
0
40
0
40
0
40
0
40
0.125
40
0.125
40
0.249999999999999
40
0.249999999999999
40
0.374999999999998
40
0.374999999999998
40
0.437499999999998
40
0.437499999999998
40
0.499999999999999
40
0.499999999999999
40
0.562499999999999
40
0.562499999999999
40
0.624999999999999
40
0.624999999999999
40
0.687499999999999
40
0.687499999999999
40
0.749999999999999
40
0.749999999999999
40
0.78125
40
0.78125
40
0.8125
40
0.8125
40
0.828124999999999
40
0.828124999999999
40
0.843749999999999
40
0.843749999999999
40
0.859374999999999
40
0.859374999999999
40
0.867187499999999
40
0.867187499999999
40
0.874999999999999
40
0.874999999999999
40
0.90625
40
0.90625
40
0.9140625
40
0.9140625
40
0.921875
40
0.9375
40
0.9375
40
0.953125
40
0.953125
40
0.96875
40
0.96875
40
1
40
1
40
1
40
1
41
1
10
-1.30710678118655
20
3.62853433720645
30
0
41
1
10
-1.29188624779786
20
3.70566670397201
30
0
41
1
10
-1.27561460874023
20
3.78218340304136
30
0
41
1
10
-1.24056171778477
20
3.9339536596444
30
0
41
1
10
-1.22178607754876
20
4.0092085502001
30
0
41
1
10
-1.18109081197508
20
4.1583703791232
30
0
41
1
10
-1.15918165202706
20
4.23227919141885
30
0
41
1
10
-1.12316712175576
20
4.34200882575533
30
0
41
1
10
-1.11062583028021
20
4.37841416747673
30
0
41
1
10
-1.08433177378575
20
4.4506493409462
30
0
41
1
10
-1.07057669597754
20
4.48649265752218
30
0
41
1
10
-1.04157111619293
20
4.55755616008759
30
0
41
1
10
-1.02632348400363
20
4.59277716864142
30
0
41
1
10
-0.993913112071084
20
4.66248133856587
30
0
41
1
10
-0.976740804435963
20
4.69698582221125
30
0
41
1
10
-0.940052913520788
20
4.76461628090829
30
0
41
1
10
-0.920529370906081
20
4.79779601403041
30
0
41
1
10
-0.878053724810229
20
4.86240606869328
30
0
41
1
10
-0.855145617589443
20
4.89385654551648
30
0
41
1
10
-0.81654709362823
20
4.93896729549496
30
0
41
1
10
-0.802914827069742
20
4.95369126459417
30
0
41
1
10
-0.774172797668427
20
4.98165817730296
30
0
41
1
10
-0.759028353676314
20
4.99496074537163
30
0
41
1
10
-0.734670547069527
20
5.01348585979886
30
0
41
1
10
-0.726275289417998
20
5.01942067172476
30
0
41
1
10
-0.708803295444653
20
5.03069978836885
30
0
41
1
10
-0.699699693093578
20
5.0360533513589
30
0
41
1
10
-0.681034016074335
20
5.04581904881579
30
0
41
1
10
-0.671435209911522
20
5.05025831011366
30
0
41
1
10
-0.656561241457752
20
5.05612553121156
30
0
41
1
10
-0.651523728611267
20
5.05794894419779
30
0
41
1
10
-0.641273399804732
20
5.06130432437081
30
0
41
1
10
-0.636038898961743
20
5.06284104440826
30
0
41
1
10
-0.609788395540534
20
5.06961980113229
30
0
41
1
10
-0.588380278389167
20
5.07223202598755
30
0
41
1
10
-0.561044214178423
20
5.0715296778481
30
0
41
1
10
-0.555539481232216
20
5.07118703454174
30
0
41
1
10
-0.544698986354916
20
5.07012184570777
30
0
41
1
10
-0.528606239136934
20
5.06795442924033
30
0
41
1
10
-0.512988129699522
20
5.06417699720825
30
0
41
1
10
-0.492542658095488
20
5.05785401853598
30
0
41
1
10
-0.482560235211111
20
5.05405619211425
30
0
41
1
10
-0.463438908679222
20
5.04557564745028
30
0
41
1
10
-0.45422581270239
20
5.04087055985525
30
0
41
1
10
-0.427444682539459
20
5.02560401094567
30
0
41
1
10
-0.410665386495026
20
5.01384862569722
30
0
41
1
10
-0.394913799811292
20
5.00116108217659
30
0
0
SPLINE
5
14A
100
AcDbEntity
8
1
62
256
6
ByLayer
370
18
48
1
60
0
100
AcDbSpline
70
4
71
3
72
51
73
47
40
0
40
0
40
0
40
0
40
0.0312500000000001
40
0.0312500000000001
40
0.0468749999999999
40
0.0468749999999999
40
0.0624999999999996
40
0.0781249999999994
40
0.0781249999999994
40
0.0859374999999992
40
0.0859374999999992
40
0.0937499999999991
40
0.109374999999999
40
0.109374999999999
40
0.117187499999999
40
0.117187499999999
40
0.124999999999999
40
0.140624999999998
40
0.140624999999998
40
0.156249999999998
40
0.156249999999998
40
0.187499999999997
40
0.187499999999997
40
0.203124999999997
40
0.203124999999997
40
0.218749999999997
40
0.218749999999997
40
0.249999999999997
40
0.249999999999997
40
0.312499999999997
40
0.312499999999997
40
0.343749999999997
40
0.343749999999997
40
0.374999999999997
40
0.374999999999997
40
0.437499999999998
40
0.437499999999998
40
0.499999999999999
40
0.499999999999999
40
0.624999999999999
40
0.624999999999999
40
0.749999999999999
40
0.749999999999999
40
0.875
40
0.875
40
1
40
1
40
1
40
1
41
1
10
-0.394913799810496
20
-5.00116056255814
30
0
41
1
10
-0.410735023483483
20
-5.01390421017646
30
0
41
1
10
-0.427464692677432
20
-5.02563245237855
30
0
41
1
10
-0.45453441672953
20
-5.04103707702356
30
0
41
1
10
-0.463947967840653
20
-5.04582591451216
30
0
41
1
10
-0.483228911030722
20
-5.05432574420999
30
0
41
1
10
-0.50297983481218
20
-5.06177117057427
30
0
41
1
10
-0.523814898152125
20
-5.06678978581303
30
0
41
1
10
-0.539919309159188
20
-5.06948506381411
30
0
41
1
10
-0.545392549087381
20
-5.07020599311227
30
0
41
1
10
-0.556304392511265
20
-5.07124292633216
30
0
41
1
10
-0.572669010460402
20
-5.07220433725334
30
0
41
1
10
-0.589024240534229
20
-5.07139043996949
30
0
41
1
10
-0.605373228252517
20
-5.06939770112723
30
0
41
1
10
-0.610843200204982
20
-5.06853179751513
30
0
41
1
10
-0.621612371118459
20
-5.06644388397413
30
0
41
1
10
-0.63755105348244
20
-5.06277719842694
30
0
41
1
10
-0.652894042393314
20
-5.05762851177528
30
0
41
1
10
-0.672891603682132
20
-5.04961808259611
30
0
41
1
10
-0.68262925493238
20
-5.04504465543113
30
0
41
1
10
-0.710603681718226
20
-5.03020967742904
30
0
41
1
10
-0.727880800919934
20
-5.01875181169186
30
0
41
1
10
-0.752392350049945
20
-4.999948849948
30
0
41
1
10
-0.760349771776134
20
-4.99338317091983
30
0
41
1
10
-0.775696659387535
20
-4.9799241664696
30
0
41
1
10
-0.783093038222916
20
-4.97302905184745
30
0
41
1
10
-0.804596803075015
20
-4.95193103239396
30
0
41
1
10
-0.818026122235779
20
-4.93731968624948
30
0
41
1
10
-0.856343638951387
20
-4.89227865327604
30
0
41
1
10
-0.879296662789443
20
-4.86066233047501
30
0
41
1
10
-0.911330345780556
20
-4.81170689277053
30
0
41
1
10
-0.921612206817855
20
-4.79509560720325
30
0
41
1
10
-0.941360422010973
20
-4.76165452150423
30
0
41
1
10
-0.950840081220861
20
-4.74480636515824
30
0
41
1
10
-0.978301889811434
20
-4.69393335632202
30
0
41
1
10
-0.995317234370305
20
-4.65958274004282
30
0
41
1
10
-1.02746285247525
20
-4.59019333091888
30
0
41
1
10
-1.04258655138119
20
-4.55515277213792
30
0
41
1
10
-1.08574263925135
20
-4.44915525032008
30
0
41
1
10
-1.11159177403968
20
-4.37733091027962
30
0
41
1
10
-1.15931218721892
20
-4.23182333008765
30
0
41
1
10
-1.18115763731655
20
-4.15813319978361
30
0
41
1
10
-1.22181063294732
20
-4.00910669461106
30
0
41
1
10
-1.24060841320622
20
-3.93375870314148
30
0
41
1
10
-1.27564950878531
20
-3.7820205106818
30
0
41
1
10
-1.29190613640859
20
-3.70556358522939
30
0
41
1
10
-1.30710678118751
20
-3.62853202212813
30
0
0
SPLINE
5
14B
100
AcDbEntity
8
1
62
256
6
ByLayer
370
18
48
1
60
0
100
AcDbSpline
70
4
71
3
72
12
73
8
40
0
40
0
40
0
40
0
40
0.25
40
0.25
40
0.5
40
0.5
40
1
40
1
40
1
40
1
41
1
10
20.2792076144253
20
15.2056238711761
30
0
41
1
10
20.2399171241035
20
15.1108507807956
30
0
41
1
10
20.2063099933643
20
15.0144337250719
30
0
41
1
10
20.149353496515
20
14.8183437531428
30
0
41
1
10
20.1260071479206
20
14.7186706787551
30
0
41
1
10
20.0701178955142
20
14.4147856829344
30
0
41
1
10
20.0516499545922
20
14.2057148580444
30
0
41
1
10
20.0498082879295
20
13.9901189553047
30
0
0
SPLINE
5
14C
100
AcDbEntity
8
1
62
256
6
ByLayer
370
18
48
1
60
0
100
AcDbSpline
70
4
71
3
72
14
73
10
40
0
40
0
40
0
40
0
40
0.25
40
0.25
40
0.5
40
0.5
40
0.75
40
0.75
40
1
40
1
40
1
40
1
41
1
10
20.2792076144253
20
-17.558853827009
30
0
41
1
10
20.2248207273277
20
-17.6991686434943
30
0
41
1
10
20.181598416453
20
-17.8339647655735
30
0
41
1
10
20.1119545145006
20
-18.0922471549453
30
0
41
1
10
20.0855587377242
20
-18.2157350582379
30
0
41
1
10
20.0454950474156
20
-18.451169664109
30
0
41
1
10
20.0318405134844
20
-18.5631172721933
30
0
41
1
10
20.0139963617443
20
-18.7752393666652
30
0
41
1
10
20.009814109548
20
-18.8754144346746
30
0
41
1
10
20.0089923723211
20
-18.9695761942701
30
0
0
SPLINE
5
14D
100
AcDbEntity
8
1
62
256
6
ByLayer
370
18
48
1
60
0
100
AcDbSpline
70
4
71
3
72
12
73
8
40
0
40
0
40
0
40
0
40
0.5
40
0.5
40
0.75
40
0.75
40
1
40
1
40
1
40
1
41
1
10
20.0498082879295
20
-13.9901189553047
30
0
41
1
10
20.0516499545922
20
-14.2057148580444
30
0
41
1
10
20.0701178955142
20
-14.4147856829344
30
0
41
1
10
20.1260071479206
20
-14.7186706787551
30
0
41
1
10
20.149353496515
20
-14.8183437531428
30
0
41
1
10
20.2063099933643
20
-15.0144337250719
30
0
41
1
10
20.2399171241035
20
-15.1108507807956
30
0
41
1
10
20.2792076144253
20
-15.2056238711761
30
0
0
SPLINE
5
14E
100
AcDbEntity
8
1
62
256
6
ByLayer
370
18
48
1
60
0
100
AcDbSpline
70
4
71
3
72
25
73
21
40
0
40
0
40
0
40
0
40
0.0625000000000043
40
0.0625000000000043
40
0.125000000000009
40
0.125000000000009
40
0.250000000000007
40
0.250000000000007
40
0.31250000000001
40
0.31250000000001
40
0.375000000000014
40
0.437500000000017
40
0.437500000000017
40
0.500000000000021
40
0.500000000000021
40
0.625000000000017
40
0.625000000000017
40
0.750000000000014
40
0.750000000000014
40
1
40
1
40
1
40
1
41
1
10
9.07679491924327
20
19.1222825906925
30
0
41
1
10
9.08618793610023
20
19.1222825906925
30
0
41
1
10
9.09541273714802
20
19.1220079254874
30
0
41
1
10
9.11355518087368
20
19.1209563802606
30
0
41
1
10
9.12253667740623
20
19.1201714845572
30
0
41
1
10
9.14859952398743
20
19.1171586755843
30
0
41
1
10
9.16442417341895
20
19.1143521510704
30
0
41
1
10
9.1865295196101
20
19.109288210346
30
0
41
1
10
9.19352784170755
20
19.1074753109817
30
0
41
1
10
9.20680755935996
20
19.1036766400565
30
0
41
1
10
9.21941536169066
20
19.0996940974827
30
0
41
1
10
9.23090181997068
20
19.095399659777
30
0
41
1
10
9.24190585527097
20
19.0909686533589
30
0
41
1
10
9.24718147390908
20
19.0886774015103
30
0
41
1
10
9.26222766550282
20
19.0816874304591
30
0
41
1
10
9.27124506170023
20
19.0768715139989
30
0
41
1
10
9.28776218432895
20
19.0669920754349
30
0
41
1
10
9.29525647265243
20
19.0619278372253
30
0
41
1
10
9.31588453947575
20
19.0464153092313
30
0
41
1
10
9.32720842156829
20
19.0356185274184
30
0
41
1
10
9.33660254037861
20
19.0245744101322
30
0
0
SPLINE
5
14F
100
AcDbEntity
8
1
62
256
6
ByLayer
370
18
48
1
60
0
100
AcDbSpline
70
4
71
3
72
26
73
22
40
0
40
0
40
0
40
0
40
0.250000000000001
40
0.250000000000001
40
0.375000000000001
40
0.375000000000001
40
0.500000000000002
40
0.500000000000002
40
0.625000000000002
40
0.625000000000002
40
0.687500000000002
40
0.687500000000002
40
0.750000000000001
40
0.750000000000001
40
0.812500000000001
40
0.812500000000001
40
0.875000000000001
40
0.875000000000001
40
0.9375
40
0.9375
40
1
40
1
40
1
40
1
41
1
10
9.33660254037858
20
6.16973001948574
30
0
41
1
10
9.32721186043494
20
6.13568757087467
30
0
41
1
10
9.31597445228977
20
6.10231901184949
30
0
41
1
10
9.29538640224743
20
6.05364979751815
30
0
41
1
10
9.28789550729911
20
6.0376597182682
30
0
41
1
10
9.27134184136725
20
6.00626721095978
30
0
41
1
10
9.26223393369835
20
5.99079069805944
30
0
41
1
10
9.24217730798267
20
5.96102885758611
30
0
41
1
10
9.23126332140683
20
5.94676259304853
30
0
41
1
10
9.21306307463749
20
5.92663822853584
30
0
41
1
10
9.2066789031476
20
5.92014175764382
30
0
41
1
10
9.19339083915176
20
5.90787848896434
30
0
41
1
10
9.18646533697236
20
5.90208491578252
30
0
41
1
10
9.17194694863738
20
5.89130031342685
30
0
41
1
10
9.16435507239592
20
5.88630806692444
30
0
41
1
10
9.1483479403048
20
5.87731470491121
30
0
41
1
10
9.13991769670079
20
5.8733246368358
30
0
41
1
10
9.12269397006511
20
5.86682965857773
30
0
41
1
10
9.11383421352809
20
5.86428190495297
30
0
41
1
10
9.09554387437268
20
5.86079831910379
30
0
41
1
10
9.0861755275335
20
5.85988980456941
30
0
41
1
10
9.07679491924327
20
5.85988980456941
30
0
0
SPLINE
5
150
100
AcDbEntity
8
1
62
256
6
ByLayer
370
18
48
1
60
0
100
AcDbSpline
70
4
71
3
72
25
73
21
40
0
40
0
40
0
40
0
40
0.0625000000000024
40
0.0625000000000024
40
0.125000000000005
40
0.125000000000005
40
0.250000000000015
40
0.250000000000015
40
0.312500000000016
40
0.312500000000016
40
0.375000000000017
40
0.437500000000018
40
0.437500000000018
40
0.500000000000019
40
0.500000000000019
40
0.625000000000011
40
0.625000000000011
40
0.750000000000003
40
0.750000000000003
40
1
40
1
40
1
40
1
41
1
10
6.92320508075687
20
5.85988980456938
30
0
41
1
10
6.91381206389988
20
5.85988980456938
30
0
41
1
10
6.90458726285212
20
5.8607863051715
30
0
41
1
10
6.88644481912644
20
5.8642160875483
30
0
41
1
10
6.87746332259391
20
5.86677544388641
30
0
41
1
10
6.85140047601269
20
5.87658838136372
30
0
41
1
10
6.83557582658116
20
5.88571770958595
30
0
41
1
10
6.81347048039001
20
5.90212985895329
30
0
41
1
10
6.80647215829256
20
5.90799699523123
30
0
41
1
10
6.79319244064015
20
5.9202685823868
30
0
41
1
10
6.78058463830945
20
5.93311315635253
30
0
41
1
10
6.76909818002943
20
5.9469124104387
30
0
41
1
10
6.75809414472914
20
5.96112164449841
30
0
41
1
10
6.75281852609103
20
5.96845506553063
30
0
41
1
10
6.73777233449729
20
5.99078025293949
30
0
41
1
10
6.72875493829989
20
6.00610043240181
30
0
41
1
10
6.71223781567116
20
6.03739036016586
30
0
41
1
10
6.70474352734769
20
6.05336249030208
30
0
41
1
10
6.68411546052437
20
6.10206728171741
30
0
41
1
10
6.67279157843183
20
6.13567510453117
30
0
41
1
10
6.66339745962154
20
6.16973001948571
30
0
0
SPLINE
5
151
100
AcDbEntity
8
1
62
256
6
ByLayer
370
18
48
1
60
0
100
AcDbSpline
70
4
71
3
72
26
73
22
40
0
40
0
40
0
40
0
40
0.249999999999996
40
0.249999999999996
40
0.374999999999998
40
0.374999999999998
40
0.499999999999999
40
0.499999999999999
40
0.625
40
0.625
40
0.6875
40
0.6875
40
0.75
40
0.75
40
0.8125
40
0.8125
40
0.875
40
0.875
40
0.9375
40
0.9375
40
1
40
1
40
1
40
1
41
1
10
6.66339745962154
20
19.0245744101322
30
0
41
1
10
6.67278813956517
20
19.0356144845435
30
0
41
1
10
6.68402554771032
20
19.0463346141653
30
0
41
1
10
6.70461359775268
20
19.061836585657
30
0
41
1
10
6.712104492701
20
19.0669068299453
30
0
41
1
10
6.72865815863287
20
19.07681905156
30
0
41
1
10
6.73776606630176
20
19.0816841489935
30
0
41
1
10
6.75782269201741
20
19.0910025433169
30
0
41
1
10
6.76873667859329
20
19.0954500347066
30
0
41
1
10
6.78693692536262
20
19.1017017213015
30
0
41
1
10
6.79332109685251
20
19.1037159413756
30
0
41
1
10
6.80660916084835
20
19.1075119510364
30
0
41
1
10
6.81353466302775
20
19.1093020671091
30
0
41
1
10
6.82805305136273
20
19.1126296584783
30
0
41
1
10
6.83564492760419
20
19.1141675067423
30
0
41
1
10
6.85165205969534
20
19.1169347436763
30
0
41
1
10
6.86008230329932
20
19.1181607182976
30
0
41
1
10
6.877306029935
20
19.1201548450203
30
0
41
1
10
6.88616578647202
20
19.1209361972228
30
0
41
1
10
6.90445612562743
20
19.1220042459418
30
0
41
1
10
6.91382447246664
20
19.1222825906926
30
0
41
1
10
6.92320508075687
20
19.1222825906926
30
0
0
SPLINE
5
152
100
AcDbEntity
8
1
62
256
6
ByLayer
370
18
48
1
60
0
100
AcDbSpline
70
4
71
3
72
25
73
21
40
0
40
0
40
0
40
0
40
0.0625000000000003
40
0.0625000000000003
40
0.125000000000001
40
0.125000000000001
40
0.249999999999999
40
0.249999999999999
40
0.3125
40
0.3125
40
0.375000000000001
40
0.437500000000002
40
0.437500000000002
40
0.500000000000003
40
0.500000000000003
40
0.624999999999998
40
0.624999999999998
40
0.749999999999994
40
0.749999999999994
40
1
40
1
40
1
40
1
41
1
10
6.92320508075687
20
-19.1222825906925
30
0
41
1
10
6.91381206389988
20
-19.1222825906925
30
0
41
1
10
6.90458726285212
20
-19.1220079254874
30
0
41
1
10
6.88644481912644
20
-19.1209563802606
30
0
41
1
10
6.87746332259388
20
-19.1201714845572
30
0
41
1
10
6.85140047601269
20
-19.1171586755844
30
0
41
1
10
6.83557582658119
20
-19.1143521510704
30
0
41
1
10
6.81347048039001
20
-19.109288210346
30
0
41
1
10
6.80647215829256
20
-19.1074753109818
30
0
41
1
10
6.79319244064015
20
-19.1036766400565
30
0
41
1
10
6.78058463830945
20
-19.0996940974827
30
0
41
1
10
6.76909818002946
20
-19.095399659777
30
0
41
1
10
6.75809414472914
20
-19.0909686533589
30
0
41
1
10
6.75281852609103
20
-19.0886774015103
30
0
41
1
10
6.73777233449729
20
-19.0816874304591
30
0
41
1
10
6.72875493829989
20
-19.0768715139989
30
0
41
1
10
6.71223781567116
20
-19.0669920754349
30
0
41
1
10
6.70474352734769
20
-19.0619278372253
30
0
41
1
10
6.68411546052437
20
-19.0464153092313
30
0
41
1
10
6.67279157843183
20
-19.0356185274184
30
0
41
1
10
6.66339745962154
20
-19.0245744101322
30
0
0
SPLINE
5
153
100
AcDbEntity
8
1
62
256
6
ByLayer
370
18
48
1
60
0
100
AcDbSpline
70
4
71
3
72
26
73
22
40
0
40
0
40
0
40
0
40
0.250000000000006
40
0.250000000000006
40
0.375000000000006
40
0.375000000000006
40
0.500000000000005
40
0.500000000000005
40
0.625000000000005
40
0.625000000000005
40
0.687500000000004
40
0.687500000000004
40
0.750000000000003
40
0.750000000000003
40
0.812500000000002
40
0.812500000000002
40
0.875000000000002
40
0.875000000000002
40
0.937500000000001
40
0.937500000000001
40
1
40
1
40
1
40
1
41
1
10
6.66339745962154
20
-6.16973001948571
30
0
41
1
10
6.67278813956517
20
-6.13568757087467
30
0
41
1
10
6.68402554771035
20
-6.10231901184949
30
0
41
1
10
6.70461359775271
20
-6.05364979751812
30
0
41
1
10
6.712104492701
20
-6.03765971826817
30
0
41
1
10
6.72865815863287
20
-6.00626721095975
30
0
41
1
10
6.73776606630176
20
-5.99079069805941
30
0
41
1
10
6.75782269201744
20
-5.96102885758609
30
0
41
1
10
6.76873667859329
20
-5.9467625930485
30
0
41
1
10
6.78693692536262
20
-5.92663822853581
30
0
41
1
10
6.79332109685251
20
-5.92014175764379
30
0
41
1
10
6.80660916084838
20
-5.90787848896431
30
0
41
1
10
6.81353466302775
20
-5.90208491578247
30
0
41
1
10
6.82805305136273
20
-5.8913003134268
30
0
41
1
10
6.83564492760419
20
-5.88630806692441
30
0
41
1
10
6.85165205969534
20
-5.87731470491119
30
0
41
1
10
6.86008230329932
20
-5.87332463683575
30
0
41
1
10
6.87730602993503
20
-5.86682965857767
30
0
41
1
10
6.88616578647202
20
-5.86428190495292
30
0
41
1
10
6.90445612562743
20
-5.86079831910374
30
0
41
1
10
6.91382447246664
20
-5.85988980456935
30
0
41
1
10
6.92320508075687
20
-5.85988980456935
30
0
0
SPLINE
5
154
100
AcDbEntity
8
1
62
256
6
ByLayer
370
18
48
1
60
0
100
AcDbSpline
70
4
71
3
72
25
73
21
40
0
40
0
40
0
40
0
40
0.0625000000000116
40
0.0625000000000116
40
0.125000000000023
40
0.125000000000023
40
0.250000000000038
40
0.250000000000038
40
0.312500000000039
40
0.312500000000039
40
0.37500000000004
40
0.437500000000041
40
0.437500000000041
40
0.500000000000042
40
0.500000000000042
40
0.625000000000033
40
0.625000000000033
40
0.750000000000024
40
0.750000000000024
40
1
40
1
40
1
40
1
41
1
10
9.07679491924327
20
-5.85988980456941
30
0
41
1
10
9.08618793610023
20
-5.85988980456943
30
0
41
1
10
9.09541273714802
20
-5.86078630517153
30
0
41
1
10
9.1135551808737
20
-5.8642160875483
30
0
41
1
10
9.12253667740623
20
-5.86677544388644
30
0
41
1
10
9.14859952398746
20
-5.87658838136372
30
0
41
1
10
9.16442417341895
20
-5.88571770958598
30
0
41
1
10
9.1865295196101
20
-5.90212985895334
30
0
41
1
10
9.19352784170758
20
-5.90799699523126
30
0
41
1
10
9.20680755935999
20
-5.92026858238683
30
0
41
1
10
9.2194147994463
20
-5.93311363814723
30
0
41
1
10
9.23090181997071
20
-5.94691241043876
30
0
41
1
10
9.241905855271
20
-5.96112164449843
30
0
41
1
10
9.24718147390911
20
-5.96845506553066
30
0
41
1
10
9.26222766550285
20
-5.99078025293954
30
0
41
1
10
9.27124506170026
20
-6.00610043240187
30
0
41
1
10
9.28776218432898
20
-6.03739036016592
30
0
41
1
10
9.29525647265245
20
-6.05336249030211
30
0
41
1
10
9.31588453947577
20
-6.10206728171747
30
0
41
1
10
9.32720842156843
20
-6.13567510453157
30
0
41
1
10
9.33660254037869
20
-6.16973001948611
30
0
0
SPLINE
5
155
100
AcDbEntity
8
1
62
256
6
ByLayer
370
18
48
1
60
0
100
AcDbSpline
70
4
71
3
72
26
73
22
40
0
40
0
40
0
40
0
40
0.250000000000012
40
0.250000000000012
40
0.375000000000013
40
0.375000000000013
40
0.500000000000013
40
0.500000000000013
40
0.625000000000014
40
0.625000000000014
40
0.687500000000011
40
0.687500000000011
40
0.750000000000009
40
0.750000000000009
40
0.812500000000007
40
0.812500000000007
40
0.875000000000005
40
0.875000000000005
40
0.937500000000002
40
0.937500000000002
40
1
40
1
40
1
40
1
41
1
10
9.33660254037869
20
-19.0245744101321
30
0
41
1
10
9.32721186043506
20
-19.0356144845434
30
0
41
1
10
9.31597445228982
20
-19.0463346141653
30
0
41
1
10
9.29538640224746
20
-19.061836585657
30
0
41
1
10
9.28789550729917
20
-19.0669068299453
30
0
41
1
10
9.27134184136727
20
-19.07681905156
30
0
41
1
10
9.26223393369838
20
-19.0816841489935
30
0
41
1
10
9.24217730798273
20
-19.0910025433169
30
0
41
1
10
9.23126332140686
20
-19.0954500347066
30
0
41
1
10
9.21306307463752
20
-19.1017017213015
30
0
41
1
10
9.20667890314763
20
-19.1037159413756
30
0
41
1
10
9.19339083915179
20
-19.1075119510364
30
0
41
1
10
9.18646533697239
20
-19.1093020671091
30
0
41
1
10
9.17194694863741
20
-19.1126296584783
30
0
41
1
10
9.16435507239595
20
-19.1141675067423
30
0
41
1
10
9.14834794030483
20
-19.1169347436763
30
0
41
1
10
9.13991769670082
20
-19.1181607182976
30
0
41
1
10
9.12269397006514
20
-19.1201548450203
30
0
41
1
10
9.11383421352812
20
-19.1209361972228
30
0
41
1
10
9.09554387437268
20
-19.1220042459417
30
0
41
1
10
9.0861755275335
20
-19.1222825906926
30
0
41
1
10
9.07679491924327
20
-19.1222825906926
30
0
0
SPLINE
5
156
100
AcDbEntity
8
1
62
256
6
ByLayer
370
18
48
1
60
0
100
AcDbSpline
70
4
71
3
72
26
73
22
40
0
40
0
40
0
40
0
40
0.249999999999918
40
0.249999999999918
40
0.312499999999896
40
0.312499999999896
40
0.374999999999875
40
0.374999999999875
40
0.499999999999864
40
0.499999999999864
40
0.562499999999874
40
0.562499999999874
40
0.624999999999884
40
0.624999999999884
40
0.749999999999946
40
0.749999999999946
40
0.812499999999967
40
0.812499999999967
40
0.874999999999987
40
0.874999999999987
40
1
40
1
40
1
40
1
41
1
10
39.5760954401444
20
17.3773556941896
30
0
41
1
10
39.6085770333491
20
17.3862984331895
30
0
41
1
10
39.6394636897319
20
17.4000300314774
30
0
41
1
10
39.6757985173219
20
17.4236823249074
30
0
41
1
10
39.6829774574242
20
17.4287681569633
30
0
41
1
10
39.6968593945606
20
17.4394646545601
30
0
41
1
10
39.703581594447
20
17.4450842646653
30
0
41
1
10
39.7230867263091
20
17.4627581603872
30
0
41
1
10
39.7352128086365
20
17.4756218796196
30
0
41
1
10
39.7519894067492
20
17.4966366088685
30
0
41
1
10
39.7573451171933
20
17.5039293531274
30
0
41
1
10
39.7675515660365
20
17.5191260502926
30
0
41
1
10
39.7723621129043
20
17.5269764930252
30
0
41
1
10
39.7857244929386
20
17.5509738908984
30
0
41
1
10
39.7932969040448
20
17.5676841640868
30
0
41
1
10
39.8025839798514
20
17.5938471533231
30
0
41
1
10
39.8053327315828
20
17.60275199364
30
0
41
1
10
39.810101694104
20
17.6209468939932
30
0
41
1
10
39.8121145255046
20
17.6302330647865
30
0
41
1
10
39.8169035837134
20
17.6580363868839
30
0
41
1
10
39.8185000000001
20
17.6767087104464
30
0
41
1
10
39.8185000000001
20
17.6955176637364
30
0
0
SPLINE
5
157
100
AcDbEntity
8
1
62
256
6
ByLayer
370
18
48
1
60
0
100
AcDbSpline
70
4
71
3
72
34
73
30
40
0
40
0
40
0
40
0
40
0.12500000000008
40
0.12500000000008
40
0.187500000000118
40
0.187500000000118
40
0.218750000000132
40
0.218750000000132
40
0.250000000000145
40
0.250000000000145
40
0.375000000000147
40
0.375000000000147
40
0.406250000000147
40
0.406250000000147
40
0.437500000000146
40
0.50000000000013
40
0.562500000000113
40
0.562500000000113
40
0.625000000000097
40
0.625000000000097
40
0.687500000000081
40
0.687500000000081
40
0.750000000000065
40
0.750000000000065
40
0.875000000000031
40
0.875000000000031
40
0.937500000000016
40
0.937500000000016
40
1
40
1
40
1
40
1
41
1
10
39.5760954401444
20
17.3773556941896
30
0
41
1
10
39.5271975525844
20
17.3638932681522
30
0
41
1
10
39.4796067266958
20
17.3459990116619
30
0
41
1
10
39.4100557864906
20
17.3120749562408
30
0
41
1
10
39.3871794008968
20
17.2995775175129
30
0
41
1
10
39.3533247225698
20
17.2788870855643
30
0
41
1
10
39.3420914112425
20
17.271648017276
30
0
41
1
10
39.3198994037253
20
17.2565628679531
30
0
41
1
10
39.3089760296461
20
17.248742659777
30
0
41
1
10
39.2552204348246
20
17.2082316732453
30
0
41
1
10
39.2149351448544
20
17.1713725067139
30
0
41
1
10
39.1682858555198
20
17.1188200059682
30
0
41
1
10
39.1591345739275
20
17.1079645115356
30
0
41
1
10
39.1415074414109
20
17.0859278961763
30
0
41
1
10
39.1159684487655
20
17.052262849206
30
0
41
1
10
39.0778592581928
20
16.9931350518829
30
0
41
1
10
39.0521554089177
20
16.9425877959599
30
0
41
1
10
39.0289394627027
20
16.8903545573481
30
0
41
1
10
39.0188548488551
20
16.8640237974314
30
0
41
1
10
39.0015306383227
20
16.8109987938224
30
0
41
1
10
38.9942877398842
20
16.7842951280917
30
0
41
1
10
38.9825259354201
20
16.7304929536361
30
0
41
1
10
38.9780117958389
20
16.7033012666594
30
0
41
1
10
38.9686621854647
20
16.6230241428421
30
0
41
1
10
38.967791913146
20
16.57059541703
30
0
41
1
10
38.9736288679528
20
16.4931111048503
30
0
41
1
10
38.976793869394
20
16.4673993831998
30
0
41
1
10
38.98542982563
20
16.4167748690141
30
0
41
1
10
38.9908881190691
20
16.3918785127765
30
0
41
1
10
38.9974510335849
20
16.3673653257579
30
0
0
SPLINE
5
158
100
AcDbEntity
8
1
62
256
6
ByLayer
370
18
48
1
60
0
100
AcDbSpline
70
4
71
3
72
24
73
20
40
0
40
0
40
0
40
0
40
0.0625000000000033
40
0.0625000000000033
40
0.125000000000007
40
0.125000000000007
40
0.249999999999979
40
0.249999999999979
40
0.31249999999998
40
0.31249999999998
40
0.374999999999981
40
0.374999999999981
40
0.499999999999985
40
0.499999999999985
40
0.624999999999989
40
0.624999999999989
40
0.749999999999994
40
0.749999999999994
40
1
40
1
40
1
40
1
41
1
10
38.8455768895952
20
15.9973366053967
30
0
41
1
10
38.8536786098132
20
16.002086325914
30
0
41
1
10
38.8616498092274
20
16.00722787475
30
0
41
1
10
38.8770930657009
20
16.0181623421504
30
0
41
1
10
38.8845176951368
20
16.0239168359615
30
0
41
1
10
38.9059327516277
20
16.0420106073314
30
0
41
1
10
38.9190702395251
20
16.0551745584006
30
0
41
1
10
38.9370804779763
20
16.0765572908967
30
0
41
1
10
38.9428053544559
20
16.0839745428159
30
0
41
1
10
38.9534709134986
20
16.0990606448962
30
0
41
1
10
38.9584425345148
20
16.1067634952196
30
0
41
1
10
38.9723152303603
20
16.1303311021862
30
0
41
1
10
38.9801807177286
20
16.1466521076701
30
0
41
1
10
38.99319032756
20
16.1804800136949
30
0
41
1
10
38.9981650609019
20
16.1975442688405
30
0
41
1
10
39.0053239924834
20
16.2319146659768
30
0
41
1
10
39.0075093069186
20
16.2492806049884
30
0
41
1
10
39.0099392100461
20
16.3013482196064
30
0
41
1
10
39.0061392917689
20
16.334913753028
30
0
41
1
10
38.9974510335849
20
16.3673653257579
30
0
0
SPLINE
5
159
100
AcDbEntity
8
1
62
256
6
ByLayer
370
18
48
1
60
0
100
AcDbSpline
70
4
71
3
72
34
73
30
40
0
40
0
40
0
40
0
40
0.12500000000008
40
0.12500000000008
40
0.187500000000118
40
0.187500000000118
40
0.218750000000132
40
0.218750000000132
40
0.250000000000145
40
0.250000000000145
40
0.375000000000147
40
0.375000000000147
40
0.406250000000147
40
0.406250000000147
40
0.437500000000146
40
0.50000000000013
40
0.562500000000113
40
0.562500000000113
40
0.625000000000097
40
0.625000000000097
40
0.687500000000081
40
0.687500000000081
40
0.750000000000065
40
0.750000000000065
40
0.875000000000031
40
0.875000000000031
40
0.937500000000016
40
0.937500000000016
40
1
40
1
40
1
40
1
41
1
10
36.1239045598557
20
18.0136796332833
30
0
41
1
10
36.1728024474157
20
18.0271420593207
30
0
41
1
10
36.2203932733043
20
18.045036315811
30
0
41
1
10
36.2899442135095
20
18.0789603712321
30
0
41
1
10
36.3128205991033
20
18.09145780996
30
0
41
1
10
36.3466752774303
20
18.1121482419086
30
0
41
1
10
36.3579085887576
20
18.1193873101969
30
0
41
1
10
36.3801005962748
20
18.1344724595198
30
0
41
1
10
36.391023970354
20
18.1422926676959
30
0
41
1
10
36.4447795651755
20
18.1828036542275
30
0
41
1
10
36.4850648551457
20
18.2196628207589
30
0
41
1
10
36.5317141444802
20
18.2722153215047
30
0
41
1
10
36.5408654260727
20
18.2830708159373
30
0
41
1
10
36.5584925585892
20
18.3051074312966
30
0
41
1
10
36.5840315512346
20
18.338772478267
30
0
41
1
10
36.6221407418073
20
18.3979002755901
30
0
41
1
10
36.6478445910824
20
18.4484475315129
30
0
41
1
10
36.6710605372974
20
18.5006807701248
30
0
41
1
10
36.6811451511451
20
18.5270115300415
30
0
41
1
10
36.6984693616773
20
18.5800365336505
30
0
41
1
10
36.7057122601159
20
18.6067401993812
30
0
41
1
10
36.7174740645799
20
18.6605423738368
30
0
41
1
10
36.7219882041612
20
18.6877340608135
30
0
41
1
10
36.7313378145354
20
18.7680111846308
30
0
41
1
10
36.7322080868541
20
18.8204399104429
30
0
41
1
10
36.7263711320473
20
18.8979242226226
30
0
41
1
10
36.7232061306061
20
18.9236359442731
30
0
41
1
10
36.7145701743701
20
18.9742604584588
30
0
41
1
10
36.709111880931
20
18.9991568146964
30
0
41
1
10
36.7025489664152
20
19.023670001715
30
0
0
SPLINE
5
15A
100
AcDbEntity
8
1
62
256
6
ByLayer
370
18
48
1
60
0
100
AcDbSpline
70
4
71
3
72
24
73
20
40
0
40
0
40
0
40
0
40
0.0625000000000033
40
0.0625000000000033
40
0.125000000000007
40
0.125000000000007
40
0.249999999999979
40
0.249999999999979
40
0.31249999999998
40
0.31249999999998
40
0.374999999999981
40
0.374999999999981
40
0.499999999999985
40
0.499999999999985
40
0.624999999999989
40
0.624999999999989
40
0.749999999999994
40
0.749999999999994
40
1
40
1
40
1
40
1
41
1
10
36.8544231104049
20
19.3936987220762
30
0
41
1
10
36.8463213901869
20
19.3889490015589
30
0
41
1
10
36.8383501907727
20
19.3838074527229
30
0
41
1
10
36.8229069342991
20
19.3728729853225
30
0
41
1
10
36.8154823048633
20
19.3671184915114
30
0
41
1
10
36.7940672483724
20
19.3490247201415
30
0
41
1
10
36.7809297604749
20
19.3358607690723
30
0
41
1
10
36.7629195220238
20
19.3144780365762
30
0
41
1
10
36.7571946455442
20
19.307060784657
30
0
41
1
10
36.7465290865015
20
19.2919746825767
30
0
41
1
10
36.7415574654853
20
19.2842718322532
30
0
41
1
10
36.7276847696398
20
19.2607042252867
30
0
41
1
10
36.7198192822716
20
19.2443832198028
30
0
41
1
10
36.7068096724401
20
19.210555313778
30
0
41
1
10
36.7018349390982
20
19.1934910586324
30
0
41
1
10
36.6946760075167
20
19.1591206614961
30
0
41
1
10
36.6924906930815
20
19.1417547224845
30
0
41
1
10
36.690060789954
20
19.0896871078665
30
0
41
1
10
36.6938607082312
20
19.0561215744449
30
0
41
1
10
36.7025489664152
20
19.023670001715
30
0
0
SPLINE
5
15B
100
AcDbEntity
8
1
62
256
6
ByLayer
370
18
48
1
60
0
100
AcDbSpline
70
4
71
3
72
26
73
22
40
0
40
0
40
0
40
0
40
0.249999999999918
40
0.249999999999918
40
0.312499999999896
40
0.312499999999896
40
0.374999999999875
40
0.374999999999875
40
0.499999999999864
40
0.499999999999864
40
0.562499999999874
40
0.562499999999874
40
0.624999999999884
40
0.624999999999884
40
0.749999999999946
40
0.749999999999946
40
0.812499999999967
40
0.812499999999967
40
0.874999999999987
40
0.874999999999987
40
1
40
1
40
1
40
1
41
1
10
36.1239045598557
20
18.0136796332833
30
0
41
1
10
36.091422966651
20
18.0047368942834
30
0
41
1
10
36.0605363102681
20
17.9910052959955
30
0
41
1
10
36.0242014826783
20
17.9673530025655
30
0
41
1
10
36.0170225425759
20
17.9622671705096
30
0
41
1
10
36.0031406054395
20
17.9515706729128
30
0
41
1
10
35.9964184055531
20
17.9459510628076
30
0
41
1
10
35.976913273691
20
17.9282771670857
30
0
41
1
10
35.9647871913636
20
17.9154134478533
30
0
41
1
10
35.9480105932509
20
17.8943987186044
30
0
41
1
10
35.9426548828068
20
17.8871059743455
30
0
41
1
10
35.9324484339637
20
17.8719092771803
30
0
41
1
10
35.9276378870958
20
17.8640588344477
30
0
41
1
10
35.9142755070615
20
17.8400614365745
30
0
41
1
10
35.9067030959553
20
17.823351163386
30
0
41
1
10
35.8974160201487
20
17.7971881741498
30
0
41
1
10
35.8946672684174
20
17.7882833338329
30
0
41
1
10
35.8898983058961
20
17.7700884334797
30
0
41
1
10
35.8878854744955
20
17.7608022626864
30
0
41
1
10
35.8830964162866
20
17.732998940589
30
0
41
1
10
35.8815000000001
20
17.7143266170265
30
0
41
1
10
35.8815000000001
20
17.6955176637364
30
0
0
SPLINE
5
15C
100
AcDbEntity
8
1
62
256
6
ByLayer
370
18
48
1
60
0
100
AcDbSpline
70
4
71
3
72
34
73
30
40
0
40
0
40
0
40
0
40
0.124999999999984
40
0.124999999999984
40
0.187499999999977
40
0.187499999999977
40
0.218749999999973
40
0.218749999999973
40
0.249999999999969
40
0.249999999999969
40
0.374999999999973
40
0.374999999999973
40
0.406249999999971
40
0.406249999999971
40
0.43749999999997
40
0.499999999999975
40
0.562499999999979
40
0.562499999999979
40
0.624999999999984
40
0.624999999999984
40
0.687499999999988
40
0.687499999999988
40
0.749999999999993
40
0.749999999999993
40
0.874999999999995
40
0.874999999999995
40
0.937499999999998
40
0.937499999999998
40
1
40
1
40
1
40
1
41
1
10
36.7025489664152
20
16.3673653257579
30
0
41
1
10
36.7156655382213
20
16.4163571230688
30
0
41
1
10
36.7242978158907
20
16.4664627621555
30
0
41
1
10
36.7302079603998
20
16.5436200361971
30
0
41
1
10
36.7309965236357
20
16.5696756138539
30
0
41
1
10
36.7302694906401
20
16.6093455583458
30
0
41
1
10
36.7297058008468
20
16.6226974722668
30
0
41
1
10
36.7279158768879
20
16.6494713996358
30
0
41
1
10
36.7266940984729
20
16.6628498536766
30
0
41
1
10
36.7189332840545
20
16.7297122056419
30
0
41
1
10
36.7075101517205
20
16.7831071002363
30
0
41
1
10
36.6857673502638
20
16.8499290391868
30
0
41
1
10
36.6810308549537
20
16.8633138569604
30
0
41
1
10
36.6709353515532
20
16.8896655007299
30
0
41
1
10
36.6548097146695
20
16.9287236566963
30
0
41
1
10
36.623075359669
20
16.9915037303565
30
0
41
1
10
36.5924691963574
20
17.0392423463137
30
0
41
1
10
36.5591503075509
20
17.0856873952848
30
0
41
1
10
36.5415356800511
20
17.1077040590008
30
0
41
1
10
36.5045539812254
20
17.149466880761
30
0
41
1
10
36.4851804496707
20
17.1692206550682
30
0
41
1
10
36.4447150948979
20
17.2065779690652
30
0
41
1
10
36.4235404771086
20
17.224224523135
30
0
41
1
10
36.35901579413
20
17.2728907066116
30
0
41
1
10
36.3142268451691
20
17.3001575121105
30
0
41
1
10
36.2444307949716
20
17.3343101064584
30
0
41
1
10
36.2206491547374
20
17.3445835376887
30
0
41
1
10
36.1726088449968
20
17.3627370449332
30
0
41
1
10
36.1483707597728
20
17.3706197302608
30
0
41
1
10
36.1239045598557
20
17.3773556941896
30
0
0
SPLINE
5
15D
100
AcDbEntity
8
1
62
256
6
ByLayer
370
18
48
1
60
0
100
AcDbSpline
70
4
71
3
72
26
73
22
40
0
40
0
40
0
40
0
40
0.125000000000009
40
0.125000000000009
40
0.250000000000018
40
0.250000000000018
40
0.312500000000013
40
0.312500000000013
40
0.375000000000008
40
0.375000000000008
40
0.500000000000014
40
0.500000000000014
40
0.562500000000013
40
0.562500000000013
40
0.625000000000011
40
0.625000000000011
40
0.750000000000007
40
0.750000000000007
40
0.875000000000004
40
0.875000000000004
40
1
40
1
40
1
40
1
41
1
10
35.8815000000001
20
17.6955176637364
30
0
41
1
10
35.8815000000001
20
17.6767755798568
30
0
41
1
10
35.8831372044954
20
17.6577276396154
30
0
41
1
10
35.8895147193171
20
17.6208471178821
30
0
41
1
10
35.8942272083346
20
17.6028708262571
30
0
41
1
10
35.9035346138969
20
17.5765904331756
30
0
41
1
10
35.9070324749047
20
17.5679040531735
30
0
41
1
10
35.914665869764
20
17.5510351161205
30
0
41
1
10
35.9188009007352
20
17.5428402682206
30
0
41
1
10
35.9321176705843
20
17.518944411917
30
0
41
1
10
35.9422054375067
20
17.5039277268119
30
0
41
1
10
35.9590952929138
20
17.482742124328
30
0
41
1
10
35.9650073826156
20
17.4759257451674
30
0
41
1
10
35.9772026281572
20
17.4629580742257
30
0
41
1
10
35.9835087032147
20
17.4567772809653
30
0
41
1
10
36.0030236472242
20
17.4391085815351
30
0
41
1
10
36.016825872338
20
17.4284893927654
30
0
41
1
10
36.0459544667601
20
17.4095162827903
30
0
41
1
10
36.0610227058138
20
17.4013365049319
30
0
41
1
10
36.0918822523001
20
17.3874956439125
30
0
41
1
10
36.1077051105119
20
17.381815680081
30
0
41
1
10
36.1239045598557
20
17.3773556941896
30
0
0
SPLINE
5
15E
100
AcDbEntity
8
1
62
256
6
ByLayer
370
18
48
1
60
0
100
AcDbSpline
70
4
71
3
72
24
73
20
40
0
40
0
40
0
40
0
40
0.0625000000000033
40
0.0625000000000033
40
0.125000000000007
40
0.125000000000007
40
0.249999999999979
40
0.249999999999979
40
0.31249999999998
40
0.31249999999998
40
0.374999999999981
40
0.374999999999981
40
0.499999999999985
40
0.499999999999985
40
0.624999999999989
40
0.624999999999989
40
0.749999999999994
40
0.749999999999994
40
1
40
1
40
1
40
1
41
1
10
36.8544231104049
20
15.9973366053967
30
0
41
1
10
36.8463213901869
20
16.002086325914
30
0
41
1
10
36.8383501907727
20
16.00722787475
30
0
41
1
10
36.8229069342991
20
16.0181623421504
30
0
41
1
10
36.8154823048633
20
16.0239168359615
30
0
41
1
10
36.7940672483724
20
16.0420106073314
30
0
41
1
10
36.7809297604749
20
16.0551745584006
30
0
41
1
10
36.7629195220238
20
16.0765572908967
30
0
41
1
10
36.7571946455442
20
16.0839745428159
30
0
41
1
10
36.7465290865015
20
16.0990606448962
30
0
41
1
10
36.7415574654853
20
16.1067634952196
30
0
41
1
10
36.7276847696398
20
16.1303311021862
30
0
41
1
10
36.7198192822716
20
16.1466521076701
30
0
41
1
10
36.7068096724401
20
16.1804800136949
30
0
41
1
10
36.7018349390982
20
16.1975442688405
30
0
41
1
10
36.6946760075167
20
16.2319146659768
30
0
41
1
10
36.6924906930815
20
16.2492806049884
30
0
41
1
10
36.690060789954
20
16.3013482196064
30
0
41
1
10
36.6938607082312
20
16.334913753028
30
0
41
1
10
36.7025489664152
20
16.3673653257579
30
0
0
SPLINE
5
15F
100
AcDbEntity
8
1
62
256
6
ByLayer
370
18
48
1
60
0
100
AcDbSpline
70
4
71
3
72
17
73
13
40
0
40
0
40
0
40
0
40
0.249999999999959
40
0.249999999999959
40
0.499999999999917
40
0.499999999999917
40
0.562499999999912
40
0.562499999999912
40
0.624999999999906
40
0.749999999999936
40
0.749999999999936
40
1
40
1
40
1
40
1
41
1
10
37.2578822958329
20
19.3391002918252
30
0
41
1
10
37.2860476811906
20
19.3101422673675
30
0
41
1
10
37.3162742421354
20
19.2832867226402
30
0
41
1
10
37.381078323387
20
19.2337979253696
30
0
41
1
10
37.4156493048663
20
19.2111603715497
30
0
41
1
10
37.4620114881434
20
19.185728186349
30
0
41
1
10
37.4714652901887
20
19.1807752157735
30
0
41
1
10
37.4905747238864
20
19.1712340220921
30
0
41
1
10
37.5195379630519
20
19.157467775264
30
0
41
1
10
37.5494137232567
20
19.1453406971881
30
0
41
1
10
37.6104506120782
20
19.1233267400634
30
0
41
1
10
37.652841802733
20
19.1116131657721
30
0
41
1
10
37.6972587066236
20
19.1032556000363
30
0
0
SPLINE
5
160
100
AcDbEntity
8
1
62
256
6
ByLayer
370
18
48
1
60
0
100
AcDbSpline
70
4
71
3
72
18
73
14
40
0
40
0
40
0
40
0
40
0.249999999999903
40
0.249999999999903
40
0.374999999999852
40
0.374999999999852
40
0.437499999999842
40
0.437499999999842
40
0.499999999999832
40
0.499999999999832
40
0.749999999999916
40
0.749999999999916
40
1
40
1
40
1
40
1
41
1
10
38.0027412933765
20
19.1032556000363
30
0
41
1
10
38.0471662828574
20
19.1116146871715
30
0
41
1
10
38.0895287276829
20
19.1233235875993
30
0
41
1
10
38.1504875979397
20
19.145302963321
30
0
41
1
10
38.1703728128529
20
19.1533716459672
30
0
41
1
10
38.1995851462435
20
19.1665585699833
30
0
41
1
10
38.2092198434573
20
19.1711351381835
30
0
41
1
10
38.2282878756095
20
19.1806483727414
30
0
41
1
10
38.2377420298249
20
19.1855967878805
30
0
41
1
10
38.2842087918778
20
19.21106751688
30
0
41
1
10
38.3188333438551
20
19.2337346612038
30
0
41
1
10
38.3837069753098
20
19.2832681931961
30
0
41
1
10
38.4139491995242
20
19.3101390602984
30
0
41
1
10
38.4421177041672
20
19.3391002918252
30
0
0
SPLINE
5
161
100
AcDbEntity
8
1
62
256
6
ByLayer
370
18
48
1
60
0
100
AcDbSpline
70
4
71
3
72
24
73
20
40
0
40
0
40
0
40
0
40
0.125000000000006
40
0.125000000000006
40
0.187500000000027
40
0.187500000000027
40
0.250000000000047
40
0.250000000000047
40
0.375000000000046
40
0.375000000000046
40
0.500000000000044
40
0.500000000000044
40
0.625000000000043
40
0.625000000000043
40
0.687500000000043
40
0.687500000000043
40
0.750000000000044
40
0.750000000000044
40
1
40
1
40
1
40
1
41
1
10
38.8455768895952
20
19.3936987220762
30
0
41
1
10
38.828950842574
20
19.4034459207618
30
0
41
1
10
38.8116382488197
20
19.4116534004263
30
0
41
1
10
38.7846525562128
20
19.4216834272341
30
0
41
1
10
38.7754526288816
20
19.4246536050322
30
0
41
1
10
38.7568554651727
20
19.4297662132916
30
0
41
1
10
38.7475490794368
20
19.4318872530025
30
0
41
1
10
38.7196089658818
20
19.4370140083495
30
0
41
1
10
38.7009543402438
20
19.4387917375633
30
0
41
1
10
38.6636000580582
20
19.4391991671948
30
0
41
1
10
38.6447610775737
20
19.4377781417408
30
0
41
1
10
38.6085848950796
20
19.4320049586395
30
0
41
1
10
38.5910695264471
20
19.4276762883678
30
0
41
1
10
38.5656111231816
20
19.4191697601277
30
0
41
1
10
38.557261502187
20
19.4159968031352
30
0
41
1
10
38.5408360591489
20
19.4089806482064
30
0
41
1
10
38.5327332554088
20
19.4051205151637
30
0
41
1
10
38.4935841284795
20
19.3845023050435
30
0
41
1
10
38.466075014323
20
19.36373181611
30
0
41
1
10
38.4421177041672
20
19.3391002918252
30
0
0
SPLINE
5
162
100
AcDbEntity
8
1
62
256
6
ByLayer
370
18
48
1
60
0
100
AcDbSpline
70
4
71
3
72
24
73
20
40
0
40
0
40
0
40
0
40
0.249999999999956
40
0.249999999999956
40
0.312499999999957
40
0.312499999999957
40
0.374999999999957
40
0.374999999999957
40
0.499999999999956
40
0.499999999999956
40
0.624999999999954
40
0.624999999999954
40
0.749999999999953
40
0.749999999999953
40
0.812499999999973
40
0.812499999999973
40
0.874999999999994
40
0.874999999999994
40
1
40
1
40
1
40
1
41
1
10
37.2578822958329
20
19.3391002918252
30
0
41
1
10
37.2339249856771
20
19.36373181611
30
0
41
1
10
37.2064158715206
20
19.3845023050435
30
0
41
1
10
37.1672667445913
20
19.4051205151637
30
0
41
1
10
37.1591639408512
20
19.4089806482064
30
0
41
1
10
37.1427384978131
20
19.4159968031352
30
0
41
1
10
37.1343888768185
20
19.4191697601277
30
0
41
1
10
37.108930473553
20
19.4276762883678
30
0
41
1
10
37.0914151049206
20
19.4320049586395
30
0
41
1
10
37.0552389224264
20
19.4377781417408
30
0
41
1
10
37.036399941942
20
19.4391991671948
30
0
41
1
10
36.9990456597563
20
19.4387917375633
30
0
41
1
10
36.9803910341183
20
19.4370140083495
30
0
41
1
10
36.9524509205633
20
19.4318872530025
30
0
41
1
10
36.9431445348274
20
19.4297662132916
30
0
41
1
10
36.9245473711185
20
19.4246536050322
30
0
41
1
10
36.9153474437873
20
19.4216834272341
30
0
41
1
10
36.8883617511804
20
19.4116534004263
30
0
41
1
10
36.8710491574261
20
19.4034459207618
30
0
41
1
10
36.8544231104049
20
19.3936987220762
30
0
0
SPLINE
5
163
100
AcDbEntity
8
1
62
256
6
ByLayer
370
18
48
1
60
0
100
AcDbSpline
70
4
71
3
72
34
73
30
40
0
40
0
40
0
40
0
40
0.124999999999967
40
0.124999999999967
40
0.187499999999951
40
0.187499999999951
40
0.218749999999943
40
0.218749999999943
40
0.249999999999935
40
0.249999999999935
40
0.374999999999922
40
0.374999999999922
40
0.406249999999923
40
0.406249999999923
40
0.437499999999925
40
0.499999999999935
40
0.562499999999945
40
0.562499999999945
40
0.624999999999956
40
0.624999999999956
40
0.687499999999966
40
0.687499999999966
40
0.749999999999976
40
0.749999999999976
40
0.87499999999999
40
0.87499999999999
40
0.937499999999995
40
0.937499999999995
40
1
40
1
40
1
40
1
41
1
10
38.9974510335849
20
19.023670001715
30
0
41
1
10
38.9843344617788
20
18.9746782044041
30
0
41
1
10
38.9757021841094
20
18.9245725653174
30
0
41
1
10
38.9697920396003
20
18.8474152912758
30
0
41
1
10
38.9690034763644
20
18.821359713619
30
0
41
1
10
38.9697305093599
20
18.7816897691271
30
0
41
1
10
38.9702941991534
20
18.7683378552061
30
0
41
1
10
38.9720841231122
20
18.7415639278371
30
0
41
1
10
38.9733059015272
20
18.7281854737963
30
0
41
1
10
38.9810667159456
20
18.661323121831
30
0
41
1
10
38.9924898482796
20
18.6079282272366
30
0
41
1
10
39.0142326497363
20
18.541106288286
30
0
41
1
10
39.0189691450463
20
18.5277214705125
30
0
41
1
10
39.0290646484469
20
18.501369826743
30
0
41
1
10
39.0451902853306
20
18.4623116707766
30
0
41
1
10
39.0769246403311
20
18.3995315971164
30
0
41
1
10
39.1075308036427
20
18.3517929811592
30
0
41
1
10
39.1408496924492
20
18.3053479321881
30
0
41
1
10
39.158464319949
20
18.2833312684721
30
0
41
1
10
39.1954460187747
20
18.2415684467119
30
0
41
1
10
39.2148195503295
20
18.2218146724046
30
0
41
1
10
39.2552849051022
20
18.1844573584077
30
0
41
1
10
39.2764595228915
20
18.1668108043379
30
0
41
1
10
39.3409842058701
20
18.1181446208613
30
0
41
1
10
39.385773154831
20
18.0908778153624
30
0
41
1
10
39.4555692050285
20
18.0567252210145
30
0
41
1
10
39.4793508452626
20
18.0464517897842
30
0
41
1
10
39.5273911550033
20
18.0282982825397
30
0
41
1
10
39.5516292402273
20
18.0204155972121
30
0
41
1
10
39.5760954401444
20
18.0136796332833
30
0
0
SPLINE
5
164
100
AcDbEntity
8
1
62
256
6
ByLayer
370
18
48
1
60
0
100
AcDbSpline
70
4
71
3
72
26
73
22
40
0
40
0
40
0
40
0
40
0.125000000000009
40
0.125000000000009
40
0.250000000000018
40
0.250000000000018
40
0.312500000000013
40
0.312500000000013
40
0.375000000000008
40
0.375000000000008
40
0.500000000000014
40
0.500000000000014
40
0.562500000000013
40
0.562500000000013
40
0.625000000000011
40
0.625000000000011
40
0.750000000000007
40
0.750000000000007
40
0.875000000000004
40
0.875000000000004
40
1
40
1
40
1
40
1
41
1
10
39.8185000000001
20
17.6955176637364
30
0
41
1
10
39.8185
20
17.7142597476161
30
0
41
1
10
39.8168627955046
20
17.7333076878574
30
0
41
1
10
39.810485280683
20
17.7701882095908
30
0
41
1
10
39.8057727916655
20
17.7881645012158
30
0
41
1
10
39.7964653861032
20
17.8144448942973
30
0
41
1
10
39.7929675250954
20
17.8231312742994
30
0
41
1
10
39.7853341302361
20
17.8400002113524
30
0
41
1
10
39.7811990992649
20
17.8481950592523
30
0
41
1
10
39.7678823294158
20
17.8720909155559
30
0
41
1
10
39.7577945624934
20
17.887107600661
30
0
41
1
10
39.7409047070863
20
17.9082932031448
30
0
41
1
10
39.7349926173845
20
17.9151095823055
30
0
41
1
10
39.7227973718429
20
17.9280772532472
30
0
41
1
10
39.7164912967854
20
17.9342580465076
30
0
41
1
10
39.6969763527759
20
17.9519267459378
30
0
41
1
10
39.6831741276621
20
17.9625459347075
30
0
41
1
10
39.65404553324
20
17.9815190446826
30
0
41
1
10
39.6389772941863
20
17.989698822541
30
0
41
1
10
39.6081177476999
20
18.0035396835604
30
0
41
1
10
39.5922948894882
20
18.0092196473919
30
0
41
1
10
39.5760954401444
20
18.0136796332833
30
0
0
SPLINE
5
165
100
AcDbEntity
8
1
62
256
6
ByLayer
370
18
48
1
60
0
100
AcDbSpline
70
4
71
3
72
24
73
20
40
0
40
0
40
0
40
0
40
0.0625000000000318
40
0.0625000000000318
40
0.125000000000064
40
0.125000000000064
40
0.250000000000093
40
0.250000000000093
40
0.312500000000084
40
0.312500000000084
40
0.375000000000076
40
0.375000000000076
40
0.500000000000061
40
0.500000000000061
40
0.625000000000046
40
0.625000000000046
40
0.750000000000032
40
0.750000000000032
40
1
40
1
40
1
40
1
41
1
10
38.8455768895952
20
19.3936987220762
30
0
41
1
10
38.8536786098132
20
19.3889490015588
30
0
41
1
10
38.8616498092274
20
19.3838074527229
30
0
41
1
10
38.877093065701
20
19.3728729853225
30
0
41
1
10
38.8845176951368
20
19.3671184915114
30
0
41
1
10
38.9059327516277
20
19.3490247201415
30
0
41
1
10
38.9190702395251
20
19.3358607690723
30
0
41
1
10
38.9370804779763
20
19.3144780365762
30
0
41
1
10
38.9428053544559
20
19.307060784657
30
0
41
1
10
38.9534709134986
20
19.2919746825767
30
0
41
1
10
38.9584425345148
20
19.2842718322532
30
0
41
1
10
38.9723152303603
20
19.2607042252867
30
0
41
1
10
38.9801807177285
20
19.2443832198028
30
0
41
1
10
38.99319032756
20
19.210555313778
30
0
41
1
10
38.9981650609019
20
19.1934910586324
30
0
41
1
10
39.0053239924834
20
19.1591206614961
30
0
41
1
10
39.0075093069186
20
19.1417547224845
30
0
41
1
10
39.0099392100461
20
19.0896871078665
30
0
41
1
10
39.0061392917689
20
19.0561215744449
30
0
41
1
10
38.9974510335849
20
19.023670001715
30
0
0
SPLINE
5
166
100
AcDbEntity
8
1
62
256
6
ByLayer
370
18
48
1
60
0
100
AcDbSpline
70
4
71
3
72
18
73
14
40
0
40
0
40
0
40
0
40
0.249999999999978
40
0.249999999999978
40
0.374999999999952
40
0.374999999999952
40
0.437499999999956
40
0.437499999999956
40
0.49999999999996
40
0.49999999999996
40
0.74999999999998
40
0.74999999999998
40
1
40
1
40
1
40
1
41
1
10
37.6972587066236
20
16.2877797274366
30
0
41
1
10
37.6528337171424
20
16.2794206403013
30
0
41
1
10
37.6104712723168
20
16.2677117398734
30
0
41
1
10
37.5495124020602
20
16.2457323641518
30
0
41
1
10
37.529627187147
20
16.2376636815057
30
0
41
1
10
37.5004148537566
20
16.2244767574896
30
0
41
1
10
37.4907801565429
20
16.2199001892894
30
0
41
1
10
37.4717121243908
20
16.2103869547316
30
0
41
1
10
37.4622579701756
20
16.2054385395926
30
0
41
1
10
37.4157912081225
20
16.1799678105929
30
0
41
1
10
37.3811666561451
20
16.1573006662692
30
0
41
1
10
37.3162930246903
20
16.1077671342767
30
0
41
1
10
37.2860508004759
20
16.0808962671745
30
0
41
1
10
37.2578822958329
20
16.0519350356477
30
0
0
SPLINE
5
167
100
AcDbEntity
8
1
62
256
6
ByLayer
370
18
48
1
60
0
100
AcDbSpline
70
4
71
3
72
24
73
20
40
0
40
0
40
0
40
0
40
0.125000000000006
40
0.125000000000006
40
0.187500000000027
40
0.187500000000027
40
0.250000000000047
40
0.250000000000047
40
0.375000000000046
40
0.375000000000046
40
0.500000000000044
40
0.500000000000044
40
0.625000000000043
40
0.625000000000043
40
0.687500000000043
40
0.687500000000043
40
0.750000000000044
40
0.750000000000044
40
1
40
1
40
1
40
1
41
1
10
36.8544231104049
20
15.9973366053967
30
0
41
1
10
36.8710491574261
20
15.9875894067111
30
0
41
1
10
36.8883617511804
20
15.9793819270466
30
0
41
1
10
36.9153474437873
20
15.9693519002388
30
0
41
1
10
36.9245473711185
20
15.9663817224407
30
0
41
1
10
36.9431445348274
20
15.9612691141813
30
0
41
1
10
36.9524509205633
20
15.9591480744704
30
0
41
1
10
36.9803910341183
20
15.9540213191234
30
0
41
1
10
36.9990456597563
20
15.9522435899096
30
0
41
1
10
37.036399941942
20
15.9518361602781
30
0
41
1
10
37.0552389224264
20
15.9532571857321
30
0
41
1
10
37.0914151049206
20
15.9590303688334
30
0
41
1
10
37.108930473553
20
15.963359039105
30
0
41
1
10
37.1343888768185
20
15.9718655673452
30
0
41
1
10
37.1427384978131
20
15.9750385243377
30
0
41
1
10
37.1591639408512
20
15.9820546792665
30
0
41
1
10
37.1672667445913
20
15.9859148123092
30
0
41
1
10
37.2064158715206
20
16.0065330224294
30
0
41
1
10
37.2339249856771
20
16.0273035113629
30
0
41
1
10
37.2578822958329
20
16.0519350356477
30
0
0
SPLINE
5
168
100
AcDbEntity
8
1
62
256
6
ByLayer
370
18
48
1
60
0
100
AcDbSpline
70
4
71
3
72
24
73
20
40
0
40
0
40
0
40
0
40
0.249999999999956
40
0.249999999999956
40
0.312499999999957
40
0.312499999999957
40
0.374999999999957
40
0.374999999999957
40
0.499999999999956
40
0.499999999999956
40
0.624999999999954
40
0.624999999999954
40
0.749999999999953
40
0.749999999999953
40
0.812499999999973
40
0.812499999999973
40
0.874999999999994
40
0.874999999999994
40
1
40
1
40
1
40
1
41
1
10
38.4421177041672
20
16.0519350356477
30
0
41
1
10
38.466075014323
20
16.0273035113629
30
0
41
1
10
38.4935841284795
20
16.0065330224294
30
0
41
1
10
38.5327332554088
20
15.9859148123092
30
0
41
1
10
38.5408360591489
20
15.9820546792665
30
0
41
1
10
38.557261502187
20
15.9750385243377
30
0
41
1
10
38.5656111231816
20
15.9718655673452
30
0
41
1
10
38.5910695264471
20
15.963359039105
30
0
41
1
10
38.6085848950796
20
15.9590303688334
30
0
41
1
10
38.6447610775737
20
15.9532571857321
30
0
41
1
10
38.6636000580582
20
15.9518361602781
30
0
41
1
10
38.7009543402438
20
15.9522435899096
30
0
41
1
10
38.7196089658818
20
15.9540213191234
30
0
41
1
10
38.7475490794368
20
15.9591480744704
30
0
41
1
10
38.7568554651727
20
15.9612691141813
30
0
41
1
10
38.7754526288816
20
15.9663817224407
30
0
41
1
10
38.7846525562128
20
15.9693519002388
30
0
41
1
10
38.8116382488197
20
15.9793819270466
30
0
41
1
10
38.828950842574
20
15.9875894067111
30
0
41
1
10
38.8455768895952
20
15.9973366053967
30
0
0
SPLINE
5
169
100
AcDbEntity
8
1
62
256
6
ByLayer
370
18
48
1
60
0
100
AcDbSpline
70
4
71
3
72
17
73
13
40
0
40
0
40
0
40
0
40
0.250000000000059
40
0.250000000000059
40
0.500000000000118
40
0.500000000000118
40
0.562500000000121
40
0.562500000000121
40
0.625000000000123
40
0.750000000000096
40
0.750000000000096
40
1
40
1
40
1
40
1
41
1
10
38.4421177041672
20
16.0519350356477
30
0
41
1
10
38.4139523188095
20
16.0808930601054
30
0
41
1
10
38.3837257578646
20
16.1077486048328
30
0
41
1
10
38.3189216766128
20
16.1572374021034
30
0
41
1
10
38.2843506951336
20
16.1798749559234
30
0
41
1
10
38.2379885118563
20
16.2053071411241
30
0
41
1
10
38.228534709811
20
16.2102601116996
30
0
41
1
10
38.2094252761133
20
16.2198013053811
30
0
41
1
10
38.1804620369478
20
16.2335675522091
30
0
41
1
10
38.150586276743
20
16.2456946302849
30
0
41
1
10
38.0895493879215
20
16.2677085874096
30
0
41
1
10
38.0471581972669
20
16.2794221617008
30
0
41
1
10
38.0027412933765
20
16.2877797274366
30
0
0
SPLINE
5
16A
100
AcDbEntity
8
1
62
256
6
ByLayer
370
18
48
1
60
0
100
AcDbSpline
70
4
71
2
72
6
73
3
40
0
40
0
40
0
40
1
40
1
40
1
41
1.03186391735993
10
59.7999899980507
20
24.0004379771018
30
0
41
1.03138264657361
10
59.6777789448563
20
24.0004379771018
30
0
41
1.03186391735993
10
59.5557958399113
20
24.0078898762363
30
0
0
SPLINE
5
16B
100
AcDbEntity
8
1
62
256
6
ByLayer
370
18
48
1
60
0
100
AcDbSpline
70
4
71
2
72
6
73
3
40
0
40
0
40
0
40
1
40
1
40
1
41
1.03186391735993
10
59.9999899980507
20
24.2001992045701
30
0
41
0.729637973226922
10
59.9999899980507
20
24.0004379771018
30
0
41
1.03186391735993
10
59.7999899980507
20
24.0004379771018
30
0
0
SPLINE
5
16C
100
AcDbEntity
8
1
62
256
6
ByLayer
370
18
48
1
60
0
100
AcDbSpline
70
4
71
2
72
6
73
3
40
0
40
0
40
0
40
1
40
1
40
1
41
1.03186391735993
10
59.7999899980507
20
27.0031515694139
30
0
41
0.729637973226922
10
59.9999899980507
20
27.0031515694138
30
0
41
1.03186391735993
10
59.9999899980507
20
26.8033903419456
30
0
0
SPLINE
5
16D
100
AcDbEntity
8
1
62
256
6
ByLayer
370
18
48
1
60
0
100
AcDbSpline
70
4
71
2
72
6
73
3
40
0
40
0
40
0
40
1
40
1
40
1
41
1.03186391735993
10
59.5557958399113
20
26.9956996702794
30
0
41
1.03138264657361
10
59.6777789448563
20
27.0031515694139
30
0
41
1.03186391735993
10
59.7999899980507
20
27.0031515694139
30
0
0
SPLINE
5
16E
100
AcDbEntity
8
1
62
256
6
ByLayer
370
18
48
1
60
0
100
AcDbSpline
70
4
71
3
72
8
73
4
40
0
40
0
40
0
40
0
40
1
40
1
40
1
40
1
41
1
10
57.4196694163913
20
26.8921350026655
30
0
41
1
10
57.4324648695621
20
26.8954655451621
30
0
41
1
10
57.4455611420819
20
26.89747732999
30
0
41
1
10
57.4587330107771
20
26.8981511758608
30
0
0
SPLINE
5
16F
100
AcDbEntity
8
1
62
256
6
ByLayer
370
18
48
1
60
0
100
AcDbSpline
70
4
71
3
72
8
73
4
40
0
40
0
40
0
40
0
40
1
40
1
40
1
40
1
41
1
10
57.458733010784
20
24.0524297138072
30
0
41
1
10
57.4455611270319
20
24.0528766475528
30
0
41
1
10
57.4324648843563
20
24.0546628179387
30
0
41
1
10
57.4196694163937
20
24.0577729359291
30
0
0
SPLINE
5
170
100
AcDbEntity
8
1
62
256
6
ByLayer
370
18
48
1
60
0
100
AcDbSpline
70
4
71
3
72
8
73
4
40
0
40
0
40
0
40
0
40
1
40
1
40
1
40
1
41
1
10
57.3528529999563
20
26.8747403777905
30
0
41
1
10
56.8102356951242
20
26.8747359189689
30
0
41
1
10
56.2676180439315
20
26.874731953713
30
0
41
1
10
55.7250000000001
20
26.8747284820221
30
0
0
SPLINE
5
171
100
AcDbEntity
8
1
62
256
6
ByLayer
370
18
48
1
60
0
100
AcDbSpline
70
4
71
3
72
8
73
4
40
0
40
0
40
0
40
0
40
1
40
1
40
1
40
1
41
1
10
52.4000000000001
20
26.8747133864133
30
0
41
1
10
53.5083333364494
20
26.8747163591283
30
0
41
1
10
54.6166666713863
20
26.8747213908633
30
0
41
1
10
55.7250000000001
20
26.8747284820221
30
0
0
SPLINE
5
172
100
AcDbEntity
8
1
62
256
6
ByLayer
370
18
48
1
60
0
100
AcDbSpline
70
4
71
3
72
8
73
4
40
0
40
0
40
0
40
0
40
1
40
1
40
1
40
1
41
1
10
51.7535000000018
20
26.874711885954
30
0
41
1
10
51.9690000340097
20
26.8747123082572
30
0
41
1
10
52.1845000258318
20
26.8747128084102
30
0
41
1
10
52.4000000000001
20
26.8747133864133
30
0
0
LINE
5
7E
100
AcDbEntity
8
80
62
256
6
ByLayer
370
18
48
1
60
0
100
AcDbLine
10
0
20
0
30
0
11
-5
21
0
31
0
39
0
210
0
220
0
230
1
0
LINE
5
7F
100
AcDbEntity
8
81
62
256
6
ByLayer
370
18
48
1
60
0
100
AcDbLine
10
60
20
27
30
0
11
65
21
27
31
0
39
0
210
0
220
0
230
1
0
LINE
5
80
100
AcDbEntity
8
1
62
256
6
ByLayer
370
18
48
1
60
0
100
AcDbLine
10
0
20
-19.7
30
0
11
0.3
21
-20
31
0
39
0
210
0
220
0
230
1
0
LINE
5
81
100
AcDbEntity
8
1
62
256
6
ByLayer
370
18
48
1
60
0
100
AcDbLine
10
0.3
20
20
30
0
11
0
21
19.7
31
0
39
0
210
0
220
0
230
1
0
LINE
5
82
100
AcDbEntity
8
1
62
256
6
ByLayer
370
18
48
1
60
0
100
AcDbLine
10
20.279208
20
20
30
0
11
0.3
21
20
31
0
39
0
210
0
220
0
230
1
0
LINE
5
83
100
AcDbEntity
8
1
62
256
6
ByLayer
370
18
48
1
60
0
100
AcDbLine
10
0.3
20
-20
30
0
11
20
21
-20
31
0
39
0
210
0
220
0
230
1
0
LINE
5
84
100
AcDbEntity
8
1
62
256
6
ByLayer
370
18
48
1
60
0
100
AcDbLine
10
53.89684
20
26.87471
30
0
11
53.898879
21
27.092771
31
0
39
0
210
0
220
0
230
1
0
LINE
5
85
100
AcDbEntity
8
1
62
256
6
ByLayer
370
18
48
1
60
0
100
AcDbLine
10
59.2
20
26.97395
30
0
11
59.2
21
27.083696
31
0
39
0
210
0
220
0
230
1
0
LINE
5
86
100
AcDbEntity
8
1
62
256
6
ByLayer
370
18
48
1
60
0
100
AcDbLine
10
54.815259
20
26.87471
30
0
11
54.817213
21
27.083696
31
0
39
0
210
0
220
0
230
1
0
LINE
5
87
100
AcDbEntity
8
1
62
256
6
ByLayer
370
13
48
1
60
0
100
AcDbLine
10
21.602355
20
21.15
30
0
11
23.6
21
21.15
31
0
39
0
210
0
220
0
230
1
0
LINE
5
88
100
AcDbEntity
8
1
62
256
6
ByLayer
370
13
48
1
60
0
100
AcDbLine
10
23.6
20
21.15
30
0
11
23.6
21
20.15
31
0
39
0
210
0
220
0
230
1
0
LINE
5
89
100
AcDbEntity
8
1
62
256
6
ByLayer
370
18
48
1
60
0
100
AcDbLine
10
59.2
20
28.061377
30
0
11
59.2
21
27.083696
31
0
39
0
210
0
220
0
230
1
0
LINE
5
8A
100
AcDbEntity
8
1
62
256
6
ByLayer
370
18
48
1
60
0
100
AcDbLine
10
53.465884
20
32.281991
30
0
11
25.57342
21
32.281991
31
0
39
0
210
0
220
0
230
1
0
LINE
5
8B
100
AcDbEntity
8
1
62
256
6
ByLayer
370
18
48
1
60
0
100
AcDbLine
10
23.13657
20
26.950572
30
0
11
23.6
21
26.950572
31
0
39
0
210
0
220
0
230
1
0
LINE
5
8C
100
AcDbEntity
8
1
62
256
6
ByLayer
370
18
48
1
60
0
100
AcDbLine
10
27.80012
20
26.727582
30
0
11
27.293883
21
26.727582
31
0
39
0
210
0
220
0
230
1
0
LINE
5
8D
100
AcDbEntity
8
1
62
256
6
ByLayer
370
18
48
1
60
0
100
AcDbLine
10
50.39077
20
27.092771
30
0
11
53.898879
21
27.092771
31
0
39
0
210
0
220
0
230
1
0
LINE
5
8E
100
AcDbEntity
8
1
62
256
6
ByLayer
370
18
48
1
60
0
100
AcDbLine
10
54.817213
20
27.083696
30
0
11
59.2
21
27.083696
31
0
39
0
210
0
220
0
230
1
0
LINE
5
8F
100
AcDbEntity
8
1
62
256
6
ByLayer
370
18
48
1
60
0
100
AcDbLine
10
27.293883
20
21.15
30
0
11
27.293883
21
26.727582
31
0
39
0
210
0
220
0
230
1
0
LINE
5
90
100
AcDbEntity
8
1
62
256
6
ByLayer
370
13
48
1
60
0
100
AcDbLine
10
23.6
20
21.15
30
0
11
23.6
21
26.950572
31
0
39
0
210
0
220
0
230
1
0
LINE
5
91
100
AcDbEntity
8
1
62
256
6
ByLayer
370
13
48
1
60
0
100
AcDbLine
10
23.6
20
21.15
30
0
11
27.293883
21
21.15
31
0
39
0
210
0
220
0
230
1
0
LINE
5
92
100
AcDbEntity
8
1
62
256
6
ByLayer
370
18
48
1
60
0
100
AcDbLine
10
27.679508
20
26.68498
30
0
11
27.679508
21
21.15
31
0
39
0
210
0
220
0
230
1
0
LINE
5
93
100
AcDbEntity
8
1
62
256
6
ByLayer
370
13
48
1
60
0
100
AcDbLine
10
27.8
20
21.15
30
0
11
27.679508
21
21.15
31
0
39
0
210
0
220
0
230
1
0
LINE
5
94
100
AcDbEntity
8
1
62
256
6
ByLayer
370
18
48
1
60
0
100
AcDbLine
10
24.799843
20
20.15
30
0
11
23.800157
21
20.15
31
0
39
0
210
0
220
0
230
1
0
LINE
5
95
100
AcDbEntity
8
1
62
256
6
ByLayer
370
18
48
1
60
0
100
AcDbLine
10
24.800078
20
-15.004482
30
0
11
24.00884
21
-15.004482
31
0
39
0
210
0
220
0
230
1
0
LINE
5
96
100
AcDbEntity
8
1
62
256
6
ByLayer
370
18
48
1
60
0
100
AcDbLine
10
27.679508
20
26.68498
30
0
11
27.800141
21
26.68498
31
0
39
0
210
0
220
0
230
1
0
LINE
5
97
100
AcDbEntity
8
1
62
256
6
ByLayer
370
13
48
1
60
0
100
AcDbLine
10
45
20
25.949157
30
0
11
45
21
24.362613
31
0
39
0
210
0
220
0
230
1
0
LINE
5
98
100
AcDbEntity
8
1
62
256
6
ByLayer
370
18
48
1
60
0
100
AcDbLine
10
43.4
20
24.326791
30
0
11
43.4
21
23.179063
31
0
39
0
210
0
220
0
230
1
0
LINE
5
99
100
AcDbEntity
8
1
62
256
6
ByLayer
370
18
48
1
60
0
100
AcDbLine
10
24.8
20
20.15
30
0
11
26.8
21
20.15
31
0
39
0
210
0
220
0
230
1
0
LINE
5
9A
100
AcDbEntity
8
1
62
256
6
ByLayer
370
18
48
1
60
0
100
AcDbLine
10
34.3
20
-15.004482
30
0
11
24.8
21
-15.004482
31
0
39
0
210
0
220
0
230
1
0
LINE
5
9B
100
AcDbEntity
8
1
62
256
6
ByLayer
370
18
48
1
60
0
100
AcDbLine
10
24.8
20
-15.004482
30
0
11
24.8
21
20.15
31
0
39
0
210
0
220
0
230
1
0
LINE
5
9C
100
AcDbEntity
8
1
62
256
6
ByLayer
370
18
48
1
60
0
100
AcDbLine
10
27.8
20
21.15
30
0
11
27.8
21
27.966712
31
0
39
0
210
0
220
0
230
1
0
LINE
5
9D
100
AcDbEntity
8
1
62
256
6
ByLayer
370
18
48
1
60
0
100
AcDbLine
10
27.8
20
27.966712
30
0
11
42.554711
21
27.966712
31
0
39
0
210
0
220
0
230
1
0
LINE
5
9E
100
AcDbEntity
8
1
62
256
6
ByLayer
370
18
48
1
60
0
100
AcDbLine
10
34.3
20
-15.004482
30
0
11
43.4
21
13.145518
31
0
39
0
210
0
220
0
230
1
0
LINE
5
9F
100
AcDbEntity
8
1
62
256
6
ByLayer
370
18
48
1
60
0
100
AcDbLine
10
43.4
20
13.145518
30
0
11
43.4
21
23.179063
31
0
39
0
210
0
220
0
230
1
0
LINE
5
A0
100
AcDbEntity
8
1
62
256
6
ByLayer
370
18
48
1
60
0
100
AcDbLine
10
43.4
20
24.326791
30
0
11
43.4
21
24.676736
31
0
39
0
210
0
220
0
230
1
0
LINE
5
A1
100
AcDbEntity
8
1
62
256
6
ByLayer
370
18
48
1
60
0
100
AcDbLine
10
50.25
20
27.122388
30
0
11
50.25
21
24.846358
31
0
39
0
210
0
220
0
230
1
0
LINE
5
A2
100
AcDbEntity
8
1
62
256
6
ByLayer
370
18
48
1
60
0
100
AcDbLine
10
45.407597
20
27.966712
30
0
11
42.554711
21
27.966712
31
0
39
0
210
0
220
0
230
1
0
LINE
5
A3
100
AcDbEntity
8
1
62
256
6
ByLayer
370
18
48
1
60
0
100
AcDbLine
10
42.554711
20
24.326791
30
0
11
42.554711
21
27.966712
31
0
39
0
210
0
220
0
230
1
0
LINE
5
A4
100
AcDbEntity
8
1
62
256
6
ByLayer
370
13
48
1
60
0
100
AcDbLine
10
42.554711
20
24.326791
30
0
11
43.4
21
24.326791
31
0
39
0
210
0
220
0
230
1
0
LINE
5
A5
100
AcDbEntity
8
1
62
256
6
ByLayer
370
13
48
1
60
0
100
AcDbLine
10
21.438319
20
20.15
30
0
11
21.438319
21
17.570874
31
0
39
0
210
0
220
0
230
1
0
LINE
5
A6
100
AcDbEntity
8
1
62
256
6
ByLayer
370
18
48
1
60
0
100
AcDbLine
10
23.8
20
-15.009938
30
0
11
23.8
21
20.15
31
0
39
0
210
0
220
0
230
1
0
LINE
5
A7
100
AcDbEntity
8
1
62
256
6
ByLayer
370
18
48
1
60
0
100
AcDbLine
10
23.8
20
20.15
30
0
11
21.980091
21
20.15
31
0
39
0
210
0
220
0
230
1
0
LINE
5
A8
100
AcDbEntity
8
1
62
256
6
ByLayer
370
18
48
1
60
0
100
AcDbLine
10
-0.2
20
-5.678452
30
0
11
-0.2
21
-14.083485
31
0
39
0
210
0
220
0
230
1
0
LINE
5
A9
100
AcDbEntity
8
1
62
256
6
ByLayer
370
18
48
1
60
0
100
AcDbLine
10
-0.2
20
14.083485
30
0
11
-0.2
21
5.678452
31
0
39
0
210
0
220
0
230
1
0
LINE
5
AA
100
AcDbEntity
8
1
62
256
6
ByLayer
370
13
48
1
60
0
100
AcDbLine
10
-1.307107
20
3.628534
30
0
11
-1.307107
21
-3.628532
31
0
39
0
210
0
220
0
230
1
0
LINE
5
AB
100
AcDbEntity
8
1
62
256
6
ByLayer
370
13
48
1
60
0
100
AcDbLine
10
9.076795
20
-5.85989
30
0
11
9.076795
21
-19.122283
31
0
39
0
210
0
220
0
230
1
0
LINE
5
AC
100
AcDbEntity
8
1
62
256
6
ByLayer
370
13
48
1
60
0
100
AcDbLine
10
9.336603
20
-6.16973
30
0
11
9.336603
21
-19.024574
31
0
39
0
210
0
220
0
230
1
0
LINE
5
AD
100
AcDbEntity
8
1
62
256
6
ByLayer
370
13
48
1
60
0
100
AcDbLine
10
6.663397
20
19.024574
30
0
11
6.663397
21
6.16973
31
0
39
0
210
0
220
0
230
1
0
LINE
5
AE
100
AcDbEntity
8
1
62
256
6
ByLayer
370
13
48
1
60
0
100
AcDbLine
10
6.923205
20
19.122283
30
0
11
6.923205
21
5.85989
31
0
39
0
210
0
220
0
230
1
0
LINE
5
AF
100
AcDbEntity
8
1
62
256
6
ByLayer
370
13
48
1
60
0
100
AcDbLine
10
9.076795
20
19.122283
30
0
11
9.076795
21
5.85989
31
0
39
0
210
0
220
0
230
1
0
LINE
5
B0
100
AcDbEntity
8
1
62
256
6
ByLayer
370
13
48
1
60
0
100
AcDbLine
10
9.336603
20
19.024574
30
0
11
9.336603
21
6.16973
31
0
39
0
210
0
220
0
230
1
0
LINE
5
B1
100
AcDbEntity
8
1
62
256
6
ByLayer
370
13
48
1
60
0
100
AcDbLine
10
6.663397
20
-6.16973
30
0
11
6.663397
21
-19.024574
31
0
39
0
210
0
220
0
230
1
0
LINE
5
B2
100
AcDbEntity
8
1
62
256
6
ByLayer
370
13
48
1
60
0
100
AcDbLine
10
6.923205
20
-5.85989
30
0
11
6.923205
21
-19.122283
31
0
39
0
210
0
220
0
230
1
0
LINE
5
B3
100
AcDbEntity
8
1
62
256
6
ByLayer
370
18
48
1
60
0
100
AcDbLine
10
0
20
-19.7
30
0
11
0
21
19.7
31
0
39
0
210
0
220
0
230
1
0
LINE
5
B4
100
AcDbEntity
8
1
62
256
6
ByLayer
370
13
48
1
60
0
100
AcDbLine
10
20.279208
20
20
30
0
11
20.279208
21
15.205624
31
0
39
0
210
0
220
0
230
1
0
LINE
5
B5
100
AcDbEntity
8
1
62
256
6
ByLayer
370
18
48
1
60
0
100
AcDbLine
10
20.008992
20
-18.969576
30
0
11
20
21
-20
31
0
39
0
210
0
220
0
230
1
0
LINE
5
B6
100
AcDbEntity
8
1
62
256
6
ByLayer
370
13
48
1
60
0
100
AcDbLine
10
20.279208
20
-15.205624
30
0
11
20.279208
21
-17.558854
31
0
39
0
210
0
220
0
230
1
0
LINE
5
B7
100
AcDbEntity
8
1
62
256
6
ByLayer
370
18
48
1
60
0
100
AcDbLine
10
0.3
20
-20
30
0
11
0.3
21
20
31
0
39
0
210
0
220
0
230
1
0
LINE
5
B8
100
AcDbEntity
8
1
62
256
6
ByLayer
370
18
48
1
60
0
100
AcDbLine
10
9.076795
20
5.85989
30
0
11
6.923205
21
5.85989
31
0
39
0
210
0
220
0
230
1
0
LINE
5
B9
100
AcDbEntity
8
1
62
256
6
ByLayer
370
18
48
1
60
0
100
AcDbLine
10
6.923205
20
19.122283
30
0
11
9.076795
21
19.122283
31
0
39
0
210
0
220
0
230
1
0
LINE
5
BA
100
AcDbEntity
8
1
62
256
6
ByLayer
370
18
48
1
60
0
100
AcDbLine
10
6.923205
20
-5.85989
30
0
11
9.076795
21
-5.85989
31
0
39
0
210
0
220
0
230
1
0
LINE
5
BB
100
AcDbEntity
8
1
62
256
6
ByLayer
370
18
48
1
60
0
100
AcDbLine
10
9.076795
20
-19.122283
30
0
11
6.923205
21
-19.122283
31
0
39
0
210
0
220
0
230
1
0
LINE
5
BC
100
AcDbEntity
8
1
62
256
6
ByLayer
370
13
48
1
60
0
100
AcDbLine
10
20.049808
20
-13.990119
30
0
11
20.049808
21
13.990119
31
0
39
0
210
0
220
0
230
1
0
LINE
5
BD
100
AcDbEntity
8
1
62
256
6
ByLayer
370
18
48
1
60
0
100
AcDbLine
10
58.609011
20
26.937861
30
0
11
59.555796
21
26.9957
31
0
39
0
210
0
220
0
230
1
0
LINE
5
BE
100
AcDbEntity
8
1
62
256
6
ByLayer
370
18
48
1
60
0
100
AcDbLine
10
59.555796
20
24.00789
30
0
11
58.609011
21
24.065729
31
0
39
0
210
0
220
0
230
1
0
LINE
5
BF
100
AcDbEntity
8
1
62
256
6
ByLayer
370
18
48
1
60
0
100
AcDbLine
10
59.99999
20
26.80339
30
0
11
59.99999
21
24.200199
31
0
39
0
210
0
220
0
230
1
0
LINE
5
C0
100
AcDbEntity
8
1
62
256
6
ByLayer
370
18
48
1
60
0
100
AcDbLine
10
57.851573
20
26.918248
30
0
11
58.609011
21
26.937861
31
0
39
0
210
0
220
0
230
1
0
LINE
5
C1
100
AcDbEntity
8
1
62
256
6
ByLayer
370
18
48
1
60
0
100
AcDbLine
10
58.609011
20
24.065729
30
0
11
58.609011
21
26.937861
31
0
39
0
210
0
220
0
230
1
0
LINE
5
C2
100
AcDbEntity
8
1
62
256
6
ByLayer
370
18
48
1
60
0
100
AcDbLine
10
58.609011
20
24.065729
30
0
11
57.851573
21
24.0391
31
0
39
0
210
0
220
0
230
1
0
LINE
5
C3
100
AcDbEntity
8
1
62
256
6
ByLayer
370
13
48
1
60
0
100
AcDbLine
10
56.397706
20
25.269051
30
0
11
53.694875
21
25.269051
31
0
39
0
210
0
220
0
230
1
0
LINE
5
C4
100
AcDbEntity
8
1
62
256
6
ByLayer
370
13
48
1
60
0
100
AcDbLine
10
57.18134
20
25.472901
30
0
11
53.749557
21
25.472901
31
0
39
0
210
0
220
0
230
1
0
LINE
5
C5
100
AcDbEntity
8
1
62
256
6
ByLayer
370
13
48
1
60
0
100
AcDbLine
10
53.640695
20
25.663251
30
0
11
56.397706
21
25.663251
31
0
39
0
210
0
220
0
230
1
0
LINE
5
C6
100
AcDbEntity
8
1
62
256
6
ByLayer
370
13
48
1
60
0
100
AcDbLine
10
53.689871
20
25.265176
30
0
11
56.344414
21
25.265176
31
0
39
0
210
0
220
0
230
1
0
LINE
5
C7
100
AcDbEntity
8
1
62
256
6
ByLayer
370
13
48
1
60
0
100
AcDbLine
10
53.635151
20
25.666208
30
0
11
56.344414
21
25.666208
31
0
39
0
210
0
220
0
230
1
0
LINE
5
C8
100
AcDbEntity
8
1
62
256
6
ByLayer
370
13
48
1
60
0
100
AcDbLine
10
53.604735
20
25.208868
30
0
11
55.636252
21
25.208868
31
0
39
0
210
0
220
0
230
1
0
LINE
5
C9
100
AcDbEntity
8
1
62
256
6
ByLayer
370
13
48
1
60
0
100
AcDbLine
10
53.570213
20
25.710317
30
0
11
55.636252
21
25.710317
31
0
39
0
210
0
220
0
230
1
0
LINE
5
CA
100
AcDbEntity
8
1
62
256
6
ByLayer
370
13
48
1
60
0
100
AcDbLine
10
53.565903
20
25.086762
30
0
11
55.024167
21
25.086762
31
0
39
0
210
0
220
0
230
1
0
LINE
5
CB
100
AcDbEntity
8
1
62
256
6
ByLayer
370
18
48
1
60
0
100
AcDbLine
10
46.227513
20
24.294912
30
0
11
53.772487
21
24.294912
31
0
39
0
210
0
220
0
230
1
0
LINE
5
CC
100
AcDbEntity
8
1
62
256
6
ByLayer
370
13
48
1
60
0
100
AcDbLine
10
53.772487
20
24.419325
30
0
11
53.42589
21
24.419325
31
0
39
0
210
0
220
0
230
1
0
LINE
5
CD
100
AcDbEntity
8
1
62
256
6
ByLayer
370
13
48
1
60
0
100
AcDbLine
10
53.436374
20
24.469129
30
0
11
53.82005
21
24.469129
31
0
39
0
210
0
220
0
230
1
0
LINE
5
CE
100
AcDbEntity
8
1
62
256
6
ByLayer
370
13
48
1
60
0
100
AcDbLine
10
53.538741
20
25.821879
30
0
11
55.024167
21
25.821879
31
0
39
0
210
0
220
0
230
1
0
LINE
5
CF
100
AcDbEntity
8
1
62
256
6
ByLayer
370
13
48
1
60
0
100
AcDbLine
10
53.82005
20
26.418768
30
0
11
53.36045
21
26.418768
31
0
39
0
210
0
220
0
230
1
0
LINE
5
D0
100
AcDbEntity
8
1
62
256
6
ByLayer
370
13
48
1
60
0
100
AcDbLine
10
53.345371
20
26.467753
30
0
11
53.772487
21
26.467753
31
0
39
0
210
0
220
0
230
1
0
LINE
5
D1
100
AcDbEntity
8
1
62
256
6
ByLayer
370
18
48
1
60
0
100
AcDbLine
10
56.472465
20
26.645586
30
0
11
57.419669
21
26.892135
31
0
39
0
210
0
220
0
230
1
0
LINE
5
D2
100
AcDbEntity
8
1
62
256
6
ByLayer
370
18
48
1
60
0
100
AcDbLine
10
53.772487
20
26.467753
30
0
11
53.772487
21
26.592166
31
0
39
0
210
0
220
0
230
1
0
LINE
5
D3
100
AcDbEntity
8
1
62
256
6
ByLayer
370
18
48
1
60
0
100
AcDbLine
10
55.024167
20
25.821879
30
0
11
53.82005
21
26.418768
31
0
39
0
210
0
220
0
230
1
0
LINE
5
D4
100
AcDbEntity
8
1
62
256
6
ByLayer
370
18
48
1
60
0
100
AcDbLine
10
56.397706
20
25.663251
30
0
11
56.344414
21
25.666208
31
0
39
0
210
0
220
0
230
1
0
LINE
5
D5
100
AcDbEntity
8
1
62
256
6
ByLayer
370
18
48
1
60
0
100
AcDbLine
10
56.344414
20
25.265176
30
0
11
56.397706
21
25.269051
31
0
39
0
210
0
220
0
230
1
0
LINE
5
D6
100
AcDbEntity
8
1
62
256
6
ByLayer
370
18
48
1
60
0
100
AcDbLine
10
53.82005
20
24.469129
30
0
11
55.024167
21
25.086762
31
0
39
0
210
0
220
0
230
1
0
LINE
5
D7
100
AcDbEntity
8
1
62
256
6
ByLayer
370
18
48
1
60
0
100
AcDbLine
10
53.772487
20
24.294912
30
0
11
53.772487
21
24.419325
31
0
39
0
210
0
220
0
230
1
0
LINE
5
D8
100
AcDbEntity
8
1
62
256
6
ByLayer
370
18
48
1
60
0
100
AcDbLine
10
53.772487
20
24.294912
30
0
11
56.228061
21
24.316063
31
0
39
0
210
0
220
0
230
1
0
LINE
5
D9
100
AcDbEntity
8
1
62
256
6
ByLayer
370
18
48
1
60
0
100
AcDbLine
10
57.419669
20
24.057773
30
0
11
56.472465
21
24.288004
31
0
39
0
210
0
220
0
230
1
0
LINE
5
DA
100
AcDbEntity
8
1
62
256
6
ByLayer
370
18
48
1
60
0
100
AcDbLine
10
57.851573
20
24.0391
30
0
11
57.458733
21
24.05243
31
0
39
0
210
0
220
0
230
1
0
LINE
5
DB
100
AcDbEntity
8
1
62
256
6
ByLayer
370
18
48
1
60
0
100
AcDbLine
10
57.851573
20
24.0391
30
0
11
57.851573
21
26.918248
31
0
39
0
210
0
220
0
230
1
0
LINE
5
DC
100
AcDbEntity
8
1
62
256
6
ByLayer
370
18
48
1
60
0
100
AcDbLine
10
57.458733
20
26.898151
30
0
11
57.851573
21
26.918248
31
0
39
0
210
0
220
0
230
1
0
LINE
5
DD
100
AcDbEntity
8
1
62
256
6
ByLayer
370
18
48
1
60
0
100
AcDbLine
10
56.228061
20
26.613317
30
0
11
53.772487
21
26.592166
31
0
39
0
210
0
220
0
230
1
0
LINE
5
DE
100
AcDbEntity
8
1
62
256
6
ByLayer
370
13
48
1
60
0
100
AcDbLine
10
56.228061
20
26.613317
30
0
11
56.498817
21
26.652445
31
0
39
0
210
0
220
0
230
1
0
LINE
5
DF
100
AcDbEntity
8
1
62
256
6
ByLayer
370
18
48
1
60
0
100
AcDbLine
10
53.772487
20
26.592166
30
0
11
53.307174
21
26.592166
31
0
39
0
210
0
220
0
230
1
0
LINE
5
E0
100
AcDbEntity
8
1
62
256
6
ByLayer
370
18
48
1
60
0
100
AcDbLine
10
46.227513
20
24.294912
30
0
11
44.636915
21
24.308612
31
0
39
0
210
0
220
0
230
1
0
LINE
5
E1
100
AcDbEntity
8
1
62
256
6
ByLayer
370
18
48
1
60
0
100
AcDbLine
10
46.227513
20
24.294912
30
0
11
46.227513
21
24.361761
31
0
39
0
210
0
220
0
230
1
0
MTEXT
5
173
100
AcDbEntity
8
SK6
62
256
6
ByLayer
370
18
48
1
60
0
100
AcDbMText
10
-14.3145
20
-47.273272
30
0
210
0
220
0
230
1
1
\W0.7643;C2A-CC4-RFG15B-042CB
40
3.5
41
0
44
1.084337
50
0
71
7
72
5
7
iso_b_vert
0
DIMENSION
5
178
100
AcDbEntity
8
2
62
256
6
ByLayer
370
18
48
1
60
0
100
AcDbDimension
2
_U0
10
91.1
20
27
30
0
11
91.1
21
13.5
31
0
70
32
71
1
72
1
41
1
210
0
220
0
230
1
3
Standard
100
AcDbAlignedDimension
13
0
23
0
33
0
14
60
24
27
34
0
50
90
100
AcDbRotatedDimension
1001
ACAD
1000
DSTYLE
1002
{
1070
   371
1070
    13
1070
   372
1070
    13
1070
   170
1070
     0
1070
   144
1040
1.0
1070
   277
1070
     2
1070
   284
1070
     8
1070
   278
1070
    46
1070
   146
1040
1.0
1070
   345
1005
16
1070
   347
1005
16
1070
   346
1005
16
1070
   344
1005
0
1070
   343
1005
0
1070
   172
1070
     1
1070
    76
1070
     0
1070
    75
1070
     0
1070
   282
1070
     0
1070
   281
1070
     0
1070
    71
1070
     0
1070
    74
1070
     0
1070
   279
1070
     0
1070
   173
1070
     1
1070
   340
1005
174
1070
   271
1070
     2
1070
   272
1070
     2
1070
    77
1070
     1
1070
    73
1070
     0
1070
   171
1070
     3
1070
   274
1070
     4
1070
   177
1070
     2
1070
   176
1070
     2
1070
   178
1070
     2
1070
    78
1070
     8
1070
    48
1040
-0.1
1070
    41
1040
3.5
1070
   147
1040
1.75
1070
    42
1040
1.5875
1070
    44
1040
2.0
1070
   140
1040
3.5
1002
}
1001
ACAD_DSTYLE_DIM_LINETYPE
1070
   380
1005
16
1001
ACAD_DSTYLE_DIM_EXT1_LINETYPE
1070
   381
1005
16
1001
ACAD_DSTYLE_DIM_EXT2_LINETYPE
1070
   382
1005
16
0
DIMENSION
5
192
100
AcDbEntity
8
2
62
256
6
ByLayer
370
18
48
1
60
0
100
AcDbDimension
2
_U1
10
80.1
20
27
30
0
11
80.1
21
25.500895
31
0
70
32
71
1
72
1
41
1
210
0
220
0
230
1
3
Standard
100
AcDbAlignedDimension
13
60
23
24.001791
33
0
14
60
24
27
34
0
50
90
100
AcDbRotatedDimension
1001
ACAD
1000
DSTYLE
1002
{
1070
   371
1070
    13
1070
   372
1070
    13
1070
   170
1070
     0
1070
   144
1040
1.0
1070
   277
1070
     2
1070
   284
1070
     8
1070
   278
1070
    46
1070
   146
1040
1.0
1070
   345
1005
16
1070
   347
1005
16
1070
   346
1005
16
1070
   344
1005
0
1070
   343
1005
0
1070
   172
1070
     1
1070
    76
1070
     0
1070
    75
1070
     0
1070
   282
1070
     0
1070
   281
1070
     0
1070
    71
1070
     0
1070
    74
1070
     0
1070
   279
1070
     0
1070
   173
1070
     1
1070
   340
1005
174
1070
   271
1070
     2
1070
   272
1070
     2
1070
    77
1070
     1
1070
    73
1070
     0
1070
   171
1070
     3
1070
   274
1070
     4
1070
   177
1070
     2
1070
   176
1070
     2
1070
   178
1070
     2
1070
    78
1070
     8
1070
    48
1040
-0.1
1070
    41
1040
3.5
1070
   147
1040
1.75
1070
    42
1040
1.5875
1070
    44
1040
2.0
1070
   140
1040
3.5
1002
}
1001
ACAD_DSTYLE_DIM_LINETYPE
1070
   380
1005
16
1001
ACAD_DSTYLE_DIM_EXT1_LINETYPE
1070
   381
1005
16
1001
ACAD_DSTYLE_DIM_EXT2_LINETYPE
1070
   382
1005
16
0
DIMENSION
5
1AB
100
AcDbEntity
8
SK2
62
256
6
ByLayer
370
18
48
1
60
0
100
AcDbDimension
2
_U2
10
-36.6
20
-20
30
0
11
-36.6
21
0
31
0
70
32
71
1
72
1
41
1
210
0
220
0
230
1
3
Standard
100
AcDbAlignedDimension
13
0
23
20
33
0
14
0
24
-20
34
0
50
90
100
AcDbRotatedDimension
1001
ACAD
1000
DSTYLE
1002
{
1070
   371
1070
    13
1070
   372
1070
    13
1070
   170
1070
     0
1070
   144
1040
1.0
1070
   277
1070
     2
1070
   284
1070
     8
1070
   278
1070
    46
1070
   146
1040
1.0
1070
   345
1005
16
1070
   347
1005
16
1070
   346
1005
16
1070
   344
1005
0
1070
   343
1005
0
1070
   172
1070
     1
1070
    76
1070
     0
1070
    75
1070
     0
1070
   282
1070
     0
1070
   281
1070
     0
1070
    71
1070
     0
1070
    74
1070
     0
1070
   279
1070
     0
1070
   173
1070
     1
1070
   340
1005
174
1070
   271
1070
     2
1070
   272
1070
     2
1070
    77
1070
     1
1070
    73
1070
     0
1070
   171
1070
     3
1070
   274
1070
     4
1070
   177
1070
     2
1070
   176
1070
     2
1070
   178
1070
     2
1070
    78
1070
     8
1070
    48
1040
-0.1
1070
    41
1040
3.5
1070
   147
1040
1.75
1070
    42
1040
1.5875
1070
    44
1040
2.0
1070
   140
1040
3.5
1002
}
1001
ACAD_DSTYLE_DIM_LINETYPE
1070
   380
1005
16
1001
ACAD_DSTYLE_DIM_EXT1_LINETYPE
1070
   381
1005
16
1001
ACAD_DSTYLE_DIM_EXT2_LINETYPE
1070
   382
1005
16
0
DIMENSION
5
1C4
100
AcDbEntity
8
2
62
256
6
ByLayer
370
18
48
1
60
0
100
AcDbDimension
2
_U3
10
60
20
-35.248209
30
0
11
52.5
21
-35.248209
31
0
70
32
71
1
72
1
41
1
210
0
220
0
230
1
3
Standard
100
AcDbAlignedDimension
13
45
23
25.501791
33
0
14
60
24
25.501791
34
0
50
0
100
AcDbRotatedDimension
1001
ACAD
1000
DSTYLE
1002
{
1070
   371
1070
    13
1070
   372
1070
    13
1070
   170
1070
     0
1070
   144
1040
1.0
1070
   277
1070
     2
1070
   284
1070
     8
1070
   278
1070
    46
1070
   146
1040
1.0
1070
   345
1005
16
1070
   347
1005
16
1070
   346
1005
16
1070
   344
1005
0
1070
   343
1005
0
1070
   172
1070
     1
1070
    76
1070
     0
1070
    75
1070
     0
1070
   282
1070
     0
1070
   281
1070
     0
1070
    71
1070
     0
1070
    74
1070
     0
1070
   279
1070
     0
1070
   173
1070
     1
1070
   340
1005
174
1070
   271
1070
     1
1070
   272
1070
     2
1070
    77
1070
     1
1070
    73
1070
     1
1070
   171
1070
     3
1070
   274
1070
     4
1070
   177
1070
     2
1070
   176
1070
     2
1070
   178
1070
     2
1070
    78
1070
     8
1070
    48
1040
-0.1
1070
    41
1040
3.5
1070
   147
1040
1.75
1070
    42
1040
1.5875
1070
    44
1040
2.0
1070
   140
1040
3.5
1002
}
1001
ACAD_DSTYLE_DIM_LINETYPE
1070
   380
1005
16
1001
ACAD_DSTYLE_DIM_EXT1_LINETYPE
1070
   381
1005
16
1001
ACAD_DSTYLE_DIM_EXT2_LINETYPE
1070
   382
1005
16
0
DIMENSION
5
1DD
100
AcDbEntity
8
2
62
256
6
ByLayer
370
18
48
1
60
0
100
AcDbDimension
2
_U4
10
60
20
42.25
30
0
11
30
21
42.25
31
0
70
32
71
1
72
1
41
1
210
0
220
0
230
1
3
Standard
100
AcDbAlignedDimension
13
0
23
20
33
0
14
60
24
27
34
0
50
0
100
AcDbRotatedDimension
1001
ACAD
1000
DSTYLE
1002
{
1070
   371
1070
    13
1070
   372
1070
    13
1070
   170
1070
     0
1070
   144
1040
1.0
1070
   277
1070
     2
1070
   284
1070
     8
1070
   278
1070
    46
1070
   146
1040
1.0
1070
   345
1005
16
1070
   347
1005
16
1070
   346
1005
16
1070
   344
1005
0
1070
   343
1005
0
1070
   172
1070
     1
1070
    76
1070
     0
1070
    75
1070
     0
1070
   282
1070
     0
1070
   281
1070
     0
1070
    71
1070
     0
1070
    74
1070
     0
1070
   279
1070
     0
1070
   173
1070
     1
1070
   340
1005
174
1070
   271
1070
     1
1070
   272
1070
     2
1070
    77
1070
     1
1070
    73
1070
     1
1070
   171
1070
     3
1070
   274
1070
     4
1070
   177
1070
     2
1070
   176
1070
     2
1070
   178
1070
     2
1070
    78
1070
     8
1070
    48
1040
-0.1
1070
    41
1040
3.5
1070
   147
1040
1.75
1070
    42
1040
1.5875
1070
    44
1040
2.0
1070
   140
1040
3.5
1002
}
1001
ACAD_DSTYLE_DIM_LINETYPE
1070
   380
1005
16
1001
ACAD_DSTYLE_DIM_EXT1_LINETYPE
1070
   381
1005
16
1001
ACAD_DSTYLE_DIM_EXT2_LINETYPE
1070
   382
1005
16
0
ENDSEC
0
SECTION
2
OBJECTS
0
DICTIONARY
5
263
330
0
100
AcDbDictionary
280
0
281
1
3
ACAD_GROUP
350
264
3
ACAD_MLINESTYLE
350
265
0
DICTIONARY
5
264
330
0
100
AcDbDictionary
280
0
281
1
0
DICTIONARY
5
265
330
0
100
AcDbDictionary
280
0
281
1
3
Standard
350
18
0
MLINESTYLE
5
18
330
265
100
AcDbMlineStyle
2
Standard
70
0
3

62
256
51
90
52
90
71
2
49
-0.5
62
256
6
ByLayer
49
0.5
62
256
6
ByLayer
0
RASTERVARIABLES
5
253
330

100
AcDbRasterVariables
90
0
70
1
71
1
72
1
0
ENDSEC
0
EOF
