0
SECTION
2
HEADER
9
$ACADVER
1
AC1015
9
$DWGCODEPAGE
3
ANSI_1252
9
$HANDSEED
5
239
9
$ANGBASE
50
0
9
$ANGDIR
70
0
9
$ATTMODE
70
1
9
$AUNITS
70
0
9
$AUPREC
70
0
9
$CECOLOR
62
256
9
$CELTSCALE
40
1
9
$CELTYPE
6
ByLayer
9
$CELWEIGHT
370
18
9
$CLAYER
8
0
9
$CMLJUST
70
0
9
$CMLSCALE
40
1
9
$CMLSTYLE
2
Standard
9
$DIMSTYLE
2
Standard
9
$TEXTSIZE
40
0.2
9
$TEXTSTYLE
7
Standard
9
$LUNITS
70
2
9
$LUPREC
70
4
9
$EXTNAMES
290
1
9
$INSUNITS
70
4
9
$LTSCALE
40
1
9
$LWDISPLAY
290
1
9
$PDMODE
70
0
9
$PDSIZE
40
0
9
$PLINEGEN
70
0
0
ENDSEC
0
SECTION
2
CLASSES
0
CLASS
1
RASTERVARIABLES
2
AcDbRasterVariables
3
ISM
90
0
280
0
281
0
0
ENDSEC
0
SECTION
2
TABLES
0
TABLE
2
VPORT
5
22f
100
AcDbSymbolTable
0
VPORT
5
1
100
AcDbSymbolTableRecord
100
AcDbViewportTableRecord
2
*Active
70
0
10
0
20
0
11
1
21
1
12
-1
22
1
13
0
23
0
14
0.5
24
0.5
15
10
25
10
16
0
26
0
36
1
17
0
27
0
37
0
0
ENDTAB
0
TABLE
2
LTYPE
5
230
100
AcDbSymbolTable
0
LTYPE
5
14
100
AcDbSymbolTableRecord
100
AcDbLinetypeTableRecord
70
0
2
ByBlock
3

72
65
73
0
40
0
0
LTYPE
5
15
100
AcDbSymbolTableRecord
100
AcDbLinetypeTableRecord
70
0
2
ByLayer
3

72
65
73
0
40
0
0
LTYPE
5
16
100
AcDbSymbolTableRecord
100
AcDbLinetypeTableRecord
70
0
2
Continuous
3
Solid line
72
65
73
0
40
0
0
LTYPE
5
6E
100
AcDbSymbolTableRecord
100
AcDbLinetypeTableRecord
70
0
2
CENTER
3
____ _ ____ _ ____ _ ____
72
65
73
4
40
47.5
49
22
74
0
49
-8.5
74
0
49
8.5
74
0
49
-8.5
74
0
0
LTYPE
5
6F
100
AcDbSymbolTableRecord
100
AcDbLinetypeTableRecord
70
0
2
DASHED
3
__ __ __ __ __ __ __ __ __
72
65
73
2
40
25.72
49
12.86
74
0
49
-12.86
74
0
0
ENDTAB
0
TABLE
2
LAYER
5
231
100
AcDbSymbolTable
0
LAYER
5
10
100
AcDbSymbolTableRecord
100
AcDbLayerTableRecord
2
0
70
0
62
7
6
Continuous
290
1
370
-3
390
0
0
LAYER
5
71
100
AcDbSymbolTableRecord
100
AcDbLayerTableRecord
2
80
70
0
62
-6
6
Continuous
290
1
370
-3
390
0
0
LAYER
5
73
100
AcDbSymbolTableRecord
100
AcDbLayerTableRecord
2
81
70
0
62
-3
6
Continuous
290
1
370
-3
390
0
0
LAYER
5
75
100
AcDbSymbolTableRecord
100
AcDbLayerTableRecord
2
1
70
0
62
4
6
Continuous
290
1
370
-3
390
0
0
LAYER
5
15D
100
AcDbSymbolTableRecord
100
AcDbLayerTableRecord
2
Defpoints
70
0
62
7
6
Continuous
290
0
370
-3
390
0
0
LAYER
5
16A
100
AcDbSymbolTableRecord
100
AcDbLayerTableRecord
2
2
70
0
62
7
6
Continuous
290
1
370
-3
390
0
0
LAYER
5
21c
100
AcDbSymbolTableRecord
100
AcDbLayerTableRecord
2
SK1
70
0
62
4
6
Continuous
290
1
370
-3
390
0
0
LAYER
5
21d
100
AcDbSymbolTableRecord
100
AcDbLayerTableRecord
2
SK2
70
0
62
7
6
Continuous
290
1
370
-3
390
0
0
LAYER
5
21e
100
AcDbSymbolTableRecord
100
AcDbLayerTableRecord
2
SK6
70
0
62
5
6
Continuous
290
1
370
-3
390
0
0
ENDTAB
0
TABLE
2
STYLE
5
232
100
AcDbSymbolTable
0
STYLE
5
11
100
AcDbSymbolTableRecord
100
AcDbTextStyleTableRecord
2
Standard
3
txt
70
0
71
0
40
0
41
1
42
0
50
0
0
STYLE
5
14C
100
AcDbSymbolTableRecord
100
AcDbTextStyleTableRecord
2
iso_b_vert
3
simplex.shx
70
0
71
0
40
0
41
1
42
0
50
0
0
STYLE
5
14D
100
AcDbSymbolTableRecord
100
AcDbTextStyleTableRecord
2
DWGDirectTextStyle
3
simplex
70
0
71
0
40
0
41
1
42
0
50
0
0
ENDTAB
0
TABLE
2
DIMSTYLE
5
233
100
AcDbSymbolTable
100
AcDbDimStyleTable
0
DIMSTYLE
105
27
100
AcDbSymbolTableRecord
100
AcDbDimStyleTableRecord
2
Standard
70
0
3
<>
41
0.18
42
0.0625
44
0.18
140
0.18
147
0.09
73
0
74
0
77
1
271
2
275
0
278
52
280
0
340
11
0
ENDTAB
0
TABLE
2
VIEW
5
234
100
AcDbSymbolTable
0
ENDTAB
0
TABLE
2
UCS
5
235
100
AcDbSymbolTable
0
ENDTAB
0
TABLE
2
APPID
5
236
100
AcDbSymbolTable
0
APPID
5
12
100
AcDbSymbolTableRecord
100
AcDbRegAppTableRecord
2
ACAD
70
0
0
APPID
5
159
100
AcDbSymbolTableRecord
100
AcDbRegAppTableRecord
2
ACAD_DSTYLE_DIMBREAK
70
0
0
APPID
5
1DB
100
AcDbSymbolTableRecord
100
AcDbRegAppTableRecord
2
ACAD_DSTYLE_DIM_LINETYPE
70
0
0
APPID
5
1DC
100
AcDbSymbolTableRecord
100
AcDbRegAppTableRecord
2
ACAD_DSTYLE_DIM_EXT1_LINETYPE
70
0
0
APPID
5
1DD
100
AcDbSymbolTableRecord
100
AcDbRegAppTableRecord
2
ACAD_DSTYLE_DIM_EXT2_LINETYPE
70
0
0
APPID
5
218
100
AcDbSymbolTableRecord
100
AcDbRegAppTableRecord
2
ACAD_MLEADERVER
70
0
0
ENDTAB
0
TABLE
2
BLOCK_RECORD
5
237
100
AcDbSymbolTable
0
BLOCK_RECORD
5
1F
100
AcDbSymbolTableRecord
100
AcDbBlockTableRecord
2
*Model_Space
340
0
70
0
0
BLOCK_RECORD
5
1B
100
AcDbSymbolTableRecord
100
AcDbBlockTableRecord
2
*Paper_Space
340
0
70
0
0
BLOCK_RECORD
5
23
100
AcDbSymbolTableRecord
100
AcDbBlockTableRecord
2
*Paper_Space0
340
0
70
0
0
BLOCK_RECORD
5
15E
100
AcDbSymbolTableRecord
100
AcDbBlockTableRecord
2
*D1
340
0
70
0
0
BLOCK_RECORD
5
16B
100
AcDbSymbolTableRecord
100
AcDbBlockTableRecord
2
_U0
340
0
70
0
0
BLOCK_RECORD
5
177
100
AcDbSymbolTableRecord
100
AcDbBlockTableRecord
2
*D3
340
0
70
0
0
BLOCK_RECORD
5
184
100
AcDbSymbolTableRecord
100
AcDbBlockTableRecord
2
_U1
340
0
70
0
0
BLOCK_RECORD
5
190
100
AcDbSymbolTableRecord
100
AcDbBlockTableRecord
2
*D5
340
0
70
0
0
BLOCK_RECORD
5
19C
100
AcDbSymbolTableRecord
100
AcDbBlockTableRecord
2
_U2
340
0
70
0
0
BLOCK_RECORD
5
1A8
100
AcDbSymbolTableRecord
100
AcDbBlockTableRecord
2
*D7
340
0
70
0
0
BLOCK_RECORD
5
1B4
100
AcDbSymbolTableRecord
100
AcDbBlockTableRecord
2
_U3
340
0
70
0
0
ENDTAB
0
ENDSEC
0
SECTION
2
BLOCKS
0
BLOCK
5
20
100
AcDbEntity
8
0
100
AcDbBlockBegin
2
*Model_Space
70
0
10
0
20
0
30
0
3
*Model_Space
0
ENDBLK
5
21
100
AcDbEntity
8
0
100
AcDbBlockEnd
0
BLOCK
5
1C
100
AcDbEntity
8
0
100
AcDbBlockBegin
2
*Paper_Space
70
0
10
0
20
0
30
0
3
*Paper_Space
0
ENDBLK
5
1D
100
AcDbEntity
8
0
100
AcDbBlockEnd
0
BLOCK
5
24
100
AcDbEntity
8
0
100
AcDbBlockBegin
2
*Paper_Space0
70
0
10
0
20
0
30
0
3
*Paper_Space0
0
ENDBLK
5
25
100
AcDbEntity
8
0
100
AcDbBlockEnd
0
BLOCK
5
15F
100
AcDbEntity
8
0
100
AcDbBlockBegin
2
*D1
70
1
10
0
20
0
30
0
3
*D1
0
LINE
5
161
100
AcDbEntity
8
0
62
256
6
ByLayer
370
-2
48
1
60
0
100
AcDbLine
10
71.5875
20
39
30
0
11
103.1
21
39
31
0
39
0
210
0
220
0
230
1
0
LINE
5
162
100
AcDbEntity
8
0
62
256
6
ByLayer
370
-2
48
1
60
0
100
AcDbLine
10
1.5875
20
0
30
0
11
103.1
21
0
31
0
39
0
210
0
220
0
230
1
0
LINE
5
163
100
AcDbEntity
8
0
62
256
6
ByLayer
370
-2
48
1
60
0
100
AcDbLine
10
101.1
20
35.5
30
0
11
101.1
21
3.5
31
0
39
0
210
0
220
0
230
1
0
SOLID
5
164
100
AcDbEntity
8
0
62
256
6
ByLayer
370
-1
48
1
60
0
100
AcDbTrace
10
101.683333
20
35.5
30
0
11
100.516667
21
35.5
31
0
12
101.1
22
39
32
0
13
101.1
23
39
33
0
39
0
210
0
220
0
230
1
0
SOLID
5
165
100
AcDbEntity
8
0
62
256
6
ByLayer
370
-1
48
1
60
0
100
AcDbTrace
10
100.516667
20
3.5
30
0
11
101.683333
21
3.5
31
0
12
101.1
22
0
32
0
13
101.1
23
0
33
0
39
0
210
0
220
0
230
1
0
MTEXT
5
166
100
AcDbEntity
8
0
62
256
6
ByLayer
370
18
48
1
60
0
100
AcDbMText
10
94.1
20
19.5
30
0
210
0
220
0
230
1
1
\A1;39
40
3.5
41
0
44
1
50
90
71
5
72
5
7
iso_b_vert
0
POINT
5
167
100
AcDbEntity
8
Defpoints
62
0
6
ByLayer
370
-1
48
1
60
0
100
AcDbPoint
10
70
20
39
30
0
39
0
210
0
220
0
230
1
50
360
0
POINT
5
168
100
AcDbEntity
8
Defpoints
62
0
6
ByLayer
370
-1
48
1
60
0
100
AcDbPoint
10
0
20
0
30
0
39
0
210
0
220
0
230
1
50
360
0
POINT
5
169
100
AcDbEntity
8
Defpoints
62
0
6
ByLayer
370
-1
48
1
60
0
100
AcDbPoint
10
101.1
20
0
30
0
39
0
210
0
220
0
230
1
50
360
0
ENDBLK
5
160
100
AcDbEntity
8
0
100
AcDbBlockEnd
0
BLOCK
5
172
100
AcDbEntity
8
0
100
AcDbBlockBegin
2
_U0
70
0
10
0
20
0
30
0
3
_U0
0
MTEXT
5
16C
100
AcDbEntity
8
2
62
256
6
ByLayer
370
18
48
1
60
0
100
AcDbMText
10
100.410366
20
17.567034
30
0
210
0
220
0
230
1
1
\W0.6927;39
40
3.5
41
0
44
1.084337
50
90
71
7
72
5
7
iso_b_vert
0
LINE
5
16D
100
AcDbEntity
8
2
62
256
6
ByLayer
370
13
48
1
60
0
100
AcDbLine
10
71.5875
20
39
30
0
11
103.1
21
39
31
0
39
0
210
0
220
0
230
1
0
LINE
5
16E
100
AcDbEntity
8
2
62
256
6
ByLayer
370
13
48
1
60
0
100
AcDbLine
10
1.5875
20
0
30
0
11
103.1
21
0
31
0
39
0
210
0
220
0
230
1
0
LINE
5
16F
100
AcDbEntity
8
2
62
256
6
ByLayer
370
13
48
1
60
0
100
AcDbLine
10
101.1
20
39
30
0
11
101.1
21
0
31
0
39
0
210
0
220
0
230
1
0
SOLID
5
170
100
AcDbEntity
8
2
62
256
6
ByLayer
370
18
48
1
60
0
100
AcDbTrace
10
101.1
20
39
30
0
11
101.560784
21
35.500002
31
0
12
100.639216
22
35.499998
32
0
13
100.639216
23
35.499998
33
0
39
0
210
0
220
0
230
1
0
SOLID
5
171
100
AcDbEntity
8
2
62
256
6
ByLayer
370
18
48
1
60
0
100
AcDbTrace
10
101.1
20
0
30
0
11
100.639216
21
3.499998
31
0
12
101.560784
22
3.500002
32
0
13
101.560784
23
3.500002
33
0
39
0
210
0
220
0
230
1
0
ENDBLK
5
173
100
AcDbEntity
8
0
100
AcDbBlockEnd
0
BLOCK
5
178
100
AcDbEntity
8
0
100
AcDbBlockBegin
2
*D3
70
1
10
0
20
0
30
0
3
*D3
0
LINE
5
17A
100
AcDbEntity
8
0
62
256
6
ByLayer
370
-2
48
1
60
0
100
AcDbLine
10
71.5875
20
34
30
0
11
92.1
21
34
31
0
39
0
210
0
220
0
230
1
0
LINE
5
17B
100
AcDbEntity
8
0
62
256
6
ByLayer
370
-2
48
1
60
0
100
AcDbLine
10
71.5875
20
39
30
0
11
92.1
21
39
31
0
39
0
210
0
220
0
230
1
0
LINE
5
17C
100
AcDbEntity
8
0
62
256
6
ByLayer
370
-2
48
1
60
0
100
AcDbLine
10
90.1
20
30.5
30
0
11
90.1
21
27
31
0
39
0
210
0
220
0
230
1
0
LINE
5
17D
100
AcDbEntity
8
0
62
256
6
ByLayer
370
-2
48
1
60
0
100
AcDbLine
10
90.1
20
42.5
30
0
11
90.1
21
46
31
0
39
0
210
0
220
0
230
1
0
SOLID
5
17E
100
AcDbEntity
8
0
62
256
6
ByLayer
370
-1
48
1
60
0
100
AcDbTrace
10
90.683333
20
30.5
30
0
11
89.516667
21
30.5
31
0
12
90.1
22
34
32
0
13
90.1
23
34
33
0
39
0
210
0
220
0
230
1
0
SOLID
5
17F
100
AcDbEntity
8
0
62
256
6
ByLayer
370
-1
48
1
60
0
100
AcDbTrace
10
89.516667
20
42.5
30
0
11
90.683333
21
42.5
31
0
12
90.1
22
39
32
0
13
90.1
23
39
33
0
39
0
210
0
220
0
230
1
0
MTEXT
5
180
100
AcDbEntity
8
0
62
256
6
ByLayer
370
18
48
1
60
0
100
AcDbMText
10
83.1
20
36.5
30
0
210
0
220
0
230
1
1
\A1;5
40
3.5
41
0
44
1
50
90
71
5
72
5
7
iso_b_vert
0
POINT
5
181
100
AcDbEntity
8
Defpoints
62
0
6
ByLayer
370
-1
48
1
60
0
100
AcDbPoint
10
70
20
34
30
0
39
0
210
0
220
0
230
1
50
360
0
POINT
5
182
100
AcDbEntity
8
Defpoints
62
0
6
ByLayer
370
-1
48
1
60
0
100
AcDbPoint
10
70
20
39
30
0
39
0
210
0
220
0
230
1
50
360
0
POINT
5
183
100
AcDbEntity
8
Defpoints
62
0
6
ByLayer
370
-1
48
1
60
0
100
AcDbPoint
10
90.1
20
39
30
0
39
0
210
0
220
0
230
1
50
360
0
ENDBLK
5
179
100
AcDbEntity
8
0
100
AcDbBlockEnd
0
BLOCK
5
18B
100
AcDbEntity
8
0
100
AcDbBlockBegin
2
_U1
70
0
10
0
20
0
30
0
3
_U1
0
MTEXT
5
185
100
AcDbEntity
8
2
62
256
6
ByLayer
370
18
48
1
60
0
100
AcDbMText
10
89.410366
20
35.874767
30
0
210
0
220
0
230
1
1
\W0.5404;5
40
3.5
41
0
44
1.084337
50
90
71
7
72
5
7
iso_b_vert
0
LINE
5
186
100
AcDbEntity
8
2
62
256
6
ByLayer
370
13
48
1
60
0
100
AcDbLine
10
71.5875
20
34
30
0
11
92.1
21
34
31
0
39
0
210
0
220
0
230
1
0
LINE
5
187
100
AcDbEntity
8
2
62
256
6
ByLayer
370
13
48
1
60
0
100
AcDbLine
10
71.5875
20
39
30
0
11
92.1
21
39
31
0
39
0
210
0
220
0
230
1
0
LINE
5
188
100
AcDbEntity
8
2
62
256
6
ByLayer
370
13
48
1
60
0
100
AcDbLine
10
90.1
20
25.25
30
0
11
90.1
21
47.75
31
0
39
0
210
0
220
0
230
1
0
SOLID
5
189
100
AcDbEntity
8
2
62
256
6
ByLayer
370
18
48
1
60
0
100
AcDbTrace
10
90.1
20
34
30
0
11
90.560784
21
30.500002
31
0
12
89.639216
22
30.499998
32
0
13
89.639216
23
30.499998
33
0
39
0
210
0
220
0
230
1
0
SOLID
5
18A
100
AcDbEntity
8
2
62
256
6
ByLayer
370
18
48
1
60
0
100
AcDbTrace
10
90.1
20
39
30
0
11
89.639216
21
42.499998
31
0
12
90.560784
22
42.500002
32
0
13
90.560784
23
42.500002
33
0
39
0
210
0
220
0
230
1
0
ENDBLK
5
18C
100
AcDbEntity
8
0
100
AcDbBlockEnd
0
BLOCK
5
191
100
AcDbEntity
8
0
100
AcDbBlockBegin
2
*D5
70
1
10
0
20
0
30
0
3
*D5
0
LINE
5
193
100
AcDbEntity
8
0
62
256
6
ByLayer
370
-2
48
1
60
0
100
AcDbLine
10
52
20
32.737504
30
0
11
52
21
-32.424996
31
0
39
0
210
0
220
0
230
1
0
LINE
5
194
100
AcDbEntity
8
0
62
256
6
ByLayer
370
-2
48
1
60
0
100
AcDbLine
10
70
20
32.4125
30
0
11
70
21
-32.424996
31
0
39
0
210
0
220
0
230
1
0
LINE
5
195
100
AcDbEntity
8
0
62
256
6
ByLayer
370
-2
48
1
60
0
100
AcDbLine
10
55.5
20
-30.424996
30
0
11
66.5
21
-30.424996
31
0
39
0
210
0
220
0
230
1
0
SOLID
5
196
100
AcDbEntity
8
0
62
256
6
ByLayer
370
-1
48
1
60
0
100
AcDbTrace
10
55.5
20
-29.841663
30
0
11
55.5
21
-31.00833
31
0
12
52
22
-30.424996
32
0
13
52
23
-30.424996
33
0
39
0
210
0
220
0
230
1
0
SOLID
5
197
100
AcDbEntity
8
0
62
256
6
ByLayer
370
-1
48
1
60
0
100
AcDbTrace
10
66.5
20
-31.00833
30
0
11
66.5
21
-29.841663
31
0
12
70
22
-30.424996
32
0
13
70
23
-30.424996
33
0
39
0
210
0
220
0
230
1
0
MTEXT
5
198
100
AcDbEntity
8
0
62
256
6
ByLayer
370
18
48
1
60
0
100
AcDbMText
10
61
20
-23.424996
30
0
210
0
220
0
230
1
1
\A1;18
40
3.5
41
0
44
1
50
0
71
5
72
5
7
iso_b_vert
0
POINT
5
199
100
AcDbEntity
8
Defpoints
62
0
6
ByLayer
370
-1
48
1
60
0
100
AcDbPoint
10
52
20
34.325004
30
0
39
0
210
0
220
0
230
1
50
360
0
POINT
5
19A
100
AcDbEntity
8
Defpoints
62
0
6
ByLayer
370
-1
48
1
60
0
100
AcDbPoint
10
70
20
34
30
0
39
0
210
0
220
0
230
1
50
360
0
POINT
5
19B
100
AcDbEntity
8
Defpoints
62
0
6
ByLayer
370
-1
48
1
60
0
100
AcDbPoint
10
70
20
-30.424996
30
0
39
0
210
0
220
0
230
1
50
360
0
ENDBLK
5
192
100
AcDbEntity
8
0
100
AcDbBlockEnd
0
BLOCK
5
1A3
100
AcDbEntity
8
0
100
AcDbBlockBegin
2
_U2
70
0
10
0
20
0
30
0
3
_U2
0
MTEXT
5
19D
100
AcDbEntity
8
2
62
256
6
ByLayer
370
18
48
1
60
0
100
AcDbMText
10
59.532467
20
-29.392363
30
0
210
0
220
0
230
1
1
\W0.5321;18
40
3.5
41
0
44
1.084337
50
0
71
7
72
5
7
iso_b_vert
0
LINE
5
19E
100
AcDbEntity
8
2
62
256
6
ByLayer
370
13
48
1
60
0
100
AcDbLine
10
52
20
32.737504
30
0
11
52
21
-32.424996
31
0
39
0
210
0
220
0
230
1
0
LINE
5
19F
100
AcDbEntity
8
2
62
256
6
ByLayer
370
13
48
1
60
0
100
AcDbLine
10
70
20
32.4125
30
0
11
70
21
-32.424996
31
0
39
0
210
0
220
0
230
1
0
LINE
5
1A0
100
AcDbEntity
8
2
62
256
6
ByLayer
370
13
48
1
60
0
100
AcDbLine
10
52
20
-30.424996
30
0
11
70
21
-30.424996
31
0
39
0
210
0
220
0
230
1
0
SOLID
5
1A1
100
AcDbEntity
8
2
62
256
6
ByLayer
370
18
48
1
60
0
100
AcDbTrace
10
52
20
-30.424996
30
0
11
55.499998
21
-29.964212
31
0
12
55.500002
22
-30.88578
32
0
13
55.500002
23
-30.88578
33
0
39
0
210
0
220
0
230
1
0
SOLID
5
1A2
100
AcDbEntity
8
2
62
256
6
ByLayer
370
18
48
1
60
0
100
AcDbTrace
10
70
20
-30.424996
30
0
11
66.500002
21
-30.88578
31
0
12
66.499998
22
-29.964212
32
0
13
66.499998
23
-29.964212
33
0
39
0
210
0
220
0
230
1
0
ENDBLK
5
1A4
100
AcDbEntity
8
0
100
AcDbBlockEnd
0
BLOCK
5
1A9
100
AcDbEntity
8
0
100
AcDbBlockBegin
2
*D7
70
1
10
0
20
0
30
0
3
*D7
0
LINE
5
1AB
100
AcDbEntity
8
0
62
256
6
ByLayer
370
-2
48
1
60
0
100
AcDbLine
10
0
20
1.5875
30
0
11
0
21
55.75
31
0
39
0
210
0
220
0
230
1
0
LINE
5
1AC
100
AcDbEntity
8
0
62
256
6
ByLayer
370
-2
48
1
60
0
100
AcDbLine
10
70
20
40.5875
30
0
11
70
21
55.75
31
0
39
0
210
0
220
0
230
1
0
LINE
5
1AD
100
AcDbEntity
8
0
62
256
6
ByLayer
370
-2
48
1
60
0
100
AcDbLine
10
3.5
20
53.75
30
0
11
66.5
21
53.75
31
0
39
0
210
0
220
0
230
1
0
SOLID
5
1AE
100
AcDbEntity
8
0
62
256
6
ByLayer
370
-1
48
1
60
0
100
AcDbTrace
10
3.5
20
54.333333
30
0
11
3.5
21
53.166667
31
0
12
0
22
53.75
32
0
13
0
23
53.75
33
0
39
0
210
0
220
0
230
1
0
SOLID
5
1AF
100
AcDbEntity
8
0
62
256
6
ByLayer
370
-1
48
1
60
0
100
AcDbTrace
10
66.5
20
53.166667
30
0
11
66.5
21
54.333333
31
0
12
70
22
53.75
32
0
13
70
23
53.75
33
0
39
0
210
0
220
0
230
1
0
MTEXT
5
1B0
100
AcDbEntity
8
0
62
256
6
ByLayer
370
18
48
1
60
0
100
AcDbMText
10
35
20
60.75
30
0
210
0
220
0
230
1
1
\A1;70
40
3.5
41
0
44
1
50
0
71
5
72
5
7
iso_b_vert
0
POINT
5
1B1
100
AcDbEntity
8
Defpoints
62
0
6
ByLayer
370
-1
48
1
60
0
100
AcDbPoint
10
0
20
0
30
0
39
0
210
0
220
0
230
1
50
360
0
POINT
5
1B2
100
AcDbEntity
8
Defpoints
62
0
6
ByLayer
370
-1
48
1
60
0
100
AcDbPoint
10
70
20
39
30
0
39
0
210
0
220
0
230
1
50
360
0
POINT
5
1B3
100
AcDbEntity
8
Defpoints
62
0
6
ByLayer
370
-1
48
1
60
0
100
AcDbPoint
10
70
20
53.75
30
0
39
0
210
0
220
0
230
1
50
360
0
ENDBLK
5
1AA
100
AcDbEntity
8
0
100
AcDbBlockEnd
0
BLOCK
5
1BB
100
AcDbEntity
8
0
100
AcDbBlockBegin
2
_U3
70
0
10
0
20
0
30
0
3
_U3
0
MTEXT
5
1B5
100
AcDbEntity
8
2
62
256
6
ByLayer
370
18
48
1
60
0
100
AcDbMText
10
33.095034
20
54.782634
30
0
210
0
220
0
230
1
1
\W0.6740;70
40
3.5
41
0
44
1.084337
50
0
71
7
72
5
7
iso_b_vert
0
LINE
5
1B6
100
AcDbEntity
8
2
62
256
6
ByLayer
370
13
48
1
60
0
100
AcDbLine
10
0
20
1.5875
30
0
11
0
21
55.75
31
0
39
0
210
0
220
0
230
1
0
LINE
5
1B7
100
AcDbEntity
8
2
62
256
6
ByLayer
370
13
48
1
60
0
100
AcDbLine
10
70
20
40.5875
30
0
11
70
21
55.75
31
0
39
0
210
0
220
0
230
1
0
LINE
5
1B8
100
AcDbEntity
8
2
62
256
6
ByLayer
370
13
48
1
60
0
100
AcDbLine
10
0
20
53.75
30
0
11
70
21
53.75
31
0
39
0
210
0
220
0
230
1
0
SOLID
5
1B9
100
AcDbEntity
8
2
62
256
6
ByLayer
370
18
48
1
60
0
100
AcDbTrace
10
0
20
53.75
30
0
11
3.499998
21
54.210784
31
0
12
3.500002
22
53.289216
32
0
13
3.500002
23
53.289216
33
0
39
0
210
0
220
0
230
1
0
SOLID
5
1BA
100
AcDbEntity
8
2
62
256
6
ByLayer
370
18
48
1
60
0
100
AcDbTrace
10
70
20
53.75
30
0
11
66.500002
21
53.289216
31
0
12
66.499998
22
54.210784
32
0
13
66.499998
23
54.210784
33
0
39
0
210
0
220
0
230
1
0
ENDBLK
5
1BC
100
AcDbEntity
8
0
100
AcDbBlockEnd
0
ENDSEC
0
SECTION
2
ENTITIES
0
ARC
5
F0
100
AcDbEntity
8
1
62
256
6
ByLayer
370
18
48
1
60
0
100
AcDbCircle
39
0
10
52
20
32.725004
30
0
40
1.6
210
0
220
0
230
1
100
AcDbArc
50
166.434047
51
180
0
ARC
5
F1
100
AcDbEntity
8
1
62
256
6
ByLayer
370
18
48
1
60
0
100
AcDbCircle
39
0
10
22.279208
20
32.7
30
0
40
1.2
210
0
220
0
230
1
100
AcDbArc
50
270
51
299.568887
0
ARC
5
F2
100
AcDbEntity
8
SK1
62
256
6
ByLayer
370
18
48
1
60
0
100
AcDbCircle
39
0
10
-0.6
20
23.45
30
0
40
0.999999999999994
210
0
220
0
230
1
100
AcDbArc
50
293.578178
51
306.869898
0
ARC
5
F3
100
AcDbEntity
8
SK1
62
256
6
ByLayer
370
18
48
1
60
0
100
AcDbCircle
39
0
10
-0.6
20
-23.45
30
0
40
0.999999999999994
210
0
220
0
230
1
100
AcDbArc
50
53.130102
51
66.421822
0
ARC
5
F7
100
AcDbEntity
8
1
62
256
6
ByLayer
370
18
48
1
60
0
100
AcDbCircle
39
0
10
31.4
20
32.65
30
0
40
1
210
0
220
0
230
1
100
AcDbArc
50
270
51
0
0
CIRCLE
5
F4
100
AcDbEntity
8
1
62
256
6
ByLayer
370
18
48
1
60
0
100
AcDbCircle
10
43.65
20
26.349991
30
0
40
2.55
39
0
210
0
220
0
230
1
0
CIRCLE
5
F5
100
AcDbEntity
8
1
62
256
6
ByLayer
370
18
48
1
60
0
100
AcDbCircle
10
43.65
20
26.349991
30
0
40
3.3
39
0
210
0
220
0
230
1
0
CIRCLE
5
F6
100
AcDbEntity
8
1
62
256
6
ByLayer
370
18
48
1
60
0
100
AcDbCircle
10
43.65
20
26.349991
30
0
40
5.75
39
0
210
0
220
0
230
1
0
ELLIPSE
5
F8
100
AcDbEntity
8
1
62
256
6
ByLayer
370
18
48
1
60
0
100
AcDbEllipse
10
74.090909
20
81.700004
30
0
11
2.63443441866943E-15
21
43.0250000001477
31
0
210
0
220
0
230
1
40
0.545455
41
2.48427302342735
42
2.92292607945867
0
ELLIPSE
5
F9
100
AcDbEntity
8
1
62
256
6
ByLayer
370
18
48
1
60
0
100
AcDbEllipse
10
681.808557
20
83.026329
30
0
11
2193.76428133191
21
7.88175749435473
31
0
210
0
220
0
230
1
40
0.019895
41
-1.85809068572224
42
-1.85691705457651
0
ELLIPSE
5
FA
100
AcDbEntity
8
1
62
256
6
ByLayer
370
18
48
1
60
0
100
AcDbEllipse
10
60.425957
20
36.627474
30
0
11
0.105647115947819
21
-0.994892285293847
31
0
210
0
220
0
230
1
40
0.961515
41
0
42
6.28318530717959
0
ELLIPSE
5
FB
100
AcDbEntity
8
1
62
256
6
ByLayer
370
18
48
1
60
0
100
AcDbEllipse
10
62.925994
20
69.000004
30
0
11
2.12316126546127E-15
21
34.6749999921889
31
0
210
0
220
0
230
1
40
0.885971
41
2.99701905328906
42
3.09734777517792
0
ELLIPSE
5
FC
100
AcDbEntity
8
1
62
256
6
ByLayer
370
18
48
1
60
0
100
AcDbEllipse
10
-283.85123
20
69.021732
30
0
11
2690.54991224908
21
-5.96769931087833
31
0
210
0
220
0
230
1
40
0.012704
41
-1.4456154501137
42
-1.44205290013318
0
ELLIPSE
5
FD
100
AcDbEntity
8
1
62
256
6
ByLayer
370
18
48
1
60
0
100
AcDbEllipse
10
62.925994
20
81.700004
30
0
11
2.63443441300417E-15
21
43.0249999076238
31
0
210
0
220
0
230
1
40
0.885971
41
3.02521989764291
42
3.10553217044312
0
ELLIPSE
5
FE
100
AcDbEntity
8
1
62
256
6
ByLayer
370
18
48
1
60
0
100
AcDbEllipse
10
65.634509
20
69.000004
30
0
11
49.5209567126393
21
5.80115904002803E-14
31
0
210
0
220
0
230
1
40
0.700209
41
-1.84972725400204
42
-1.71536992706996
0
ELLIPSE
5
FF
100
AcDbEntity
8
1
62
256
6
ByLayer
370
18
48
1
60
0
100
AcDbEllipse
10
65.634509
20
81.700004
30
0
11
61.4459743989808
21
7.19812163416865E-14
31
0
210
0
220
0
230
1
40
0.700209
41
-1.80765056580821
42
-1.68716908262285
0
ELLIPSE
5
100
100
AcDbEntity
8
1
62
256
6
ByLayer
370
18
48
1
60
0
100
AcDbEllipse
10
51.149686
20
34.325004
30
0
11
-2.78951202209207
21
3.41605414631786E-16
31
0
210
-3.01691039300314E-16
220
0
230
1
40
0.573577
41
0
42
1.29869971890271
0
ELLIPSE
5
101
100
AcDbEntity
8
1
62
256
6
ByLayer
370
18
48
1
60
0
100
AcDbEllipse
10
-2.347154
20
0
30
0
11
14.7536831606562
21
31.0932549155811
31
0
210
0
220
0
230
1
40
0.341999
41
-1.09123958575283
42
-0.157806186645432
0
ELLIPSE
5
102
100
AcDbEntity
8
1
62
256
6
ByLayer
370
18
48
1
60
0
100
AcDbEllipse
10
26.347154
20
0
30
0
11
14.7536831606549
21
-31.0932549155792
31
0
210
0
220
0
230
1
40
0.341999
41
-2.98378646694436
42
-2.05035306783692
0
ELLIPSE
5
103
100
AcDbEntity
8
1
62
256
6
ByLayer
370
18
48
1
60
0
100
AcDbEllipse
10
26.347154
20
0
30
0
11
14.7536831606571
21
31.0932549155821
31
0
210
0
220
0
230
1
40
0.341999
41
2.05035306783699
42
2.98378646694437
0
ELLIPSE
5
104
100
AcDbEntity
8
1
62
256
6
ByLayer
370
18
48
1
60
0
100
AcDbEllipse
10
-2.347154
20
0
30
0
11
14.753683160656
21
-31.0932549155809
31
0
210
0
220
0
230
1
40
0.341999
41
0.157806186645429
42
1.09123958575284
0
ELLIPSE
5
105
100
AcDbEntity
8
1
62
256
6
ByLayer
370
18
48
1
60
0
100
AcDbEllipse
10
26.093966
20
-20.750009
30
0
11
4.0000000025335
21
4.68582146129798E-15
31
0
210
0
220
0
230
1
40
1
41
2.99869437552094
42
3.13286600733225
0
ELLIPSE
5
106
100
AcDbEntity
8
1
62
256
6
ByLayer
370
18
48
1
60
0
100
AcDbEllipse
10
22.274896
20
0
30
0
11
1.92875500727005E-15
21
31.4999999999969
31
0
210
0
220
0
230
1
40
0.008727
41
0.535027277261772
42
2.3561944901924
0
ELLIPSE
5
107
100
AcDbEntity
8
1
62
256
6
ByLayer
370
18
48
1
60
0
100
AcDbEllipse
10
69.7
20
38.7
30
0
11
0.3
21
0
31
0
210
0
220
0
230
1
40
0.999998
41
0
42
1.61442955806217
0
ELLIPSE
5
108
100
AcDbEntity
8
1
62
256
6
ByLayer
370
18
48
1
60
0
100
AcDbEllipse
10
69.7
20
34.300007
30
0
11
-0.3
21
3.67381906146713E-17
31
0
210
-3.01691039300314E-16
220
0
230
1
40
0.999998
41
1.52716309552791
42
-3.14159265358963
0
ELLIPSE
5
109
100
AcDbEntity
8
1
62
256
6
ByLayer
370
18
48
1
60
0
100
AcDbEllipse
10
62.346355
20
38.356509
30
0
11
0.0707725420266839
21
0.0707721757733522
31
0
210
0
220
0
230
1
40
0.998256
41
2.35706974297159
42
2.53160266652398
0
ELLIPSE
5
10A
100
AcDbEntity
8
1
62
256
6
ByLayer
370
18
48
1
60
0
100
AcDbEllipse
10
62.55644
20
37.165428
30
0
11
0.0707723602342925
21
0.0707723555970848
31
0
210
0
220
0
230
1
40
0.998256
41
2.5316001219102
42
3.02115066753487
0
ELLIPSE
5
10B
100
AcDbEntity
8
1
62
256
6
ByLayer
370
18
48
1
60
0
100
AcDbEllipse
10
62.55644
20
35.830832
30
0
11
0.0707723556642106
21
0.0707723600985194
31
0
210
0
220
0
230
1
40
0.998256
41
1.69298364345267
42
2.1825341892355
0
ELLIPSE
5
10C
100
AcDbEntity
8
1
62
256
6
ByLayer
370
18
48
1
60
0
100
AcDbEllipse
10
62.346355
20
34.639017
30
0
11
0.0707722867027087
21
0.0707724283762954
31
0
210
0
220
0
230
1
40
0.998256
41
2.18253322849429
42
2.35706615425491
0
POINT
5
70
100
AcDbEntity
8
80
62
256
6
ByLayer
370
18
48
1
60
0
100
AcDbPoint
10
0
20
0
30
0
39
0
210
0
220
0
230
1
50
360
0
POINT
5
72
100
AcDbEntity
8
81
62
256
6
ByLayer
370
18
48
1
60
0
100
AcDbPoint
10
70
20
39
30
0
39
0
210
0
220
0
230
1
50
360
0
POINT
5
74
100
AcDbEntity
8
1
62
256
6
ByLayer
370
18
48
1
60
1
100
AcDbPoint
10
70
20
39
30
0
39
0
210
0
220
0
230
1
50
360
0
POINT
5
76
100
AcDbEntity
8
1
62
256
6
ByLayer
370
18
48
1
60
1
100
AcDbPoint
10
0
20
0
30
0
39
0
210
0
220
0
230
1
50
360
0
POINT
5
77
100
AcDbEntity
8
1
62
256
6
ByLayer
370
18
48
1
60
1
100
AcDbPoint
10
70
20
34
30
0
39
0
210
0
220
0
230
1
50
360
0
POINT
5
78
100
AcDbEntity
8
1
62
256
6
ByLayer
370
18
48
1
60
1
100
AcDbPoint
10
70
20
39
30
0
39
0
210
0
220
0
230
1
50
360
0
POINT
5
79
100
AcDbEntity
8
1
62
256
6
ByLayer
370
18
48
1
60
1
100
AcDbPoint
10
52
20
34.325004
30
0
39
0
210
0
220
0
230
1
50
360
0
POINT
5
7A
100
AcDbEntity
8
1
62
256
6
ByLayer
370
18
48
1
60
1
100
AcDbPoint
10
70
20
34
30
0
39
0
210
0
220
0
230
1
50
360
0
POINT
5
7B
100
AcDbEntity
8
1
62
256
6
ByLayer
370
18
48
1
60
1
100
AcDbPoint
10
0
20
0
30
0
39
0
210
0
220
0
230
1
50
360
0
POINT
5
7C
100
AcDbEntity
8
1
62
256
6
ByLayer
370
18
48
1
60
1
100
AcDbPoint
10
70
20
39
30
0
39
0
210
0
220
0
230
1
50
360
0
SPLINE
5
10D
100
AcDbEntity
8
SK1
62
256
6
ByLayer
370
18
48
1
60
0
100
AcDbSpline
70
4
71
3
72
11
73
7
40
0
40
0
40
0
40
0
40
0.242601372898627
40
0.502561214665905
40
0.761098879312199
40
1
40
1
40
1
40
1
41
1
10
-0.199999999999989
20
22.0603316233164
30
-1E-16
41
1
10
-0.200957649232748
20
22.03467763457
30
-1E-16
41
1
10
-0.211248088565583
20
21.9856476021506
30
-1E-16
41
1
10
-0.255178473897388
20
21.9196695750854
30
-1E-16
41
1
10
-0.321112940270211
20
21.8764518787731
30
-1E-16
41
1
10
-0.369683556830324
20
21.8664032520323
30
-1E-16
41
1
10
-0.394913799811292
20
21.8654753908017
30
-1E-16
0
SPLINE
5
10E
100
AcDbEntity
8
SK1
62
256
6
ByLayer
370
18
48
1
60
0
100
AcDbSpline
70
4
71
3
72
11
73
7
40
0
40
0
40
0
40
0
40
0.238901121200237
40
0.497438786084574
40
0.757398627621487
40
1
40
1
40
1
40
1
41
1
10
-0.394913799811292
20
-21.8654754627471
30
-1E-16
41
1
10
-0.369683556841096
20
-21.8664033239634
30
-1E-16
41
1
10
-0.321112940313157
20
-21.8764519506625
30
-1E-16
41
1
10
-0.255178473954459
20
-21.9196696467454
30
-1E-16
41
1
10
-0.211248088575957
20
-21.9856476735436
30
-1E-16
41
1
10
-0.200957649243719
20
-22.0346777057893
30
-1E-16
41
1
10
-0.199999999999989
20
-22.0603316944385
30
-1E-16
0
SPLINE
5
10F
100
AcDbEntity
8
SK1
62
256
6
ByLayer
370
18
48
1
60
0
100
AcDbSpline
70
4
71
2
72
6
73
3
40
0
40
0
40
0
40
1
40
1
40
1
41
1
10
-36.5
20
21.1556411500792
30
1E-16
41
1
10
-37.2500000202692
20
20.7228363924583
30
-1E-16
41
1
10
-38
20
20.2900294978113
30
1E-16
0
SPLINE
5
110
100
AcDbEntity
8
SK1
62
256
6
ByLayer
370
18
48
1
60
0
100
AcDbSpline
70
4
71
2
72
6
73
3
40
0
40
0
40
0
40
1
40
1
40
1
41
1
10
-38
20
-20.2900295032223
30
1E-16
41
1
10
-37.2500000202654
20
-20.7228363958853
30
-1E-16
41
1
10
-36.5
20
-21.1556411516461
30
1E-16
0
SPLINE
5
111
100
AcDbEntity
8
SK1
62
256
6
ByLayer
370
18
48
1
60
0
100
AcDbSpline
70
4
71
2
72
6
73
3
40
0
40
0
40
0
40
1
40
1
40
1
41
1
10
-0.394913799811292
20
21.8654705382346
30
-1E-16
41
1
10
-1.19497688887515
20
21.8453761190377
30
-4E-16
41
1
10
-1.99503997793928
20
21.8252816998361
30
3E-16
0
SPLINE
5
112
100
AcDbEntity
8
SK1
62
256
6
ByLayer
370
18
48
1
60
0
100
AcDbSpline
70
4
71
2
72
6
73
3
40
0
40
0
40
0
40
1
40
1
40
1
41
1
10
-1.99503997793928
20
-21.8252817664983
30
3E-16
41
1
10
-1.19497688887515
20
-21.845376185605
30
-4E-16
41
1
10
-0.394913799811292
20
-21.8654706047072
30
-1E-16
0
SPLINE
5
113
100
AcDbEntity
8
SK1
62
256
6
ByLayer
370
18
48
1
60
0
100
AcDbSpline
70
4
71
3
72
13
73
9
40
0
40
0
40
0
40
0
40
0.239488446613139
40
0.36840311618726
40
0.500046645745237
40
0.631682415479631
40
0.760575689762792
40
1
40
1
40
1
40
1
41
1
10
-1.99503997793928
20
21.825286524797
30
3E-16
41
1
10
-2.0211096495122
20
21.8248845959364
30
3E-16
41
1
10
-2.05883938576716
20
21.8310551084545
30
3E-16
41
1
10
-2.1062761997685
20
21.8540920367489
30
3E-16
41
1
10
-2.1388629218354
20
21.8792518859041
30
2E-16
41
1
10
-2.16563526915769
20
21.9105242864783
30
2E-16
41
1
10
-2.19103234710849
20
21.9567296167895
30
2E-16
41
1
10
-2.19909149085342
20
21.9940920912339
30
2E-16
41
1
10
-2.19999999999999
20
22.0201427571469
30
2E-16
0
SPLINE
5
114
100
AcDbEntity
8
SK1
62
256
6
ByLayer
370
18
48
1
60
0
100
AcDbSpline
70
4
71
3
72
13
73
9
40
0
40
0
40
0
40
0
40
0.239424309709106
40
0.368317583821011
40
0.499953353497805
40
0.631596883124594
40
0.760511552875627
40
1
40
1
40
1
40
1
41
1
10
-2.19999999999999
20
-22.0201428284389
30
2E-16
41
1
10
-2.19909149084521
20
-21.994092162624
30
2E-16
41
1
10
-2.19103234710033
20
-21.956729688326
30
2E-16
41
1
10
-2.1656352691468
20
-21.9105243582179
30
2E-16
41
1
10
-2.13886292182099
20
-21.8792519577777
30
2E-16
41
1
10
-2.1062761997531
20
-21.8540921087329
30
3E-16
41
1
10
-2.05883938574669
20
-21.8310551805396
30
3E-16
41
1
10
-2.02110964950145
20
-21.8248846680468
30
3E-16
41
1
10
-1.99503997793928
20
-21.8252865969123
30
3E-16
0
SPLINE
5
115
100
AcDbEntity
8
SK1
62
256
6
ByLayer
370
18
48
1
60
0
100
AcDbSpline
70
4
71
2
72
6
73
3
40
0
40
0
40
0
40
1
40
1
40
1
41
1
10
-2.19999999999999
20
22.0136642719968
30
-2E-16
41
1
10
-19.3500000008246
20
21.5830599810351
30
-1E-16
41
1
10
-36.5
20
21.1524539804128
30
1E-16
0
SPLINE
5
116
100
AcDbEntity
8
SK1
62
256
6
ByLayer
370
18
48
1
60
0
100
AcDbSpline
70
4
71
2
72
6
73
3
40
0
40
0
40
0
40
1
40
1
40
1
41
1
10
-36.5
20
-21.152454254977
30
1E-16
41
1
10
-19.3500000008244
20
-21.5830602558515
30
-1E-16
41
1
10
-2.19999999999999
20
-22.0136645469338
30
-2E-16
0
SPLINE
5
117
100
AcDbEntity
8
1
62
256
6
ByLayer
370
18
48
1
60
0
100
AcDbSpline
70
4
71
3
72
8
73
4
40
0
40
0
40
0
40
0
40
1
40
1
40
1
40
1
41
1
10
25.233012296441
20
38.8712186512096
30
-4E-16
41
1
10
24.6804655493006
20
36.7976226468641
30
3E-16
41
1
10
24.1283573295156
20
34.7239073510519
30
2E-16
41
1
10
23.5769948973835
20
32.65
30
0
0
SPLINE
5
118
100
AcDbEntity
8
1
62
256
6
ByLayer
370
18
48
1
60
0
100
AcDbSpline
70
4
71
3
72
15
73
11
40
0
40
0
40
0
40
0
40
0.250000000000012
40
0.500000000000025
40
0.500000000000025
40
0.625000000000029
40
0.625000000000029
40
0.750000000000033
40
0.750000000000033
40
1
40
1
40
1
40
1
41
1
10
23.5769948973835
20
32.65
30
0
41
1
10
23.5652055614818
20
32.6056553204107
30
0
41
1
10
23.5416999421006
20
32.5179768501052
30
0
41
1
10
23.5183325116519
20
32.4322389577601
30
0
41
1
10
23.5008602616749
20
32.3686708566037
30
0
41
1
10
23.4950451106256
20
32.3476044243223
30
0
41
1
10
23.4834335054428
20
32.3057235752599
30
0
41
1
10
23.4776429535468
20
32.2849310667272
30
0
41
1
10
23.4604914176283
20
32.2236211397108
30
0
41
1
10
23.4492867048585
20
32.1839396122282
30
0
41
1
10
23.4383186059721
20
32.1454701880621
30
0
0
SPLINE
5
119
100
AcDbEntity
8
1
62
256
6
ByLayer
370
18
48
1
60
0
100
AcDbSpline
70
4
71
3
72
37
73
33
40
0
40
0
40
0
40
0
40
0.0312499999999956
40
0.0312499999999956
40
0.0624999999999913
40
0.124999999999989
40
0.124999999999989
40
0.249999999999987
40
0.249999999999987
40
0.281249999999983
40
0.281249999999983
40
0.312499999999978
40
0.312499999999978
40
0.374999999999979
40
0.374999999999979
40
0.499999999999981
40
0.499999999999981
40
0.53124999999998
40
0.53124999999998
40
0.56249999999998
40
0.624999999999988
40
0.687499999999996
40
0.687499999999996
40
0.71875
40
0.71875
40
0.750000000000004
40
0.750000000000004
40
0.875000000000009
40
0.875000000000009
40
0.937500000000005
40
0.937500000000005
40
1
40
1
40
1
40
1
41
1
10
30.6980004188037
20
31.65
30
-1E-16
41
1
10
30.7161608810094
20
31.65
30
-1E-16
41
1
10
30.7343448825652
20
31.6503025764496
30
-1E-16
41
1
10
30.7705416687834
20
31.6515196650005
30
0
41
1
10
30.8246759861081
20
31.654263416226
30
0
41
1
10
30.8783221337106
20
31.6597933916453
30
0
41
1
10
30.9849390728614
20
31.6747079309444
30
0
41
1
10
31.0551220090145
20
31.6897592942765
30
0
41
1
10
31.1415840994228
20
31.7158024908901
30
1E-16
41
1
10
31.1588127589163
20
31.7213750317677
30
1E-16
41
1
10
31.193136876769
20
31.7332803577698
30
1E-16
41
1
10
31.2102694462839
20
31.7396290363409
30
1E-16
41
1
10
31.2610071710247
20
31.7596879208512
30
1E-16
41
1
10
31.2940503812817
20
31.7744353699656
30
-1E-16
41
1
10
31.3907735207366
20
31.8229089743406
30
-1E-16
41
1
10
31.4520724523514
20
31.8608215618145
30
-1E-16
41
1
10
31.5242052365796
20
31.9161084679331
30
0
41
1
10
31.538447561894
20
31.9276016376114
30
0
41
1
10
31.5661902840257
20
31.9511914186533
30
0
41
1
10
31.6067120763173
20
31.9874858113197
30
0
41
1
10
31.6688063129956
20
32.0525089382579
30
0
41
1
10
31.7125632150698
20
32.1094566878135
30
0
41
1
10
31.743048702265
20
32.154109878029
30
0
41
1
10
31.7528209619064
20
32.169318730024
30
0
41
1
10
31.771556337533
20
32.2004103342136
30
0
41
1
10
31.7805461006186
20
32.2163446121511
30
0
41
1
10
31.8230517963922
20
32.2971585546588
30
1E-16
41
1
10
31.8488706453032
20
32.3644367770063
30
1E-16
41
1
10
31.8752539525281
20
32.4693160244977
30
1E-16
41
1
10
31.8819737868377
20
32.504941582891
30
1E-16
41
1
10
31.891015550865
20
32.5776041348687
30
1E-16
41
1
10
31.8932378873209
20
32.6138738810784
30
1E-16
41
1
10
31.8932378873209
20
32.65
30
1E-16
0
SPLINE
5
11A
100
AcDbEntity
8
1
62
256
6
ByLayer
370
18
48
1
60
0
100
AcDbSpline
70
4
71
3
72
27
73
23
40
0
40
0
40
0
40
0
40
0.124999999999999
40
0.124999999999999
40
0.249999999999999
40
0.249999999999999
40
0.374999999999998
40
0.374999999999998
40
0.499999999999997
40
0.499999999999997
40
0.562499999999997
40
0.562499999999997
40
0.578124999999997
40
0.578124999999997
40
0.593749999999997
40
0.624999999999997
40
0.624999999999997
40
0.749999999999998
40
0.749999999999998
40
0.874999999999999
40
0.874999999999999
40
1
40
1
40
1
40
1
41
1
10
29.3391810925686
20
47.640003807717
30
1.7E-15
41
1
10
29.0925024901238
20
47.0268780939435
30
1.7E-15
41
1
10
28.8517951772056
20
46.4441734271389
30
1.6E-15
41
1
10
28.3837118860136
20
45.3383099583558
30
1.5E-15
41
1
10
28.1563328165388
20
44.8151522692935
30
1.4E-15
41
1
10
27.7169054498789
20
43.8280156095396
30
1.3E-15
41
1
10
27.5048532464588
20
43.3640351504397
30
1.2E-15
41
1
10
27.0987997545736
20
42.4958129388117
30
1.1E-15
41
1
10
26.9047941317874
20
42.0915667871248
30
1E-15
41
1
10
26.6299985723444
20
41.5311819116788
30
-8E-16
41
1
10
26.541109230986
20
41.3520593455636
30
-9E-16
41
1
10
26.433719368487
20
41.1379386250078
30
9E-16
41
1
10
26.4124162869886
20
41.0955813367333
30
9E-16
41
1
10
26.3702658252994
20
41.0119979309676
30
9E-16
41
1
10
26.3077153247968
20
40.8883024724466
30
8E-16
41
1
10
26.2472139807796
20
40.7696272463104
30
8E-16
41
1
10
26.0502052574414
20
40.3851274354753
30
8E-16
41
1
10
25.9075064660936
20
40.1129514419386
30
7E-16
41
1
10
25.6549239130898
20
39.6383581520797
30
6E-16
41
1
10
25.5450492368671
20
39.4359422327896
30
6E-16
41
1
10
25.3612800570995
20
39.1009242057671
30
-3E-16
41
1
10
25.2873959530636
20
38.9683209710327
30
-4E-16
41
1
10
25.233012296441
20
38.8712186512096
30
-4E-16
0
SPLINE
5
11B
100
AcDbEntity
8
1
62
256
6
ByLayer
370
18
48
1
60
0
100
AcDbSpline
70
4
71
3
72
30
73
26
40
0
40
0
40
0
40
0
40
0.125000000000001
40
0.125000000000001
40
0.250000000000002
40
0.250000000000002
40
0.312500000000003
40
0.312500000000003
40
0.375000000000004
40
0.375000000000004
40
0.500000000000005
40
0.500000000000005
40
0.625000000000006
40
0.625000000000006
40
0.687500000000006
40
0.687500000000006
40
0.750000000000005
40
0.750000000000005
40
0.875000000000002
40
0.875000000000002
40
0.937500000000001
40
0.937500000000001
40
0.96875
40
0.96875
40
1
40
1
40
1
40
1
41
1
10
28.1999999999998
20
38.8712186512096
30
-4E-16
41
1
10
28.3899166414136
20
38.8712186512096
30
-3E-16
41
1
10
28.5776363719495
20
38.869984562011
30
-3E-16
41
1
10
28.9488618758836
20
38.86521509349
30
-1E-16
41
1
10
29.132367100863
20
38.8616792301242
30
-1E-16
41
1
10
29.4044251410139
20
38.8547738695791
30
0
41
1
10
29.4945761218717
20
38.8522051979546
30
0
41
1
10
29.6737792749956
20
38.8465561211076
30
1E-16
41
1
10
29.761834219209
20
38.8435072358462
30
1E-16
41
1
10
30.0213222574954
20
38.8337747281836
30
2E-16
41
1
10
30.1881741753024
20
38.8265030134373
30
-2E-16
41
1
10
30.509790910361
20
38.8108124780245
30
-1E-16
41
1
10
30.6645570978719
20
38.8023923820025
30
-1E-16
41
1
10
30.8872868163512
20
38.7892224423546
30
0
41
1
10
30.9591595285433
20
38.7847899113679
30
0
41
1
10
31.098122984246
20
38.7759135800525
30
1E-16
41
1
10
31.1652425927744
20
38.7714680097389
30
1E-16
41
1
10
31.3596154274388
20
38.7582010587045
30
1E-16
41
1
10
31.4799140970034
20
38.7494489336637
30
2E-16
41
1
10
31.6462659806162
20
38.736825220516
30
2E-16
41
1
10
31.6993595073058
20
38.7327014466906
30
-2E-16
41
1
10
31.7753679002087
20
38.7266896659935
30
-2E-16
41
1
10
31.799995122138
20
38.7247228784093
30
-2E-16
41
1
10
31.8477245521103
20
38.7208795990436
30
1E-16
41
1
10
31.8708475786754
20
38.7190014598745
30
1E-16
41
1
10
31.8932378873209
20
38.7171696019101
30
1E-16
0
SPLINE
5
11C
100
AcDbEntity
8
1
62
256
6
ByLayer
370
18
48
1
60
0
100
AcDbSpline
70
4
71
3
72
33
73
29
40
0
40
0
40
0
40
0
40
0.125000000000019
40
0.125000000000019
40
0.187500000000021
40
0.187500000000021
40
0.250000000000023
40
0.312500000000025
40
0.312500000000025
40
0.343750000000026
40
0.343750000000026
40
0.375000000000027
40
0.375000000000027
40
0.50000000000003
40
0.50000000000003
40
0.562500000000037
40
0.562500000000037
40
0.593750000000036
40
0.593750000000036
40
0.625000000000035
40
0.625000000000035
40
0.750000000000021
40
0.750000000000021
40
0.812500000000016
40
0.812500000000016
40
0.875000000000012
40
0.875000000000012
40
1
40
1
40
1
40
1
41
1
10
32.2792159842511
20
32.65
30
0
41
1
10
32.2792159842511
20
32.583243627827
30
0
41
1
10
32.2724028379543
20
32.5170990378714
30
0
41
1
10
32.2519074500723
20
32.4188048501688
30
0
41
1
10
32.2432887165977
20
32.3860488300916
30
0
41
1
10
32.2229302826308
20
32.3222482094326
30
0
41
1
10
32.1994241662237
20
32.2598761153535
30
1E-16
41
1
10
32.169777362515
20
32.2002908764279
30
0
41
1
10
32.1452281302682
20
32.1566521787973
30
0
41
1
10
32.1366586598811
20
32.1422813046772
30
0
41
1
10
32.1187363310292
20
32.1138950848972
30
0
41
1
10
32.1093570053124
20
32.099844478605
30
0
41
1
10
32.06095146942
20
32.0311735366067
30
0
41
1
10
32.0172765740347
20
31.9809191895453
30
0
41
1
10
31.9446579849759
20
31.912259122676
30
0
41
1
10
31.9192585775409
20
31.8905010342622
30
0
41
1
10
31.8793316885501
20
31.8595927081291
30
0
41
1
10
31.8657556524563
20
31.8496106387547
30
0
41
1
10
31.8382763033621
20
31.8304211877801
30
-1E-16
41
1
10
31.8243440226585
20
31.8211911176329
30
1E-16
41
1
10
31.7537387784317
20
31.7768277116179
30
0
41
1
10
31.6942595225492
20
31.7470074431681
30
0
41
1
10
31.6006000619688
20
31.7106842485323
30
0
41
1
10
31.5685159207743
20
31.699967130017
30
0
41
1
10
31.5040985015237
20
31.6817637227875
30
0
41
1
10
31.4716365110764
20
31.6742157778817
30
-1E-16
41
1
10
31.3735136044429
20
31.6560926945526
30
0
41
1
10
31.307106083519
20
31.65
30
0
41
1
10
31.2397373317722
20
31.65
30
0
0
SPLINE
5
11D
100
AcDbEntity
8
1
62
256
6
ByLayer
370
18
48
1
60
0
100
AcDbSpline
70
4
71
3
72
12
73
8
40
0
40
0
40
0
40
0
40
0.499999999999994
40
0.499999999999994
40
0.749999999999997
40
0.749999999999997
40
1
40
1
40
1
40
1
41
1
10
61.774962179901
20
35.9977279378769
30
0
41
1
10
61.7417274697572
20
35.7241962053645
30
0
41
1
10
61.7081835119771
20
35.4507517272205
30
0
41
1
10
61.6567145988464
20
35.0409103228637
30
-1E-16
41
1
10
61.6393617350826
20
34.904349922607
30
-1E-16
41
1
10
61.6039593926974
20
34.6314385120318
30
-1E-16
41
1
10
61.5859268463988
20
34.4950824449663
30
-1E-16
41
1
10
61.5671894202327
20
34.3589383219349
30
-1E-16
0
SPLINE
5
11E
100
AcDbEntity
8
1
62
256
6
ByLayer
370
18
48
1
60
0
100
AcDbSpline
70
4
71
3
72
8
73
4
40
0
40
0
40
0
40
0
40
1
40
1
40
1
40
1
41
1
10
61.9334731252055
20
36.0821175645255
30
0
41
1
10
61.8806912811498
20
36.0537521732246
30
0
41
1
10
61.8278742329745
20
36.0255371531361
30
0
41
1
10
61.774962179901
20
35.997727937877
30
0
0
SPLINE
5
11F
100
AcDbEntity
8
1
62
256
6
ByLayer
370
18
48
1
60
0
100
AcDbSpline
70
4
71
3
72
20
73
16
40
0
40
0
40
0
40
0
40
0.25
40
0.25
40
0.375
40
0.375
40
0.5
40
0.5
40
0.625
40
0.625
40
0.75
40
0.75
40
0.875
40
0.875
40
1
40
1
40
1
40
1
41
1
10
62.0002812895013
20
36.2232032820587
30
1E-16
41
1
10
62.0002971750157
20
36.207672703656
30
1E-16
41
1
10
61.9987187520101
20
36.1925420374385
30
1E-16
41
1
10
61.993992597162
20
36.1704376431946
30
1E-16
41
1
10
61.9920333239551
20
36.1632707844583
30
1E-16
41
1
10
61.9874468808312
20
36.1495918351816
30
0
41
1
10
61.9848105753937
20
36.1430360158751
30
0
41
1
10
61.9788431149594
20
36.130498865882
30
0
41
1
10
61.975511391939
20
36.1245380981895
30
0
41
1
10
61.9683786601446
20
36.1135905635064
30
0
41
1
10
61.9645529793644
20
36.1085480858775
30
0
41
1
10
61.9563840963579
20
36.0993238666983
30
0
41
1
10
61.9520166631452
20
36.0951303858345
30
0
41
1
10
61.9429951153156
20
36.0878454387344
30
0
41
1
10
61.9383178024541
20
36.0847211333917
30
0
41
1
10
61.9334731252055
20
36.0821175645255
30
0
0
SPLINE
5
120
100
AcDbEntity
8
1
62
256
6
ByLayer
370
18
48
1
60
0
100
AcDbSpline
70
4
71
2
72
6
73
3
40
0
40
0
40
0
40
1
40
1
40
1
41
0.500165540827427
10
61.9997186372307
20
36.7731407497933
30
1E-16
41
0.499834459172573
10
62.0000000174789
20
36.4981907383136
30
1E-16
41
0.500165540827427
10
62.0002812895013
20
36.2232032820595
30
1E-16
0
SPLINE
5
121
100
AcDbEntity
8
1
62
256
6
ByLayer
370
18
48
1
60
0
100
AcDbSpline
70
4
71
3
72
20
73
16
40
0
40
0
40
0
40
0
40
0.249999999999952
40
0.249999999999952
40
0.37499999999996
40
0.37499999999996
40
0.499999999999968
40
0.499999999999968
40
0.624999999999976
40
0.624999999999976
40
0.749999999999984
40
0.749999999999984
40
0.874999999999992
40
0.874999999999992
40
1
40
1
40
1
40
1
41
1
10
61.9326066241985
20
36.9139626492958
30
0
41
1
10
61.9423098006259
20
36.9087934381655
30
0
41
1
10
61.9512856676972
20
36.9016121360399
30
0
41
1
10
61.9636453083262
20
36.8877855399669
30
0
41
1
10
61.9675374423726
20
36.8826927141104
30
0
41
1
10
61.9746895714967
20
36.8717959132666
30
0
41
1
10
61.9779795287847
20
36.8659596569638
30
0
41
1
10
61.9839741951558
20
36.8534937637673
30
0
41
1
10
61.9866846089663
20
36.8468256206312
30
0
41
1
10
61.9913191041058
20
36.8331360793546
30
1E-16
41
1
10
61.9932713366713
20
36.8260660824734
30
1E-16
41
1
10
61.9964434130273
20
36.8114741807886
30
1E-16
41
1
10
61.9976674343008
20
36.80389390212
30
1E-16
41
1
10
61.9992966091418
20
36.7886150304628
30
1E-16
41
1
10
61.9997106855025
20
36.7809107611996
30
1E-16
41
1
10
61.9997186372307
20
36.7731407497948
30
1E-16
0
SPLINE
5
122
100
AcDbEntity
8
1
62
256
6
ByLayer
370
18
48
1
60
0
100
AcDbSpline
70
4
71
3
72
8
73
4
40
0
40
0
40
0
40
0
40
1
40
1
40
1
40
1
41
1
10
61.7738522883587
20
36.9977272745188
30
0
41
1
10
61.8268462378983
20
36.9701325674538
30
0
41
1
10
61.8797442141834
20
36.9421242477423
30
0
41
1
10
61.9326066241985
20
36.9139626492958
30
0
0
SPLINE
5
123
100
AcDbEntity
8
1
62
256
6
ByLayer
370
18
48
1
60
0
100
AcDbSpline
70
4
71
3
72
12
73
8
40
0
40
0
40
0
40
0
40
0.25
40
0.25
40
0.5
40
0.5
40
1
40
1
40
1
40
1
41
1
10
61.5517067227858
20
38.7029747374847
30
-1E-16
41
1
10
61.5721232276082
20
38.561455054904
30
-1E-16
41
1
10
61.5915443286035
20
38.4196242045714
30
-1E-16
41
1
10
61.629535719247
20
38.1356965364197
30
-1E-16
41
1
10
61.6480754167426
20
37.99359191639
30
-1E-16
41
1
10
61.7029587671631
20
37.5670756271407
30
0
41
1
10
61.7385875712372
20
37.28245404627
30
0
41
1
10
61.7738522883587
20
36.9977272745188
30
0
0
SPLINE
5
124
100
AcDbEntity
8
1
62
256
6
ByLayer
370
18
48
1
60
0
100
AcDbSpline
70
4
71
3
72
8
73
4
40
0
40
0
40
0
40
0
40
1
40
1
40
1
40
1
41
1
10
61.5671894202327
20
34.3589383219349
30
-1E-16
41
1
10
61.5477170932214
20
34.3588060562835
30
-1E-16
41
1
10
61.5280223751584
20
34.3587446937994
30
-1E-16
41
1
10
61.508097497383
20
34.3587561191005
30
-1E-16
0
SPLINE
5
125
100
AcDbEntity
8
1
62
256
6
ByLayer
370
18
48
1
60
0
100
AcDbSpline
70
4
71
3
72
11
73
7
40
0
40
0
40
0
40
0
40
0.344976228565169
40
0.344976228565169
40
0.689952457130338
40
1
40
1
40
1
40
1
41
1
10
32.2792159842511
20
38.6845094223448
30
0
41
1
10
32.2892432875032
20
38.6836494625585
30
0
41
1
10
32.2986896415543
20
38.6828417833393
30
0
41
1
10
32.3162965477889
20
38.6813440258174
30
0
41
1
10
32.3318073481116
20
38.6800323109459
30
0
41
1
10
32.3450500709109
20
38.6789320991028
30
0
41
1
10
32.3508117607071
20
38.6784591579232
30
0
0
SPLINE
5
126
100
AcDbEntity
8
1
62
256
6
ByLayer
370
18
48
1
60
0
100
AcDbSpline
70
4
71
3
72
10
73
6
40
0
40
0
40
0
40
0
40
0.5
40
0.5
40
1
40
1
40
1
40
1
41
1
10
50.4326778237113
20
33.0966839667646
30
-1E-16
41
1
10
50.4378912246549
20
33.0974981652377
30
-1E-16
41
1
10
50.4418106528203
20
33.098312384845
30
0
41
1
10
50.4452638479521
20
33.0999408956898
30
0
41
1
10
50.4447937269964
20
33.100755176924
30
0
41
1
10
50.4422302856229
20
33.1015694220853
30
0
0
SPLINE
5
127
100
AcDbEntity
8
1
62
256
6
ByLayer
370
18
48
1
60
0
100
AcDbSpline
70
4
71
3
72
30
73
26
40
0
40
0
40
0
40
0
40
0.124999999999999
40
0.124999999999999
40
0.1875
40
0.1875
40
0.250000000000001
40
0.250000000000001
40
0.374999999999991
40
0.374999999999991
40
0.437499999999992
40
0.437499999999992
40
0.499999999999994
40
0.499999999999994
40
0.624999999999989
40
0.624999999999989
40
0.687499999999983
40
0.687499999999983
40
0.718749999999984
40
0.718749999999984
40
0.749999999999985
40
0.749999999999985
40
0.874999999999993
40
0.874999999999993
40
1
40
1
40
1
40
1
41
1
10
50.4326778237113
20
33.0966839667646
30
-1E-16
41
1
10
50.4511355883858
20
33.1858963164325
30
-1E-16
41
1
10
50.4770093386279
20
33.2722649883891
30
-1E-16
41
1
10
50.5264902509546
20
33.3977264488239
30
-1E-16
41
1
10
50.5447724299446
20
33.438861115027
30
-1E-16
41
1
10
50.5849568889683
20
33.5197423108791
30
-1E-16
41
1
10
50.6068755705175
20
33.559516327586
30
-1E-16
41
1
10
50.6781474692922
20
33.6765167123486
30
0
41
1
10
50.7317228275943
20
33.74940248824
30
0
41
1
10
50.820830586282
20
33.8513517617433
30
0
41
1
10
50.8519989197173
20
33.8840979557621
30
0
41
1
10
50.9173067684615
20
33.9470830585234
30
0
41
1
10
50.9514922954805
20
33.9773595754168
30
1E-16
41
1
10
51.0583791398846
20
34.0640588860305
30
1E-16
41
1
10
51.1336533848846
20
34.11500883908
30
1E-16
41
1
10
51.2523682627487
20
34.1815363085735
30
-1E-16
41
1
10
51.2929126464952
20
34.20205316487
30
-1E-16
41
1
10
51.3552094005025
20
34.2303041139412
30
0
41
1
10
51.3762220166964
20
34.2392998028683
30
0
41
1
10
51.4187490422904
20
34.2564354093162
30
0
41
1
10
51.4403054060541
20
34.2645899584446
30
0
41
1
10
51.5488774534313
20
34.303005767795
30
0
41
1
10
51.6371651494646
20
34.3259025651801
30
0
41
1
10
51.8164880758171
20
34.356641340624
30
1E-16
41
1
10
51.9075231392124
20
34.364484233325
30
-1E-16
41
1
10
51.9999999999997
20
34.3644269519125
30
-1E-16
0
SPLINE
5
128
100
AcDbEntity
8
1
62
256
6
ByLayer
370
18
48
1
60
0
100
AcDbSpline
70
4
71
3
72
45
73
41
40
0
40
0
40
0
40
0
40
0.0625000000000026
40
0.0625000000000026
40
0.125000000000005
40
0.125000000000005
40
0.156250000000007
40
0.156250000000007
40
0.187500000000008
40
0.187500000000008
40
0.250000000000003
40
0.312499999999999
40
0.312499999999999
40
0.328124999999998
40
0.328124999999998
40
0.343749999999997
40
0.374999999999995
40
0.374999999999995
40
0.437499999999992
40
0.437499999999992
40
0.468749999999994
40
0.468749999999994
40
0.499999999999995
40
0.499999999999995
40
0.562499999999993
40
0.562499999999993
40
0.624999999999991
40
0.624999999999991
40
0.65624999999999
40
0.65624999999999
40
0.68749999999999
40
0.68749999999999
40
0.749999999999991
40
0.749999999999991
40
0.874999999999992
40
0.874999999999992
40
0.906249999999993
40
0.906249999999993
40
0.937499999999994
40
1
40
1
40
1
40
1
41
1
10
50.3999999999998
20
34.3289263728812
30
-8E-16
41
1
10
50.3999999999998
20
34.3859515662288
30
-8E-16
41
1
10
50.4027772573355
20
34.4424390931291
30
-8E-16
41
1
10
50.4140070230507
20
34.5543154399326
30
-8E-16
41
1
10
50.4224583617294
20
34.6097044862856
30
-8E-16
41
1
10
50.439632233676
20
34.6919174800776
30
-8E-16
41
1
10
50.4461080038158
20
34.7191763923051
30
-8E-16
41
1
10
50.4606252433296
20
34.7733911033488
30
-8E-16
41
1
10
50.4686234228399
20
34.800169488087
30
-8E-16
41
1
10
50.4946382965323
20
34.8789411202267
30
-8E-16
41
1
10
50.5348325578325
20
34.9803070798481
30
-7E-16
41
1
10
50.5859078407777
20
35.0744367238528
30
-7E-16
41
1
10
50.6213018715806
20
35.1309587461534
30
-7E-16
41
1
10
50.6285687427479
20
35.1421676621309
30
-7E-16
41
1
10
50.6433616224961
20
35.1642159909132
30
-7E-16
41
1
10
50.6659484911407
20
35.1967530742525
30
-7E-16
41
1
10
50.689701727107
20
35.2277193210433
30
-7E-16
41
1
10
50.7387083944704
20
35.2876313860957
30
-7E-16
41
1
10
50.7733757316942
20
35.3248842922367
30
-7E-16
41
1
10
50.828234333227
20
35.3769151076165
30
-7E-16
41
1
10
50.8469978588051
20
35.393615862376
30
-6E-16
41
1
10
50.8854685325171
20
35.4257465228483
30
-6E-16
41
1
10
50.9051667467334
20
35.4411614572652
30
-6E-16
41
1
10
50.9649404678225
20
35.4850221274852
30
-6E-16
41
1
10
51.0059212014347
20
35.5112886750456
30
-6E-16
41
1
10
51.0899535456916
20
35.5583793393965
30
-6E-16
41
1
10
51.133005953606
20
35.5792013608985
30
-6E-16
41
1
10
51.1990521166484
20
35.6065775510875
30
-5E-16
41
1
10
51.2213680291852
20
35.6150764990498
30
-5E-16
41
1
10
51.2661084257988
20
35.6306854103284
30
-5E-16
41
1
10
51.2885490690425
20
35.6378063279237
30
-5E-16
41
1
10
51.3560709880222
20
35.6572285543054
30
-5E-16
41
1
10
51.4013516876324
20
35.6675948226055
30
-5E-16
41
1
10
51.5379257762422
20
35.6915910182283
30
-4E-16
41
1
10
51.6299453742424
20
35.698174428057
30
-4E-16
41
1
10
51.7460759890116
20
35.6956708645575
30
-4E-16
41
1
10
51.7693696913533
20
35.6946261854729
30
-4E-16
41
1
10
51.8157779644034
20
35.6914893999464
30
-4E-16
41
1
10
51.8852291105883
20
35.6852115084963
30
-3E-16
41
1
10
51.9542116239186
20
35.6743632985326
30
-3E-16
41
1
10
51.9999999999998
20
35.6651809987713
30
-3E-16
0
SPLINE
5
129
100
AcDbEntity
8
1
62
256
6
ByLayer
370
18
48
1
60
0
100
AcDbSpline
70
4
71
3
72
10
73
6
40
0
40
0
40
0
40
0
40
0.5
40
0.5
40
1
40
1
40
1
40
1
41
1
10
23.4383186059721
20
31.65
30
0
41
1
10
23.4942804344514
20
31.65
30
0
41
1
10
23.5616840137233
20
31.65
30
0
41
1
10
23.717798615341
20
31.65
30
1E-16
41
1
10
23.8065043198072
20
31.65
30
1E-16
41
1
10
23.9049356700774
20
31.65
30
1E-16
0
SPLINE
5
12A
100
AcDbEntity
8
1
62
256
6
ByLayer
370
18
48
1
60
0
100
AcDbSpline
70
4
71
3
72
33
73
29
40
0
40
0
40
0
40
0
40
0.0906338921081252
40
0.0906338921081252
40
0.113292365135156
40
0.118956983391914
40
0.121789292520293
40
0.121789292520293
40
0.124621601648672
40
0.124621601648672
40
0.135950838162189
40
0.181267784216256
40
0.181267784216256
40
0.362535568432523
40
0.362535568432523
40
0.543803352648789
40
0.543803352648789
40
0.634437244756923
40
0.634437244756923
40
0.725071136865056
40
0.725071136865056
40
0.815705028973189
40
0.815705028973189
40
0.906338921081322
40
0.906338921081322
40
0.996972813189455
40
0.996972813189455
40
1
40
1
40
1
40
1
41
1
10
23.4383186059721
20
31.65
30
0
41
1
10
23.4265891717934
20
31.65
30
0
41
1
10
23.4127173744565
20
31.65
30
0
41
1
10
23.3932326365972
20
31.65
30
0
41
1
10
23.3882270963415
20
31.65
30
0
41
1
10
23.3825470132548
20
31.65
30
-1E-16
41
1
10
23.3809838797629
20
31.65
30
-1E-16
41
1
10
23.3799386994335
20
31.65
30
-1E-16
41
1
10
23.3794153526551
20
31.65
30
-1E-16
41
1
10
23.3767509887361
20
31.65
30
-1E-16
41
1
10
23.3659678237892
20
31.65
30
-1E-16
41
1
10
23.3545763525283
20
31.65
30
-1E-16
41
1
10
23.3073158327636
20
31.65
30
-1E-16
41
1
10
23.2640671697842
20
31.65
30
-1E-16
41
1
10
23.1731870704766
20
31.65
30
-1E-16
41
1
10
23.1254844386222
20
31.65
30
-1E-16
41
1
10
23.0565873457818
20
31.65
30
-1E-16
41
1
10
23.0340849896469
20
31.65
30
-2E-16
41
1
10
22.9913268202944
20
31.65
30
-2E-16
41
1
10
22.9710722688341
20
31.65
30
-2E-16
41
1
10
22.9343639542689
20
31.65
30
0
41
1
10
22.9179180942157
20
31.65
30
0
41
1
10
22.8904970437418
20
31.65
30
0
41
1
10
22.8795382963964
20
31.65
30
0
41
1
10
22.8645124212795
20
31.65
30
0
41
1
10
22.8604619944858
20
31.65
30
0
41
1
10
22.8601623925538
20
31.65
30
0
41
1
10
22.860156905616
20
31.65
30
0
41
1
10
22.8601556059676
20
31.65
30
0
0
SPLINE
5
12B
100
AcDbEntity
8
1
62
256
6
ByLayer
370
18
48
1
60
0
100
AcDbSpline
70
4
71
3
72
28
73
24
40
0
40
0
40
0
40
0
40
0.125000000000005
40
0.125000000000005
40
0.25000000000001
40
0.25000000000001
40
0.312500000000012
40
0.312500000000012
40
0.375000000000013
40
0.375000000000013
40
0.500000000000013
40
0.500000000000013
40
0.625000000000013
40
0.625000000000013
40
0.687500000000013
40
0.687500000000013
40
0.750000000000014
40
0.750000000000014
40
0.875000000000015
40
0.875000000000015
40
0.937500000000008
40
0.937500000000008
40
1
40
1
40
1
40
1
41
1
10
23.0750595025905
20
31.65
30
-1E-16
41
1
10
23.0801821857005
20
31.65
30
-1E-16
41
1
10
23.0888081030418
20
31.6532141380781
30
-1E-16
41
1
10
23.1111496108912
20
31.6652625876014
30
-1E-16
41
1
10
23.1248630997309
20
31.6741030216873
30
-1E-16
41
1
10
23.1480429806132
20
31.6914129704942
30
-1E-16
41
1
10
23.1562343141092
20
31.6978866308016
30
-1E-16
41
1
10
23.173068397351
20
31.7119861009829
30
-1E-16
41
1
10
23.1817324594754
20
31.719625537434
30
-1E-16
41
1
10
23.2082158467936
20
31.7442653308766
30
-1E-16
41
1
10
23.2265179701827
20
31.7629761396577
30
-1E-16
41
1
10
23.2633793732828
20
31.8050177896783
30
-1E-16
41
1
10
23.2819452968116
20
31.8283481609333
30
-1E-16
41
1
10
23.3093680214708
20
31.8671222039245
30
-1E-16
41
1
10
23.3183804906768
20
31.8806004486586
30
-1E-16
41
1
10
23.3359708132768
20
31.9085526472474
30
-1E-16
41
1
10
23.3445629383045
20
31.9230464101769
30
-1E-16
41
1
10
23.3696031406612
20
31.9681260332505
30
-1E-16
41
1
10
23.3853184255543
20
32.0003000567498
30
-1E-16
41
1
10
23.4068939594568
20
32.0520873733434
30
0
41
1
10
23.4137523400935
20
32.0699398673395
30
0
41
1
10
23.4266992070315
20
32.1069174781716
30
0
41
1
10
23.4327520444793
20
32.1259460738606
30
0
41
1
10
23.4383186059724
20
32.1454701880618
30
0
0
SPLINE
5
12C
100
AcDbEntity
8
1
62
256
6
ByLayer
370
18
48
1
60
0
100
AcDbSpline
70
4
71
3
72
67
73
63
40
0
40
0
40
0
40
0
40
0.0625000000000008
40
0.0625000000000008
40
0.125000000000002
40
0.125000000000002
40
0.140625000000002
40
0.140625000000002
40
0.156250000000002
40
0.156250000000002
40
0.187500000000001
40
0.187500000000001
40
0.250000000000001
40
0.250000000000001
40
0.28125
40
0.28125
40
0.296874999999999
40
0.296874999999999
40
0.312499999999998
40
0.312499999999998
40
0.374999999999997
40
0.374999999999997
40
0.437499999999997
40
0.437499999999997
40
0.499999999999996
40
0.499999999999996
40
0.515624999999997
40
0.515624999999997
40
0.531249999999998
40
0.562499999999998
40
0.562499999999998
40
0.624999999999999
40
0.624999999999999
40
0.6875
40
0.6875
40
0.750000000000001
40
0.750000000000001
40
0.781250000000001
40
0.781250000000001
40
0.812500000000001
40
0.812500000000001
40
0.843750000000001
40
0.843750000000001
40
0.875000000000001
40
0.875000000000001
40
0.890625000000001
40
0.890625000000001
40
0.906250000000001
40
0.906250000000001
40
0.921875000000001
40
0.921875000000001
40
0.937500000000001
40
0.937500000000001
40
0.953125
40
0.953125
40
0.96875
40
0.96875
40
0.984375
40
0.984375
40
0.9921875
40
0.9921875
40
1
40
1
40
1
40
1
41
1
10
26.093966063872
20
-16.7500089862251
30
8E-16
41
1
10
25.9411487248683
20
-16.7500089862251
30
7E-16
41
1
10
25.7907467915713
20
-16.7587321411074
30
7E-16
41
1
10
25.4944383205208
20
-16.7923835281481
30
6E-16
41
1
10
25.3485333516931
20
-16.8173176184037
30
5E-16
41
1
10
25.1688743144195
20
-16.8582788487698
30
5E-16
41
1
10
25.1330790309739
20
-16.8669622665762
30
5E-16
41
1
10
25.0617608997545
20
-16.8853087111537
30
5E-16
41
1
10
25.026187895841
20
-16.8949878661478
30
4E-16
41
1
10
24.9207038424521
20
-16.9252465139597
30
4E-16
41
1
10
24.8517847598181
20
-16.9471015589888
30
4E-16
41
1
10
24.6489706578095
20
-17.0173871937663
30
3E-16
41
1
10
24.5190042163593
20
-17.0705209445769
30
3E-16
41
1
10
24.331176287535
20
-17.1587200154125
30
2E-16
41
1
10
24.2697579218862
20
-17.1895408741032
30
2E-16
41
1
10
24.1793547183468
20
-17.2378258295165
30
2E-16
41
1
10
24.1494824599625
20
-17.2542778021406
30
2E-16
41
1
10
24.0904167667705
20
-17.2877924691167
30
2E-16
41
1
10
24.0613041811265
20
-17.3048082807913
30
2E-16
41
1
10
23.9177605850049
20
-17.3911274166606
30
1E-16
41
1
10
23.8093592872109
20
-17.4641337966684
30
1E-16
41
1
10
23.6038309652101
20
-17.617018230458
30
0
41
1
10
23.506712147837
20
-17.6969017063756
30
0
41
1
10
23.3227385282085
20
-17.8628573043959
30
-1E-16
41
1
10
23.2358880301466
20
-17.948932666705
30
-1E-16
41
1
10
23.133343464805
20
-18.0600965828077
30
-1E-16
41
1
10
23.1131494978145
20
-18.0824951416936
30
-1E-16
41
1
10
23.0735287886393
20
-18.1274422706514
30
-1E-16
41
1
10
23.015182277111
20
-18.1951597582489
30
-2E-16
41
1
10
22.9599904605361
20
-18.2637313123479
30
-2E-16
41
1
10
22.853592919347
20
-18.4019244690197
30
-2E-16
41
1
10
22.7879654287022
20
-18.4954534026927
30
-2E-16
41
1
10
22.6664508341595
20
-18.6848696618527
30
-3E-16
41
1
10
22.6105667502935
20
-18.780761584971
30
-3E-16
41
1
10
22.5079839273158
20
-18.9744138123511
30
-3E-16
41
1
10
22.4612866046182
20
-19.0721844136974
30
-3E-16
41
1
10
22.3978918912853
20
-19.2196823713474
30
-3E-16
41
1
10
22.3778705955909
20
-19.2689860216877
30
-4E-16
41
1
10
22.3400292697821
20
-19.3677090560927
30
-4E-16
41
1
10
22.3222045066204
20
-19.4171519001487
30
-4E-16
41
1
10
22.2888945311215
20
-19.5154548613213
30
-4E-16
41
1
10
22.2733870635558
20
-19.5643729835553
30
-4E-16
41
1
10
22.2446379083948
20
-19.661326580776
30
-4E-16
41
1
10
22.2313958108761
20
-19.7093702396576
30
-4E-16
41
1
10
22.2132298376743
20
-19.7802250758978
30
-4E-16
41
1
10
22.2074576104516
20
-19.8036384326499
30
-4E-16
41
1
10
22.1964832629697
20
-19.8499017704706
30
-4E-16
41
1
10
22.1912833792977
20
-19.8727444786878
30
-4E-16
41
1
10
22.1814881001762
20
-19.9175179434772
30
-4E-16
41
1
10
22.1768892256874
20
-19.939464360295
30
-4E-16
41
1
10
22.1683021604645
20
-19.9821310894538
30
-4E-16
41
1
10
22.1643137129817
20
-20.0028544597513
30
-4E-16
41
1
10
22.1569729298039
20
-20.0425540070295
30
-4E-16
41
1
10
22.153620041728
20
-20.0615357153328
30
-4E-16
41
1
10
22.1475996643144
20
-20.0969282412924
30
-4E-16
41
1
10
22.144961508422
20
-20.1131665801556
30
-4E-16
41
1
10
22.1405012269813
20
-20.1414689196705
30
-4E-16
41
1
10
22.1386769933971
20
-20.1535409241208
30
-4E-16
41
1
10
22.1366371841446
20
-20.1672829934051
30
-4E-16
41
1
10
22.13607251613
20
-20.1711413582734
30
-4E-16
41
1
10
22.135205524977
20
-20.1771005627959
30
-4E-16
41
1
10
22.1349031234984
20
-20.1792007838715
30
-4E-16
41
1
10
22.1347364514261
20
-20.1803592026462
30
-4E-16
0
SPLINE
5
12D
100
AcDbEntity
8
1
62
256
6
ByLayer
370
18
48
1
60
0
100
AcDbSpline
70
4
71
3
72
10
73
6
40
0
40
0
40
0
40
0
40
0.5
40
0.5
40
1
40
1
40
1
40
1
41
1
10
23.9049356700774
20
31.65
30
1E-16
41
1
10
23.8253449328482
20
31.3081121672511
30
1E-16
41
1
10
23.7465865204653
20
30.9666388564376
30
1E-16
41
1
10
23.5909620849152
20
30.2845762038594
30
0
41
1
10
23.5140953772868
20
29.9439865086424
30
0
41
1
10
23.4383186059721
20
29.6038788968323
30
0
0
SPLINE
5
12E
100
AcDbEntity
8
1
62
256
6
ByLayer
370
18
48
1
60
0
100
AcDbSpline
70
4
71
3
72
32
73
28
40
0
40
0
40
0
40
0
40
0.124999999999999
40
0.124999999999999
40
0.249999999999997
40
0.249999999999997
40
0.374999999999996
40
0.374999999999996
40
0.499999999999994
40
0.499999999999994
40
0.531249999999994
40
0.531249999999994
40
0.562499999999994
40
0.562499999999994
40
0.624999999999992
40
0.624999999999992
40
0.749999999999991
40
0.749999999999991
40
0.781249999999991
40
0.781249999999991
40
0.812499999999992
40
0.812499999999992
40
0.874999999999995
40
0.874999999999995
40
0.937499999999997
40
0.937499999999997
40
1
40
1
40
1
40
1
41
1
10
22.2792076144253
20
27.6831351748155
30
-4E-16
41
1
10
22.3091940974266
20
27.7420231386863
30
-4E-16
41
1
10
22.3436243958582
20
27.8003782980927
30
-4E-16
41
1
10
22.4206974973503
20
27.9181114802433
30
-3E-16
41
1
10
22.4633432077873
20
27.9774898574549
30
-3E-16
41
1
10
22.5558758107049
20
28.099747295556
30
-3E-16
41
1
10
22.6057668590833
20
28.162623287643
30
-3E-16
41
1
10
22.7114164949829
20
28.2947720510491
30
-3E-16
41
1
10
22.7671828073186
20
28.3640349565132
30
-2E-16
41
1
10
22.8393433737483
20
28.4567940029524
30
-2E-16
41
1
10
22.8538963470362
20
28.4756568108962
30
-2E-16
41
1
10
22.8832054932364
20
28.5140684285848
30
-2E-16
41
1
10
22.8979780789154
20
28.5336398313148
30
-2E-16
41
1
10
22.9422876152557
20
28.5931481731074
30
-2E-16
41
1
10
22.9718818877783
20
28.6339603323933
30
-2E-16
41
1
10
23.0601698291291
20
28.7603891213516
30
-1E-16
41
1
10
23.1184103222873
20
28.8499547165796
30
-1E-16
41
1
10
23.1877796721286
20
28.9708476960705
30
-1E-16
41
1
10
23.2014786662184
20
28.9954765421391
30
-1E-16
41
1
10
23.2284440600119
20
29.0457111111152
30
-1E-16
41
1
10
23.2417023469438
20
29.0713075415353
30
-1E-16
41
1
10
23.2803323080464
20
29.1489341934821
30
-1E-16
41
1
10
23.304686761712
20
29.2020250618459
30
-1E-16
41
1
10
23.3498957038267
20
29.3111941984691
30
-1E-16
41
1
10
23.3707542027149
20
29.3672695291072
30
-1E-16
41
1
10
23.4081049560984
20
29.4828415816665
30
0
41
1
10
23.4246058133205
20
29.5423319995567
30
0
41
1
10
23.4383186059721
20
29.6038788968323
30
0
0
SPLINE
5
12F
100
AcDbEntity
8
1
62
256
6
ByLayer
370
18
48
1
60
0
100
AcDbSpline
70
4
71
3
72
30
73
26
40
0
40
0
40
0
40
0
40
0.0624999999999887
40
0.0624999999999887
40
0.0937499999999871
40
0.0937499999999871
40
0.124999999999985
40
0.124999999999985
40
0.249999999999993
40
0.249999999999993
40
0.31249999999999
40
0.31249999999999
40
0.374999999999988
40
0.374999999999988
40
0.437499999999986
40
0.437499999999986
40
0.499999999999983
40
0.499999999999983
40
0.624999999999987
40
0.624999999999987
40
0.749999999999991
40
0.749999999999991
40
0.874999999999996
40
0.874999999999996
40
1
40
1
40
1
40
1
41
1
10
13.4613248654051
20
30.0805927603169
30
5E-16
41
1
10
13.4770644463612
20
30.0805927603169
30
5E-16
41
1
10
13.4925182901835
20
30.0801205034908
30
5E-16
41
1
10
13.5153082123101
20
30.0787652114226
30
5E-16
41
1
10
13.5228395300831
20
30.0782053093477
30
5E-16
41
1
10
13.5377759237479
20
30.0768761478221
30
5E-16
41
1
10
13.5452163817752
20
30.0761022248719
30
5E-16
41
1
10
13.5815263070002
20
30.0717959485601
30
5E-16
41
1
10
13.6079581046675
20
30.0669872793661
30
6E-16
41
1
10
13.6448606867707
20
30.0583172600356
30
6E-16
41
1
10
13.6565013495867
20
30.0552244086802
30
6E-16
41
1
10
13.6786197964871
20
30.0487371057378
30
6E-16
41
1
10
13.6891167538207
20
30.0453372280742
30
6E-16
41
1
10
13.7091749421593
20
30.0382729348065
30
6E-16
41
1
10
13.7187352282342
20
30.0346082702024
30
6E-16
41
1
10
13.737049765874
20
30.0270468182506
30
6E-16
41
1
10
13.7458258793003
20
30.0231382884602
30
6E-16
41
1
10
13.7708221243599
20
30.011231295013
30
6E-16
41
1
10
13.7858017072526
20
30.0030284643032
30
6E-16
41
1
10
13.8132376332896
20
29.9862010424071
30
6E-16
41
1
10
13.8256849705001
20
29.9775752500986
30
6E-16
41
1
10
13.8485243776492
20
29.9599596837525
30
6E-16
41
1
10
13.8589127955723
20
29.9509694256368
30
6E-16
41
1
10
13.877931786983
20
29.9326601869321
30
6E-16
41
1
10
13.8865409364123
20
29.9233580917139
30
6E-16
41
1
10
13.8943375672973
20
29.9139548464691
30
6E-16
0
SPLINE
5
130
100
AcDbEntity
8
1
62
256
6
ByLayer
370
18
48
1
60
0
100
AcDbSpline
70
4
71
3
72
32
73
28
40
0
40
0
40
0
40
0
40
0.249999999999985
40
0.249999999999985
40
0.374999999999978
40
0.374999999999978
40
0.437499999999981
40
0.437499999999981
40
0.499999999999983
40
0.499999999999983
40
0.624999999999984
40
0.624999999999984
40
0.687499999999985
40
0.687499999999985
40
0.749999999999987
40
0.749999999999987
40
0.812499999999989
40
0.812499999999989
40
0.843749999999987
40
0.843749999999987
40
0.874999999999984
40
0.874999999999984
40
0.937499999999988
40
0.937499999999988
40
0.968749999999994
40
0.968749999999994
40
1
40
1
40
1
40
1
41
1
10
13.8943375672973
20
9.86941261896618
30
6E-16
41
1
10
13.8787501654511
20
9.81243201498805
30
6E-16
41
1
10
13.8600981524863
20
9.75655023082973
30
6E-16
41
1
10
13.8259097308548
20
9.67499387250791
30
6E-16
41
1
10
13.8134681559941
20
9.64819007031204
30
6E-16
41
1
10
13.7928415817069
20
9.60870778228676
30
6E-16
41
1
10
13.785636838674
20
9.59566828989807
30
6E-16
41
1
10
13.7704696456802
20
9.56986960560329
30
6E-16
41
1
10
13.7624961131814
20
9.55709686534371
30
6E-16
41
1
10
13.7374904471463
20
9.51963294536128
30
6E-16
41
1
10
13.7193382950671
20
9.49566900868393
30
6E-16
41
1
10
13.6890397943609
20
9.46183015552273
30
6E-16
41
1
10
13.6784124135705
20
9.45090526429331
30
6E-16
41
1
10
13.656277975813
20
9.43026612350764
30
6E-16
41
1
10
13.6447350068563
20
9.42050719110841
30
6E-16
41
1
10
13.6205171073693
20
9.40232505361257
30
6E-16
41
1
10
13.6078439741679
20
9.39389972204384
30
6E-16
41
1
10
13.587782200058
20
9.38250456041439
30
5E-16
41
1
10
13.5808872163666
20
9.37890069603392
30
5E-16
41
1
10
13.5669060817702
20
9.37226208194019
30
5E-16
41
1
10
13.5598136368109
20
9.36922064667917
30
5E-16
41
1
10
13.5382117701415
20
9.36098178019483
30
5E-16
41
1
10
13.5233796774591
20
9.35666472180208
30
5E-16
41
1
10
13.5003821923575
20
9.35223451981221
30
5E-16
41
1
10
13.492591907114
20
9.35110433740226
30
5E-16
41
1
10
13.4770081601071
20
9.34960123302483
30
5E-16
41
1
10
13.4691833484066
20
9.34922131452512
30
5E-16
41
1
10
13.4613248654051
20
9.34922131452512
30
5E-16
0
SPLINE
5
131
100
AcDbEntity
8
1
62
256
6
ByLayer
370
18
48
1
60
0
100
AcDbSpline
70
4
71
3
72
30
73
26
40
0
40
0
40
0
40
0
40
0.0625000000000075
40
0.0625000000000075
40
0.0937500000000085
40
0.0937500000000085
40
0.125000000000009
40
0.125000000000009
40
0.250000000000008
40
0.250000000000008
40
0.312500000000009
40
0.312500000000009
40
0.375000000000011
40
0.375000000000011
40
0.437500000000013
40
0.437500000000013
40
0.500000000000015
40
0.500000000000015
40
0.625000000000011
40
0.625000000000011
40
0.750000000000007
40
0.750000000000007
40
0.875000000000004
40
0.875000000000004
40
1
40
1
40
1
40
1
41
1
10
10.5386751345948
20
9.34922131452507
30
-4E-16
41
1
10
10.5229355536388
20
9.34922131452507
30
-4E-16
41
1
10
10.5074817098165
20
9.35074113394282
30
-4E-16
41
1
10
10.4846917876898
20
9.35509944740025
30
-4E-16
41
1
10
10.4771604699169
20
9.35689961322663
30
-4E-16
41
1
10
10.462224076252
20
9.36117119765709
30
-4E-16
41
1
10
10.4547836182248
20
9.36365758390266
30
-4E-16
41
1
10
10.4184736929998
20
9.37748487924961
30
-4E-16
41
1
10
10.3920418953325
20
9.39290424748302
30
-4E-16
41
1
10
10.3551393132292
20
9.42059748954574
30
-4E-16
41
1
10
10.3434986504133
20
9.43046143490417
30
-4E-16
41
1
10
10.3213802035128
20
9.45111186483322
30
-4E-16
41
1
10
10.3108832461792
20
9.4619157044678
30
-4E-16
41
1
10
10.2908250578406
20
9.48431848058803
30
-4E-16
41
1
10
10.2812647717658
20
9.49591822570954
30
-5E-16
41
1
10
10.262950234126
20
9.51980127252972
30
-5E-16
41
1
10
10.2541741206997
20
9.53212142663463
30
-5E-16
41
1
10
10.22917787564
20
9.56957065273522
30
-5E-16
41
1
10
10.2141982927473
20
9.5952614212766
30
-5E-16
41
1
10
10.1867623667103
20
9.64772023935038
30
-5E-16
41
1
10
10.1743150294998
20
9.67449223197161
30
-5E-16
41
1
10
10.1514756223507
20
9.72890711075632
30
-5E-16
41
1
10
10.1410872044276
20
9.75655159685448
30
-5E-16
41
1
10
10.1220682130169
20
9.81257982037155
30
-5E-16
41
1
10
10.1134590635876
20
9.84091160634017
30
-5E-16
41
1
10
10.1056624327026
20
9.86941261896612
30
-5E-16
0
SPLINE
5
132
100
AcDbEntity
8
1
62
256
6
ByLayer
370
18
48
1
60
0
100
AcDbSpline
70
4
71
3
72
32
73
28
40
0
40
0
40
0
40
0
40
0.249999999999988
40
0.249999999999988
40
0.374999999999986
40
0.374999999999986
40
0.437499999999987
40
0.437499999999987
40
0.499999999999988
40
0.499999999999988
40
0.624999999999993
40
0.624999999999993
40
0.687499999999992
40
0.687499999999992
40
0.749999999999991
40
0.749999999999991
40
0.81249999999999
40
0.81249999999999
40
0.843749999999991
40
0.843749999999991
40
0.874999999999992
40
0.874999999999992
40
0.937499999999997
40
0.937499999999997
40
0.968749999999998
40
0.968749999999998
40
1
40
1
40
1
40
1
41
1
10
10.1056624327026
20
29.9139548464691
30
-5E-16
41
1
10
10.1212498345488
20
29.9327542695085
30
-5E-16
41
1
10
10.1399018475136
20
29.9510098933136
30
-5E-16
41
1
10
10.1740902691451
20
29.977413331973
30
-5E-16
41
1
10
10.1865318440058
20
29.9860499646858
30
-5E-16
41
1
10
10.207158418293
20
29.9987154022301
30
-5E-16
41
1
10
10.214363161326
20
30.0028887514666
30
-5E-16
41
1
10
10.2295303543197
20
30.011127587853
30
-5E-16
41
1
10
10.2375038868186
20
30.0151973377028
30
-5E-16
41
1
10
10.2625095528537
20
30.0271090091071
30
-5E-16
41
1
10
10.2806617049328
20
30.0346937657148
30
-5E-16
41
1
10
10.310960205639
20
30.0453642012995
30
-4E-16
41
1
10
10.3215875864294
20
30.0488020840796
30
-4E-16
41
1
10
10.343722024187
20
30.055285688921
30
-4E-16
41
1
10
10.3552649931436
20
30.0583455135275
30
-4E-16
41
1
10
10.3794828926306
20
30.0640378913834
30
-4E-16
41
1
10
10.392156025832
20
30.0666711051739
30
-4E-16
41
1
10
10.4122177999419
20
30.0702282001224
30
-4E-16
41
1
10
10.4191127836333
20
30.0713523776808
30
-4E-16
41
1
10
10.4330939182297
20
30.0734220792404
30
-4E-16
41
1
10
10.4401863631891
20
30.0743696982575
30
-4E-16
41
1
10
10.4617882298585
20
30.0769355687271
30
-4E-16
41
1
10
10.4766203225409
20
30.0782784555614
30
-4E-16
41
1
10
10.4996178076424
20
30.0796561130286
30
-4E-16
41
1
10
10.5074080928859
20
30.0800074516352
30
-4E-16
41
1
10
10.5229918398929
20
30.080474687126
30
-4E-16
41
1
10
10.5308166515934
20
30.080592760317
30
-4E-16
41
1
10
10.5386751345948
20
30.080592760317
30
-4E-16
0
SPLINE
5
133
100
AcDbEntity
8
1
62
256
6
ByLayer
370
18
48
1
60
0
100
AcDbSpline
70
4
71
3
72
30
73
26
40
0
40
0
40
0
40
0
40
0.062499999999993
40
0.062499999999993
40
0.0937499999999929
40
0.0937499999999929
40
0.124999999999993
40
0.124999999999993
40
0.249999999999997
40
0.249999999999997
40
0.312499999999994
40
0.312499999999994
40
0.374999999999992
40
0.374999999999992
40
0.43749999999999
40
0.43749999999999
40
0.499999999999988
40
0.499999999999988
40
0.624999999999991
40
0.624999999999991
40
0.749999999999994
40
0.749999999999994
40
0.874999999999997
40
0.874999999999997
40
1
40
1
40
1
40
1
41
1
10
10.5386751345949
20
-30.0805927603169
30
-4E-16
41
1
10
10.5229355536388
20
-30.0805927603169
30
-4E-16
41
1
10
10.5074817098165
20
-30.0801205034908
30
-4E-16
41
1
10
10.4846917876898
20
-30.0787652114226
30
-4E-16
41
1
10
10.4771604699169
20
-30.0782053093478
30
-4E-16
41
1
10
10.462224076252
20
-30.0768761478221
30
-4E-16
41
1
10
10.4547836182248
20
-30.076102224872
30
-4E-16
41
1
10
10.4184736929998
20
-30.0717959485601
30
-4E-16
41
1
10
10.3920418953325
20
-30.0669872793661
30
-4E-16
41
1
10
10.3551393132292
20
-30.0583172600356
30
-4E-16
41
1
10
10.3434986504132
20
-30.0552244086802
30
-4E-16
41
1
10
10.3213802035128
20
-30.0487371057379
30
-4E-16
41
1
10
10.3108832461792
20
-30.0453372280742
30
-4E-16
41
1
10
10.2908250578406
20
-30.0382729348065
30
-4E-16
41
1
10
10.2812647717658
20
-30.0346082702025
30
-5E-16
41
1
10
10.262950234126
20
-30.0270468182507
30
-5E-16
41
1
10
10.2541741206996
20
-30.0231382884602
30
-5E-16
41
1
10
10.22917787564
20
-30.011231295013
30
-5E-16
41
1
10
10.2141982927473
20
-30.0030284643032
30
-5E-16
41
1
10
10.1867623667103
20
-29.9862010424071
30
-5E-16
41
1
10
10.1743150294998
20
-29.9775752500986
30
-5E-16
41
1
10
10.1514756223507
20
-29.9599596837525
30
-5E-16
41
1
10
10.1410872044276
20
-29.9509694256368
30
-5E-16
41
1
10
10.1220682130169
20
-29.9326601869321
30
-5E-16
41
1
10
10.1134590635876
20
-29.9233580917139
30
-5E-16
41
1
10
10.1056624327026
20
-29.9139548464691
30
-5E-16
0
SPLINE
5
134
100
AcDbEntity
8
1
62
256
6
ByLayer
370
18
48
1
60
0
100
AcDbSpline
70
4
71
3
72
32
73
28
40
0
40
0
40
0
40
0
40
0.25000000000001
40
0.25000000000001
40
0.375000000000012
40
0.375000000000012
40
0.437500000000012
40
0.437500000000012
40
0.500000000000012
40
0.500000000000012
40
0.62500000000001
40
0.62500000000001
40
0.687500000000002
40
0.687500000000002
40
0.749999999999994
40
0.749999999999994
40
0.812499999999986
40
0.812499999999986
40
0.843749999999987
40
0.843749999999987
40
0.874999999999988
40
0.874999999999988
40
0.937499999999993
40
0.937499999999993
40
0.968749999999997
40
0.968749999999997
40
1
40
1
40
1
40
1
41
1
10
10.1056624327026
20
-9.86941261896615
30
-5E-16
41
1
10
10.1212498345488
20
-9.81243201498802
30
-5E-16
41
1
10
10.1399018475136
20
-9.75655023082962
30
-5E-16
41
1
10
10.1740902691451
20
-9.6749938725078
30
-5E-16
41
1
10
10.1865318440058
20
-9.64819007031193
30
-5E-16
41
1
10
10.207158418293
20
-9.60870778228664
30
-5E-16
41
1
10
10.214363161326
20
-9.59566828989796
30
-5E-16
41
1
10
10.2295303543197
20
-9.56986960560317
30
-5E-16
41
1
10
10.2375038868186
20
-9.5570968653436
30
-5E-16
41
1
10
10.2625095528537
20
-9.51963294536117
30
-5E-16
41
1
10
10.2806617049328
20
-9.49566900868379
30
-5E-16
41
1
10
10.310960205639
20
-9.46183015552259
30
-4E-16
41
1
10
10.3215875864294
20
-9.45090526429317
30
-4E-16
41
1
10
10.343722024187
20
-9.43026612350749
30
-4E-16
41
1
10
10.3552649931436
20
-9.42050719110824
30
-4E-16
41
1
10
10.3794828926306
20
-9.40232505361243
30
-4E-16
41
1
10
10.392156025832
20
-9.3938997220437
30
-4E-16
41
1
10
10.4122177999419
20
-9.38250456041425
30
-4E-16
41
1
10
10.4191127836333
20
-9.37890069603381
30
-4E-16
41
1
10
10.4330939182297
20
-9.37226208194005
30
-4E-16
41
1
10
10.440186363189
20
-9.369220646679
30
-4E-16
41
1
10
10.4617882298584
20
-9.36098178019466
30
-4E-16
41
1
10
10.4766203225409
20
-9.35666472180191
30
-4E-16
41
1
10
10.4996178076424
20
-9.35223451981204
30
-4E-16
41
1
10
10.5074080928859
20
-9.35110433740212
30
-4E-16
41
1
10
10.5229918398929
20
-9.34960123302469
30
-4E-16
41
1
10
10.5308166515934
20
-9.34922131452498
30
-4E-16
41
1
10
10.5386751345948
20
-9.34922131452498
30
-4E-16
0
SPLINE
5
135
100
AcDbEntity
8
1
62
256
6
ByLayer
370
18
48
1
60
0
100
AcDbSpline
70
4
71
3
72
30
73
26
40
0
40
0
40
0
40
0
40
0.0625000000000007
40
0.0625000000000007
40
0.0937500000000004
40
0.0937500000000004
40
0.125
40
0.125
40
0.250000000000004
40
0.250000000000004
40
0.312500000000005
40
0.312500000000005
40
0.375000000000006
40
0.375000000000006
40
0.437500000000007
40
0.437500000000007
40
0.500000000000008
40
0.500000000000008
40
0.625000000000006
40
0.625000000000006
40
0.750000000000004
40
0.750000000000004
40
0.875000000000002
40
0.875000000000002
40
1
40
1
40
1
40
1
41
1
10
13.4613248654051
20
-9.34922131452515
30
5E-16
41
1
10
13.4770644463612
20
-9.34922131452515
30
5E-16
41
1
10
13.4925182901835
20
-9.3507411339429
30
5E-16
41
1
10
13.5153082123101
20
-9.35509944740033
30
5E-16
41
1
10
13.5228395300831
20
-9.35689961322672
30
5E-16
41
1
10
13.5377759237479
20
-9.36117119765717
30
5E-16
41
1
10
13.5452163817751
20
-9.36365758390278
30
5E-16
41
1
10
13.5815263070001
20
-9.37748487924969
30
5E-16
41
1
10
13.6079581046675
20
-9.3929042474831
30
6E-16
41
1
10
13.6448606867707
20
-9.42059748954583
30
6E-16
41
1
10
13.6565013495867
20
-9.43046143490423
30
6E-16
41
1
10
13.6786197964871
20
-9.45111186483331
30
6E-16
41
1
10
13.6891167538207
20
-9.46191570446788
30
6E-16
41
1
10
13.7091749421593
20
-9.48431848058812
30
6E-16
41
1
10
13.7187352282342
20
-9.49591822570963
30
6E-16
41
1
10
13.737049765874
20
-9.5198012725298
30
6E-16
41
1
10
13.7458258793002
20
-9.53212142663469
30
6E-16
41
1
10
13.7708221243599
20
-9.56957065273525
30
6E-16
41
1
10
13.7858017072526
20
-9.59526142127666
30
6E-16
41
1
10
13.8132376332896
20
-9.64772023935041
30
6E-16
41
1
10
13.8256849705001
20
-9.67449223197164
30
6E-16
41
1
10
13.8485243776492
20
-9.72890711075635
30
6E-16
41
1
10
13.8589127955723
20
-9.75655159685448
30
6E-16
41
1
10
13.877931786983
20
-9.81257982037155
30
6E-16
41
1
10
13.8865409364123
20
-9.8409116063402
30
6E-16
41
1
10
13.8943375672973
20
-9.86941261896615
30
6E-16
0
SPLINE
5
136
100
AcDbEntity
8
1
62
256
6
ByLayer
370
18
48
1
60
0
100
AcDbSpline
70
4
71
3
72
32
73
28
40
0
40
0
40
0
40
0
40
0.25000000000001
40
0.25000000000001
40
0.375000000000012
40
0.375000000000012
40
0.437500000000013
40
0.437500000000013
40
0.500000000000014
40
0.500000000000014
40
0.625000000000017
40
0.625000000000017
40
0.687500000000016
40
0.687500000000016
40
0.750000000000015
40
0.750000000000015
40
0.812500000000014
40
0.812500000000014
40
0.843750000000012
40
0.843750000000012
40
0.875000000000011
40
0.875000000000011
40
0.937500000000005
40
0.937500000000005
40
0.968750000000002
40
0.968750000000002
40
1
40
1
40
1
40
1
41
1
10
13.8943375672973
20
-29.9139548464691
30
6E-16
41
1
10
13.8787501654511
20
-29.9327542695084
30
6E-16
41
1
10
13.8600981524863
20
-29.9510098933136
30
6E-16
41
1
10
13.8259097308548
20
-29.977413331973
30
6E-16
41
1
10
13.8134681559941
20
-29.9860499646858
30
6E-16
41
1
10
13.7928415817069
20
-29.9987154022301
30
6E-16
41
1
10
13.7856368386739
20
-30.0028887514666
30
6E-16
41
1
10
13.7704696456802
20
-30.011127587853
30
6E-16
41
1
10
13.7624961131813
20
-30.0151973377028
30
6E-16
41
1
10
13.7374904471462
20
-30.0271090091071
30
6E-16
41
1
10
13.7193382950671
20
-30.0346937657148
30
6E-16
41
1
10
13.6890397943609
20
-30.0453642012995
30
6E-16
41
1
10
13.6784124135705
20
-30.0488020840796
30
6E-16
41
1
10
13.656277975813
20
-30.0552856889209
30
6E-16
41
1
10
13.6447350068563
20
-30.0583455135275
30
6E-16
41
1
10
13.6205171073693
20
-30.0640378913833
30
6E-16
41
1
10
13.6078439741679
20
-30.0666711051738
30
6E-16
41
1
10
13.587782200058
20
-30.0702282001224
30
5E-16
41
1
10
13.5808872163666
20
-30.0713523776808
30
5E-16
41
1
10
13.5669060817702
20
-30.0734220792404
30
5E-16
41
1
10
13.5598136368109
20
-30.0743696982575
30
5E-16
41
1
10
13.5382117701415
20
-30.076935568727
30
5E-16
41
1
10
13.5233796774591
20
-30.0782784555614
30
5E-16
41
1
10
13.5003821923575
20
-30.0796561130286
30
5E-16
41
1
10
13.492591907114
20
-30.0800074516351
30
5E-16
41
1
10
13.4770081601071
20
-30.080474687126
30
5E-16
41
1
10
13.4691833484066
20
-30.0805927603169
30
5E-16
41
1
10
13.4613248654051
20
-30.0805927603169
30
5E-16
0
SPLINE
5
137
100
AcDbEntity
8
1
62
256
6
ByLayer
370
18
48
1
60
0
100
AcDbSpline
70
4
71
3
72
10
73
6
40
0
40
0
40
0
40
0
40
0.5
40
0.5
40
1
40
1
40
1
40
1
41
1
10
22.2792076144253
20
27.6831351748155
30
-4E-16
41
1
10
22.231884986957
20
27.5902021964302
30
-4E-16
41
1
10
22.1966650443397
20
27.4949936362564
30
-4E-16
41
1
10
22.148839599149
20
27.2999820459826
30
-4E-16
41
1
10
22.1362406025796
20
27.2001790146977
30
-4E-16
41
1
10
22.1347364514261
20
27.0980237394451
30
-4E-16
0
SPLINE
5
138
100
AcDbEntity
8
SK1
62
256
6
ByLayer
370
18
48
1
60
0
100
AcDbSpline
70
4
71
3
72
49
73
45
40
0
40
0
40
0
40
0
40
0.0158520741319064
40
0.0443313530335955
40
0.0728106319352847
40
0.101289910836974
40
0.129769189738663
40
0.158248468640352
40
0.21520702644373
40
0.24368630534542
40
0.272165584247109
40
0.300644863148798
40
0.329124142050487
40
0.357603420952176
40
0.386082699853865
40
0.414561978755555
40
0.428801618206399
40
0.443041257657244
40
0.457280897108088
40
0.471520536558933
40
0.485760176009777
40
0.4928799957352
40
0.499999815460622
40
0.507119635186044
40
0.514239454911467
40
0.528479094362311
40
0.542718733813156
40
0.556958373264
40
0.571198012714845
40
0.58543765216569
40
0.613916931067379
40
0.642396209969068
40
0.670875488870757
40
0.699354767772446
40
0.727834046674135
40
0.756313325575825
40
0.784792604477514
40
0.841751162280892
40
0.870230441182581
40
0.89870972008427
40
0.92718899898596
40
0.955668277887649
40
0.984147556789338
40
1
40
1
40
1
40
1
41
1
10
-38
20
-20.2900103519058
30
1E-16
41
1
10
-38
20
-20.2838088162816
30
1E-16
41
1
10
-38
20
-20.2386783296183
30
1E-16
41
1
10
-38
20
-20.0459066437045
30
0
41
1
10
-38
20
-19.6579362347721
30
1E-16
41
1
10
-38
20
-19.1216505379956
30
1E-16
41
1
10
-38
20
-18.4471799717542
30
1E-16
41
1
10
-38
20
-17.3708466567051
30
1E-16
41
1
10
-38
20
-16.0627718728323
30
-8E-16
41
1
10
-38
20
-14.5156181768618
30
-8E-16
41
1
10
-38
20
-13.2517907463501
30
-8E-16
41
1
10
-38
20
-11.8841222937699
30
-8E-16
41
1
10
-38
20
-10.4165562193455
30
-8E-16
41
1
10
-38
20
-8.85372672313898
30
-8E-16
41
1
10
-38
20
-7.20134092284709
30
-8E-16
41
1
10
-38
20
-5.76201911469511
30
-8E-16
41
1
10
-38
20
-4.5640765607352
30
-8E-16
41
1
10
-38
20
-3.65884583736087
30
-8E-16
41
1
10
-38
20
-2.74483905839463
30
-8E-16
41
1
10
-38
20
-1.82748828650287
30
-8E-16
41
1
10
-38
20
-1.06947767603967
30
-8E-16
41
1
10
-38
20
-0.455018198724474
30
-8E-16
41
1
10
-38
20
4.514861303E-07
30
-8E-16
41
1
10
-38
20
0.455018630552075
30
-8E-16
41
1
10
-38
20
1.06947718042707
30
-8E-16
41
1
10
-38
20
1.82748862261292
30
-8E-16
41
1
10
-38
20
2.74483966025932
30
-8E-16
41
1
10
-38
20
3.65884523285217
30
-8E-16
41
1
10
-38
20
4.56407688146012
30
-8E-16
41
1
10
-38
20
5.76201962732219
30
-8E-16
41
1
10
-38
20
7.20134053529003
30
-8E-16
41
1
10
-38
20
8.85372716578038
30
-8E-16
41
1
10
-38
20
10.4165563625368
30
-8E-16
41
1
10
-38
20
11.884121927153
30
-8E-16
41
1
10
-38
20
13.2517911056129
30
-8E-16
41
1
10
-38
20
14.5156182315173
30
-8E-16
41
1
10
-38
20
16.0627714181563
30
-8E-16
41
1
10
-38
20
17.3708469037194
30
1E-16
41
1
10
-38
20
18.4471796582741
30
1E-16
41
1
10
-38
20
19.121649880576
30
1E-16
41
1
10
-38
20
19.6579364097435
30
1E-16
41
1
10
-38
20
20.0459061788578
30
0
41
1
10
-38
20
20.2386786518325
30
1E-16
41
1
10
-38
20
20.2838093437789
30
1E-16
41
1
10
-38
20
20.2900106485498
30
1E-16
0
SPLINE
5
139
100
AcDbEntity
8
SK1
62
256
6
ByLayer
370
18
48
1
60
0
100
AcDbSpline
70
4
71
3
72
36
73
32
40
0
40
0
40
0
40
0
40
0.249999999999995
40
0.249999999999995
40
0.374999999999995
40
0.374999999999995
40
0.499999999999994
40
0.499999999999994
40
0.624999999999994
40
0.624999999999994
40
0.687499999999995
40
0.687499999999995
40
0.749999999999996
40
0.749999999999996
40
0.812499999999997
40
0.812499999999997
40
0.843749999999998
40
0.843749999999998
40
0.874999999999998
40
0.874999999999998
40
0.906249999999999
40
0.906249999999999
40
0.921874999999999
40
0.921874999999999
40
0.937499999999999
40
0.937499999999999
40
0.953124999999999
40
0.953124999999999
40
0.968749999999999
40
0.968749999999999
40
1
40
1
40
1
40
1
41
1
10
-0.200000000000017
20
-7.03415845154797
30
-1E-16
41
1
10
-0.200331074104753
20
-6.96758473110461
30
-1E-16
41
1
10
-0.201942367211245
20
-6.90082001005126
30
-1E-16
41
1
10
-0.207091999731233
20
-6.80034067321819
30
-1E-16
41
1
10
-0.209269492367241
20
-6.76679198903059
30
-1E-16
41
1
10
-0.214824426638018
20
-6.69957126003933
30
-1E-16
41
1
10
-0.21819915020231
20
-6.66587124141833
30
-1E-16
41
1
10
-0.226629907857017
20
-6.59846295367004
30
-1E-16
41
1
10
-0.231660540619686
20
-6.56479252713515
30
-1E-16
41
1
10
-0.241214598359392
20
-6.5144059185414
30
-1E-16
41
1
10
-0.24474520514363
20
-6.49760452342764
30
-1E-16
41
1
10
-0.252727620657765
20
-6.46421416849179
30
-1E-16
41
1
10
-0.257169431390224
20
-6.44763062016602
30
-1E-16
41
1
10
-0.267439101060546
20
-6.41481626716185
30
-1E-16
41
1
10
-0.27323621273078
20
-6.39857720931977
30
-1E-16
41
1
10
-0.283833370168679
20
-6.37471397159132
30
-1E-16
41
1
10
-0.287711149711186
20
-6.3668056729274
30
-1E-16
41
1
10
-0.296343527957418
20
-6.35152953268795
30
-1E-16
41
1
10
-0.301085882076165
20
-6.34414232274304
30
-1E-16
41
1
10
-0.312078412289935
20
-6.33025774259031
30
-1E-16
41
1
10
-0.31822232846153
20
-6.32386838427445
30
-1E-16
41
1
10
-0.329057935890972
20
-6.31619338160348
30
-1E-16
41
1
10
-0.332859652575024
20
-6.31402544311607
30
-1E-16
41
1
10
-0.340958863848982
20
-6.31070772605878
30
-1E-16
41
1
10
-0.345208124413119
20
-6.30960458427649
30
-1E-16
41
1
10
-0.35368915432602
20
-6.30870360354672
30
-1E-16
41
1
10
-0.358037716131292
20
-6.30890123768719
30
-1E-16
41
1
10
-0.366345960396387
20
-6.31042877188762
30
-1E-16
41
1
10
-0.37039582601011
20
-6.31175696012832
30
-1E-16
41
1
10
-0.381850124236081
20
-6.31686284615006
30
-1E-16
41
1
10
-0.388651860853344
20
-6.32169800880934
30
-1E-16
41
1
10
-0.394913799811292
20
-6.32721828439901
30
-1E-16
0
SPLINE
5
13A
100
AcDbEntity
8
SK1
62
256
6
ByLayer
370
18
48
1
60
0
100
AcDbSpline
70
4
71
3
72
40
73
36
40
0
40
0
40
0
40
0
40
0.0156250000000005
40
0.0156250000000005
40
0.0312500000000011
40
0.0312500000000011
40
0.0468750000000016
40
0.0468750000000016
40
0.0625000000000022
40
0.0625000000000022
40
0.0781250000000027
40
0.0781250000000027
40
0.0937500000000033
40
0.0937500000000033
40
0.109375000000004
40
0.109375000000004
40
0.125000000000004
40
0.125000000000004
40
0.156250000000005
40
0.156250000000005
40
0.187500000000007
40
0.187500000000007
40
0.250000000000009
40
0.250000000000009
40
0.312500000000011
40
0.312500000000011
40
0.375000000000013
40
0.375000000000013
40
0.500000000000012
40
0.500000000000012
40
0.62500000000001
40
0.62500000000001
40
0.750000000000009
40
0.750000000000009
40
1
40
1
40
1
40
1
41
1
10
-0.394913799811292
20
6.32722135061286
30
-1E-16
41
1
10
-0.391768366820799
20
6.32444846033573
30
-1E-16
41
1
10
-0.388488406577181
20
6.32186168295425
30
-1E-16
41
1
10
-0.381566403142131
20
6.31718953975286
30
-1E-16
41
1
10
-0.377887007436868
20
6.31508659472502
30
-1E-16
41
1
10
-0.37022491081737
20
6.31169706442716
30
-1E-16
41
1
10
-0.36625480414537
20
6.31040674643401
30
-1E-16
41
1
10
-0.35794647802453
20
6.30889601700255
30
-1E-16
41
1
10
-0.353563907701925
20
6.30870335232461
30
-1E-16
41
1
10
-0.344995599835357
20
6.3096474881059
30
-1E-16
41
1
10
-0.340684924848716
20
6.31079560648985
30
-1E-16
41
1
10
-0.332576144960626
20
6.31417396688744
30
-1E-16
41
1
10
-0.328692242821035
20
6.31642240799482
30
-1E-16
41
1
10
-0.321489218115914
20
6.3215939456986
30
-1E-16
41
1
10
-0.318164476683535
20
6.32450219496934
30
-1E-16
41
1
10
-0.311908022590586
20
6.33077681434855
30
-1E-16
41
1
10
-0.308967085084731
20
6.33416203110167
30
-1E-16
41
1
10
-0.300766232707417
20
6.34461234463069
30
-1E-16
41
1
10
-0.296040108964064
20
6.35202357617757
30
-1E-16
41
1
10
-0.287432431444984
20
6.36735118199186
30
-1E-16
41
1
10
-0.283553316434961
20
6.37530507146633
30
-1E-16
41
1
10
-0.272955344086228
20
6.39930333387312
30
-1E-16
41
1
10
-0.267171029982791
20
6.41559723945636
30
-1E-16
41
1
10
-0.25692997095706
20
6.44848157748783
30
-1E-16
41
1
10
-0.25250502314799
20
6.46507959466703
30
-1E-16
41
1
10
-0.244556108211697
20
6.49847112557535
30
-1E-16
41
1
10
-0.241036901726744
20
6.51528035330136
30
-1E-16
41
1
10
-0.23149114194635
20
6.56582630636572
30
-1E-16
41
1
10
-0.226489017484568
20
6.5994729106236
30
-1E-16
41
1
10
-0.218114808322753
20
6.66667162394384
30
-1E-16
41
1
10
-0.214764318431179
20
6.70022371847915
30
-1E-16
41
1
10
-0.209239354999568
20
6.76723901782026
30
-1E-16
41
1
10
-0.207070996833039
20
6.80070221210741
30
-1E-16
41
1
10
-0.201940349251316
20
6.90096555412458
30
-1E-16
41
1
10
-0.200330815103399
20
6.96763966546041
30
-1E-16
41
1
10
-0.200000000000017
20
7.03416121607441
30
-1E-16
0
SPLINE
5
13B
100
AcDbEntity
8
SK1
62
256
6
ByLayer
370
13
48
1
60
0
100
AcDbSpline
70
4
71
3
72
21
73
17
40
0
40
0
40
0
40
0
40
0.0620714910742441
40
0.130360514952535
40
0.198649538830826
40
0.266938562709116
40
0.335227586587407
40
0.403516610465698
40
0.471805634343988
40
0.60838368210057
40
0.676672705978861
40
0.744961729857151
40
0.813250753735442
40
0.881539777613733
40
0.949828801492024
40
1
40
1
40
1
40
1
41
1
10
-0.394913799811292
20
-6.32721828439904
30
-1E-16
41
1
10
-0.394913799811292
20
-6.90653762641452
30
-1E-16
41
1
10
-0.394913799811292
20
-8.09321756934102
30
-1E-16
41
1
10
-0.394913799811292
20
-9.80498157314139
30
-1E-16
41
1
10
-0.394913799811292
20
-11.4638140893219
30
-1E-16
41
1
10
-0.394913799811292
20
-13.0147246633634
30
-1E-16
41
1
10
-0.394913799811292
20
-14.4558606687731
30
-1E-16
41
1
10
-0.394913799811292
20
-15.7849097442956
30
-1E-16
41
1
10
-0.394913799811292
20
-17.4047594204778
30
-1E-16
41
1
10
-0.394913799811292
20
-18.7870404111631
30
-1E-16
41
1
10
-0.394913799811292
20
-19.9145928494951
30
-1E-16
41
1
10
-0.394913799811292
20
-20.6247618481558
30
-1E-16
41
1
10
-0.394913799811292
20
-21.1908658435729
30
1E-16
41
1
10
-0.394913799811292
20
-21.6019834098091
30
0
41
1
10
-0.394913799811292
20
-21.8217384534532
30
-1E-16
41
1
10
-0.394913799811292
20
-21.8658202564531
30
-1E-16
41
1
10
-0.394913799811292
20
-21.8654706412985
30
-1E-16
0
SPLINE
5
13C
100
AcDbEntity
8
SK1
62
256
6
ByLayer
370
18
48
1
60
0
100
AcDbSpline
70
4
71
3
72
51
73
47
40
0
40
0
40
0
40
0
40
0.0312500000000006
40
0.0312500000000006
40
0.0468750000000016
40
0.0468750000000016
40
0.0625000000000026
40
0.0625000000000026
40
0.0781250000000036
40
0.0781250000000036
40
0.0937500000000046
40
0.101562500000005
40
0.101562500000005
40
0.109375000000005
40
0.109375000000005
40
0.125000000000006
40
0.125000000000006
40
0.140625000000007
40
0.140625000000007
40
0.156250000000007
40
0.156250000000007
40
0.171875000000008
40
0.171875000000008
40
0.187500000000009
40
0.187500000000009
40
0.218750000000009
40
0.218750000000009
40
0.25000000000001
40
0.25000000000001
40
0.28125000000001
40
0.28125000000001
40
0.312500000000011
40
0.312500000000011
40
0.375000000000011
40
0.375000000000011
40
0.437500000000011
40
0.437500000000011
40
0.500000000000011
40
0.500000000000011
40
0.625000000000008
40
0.625000000000008
40
0.750000000000006
40
0.750000000000006
40
0.875000000000003
40
0.875000000000003
40
1
40
1
40
1
40
1
41
1
10
-0.394913799811292
20
-6.32721828439901
30
-1E-16
41
1
10
-0.411169702827039
20
-6.34154884003178
30
-1E-16
41
1
10
-0.428432689769153
20
-6.35475565889095
30
-1E-16
41
1
10
-0.456587609313431
20
-6.37205876567259
30
-1E-16
41
1
10
-0.466398416496674
20
-6.37741702774107
30
-1E-16
41
1
10
-0.486501972755633
20
-6.38684509374406
30
-1E-16
41
1
10
-0.496835484302608
20
-6.39094564046627
30
-1E-16
41
1
10
-0.518168362769302
20
-6.3976988542467
30
-2E-16
41
1
10
-0.529196261060918
20
-6.4003572033352
30
-2E-16
41
1
10
-0.551937271601957
20
-6.40390572644711
30
-2E-16
41
1
10
-0.569030850267808
20
-6.40516730683922
30
-2E-16
41
1
10
-0.586181679144261
20
-6.40431153762214
30
-2E-16
41
1
10
-0.597628364481892
20
-6.40326750190812
30
-2E-16
41
1
10
-0.603385608753428
20
-6.40250300130214
30
-2E-16
41
1
10
-0.620403474265572
20
-6.39954770653125
30
-2E-16
41
1
10
-0.631442528804882
20
-6.39670554026134
30
-2E-16
41
1
10
-0.652994271508703
20
-6.38952126343978
30
-2E-16
41
1
10
-0.6635762300306
20
-6.38514079164267
30
-2E-16
41
1
10
-0.683845621171429
20
-6.37529177227788
30
-2E-16
41
1
10
-0.693552428201002
20
-6.36983092851585
30
-2E-16
41
1
10
-0.712284737644694
20
-6.35805370019304
30
-2E-16
41
1
10
-0.721309333004712
20
-6.35173618101936
30
-2E-16
41
1
10
-0.738796592350639
20
-6.33839390811318
30
-2E-16
41
1
10
-0.747287558608093
20
-6.33134151096425
30
-2E-16
41
1
10
-0.771774774816265
20
-6.30953788138899
30
-2E-16
41
1
10
-0.786839616984622
20
-6.29414128632044
30
-2E-16
41
1
10
-0.815263156517972
20
-6.26217184383674
30
-2E-16
41
1
10
-0.82861191461663
20
-6.24559230293653
30
-2E-16
41
1
10
-0.854034688294348
20
-6.21154523857419
30
-3E-16
41
1
10
-0.866130482320528
20
-6.1940351189366
30
-3E-16
41
1
10
-0.889197260559286
20
-6.15850150199267
30
-3E-16
41
1
10
-0.90014045687775
20
-6.14052530360527
30
-3E-16
41
1
10
-0.931589886782064
20
-6.08609644673811
30
-3E-16
41
1
10
-0.950735693127655
20
-6.04915001273994
30
-3E-16
41
1
10
-0.986572619190156
20
-5.97432275637723
30
-3E-16
41
1
10
-1.00324847625177
20
-5.93643689983455
30
-3E-16
41
1
10
-1.03476146769921
20
-5.85992972493543
30
-3E-16
41
1
10
-1.04959296411107
20
-5.82130654980756
30
-3E-16
41
1
10
-1.09190951976353
20
-5.70451929766091
30
-3E-16
41
1
10
-1.11725974479191
20
-5.62540226977166
30
-3E-16
41
1
10
-1.1639578554223
20
-5.46549802550047
30
-4E-16
41
1
10
-1.18522246232584
20
-5.38492681950902
30
-4E-16
41
1
10
-1.22466451933838
20
-5.22271935203617
30
-4E-16
41
1
10
-1.2428321325454
20
-5.1410815354084
30
-4E-16
41
1
10
-1.27671142477865
20
-4.97683362134603
30
-4E-16
41
1
10
-1.29241814186361
20
-4.89422245258601
30
-4E-16
41
1
10
-1.30710678118655
20
-4.81115156937966
30
-4E-16
0
SPLINE
5
13D
100
AcDbEntity
8
SK1
62
256
6
ByLayer
370
18
48
1
60
0
100
AcDbSpline
70
4
71
3
72
51
73
47
40
0
40
0
40
0
40
0
40
0.125000000000003
40
0.125000000000003
40
0.250000000000005
40
0.250000000000005
40
0.375000000000008
40
0.375000000000008
40
0.50000000000001
40
0.50000000000001
40
0.562500000000011
40
0.562500000000011
40
0.625000000000011
40
0.625000000000011
40
0.687500000000011
40
0.687500000000011
40
0.718750000000011
40
0.718750000000011
40
0.75000000000001
40
0.75000000000001
40
0.781250000000009
40
0.781250000000009
40
0.812500000000009
40
0.812500000000009
40
0.828125000000008
40
0.828125000000008
40
0.843750000000008
40
0.843750000000008
40
0.859375000000007
40
0.859375000000007
40
0.875000000000007
40
0.875000000000007
40
0.906250000000005
40
0.906250000000005
40
0.914062500000005
40
0.914062500000005
40
0.921875000000005
40
0.937500000000004
40
0.937500000000004
40
0.953125000000003
40
0.953125000000003
40
0.968750000000002
40
0.968750000000002
40
0.984375000000001
40
0.984375000000001
40
1
40
1
40
1
40
1
41
1
10
-1.30710678118655
20
4.8111517782514
30
-4E-16
41
1
10
-1.29243386166999
20
4.89413370391597
30
-4E-16
41
1
10
-1.27674450029033
20
4.97666000857456
30
-4E-16
41
1
10
-1.24290388240138
20
5.14074733501747
30
-4E-16
41
1
10
-1.22475757478614
20
5.22230941297437
30
-4E-16
41
1
10
-1.18536324259088
20
5.38437609466149
30
-4E-16
41
1
10
-1.1641141016691
20
5.46491938757291
30
-4E-16
41
1
10
-1.11750013847293
20
5.62462479791714
30
-3E-16
41
1
10
-1.09222933922732
20
5.70354894528973
30
-3E-16
41
1
10
-1.05003902511507
20
5.82012130347704
30
-3E-16
41
1
10
-1.03525413522217
20
5.85867400558868
30
-3E-16
41
1
10
-1.00384791181239
20
5.93504366748635
30
-3E-16
41
1
10
-0.98723209323984
20
5.97286244830227
30
-3E-16
41
1
10
-0.951537336733793
20
6.0475612269523
30
-3E-16
41
1
10
-0.932473247849742
20
6.08444613540038
30
-3E-16
41
1
10
-0.901177592378616
20
6.13879101734139
30
-3E-16
41
1
10
-0.890290953598992
20
6.15674063815601
30
-3E-16
41
1
10
-0.867353405011528
20
6.19222552349751
30
-3E-16
41
1
10
-0.855253581473988
20
6.2098275518716
30
-3E-16
41
1
10
-0.829832017046726
20
6.24404146668815
30
-3E-16
41
1
10
-0.816508756328489
20
6.26067183093176
30
-2E-16
41
1
10
-0.78822917837428
20
6.29267436431064
30
-2E-16
41
1
10
-0.773280793926858
20
6.30805251056447
30
-2E-16
41
1
10
-0.749110346030392
20
6.32978409383841
30
-2E-16
41
1
10
-0.740759389627414
20
6.33680322085289
30
-2E-16
41
1
10
-0.723321143410601
20
6.3502808336809
30
-2E-16
41
1
10
-0.714177802118201
20
6.3567747780167
30
-2E-16
41
1
10
-0.695263535743464
20
6.36883407140752
30
-2E-16
41
1
10
-0.685506727928441
20
6.37439841042161
30
-2E-16
41
1
10
-0.665265234159847
20
6.38439885825292
30
-2E-16
41
1
10
-0.654728144683787
20
6.38885411254182
30
-2E-16
41
1
10
-0.622102468665219
20
6.39998734213981
30
-2E-16
41
1
10
-0.599687731218609
20
6.40423336369165
30
-2E-16
41
1
10
-0.570661631866017
20
6.40472651279043
30
-2E-16
41
1
10
-0.564821683089775
20
6.40457927715815
30
-2E-16
41
1
10
-0.553312890967476
20
6.40381092862668
30
-2E-16
41
1
10
-0.536205505855378
20
6.40195065166941
30
-2E-16
41
1
10
-0.519541799584147
20
6.39807453657346
30
-2E-16
41
1
10
-0.497682675631438
20
6.39127312214092
30
-2E-16
41
1
10
-0.487153207843136
20
6.38712350886505
30
-1E-16
41
1
10
-0.466917648563935
20
6.37769203793539
30
-1E-16
41
1
10
-0.457177342303623
20
6.37239779961379
30
-1E-16
41
1
10
-0.43831629492334
20
6.3608578974891
30
-1E-16
41
1
10
-0.429170091135489
20
6.35459039773457
30
-1E-16
41
1
10
-0.411568516590108
20
6.34138290087219
30
-1E-16
41
1
10
-0.403103547019441
20
6.33444111034481
30
-1E-16
41
1
10
-0.394913799811292
20
6.32722135062522
30
-1E-16
0
SPLINE
5
13E
100
AcDbEntity
8
SK1
62
256
6
ByLayer
370
13
48
1
60
0
100
AcDbSpline
70
4
71
3
72
21
73
17
40
0
40
0
40
0
40
0
40
0.0501775047622204
40
0.118466082483742
40
0.186754660205264
40
0.255043237926787
40
0.323331815648308
40
0.391620393369831
40
0.528197548812875
40
0.596486126534397
40
0.664774704255919
40
0.733063281977441
40
0.801351859698963
40
0.869640437420485
40
0.937929015142007
40
1
40
1
40
1
40
1
41
1
10
-0.394913799811292
20
21.8654704309215
30
-1E-16
41
1
10
-0.394913799811292
20
21.8658250799795
30
-1E-16
41
1
10
-0.394913799811292
20
21.8217455523022
30
-1E-16
41
1
10
-0.394913799811292
20
21.6019829919256
30
0
41
1
10
-0.394913799811292
20
21.1908660117695
30
1E-16
41
1
10
-0.394913799811292
20
20.6247611340725
30
-1E-16
41
1
10
-0.394913799811292
20
19.9145926563567
30
-1E-16
41
1
10
-0.394913799811292
20
18.7870406318774
30
-1E-16
41
1
10
-0.394913799811292
20
17.4047589502432
30
-1E-16
41
1
10
-0.394913799811292
20
15.7849099352292
30
-1E-16
41
1
10
-0.394913799811292
20
14.4558608746283
30
-1E-16
41
1
10
-0.394913799811292
20
13.014724351229
30
-1E-16
41
1
10
-0.394913799811292
20
11.4638144327396
30
-1E-16
41
1
10
-0.394913799811292
20
9.80498177095927
30
-1E-16
41
1
10
-0.394913799811292
20
8.09321828866487
30
-1E-16
41
1
10
-0.394913799811292
20
6.90653972901185
30
-1E-16
41
1
10
-0.394913799811292
20
6.32722135061286
30
-1E-16
0
SPLINE
5
13F
100
AcDbEntity
8
SK1
62
256
6
ByLayer
370
18
48
1
60
0
100
AcDbSpline
70
4
71
3
72
40
73
36
40
0
40
0
40
0
40
0
40
0.125000000000001
40
0.125000000000001
40
0.187500000000001
40
0.187500000000001
40
0.250000000000001
40
0.250000000000001
40
0.312500000000001
40
0.312500000000001
40
0.328125000000001
40
0.328125000000001
40
0.343750000000001
40
0.375
40
0.375
40
0.4375
40
0.4375
40
0.5
40
0.5625
40
0.5625
40
0.625
40
0.625
40
0.640625
40
0.640625
40
0.65625
40
0.65625
40
0.6875
40
0.6875
40
0.75
40
0.75
40
0.8125
40
0.8125
40
0.875
40
0.875
40
1
40
1
40
1
40
1
41
1
10
-1.30710678118655
20
-4.8111515693796
30
-4E-16
41
1
10
-1.37464191770107
20
-4.42920989906065
30
-4E-16
41
1
10
-1.43848245106358
20
-4.04286538655003
30
-4E-16
41
1
10
-1.52581080346147
20
-3.4555709451387
30
-5E-16
41
1
10
-1.55350142719044
20
-3.25850341404765
30
-5E-16
41
1
10
-1.60546482604909
20
-2.86151288497595
30
-5E-16
41
1
10
-1.62973519898722
20
-2.6615890156875
30
-5E-16
41
1
10
-1.67414509281366
20
-2.25856982386534
30
-5E-16
41
1
10
-1.69427910225545
20
-2.05547235697085
30
-5E-16
41
1
10
-1.71638790779508
20
-1.79939862844844
30
-5E-16
41
1
10
-1.7206596967475
20
-1.74803956652656
30
-5E-16
41
1
10
-1.72887208385961
20
-1.64527687502962
30
-5E-16
41
1
10
-1.74069036277351
20
-1.49111947898439
30
-5E-16
41
1
10
-1.75097190728465
20
-1.33692150334681
30
-5E-16
41
1
10
-1.76938952483027
20
-1.02847005779319
30
-5E-16
41
1
10
-1.77881369580271
20
-0.822761881301432
30
-5E-16
41
1
10
-1.79137807494828
20
-0.411189125581416
30
-5E-16
41
1
10
-1.79754609551321
20
0.0005418097730683
30
-5E-16
41
1
10
-1.79135312802686
20
0.412582134739552
30
-5E-16
41
1
10
-1.7787347782095
20
0.82478135977604
30
-5E-16
41
1
10
-1.76926982289669
20
1.03095952328059
30
-5E-16
41
1
10
-1.75383938151629
20
1.28877539719627
30
-5E-16
41
1
10
-1.75057294247844
20
1.340343237501
30
-5E-16
41
1
10
-1.74368713518695
20
1.44348814091276
30
-5E-16
41
1
10
-1.74006503391183
20
1.4951017046248
30
-5E-16
41
1
10
-1.72870229322061
20
1.64966999837915
30
-5E-16
41
1
10
-1.7204726947345
20
1.75227000555529
30
-5E-16
41
1
10
-1.6939593856504
20
2.05879746438532
30
-5E-16
41
1
10
-1.67384597566206
20
2.26145078101035
30
-5E-16
41
1
10
-1.62948528789903
20
2.66369063393995
30
-5E-16
41
1
10
-1.60524340635007
20
2.86327920729124
30
-5E-16
41
1
10
-1.55333681678033
20
3.25969288493101
30
-5E-16
41
1
10
-1.52567448156807
20
3.45651882726707
30
-5E-16
41
1
10
-1.43842306954181
20
4.04321174825219
30
-4E-16
41
1
10
-1.37462279329503
20
4.42931851789501
30
-4E-16
41
1
10
-1.3071067811866
20
4.81115177825131
30
-4E-16
0
SPLINE
5
140
100
AcDbEntity
8
SK1
62
256
6
ByLayer
370
13
48
1
60
0
100
AcDbSpline
70
4
71
3
72
49
73
45
40
0
40
0
40
0
40
0
40
0.0205805047254693
40
0.0487848033835369
40
0.0769891020416045
40
0.105193400699672
40
0.13339769935774
40
0.161601998015807
40
0.218010595331942
40
0.24621489399001
40
0.274419192648078
40
0.302623491306145
40
0.330827789964213
40
0.35903208862228
40
0.387236387280348
40
0.415440685938415
40
0.429542835267449
40
0.443644984596483
40
0.457747133925517
40
0.471849283254551
40
0.485951432583584
40
0.493002507248101
40
0.500053581912618
40
0.507104656577135
40
0.514155731241652
40
0.528257880570686
40
0.54236002989972
40
0.556462179228753
40
0.570564328557787
40
0.584666477886821
40
0.612870776544889
40
0.641075075202956
40
0.669279373861024
40
0.697483672519091
40
0.725687971177159
40
0.753892269835226
40
0.782096568493294
40
0.838505165809429
40
0.866709464467497
40
0.894913763125564
40
0.923118061783632
40
0.951322360441699
40
0.979526659099767
40
1
40
1
40
1
40
1
41
1
10
-1.99503997793928
20
21.8252862030442
30
2E-16
41
1
10
-1.99503997793928
20
21.8253758215699
30
1E-16
41
1
10
-1.99503997793928
20
21.781223496042
30
-1E-16
41
1
10
-1.99503997793928
20
21.5622159608078
30
0
41
1
10
-1.99503997793928
20
21.1516905297668
30
1E-16
41
1
10
-1.99503997793928
20
20.5863476884834
30
-2E-16
41
1
10
-1.99503997793931
20
19.8770915138249
30
3E-16
41
1
10
-1.99503997793931
20
18.7508484467722
30
-6E-16
41
1
10
-1.99503997793931
20
17.370463175446
30
-6E-16
41
1
10
-1.99503997793931
20
15.752471971849
30
-6E-16
41
1
10
-1.99503997793931
20
14.4250897201646
30
-6E-16
41
1
10
-1.99503997793931
20
12.985830725026
30
-6E-16
41
1
10
-1.99503997793931
20
11.4370507512064
30
-6E-16
41
1
10
-1.99503997793931
20
9.78067154978808
30
-6E-16
41
1
10
-1.99503997793931
20
8.01821733349291
30
-6E-16
41
1
10
-1.99503997793931
20
6.46319635117558
30
-6E-16
41
1
10
-1.99503997793931
20
5.16749918372616
30
-6E-16
41
1
10
-1.99503997793931
20
4.17226659327741
30
-6E-16
41
1
10
-1.99503997793931
20
3.15436880408234
30
-6E-16
41
1
10
-1.99503997793931
20
2.11640247274798
30
-6E-16
41
1
10
-1.99503997793931
20
1.23881045451824
30
-6E-16
41
1
10
-1.99503997793931
20
0.53126948289281
30
-6E-16
41
1
10
-1.99503997793931
20
7.43625606E-08
30
-6E-16
41
1
10
-1.99503997793931
20
-0.53126937109505
30
-6E-16
41
1
10
-1.99503997793931
20
-1.23881043770962
30
-6E-16
41
1
10
-1.99503997793931
20
-2.11640245296422
30
-6E-16
41
1
10
-1.99503997793931
20
-3.15436853749512
30
-6E-16
41
1
10
-1.99503997793931
20
-4.17226658860133
30
-6E-16
41
1
10
-1.99503997793931
20
-5.16749921349111
30
-6E-16
41
1
10
-1.99503997793931
20
-6.46319592062625
30
-6E-16
41
1
10
-1.99503997793931
20
-8.01821749841287
30
-6E-16
41
1
10
-1.99503997793931
20
-9.7806713457135
30
-6E-16
41
1
10
-1.99503997793931
20
-11.4370504129058
30
-6E-16
41
1
10
-1.99503997793931
20
-12.9858310385527
30
-6E-16
41
1
10
-1.99503997793931
20
-14.4250895103889
30
-6E-16
41
1
10
-1.99503997793931
20
-15.7524717843982
30
-6E-16
41
1
10
-1.99503997793931
20
-17.370463645283
30
-6E-16
41
1
10
-1.99503997793931
20
-18.7508482253859
30
-6E-16
41
1
10
-1.99503997793931
20
-19.8770917100388
30
3E-16
41
1
10
-1.99503997793928
20
-20.5863484011186
30
-2E-16
41
1
10
-1.99503997793928
20
-21.1516903613971
30
1E-16
41
1
10
-1.99503997793928
20
-21.5622163798915
30
0
41
1
10
-1.99503997793928
20
-21.780919357578
30
-1E-16
41
1
10
-1.99503997793928
20
-21.8251815090687
30
1E-16
41
1
10
-1.99503997793928
20
-21.8252861534133
30
2E-16
0
SPLINE
5
141
100
AcDbEntity
8
SK1
62
256
6
ByLayer
370
18
48
1
60
0
100
AcDbSpline
70
4
71
3
72
49
73
45
40
0
40
0
40
0
40
0
40
0.0137023107920561
40
0.0423080710020392
40
0.0709138312120224
40
0.0995195914220055
40
0.128125351631989
40
0.156731111841972
40
0.213942632261938
40
0.242548392471921
40
0.271154152681904
40
0.299759912891887
40
0.32836567310187
40
0.356971433311854
40
0.385577193521837
40
0.41418295373182
40
0.428485833836811
40
0.442788713941803
40
0.457091594046795
40
0.471394474151786
40
0.485697354256778
40
0.492848794309274
40
0.500000234361769
40
0.507151674414265
40
0.514303114466761
40
0.528605994571753
40
0.542908874676744
40
0.557211754781736
40
0.571514634886727
40
0.585817514991719
40
0.614423275201702
40
0.643029035411685
40
0.671634795621668
40
0.700240555831651
40
0.728846316041634
40
0.757452076251617
40
0.786057836461601
40
0.843269356881567
40
0.87187511709155
40
0.900480877301533
40
0.929086637511516
40
0.9576923977215
40
0.986298157931483
40
1
40
1
40
1
40
1
41
1
10
-2.19999999999999
20
22.013632337598
30
0
41
1
10
-2.19999999999999
20
22.0053276298045
30
0
41
1
10
-2.19999999999999
20
21.9554440386277
30
-2E-16
41
1
10
-2.19999999999999
20
21.7550269215783
30
0
41
1
10
-2.19999999999999
20
21.3416333570605
30
0
41
1
10
-2.19999999999999
20
20.7725957724454
30
-2E-16
41
1
10
-2.19999999999999
20
20.0589162847047
30
2E-16
41
1
10
-2.20000000000002
20
18.9263267207688
30
-7E-16
41
1
10
-2.20000000000002
20
17.5367466797246
30
-7E-16
41
1
10
-2.20000000000002
20
15.9097478536278
30
-7E-16
41
1
10
-2.20000000000002
20
14.5742840575192
30
-7E-16
41
1
10
-2.20000000000002
20
13.1259218425112
30
-7E-16
41
1
10
-2.20000000000002
20
11.5668148046225
30
-7E-16
41
1
10
-2.20000000000002
20
9.89853996914991
30
-7E-16
41
1
10
-2.20000000000002
20
8.12208977576526
30
-7E-16
41
1
10
-2.20000000000002
20
6.55235660022589
30
-7E-16
41
1
10
-2.20000000000002
20
5.24422917335971
30
-7E-16
41
1
10
-2.20000000000002
20
4.2375522406841
30
-7E-16
41
1
10
-2.20000000000002
20
3.20644372216569
30
-7E-16
41
1
10
-2.20000000000002
20
2.15314018801405
30
-7E-16
41
1
10
-2.20000000000002
20
1.26034253962158
30
-7E-16
41
1
10
-2.20000000000002
20
0.540965390862539
30
-7E-16
41
1
10
-2.20000000000002
20
2.64082871E-08
30
-7E-16
41
1
10
-2.20000000000002
20
-0.540965319759152
30
-7E-16
41
1
10
-2.20000000000002
20
-1.26034245765445
30
-7E-16
41
1
10
-2.20000000000002
20
-2.15314020845372
30
-7E-16
41
1
10
-2.20000000000002
20
-3.20644349821168
30
-7E-16
41
1
10
-2.20000000000002
20
-4.23755215854527
30
-7E-16
41
1
10
-2.20000000000002
20
-5.24422924769223
30
-7E-16
41
1
10
-2.20000000000002
20
-6.55235618011341
30
-7E-16
41
1
10
-2.20000000000002
20
-8.12208991237512
30
-7E-16
41
1
10
-2.20000000000002
20
-9.89853979541101
30
-7E-16
41
1
10
-2.20000000000002
20
-11.5668144415121
30
-7E-16
41
1
10
-2.20000000000002
20
-13.1259221492871
30
-7E-16
41
1
10
-2.20000000000002
20
-14.574283866752
30
-7E-16
41
1
10
-2.20000000000002
20
-15.9097476492909
30
-7E-16
41
1
10
-2.20000000000002
20
-17.5367471514895
30
-7E-16
41
1
10
-2.20000000000002
20
-18.9263265026412
30
-7E-16
41
1
10
-2.19999999999999
20
-20.0589164660072
30
2E-16
41
1
10
-2.19999999999999
20
-20.7725964921017
30
-2E-16
41
1
10
-2.19999999999999
20
-21.3416331895302
30
0
41
1
10
-2.19999999999999
20
-21.7550273348429
30
0
41
1
10
-2.19999999999999
20
-21.9554433976337
30
-2E-16
41
1
10
-2.19999999999999
20
-22.0053267969848
30
0
41
1
10
-2.20000000000002
20
-22.0136316620066
30
0
0
SPLINE
5
142
100
AcDbEntity
8
SK1
62
256
6
ByLayer
370
18
48
1
60
0
100
AcDbSpline
70
4
71
3
72
49
73
45
40
0
40
0
40
0
40
0
40
0.027094820298941
40
0.054912753862917
40
0.082730687426893
40
0.110548620990869
40
0.138366554554845
40
0.166184488118821
40
0.221820355246773
40
0.249638288810749
40
0.277456222374725
40
0.305274155938701
40
0.333092089502677
40
0.360910023066653
40
0.388727956630629
40
0.416545890194605
40
0.430454856976593
40
0.444363823758581
40
0.458272790540569
40
0.472181757322557
40
0.486090724104545
40
0.493045207495539
40
0.499999690886533
40
0.506954174277527
40
0.513908657668521
40
0.527817624450509
40
0.541726591232497
40
0.555635558014485
40
0.569544524796473
40
0.583453491578461
40
0.611271425142437
40
0.639089358706413
40
0.666907292270389
40
0.694725225834365
40
0.722543159398341
40
0.750361092962317
40
0.778179026526293
40
0.833814893654245
40
0.861632827218221
40
0.889450760782197
40
0.917268694346173
40
0.945086627910149
40
0.972904561474125
40
1
40
1
40
1
40
1
41
1
10
-36.5
20
21.1524103623794
30
-3E-16
41
1
10
-36.5
20
21.1690101690877
30
-3E-16
41
1
10
-36.5
20
21.1349478854171
30
1E-16
41
1
10
-36.5
20
20.9025884164263
30
0
41
1
10
-36.5
20
20.5018751860753
30
1E-16
41
1
10
-36.5
20
19.9491724688865
30
1E-16
41
1
10
-36.5
20
19.2550489357272
30
-4E-16
41
1
10
-36.5
20
18.1505179338898
30
-4E-16
41
1
10
-36.5
20
16.8015889830236
30
-4E-16
41
1
10
-36.5
20
15.2144138486304
30
-4E-16
41
1
10
-36.5
20
13.9146794509994
30
-4E-16
41
1
10
-36.5
20
12.5065635742002
30
-4E-16
41
1
10
-36.5
20
10.9931136245939
30
-4E-16
41
1
10
-36.5
20
9.37743069816284
30
-4E-16
41
1
10
-36.5
20
7.6628582618342
30
-4E-16
41
1
10
-36.5
20
6.15816931379931
30
-4E-16
41
1
10
-36.5
20
4.9049974336175
30
-4E-16
41
1
10
-36.5
20
3.94891719908253
30
-4E-16
41
1
10
-36.5
20
2.97621477071243
30
-4E-16
41
1
10
-36.5
20
1.99071870036124
30
-4E-16
41
1
10
-36.5
20
1.16514681856438
30
-4E-16
41
1
10
-36.5
20
0.498098713248481
30
-4E-16
41
1
10
-36.5
20
2.384194602E-07
30
-4E-16
41
1
10
-36.5
20
-0.498098462230814
30
-4E-16
41
1
10
-36.5
20
-1.16514702467006
30
-4E-16
41
1
10
-36.5
20
-1.99071854296869
30
-4E-16
41
1
10
-36.5
20
-2.97621435827227
30
-4E-16
41
1
10
-36.5
20
-3.94891745941501
30
-4E-16
41
1
10
-36.5
20
-4.90499731091177
30
-4E-16
41
1
10
-36.5
20
-6.15816884754437
30
-4E-16
41
1
10
-36.5
20
-7.6628585236061
30
-4E-16
41
1
10
-36.5
20
-9.37743039030653
30
-4E-16
41
1
10
-36.5
20
-10.9931133711701
30
-4E-16
41
1
10
-36.5
20
-12.5065639108223
30
-4E-16
41
1
10
-36.5
20
-13.9146791761936
30
-4E-16
41
1
10
-36.5
20
-15.2144137189484
30
-4E-16
41
1
10
-36.5
20
-16.8015894462653
30
-4E-16
41
1
10
-36.5
20
-18.1505177013548
30
-4E-16
41
1
10
-36.5
20
-19.2550491829544
30
-4E-16
41
1
10
-36.5
20
-19.9491731575018
30
1E-16
41
1
10
-36.5
20
-20.5018750148337
30
1E-16
41
1
10
-36.5
20
-20.9025888554179
30
0
41
1
10
-36.5
20
-21.1349503337035
30
1E-16
41
1
10
-36.5
20
-21.1690108793064
30
-3E-16
41
1
10
-36.5
20
-21.1524093344313
30
-3E-16
0
SPLINE
5
143
100
AcDbEntity
8
1
62
256
6
ByLayer
370
18
48
1
60
0
100
AcDbSpline
70
4
71
3
72
18
73
14
40
0
40
0
40
0
40
0
40
0.106502320877199
40
0.209819720887523
40
0.309970050663119
40
0.406972922398899
40
0.500849920824628
40
0.591624858695484
40
0.679324076625515
40
0.763976789998077
40
0.845615488386552
40
0.924276395492868
40
1
40
1
40
1
40
1
41
1
10
62.5901186384098
20
36.9812734893215
30
0
41
1
10
62.5885415273355
20
36.9819496850207
30
0
41
1
10
62.5854344682341
20
36.9832818549836
30
0
41
1
10
62.5809243323183
20
36.9855770156533
30
0
41
1
10
62.5766153234622
20
36.9880308534473
30
0
41
1
10
62.5725126225169
20
36.9906474810406
30
0
41
1
10
62.5686149102102
20
36.9934029725073
30
0
41
1
10
62.5649224452294
20
36.9962810978359
30
0
41
1
10
62.5614353720447
20
36.9992648317461
30
0
41
1
10
62.5581528367138
20
37.0023366182316
30
0
41
1
10
62.5550778698623
20
37.0054853292608
30
0
41
1
10
62.552199683592
20
37.0086798996111
30
0
41
1
10
62.5504035869184
20
37.0109106507847
30
0
41
1
10
62.5495226247498
20
37.0120048053593
30
0
0
SPLINE
5
144
100
AcDbEntity
8
1
62
256
6
ByLayer
370
18
48
1
60
0
100
AcDbSpline
70
4
71
3
72
16
73
12
40
0
40
0
40
0
40
0
40
0.117319552095953
40
0.233085853241729
40
0.347299362202341
40
0.459960556706235
40
0.571069934503119
40
0.680628014495708
40
0.788635337949897
40
0.895092469791814
40
1
40
1
40
1
40
1
41
1
10
62.7489454154497
20
36.926197950387
30
-1E-16
41
1
10
62.7426777667174
20
36.9280098113907
30
1E-16
41
1
10
62.7302254497207
20
36.9316095452838
30
1E-16
41
1
10
62.71171925605
20
36.9372918435797
30
0
41
1
10
62.6934972967513
20
36.9431255105661
30
0
41
1
10
62.6755628434142
20
36.9491239823832
30
0
41
1
10
62.6579151154143
20
36.955272767606
30
0
41
1
10
62.6405540289176
20
36.9615631094022
30
0
41
1
10
62.6234806581601
20
36.9679913275185
30
0
41
1
10
62.6066908752725
20
36.9745291270345
30
0
41
1
10
62.5956156516846
20
36.9790363834166
30
0
41
1
10
62.5901186384098
20
36.9812734893286
30
0
0
SPLINE
5
145
100
AcDbEntity
8
1
62
256
6
ByLayer
370
18
48
1
60
0
100
AcDbSpline
70
4
71
2
72
10
73
7
40
0
40
0
40
0
40
0.5
40
0.5
40
0.75
40
0.75
40
1
40
1
40
1
41
1
10
62.7489454154403
20
36.926197950423
30
-1E-16
41
1
10
62.8165392416628
20
36.9068212662844
30
0
41
1
10
62.8642354827659
20
36.8551810431715
30
0
41
1
10
62.8902224727176
20
36.8270452000084
30
0
41
1
10
62.9068593747272
20
36.7912188905061
30
0
41
1
10
62.9248252361491
20
36.7525307674765
30
0
41
1
10
62.9289461970797
20
36.7095155046322
30
0
0
SPLINE
5
146
100
AcDbEntity
8
1
62
256
6
ByLayer
370
18
48
1
60
0
100
AcDbSpline
70
4
71
2
72
6
73
3
40
0
40
0
40
0
40
1
40
1
40
1
41
1
10
62.9289461971178
20
36.7095155047182
30
0
41
1
10
62.9378374892898
20
36.6143121349447
30
0
41
1
10
62.9378609595283
20
36.5187957680524
30
0
0
SPLINE
5
147
100
AcDbEntity
8
1
62
256
6
ByLayer
370
18
48
1
60
0
100
AcDbSpline
70
4
71
3
72
17
73
13
40
0
40
0
40
0
40
0
40
0.100317411816936
40
0.200541310293261
40
0.300680278273316
40
0.400742920447533
40
0.500737861201734
40
0.600673742442654
40
0.700559221399152
40
0.800402968404854
40
0.900213664663473
40
1
40
1
40
1
40
1
41
1
10
62.9289461971198
20
36.2880449725394
30
0
41
1
10
62.9295231228815
20
36.2943903273405
30
0
41
1
10
62.9306764366095
20
36.3070751219644
30
0
41
1
10
62.9321818251211
20
36.3261322033485
30
0
41
1
10
62.933521626251
20
36.3451969815232
30
0
41
1
10
62.934679803751
20
36.3642707575547
30
0
41
1
10
62.9356607269911
20
36.3833510656776
30
0
41
1
10
62.9364629358427
20
36.40243644846
30
0
41
1
10
62.9370879043614
20
36.4215251819916
30
0
41
1
10
62.9375311975088
20
36.4406156061118
30
0
41
1
10
62.9378090731843
20
36.4597060779129
30
0
41
1
10
62.9378436654886
20
36.4724330954711
30
0
41
1
10
62.9378609595297
20
36.4787958275806
30
0
0
SPLINE
5
148
100
AcDbEntity
8
1
62
256
6
ByLayer
370
18
48
1
60
0
100
AcDbSpline
70
4
71
3
72
38
73
34
40
0
40
0
40
0
40
0
40
0.032016180319042
40
0.0634137556494373
40
0.0941938978101185
40
0.124357850627713
40
0.153906935790714
40
0.182842559292655
40
0.211166218534116
40
0.238879510162446
40
0.265984138740216
40
0.292481926343985
40
0.318374823211781
40
0.343664919571534
40
0.368354458804054
40
0.392445852114289
40
0.415941694911132
40
0.438844785123577
40
0.461158143716704
40
0.48288503770492
40
0.504029006008753
40
0.55136681116327
40
0.597409666800345
40
0.642207857910837
40
0.685815975457104
40
0.728293199079281
40
0.769703557231219
40
0.810116149643018
40
0.849605314210604
40
0.888250718110479
40
0.926137351649335
40
0.963355403684612
40
1
40
1
40
1
40
1
41
1
10
62.7489454154397
20
36.0707342058944
30
-1E-16
41
1
10
62.7515736233645
20
36.0715198790754
30
-1E-16
41
1
10
62.7567792579364
20
36.073076044946
30
-1E-16
41
1
10
62.7644507904014
20
36.0757255430245
30
0
41
1
10
62.771924909561
20
36.0785628112066
30
0
41
1
10
62.7791975153444
20
36.081598558092
30
0
41
1
10
62.7862696764338
20
36.0848136670015
30
0
41
1
10
62.7931411178625
20
36.0881970015865
30
0
41
1
10
62.7998119140343
20
36.0917356089105
30
0
41
1
10
62.8062820488615
20
36.0954172932183
30
0
41
1
10
62.8125515300004
20
36.0992299730953
30
0
41
1
10
62.8186203592439
20
36.1031618710534
30
0
41
1
10
62.8244885401616
20
36.1072014845098
30
0
41
1
10
62.830156076366
20
36.1113376108709
30
0
41
1
10
62.8356229711864
20
36.1155593564345
30
0
41
1
10
62.8408892306564
20
36.1198561462978
30
0
41
1
10
62.8459548524151
20
36.1242177350367
30
0
41
1
10
62.8508198658016
20
36.1286342035793
30
0
41
1
10
62.8554841879099
20
36.1330959991582
30
0
41
1
10
62.8599481402175
20
36.1375938135108
30
0
41
1
10
62.8660095567996
20
36.1440288947973
30
0
41
1
10
62.873458819203
20
36.152630685031
30
0
41
1
10
62.8820027422793
20
36.163718898743
30
0
41
1
10
62.8898489226433
20
36.1751820000157
30
0
41
1
10
62.8969976055376
20
36.1869744614707
30
0
41
1
10
62.9034486190904
20
36.1990517499826
30
0
41
1
10
62.9092017357355
20
36.2113697620713
30
0
41
1
10
62.9142571546105
20
36.2238850509338
30
0
41
1
10
62.9186132961069
20
36.2365553198647
30
0
41
1
10
62.9222748801836
20
36.2493380742678
30
0
41
1
10
62.9252236999944
20
36.2621960826091
30
0
41
1
10
62.9275246334316
20
36.2750780570712
30
0
41
1
10
62.9284748015058
20
36.2837450971975
30
0
41
1
10
62.9289461970797
20
36.2880449726253
30
0
0
SPLINE
5
149
100
AcDbEntity
8
1
62
256
6
ByLayer
370
18
48
1
60
0
100
AcDbSpline
70
4
71
2
72
6
73
3
40
0
40
0
40
0
40
1
40
1
40
1
41
1
10
62.7489454154488
20
36.0707342059304
30
-1E-16
41
1
10
62.6679467190094
20
36.0473406390519
30
0
41
1
10
62.5901186384093
20
36.0151042572303
30
0
0
SPLINE
5
14A
100
AcDbEntity
8
1
62
256
6
ByLayer
370
18
48
1
60
0
100
AcDbSpline
70
4
71
2
72
6
73
3
40
0
40
0
40
0
40
1
40
1
40
1
41
1
10
62.5901186384083
20
36.0151042572373
30
0
41
1
10
62.565819759415
20
36.0048925441628
30
0
41
1
10
62.5495226247478
20
35.9842312344516
30
0
0
LINE
5
7D
100
AcDbEntity
8
1
62
256
6
ByLayer
370
18
48
1
60
0
100
AcDbLine
10
0
20
-31.2
30
0
11
0.3
21
-31.5
31
0
39
0
210
0
220
0
230
1
0
LINE
5
7E
100
AcDbEntity
8
1
62
256
6
ByLayer
370
18
48
1
60
0
100
AcDbLine
10
0.3
20
31.5
30
0
11
0
21
31.2
31
0
39
0
210
0
220
0
230
1
0
LINE
5
7F
100
AcDbEntity
8
1
62
256
6
ByLayer
370
18
48
1
60
0
100
AcDbLine
10
22.279208
20
31.5
30
0
11
0.3
21
31.5
31
0
39
0
210
0
220
0
230
1
0
LINE
5
80
100
AcDbEntity
8
1
62
256
6
ByLayer
370
18
48
1
60
0
100
AcDbLine
10
0.3
20
-31.5
30
0
11
22
21
-31.5
31
0
39
0
210
0
220
0
230
1
0
LINE
5
81
100
AcDbEntity
8
81
62
256
6
ByLayer
370
18
48
1
60
0
100
AcDbLine
10
70
20
39
30
0
11
75
21
39
31
0
39
0
210
0
220
0
230
1
0
LINE
5
82
100
AcDbEntity
8
80
62
256
6
ByLayer
370
18
48
1
60
0
100
AcDbLine
10
0
20
0
30
0
11
-5
21
0
31
0
39
0
210
0
220
0
230
1
0
LINE
5
83
100
AcDbEntity
8
1
62
256
6
ByLayer
370
18
48
1
60
0
100
AcDbLine
10
60.336855
20
38.774349
30
0
11
60.337144
21
38.936424
31
0
39
0
210
0
220
0
230
1
0
LINE
5
84
100
AcDbEntity
8
1
62
256
6
ByLayer
370
18
48
1
60
0
100
AcDbLine
10
62.806193
20
38.60798
30
0
11
62.806769
21
38.930811
31
0
39
0
210
0
220
0
230
1
0
LINE
5
85
100
AcDbEntity
8
1
62
256
6
ByLayer
370
13
48
1
60
0
100
AcDbLine
10
23.576995
20
32.65
30
0
11
28.2
21
32.65
31
0
39
0
210
0
220
0
230
1
0
LINE
5
86
100
AcDbEntity
8
1
62
256
6
ByLayer
370
13
48
1
60
0
100
AcDbLine
10
28.2
20
32.65
30
0
11
28.2
21
31.65
31
0
39
0
210
0
220
0
230
1
0
LINE
5
87
100
AcDbEntity
8
1
62
256
6
ByLayer
370
13
48
1
60
0
100
AcDbLine
10
28.2
20
32.65
30
0
11
28.2
21
38.871219
31
0
39
0
210
0
220
0
230
1
0
LINE
5
88
100
AcDbEntity
8
1
62
256
6
ByLayer
370
13
48
1
60
0
100
AcDbLine
10
28.2
20
32.65
30
0
11
31.893238
21
32.65
31
0
39
0
210
0
220
0
230
1
0
LINE
5
89
100
AcDbEntity
8
1
62
256
6
ByLayer
370
18
48
1
60
0
100
AcDbLine
10
31.893238
20
32.65
30
0
11
31.893238
21
38.71717
31
0
39
0
210
0
220
0
230
1
0
LINE
5
8A
100
AcDbEntity
8
1
62
256
6
ByLayer
370
18
48
1
60
0
100
AcDbLine
10
69
20
39.699533
30
0
11
69
21
38.969726
31
0
39
0
210
0
220
0
230
1
0
LINE
5
8B
100
AcDbEntity
8
1
62
256
6
ByLayer
370
18
48
1
60
0
100
AcDbLine
10
59.751916
20
47.640004
30
0
11
29.339181
21
47.640004
31
0
39
0
210
0
220
0
230
1
0
LINE
5
8C
100
AcDbEntity
8
1
62
256
6
ByLayer
370
18
48
1
60
0
100
AcDbLine
10
25.233012
20
38.871219
30
0
11
28.2
21
38.871219
31
0
39
0
210
0
220
0
230
1
0
LINE
5
8D
100
AcDbEntity
8
1
62
256
6
ByLayer
370
18
48
1
60
0
100
AcDbLine
10
32.400188
20
38.71717
30
0
11
31.893238
21
38.71717
31
0
39
0
210
0
220
0
230
1
0
LINE
5
8E
100
AcDbEntity
8
1
62
256
6
ByLayer
370
18
48
1
60
0
100
AcDbLine
10
58.730329
20
38.936424
30
0
11
60.337144
21
38.936424
31
0
39
0
210
0
220
0
230
1
0
LINE
5
8F
100
AcDbEntity
8
1
62
256
6
ByLayer
370
18
48
1
60
0
100
AcDbLine
10
62.806769
20
38.930811
30
0
11
68.108755
21
38.930811
31
0
39
0
210
0
220
0
230
1
0
LINE
5
90
100
AcDbEntity
8
1
62
256
6
ByLayer
370
18
48
1
60
0
100
AcDbLine
10
32.279216
20
38.684509
30
0
11
32.279216
21
32.65
31
0
39
0
210
0
220
0
230
1
0
LINE
5
91
100
AcDbEntity
8
1
62
256
6
ByLayer
370
13
48
1
60
0
100
AcDbLine
10
32.4
20
32.65
30
0
11
32.279216
21
32.65
31
0
39
0
210
0
220
0
230
1
0
LINE
5
92
100
AcDbEntity
8
1
62
256
6
ByLayer
370
18
48
1
60
0
100
AcDbLine
10
29.399843
20
31.65
30
0
11
28.400157
21
31.65
31
0
39
0
210
0
220
0
230
1
0
LINE
5
93
100
AcDbEntity
8
1
62
256
6
ByLayer
370
18
48
1
60
0
100
AcDbLine
10
29.399843
20
-16.750009
30
0
11
28.400157
21
-16.750009
31
0
39
0
210
0
220
0
230
1
0
LINE
5
94
100
AcDbEntity
8
1
62
256
6
ByLayer
370
18
48
1
60
0
100
AcDbLine
10
32.279216
20
38.684509
30
0
11
32.400018
21
38.684509
31
0
39
0
210
0
220
0
230
1
0
LINE
5
95
100
AcDbEntity
8
1
62
256
6
ByLayer
370
13
48
1
60
0
100
AcDbLine
10
52
20
35.665181
30
0
11
52
21
34.364427
31
0
39
0
210
0
220
0
230
1
0
LINE
5
96
100
AcDbEntity
8
1
62
256
6
ByLayer
370
18
48
1
60
0
100
AcDbLine
10
26.134584
20
31.65
30
0
11
28.4
21
31.65
31
0
39
0
210
0
220
0
230
1
0
LINE
5
97
100
AcDbEntity
8
1
62
256
6
ByLayer
370
18
48
1
60
0
100
AcDbLine
10
28.4
20
-16.750009
30
0
11
26.134584
21
-16.750009
31
0
39
0
210
0
220
0
230
1
0
LINE
5
98
100
AcDbEntity
8
1
62
256
6
ByLayer
370
18
48
1
60
0
100
AcDbLine
10
28.4
20
31.65
30
0
11
28.4
21
-16.750009
31
0
39
0
210
0
220
0
230
1
0
LINE
5
99
100
AcDbEntity
8
1
62
256
6
ByLayer
370
18
48
1
60
0
100
AcDbLine
10
50.4
20
34.325004
30
0
11
50.4
21
32.783869
31
0
39
0
210
0
220
0
230
1
0
LINE
5
9A
100
AcDbEntity
8
1
62
256
6
ByLayer
370
18
48
1
60
0
100
AcDbLine
10
51.216465
20
39.876222
30
0
11
48.360174
21
39.876222
31
0
39
0
210
0
220
0
230
1
0
LINE
5
9B
100
AcDbEntity
8
1
62
256
6
ByLayer
370
18
48
1
60
0
100
AcDbLine
10
50.4
20
34.325004
30
0
11
50.4
21
34.328926
31
0
39
0
210
0
220
0
230
1
0
LINE
5
9C
100
AcDbEntity
8
1
62
256
6
ByLayer
370
18
48
1
60
0
100
AcDbLine
10
58.5
20
38.966011
30
0
11
58.5
21
34.686753
31
0
39
0
210
0
220
0
230
1
0
LINE
5
9D
100
AcDbEntity
8
1
62
256
6
ByLayer
370
13
48
1
60
0
100
AcDbLine
10
48.360174
20
34.325004
30
0
11
50.4
21
34.325004
31
0
39
0
210
0
220
0
230
1
0
LINE
5
9E
100
AcDbEntity
8
1
62
256
6
ByLayer
370
18
48
1
60
0
100
AcDbLine
10
29.4
20
31.65
30
0
11
31.4
21
31.65
31
0
39
0
210
0
220
0
230
1
0
LINE
5
9F
100
AcDbEntity
8
1
62
256
6
ByLayer
370
18
48
1
60
0
100
AcDbLine
10
38.9
20
-16.750009
30
0
11
29.4
21
-16.750009
31
0
39
0
210
0
220
0
230
1
0
LINE
5
A0
100
AcDbEntity
8
1
62
256
6
ByLayer
370
18
48
1
60
0
100
AcDbLine
10
38.9
20
-16.750009
30
0
11
50.4
21
20.599991
31
0
39
0
210
0
220
0
230
1
0
LINE
5
A1
100
AcDbEntity
8
1
62
256
6
ByLayer
370
18
48
1
60
0
100
AcDbLine
10
50.4
20
20.599991
30
0
11
50.4
21
32.783869
31
0
39
0
210
0
220
0
230
1
0
LINE
5
A2
100
AcDbEntity
8
1
62
256
6
ByLayer
370
18
48
1
60
0
100
AcDbLine
10
48.360174
20
34.325004
30
0
11
48.360174
21
39.876222
31
0
39
0
210
0
220
0
230
1
0
LINE
5
A3
100
AcDbEntity
8
1
62
256
6
ByLayer
370
18
48
1
60
0
100
AcDbLine
10
32.4
20
39.876222
30
0
11
48.360174
21
39.876222
31
0
39
0
210
0
220
0
230
1
0
LINE
5
A4
100
AcDbEntity
8
1
62
256
6
ByLayer
370
18
48
1
60
0
100
AcDbLine
10
32.4
20
32.65
30
0
11
32.4
21
39.876222
31
0
39
0
210
0
220
0
230
1
0
LINE
5
A5
100
AcDbEntity
8
1
62
256
6
ByLayer
370
18
48
1
60
0
100
AcDbLine
10
29.4
20
-16.750009
30
0
11
29.4
21
31.65
31
0
39
0
210
0
220
0
230
1
0
LINE
5
A6
100
AcDbEntity
8
1
62
256
6
ByLayer
370
13
48
1
60
0
100
AcDbLine
10
23.438319
20
31.65
30
0
11
23.438319
21
29.603879
31
0
39
0
210
0
220
0
230
1
0
LINE
5
A7
100
AcDbEntity
8
1
62
256
6
ByLayer
370
13
48
1
60
0
100
AcDbLine
10
26.134584
20
31.65
30
0
11
26.134584
21
-16.750009
31
0
39
0
210
0
220
0
230
1
0
LINE
5
A8
100
AcDbEntity
8
1
62
256
6
ByLayer
370
18
48
1
60
0
100
AcDbLine
10
26.134584
20
31.65
30
0
11
23.904936
21
31.65
31
0
39
0
210
0
220
0
230
1
0
LINE
5
A9
100
AcDbEntity
8
1
62
256
6
ByLayer
370
18
48
1
60
0
100
AcDbLine
10
26.093966
20
-16.750009
30
0
11
26.134584
21
-16.750009
31
0
39
0
210
0
220
0
230
1
0
LINE
5
AA
100
AcDbEntity
8
1
62
256
6
ByLayer
370
13
48
1
60
0
100
AcDbLine
10
13.461325
20
-9.349221
30
0
11
13.461325
21
-30.080593
31
0
39
0
210
0
220
0
230
1
0
LINE
5
AB
100
AcDbEntity
8
1
62
256
6
ByLayer
370
13
48
1
60
0
100
AcDbLine
10
13.894338
20
-9.869413
30
0
11
13.894338
21
-29.913955
31
0
39
0
210
0
220
0
230
1
0
LINE
5
AC
100
AcDbEntity
8
1
62
256
6
ByLayer
370
13
48
1
60
0
100
AcDbLine
10
10.105662
20
29.913955
30
0
11
10.105662
21
9.869413
31
0
39
0
210
0
220
0
230
1
0
LINE
5
AD
100
AcDbEntity
8
1
62
256
6
ByLayer
370
13
48
1
60
0
100
AcDbLine
10
10.538675
20
30.080593
30
0
11
10.538675
21
9.349221
31
0
39
0
210
0
220
0
230
1
0
LINE
5
AE
100
AcDbEntity
8
1
62
256
6
ByLayer
370
13
48
1
60
0
100
AcDbLine
10
10.105662
20
-9.869413
30
0
11
10.105662
21
-29.913955
31
0
39
0
210
0
220
0
230
1
0
LINE
5
AF
100
AcDbEntity
8
1
62
256
6
ByLayer
370
13
48
1
60
0
100
AcDbLine
10
10.538675
20
-9.349221
30
0
11
10.538675
21
-30.080593
31
0
39
0
210
0
220
0
230
1
0
LINE
5
B0
100
AcDbEntity
8
1
62
256
6
ByLayer
370
13
48
1
60
0
100
AcDbLine
10
13.461325
20
30.080593
30
0
11
13.461325
21
9.349221
31
0
39
0
210
0
220
0
230
1
0
LINE
5
B1
100
AcDbEntity
8
1
62
256
6
ByLayer
370
13
48
1
60
0
100
AcDbLine
10
13.894338
20
29.913955
30
0
11
13.894338
21
9.869413
31
0
39
0
210
0
220
0
230
1
0
LINE
5
B2
100
AcDbEntity
8
1
62
256
6
ByLayer
370
18
48
1
60
0
100
AcDbLine
10
0
20
-31.2
30
0
11
0
21
31.2
31
0
39
0
210
0
220
0
230
1
0
LINE
5
B3
100
AcDbEntity
8
1
62
256
6
ByLayer
370
18
48
1
60
0
100
AcDbLine
10
0.3
20
-31.5
30
0
11
0.3
21
31.5
31
0
39
0
210
0
220
0
230
1
0
LINE
5
B4
100
AcDbEntity
8
1
62
256
6
ByLayer
370
18
48
1
60
0
100
AcDbLine
10
13.461325
20
9.349221
30
0
11
10.538675
21
9.349221
31
0
39
0
210
0
220
0
230
1
0
LINE
5
B5
100
AcDbEntity
8
1
62
256
6
ByLayer
370
18
48
1
60
0
100
AcDbLine
10
10.538675
20
30.080593
30
0
11
13.461325
21
30.080593
31
0
39
0
210
0
220
0
230
1
0
LINE
5
B6
100
AcDbEntity
8
1
62
256
6
ByLayer
370
18
48
1
60
0
100
AcDbLine
10
10.538675
20
-9.349221
30
0
11
13.461325
21
-9.349221
31
0
39
0
210
0
220
0
230
1
0
LINE
5
B7
100
AcDbEntity
8
1
62
256
6
ByLayer
370
18
48
1
60
0
100
AcDbLine
10
13.461325
20
-30.080593
30
0
11
10.538675
21
-30.080593
31
0
39
0
210
0
220
0
230
1
0
LINE
5
B8
100
AcDbEntity
8
1
62
256
6
ByLayer
370
18
48
1
60
0
100
AcDbLine
10
22.080515
20
-22.273864
30
0
11
22
21
-31.5
31
0
39
0
210
0
220
0
230
1
0
LINE
5
B9
100
AcDbEntity
8
1
62
256
6
ByLayer
370
13
48
1
60
0
100
AcDbLine
10
22.279208
20
31.5
30
0
11
22.279208
21
27.683135
31
0
39
0
210
0
220
0
230
1
0
LINE
5
BA
100
AcDbEntity
8
1
62
256
6
ByLayer
370
18
48
1
60
0
100
AcDbLine
10
22.094118
20
-20.715103
30
0
11
22.080515
21
-22.273864
31
0
39
0
210
0
220
0
230
1
0
LINE
5
BB
100
AcDbEntity
8
1
62
256
6
ByLayer
370
13
48
1
60
0
100
AcDbLine
10
22.134736
20
-20.180359
30
0
11
22.134736
21
27.098024
31
0
39
0
210
0
220
0
230
1
0
LINE
5
BC
100
AcDbEntity
8
SK1
62
256
6
ByLayer
370
18
48
1
60
0
100
AcDbLine
10
-0.2
20
-7.034158
30
0
11
-0.2
21
-22.533485
31
0
39
0
210
0
220
0
230
1
0
LINE
5
BE
100
AcDbEntity
8
SK1
62
256
6
ByLayer
370
18
48
1
60
0
100
AcDbLine
10
-0.2
20
22.533485
30
0
11
-0.2
21
7.034161
31
0
39
0
210
0
220
0
230
1
0
LINE
5
BF
100
AcDbEntity
8
SK1
62
256
6
ByLayer
370
13
48
1
60
0
100
AcDbLine
10
-1.307107
20
4.811152
30
0
11
-1.307107
21
-4.811152
31
0
39
0
210
0
220
0
230
1
0
LINE
5
C0
100
AcDbEntity
8
1
62
256
6
ByLayer
370
18
48
1
60
0
100
AcDbLine
10
63.63
20
34.400007
30
0
11
65.124301
21
34.400007
31
0
39
0
210
0
220
0
230
1
0
LINE
5
C1
100
AcDbEntity
8
1
62
256
6
ByLayer
370
18
48
1
60
0
100
AcDbLine
10
65.5
20
34.183097
30
0
11
65.124301
21
34.400007
31
0
39
0
210
0
220
0
230
1
0
LINE
5
C2
100
AcDbEntity
8
1
62
256
6
ByLayer
370
18
48
1
60
0
100
AcDbLine
10
69.686914
20
34.000293
30
0
11
65.5
21
34.183097
31
0
39
0
210
0
220
0
230
1
0
LINE
5
C3
100
AcDbEntity
8
1
62
256
6
ByLayer
370
18
48
1
60
0
100
AcDbLine
10
70
20
34.300007
30
0
11
70
21
38.7
31
0
39
0
210
0
220
0
230
1
0
LINE
5
C4
100
AcDbEntity
8
1
62
256
6
ByLayer
370
18
48
1
60
0
100
AcDbLine
10
69.686914
20
38.999714
30
0
11
65.5
21
38.81691
31
0
39
0
210
0
220
0
230
1
0
LINE
5
C5
100
AcDbEntity
8
1
62
256
6
ByLayer
370
18
48
1
60
0
100
AcDbLine
10
65.5
20
38.81691
30
0
11
65.124301
21
38.600001
31
0
39
0
210
0
220
0
230
1
0
LINE
5
C6
100
AcDbEntity
8
1
62
256
6
ByLayer
370
13
48
1
60
0
100
AcDbLine
10
62
20
36.478796
30
0
11
62.937861
21
36.478796
31
0
39
0
210
0
220
0
230
1
0
LINE
5
C7
100
AcDbEntity
8
1
62
256
6
ByLayer
370
13
48
1
60
0
100
AcDbLine
10
61.999915
20
36.518796
30
0
11
62.937861
21
36.518796
31
0
39
0
210
0
220
0
230
1
0
LINE
5
C8
100
AcDbEntity
8
1
62
256
6
ByLayer
370
13
48
1
60
0
100
AcDbLine
10
62.000172
20
36.288045
30
0
11
62.928946
21
36.288045
31
0
39
0
210
0
220
0
230
1
0
LINE
5
C9
100
AcDbEntity
8
1
62
256
6
ByLayer
370
13
48
1
60
0
100
AcDbLine
10
61.999748
20
36.709516
30
0
11
62.928946
21
36.709516
31
0
39
0
210
0
220
0
230
1
0
LINE
5
CA
100
AcDbEntity
8
1
62
256
6
ByLayer
370
13
48
1
60
0
100
AcDbLine
10
61.912067
20
36.070734
30
0
11
62.748945
21
36.070734
31
0
39
0
210
0
220
0
230
1
0
LINE
5
CB
100
AcDbEntity
8
1
62
256
6
ByLayer
370
13
48
1
60
0
100
AcDbLine
10
61.90936
20
36.926198
30
0
11
62.748945
21
36.926198
31
0
39
0
210
0
220
0
230
1
0
LINE
5
CC
100
AcDbEntity
8
1
62
256
6
ByLayer
370
13
48
1
60
0
100
AcDbLine
10
62.590119
20
36.015104
30
0
11
61.807592
21
36.015104
31
0
39
0
210
0
220
0
230
1
0
LINE
5
CD
100
AcDbEntity
8
1
62
256
6
ByLayer
370
13
48
1
60
0
100
AcDbLine
10
62.590119
20
36.981273
30
0
11
61.804968
21
36.981273
31
0
39
0
210
0
220
0
230
1
0
LINE
5
CE
100
AcDbEntity
8
1
62
256
6
ByLayer
370
13
48
1
60
0
100
AcDbLine
10
61.773237
20
35.984231
30
0
11
62.549523
21
35.984231
31
0
39
0
210
0
220
0
230
1
0
LINE
5
CF
100
AcDbEntity
8
1
62
256
6
ByLayer
370
13
48
1
60
0
100
AcDbLine
10
61.771975
20
37.012005
30
0
11
62.549523
21
37.012005
31
0
39
0
210
0
220
0
230
1
0
LINE
5
D0
100
AcDbEntity
8
1
62
256
6
ByLayer
370
13
48
1
60
0
100
AcDbLine
10
61.761837
20
35.892329
30
0
11
62.477691
21
35.892329
31
0
39
0
210
0
220
0
230
1
0
LINE
5
D1
100
AcDbEntity
8
1
62
256
6
ByLayer
370
13
48
1
60
0
100
AcDbLine
10
61.760282
20
37.103657
30
0
11
62.477691
21
37.103657
31
0
39
0
210
0
220
0
230
1
0
LINE
5
D2
100
AcDbEntity
8
1
62
256
6
ByLayer
370
13
48
1
60
0
100
AcDbLine
10
61.756253
20
35.848025
30
0
11
62.457959
21
35.848025
31
0
39
0
210
0
220
0
230
1
0
LINE
5
D3
100
AcDbEntity
8
1
62
256
6
ByLayer
370
18
48
1
60
0
100
AcDbLine
10
61.572224
20
34.397592
30
0
11
62.246355
21
34.397592
31
0
39
0
210
0
220
0
230
1
0
LINE
5
D4
100
AcDbEntity
8
1
62
256
6
ByLayer
370
13
48
1
60
0
100
AcDbLine
10
61.604114
20
34.638843
30
0
11
62.246355
21
34.638843
31
0
39
0
210
0
220
0
230
1
0
LINE
5
D5
100
AcDbEntity
8
1
62
256
6
ByLayer
370
13
48
1
60
0
100
AcDbLine
10
61.606318
20
34.65621
30
0
11
62.247874
21
34.65621
31
0
39
0
210
0
220
0
230
1
0
LINE
5
D6
100
AcDbEntity
8
1
62
256
6
ByLayer
370
13
48
1
60
0
100
AcDbLine
10
61.754703
20
37.147891
30
0
11
62.457959
21
37.147891
31
0
39
0
210
0
220
0
230
1
0
LINE
5
D7
100
AcDbEntity
8
1
62
256
6
ByLayer
370
13
48
1
60
0
100
AcDbLine
10
61.60157
20
38.338973
30
0
11
62.247874
21
38.338973
31
0
39
0
210
0
220
0
230
1
0
LINE
5
D8
100
AcDbEntity
8
1
62
256
6
ByLayer
370
13
48
1
60
0
100
AcDbLine
10
61.599219
20
38.356335
30
0
11
62.246355
21
38.356335
31
0
39
0
210
0
220
0
230
1
0
LINE
5
D9
100
AcDbEntity
8
1
62
256
6
ByLayer
370
18
48
1
60
0
100
AcDbLine
10
63.63
20
38.600001
30
0
11
65.124301
21
38.600001
31
0
39
0
210
0
220
0
230
1
0
LINE
5
DA
100
AcDbEntity
8
1
62
256
6
ByLayer
370
18
48
1
60
0
100
AcDbLine
10
65.138002
20
38.608001
30
0
11
61.564584
21
38.608001
31
0
39
0
210
0
220
0
230
1
0
LINE
5
DB
100
AcDbEntity
8
1
62
256
6
ByLayer
370
18
48
1
60
0
100
AcDbLine
10
61.566143
20
38.597586
30
0
11
62.246355
21
38.597586
31
0
39
0
210
0
220
0
230
1
0
LINE
5
DC
100
AcDbEntity
8
1
62
256
6
ByLayer
370
18
48
1
60
0
100
AcDbLine
10
63.63
20
34.400007
30
0
11
63.63
21
38.600001
31
0
39
0
210
0
220
0
230
1
0
LINE
5
DD
100
AcDbEntity
8
1
62
256
6
ByLayer
370
18
48
1
60
0
100
AcDbLine
10
62.246355
20
38.597586
30
0
11
63.63
21
38.600001
31
0
39
0
210
0
220
0
230
1
0
LINE
5
DE
100
AcDbEntity
8
1
62
256
6
ByLayer
370
18
48
1
60
0
100
AcDbLine
10
62.246355
20
38.356335
30
0
11
62.246355
21
38.597586
31
0
39
0
210
0
220
0
230
1
0
LINE
5
DF
100
AcDbEntity
8
1
62
256
6
ByLayer
370
18
48
1
60
0
100
AcDbLine
10
62.457959
20
37.147891
30
0
11
62.247874
21
38.338973
31
0
39
0
210
0
220
0
230
1
0
LINE
5
E0
100
AcDbEntity
8
1
62
256
6
ByLayer
370
18
48
1
60
0
100
AcDbLine
10
62.549523
20
37.012005
30
0
11
62.477691
21
37.103657
31
0
39
0
210
0
220
0
230
1
0
LINE
5
E1
100
AcDbEntity
8
1
62
256
6
ByLayer
370
18
48
1
60
0
100
AcDbLine
10
62.937861
20
36.478796
30
0
11
62.937861
21
36.518796
31
0
39
0
210
0
220
0
230
1
0
LINE
5
E2
100
AcDbEntity
8
1
62
256
6
ByLayer
370
18
48
1
60
0
100
AcDbLine
10
62.549523
20
35.984231
30
0
11
62.477691
21
35.892329
31
0
39
0
210
0
220
0
230
1
0
LINE
5
E3
100
AcDbEntity
8
1
62
256
6
ByLayer
370
18
48
1
60
0
100
AcDbLine
10
62.457959
20
35.848025
30
0
11
62.247874
21
34.65621
31
0
39
0
210
0
220
0
230
1
0
LINE
5
E4
100
AcDbEntity
8
1
62
256
6
ByLayer
370
18
48
1
60
0
100
AcDbLine
10
62.246355
20
34.638843
30
0
11
62.246355
21
34.397592
31
0
39
0
210
0
220
0
230
1
0
LINE
5
E5
100
AcDbEntity
8
1
62
256
6
ByLayer
370
18
48
1
60
0
100
AcDbLine
10
62.246355
20
34.397592
30
0
11
63.63
21
34.400007
31
0
39
0
210
0
220
0
230
1
0
LINE
5
E6
100
AcDbEntity
8
SK2
62
256
6
ByLayer
370
18
48
1
60
0
100
AcDbLine
10
-47.975
20
-31.5
30
0
11
-47.975
21
31.5
31
0
39
0
210
0
220
0
230
1
0
LINE
5
E8
100
AcDbEntity
8
SK2
62
256
6
ByLayer
370
18
48
1
60
0
100
AcDbLine
10
-1.2875
20
31.5
30
0
11
-49.975
21
31.5
31
0
39
0
210
0
220
0
230
1
0
LINE
5
E9
100
AcDbEntity
8
SK2
62
256
6
ByLayer
370
18
48
1
60
0
100
AcDbLine
10
-1.2875
20
-31.5
30
0
11
-49.975
21
-31.5
31
0
39
0
210
0
220
0
230
1
0
LINE
5
EA
100
AcDbEntity
8
1
62
256
6
ByLayer
370
18
48
1
60
1
100
AcDbLine
10
-47.975
20
31.5
30
0
11
-47.514216
21
28.000002
31
0
39
0
210
0
220
0
230
1
0
LINE
5
EB
100
AcDbEntity
8
1
62
256
6
ByLayer
370
18
48
1
60
1
100
AcDbLine
10
-47.514216
20
28.000002
30
0
11
-48.435784
21
27.999998
31
0
39
0
210
0
220
0
230
1
0
LINE
5
EC
100
AcDbEntity
8
1
62
256
6
ByLayer
370
18
48
1
60
1
100
AcDbLine
10
-48.435784
20
27.999998
30
0
11
-47.975
21
31.5
31
0
39
0
210
0
220
0
230
1
0
LINE
5
ED
100
AcDbEntity
8
1
62
256
6
ByLayer
370
18
48
1
60
1
100
AcDbLine
10
-47.975
20
-31.5
30
0
11
-48.435784
21
-28.000002
31
0
39
0
210
0
220
0
230
1
0
LINE
5
EE
100
AcDbEntity
8
1
62
256
6
ByLayer
370
18
48
1
60
1
100
AcDbLine
10
-48.435784
20
-28.000002
30
0
11
-47.514216
21
-27.999998
31
0
39
0
210
0
220
0
230
1
0
LINE
5
EF
100
AcDbEntity
8
1
62
256
6
ByLayer
370
18
48
1
60
1
100
AcDbLine
10
-47.514216
20
-27.999998
30
0
11
-47.975
21
-31.5
31
0
39
0
210
0
220
0
230
1
0
LINE
5
14F
100
AcDbEntity
8
1
62
256
6
ByLayer
370
18
48
1
60
1
100
AcDbLine
10
-47.975
20
31.5
30
0
11
-47.514216
21
28.000002
31
0
39
0
210
0
220
0
230
1
0
LINE
5
150
100
AcDbEntity
8
1
62
256
6
ByLayer
370
18
48
1
60
1
100
AcDbLine
10
-47.514216
20
28.000002
30
0
11
-48.435784
21
27.999998
31
0
39
0
210
0
220
0
230
1
0
LINE
5
151
100
AcDbEntity
8
1
62
256
6
ByLayer
370
18
48
1
60
1
100
AcDbLine
10
-48.435784
20
27.999998
30
0
11
-47.975
21
31.5
31
0
39
0
210
0
220
0
230
1
0
LINE
5
153
100
AcDbEntity
8
1
62
256
6
ByLayer
370
18
48
1
60
1
100
AcDbLine
10
-47.975
20
-31.5
30
0
11
-48.435784
21
-28.000002
31
0
39
0
210
0
220
0
230
1
0
LINE
5
154
100
AcDbEntity
8
1
62
256
6
ByLayer
370
18
48
1
60
1
100
AcDbLine
10
-48.435784
20
-28.000002
30
0
11
-47.514216
21
-27.999998
31
0
39
0
210
0
220
0
230
1
0
LINE
5
155
100
AcDbEntity
8
1
62
256
6
ByLayer
370
18
48
1
60
1
100
AcDbLine
10
-47.514216
20
-27.999998
30
0
11
-47.975
21
-31.5
31
0
39
0
210
0
220
0
230
1
0
MTEXT
5
14B
100
AcDbEntity
8
SK2
62
256
6
ByLayer
370
18
48
1
60
0
100
AcDbMText
10
-49.539634
20
-4.530622
30
0
210
0
220
0
230
1
1
%%c
40
3.5
41
0
44
1.084337
50
90
71
7
72
5
7
iso_b_vert
0
MTEXT
5
14E
100
AcDbEntity
8
SK2
62
256
6
ByLayer
370
18
48
1
60
0
100
AcDbMText
10
-49.539634
20
2.442034
30
0
210
0
220
0
230
1
1
\W0.6740;63
40
3.5
41
0
44
1.084337
50
90
71
7
72
5
7
iso_b_vert
0
MTEXT
5
157
100
AcDbEntity
8
SK6
62
256
6
ByLayer
370
18
48
1
60
0
100
AcDbMText
10
-16.3145
20
-45.00681
30
0
210
0
220
0
230
1
1
\W0.7514;C2A-CC6-RFJ18B-060CB
40
3.5
41
0
44
1.084337
50
0
71
7
72
5
7
iso_b_vert
0
HATCH
5
152
100
AcDbEntity
8
SK2
62
256
6
ByLayer
370
13
48
1
60
0
100
AcDbHatch
10
0
20
0
30
0
210
0
220
0
230
1
2
ANSI31
70
0
71
0
91
1
92
5
93
3
72
1
10
-47.9750000000001
20
31.5
11
-47.5142162584473
21
28.0000016925532
72
1
10
-47.5142162584473
20
28.0000016925532
11
-48.4357837415529
21
27.9999983074468
72
1
10
-48.4357837415529
20
27.9999983074468
11
-47.9750000000001
21
31.5
97
0
75
0
76
1
52
0
41
0.0062
77
0
78
1
53
45
43
0
44
0
45
-0.0139193969876572
46
0.0139193969876572
79
0
47
0
98
1
10
0
20
0
0
HATCH
5
156
100
AcDbEntity
8
SK2
62
256
6
ByLayer
370
13
48
1
60
0
100
AcDbHatch
10
0
20
0
30
0
210
0
220
0
230
1
2
ANSI31
70
0
71
0
91
1
92
5
93
3
72
1
10
-47.9750000000001
20
-31.5
11
-48.4357837415529
21
-28.0000016925532
72
1
10
-48.4357837415529
20
-28.0000016925532
11
-47.5142162584473
21
-27.9999983074468
72
1
10
-47.5142162584473
20
-27.9999983074468
11
-47.9750000000001
21
-31.5
97
0
75
0
76
1
52
0
41
0.0062
77
0
78
1
53
45
43
0
44
0
45
-0.0139193969876572
46
0.0139193969876572
79
0
47
0
98
1
10
0
20
0
0
DIMENSION
5
15A
100
AcDbEntity
8
2
62
256
6
ByLayer
370
18
48
1
60
0
100
AcDbDimension
2
_U0
10
101.1
20
0
30
0
11
101.1
21
19.5
31
0
70
32
71
1
72
1
41
1
210
0
220
0
230
1
3
Standard
100
AcDbAlignedDimension
13
70
23
39
33
0
14
0
24
0
34
0
50
90
100
AcDbRotatedDimension
1001
ACAD
1000
DSTYLE
1002
{
1070
   371
1070
    13
1070
   372
1070
    13
1070
   170
1070
     0
1070
   144
1040
1.0
1070
   277
1070
     2
1070
   284
1070
     8
1070
   278
1070
    46
1070
   146
1040
1.0
1070
   345
1005
16
1070
   347
1005
16
1070
   346
1005
16
1070
   344
1005
0
1070
   343
1005
0
1070
   172
1070
     1
1070
    76
1070
     0
1070
    75
1070
     0
1070
   282
1070
     0
1070
   281
1070
     0
1070
    71
1070
     0
1070
    74
1070
     0
1070
   279
1070
     0
1070
   173
1070
     1
1070
   340
1005
14C
1070
   271
1070
     1
1070
   272
1070
     2
1070
    77
1070
     1
1070
    73
1070
     0
1070
   171
1070
     3
1070
   274
1070
     4
1070
   177
1070
     2
1070
   176
1070
     2
1070
   178
1070
     2
1070
    78
1070
     8
1070
    48
1040
-0.1
1070
    41
1040
3.5
1070
   147
1040
1.75
1070
    42
1040
1.5875
1070
    44
1040
2.0
1070
   140
1040
3.5
1002
}
1001
ACAD_DSTYLE_DIM_LINETYPE
1070
   380
1005
16
1001
ACAD_DSTYLE_DIM_EXT1_LINETYPE
1070
   381
1005
16
1001
ACAD_DSTYLE_DIM_EXT2_LINETYPE
1070
   382
1005
16
0
DIMENSION
5
174
100
AcDbEntity
8
2
62
256
6
ByLayer
370
18
48
1
60
0
100
AcDbDimension
2
_U1
10
90.1
20
39
30
0
11
90.1
21
36.5
31
0
70
32
71
1
72
1
41
1
210
0
220
0
230
1
3
Standard
100
AcDbAlignedDimension
13
70
23
34
33
0
14
70
24
39
34
0
50
90
100
AcDbRotatedDimension
1001
ACAD
1000
DSTYLE
1002
{
1070
   371
1070
    13
1070
   372
1070
    13
1070
   170
1070
     0
1070
   144
1040
1.0
1070
   277
1070
     2
1070
   284
1070
     8
1070
   278
1070
    46
1070
   146
1040
1.0
1070
   345
1005
16
1070
   347
1005
16
1070
   346
1005
16
1070
   344
1005
0
1070
   343
1005
0
1070
   172
1070
     1
1070
    76
1070
     0
1070
    75
1070
     0
1070
   282
1070
     0
1070
   281
1070
     0
1070
    71
1070
     0
1070
    74
1070
     0
1070
   279
1070
     0
1070
   173
1070
     1
1070
   340
1005
14C
1070
   271
1070
     1
1070
   272
1070
     2
1070
    77
1070
     1
1070
    73
1070
     0
1070
   171
1070
     3
1070
   274
1070
     4
1070
   177
1070
     2
1070
   176
1070
     2
1070
   178
1070
     2
1070
    78
1070
     8
1070
    48
1040
-0.1
1070
    41
1040
3.5
1070
   147
1040
1.75
1070
    42
1040
1.5875
1070
    44
1040
2.0
1070
   140
1040
3.5
1002
}
1001
ACAD_DSTYLE_DIM_LINETYPE
1070
   380
1005
16
1001
ACAD_DSTYLE_DIM_EXT1_LINETYPE
1070
   381
1005
16
1001
ACAD_DSTYLE_DIM_EXT2_LINETYPE
1070
   382
1005
16
0
DIMENSION
5
18D
100
AcDbEntity
8
2
62
256
6
ByLayer
370
18
48
1
60
0
100
AcDbDimension
2
_U2
10
70
20
-30.424996
30
0
11
61
21
-30.424996
31
0
70
32
71
1
72
1
41
1
210
0
220
0
230
1
3
Standard
100
AcDbAlignedDimension
13
52
23
34.325004
33
0
14
70
24
34
34
0
50
0
100
AcDbRotatedDimension
1001
ACAD
1000
DSTYLE
1002
{
1070
   371
1070
    13
1070
   372
1070
    13
1070
   170
1070
     0
1070
   144
1040
1.0
1070
   277
1070
     2
1070
   284
1070
     8
1070
   278
1070
    46
1070
   146
1040
1.0
1070
   345
1005
16
1070
   347
1005
16
1070
   346
1005
16
1070
   344
1005
0
1070
   343
1005
0
1070
   172
1070
     1
1070
    76
1070
     0
1070
    75
1070
     0
1070
   282
1070
     0
1070
   281
1070
     0
1070
    71
1070
     0
1070
    74
1070
     0
1070
   279
1070
     0
1070
   173
1070
     1
1070
   340
1005
14C
1070
   271
1070
     1
1070
   272
1070
     2
1070
    77
1070
     1
1070
    73
1070
     1
1070
   171
1070
     3
1070
   274
1070
     4
1070
   177
1070
     2
1070
   176
1070
     2
1070
   178
1070
     2
1070
    78
1070
     8
1070
    48
1040
-0.1
1070
    41
1040
3.5
1070
   147
1040
1.75
1070
    42
1040
1.5875
1070
    44
1040
2.0
1070
   140
1040
3.5
1002
}
1001
ACAD_DSTYLE_DIM_LINETYPE
1070
   380
1005
16
1001
ACAD_DSTYLE_DIM_EXT1_LINETYPE
1070
   381
1005
16
1001
ACAD_DSTYLE_DIM_EXT2_LINETYPE
1070
   382
1005
16
0
DIMENSION
5
1A5
100
AcDbEntity
8
2
62
256
6
ByLayer
370
18
48
1
60
0
100
AcDbDimension
2
_U3
10
70
20
53.75
30
0
11
35
21
53.75
31
0
70
32
71
1
72
1
41
1
210
0
220
0
230
1
3
Standard
100
AcDbAlignedDimension
13
0
23
0
33
0
14
70
24
39
34
0
50
0
100
AcDbRotatedDimension
1001
ACAD
1000
DSTYLE
1002
{
1070
   371
1070
    13
1070
   372
1070
    13
1070
   170
1070
     0
1070
   144
1040
1.0
1070
   277
1070
     2
1070
   284
1070
     8
1070
   278
1070
    46
1070
   146
1040
1.0
1070
   345
1005
16
1070
   347
1005
16
1070
   346
1005
16
1070
   344
1005
0
1070
   343
1005
0
1070
   172
1070
     1
1070
    76
1070
     0
1070
    75
1070
     0
1070
   282
1070
     0
1070
   281
1070
     0
1070
    71
1070
     0
1070
    74
1070
     0
1070
   279
1070
     0
1070
   173
1070
     1
1070
   340
1005
14C
1070
   271
1070
     1
1070
   272
1070
     2
1070
    77
1070
     1
1070
    73
1070
     1
1070
   171
1070
     3
1070
   274
1070
     4
1070
   177
1070
     2
1070
   176
1070
     2
1070
   178
1070
     2
1070
    78
1070
     8
1070
    48
1040
-0.1
1070
    41
1040
3.5
1070
   147
1040
1.75
1070
    42
1040
1.5875
1070
    44
1040
2.0
1070
   140
1040
3.5
1002
}
1001
ACAD_DSTYLE_DIM_LINETYPE
1070
   380
1005
16
1001
ACAD_DSTYLE_DIM_EXT1_LINETYPE
1070
   381
1005
16
1001
ACAD_DSTYLE_DIM_EXT2_LINETYPE
1070
   382
1005
16
0
ENDSEC
0
SECTION
2
OBJECTS
0
DICTIONARY
5
22c
330
0
100
AcDbDictionary
280
0
281
1
3
ACAD_GROUP
350
22d
3
ACAD_MLINESTYLE
350
22e
0
DICTIONARY
5
22d
330
0
100
AcDbDictionary
280
0
281
1
0
DICTIONARY
5
22e
330
0
100
AcDbDictionary
280
0
281
1
3
Standard
350
18
0
MLINESTYLE
5
18
330
22e
100
AcDbMlineStyle
2
Standard
70
0
3

62
256
51
90
52
90
71
2
49
-0.5
62
256
6
ByLayer
49
0.5
62
256
6
ByLayer
0
RASTERVARIABLES
5
21b
330

100
AcDbRasterVariables
90
0
70
1
71
1
72
1
0
ENDSEC
0
EOF
