0
SECTION
2
HEADER
9
$ACADVER
1
AC1015
9
$DWGCODEPAGE
3
ANSI_1252
9
$HANDSEED
5
238
9
$ANGBASE
50
0
9
$ANGDIR
70
0
9
$ATTMODE
70
1
9
$AUNITS
70
0
9
$AUPREC
70
0
9
$CECOLOR
62
256
9
$CELTSCALE
40
1
9
$CELTYPE
6
ByLayer
9
$CELWEIGHT
370
18
9
$CLAYER
8
0
9
$CMLJUST
70
0
9
$CMLSCALE
40
1
9
$CMLSTYLE
2
Standard
9
$DIMSTYLE
2
Standard
9
$TEXTSIZE
40
0.2
9
$TEXTSTYLE
7
Standard
9
$LUNITS
70
2
9
$LUPREC
70
4
9
$EXTNAMES
290
1
9
$INSUNITS
70
4
9
$LTSCALE
40
1
9
$LWDISPLAY
290
1
9
$PDMODE
70
0
9
$PDSIZE
40
0
9
$PLINEGEN
70
0
0
ENDSEC
0
SECTION
2
CLASSES
0
CLASS
1
RASTERVARIABLES
2
AcDbRasterVariables
3
ISM
90
0
280
0
281
0
0
ENDSEC
0
SECTION
2
TABLES
0
TABLE
2
VPORT
5
22e
100
AcDbSymbolTable
0
VPORT
5
1
100
AcDbSymbolTableRecord
100
AcDbViewportTableRecord
2
*Active
70
0
10
0
20
0
11
1
21
1
12
-1
22
1
13
0
23
0
14
0.5
24
0.5
15
10
25
10
16
0
26
0
36
1
17
0
27
0
37
0
0
ENDTAB
0
TABLE
2
LTYPE
5
22f
100
AcDbSymbolTable
0
LTYPE
5
14
100
AcDbSymbolTableRecord
100
AcDbLinetypeTableRecord
70
0
2
ByBlock
3

72
65
73
0
40
0
0
LTYPE
5
15
100
AcDbSymbolTableRecord
100
AcDbLinetypeTableRecord
70
0
2
ByLayer
3

72
65
73
0
40
0
0
LTYPE
5
16
100
AcDbSymbolTableRecord
100
AcDbLinetypeTableRecord
70
0
2
Continuous
3
Solid line
72
65
73
0
40
0
0
LTYPE
5
6E
100
AcDbSymbolTableRecord
100
AcDbLinetypeTableRecord
70
0
2
CENTER
3
____ _ ____ _ ____ _ ____
72
65
73
4
40
47.5
49
22
74
0
49
-8.5
74
0
49
8.5
74
0
49
-8.5
74
0
0
LTYPE
5
6F
100
AcDbSymbolTableRecord
100
AcDbLinetypeTableRecord
70
0
2
DASHED
3
__ __ __ __ __ __ __ __ __
72
65
73
2
40
25.72
49
12.86
74
0
49
-12.86
74
0
0
ENDTAB
0
TABLE
2
LAYER
5
230
100
AcDbSymbolTable
0
LAYER
5
10
100
AcDbSymbolTableRecord
100
AcDbLayerTableRecord
2
0
70
0
62
7
6
Continuous
290
1
370
-3
390
0
0
LAYER
5
71
100
AcDbSymbolTableRecord
100
AcDbLayerTableRecord
2
80
70
0
62
-6
6
Continuous
290
1
370
-3
390
0
0
LAYER
5
73
100
AcDbSymbolTableRecord
100
AcDbLayerTableRecord
2
81
70
0
62
-3
6
Continuous
290
1
370
-3
390
0
0
LAYER
5
75
100
AcDbSymbolTableRecord
100
AcDbLayerTableRecord
2
1
70
0
62
4
6
Continuous
290
1
370
-3
390
0
0
LAYER
5
15C
100
AcDbSymbolTableRecord
100
AcDbLayerTableRecord
2
Defpoints
70
0
62
7
6
Continuous
290
0
370
-3
390
0
0
LAYER
5
169
100
AcDbSymbolTableRecord
100
AcDbLayerTableRecord
2
2
70
0
62
7
6
Continuous
290
1
370
-3
390
0
0
LAYER
5
21b
100
AcDbSymbolTableRecord
100
AcDbLayerTableRecord
2
SK1
70
0
62
4
6
Continuous
290
1
370
-3
390
0
0
LAYER
5
21c
100
AcDbSymbolTableRecord
100
AcDbLayerTableRecord
2
SK2
70
0
62
7
6
Continuous
290
1
370
-3
390
0
0
LAYER
5
21d
100
AcDbSymbolTableRecord
100
AcDbLayerTableRecord
2
SK6
70
0
62
5
6
Continuous
290
1
370
-3
390
0
0
ENDTAB
0
TABLE
2
STYLE
5
231
100
AcDbSymbolTable
0
STYLE
5
11
100
AcDbSymbolTableRecord
100
AcDbTextStyleTableRecord
2
Standard
3
txt
70
0
71
0
40
0
41
1
42
0
50
0
0
STYLE
5
14B
100
AcDbSymbolTableRecord
100
AcDbTextStyleTableRecord
2
iso_b_vert
3
simplex.shx
70
0
71
0
40
0
41
1
42
0
50
0
0
STYLE
5
14C
100
AcDbSymbolTableRecord
100
AcDbTextStyleTableRecord
2
DWGDirectTextStyle
3
simplex
70
0
71
0
40
0
41
1
42
0
50
0
0
ENDTAB
0
TABLE
2
DIMSTYLE
5
232
100
AcDbSymbolTable
100
AcDbDimStyleTable
0
DIMSTYLE
105
27
100
AcDbSymbolTableRecord
100
AcDbDimStyleTableRecord
2
Standard
70
0
3
<>
41
0.18
42
0.0625
44
0.18
140
0.18
147
0.09
73
0
74
0
77
1
271
2
275
0
278
52
280
0
340
11
0
ENDTAB
0
TABLE
2
VIEW
5
233
100
AcDbSymbolTable
0
ENDTAB
0
TABLE
2
UCS
5
234
100
AcDbSymbolTable
0
ENDTAB
0
TABLE
2
APPID
5
235
100
AcDbSymbolTable
0
APPID
5
12
100
AcDbSymbolTableRecord
100
AcDbRegAppTableRecord
2
ACAD
70
0
0
APPID
5
158
100
AcDbSymbolTableRecord
100
AcDbRegAppTableRecord
2
ACAD_DSTYLE_DIMBREAK
70
0
0
APPID
5
1DA
100
AcDbSymbolTableRecord
100
AcDbRegAppTableRecord
2
ACAD_DSTYLE_DIM_LINETYPE
70
0
0
APPID
5
1DB
100
AcDbSymbolTableRecord
100
AcDbRegAppTableRecord
2
ACAD_DSTYLE_DIM_EXT1_LINETYPE
70
0
0
APPID
5
1DC
100
AcDbSymbolTableRecord
100
AcDbRegAppTableRecord
2
ACAD_DSTYLE_DIM_EXT2_LINETYPE
70
0
0
APPID
5
217
100
AcDbSymbolTableRecord
100
AcDbRegAppTableRecord
2
ACAD_MLEADERVER
70
0
0
ENDTAB
0
TABLE
2
BLOCK_RECORD
5
236
100
AcDbSymbolTable
0
BLOCK_RECORD
5
1F
100
AcDbSymbolTableRecord
100
AcDbBlockTableRecord
2
*Model_Space
340
0
70
0
0
BLOCK_RECORD
5
1B
100
AcDbSymbolTableRecord
100
AcDbBlockTableRecord
2
*Paper_Space
340
0
70
0
0
BLOCK_RECORD
5
23
100
AcDbSymbolTableRecord
100
AcDbBlockTableRecord
2
*Paper_Space0
340
0
70
0
0
BLOCK_RECORD
5
15D
100
AcDbSymbolTableRecord
100
AcDbBlockTableRecord
2
*D1
340
0
70
0
0
BLOCK_RECORD
5
16A
100
AcDbSymbolTableRecord
100
AcDbBlockTableRecord
2
_U0
340
0
70
0
0
BLOCK_RECORD
5
176
100
AcDbSymbolTableRecord
100
AcDbBlockTableRecord
2
*D3
340
0
70
0
0
BLOCK_RECORD
5
183
100
AcDbSymbolTableRecord
100
AcDbBlockTableRecord
2
_U1
340
0
70
0
0
BLOCK_RECORD
5
18F
100
AcDbSymbolTableRecord
100
AcDbBlockTableRecord
2
*D5
340
0
70
0
0
BLOCK_RECORD
5
19B
100
AcDbSymbolTableRecord
100
AcDbBlockTableRecord
2
_U2
340
0
70
0
0
BLOCK_RECORD
5
1A7
100
AcDbSymbolTableRecord
100
AcDbBlockTableRecord
2
*D7
340
0
70
0
0
BLOCK_RECORD
5
1B3
100
AcDbSymbolTableRecord
100
AcDbBlockTableRecord
2
_U3
340
0
70
0
0
ENDTAB
0
ENDSEC
0
SECTION
2
BLOCKS
0
BLOCK
5
20
100
AcDbEntity
8
0
100
AcDbBlockBegin
2
*Model_Space
70
0
10
0
20
0
30
0
3
*Model_Space
0
ENDBLK
5
21
100
AcDbEntity
8
0
100
AcDbBlockEnd
0
BLOCK
5
1C
100
AcDbEntity
8
0
100
AcDbBlockBegin
2
*Paper_Space
70
0
10
0
20
0
30
0
3
*Paper_Space
0
ENDBLK
5
1D
100
AcDbEntity
8
0
100
AcDbBlockEnd
0
BLOCK
5
24
100
AcDbEntity
8
0
100
AcDbBlockBegin
2
*Paper_Space0
70
0
10
0
20
0
30
0
3
*Paper_Space0
0
ENDBLK
5
25
100
AcDbEntity
8
0
100
AcDbBlockEnd
0
BLOCK
5
15E
100
AcDbEntity
8
0
100
AcDbBlockBegin
2
*D1
70
1
10
0
20
0
30
0
3
*D1
0
LINE
5
160
100
AcDbEntity
8
0
62
256
6
ByLayer
370
-2
48
1
60
0
100
AcDbLine
10
66.5875
20
33
30
0
11
98.1
21
33
31
0
39
0
210
0
220
0
230
1
0
LINE
5
161
100
AcDbEntity
8
0
62
256
6
ByLayer
370
-2
48
1
60
0
100
AcDbLine
10
1.5875
20
0
30
0
11
98.1
21
0
31
0
39
0
210
0
220
0
230
1
0
LINE
5
162
100
AcDbEntity
8
0
62
256
6
ByLayer
370
-2
48
1
60
0
100
AcDbLine
10
96.1
20
29.5
30
0
11
96.1
21
3.5
31
0
39
0
210
0
220
0
230
1
0
SOLID
5
163
100
AcDbEntity
8
0
62
256
6
ByLayer
370
-1
48
1
60
0
100
AcDbTrace
10
96.683333
20
29.5
30
0
11
95.516667
21
29.5
31
0
12
96.1
22
33
32
0
13
96.1
23
33
33
0
39
0
210
0
220
0
230
1
0
SOLID
5
164
100
AcDbEntity
8
0
62
256
6
ByLayer
370
-1
48
1
60
0
100
AcDbTrace
10
95.516667
20
3.5
30
0
11
96.683333
21
3.5
31
0
12
96.1
22
0
32
0
13
96.1
23
0
33
0
39
0
210
0
220
0
230
1
0
MTEXT
5
165
100
AcDbEntity
8
0
62
256
6
ByLayer
370
18
48
1
60
0
100
AcDbMText
10
89.1
20
16.5
30
0
210
0
220
0
230
1
1
\A1;33
40
3.5
41
0
44
1
50
90
71
5
72
5
7
iso_b_vert
0
POINT
5
166
100
AcDbEntity
8
Defpoints
62
0
6
ByLayer
370
-1
48
1
60
0
100
AcDbPoint
10
65
20
33
30
0
39
0
210
0
220
0
230
1
50
360
0
POINT
5
167
100
AcDbEntity
8
Defpoints
62
0
6
ByLayer
370
-1
48
1
60
0
100
AcDbPoint
10
0
20
0
30
0
39
0
210
0
220
0
230
1
50
360
0
POINT
5
168
100
AcDbEntity
8
Defpoints
62
0
6
ByLayer
370
-1
48
1
60
0
100
AcDbPoint
10
96.1
20
0
30
0
39
0
210
0
220
0
230
1
50
360
0
ENDBLK
5
15F
100
AcDbEntity
8
0
100
AcDbBlockEnd
0
BLOCK
5
171
100
AcDbEntity
8
0
100
AcDbBlockBegin
2
_U0
70
0
10
0
20
0
30
0
3
_U0
0
MTEXT
5
16B
100
AcDbEntity
8
2
62
256
6
ByLayer
370
18
48
1
60
0
100
AcDbMText
10
95.410366
20
14.567034
30
0
210
0
220
0
230
1
1
\W0.6740;33
40
3.5
41
0
44
1.084337
50
90
71
7
72
5
7
iso_b_vert
0
LINE
5
16C
100
AcDbEntity
8
2
62
256
6
ByLayer
370
13
48
1
60
0
100
AcDbLine
10
66.5875
20
33
30
0
11
98.1
21
33
31
0
39
0
210
0
220
0
230
1
0
LINE
5
16D
100
AcDbEntity
8
2
62
256
6
ByLayer
370
13
48
1
60
0
100
AcDbLine
10
1.5875
20
0
30
0
11
98.1
21
0
31
0
39
0
210
0
220
0
230
1
0
LINE
5
16E
100
AcDbEntity
8
2
62
256
6
ByLayer
370
13
48
1
60
0
100
AcDbLine
10
96.1
20
33
30
0
11
96.1
21
0
31
0
39
0
210
0
220
0
230
1
0
SOLID
5
16F
100
AcDbEntity
8
2
62
256
6
ByLayer
370
18
48
1
60
0
100
AcDbTrace
10
96.1
20
33
30
0
11
96.560784
21
29.500002
31
0
12
95.639216
22
29.499998
32
0
13
95.639216
23
29.499998
33
0
39
0
210
0
220
0
230
1
0
SOLID
5
170
100
AcDbEntity
8
2
62
256
6
ByLayer
370
18
48
1
60
0
100
AcDbTrace
10
96.1
20
0
30
0
11
95.639216
21
3.499998
31
0
12
96.560784
22
3.500002
32
0
13
96.560784
23
3.500002
33
0
39
0
210
0
220
0
230
1
0
ENDBLK
5
172
100
AcDbEntity
8
0
100
AcDbBlockEnd
0
BLOCK
5
177
100
AcDbEntity
8
0
100
AcDbBlockBegin
2
*D3
70
1
10
0
20
0
30
0
3
*D3
0
LINE
5
179
100
AcDbEntity
8
0
62
256
6
ByLayer
370
-2
48
1
60
0
100
AcDbLine
10
66.5875
20
28
30
0
11
87.1
21
28
31
0
39
0
210
0
220
0
230
1
0
LINE
5
17A
100
AcDbEntity
8
0
62
256
6
ByLayer
370
-2
48
1
60
0
100
AcDbLine
10
66.5875
20
33
30
0
11
87.1
21
33
31
0
39
0
210
0
220
0
230
1
0
LINE
5
17B
100
AcDbEntity
8
0
62
256
6
ByLayer
370
-2
48
1
60
0
100
AcDbLine
10
85.1
20
24.5
30
0
11
85.1
21
21
31
0
39
0
210
0
220
0
230
1
0
LINE
5
17C
100
AcDbEntity
8
0
62
256
6
ByLayer
370
-2
48
1
60
0
100
AcDbLine
10
85.1
20
36.5
30
0
11
85.1
21
40
31
0
39
0
210
0
220
0
230
1
0
SOLID
5
17D
100
AcDbEntity
8
0
62
256
6
ByLayer
370
-1
48
1
60
0
100
AcDbTrace
10
85.683333
20
24.5
30
0
11
84.516667
21
24.5
31
0
12
85.1
22
28
32
0
13
85.1
23
28
33
0
39
0
210
0
220
0
230
1
0
SOLID
5
17E
100
AcDbEntity
8
0
62
256
6
ByLayer
370
-1
48
1
60
0
100
AcDbTrace
10
84.516667
20
36.5
30
0
11
85.683333
21
36.5
31
0
12
85.1
22
33
32
0
13
85.1
23
33
33
0
39
0
210
0
220
0
230
1
0
MTEXT
5
17F
100
AcDbEntity
8
0
62
256
6
ByLayer
370
18
48
1
60
0
100
AcDbMText
10
78.1
20
30.5
30
0
210
0
220
0
230
1
1
\A1;5
40
3.5
41
0
44
1
50
90
71
5
72
5
7
iso_b_vert
0
POINT
5
180
100
AcDbEntity
8
Defpoints
62
0
6
ByLayer
370
-1
48
1
60
0
100
AcDbPoint
10
65
20
28
30
0
39
0
210
0
220
0
230
1
50
360
0
POINT
5
181
100
AcDbEntity
8
Defpoints
62
0
6
ByLayer
370
-1
48
1
60
0
100
AcDbPoint
10
65
20
33
30
0
39
0
210
0
220
0
230
1
50
360
0
POINT
5
182
100
AcDbEntity
8
Defpoints
62
0
6
ByLayer
370
-1
48
1
60
0
100
AcDbPoint
10
85.1
20
33
30
0
39
0
210
0
220
0
230
1
50
360
0
ENDBLK
5
178
100
AcDbEntity
8
0
100
AcDbBlockEnd
0
BLOCK
5
18A
100
AcDbEntity
8
0
100
AcDbBlockBegin
2
_U1
70
0
10
0
20
0
30
0
3
_U1
0
MTEXT
5
184
100
AcDbEntity
8
2
62
256
6
ByLayer
370
18
48
1
60
0
100
AcDbMText
10
84.410366
20
29.874767
30
0
210
0
220
0
230
1
1
\W0.5404;5
40
3.5
41
0
44
1.084337
50
90
71
7
72
5
7
iso_b_vert
0
LINE
5
185
100
AcDbEntity
8
2
62
256
6
ByLayer
370
13
48
1
60
0
100
AcDbLine
10
66.5875
20
28
30
0
11
87.1
21
28
31
0
39
0
210
0
220
0
230
1
0
LINE
5
186
100
AcDbEntity
8
2
62
256
6
ByLayer
370
13
48
1
60
0
100
AcDbLine
10
66.5875
20
33
30
0
11
87.1
21
33
31
0
39
0
210
0
220
0
230
1
0
LINE
5
187
100
AcDbEntity
8
2
62
256
6
ByLayer
370
13
48
1
60
0
100
AcDbLine
10
85.1
20
19.25
30
0
11
85.1
21
41.75
31
0
39
0
210
0
220
0
230
1
0
SOLID
5
188
100
AcDbEntity
8
2
62
256
6
ByLayer
370
18
48
1
60
0
100
AcDbTrace
10
85.1
20
28
30
0
11
85.560784
21
24.500002
31
0
12
84.639216
22
24.499998
32
0
13
84.639216
23
24.499998
33
0
39
0
210
0
220
0
230
1
0
SOLID
5
189
100
AcDbEntity
8
2
62
256
6
ByLayer
370
18
48
1
60
0
100
AcDbTrace
10
85.1
20
33
30
0
11
84.639216
21
36.499998
31
0
12
85.560784
22
36.500002
32
0
13
85.560784
23
36.500002
33
0
39
0
210
0
220
0
230
1
0
ENDBLK
5
18B
100
AcDbEntity
8
0
100
AcDbBlockEnd
0
BLOCK
5
190
100
AcDbEntity
8
0
100
AcDbBlockBegin
2
*D5
70
1
10
0
20
0
30
0
3
*D5
0
LINE
5
192
100
AcDbEntity
8
0
62
256
6
ByLayer
370
-2
48
1
60
0
100
AcDbLine
10
47
20
26.737504
30
0
11
47
21
-25.424996
31
0
39
0
210
0
220
0
230
1
0
LINE
5
193
100
AcDbEntity
8
0
62
256
6
ByLayer
370
-2
48
1
60
0
100
AcDbLine
10
65
20
26.4125
30
0
11
65
21
-25.424996
31
0
39
0
210
0
220
0
230
1
0
LINE
5
194
100
AcDbEntity
8
0
62
256
6
ByLayer
370
-2
48
1
60
0
100
AcDbLine
10
50.5
20
-23.424996
30
0
11
61.5
21
-23.424996
31
0
39
0
210
0
220
0
230
1
0
SOLID
5
195
100
AcDbEntity
8
0
62
256
6
ByLayer
370
-1
48
1
60
0
100
AcDbTrace
10
50.5
20
-22.841663
30
0
11
50.5
21
-24.00833
31
0
12
47
22
-23.424996
32
0
13
47
23
-23.424996
33
0
39
0
210
0
220
0
230
1
0
SOLID
5
196
100
AcDbEntity
8
0
62
256
6
ByLayer
370
-1
48
1
60
0
100
AcDbTrace
10
61.5
20
-24.00833
30
0
11
61.5
21
-22.841663
31
0
12
65
22
-23.424996
32
0
13
65
23
-23.424996
33
0
39
0
210
0
220
0
230
1
0
MTEXT
5
197
100
AcDbEntity
8
0
62
256
6
ByLayer
370
18
48
1
60
0
100
AcDbMText
10
56
20
-16.424996
30
0
210
0
220
0
230
1
1
\A1;18
40
3.5
41
0
44
1
50
0
71
5
72
5
7
iso_b_vert
0
POINT
5
198
100
AcDbEntity
8
Defpoints
62
0
6
ByLayer
370
-1
48
1
60
0
100
AcDbPoint
10
47
20
28.325004
30
0
39
0
210
0
220
0
230
1
50
360
0
POINT
5
199
100
AcDbEntity
8
Defpoints
62
0
6
ByLayer
370
-1
48
1
60
0
100
AcDbPoint
10
65
20
28
30
0
39
0
210
0
220
0
230
1
50
360
0
POINT
5
19A
100
AcDbEntity
8
Defpoints
62
0
6
ByLayer
370
-1
48
1
60
0
100
AcDbPoint
10
65
20
-23.424996
30
0
39
0
210
0
220
0
230
1
50
360
0
ENDBLK
5
191
100
AcDbEntity
8
0
100
AcDbBlockEnd
0
BLOCK
5
1A2
100
AcDbEntity
8
0
100
AcDbBlockBegin
2
_U2
70
0
10
0
20
0
30
0
3
_U2
0
MTEXT
5
19C
100
AcDbEntity
8
2
62
256
6
ByLayer
370
18
48
1
60
0
100
AcDbMText
10
54.532467
20
-22.392363
30
0
210
0
220
0
230
1
1
\W0.5321;18
40
3.5
41
0
44
1.084337
50
0
71
7
72
5
7
iso_b_vert
0
LINE
5
19D
100
AcDbEntity
8
2
62
256
6
ByLayer
370
13
48
1
60
0
100
AcDbLine
10
47
20
26.737504
30
0
11
47
21
-25.424996
31
0
39
0
210
0
220
0
230
1
0
LINE
5
19E
100
AcDbEntity
8
2
62
256
6
ByLayer
370
13
48
1
60
0
100
AcDbLine
10
65
20
26.4125
30
0
11
65
21
-25.424996
31
0
39
0
210
0
220
0
230
1
0
LINE
5
19F
100
AcDbEntity
8
2
62
256
6
ByLayer
370
13
48
1
60
0
100
AcDbLine
10
47
20
-23.424996
30
0
11
65
21
-23.424996
31
0
39
0
210
0
220
0
230
1
0
SOLID
5
1A0
100
AcDbEntity
8
2
62
256
6
ByLayer
370
18
48
1
60
0
100
AcDbTrace
10
47
20
-23.424996
30
0
11
50.499998
21
-22.964212
31
0
12
50.500002
22
-23.88578
32
0
13
50.500002
23
-23.88578
33
0
39
0
210
0
220
0
230
1
0
SOLID
5
1A1
100
AcDbEntity
8
2
62
256
6
ByLayer
370
18
48
1
60
0
100
AcDbTrace
10
65
20
-23.424996
30
0
11
61.500002
21
-23.88578
31
0
12
61.499998
22
-22.964212
32
0
13
61.499998
23
-22.964212
33
0
39
0
210
0
220
0
230
1
0
ENDBLK
5
1A3
100
AcDbEntity
8
0
100
AcDbBlockEnd
0
BLOCK
5
1A8
100
AcDbEntity
8
0
100
AcDbBlockBegin
2
*D7
70
1
10
0
20
0
30
0
3
*D7
0
LINE
5
1AA
100
AcDbEntity
8
0
62
256
6
ByLayer
370
-2
48
1
60
0
100
AcDbLine
10
0
20
1.5875
30
0
11
0
21
49.25
31
0
39
0
210
0
220
0
230
1
0
LINE
5
1AB
100
AcDbEntity
8
0
62
256
6
ByLayer
370
-2
48
1
60
0
100
AcDbLine
10
65
20
34.5875
30
0
11
65
21
49.25
31
0
39
0
210
0
220
0
230
1
0
LINE
5
1AC
100
AcDbEntity
8
0
62
256
6
ByLayer
370
-2
48
1
60
0
100
AcDbLine
10
3.5
20
47.25
30
0
11
61.5
21
47.25
31
0
39
0
210
0
220
0
230
1
0
SOLID
5
1AD
100
AcDbEntity
8
0
62
256
6
ByLayer
370
-1
48
1
60
0
100
AcDbTrace
10
3.5
20
47.833333
30
0
11
3.5
21
46.666667
31
0
12
0
22
47.25
32
0
13
0
23
47.25
33
0
39
0
210
0
220
0
230
1
0
SOLID
5
1AE
100
AcDbEntity
8
0
62
256
6
ByLayer
370
-1
48
1
60
0
100
AcDbTrace
10
61.5
20
46.666667
30
0
11
61.5
21
47.833333
31
0
12
65
22
47.25
32
0
13
65
23
47.25
33
0
39
0
210
0
220
0
230
1
0
MTEXT
5
1AF
100
AcDbEntity
8
0
62
256
6
ByLayer
370
18
48
1
60
0
100
AcDbMText
10
32.5
20
54.25
30
0
210
0
220
0
230
1
1
\A1;65
40
3.5
41
0
44
1
50
0
71
5
72
5
7
iso_b_vert
0
POINT
5
1B0
100
AcDbEntity
8
Defpoints
62
0
6
ByLayer
370
-1
48
1
60
0
100
AcDbPoint
10
0
20
0
30
0
39
0
210
0
220
0
230
1
50
360
0
POINT
5
1B1
100
AcDbEntity
8
Defpoints
62
0
6
ByLayer
370
-1
48
1
60
0
100
AcDbPoint
10
65
20
33
30
0
39
0
210
0
220
0
230
1
50
360
0
POINT
5
1B2
100
AcDbEntity
8
Defpoints
62
0
6
ByLayer
370
-1
48
1
60
0
100
AcDbPoint
10
65
20
47.25
30
0
39
0
210
0
220
0
230
1
50
360
0
ENDBLK
5
1A9
100
AcDbEntity
8
0
100
AcDbBlockEnd
0
BLOCK
5
1BA
100
AcDbEntity
8
0
100
AcDbBlockBegin
2
_U3
70
0
10
0
20
0
30
0
3
_U3
0
MTEXT
5
1B4
100
AcDbEntity
8
2
62
256
6
ByLayer
370
18
48
1
60
0
100
AcDbMText
10
30.595034
20
48.282634
30
0
210
0
220
0
230
1
1
\W0.6740;65
40
3.5
41
0
44
1.084337
50
0
71
7
72
5
7
iso_b_vert
0
LINE
5
1B5
100
AcDbEntity
8
2
62
256
6
ByLayer
370
13
48
1
60
0
100
AcDbLine
10
0
20
1.5875
30
0
11
0
21
49.25
31
0
39
0
210
0
220
0
230
1
0
LINE
5
1B6
100
AcDbEntity
8
2
62
256
6
ByLayer
370
13
48
1
60
0
100
AcDbLine
10
65
20
34.5875
30
0
11
65
21
49.25
31
0
39
0
210
0
220
0
230
1
0
LINE
5
1B7
100
AcDbEntity
8
2
62
256
6
ByLayer
370
13
48
1
60
0
100
AcDbLine
10
0
20
47.25
30
0
11
65
21
47.25
31
0
39
0
210
0
220
0
230
1
0
SOLID
5
1B8
100
AcDbEntity
8
2
62
256
6
ByLayer
370
18
48
1
60
0
100
AcDbTrace
10
0
20
47.25
30
0
11
3.499998
21
47.710784
31
0
12
3.500002
22
46.789216
32
0
13
3.500002
23
46.789216
33
0
39
0
210
0
220
0
230
1
0
SOLID
5
1B9
100
AcDbEntity
8
2
62
256
6
ByLayer
370
18
48
1
60
0
100
AcDbTrace
10
65
20
47.25
30
0
11
61.500002
21
46.789216
31
0
12
61.499998
22
47.710784
32
0
13
61.499998
23
47.710784
33
0
39
0
210
0
220
0
230
1
0
ENDBLK
5
1BB
100
AcDbEntity
8
0
100
AcDbBlockEnd
0
ENDSEC
0
SECTION
2
ENTITIES
0
ARC
5
ED
100
AcDbEntity
8
1
62
256
6
ByLayer
370
18
48
1
60
0
100
AcDbCircle
39
0
10
47
20
26.725004
30
0
40
1.6
210
0
220
0
230
1
100
AcDbArc
50
166.434047
51
180
0
ARC
5
EE
100
AcDbEntity
8
1
62
256
6
ByLayer
370
18
48
1
60
0
100
AcDbCircle
39
0
10
20.279208
20
26.2
30
0
40
1.2
210
0
220
0
230
1
100
AcDbArc
50
270
51
299.318961
0
ARC
5
EF
100
AcDbEntity
8
SK1
62
256
6
ByLayer
370
18
48
1
60
0
100
AcDbCircle
39
0
10
-0.6
20
18.75
30
0
40
0.999999999999998
210
0
220
0
230
1
100
AcDbArc
50
293.578178
51
306.869898
0
ARC
5
F0
100
AcDbEntity
8
SK1
62
256
6
ByLayer
370
18
48
1
60
0
100
AcDbCircle
39
0
10
-0.6
20
-18.75
30
0
40
0.999999999999998
210
0
220
0
230
1
100
AcDbArc
50
53.130102
51
66.421822
0
ARC
5
F4
100
AcDbEntity
8
1
62
256
6
ByLayer
370
18
48
1
60
0
100
AcDbCircle
39
0
10
26.4
20
26.15
30
0
40
1
210
0
220
0
230
1
100
AcDbArc
50
270
51
0
0
CIRCLE
5
F1
100
AcDbEntity
8
1
62
256
6
ByLayer
370
18
48
1
60
0
100
AcDbCircle
10
38.65
20
20.349991
30
0
40
2.55
39
0
210
0
220
0
230
1
0
CIRCLE
5
F2
100
AcDbEntity
8
1
62
256
6
ByLayer
370
18
48
1
60
0
100
AcDbCircle
10
38.65
20
20.349991
30
0
40
3.3
39
0
210
0
220
0
230
1
0
CIRCLE
5
F3
100
AcDbEntity
8
1
62
256
6
ByLayer
370
18
48
1
60
0
100
AcDbCircle
10
38.65
20
20.349991
30
0
40
5.75
39
0
210
0
220
0
230
1
0
ELLIPSE
5
F5
100
AcDbEntity
8
1
62
256
6
ByLayer
370
18
48
1
60
0
100
AcDbEllipse
10
640.632805
20
74.454734
30
0
11
2123.86169682988
21
6.9587110956997
31
0
210
0
220
0
230
1
40
0.019397
41
-1.85005380073497
42
-1.84884437128391
0
ELLIPSE
5
F6
100
AcDbEntity
8
1
62
256
6
ByLayer
370
18
48
1
60
0
100
AcDbEllipse
10
70.192308
20
75.700004
30
0
11
2.63443441865655E-15
21
43.0249999999373
31
0
210
0
220
0
230
1
40
0.692308
41
2.52304939202635
42
2.93217586059441
0
ELLIPSE
5
F7
100
AcDbEntity
8
1
62
256
6
ByLayer
370
18
48
1
60
0
100
AcDbEllipse
10
55.425957
20
30.627474
30
0
11
0.105647115947422
21
-0.994892285293888
31
0
210
0
220
0
230
1
40
0.961515
41
0
42
6.28318530717959
0
ELLIPSE
5
F8
100
AcDbEntity
8
1
62
256
6
ByLayer
370
18
48
1
60
0
100
AcDbEllipse
10
57.925994
20
63.000004
30
0
11
2.12316126570351E-15
21
34.6749999961451
31
0
210
0
220
0
230
1
40
0.885971
41
2.9970190532973
42
3.09734777518041
0
ELLIPSE
5
F9
100
AcDbEntity
8
1
62
256
6
ByLayer
370
18
48
1
60
0
100
AcDbEllipse
10
-288.608976
20
62.997126
30
0
11
2689.5793493442
21
-5.9624938322884
31
0
210
0
220
0
230
1
40
0.012699
41
-1.4456608554338
42
-1.44209704021718
0
ELLIPSE
5
FA
100
AcDbEntity
8
1
62
256
6
ByLayer
370
18
48
1
60
0
100
AcDbEllipse
10
57.925994
20
75.700004
30
0
11
2.6344344176915E-15
21
43.0249999841764
31
0
210
0
220
0
230
1
40
0.885971
41
3.02521989774635
42
3.10553217047444
0
ELLIPSE
5
FB
100
AcDbEntity
8
1
62
256
6
ByLayer
370
18
48
1
60
0
100
AcDbEllipse
10
60.634509
20
63.000004
30
0
11
49.5209567116147
21
5.801159039908E-14
31
0
210
0
220
0
230
1
40
0.700209
41
-1.84972725400761
42
-1.71536992707262
0
ELLIPSE
5
FC
100
AcDbEntity
8
1
62
256
6
ByLayer
370
18
48
1
60
0
100
AcDbEllipse
10
60.634509
20
75.700004
30
0
11
61.4459744058147
21
7.19812163496921E-14
31
0
210
0
220
0
230
1
40
0.700209
41
-1.80765056578261
42
-1.68716908261107
0
ELLIPSE
5
FD
100
AcDbEntity
8
1
62
256
6
ByLayer
370
18
48
1
60
0
100
AcDbEllipse
10
46.149686
20
28.325004
30
0
11
-2.78951202209207
21
3.41605414631786E-16
31
0
210
0
220
0
230
1
40
0.573577
41
0
42
1.29869971890254
0
ELLIPSE
5
FE
100
AcDbEntity
8
1
62
256
6
ByLayer
370
18
48
1
60
0
100
AcDbEllipse
10
-1.056258
20
0
30
0
11
11.7092723497271
21
24.6771864409373
31
0
210
0
220
0
230
1
40
0.341999
41
-1.08183270048928
42
-0.167213071908988
0
ELLIPSE
5
FF
100
AcDbEntity
8
1
62
256
6
ByLayer
370
18
48
1
60
0
100
AcDbEllipse
10
21.056258
20
0
30
0
11
11.7092723497274
21
-24.6771864409374
31
0
210
0
220
0
230
1
40
0.341999
41
-2.97437958168081
42
-2.05975995310053
0
ELLIPSE
5
100
100
AcDbEntity
8
1
62
256
6
ByLayer
370
18
48
1
60
0
100
AcDbEllipse
10
21.056258
20
0
30
0
11
11.7092723497272
21
24.6771864409372
31
0
210
0
220
0
230
1
40
0.341999
41
2.05975995310052
42
2.97437958168081
0
ELLIPSE
5
101
100
AcDbEntity
8
1
62
256
6
ByLayer
370
18
48
1
60
0
100
AcDbEllipse
10
-1.056258
20
0
30
0
11
11.7092723497271
21
-24.6771864409374
31
0
210
0
220
0
230
1
40
0.341999
41
0.167213071908985
42
1.08183270048928
0
ELLIPSE
5
102
100
AcDbEntity
8
1
62
256
6
ByLayer
370
18
48
1
60
0
100
AcDbEllipse
10
24.065604
20
-17.500009
30
0
11
2.4492127049574E-16
21
3.99999999561107
31
0
210
0
220
0
230
1
40
1
41
1.49201026337412
42
1.56206968052558
0
ELLIPSE
5
103
100
AcDbEntity
8
1
62
256
6
ByLayer
370
18
48
1
60
0
100
AcDbEllipse
10
20.218172
20
0
30
0
11
1.53075794227806E-15
21
25.0000000000015
31
0
210
0
220
0
230
1
40
0.008727
41
0.697664021550825
42
2.3561944901923
0
ELLIPSE
5
104
100
AcDbEntity
8
1
62
256
6
ByLayer
370
18
48
1
60
0
100
AcDbEllipse
10
64.7
20
32.7
30
0
11
0.3
21
0
31
0
210
0
220
0
230
1
40
0.999998
41
0
42
1.61442955806198
0
ELLIPSE
5
105
100
AcDbEntity
8
1
62
256
6
ByLayer
370
18
48
1
60
0
100
AcDbEllipse
10
64.7
20
28.300007
30
0
11
-0.3
21
3.67381906146713E-17
31
0
210
0
220
0
230
1
40
0.999998
41
1.52716309552782
42
3.14159265358979
0
ELLIPSE
5
106
100
AcDbEntity
8
1
62
256
6
ByLayer
370
18
48
1
60
0
100
AcDbEllipse
10
57.346355
20
32.356509
30
0
11
0.0707726070910561
21
0.0707721114250853
31
0
210
0
220
0
230
1
40
0.998256
41
2.35707065749051
42
2.53160358047969
0
ELLIPSE
5
107
100
AcDbEntity
8
1
62
256
6
ByLayer
370
18
48
1
60
0
100
AcDbEllipse
10
57.55644
20
31.165428
30
0
11
0.0707723556033453
21
0.0707723601427889
31
0
210
0
220
0
230
1
40
0.998256
41
2.53160005700281
42
3.02115060278621
0
ELLIPSE
5
108
100
AcDbEntity
8
1
62
256
6
ByLayer
370
18
48
1
60
0
100
AcDbEllipse
10
57.55644
20
29.830832
30
0
11
0.0707723578884536
21
0.0707723578884536
31
0
210
0
220
0
230
1
40
0.998256
41
1.69298367482238
42
2.18253422056964
0
ELLIPSE
5
109
100
AcDbEntity
8
1
62
256
6
ByLayer
370
18
48
1
60
0
100
AcDbEllipse
10
57.346355
20
28.639017
30
0
11
0.0707726075638252
21
0.0707721107216002
31
0
210
0
220
0
230
1
40
0.998256
41
2.18253774115774
42
2.35707066414331
0
POINT
5
70
100
AcDbEntity
8
80
62
256
6
ByLayer
370
18
48
1
60
0
100
AcDbPoint
10
0
20
0
30
0
39
0
210
0
220
0
230
1
50
360
0
POINT
5
72
100
AcDbEntity
8
81
62
256
6
ByLayer
370
18
48
1
60
0
100
AcDbPoint
10
65
20
33
30
0
39
0
210
0
220
0
230
1
50
360
0
POINT
5
74
100
AcDbEntity
8
1
62
256
6
ByLayer
370
18
48
1
60
1
100
AcDbPoint
10
65
20
33
30
0
39
0
210
0
220
0
230
1
50
360
0
POINT
5
76
100
AcDbEntity
8
1
62
256
6
ByLayer
370
18
48
1
60
1
100
AcDbPoint
10
0
20
0
30
0
39
0
210
0
220
0
230
1
50
360
0
POINT
5
77
100
AcDbEntity
8
1
62
256
6
ByLayer
370
18
48
1
60
1
100
AcDbPoint
10
65
20
28
30
0
39
0
210
0
220
0
230
1
50
360
0
POINT
5
78
100
AcDbEntity
8
1
62
256
6
ByLayer
370
18
48
1
60
1
100
AcDbPoint
10
65
20
33
30
0
39
0
210
0
220
0
230
1
50
360
0
POINT
5
79
100
AcDbEntity
8
1
62
256
6
ByLayer
370
18
48
1
60
1
100
AcDbPoint
10
47
20
28.325004
30
0
39
0
210
0
220
0
230
1
50
360
0
POINT
5
7A
100
AcDbEntity
8
1
62
256
6
ByLayer
370
18
48
1
60
1
100
AcDbPoint
10
65
20
28
30
0
39
0
210
0
220
0
230
1
50
360
0
POINT
5
7B
100
AcDbEntity
8
1
62
256
6
ByLayer
370
18
48
1
60
1
100
AcDbPoint
10
0
20
0
30
0
39
0
210
0
220
0
230
1
50
360
0
POINT
5
7C
100
AcDbEntity
8
1
62
256
6
ByLayer
370
18
48
1
60
1
100
AcDbPoint
10
65
20
33
30
0
39
0
210
0
220
0
230
1
50
360
0
SPLINE
5
10A
100
AcDbEntity
8
SK1
62
256
6
ByLayer
370
18
48
1
60
0
100
AcDbSpline
70
4
71
3
72
11
73
7
40
0
40
0
40
0
40
0
40
0.242589954178652
40
0.502544718947562
40
0.761087572808605
40
1
40
1
40
1
40
1
41
1
10
-0.199999999999989
20
17.5545583467653
30
0
41
1
10
-0.20095788927037
20
17.528914023106
30
0
41
1
10
-0.211248315226271
20
17.4799022728817
30
0
41
1
10
-0.255179720944199
20
17.413949611085
30
0
41
1
10
-0.321113897423828
20
17.3707504109673
30
0
41
1
10
-0.369683795840189
20
17.3607068368228
30
0
41
1
10
-0.394913799811292
20
17.359780267379
30
0
0
SPLINE
5
10B
100
AcDbEntity
8
SK1
62
256
6
ByLayer
370
18
48
1
60
0
100
AcDbSpline
70
4
71
3
72
11
73
7
40
0
40
0
40
0
40
0
40
0.238912427113125
40
0.497455280942488
40
0.757410045745046
40
1
40
1
40
1
40
1
41
1
10
-0.394913799811292
20
-17.3597801301672
30
0
41
1
10
-0.369683795838398
20
-17.3607066995757
30
0
41
1
10
-0.321113897416467
20
-17.3707502735068
30
0
41
1
10
-0.255179720936411
20
-17.4139494728385
30
0
41
1
10
-0.211248315224623
20
-17.4799021334557
30
0
41
1
10
-0.20095788926875
20
-17.5289138828002
30
0
41
1
10
-0.199999999999989
20
-17.5545582060013
30
0
0
SPLINE
5
10C
100
AcDbEntity
8
SK1
62
256
6
ByLayer
370
18
48
1
60
0
100
AcDbSpline
70
4
71
2
72
6
73
3
40
0
40
0
40
0
40
1
40
1
40
1
41
1
10
-28.5
20
16.8588088260863
30
0
41
1
10
-29.2499999297871
20
16.4259984461422
30
0
41
1
10
-30
20
15.9931873508859
30
0
0
SPLINE
5
10D
100
AcDbEntity
8
SK1
62
256
6
ByLayer
370
18
48
1
60
0
100
AcDbSpline
70
4
71
2
72
6
73
3
40
0
40
0
40
0
40
1
40
1
40
1
41
1
10
-30
20
-15.9931874249212
30
0
41
1
10
-29.2499999297894
20
-16.425998517687
30
0
41
1
10
-28.5
20
-16.8588088951667
30
0
0
SPLINE
5
10E
100
AcDbEntity
8
SK1
62
256
6
ByLayer
370
18
48
1
60
0
100
AcDbSpline
70
4
71
2
72
6
73
3
40
0
40
0
40
0
40
1
40
1
40
1
41
1
10
-0.394913799811292
20
17.3602209523781
30
0
41
1
10
-1.19497688886898
20
17.3401342706943
30
0
41
1
10
-1.99503997793928
20
17.3200475850767
30
0
0
SPLINE
5
10F
100
AcDbEntity
8
SK1
62
256
6
ByLayer
370
18
48
1
60
0
100
AcDbSpline
70
4
71
2
72
6
73
3
40
0
40
0
40
0
40
1
40
1
40
1
41
1
10
-1.99503997793928
20
-17.3200478774323
30
0
41
1
10
-1.19497688886898
20
-17.340134563042
30
0
41
1
10
-0.394913799811292
20
-17.3602212447177
30
0
0
SPLINE
5
110
100
AcDbEntity
8
SK1
62
256
6
ByLayer
370
18
48
1
60
0
100
AcDbSpline
70
4
71
3
72
13
73
9
40
0
40
0
40
0
40
0
40
0.239505987673083
40
0.368426538155688
40
0.500072261058321
40
0.631705987654816
40
0.760593443052916
40
1
40
1
40
1
40
1
41
1
10
-1.99503997793928
20
17.3252686883829
30
0
41
1
10
-2.02110925982341
20
17.3248665791032
30
0
41
1
10
-2.05883863809936
20
17.3310361992814
30
0
41
1
10
-2.10627567686484
20
17.3540696096461
30
0
41
1
10
-2.13886243911925
20
17.3792256041407
30
0
41
1
10
-2.16563490776916
20
17.4104933211739
30
0
41
1
10
-2.19103207710596
20
17.4566915621889
30
0
41
1
10
-2.19909121921685
20
17.4940488942773
30
0
41
1
10
-2.2
20
17.5200961072231
30
0
0
SPLINE
5
111
100
AcDbEntity
8
SK1
62
256
6
ByLayer
370
18
48
1
60
0
100
AcDbSpline
70
4
71
3
72
13
73
9
40
0
40
0
40
0
40
0
40
0.239406556342956
40
0.368294011542631
40
0.499927738071791
40
0.631573461053609
40
0.76049401174041
40
1
40
1
40
1
40
1
41
1
10
-2.2
20
-17.5200962264206
30
0
41
1
10
-2.19909121920765
20
-17.494049013599
30
0
41
1
10
-2.19103207709688
20
-17.4566916816953
30
0
41
1
10
-2.16563490775661
20
-17.4104934409328
30
0
41
1
10
-2.13886243910255
20
-17.379225724067
30
0
41
1
10
-2.106275676847
20
-17.3540697297104
30
0
41
1
10
-2.05883863807624
20
-17.3310363194718
30
0
41
1
10
-2.0211092598112
20
-17.3248666993254
30
0
41
1
10
-1.99503997793928
20
-17.3252688086104
30
0
0
SPLINE
5
112
100
AcDbEntity
8
SK1
62
256
6
ByLayer
370
18
48
1
60
0
100
AcDbSpline
70
4
71
2
72
6
73
3
40
0
40
0
40
0
40
1
40
1
40
1
41
1
10
-2.2
20
17.5148287077807
30
0
41
1
10
-15.3499999982432
20
17.1846805562453
30
0
41
1
10
-28.5
20
16.8545313165689
30
0
0
SPLINE
5
113
100
AcDbEntity
8
SK1
62
256
6
ByLayer
370
18
48
1
60
0
100
AcDbSpline
70
4
71
2
72
6
73
3
40
0
40
0
40
0
40
1
40
1
40
1
41
1
10
-28.5
20
-16.8545316091351
30
0
41
1
10
-15.3499999982428
20
-17.1846808487114
30
0
41
1
10
-2.2
20
-17.5148290000611
30
0
0
SPLINE
5
114
100
AcDbEntity
8
1
62
256
6
ByLayer
370
18
48
1
60
0
100
AcDbSpline
70
4
71
3
72
8
73
4
40
0
40
0
40
0
40
0
40
1
40
1
40
1
40
1
41
1
10
23.1999999999999
20
32.2036039390038
30
0
41
1
10
22.6637170867605
20
30.1859790819189
30
0
41
1
10
22.1281452425505
20
28.168153957772
30
0
41
1
10
21.5939227012421
20
26.15
30
0
0
SPLINE
5
115
100
AcDbEntity
8
1
62
256
6
ByLayer
370
18
48
1
60
0
100
AcDbSpline
70
4
71
3
72
16
73
12
40
0
40
0
40
0
40
0
40
0.25
40
0.25
40
0.499999999999999
40
0.499999999999999
40
0.625
40
0.625
40
0.750000000000002
40
0.750000000000002
40
1
40
1
40
1
40
1
41
1
10
21.5939227012421
20
26.15
30
0
41
1
10
21.5806971899305
20
26.1000374545564
30
0
41
1
10
21.5674896084794
20
26.0507243221209
30
0
41
1
10
21.5411062980368
20
25.9533414940988
30
0
41
1
10
21.5279305750473
20
25.9052719449918
30
0
41
1
10
21.5081929808087
20
25.834120895081
30
0
41
1
10
21.5015952721768
20
25.8104821601652
30
0
41
1
10
21.4885406798605
20
25.7640006750321
30
0
41
1
10
21.4820870899478
20
25.7411683402472
30
0
41
1
10
21.4629467587984
20
25.6738843061389
30
0
41
1
10
21.4504790267343
20
25.6306385984165
30
0
41
1
10
21.4383186059721
20
25.5890526885803
30
0
0
SPLINE
5
116
100
AcDbEntity
8
1
62
256
6
ByLayer
370
18
48
1
60
0
100
AcDbSpline
70
4
71
3
72
37
73
33
40
0
40
0
40
0
40
0
40
0.0312499999999929
40
0.0312499999999929
40
0.0624999999999858
40
0.124999999999978
40
0.124999999999978
40
0.249999999999961
40
0.249999999999961
40
0.281249999999961
40
0.281249999999961
40
0.31249999999996
40
0.31249999999996
40
0.374999999999954
40
0.374999999999954
40
0.49999999999994
40
0.49999999999994
40
0.531249999999938
40
0.531249999999938
40
0.562499999999935
40
0.624999999999939
40
0.687499999999943
40
0.687499999999943
40
0.718749999999948
40
0.718749999999948
40
0.749999999999952
40
0.749999999999952
40
0.874999999999975
40
0.874999999999975
40
0.937499999999988
40
0.937499999999988
40
1
40
1
40
1
40
1
41
1
10
25.6980004188037
20
25.15
30
0
41
1
10
25.7161608810094
20
25.15
30
0
41
1
10
25.7343448825652
20
25.1503025764496
30
0
41
1
10
25.7705416687835
20
25.1515196650005
30
0
41
1
10
25.8246759861082
20
25.154263416226
30
0
41
1
10
25.8783221337107
20
25.1597933916453
30
0
41
1
10
25.9849390728614
20
25.1747079309444
30
0
41
1
10
26.0551220090146
20
25.1897592942765
30
0
41
1
10
26.1415840994228
20
25.2158024908901
30
0
41
1
10
26.1588127589163
20
25.2213750317677
30
0
41
1
10
26.193136876769
20
25.2332803577698
30
0
41
1
10
26.210269446284
20
25.2396290363409
30
0
41
1
10
26.2610071710248
20
25.2596879208512
30
0
41
1
10
26.2940503812817
20
25.2744353699655
30
0
41
1
10
26.3907735207366
20
25.3229089743406
30
0
41
1
10
26.4520724523515
20
25.3608215618145
30
0
41
1
10
26.5242052365796
20
25.4161084679331
30
0
41
1
10
26.5384475618941
20
25.4276016376114
30
0
41
1
10
26.5661902840258
20
25.4511914186533
30
0
41
1
10
26.6067120763173
20
25.4874858113197
30
0
41
1
10
26.6688056526493
20
25.5525094882314
30
0
41
1
10
26.7125632150698
20
25.6094566878136
30
0
41
1
10
26.743048702265
20
25.654109878029
30
0
41
1
10
26.7528209619065
20
25.6693187300239
30
0
41
1
10
26.7715563375331
20
25.7004103342136
30
0
41
1
10
26.7805461006187
20
25.7163446121511
30
0
41
1
10
26.8230517963922
20
25.7971585546588
30
0
41
1
10
26.8488706453032
20
25.8644367770063
30
0
41
1
10
26.8752539525281
20
25.9693160244976
30
0
41
1
10
26.8819737868377
20
26.004941582891
30
0
41
1
10
26.8910155508651
20
26.0776041348687
30
0
41
1
10
26.893237887321
20
26.1138738810784
30
0
41
1
10
26.893237887321
20
26.15
30
0
0
SPLINE
5
117
100
AcDbEntity
8
1
62
256
6
ByLayer
370
18
48
1
60
0
100
AcDbSpline
70
4
71
3
72
26
73
22
40
0
40
0
40
0
40
0
40
0.124999999999999
40
0.124999999999999
40
0.249999999999998
40
0.249999999999998
40
0.374999999999997
40
0.374999999999997
40
0.499999999999996
40
0.499999999999996
40
0.515624999999997
40
0.515624999999997
40
0.531249999999997
40
0.562499999999997
40
0.624999999999997
40
0.624999999999997
40
0.749999999999998
40
0.749999999999998
40
0.874999999999999
40
0.874999999999999
40
1
40
1
40
1
40
1
41
1
10
27.2803426737247
20
40.6465033181458
30
0
41
1
10
27.0504411417043
20
40.1059476911327
30
0
41
1
10
26.825468829256
20
39.5915908033113
30
0
41
1
10
26.3867853307786
20
38.6145557362645
30
0
41
1
10
26.1730704489669
20
38.1518774981022
30
0
41
1
10
25.7588775397312
20
37.2781727567729
30
0
41
1
10
25.5583949688201
20
36.8671443464194
30
0
41
1
10
25.1733451754194
20
36.0974295674303
30
0
41
1
10
24.9887729737735
20
35.7387390651644
30
0
41
1
10
24.7920650811414
20
35.3654963726034
30
0
41
1
10
24.7703512659343
20
35.3244275967318
30
0
41
1
10
24.7273051106002
20
35.2432653711926
30
0
41
1
10
24.6632969658888
20
35.1229634959397
30
0
41
1
10
24.5179285397867
20
34.8523154987403
30
0
41
1
10
24.4003542772402
20
34.6374624599141
30
0
41
1
10
24.1751437876134
20
34.2303852606334
30
0
41
1
10
24.038244752333
20
33.9891452081346
30
0
41
1
10
23.794257022952
20
33.5664896222047
30
0
41
1
10
23.6871780105529
20
33.3850740276446
30
0
41
1
10
23.5063583488419
20
33.0824723521489
30
0
41
1
10
23.4326301615585
20
32.96128469536
30
0
41
1
10
23.3772607196503
20
32.8708601841121
30
0
0
SPLINE
5
118
100
AcDbEntity
8
1
62
256
6
ByLayer
370
18
48
1
60
0
100
AcDbSpline
70
4
71
3
72
8
73
4
40
0
40
0
40
0
40
0
40
1
40
1
40
1
40
1
41
1
10
23.3772607196504
20
32.8708601841121
30
0
41
1
10
23.3182046986376
20
32.648440546424
30
0
41
1
10
23.2591184268729
20
32.4260216305358
30
0
41
1
10
23.1999999999999
20
32.2036039390038
30
0
0
SPLINE
5
119
100
AcDbEntity
8
1
62
256
6
ByLayer
370
18
48
1
60
0
100
AcDbSpline
70
4
71
3
72
31
73
27
40
0
40
0
40
0
40
0
40
0.124999999999998
40
0.249999999999995
40
0.249999999999995
40
0.281249999999994
40
0.281249999999994
40
0.312499999999993
40
0.312499999999993
40
0.374999999999991
40
0.374999999999991
40
0.499999999999988
40
0.499999999999988
40
0.562499999999986
40
0.562499999999986
40
0.593749999999987
40
0.593749999999987
40
0.624999999999987
40
0.624999999999987
40
0.749999999999991
40
0.749999999999991
40
0.874999999999995
40
0.874999999999995
40
0.937499999999997
40
0.937499999999997
40
1
40
1
40
1
40
1
41
1
10
23.3772607196503
20
32.8708601841121
30
0
41
1
10
23.5584028430684
20
32.8701275621911
30
0
41
1
10
23.9167059756458
20
32.8664333378721
30
0
41
1
10
24.2672420373203
20
32.8585723719701
30
0
41
1
10
24.4838390659354
20
32.8524507562363
30
0
41
1
10
24.5270335822335
20
32.8511660323775
30
0
41
1
10
24.6131692814868
20
32.8484782532676
30
0
41
1
10
24.6559814990335
20
32.8470790768086
30
0
41
1
10
24.7831865484912
20
32.8427398227819
30
0
41
1
10
24.8665474286474
20
32.8396519193284
30
0
41
1
10
25.112396416964
20
32.8298743835036
30
0
41
1
10
25.2706679678215
20
32.8226708794058
30
0
41
1
10
25.4996854338624
20
32.8111163005128
30
0
41
1
10
25.5746219810214
20
32.8071398482864
30
0
41
1
10
25.6848896572207
20
32.8010232132257
30
0
41
1
10
25.7212890764272
20
32.798959018416
30
0
41
1
10
25.7933658869212
20
32.7947860627767
30
0
41
1
10
25.8290997601055
20
32.7926738072757
30
0
41
1
10
26.004791147549
20
32.7820864921543
30
0
41
1
10
26.1364724517542
20
32.7735007584488
30
0
41
1
10
26.3827130940287
20
32.756536640537
30
0
41
1
10
26.497270985066
20
32.7481570307934
30
0
41
1
10
26.656073786781
20
32.7360659912067
30
0
41
1
10
26.706829090211
20
32.7321154356376
30
0
41
1
10
26.8038645172091
20
32.7244304244506
30
0
41
1
10
26.8498319024978
20
32.7207208525989
30
0
41
1
10
26.893237887321
20
32.71716960191
30
0
0
SPLINE
5
11A
100
AcDbEntity
8
1
62
256
6
ByLayer
370
18
48
1
60
0
100
AcDbSpline
70
4
71
3
72
33
73
29
40
0
40
0
40
0
40
0
40
0.125000000000006
40
0.125000000000006
40
0.187500000000007
40
0.187500000000007
40
0.250000000000007
40
0.312500000000008
40
0.312500000000008
40
0.343750000000007
40
0.343750000000007
40
0.375000000000005
40
0.375000000000005
40
0.5
40
0.5
40
0.562499999999997
40
0.562499999999997
40
0.593749999999995
40
0.593749999999995
40
0.624999999999993
40
0.624999999999993
40
0.749999999999997
40
0.749999999999997
40
0.812499999999999
40
0.812499999999999
40
0.875000000000002
40
0.875000000000002
40
1
40
1
40
1
40
1
41
1
10
27.2792159842511
20
26.15
30
0
41
1
10
27.2792159842511
20
26.083243627827
30
0
41
1
10
27.2724028379543
20
26.0170990378713
30
0
41
1
10
27.2519074500723
20
25.9188048501688
30
0
41
1
10
27.2432887165978
20
25.8860488300916
30
0
41
1
10
27.2229302826308
20
25.8222482094326
30
0
41
1
10
27.1994239931352
20
25.7598761939071
30
0
41
1
10
27.169777362515
20
25.7002908764279
30
0
41
1
10
27.1452281302683
20
25.6566521787973
30
0
41
1
10
27.1366586598811
20
25.6422813046772
30
0
41
1
10
27.1187363310293
20
25.6138950848972
30
0
41
1
10
27.1093570053125
20
25.599844478605
30
0
41
1
10
27.06095146942
20
25.5311735366066
30
0
41
1
10
27.0172765740347
20
25.4809191895453
30
0
41
1
10
26.944657984976
20
25.412259122676
30
0
41
1
10
26.9192585775409
20
25.3905010342621
30
0
41
1
10
26.8793316885501
20
25.3595927081291
30
0
41
1
10
26.8657556524564
20
25.3496106387547
30
0
41
1
10
26.8382763033621
20
25.3304211877801
30
0
41
1
10
26.8243440226586
20
25.3211911176329
30
0
41
1
10
26.7537387784317
20
25.2768277116179
30
0
41
1
10
26.6942595225492
20
25.2470074431681
30
0
41
1
10
26.6006000619689
20
25.2106842485323
30
0
41
1
10
26.5685159207744
20
25.199967130017
30
0
41
1
10
26.5040985015238
20
25.1817637227875
30
0
41
1
10
26.4716365110765
20
25.1742157778817
30
0
41
1
10
26.3735136044429
20
25.1560926945525
30
0
41
1
10
26.307106083519
20
25.15
30
0
41
1
10
26.2397373317723
20
25.15
30
0
0
SPLINE
5
11B
100
AcDbEntity
8
1
62
256
6
ByLayer
370
18
48
1
60
0
100
AcDbSpline
70
4
71
3
72
12
73
8
40
0
40
0
40
0
40
0
40
0.5
40
0.5
40
0.75
40
0.75
40
1
40
1
40
1
40
1
41
1
10
56.7749621799011
20
29.9977279378769
30
0
41
1
10
56.7417274697572
20
29.7241962053645
30
0
41
1
10
56.7081835119771
20
29.4507517272204
30
0
41
1
10
56.6567145988465
20
29.0409103228637
30
0
41
1
10
56.6393617350826
20
28.9043499226069
30
0
41
1
10
56.6039593926974
20
28.6314385120318
30
0
41
1
10
56.5859268463988
20
28.4950824449663
30
0
41
1
10
56.5671894202328
20
28.3589383219348
30
0
0
SPLINE
5
11C
100
AcDbEntity
8
1
62
256
6
ByLayer
370
18
48
1
60
0
100
AcDbSpline
70
4
71
3
72
8
73
4
40
0
40
0
40
0
40
0
40
1
40
1
40
1
40
1
41
1
10
56.9334731252055
20
30.0821175645255
30
0
41
1
10
56.8806912811498
20
30.0537521732246
30
0
41
1
10
56.8278742329745
20
30.025537153136
30
0
41
1
10
56.774962179901
20
29.9977279378769
30
0
0
SPLINE
5
11D
100
AcDbEntity
8
1
62
256
6
ByLayer
370
18
48
1
60
0
100
AcDbSpline
70
4
71
3
72
20
73
16
40
0
40
0
40
0
40
0
40
0.250000000000001
40
0.250000000000001
40
0.375000000000001
40
0.375000000000001
40
0.500000000000001
40
0.500000000000001
40
0.625
40
0.625
40
0.75
40
0.75
40
0.875
40
0.875
40
1
40
1
40
1
40
1
41
1
10
57.0002812895013
20
30.2232032820587
30
0
41
1
10
57.0002971750157
20
30.2076727036559
30
0
41
1
10
56.9987187520101
20
30.1925420374385
30
0
41
1
10
56.993992597162
20
30.1704376431945
30
0
41
1
10
56.992033323955
20
30.1632707844582
30
0
41
1
10
56.9874468808312
20
30.1495918351816
30
0
41
1
10
56.9848105753936
20
30.1430360158751
30
0
41
1
10
56.9788431149594
20
30.130498865882
30
0
41
1
10
56.975511391939
20
30.1245380981895
30
0
41
1
10
56.9683786601446
20
30.1135905635064
30
0
41
1
10
56.9645529793643
20
30.1085480858775
30
0
41
1
10
56.956384096358
20
30.0993238666983
30
0
41
1
10
56.9520166631452
20
30.0951303858344
30
0
41
1
10
56.9429951153156
20
30.0878454387344
30
0
41
1
10
56.9383178024541
20
30.0847211333916
30
0
41
1
10
56.9334731252055
20
30.0821175645255
30
0
0
SPLINE
5
11E
100
AcDbEntity
8
1
62
256
6
ByLayer
370
18
48
1
60
0
100
AcDbSpline
70
4
71
2
72
6
73
3
40
0
40
0
40
0
40
1
40
1
40
1
41
0.500283195090283
10
56.9997186372307
20
30.7731407497937
30
0
41
0.499716804909717
10
57.0000000174699
20
30.4981907471518
30
0
41
0.500283195090283
10
57.0002812895013
20
30.2232032820576
30
0
0
SPLINE
5
11F
100
AcDbEntity
8
1
62
256
6
ByLayer
370
18
48
1
60
0
100
AcDbSpline
70
4
71
3
72
20
73
16
40
0
40
0
40
0
40
0
40
0.249999999999975
40
0.249999999999975
40
0.374999999999979
40
0.374999999999979
40
0.499999999999983
40
0.499999999999983
40
0.624999999999988
40
0.624999999999988
40
0.749999999999992
40
0.749999999999992
40
0.874999999999996
40
0.874999999999996
40
1
40
1
40
1
40
1
41
1
10
56.9326066241985
20
30.9139626492957
30
0
41
1
10
56.9423098006259
20
30.9087934381655
30
0
41
1
10
56.9512856676972
20
30.9016121360398
30
0
41
1
10
56.9636453083262
20
30.8877855399668
30
0
41
1
10
56.9675374423726
20
30.8826927141103
30
0
41
1
10
56.9746895714967
20
30.8717959132666
30
0
41
1
10
56.9779795287847
20
30.8659596569637
30
0
41
1
10
56.9839741951558
20
30.8534937637672
30
0
41
1
10
56.9866846089662
20
30.8468256206311
30
0
41
1
10
56.9913191041058
20
30.8331360793545
30
0
41
1
10
56.9932713366713
20
30.8260660824733
30
0
41
1
10
56.9964434130273
20
30.8114741807886
30
0
41
1
10
56.9976674343008
20
30.80389390212
30
0
41
1
10
56.9992966091418
20
30.7886150304628
30
0
41
1
10
56.9997106855025
20
30.7809107611996
30
0
41
1
10
56.9997186372307
20
30.7731407497947
30
0
0
SPLINE
5
120
100
AcDbEntity
8
1
62
256
6
ByLayer
370
18
48
1
60
0
100
AcDbSpline
70
4
71
3
72
8
73
4
40
0
40
0
40
0
40
0
40
1
40
1
40
1
40
1
41
1
10
56.7738522883587
20
30.9977272745187
30
0
41
1
10
56.8268462378983
20
30.9701325674537
30
0
41
1
10
56.8797442141834
20
30.9421242477422
30
0
41
1
10
56.9326066241985
20
30.9139626492957
30
0
0
SPLINE
5
121
100
AcDbEntity
8
1
62
256
6
ByLayer
370
18
48
1
60
0
100
AcDbSpline
70
4
71
3
72
12
73
8
40
0
40
0
40
0
40
0
40
0.249999999999997
40
0.249999999999997
40
0.499999999999995
40
0.499999999999995
40
1
40
1
40
1
40
1
41
1
10
56.5517067227859
20
32.7029747374847
30
0
41
1
10
56.5721232276083
20
32.5614550549039
30
0
41
1
10
56.5915443286035
20
32.4196242045713
30
0
41
1
10
56.629535719247
20
32.1356965364197
30
0
41
1
10
56.6480754167427
20
31.9935919163899
30
0
41
1
10
56.7029587671631
20
31.5670756271407
30
0
41
1
10
56.7385875712372
20
31.28245404627
30
0
41
1
10
56.7738522883587
20
30.9977272745187
30
0
0
SPLINE
5
122
100
AcDbEntity
8
1
62
256
6
ByLayer
370
18
48
1
60
0
100
AcDbSpline
70
4
71
3
72
12
73
8
40
0
40
0
40
0
40
0
40
0.578285656198879
40
0.578285656198879
40
0.867428484298318
40
0.867428484298318
40
1
40
1
40
1
40
1
41
1
10
24.0656037435521
20
-13.5000089862251
30
0
41
1
10
23.937916902536
20
-13.5000089862251
30
0
41
1
10
23.8116117015908
20
-13.5061069025633
30
0
41
1
10
23.6241160168751
20
-13.5239518890486
30
0
41
1
10
23.5619462524096
20
-13.5313528772342
30
0
41
1
10
23.4717526841314
20
-13.5442333052218
30
0
41
1
10
23.4433986986037
20
-13.5485957730566
30
0
41
1
10
23.4153396716027
20
-13.5532183629467
30
0
0
SPLINE
5
123
100
AcDbEntity
8
1
62
256
6
ByLayer
370
18
48
1
60
0
100
AcDbSpline
70
4
71
3
72
8
73
4
40
0
40
0
40
0
40
0
40
1
40
1
40
1
40
1
41
1
10
56.5671894202328
20
28.3589383219348
30
0
41
1
10
56.5477170932215
20
28.3588060562834
30
0
41
1
10
56.5280223751584
20
28.3587446937994
30
0
41
1
10
56.508097497383
20
28.3587561191005
30
0
0
SPLINE
5
124
100
AcDbEntity
8
1
62
256
6
ByLayer
370
18
48
1
60
0
100
AcDbSpline
70
4
71
3
72
8
73
4
40
0
40
0
40
0
40
0
40
1
40
1
40
1
40
1
41
1
10
27.2792159842511
20
32.6845094223448
30
0
41
1
10
27.3191785791047
20
32.6810821574395
30
0
41
1
10
27.3491189414072
20
32.6785564717767
30
0
41
1
10
27.3692479878969
20
32.6769734597291
30
0
0
SPLINE
5
125
100
AcDbEntity
8
1
62
256
6
ByLayer
370
18
48
1
60
0
100
AcDbSpline
70
4
71
3
72
10
73
6
40
0
40
0
40
0
40
0
40
0.5
40
0.5
40
1
40
1
40
1
40
1
41
1
10
45.4326778237114
20
27.0966839667645
30
0
41
1
10
45.4378912246549
20
27.0974981652376
30
0
41
1
10
45.4418106528204
20
27.0983123848449
30
0
41
1
10
45.4452638479521
20
27.0999408956898
30
0
41
1
10
45.4447937269964
20
27.100755176924
30
0
41
1
10
45.442230285623
20
27.1015694220853
30
0
0
SPLINE
5
126
100
AcDbEntity
8
1
62
256
6
ByLayer
370
18
48
1
60
0
100
AcDbSpline
70
4
71
3
72
30
73
26
40
0
40
0
40
0
40
0
40
0.124999999999998
40
0.124999999999998
40
0.187499999999995
40
0.187499999999995
40
0.249999999999993
40
0.249999999999993
40
0.374999999999996
40
0.374999999999996
40
0.437499999999996
40
0.437499999999996
40
0.499999999999997
40
0.499999999999997
40
0.62499999999999
40
0.62499999999999
40
0.687499999999983
40
0.687499999999983
40
0.718749999999982
40
0.718749999999982
40
0.749999999999982
40
0.749999999999982
40
0.874999999999991
40
0.874999999999991
40
1
40
1
40
1
40
1
41
1
10
45.4326778237114
20
27.0966839667645
30
0
41
1
10
45.4511355883859
20
27.1858963164324
30
0
41
1
10
45.477009338628
20
27.2722649883891
30
0
41
1
10
45.5264902509546
20
27.3977264488239
30
0
41
1
10
45.5447724299447
20
27.4388611150269
30
0
41
1
10
45.5849568889684
20
27.519742310879
30
0
41
1
10
45.6068755705176
20
27.5595163275859
30
0
41
1
10
45.6781474692922
20
27.6765167123486
30
0
41
1
10
45.7317228275943
20
27.7494024882399
30
0
41
1
10
45.820830586282
20
27.8513517617433
30
0
41
1
10
45.8519989197174
20
27.8840979557621
30
0
41
1
10
45.9173067684615
20
27.9470830585234
30
0
41
1
10
45.9514922954806
20
27.9773595754168
30
0
41
1
10
46.0583791398847
20
28.0640588860304
30
0
41
1
10
46.1336533848846
20
28.11500883908
30
0
41
1
10
46.2523682627488
20
28.1815363085735
30
0
41
1
10
46.2929126464953
20
28.2020531648699
30
0
41
1
10
46.3552094005025
20
28.2303041139411
30
0
41
1
10
46.3762220166965
20
28.2392998028683
30
0
41
1
10
46.4187490422904
20
28.2564354093162
30
0
41
1
10
46.4403054060541
20
28.2645899584446
30
0
41
1
10
46.5488774534313
20
28.303005767795
30
0
41
1
10
46.6371651494646
20
28.3259025651801
30
0
41
1
10
46.8164880758172
20
28.3566413406239
30
0
41
1
10
46.9075231392125
20
28.3644842333249
30
0
41
1
10
46.9999999999998
20
28.3644269519125
30
0
0
SPLINE
5
127
100
AcDbEntity
8
1
62
256
6
ByLayer
370
18
48
1
60
0
100
AcDbSpline
70
4
71
3
72
45
73
41
40
0
40
0
40
0
40
0
40
0.0625000000000119
40
0.0625000000000119
40
0.125000000000024
40
0.125000000000024
40
0.156250000000031
40
0.156250000000031
40
0.187500000000038
40
0.187500000000038
40
0.250000000000056
40
0.312500000000073
40
0.312500000000073
40
0.328125000000073
40
0.328125000000073
40
0.343750000000073
40
0.375000000000072
40
0.375000000000072
40
0.437500000000067
40
0.437500000000067
40
0.468750000000065
40
0.468750000000065
40
0.500000000000063
40
0.500000000000063
40
0.562500000000055
40
0.562500000000055
40
0.625000000000046
40
0.625000000000046
40
0.65625000000004
40
0.65625000000004
40
0.687500000000034
40
0.687500000000034
40
0.750000000000022
40
0.750000000000022
40
0.874999999999998
40
0.874999999999998
40
0.906249999999997
40
0.906249999999997
40
0.937499999999996
40
1
40
1
40
1
40
1
41
1
10
45.3999999999998
20
28.3289263728813
30
0
41
1
10
45.3999999999998
20
28.3859520675652
30
0
41
1
10
45.4027773060295
20
28.4424400863747
30
0
41
1
10
45.4140072705372
20
28.5543173973654
30
0
41
1
10
45.4224587592519
20
28.6097069160082
30
0
41
1
10
45.4396329408223
20
28.6919206018627
30
0
41
1
10
45.4461088283279
20
28.7191797420367
30
0
41
1
10
45.4606263332486
20
28.7733949030349
30
0
41
1
10
45.4686246460305
20
28.8001734608009
30
0
41
1
10
45.4946399669388
20
28.8789456401448
30
0
41
1
10
45.5348349169413
20
28.9803122679125
30
0
41
1
10
45.5859110809779
20
29.0744424521171
30
0
41
1
10
45.6213057290437
20
29.1309647677639
30
0
41
1
10
45.6285727254326
20
29.142173736967
30
0
41
1
10
45.6433658330781
20
29.1642221278102
30
0
41
1
10
45.6659530489064
20
29.1967592970523
30
0
41
1
10
45.6897066480068
20
29.2277256082645
30
0
41
1
10
45.7387140630157
20
29.2876377733687
30
0
41
1
10
45.7733819270805
20
29.3248907079482
30
0
41
1
10
45.8282413636297
20
29.3769215057107
30
0
41
1
10
45.8470051750287
20
29.393622244521
30
0
41
1
10
45.8854764359933
20
29.4257528520708
30
0
41
1
10
45.9051748997223
20
29.4411677081753
30
0
41
1
10
45.9649493858921
20
29.4850281343584
30
0
41
1
10
46.0059306410282
20
29.5112944890832
30
0
41
1
10
46.0899640529088
20
29.5583847031755
30
0
41
1
10
46.133017006916
20
29.5792064672731
30
0
41
1
10
46.1990640093485
20
29.6065822181339
30
0
41
1
10
46.2213801965303
20
29.6150810056054
30
0
41
1
10
46.266121038551
20
29.6306895488428
30
0
41
1
10
46.2885619049639
20
29.6378102778985
30
0
41
1
10
46.356084494998
20
29.6572319236552
30
0
41
1
10
46.4013656440392
20
29.6675977848686
30
0
41
1
10
46.5379410882724
20
29.6915926881058
30
0
41
1
10
46.629961599707
20
29.6981751423639
30
0
41
1
10
46.7460933728365
20
29.6956702236467
30
0
41
1
10
46.769387316057
20
29.6946252545074
30
0
41
1
10
46.8157946939522
20
29.691488008678
30
0
41
1
10
46.8852429744047
20
29.6852096004129
30
0
41
1
10
46.9542182572335
20
29.6743619683024
30
0
41
1
10
46.9999999999999
20
29.6651809987714
30
0
0
SPLINE
5
128
100
AcDbEntity
8
1
62
256
6
ByLayer
370
18
48
1
60
0
100
AcDbSpline
70
4
71
3
72
10
73
6
40
0
40
0
40
0
40
0
40
0.5
40
0.5
40
1
40
1
40
1
40
1
41
1
10
21.4383186059721
20
25.15
30
0
41
1
10
21.5073024379055
20
25.15
30
0
41
1
10
21.5935573871881
20
25.15
30
0
41
1
10
21.7970034608881
20
25.15
30
0
41
1
10
21.9141742041022
20
25.15
30
0
41
1
10
22.0447285470653
20
25.15
30
0
0
SPLINE
5
129
100
AcDbEntity
8
1
62
256
6
ByLayer
370
18
48
1
60
0
100
AcDbSpline
70
4
71
3
72
33
73
29
40
0
40
0
40
0
40
0
40
0.023479519767333
40
0.0249469897527914
40
0.0249469897527914
40
0.0264144597382497
40
0.0264144597382497
40
0.0293493997091661
40
0.0352192796509992
40
0.0469590395346654
40
0.0939180790693304
40
0.187836158138661
40
0.187836158138661
40
0.375672316277322
40
0.375672316277322
40
0.469590395346653
40
0.469590395346653
40
0.563508474415984
40
0.563508474415984
40
0.657426553485314
40
0.657426553485314
40
0.751344632554645
40
0.751344632554645
40
0.845262711623975
40
0.845262711623975
40
0.939180790693306
40
0.939180790693306
40
1
40
1
40
1
40
1
41
1
10
21.4383186059721
20
25.15
30
0
41
1
10
21.4352054581769
20
25.15
30
0
41
1
10
21.4317360838613
20
25.15
30
0
41
1
10
21.4281041350301
20
25.15
30
0
41
1
10
21.4276757254185
20
25.15
30
0
41
1
10
21.4274669457826
20
25.15
30
0
41
1
10
21.4268307815804
20
25.15
30
0
41
1
10
21.4255519994811
20
25.15
30
0
41
1
10
21.4225233187935
20
25.15
30
0
41
1
10
21.4127266011989
20
25.15
30
0
41
1
10
21.3874434371723
20
25.15
30
0
41
1
10
21.3599277750652
20
25.15
30
0
41
1
10
21.3006633135931
20
25.15
30
0
41
1
10
21.2554778794901
20
25.15
30
0
41
1
10
21.1845732937111
20
25.15
30
0
41
1
10
21.1604215550063
20
25.15
30
0
41
1
10
21.1121316952399
20
25.15
30
0
41
1
10
21.0879914324473
20
25.15
30
0
41
1
10
21.040973704315
20
25.15
30
0
41
1
10
21.0180946109989
20
25.15
30
0
41
1
10
20.9751191641462
20
25.15
30
0
41
1
10
20.9550254830688
20
25.15
30
0
41
1
10
20.919412407939
20
25.15
30
0
41
1
10
20.9039051942498
20
25.15
30
0
41
1
10
20.8793254408003
20
25.15
30
0
41
1
10
20.8702749344348
20
25.15
30
0
41
1
10
20.8618214424677
20
25.15
30
0
41
1
10
20.8601494582575
20
25.15
30
0
41
1
10
20.8601637886468
20
25.15
30
0
0
SPLINE
5
12A
100
AcDbEntity
8
1
62
256
6
ByLayer
370
18
48
1
60
0
100
AcDbSpline
70
4
71
3
72
24
73
20
40
0
40
0
40
0
40
0
40
0.124999999999997
40
0.124999999999997
40
0.249999999999994
40
0.249999999999994
40
0.312499999999993
40
0.312499999999993
40
0.374999999999992
40
0.374999999999992
40
0.499999999999994
40
0.499999999999994
40
0.624999999999995
40
0.624999999999995
40
0.749999999999997
40
0.749999999999997
40
0.874999999999998
40
0.874999999999998
40
1
40
1
40
1
40
1
41
1
10
21.1169971234883
20
25.15
30
0
41
1
10
21.1224176194629
20
25.15
30
0
41
1
10
21.130536494202
20
25.1527711854705
30
0
41
1
10
21.1507505199602
20
25.1632313864211
30
0
41
1
10
21.1628451934347
20
25.170924582187
30
0
41
1
10
21.1830638978443
20
25.1860081110141
30
0
41
1
10
21.1901513801177
20
25.1916295260082
30
0
41
1
10
21.2048900418698
20
25.2040670043493
30
0
41
1
10
21.2124685701929
20
25.2108220670186
30
0
41
1
10
21.2356302241479
20
25.2326530522327
30
0
41
1
10
21.2516333474895
20
25.2492858426862
30
0
41
1
10
21.283896331788
20
25.2867227201972
30
0
41
1
10
21.3001812882186
20
25.307556241072
30
0
41
1
10
21.3322087880948
20
25.3535793554052
30
0
41
1
10
21.3477040066339
20
25.3784117217623
30
0
41
1
10
21.3770628034312
20
25.4318104782677
30
0
41
1
10
21.3909300515892
20
25.4603759782517
30
0
41
1
10
21.4164519931486
20
25.5215451440357
30
0
41
1
10
21.4281110904155
20
25.5541452762555
30
0
41
1
10
21.4383186059721
20
25.5890526885803
30
0
0
SPLINE
5
12B
100
AcDbEntity
8
1
62
256
6
ByLayer
370
18
48
1
60
0
100
AcDbSpline
70
4
71
3
72
61
73
57
40
0
40
0
40
0
40
0
40
0.0312500000000028
40
0.0312500000000028
40
0.0468750000000037
40
0.0468750000000037
40
0.0625000000000045
40
0.0625000000000045
40
0.125000000000003
40
0.125000000000003
40
0.187500000000002
40
0.187500000000002
40
0.203125000000001
40
0.203125000000001
40
0.218750000000001
40
0.218750000000001
40
0.25
40
0.25
40
0.312499999999999
40
0.312499999999999
40
0.374999999999998
40
0.374999999999998
40
0.437499999999997
40
0.437499999999997
40
0.453124999999997
40
0.453124999999997
40
0.468749999999997
40
0.499999999999997
40
0.499999999999997
40
0.562499999999997
40
0.562499999999997
40
0.624999999999997
40
0.624999999999997
40
0.687499999999997
40
0.687499999999997
40
0.749999999999997
40
0.749999999999997
40
0.812499999999997
40
0.812499999999997
40
0.843749999999997
40
0.843749999999997
40
0.874999999999997
40
0.874999999999997
40
0.906249999999998
40
0.906249999999998
40
0.937499999999998
40
0.937499999999998
40
0.953124999999998
40
0.953124999999998
40
0.968749999999999
40
0.968749999999999
40
0.976562499999999
40
0.976562499999999
40
0.984374999999999
40
0.984374999999999
40
1
40
1
40
1
40
1
41
1
10
23.3999999999998
20
-13.5557762780081
30
0
41
1
10
23.3320029012765
20
-13.5672510379447
30
0
41
1
10
23.2644720430613
20
-13.5804543275005
30
0
41
1
10
23.1638676908048
20
-13.6028238132777
30
0
41
1
10
23.1304482887125
20
-13.6107079540171
30
0
41
1
10
23.0638397121509
20
-13.6273294139856
30
0
41
1
10
23.0305953847505
20
-13.636082248723
30
0
41
1
10
22.8656275924602
20
-13.6817880122672
30
0
41
1
10
22.7385278779272
20
-13.7242681232654
30
0
41
1
10
22.493007122056
20
-13.8197522990622
30
0
41
1
10
22.3745913721562
20
-13.8727628308485
30
0
41
1
10
22.2315832634673
20
-13.9450974228913
30
0
41
1
10
22.2032330023753
20
-13.9598688581086
30
0
41
1
10
22.1470276537378
20
-13.9900114517694
30
0
41
1
10
22.1191487639547
20
-14.0053961755685
30
0
41
1
10
22.0364037623687
20
-14.0523474349147
30
0
41
1
10
21.9826943705144
20
-14.0845555553395
30
0
41
1
10
21.8256257081801
20
-14.1837109326121
30
0
41
1
10
21.7263118358561
20
-14.2531804589713
30
0
41
1
10
21.5372961200906
20
-14.3980994653093
30
0
41
1
10
21.4475994727112
20
-14.4735522683211
30
0
41
1
10
21.2770415332054
20
-14.6299380068739
30
0
41
1
10
21.1961831045536
20
-14.710872855826
30
0
41
1
10
21.1003188211573
20
-14.8152578289749
30
0
41
1
10
21.0814306792031
20
-14.8362709707185
30
0
41
1
10
21.0443135880836
20
-14.8784455424552
30
0
41
1
10
20.9895786347524
20
-14.9419824270769
30
0
41
1
10
20.937585238382
20
-15.0063186937445
30
0
41
1
10
20.8370725336118
20
-15.1359974802388
30
0
41
1
10
20.7746879657172
20
-15.2237898725731
30
0
41
1
10
20.6584352387634
20
-15.4017947716765
30
0
41
1
10
20.6045694266075
20
-15.4920086365352
30
0
41
1
10
20.5048652600889
20
-15.6746417903418
30
0
41
1
10
20.4590282541096
20
-15.7670630680214
30
0
41
1
10
20.3750740046057
20
-15.9538917324509
30
0
41
1
10
20.3369574437054
20
-16.0483038111628
30
0
41
1
10
20.2682882246606
20
-16.2388008374054
30
0
41
1
10
20.2379297099187
20
-16.3343648591227
30
0
41
1
10
20.1981712049092
20
-16.4775515329533
30
0
41
1
10
20.1858807333812
20
-16.5252564744497
30
0
41
1
10
20.1632026033955
20
-16.62043043023
30
0
41
1
10
20.1528133563141
20
-16.6679118673076
30
0
41
1
10
20.1339333581638
20
-16.7622541418263
30
0
41
1
10
20.1254534445355
20
-16.8090726218933
30
0
41
1
10
20.1104073292497
20
-16.9011778224689
30
0
41
1
10
20.1038394699781
20
-16.9465206204772
30
0
41
1
10
20.0954478207486
20
-17.0118047961317
30
0
41
1
10
20.0928962062657
20
-17.0330879236613
30
0
41
1
10
20.0883180091354
20
-17.0738415985907
30
0
41
1
10
20.0862879746612
20
-17.0933514279987
30
0
41
1
10
20.0836625777684
20
-17.1202384742195
30
0
41
1
10
20.0828576322652
20
-17.1287975995839
30
0
41
1
10
20.0813993297644
20
-17.1447912083798
30
0
41
1
10
20.0807509520105
20
-17.1521716459877
30
0
41
1
10
20.079080347871
20
-17.1716775107814
30
0
41
1
10
20.0783214342938
20
-17.1812688685728
30
0
41
1
10
20.0780118107862
20
-17.1851906612493
30
0
0
SPLINE
5
12C
100
AcDbEntity
8
1
62
256
6
ByLayer
370
18
48
1
60
0
100
AcDbSpline
70
4
71
3
72
10
73
6
40
0
40
0
40
0
40
0
40
0.5
40
0.5
40
1
40
1
40
1
40
1
41
1
10
22.0447285470653
20
25.15
30
0
41
1
10
21.9397274773243
20
24.680173486329
30
0
41
1
10
21.8364957516081
20
24.2107946099685
30
0
41
1
10
21.6341452591859
20
23.2728974159962
30
0
41
1
10
21.5350252561286
20
22.8043788769781
30
0
41
1
10
21.4383186059721
20
22.3362778242199
30
0
0
SPLINE
5
12D
100
AcDbEntity
8
1
62
256
6
ByLayer
370
18
48
1
60
0
100
AcDbSpline
70
4
71
3
72
28
73
24
40
0
40
0
40
0
40
0
40
0.125000000000001
40
0.125000000000001
40
0.250000000000002
40
0.250000000000002
40
0.375000000000002
40
0.375000000000002
40
0.500000000000003
40
0.500000000000003
40
0.625000000000004
40
0.625000000000004
40
0.750000000000004
40
0.750000000000004
40
0.812500000000004
40
0.812500000000004
40
0.875000000000003
40
0.875000000000003
40
0.906250000000002
40
0.906250000000002
40
0.937500000000001
40
0.937500000000001
40
1
40
1
40
1
40
1
41
1
10
20.2792076144253
20
20.1171289531719
30
0
41
1
10
20.3128490175218
20
20.1923713124692
30
0
41
1
10
20.3505174525457
20
20.2669494036723
30
0
41
1
10
20.4331503582181
20
20.4166945858139
30
0
41
1
10
20.4781166200748
20
20.4918632773069
30
0
41
1
10
20.5741953058678
20
20.6449884375286
30
0
41
1
10
20.6253101731894
20
20.7229443921621
30
0
41
1
10
20.7320809684705
20
20.8840975561417
30
0
41
1
10
20.7877416803028
20
20.9672901496213
30
0
41
1
10
20.9014431813847
20
21.1416923914384
30
0
41
1
10
20.9594948987673
20
21.2328882419051
30
0
41
1
10
21.0750449416089
20
21.4266451283098
30
0
41
1
10
21.1314792253758
20
21.5274652023886
30
0
41
1
10
21.2110607247013
20
21.6862973463737
30
0
41
1
10
21.2367408885832
20
21.7405162490691
30
0
41
1
10
21.2858025324839
20
21.8518799490167
30
0
41
1
10
21.3091865140311
20
21.9090223651581
30
0
41
1
10
21.34198832459
20
21.9972959614246
30
0
41
1
10
21.3525464774482
20
22.0271694223195
30
0
41
1
10
21.3726388253191
20
22.0873697425665
30
0
41
1
10
21.3821940342415
20
22.1177502059291
30
0
41
1
10
21.4092352822677
20
22.2097880397703
30
0
41
1
10
21.4251085415495
20
22.2723355301458
30
0
41
1
10
21.4383186059721
20
22.3362778242199
30
0
0
SPLINE
5
12E
100
AcDbEntity
8
1
62
256
6
ByLayer
370
18
48
1
60
0
100
AcDbSpline
70
4
71
3
72
26
73
22
40
0
40
0
40
0
40
0
40
0.0624999999999872
40
0.0624999999999872
40
0.0937499999999846
40
0.0937499999999846
40
0.124999999999982
40
0.124999999999982
40
0.249999999999982
40
0.249999999999982
40
0.374999999999982
40
0.374999999999982
40
0.437499999999985
40
0.437499999999985
40
0.499999999999987
40
0.499999999999987
40
0.624999999999991
40
0.624999999999991
40
0.749999999999992
40
0.749999999999992
40
1
40
1
40
1
40
1
41
1
10
11.4613248654052
20
23.8391299750502
30
0
41
1
10
11.4772013120199
20
23.8391299750502
30
0
41
1
10
11.4927843117432
20
23.8386381480423
30
0
41
1
10
11.5157579869923
20
23.8372273769848
30
0
41
1
10
11.5233488813096
20
23.8366445991221
30
0
41
1
10
11.5384012334117
20
23.8352611656444
30
0
41
1
10
11.5458956692735
20
23.8344558067494
30
0
41
1
10
11.582404000511
20
23.8299833264009
30
0
41
1
10
11.6089650834003
20
23.8249896713849
30
0
41
1
10
11.6582924559948
20
23.813005969379
30
0
41
1
10
11.6801688454703
20
23.8062336877525
30
0
41
1
10
11.7102266942346
20
23.7952700628808
30
0
41
1
10
11.719773612984
20
23.7914778883489
30
0
41
1
10
11.7380555263963
20
23.7836514357395
30
0
41
1
10
11.7468017366172
20
23.7796095569563
30
0
41
1
10
11.7716769242357
20
23.7673085978343
30
0
41
1
10
11.7865761040498
20
23.7588292909636
30
0
41
1
10
11.8138519277098
20
23.7414211400326
30
0
41
1
10
11.8262196262291
20
23.7324910902464
30
0
41
1
10
11.8602443227467
20
23.7051129235882
30
0
41
1
10
11.8788862370737
20
23.686033116806
30
0
41
1
10
11.8943375672975
20
23.6665017920808
30
0
0
SPLINE
5
12F
100
AcDbEntity
8
1
62
256
6
ByLayer
370
18
48
1
60
0
100
AcDbSpline
70
4
71
3
72
30
73
26
40
0
40
0
40
0
40
0
40
0.249999999999991
40
0.249999999999991
40
0.37499999999999
40
0.37499999999999
40
0.43749999999999
40
0.43749999999999
40
0.49999999999999
40
0.49999999999999
40
0.624999999999989
40
0.624999999999989
40
0.687499999999988
40
0.687499999999988
40
0.749999999999987
40
0.749999999999987
40
0.812499999999986
40
0.812499999999986
40
0.843749999999988
40
0.843749999999988
40
0.87499999999999
40
0.87499999999999
40
0.937499999999995
40
0.937499999999995
40
1
40
1
40
1
40
1
41
1
10
11.8943375672973
20
8.05584836782791
30
0
41
1
10
11.8788923030149
20
7.9984916943493
30
0
41
1
10
11.8604037172645
20
7.94218253951274
30
0
41
1
10
11.8264575712212
20
7.85991012495435
30
0
41
1
10
11.8140962699691
20
7.8328550605851
30
0
41
1
10
11.7935837333005
20
7.79297622996174
30
0
41
1
10
11.7864159259844
20
7.77980127287398
30
0
41
1
10
11.7713191828915
20
7.75372482186646
30
0
41
1
10
11.7633824368151
20
7.74081492713995
30
0
41
1
10
11.7384769785308
20
7.70292805784945
30
0
41
1
10
11.7203772593316
20
7.67866353751199
30
0
41
1
10
11.6901125047557
20
7.64434849039861
30
0
41
1
10
11.6794995583259
20
7.63327217102551
30
0
41
1
10
11.6573691354905
20
7.61232137865167
30
0
41
1
10
11.6458165560481
20
7.60240297286813
30
0
41
1
10
11.6215461384038
20
7.58390025536215
30
0
41
1
10
11.6088302857938
20
7.57531366225038
30
0
41
1
10
11.5886665813883
20
7.56368345606458
30
0
41
1
10
11.5817366894217
20
7.56000567013078
30
0
41
1
10
11.5676991017995
20
7.55323657194805
30
0
41
1
10
11.5605721090663
20
7.55013193108826
30
0
41
1
10
11.53884494046
20
7.54171396614046
30
0
41
1
10
11.5239007732521
20
7.53729092133952
30
0
41
1
10
11.4929356027573
20
7.53123335639165
30
0
41
1
10
11.477175816822
20
7.52966679426495
30
0
41
1
10
11.4613248654052
20
7.52966679426495
30
0
0
SPLINE
5
130
100
AcDbEntity
8
1
62
256
6
ByLayer
370
18
48
1
60
0
100
AcDbSpline
70
4
71
3
72
26
73
22
40
0
40
0
40
0
40
0
40
0.0625000000000004
40
0.0625000000000004
40
0.0937500000000001
40
0.0937500000000001
40
0.125
40
0.125
40
0.250000000000002
40
0.250000000000002
40
0.375000000000004
40
0.375000000000004
40
0.437500000000005
40
0.437500000000005
40
0.500000000000005
40
0.500000000000005
40
0.625000000000005
40
0.625000000000005
40
0.750000000000004
40
0.750000000000004
40
1
40
1
40
1
40
1
41
1
10
8.53867513459488
20
7.52966679426521
30
0
41
1
10
8.52279868798016
20
7.52966679426521
30
0
41
1
10
8.50721568825682
20
7.53122440152964
30
0
41
1
10
8.48424201300779
20
7.53568798536671
30
0
41
1
10
8.47665111869043
20
7.53753139400649
30
0
41
1
10
8.46159876658839
20
7.54190496002269
30
0
41
1
10
8.45410433072652
20
7.54444995843585
30
0
41
1
10
8.41759599948901
20
7.55857361750122
30
0
41
1
10
8.39103491659975
20
7.57431556968126
30
0
41
1
10
8.3417075440052
20
7.61190750686276
30
0
41
1
10
8.31983115452977
20
7.63307325241217
30
0
41
1
10
8.28977330576541
20
7.66715495165658
30
0
41
1
10
8.28022638701603
20
7.67891539799638
30
0
41
1
10
8.26194447360368
20
7.70312184666889
30
0
41
1
10
8.25319826338284
20
7.71559105034081
30
0
41
1
10
8.22832307576431
20
7.75343444963914
30
0
41
1
10
8.21342389595023
20
7.77938351245621
30
0
41
1
10
8.18614807229017
20
7.83234954293013
30
0
41
1
10
8.17378037377094
20
7.85937042586596
30
0
41
1
10
8.13975567725333
20
7.94172327888202
30
0
41
1
10
8.12111376292626
20
7.99846916820718
30
0
41
1
10
8.10566243270253
20
8.05584836782782
30
0
0
SPLINE
5
131
100
AcDbEntity
8
1
62
256
6
ByLayer
370
18
48
1
60
0
100
AcDbSpline
70
4
71
3
72
30
73
26
40
0
40
0
40
0
40
0
40
0.250000000000006
40
0.250000000000006
40
0.375000000000007
40
0.375000000000007
40
0.437500000000008
40
0.437500000000008
40
0.500000000000008
40
0.500000000000008
40
0.625000000000002
40
0.625000000000002
40
0.687499999999997
40
0.687499999999997
40
0.749999999999992
40
0.749999999999992
40
0.812499999999988
40
0.812499999999988
40
0.843749999999988
40
0.843749999999988
40
0.874999999999988
40
0.874999999999988
40
0.937499999999994
40
0.937499999999994
40
1
40
1
40
1
40
1
41
1
10
8.10566243270267
20
23.6665017920808
30
0
41
1
10
8.12110769698509
20
23.6860254491251
30
0
41
1
10
8.13959628273548
20
23.7049589195931
30
0
41
1
10
8.17354242877877
20
23.7323123198157
30
0
41
1
10
8.18590373003096
20
23.7412544902041
30
0
41
1
10
8.20641626669956
20
23.7543620682907
30
0
41
1
10
8.21358407401564
20
23.7586801045418
30
0
41
1
10
8.22868081710851
20
23.7672030231185
30
0
41
1
10
8.23661756318495
20
23.7714105724815
30
0
41
1
10
8.2615230214692
20
23.7837256270429
30
0
41
1
10
8.2796227406684
20
23.7915679133937
30
0
41
1
10
8.30988749524428
20
23.8026065911347
30
0
41
1
10
8.3205004416742
20
23.8061604830514
30
0
41
1
10
8.34263086450954
20
23.812868038308
30
0
41
1
10
8.35418344395194
20
23.816035844018
30
0
41
1
10
8.3784538615962
20
23.8219342456095
30
0
41
1
10
8.39116971420628
20
23.8246655611124
30
0
41
1
10
8.41133341861178
20
23.8283593459882
30
0
41
1
10
8.41826331057831
20
23.8295263669799
30
0
41
1
10
8.43230089820059
20
23.8316728303992
30
0
41
1
10
8.4394278909337
20
23.8326565134122
30
0
41
1
10
8.46115505954
20
23.8353222152631
30
0
41
1
10
8.47609922674792
20
23.8367207404254
30
0
41
1
10
8.50706439724274
20
23.838635326325
30
0
41
1
10
8.52282418317805
20
23.8391299750504
30
0
41
1
10
8.5386751345948
20
23.8391299750504
30
0
0
SPLINE
5
132
100
AcDbEntity
8
1
62
256
6
ByLayer
370
18
48
1
60
0
100
AcDbSpline
70
4
71
3
72
26
73
22
40
0
40
0
40
0
40
0
40
0.0624999999999939
40
0.0624999999999939
40
0.0937499999999935
40
0.0937499999999935
40
0.124999999999993
40
0.124999999999993
40
0.249999999999997
40
0.249999999999997
40
0.375000000000001
40
0.375000000000001
40
0.437500000000001
40
0.437500000000001
40
0.500000000000002
40
0.500000000000002
40
0.625
40
0.625
40
0.750000000000001
40
0.750000000000001
40
1
40
1
40
1
40
1
41
1
10
8.53867513459488
20
-23.8391299750502
30
0
41
1
10
8.52279868798016
20
-23.8391299750503
30
0
41
1
10
8.50721568825679
20
-23.8386381480423
30
0
41
1
10
8.48424201300776
20
-23.8372273769848
30
0
41
1
10
8.4766511186904
20
-23.8366445991221
30
0
41
1
10
8.46159876658837
20
-23.8352611656444
30
0
41
1
10
8.45410433072652
20
-23.8344558067494
30
0
41
1
10
8.41759599948898
20
-23.8299833264009
30
0
41
1
10
8.39103491659972
20
-23.8249896713849
30
0
41
1
10
8.3417075440052
20
-23.813005969379
30
0
41
1
10
8.31983115452977
20
-23.8062336877526
30
0
41
1
10
8.28977330576541
20
-23.7952700628808
30
0
41
1
10
8.280226387016
20
-23.7914778883489
30
0
41
1
10
8.26194447360365
20
-23.7836514357395
30
0
41
1
10
8.25319826338284
20
-23.7796095569563
30
0
41
1
10
8.22832307576431
20
-23.7673085978343
30
0
41
1
10
8.21342389595023
20
-23.7588292909636
30
0
41
1
10
8.18614807229017
20
-23.7414211400326
30
0
41
1
10
8.17378037377097
20
-23.7324910902464
30
0
41
1
10
8.13975567725333
20
-23.7051129235882
30
0
41
1
10
8.12111376292626
20
-23.686033116806
30
0
41
1
10
8.1056624327025
20
-23.6665017920808
30
0
0
SPLINE
5
133
100
AcDbEntity
8
1
62
256
6
ByLayer
370
18
48
1
60
0
100
AcDbSpline
70
4
71
3
72
30
73
26
40
0
40
0
40
0
40
0
40
0.25
40
0.25
40
0.375000000000002
40
0.375000000000002
40
0.437500000000001
40
0.437500000000001
40
0.500000000000001
40
0.500000000000001
40
0.624999999999997
40
0.624999999999997
40
0.687499999999998
40
0.687499999999998
40
0.749999999999999
40
0.749999999999999
40
0.8125
40
0.8125
40
0.843749999999997
40
0.843749999999997
40
0.874999999999994
40
0.874999999999994
40
0.937499999999997
40
0.937499999999997
40
1
40
1
40
1
40
1
41
1
10
8.10566243270267
20
-8.05584836782788
30
0
41
1
10
8.12110769698506
20
-7.99849169434927
30
0
41
1
10
8.13959628273551
20
-7.94218253951269
30
0
41
1
10
8.1735424287788
20
-7.8599101249543
30
0
41
1
10
8.18590373003096
20
-7.83285506058505
30
0
41
1
10
8.20641626669956
20
-7.79297622996165
30
0
41
1
10
8.21358407401564
20
-7.77980127287393
30
0
41
1
10
8.22868081710851
20
-7.7537248218664
30
0
41
1
10
8.23661756318495
20
-7.74081492713989
30
0
41
1
10
8.2615230214692
20
-7.70292805784939
30
0
41
1
10
8.2796227406684
20
-7.67866353751194
30
0
41
1
10
8.30988749524428
20
-7.64434849039853
30
0
41
1
10
8.3205004416742
20
-7.63327217102542
30
0
41
1
10
8.34263086450954
20
-7.61232137865161
30
0
41
1
10
8.35418344395194
20
-7.60240297286808
30
0
41
1
10
8.3784538615962
20
-7.58390025536207
30
0
41
1
10
8.39116971420628
20
-7.5753136622503
30
0
41
1
10
8.41133341861178
20
-7.5636834560645
30
0
41
1
10
8.41826331057831
20
-7.56000567013072
30
0
41
1
10
8.43230089820059
20
-7.55323657194796
30
0
41
1
10
8.4394278909337
20
-7.5501319310882
30
0
41
1
10
8.46115505954
20
-7.54171396614041
30
0
41
1
10
8.47609922674792
20
-7.53729092133946
30
0
41
1
10
8.50706439724271
20
-7.5312333563916
30
0
41
1
10
8.52282418317805
20
-7.5296667942649
30
0
41
1
10
8.5386751345948
20
-7.5296667942649
30
0
0
SPLINE
5
134
100
AcDbEntity
8
1
62
256
6
ByLayer
370
18
48
1
60
0
100
AcDbSpline
70
4
71
3
72
26
73
22
40
0
40
0
40
0
40
0
40
0.0624999999999973
40
0.0624999999999973
40
0.0937499999999959
40
0.0937499999999959
40
0.124999999999995
40
0.124999999999995
40
0.249999999999991
40
0.249999999999991
40
0.374999999999987
40
0.374999999999987
40
0.437499999999985
40
0.437499999999985
40
0.499999999999983
40
0.499999999999983
40
0.624999999999986
40
0.624999999999986
40
0.749999999999989
40
0.749999999999989
40
1
40
1
40
1
40
1
41
1
10
11.4613248654052
20
-7.52966679426524
30
0
41
1
10
11.4772013120199
20
-7.52966679426524
30
0
41
1
10
11.4927843117432
20
-7.53122440152967
30
0
41
1
10
11.5157579869922
20
-7.53568798536674
30
0
41
1
10
11.5233488813096
20
-7.53753139400652
30
0
41
1
10
11.5384012334116
20
-7.54190496002272
30
0
41
1
10
11.5458956692735
20
-7.54444995843588
30
0
41
1
10
11.582404000511
20
-7.55857361750125
30
0
41
1
10
11.6089650834003
20
-7.57431556968129
30
0
41
1
10
11.6582924559948
20
-7.61190750686279
30
0
41
1
10
11.6801688454702
20
-7.6330732524122
30
0
41
1
10
11.7102266942346
20
-7.66715495165661
30
0
41
1
10
11.719773612984
20
-7.67891539799638
30
0
41
1
10
11.7380555263963
20
-7.70312184666892
30
0
41
1
10
11.7468017366172
20
-7.71559105034081
30
0
41
1
10
11.7716769242357
20
-7.75343444963914
30
0
41
1
10
11.7865761040498
20
-7.77938351245621
30
0
41
1
10
11.8138519277098
20
-7.83234954293013
30
0
41
1
10
11.8262196262291
20
-7.85937042586593
30
0
41
1
10
11.8602443227466
20
-7.94172327888199
30
0
41
1
10
11.8788862370737
20
-7.99846916820721
30
0
41
1
10
11.8943375672975
20
-8.05584836782785
30
0
0
SPLINE
5
135
100
AcDbEntity
8
1
62
256
6
ByLayer
370
18
48
1
60
0
100
AcDbSpline
70
4
71
3
72
30
73
26
40
0
40
0
40
0
40
0
40
0.249999999999998
40
0.249999999999998
40
0.374999999999995
40
0.374999999999995
40
0.437499999999995
40
0.437499999999995
40
0.499999999999995
40
0.499999999999995
40
0.624999999999999
40
0.624999999999999
40
0.687500000000001
40
0.687500000000001
40
0.750000000000002
40
0.750000000000002
40
0.812500000000004
40
0.812500000000004
40
0.843750000000004
40
0.843750000000004
40
0.875000000000003
40
0.875000000000003
40
0.937500000000002
40
0.937500000000002
40
1
40
1
40
1
40
1
41
1
10
11.8943375672973
20
-23.6665017920808
30
0
41
1
10
11.8788923030149
20
-23.6860254491251
30
0
41
1
10
11.8604037172645
20
-23.7049589195931
30
0
41
1
10
11.8264575712212
20
-23.7323123198157
30
0
41
1
10
11.814096269969
20
-23.7412544902041
30
0
41
1
10
11.7935837333004
20
-23.7543620682907
30
0
41
1
10
11.7864159259844
20
-23.7586801045418
30
0
41
1
10
11.7713191828915
20
-23.7672030231185
30
0
41
1
10
11.763382436815
20
-23.7714105724815
30
0
41
1
10
11.7384769785308
20
-23.7837256270429
30
0
41
1
10
11.7203772593316
20
-23.7915679133937
30
0
41
1
10
11.6901125047557
20
-23.8026065911346
30
0
41
1
10
11.6794995583258
20
-23.8061604830514
30
0
41
1
10
11.6573691354905
20
-23.812868038308
30
0
41
1
10
11.6458165560481
20
-23.816035844018
30
0
41
1
10
11.6215461384038
20
-23.8219342456095
30
0
41
1
10
11.6088302857937
20
-23.8246655611124
30
0
41
1
10
11.5886665813883
20
-23.8283593459882
30
0
41
1
10
11.5817366894217
20
-23.8295263669799
30
0
41
1
10
11.5676991017994
20
-23.8316728303992
30
0
41
1
10
11.5605721090663
20
-23.8326565134122
30
0
41
1
10
11.53884494046
20
-23.8353222152631
30
0
41
1
10
11.5239007732521
20
-23.8367207404254
30
0
41
1
10
11.4929356027573
20
-23.8386353263249
30
0
41
1
10
11.477175816822
20
-23.8391299750504
30
0
41
1
10
11.4613248654052
20
-23.8391299750504
30
0
0
SPLINE
5
136
100
AcDbEntity
8
1
62
256
6
ByLayer
370
18
48
1
60
0
100
AcDbSpline
70
4
71
3
72
10
73
6
40
0
40
0
40
0
40
0
40
0.500000000000001
40
0.500000000000001
40
1
40
1
40
1
40
1
41
1
10
20.2792076144253
20
20.1171289531719
30
0
41
1
10
20.2117663276817
20
19.9662897769914
30
0
41
1
10
20.1626522286998
20
19.8109910153301
30
0
41
1
10
20.0966385121047
20
19.4915083684418
30
0
41
1
10
20.0797679944244
20
19.3273234557099
30
0
41
1
10
20.0780118107862
20
19.1586244439295
30
0
0
SPLINE
5
137
100
AcDbEntity
8
SK1
62
256
6
ByLayer
370
18
48
1
60
0
100
AcDbSpline
70
4
71
3
72
45
73
41
40
0
40
0
40
0
40
0
40
0.0236943072630246
40
0.0517123109529046
40
0.0797303146427847
40
0.107748318332665
40
0.163784325712425
40
0.219820333092185
40
0.247838336782065
40
0.275856340471945
40
0.303874344161825
40
0.331892347851705
40
0.359910351541585
40
0.387928355231465
40
0.415946358921345
40
0.429955360766285
40
0.443964362611225
40
0.471982366301106
40
0.485991368146045
40
0.492995869068516
40
0.500000369990986
40
0.507004870913456
40
0.514009371835926
40
0.528018373680865
40
0.556036377370746
40
0.570045379215686
40
0.584054381060626
40
0.612072384750506
40
0.640090388440386
40
0.668108392130266
40
0.696126395820146
40
0.724144399510026
40
0.752162403199906
40
0.780180406889786
40
0.836216414269546
40
0.892252421649306
40
0.920270425339186
40
0.948288429029066
40
0.976306432718946
40
1
40
1
40
1
40
1
41
1
10
-30
20
-15.9931892295934
30
0
41
1
10
-30
20
-15.9976541745912
30
0
41
1
10
-30
20
-15.9670776518006
30
0
41
1
10
-30
20
-15.7965331178349
30
0
41
1
10
-30
20
-15.4890632796305
30
0
41
1
10
-30
20
-14.9202435431778
30
0
41
1
10
-30
20
-13.9430327235571
30
0
41
1
10
-30
20
-12.6450678356931
30
0
41
1
10
-30
20
-11.42137036219
30
0
41
1
10
-30
20
-10.4224345134304
30
0
41
1
10
-30
20
-9.34179268341308
30
0
41
1
10
-30
20
-8.18272261240929
30
0
41
1
10
-30
20
-6.94914665451276
30
0
41
1
10
-30
20
-5.64597210397025
30
0
41
1
10
-30
20
-4.51272453462846
30
0
41
1
10
-30
20
-3.56968201835696
30
0
41
1
10
-30
20
-2.61530592334967
30
0
41
1
10
-30
20
-1.67591474804155
30
0
41
1
10
-30
20
-0.833341855678952
30
0
41
1
10
-30
20
-0.354131622770439
30
0
41
1
10
-30
20
4.002277763E-07
30
0
41
1
10
-30
20
0.354131996183753
30
0
41
1
10
-30
20
0.8333415404785
30
0
41
1
10
-30
20
1.675914880346
30
0
41
1
10
-30
20
2.61530613672116
30
0
41
1
10
-30
20
3.56968220154852
30
0
41
1
10
-30
20
4.51272494557483
30
0
41
1
10
-30
20
5.64597176408017
30
0
41
1
10
-30
20
6.94914704263559
30
0
41
1
10
-30
20
8.18272269843541
30
0
41
1
10
-30
20
9.34179238961872
30
0
41
1
10
-30
20
10.4224348167646
30
0
41
1
10
-30
20
11.4213703912989
30
0
41
1
10
-30
20
12.6450674903883
30
0
41
1
10
-30
20
13.9430330734595
30
0
41
1
10
-30
20
14.9202427964398
30
0
41
1
10
-30
20
15.4890634139888
30
0
41
1
10
-30
20
15.7965327535813
30
0
41
1
10
-30
20
15.9670755101815
30
0
41
1
10
-30
20
15.9976531628023
30
0
41
1
10
-30
20
15.9931895368494
30
0
0
SPLINE
5
138
100
AcDbEntity
8
SK1
62
256
6
ByLayer
370
18
48
1
60
0
100
AcDbSpline
70
4
71
3
72
38
73
34
40
0
40
0
40
0
40
0
40
0.249999999999998
40
0.249999999999998
40
0.375000000000001
40
0.375000000000001
40
0.500000000000003
40
0.500000000000003
40
0.625000000000006
40
0.625000000000006
40
0.687500000000004
40
0.687500000000004
40
0.750000000000002
40
0.750000000000002
40
0.8125
40
0.8125
40
0.843749999999999
40
0.843749999999999
40
0.874999999999998
40
0.874999999999998
40
0.906249999999997
40
0.906249999999997
40
0.921874999999998
40
0.921874999999998
40
0.937499999999998
40
0.937499999999998
40
0.953124999999999
40
0.953124999999999
40
0.968749999999999
40
0.968749999999999
40
0.984375
40
0.984375
40
1
40
1
40
1
40
1
41
1
10
-0.200000000000017
20
-6.07843116862739
30
0
41
1
10
-0.200329859654715
20
-6.01357702681145
30
0
41
1
10
-0.201930655445096
20
-5.94848814748187
30
0
41
1
10
-0.20706282051475
20
-5.85044931358604
30
0
41
1
10
-0.209234214279519
20
-5.81770188154789
30
0
41
1
10
-0.214779228537793
20
-5.7520569459719
30
0
41
1
10
-0.218149341071353
20
-5.71913713924792
30
0
41
1
10
-0.226581907125791
20
-5.65322539656964
30
0
41
1
10
-0.231616433421522
20
-5.620292949023
30
0
41
1
10
-0.241184891539973
20
-5.57099638970087
30
0
41
1
10
-0.244723140953255
20
-5.55455058376108
30
0
41
1
10
-0.252718404682355
20
-5.52188785992811
30
0
41
1
10
-0.257164394743938
20
-5.50568135296518
30
0
41
1
10
-0.267422418729041
20
-5.47365965349914
30
0
41
1
10
-0.273206407019217
20
-5.45783596374676
30
0
41
1
10
-0.283724888362031
20
-5.43464123738514
30
0
41
1
10
-0.287542348293499
20
-5.42700107315446
30
0
41
1
10
-0.296164698039092
20
-5.41201401791534
30
0
41
1
10
-0.301003751719009
20
-5.4046119981478
30
0
41
1
10
-0.312019326339538
20
-5.39094692539047
30
0
41
1
10
-0.31824990755598
20
-5.3846016561252
30
0
41
1
10
-0.328982330604276
20
-5.37709874944116
30
0
41
1
10
-0.332865959292434
20
-5.37490714744831
30
0
41
1
10
-0.340905624745261
20
-5.37162929612282
30
0
41
1
10
-0.345153788553745
20
-5.37051023807425
30
0
41
1
10
-0.353672033871192
20
-5.36955188220813
30
0
41
1
10
-0.357904387099609
20
-5.36969675293608
30
0
41
1
10
-0.366271728735967
20
-5.37110702101791
30
0
41
1
10
-0.370241250613816
20
-5.37233602993433
30
0
41
1
10
-0.377868038063696
20
-5.37555831609177
30
0
41
1
10
-0.381539373885118
20
-5.37756780385982
30
0
41
1
10
-0.388473887026265
20
-5.38206549938215
30
0
41
1
10
-0.39176092894752
20
-5.3845619683195
30
0
41
1
10
-0.394913799811292
20
-5.38724256160015
30
0
0
SPLINE
5
139
100
AcDbEntity
8
SK1
62
256
6
ByLayer
370
18
48
1
60
0
100
AcDbSpline
70
4
71
3
72
38
73
34
40
0
40
0
40
0
40
0
40
0.0156249999999985
40
0.0156249999999985
40
0.031249999999997
40
0.031249999999997
40
0.0468749999999954
40
0.0468749999999954
40
0.0624999999999939
40
0.0624999999999939
40
0.0781249999999924
40
0.0781249999999924
40
0.0937499999999909
40
0.0937499999999909
40
0.124999999999989
40
0.124999999999989
40
0.156249999999988
40
0.156249999999988
40
0.187499999999987
40
0.187499999999987
40
0.249999999999987
40
0.249999999999987
40
0.312499999999986
40
0.312499999999986
40
0.374999999999986
40
0.374999999999986
40
0.499999999999989
40
0.499999999999989
40
0.624999999999992
40
0.624999999999992
40
0.749999999999995
40
0.749999999999995
40
1
40
1
40
1
40
1
41
1
10
-0.394913799809103
20
5.38724490303883
30
0
41
1
10
-0.391781832950699
20
5.38458208568073
30
0
41
1
10
-0.388519962703811
20
5.3821033059937
30
0
41
1
10
-0.381650196472521
20
5.37763658736256
30
0
41
1
10
-0.378006935713103
20
5.375632334519
30
0
41
1
10
-0.370423579197194
20
5.37240298219777
30
0
41
1
10
-0.366503702076471
20
5.37117873901857
30
0
41
1
10
-0.358331183030117
20
5.36974313779842
30
0
41
1
10
-0.354015865513219
20
5.36955368909108
30
0
41
1
10
-0.345568573158801
20
5.37043109064084
30
0
41
1
10
-0.341321667103017
20
5.37150405183556
30
0
41
1
10
-0.333263890221957
20
5.37470929745368
30
0
41
1
10
-0.329419339218276
20
5.37683593115611
30
0
41
1
10
-0.318577749103383
20
5.38430052549947
30
0
41
1
10
-0.312400979321552
20
5.3905410449475
30
0
41
1
10
-0.301354650858144
20
5.40411801099182
30
0
41
1
10
-0.296591327986192
20
5.41134235290909
30
0
41
1
10
-0.287922394076219
20
5.42628126698924
30
0
41
1
10
-0.284017391060843
20
5.43403466061338
30
0
41
1
10
-0.273296210573392
20
5.45757128507668
30
0
41
1
10
-0.267463037667568
20
5.47353830586394
30
0
41
1
10
-0.25714417824588
20
5.50574351678881
30
0
41
1
10
-0.252692130238955
20
5.52198910291142
30
0
41
1
10
-0.244699800125972
20
5.55465646091182
30
0
41
1
10
-0.241167183894703
20
5.57107991706769
30
0
41
1
10
-0.231573562776504
20
5.6205357075076
30
0
41
1
10
-0.226533735280697
20
5.65356559342112
30
0
41
1
10
-0.218124597314073
20
5.71937115218196
30
0
41
1
10
-0.214765406462988
20
5.75220767186599
30
0
41
1
10
-0.209230735864509
20
5.81775962891592
30
0
41
1
10
-0.207061534202325
20
5.85047499196546
30
0
41
1
10
-0.201932717755426
20
5.94845143863401
30
0
41
1
10
-0.200330038101583
20
6.01354333629556
30
0
41
1
10
-0.199999999999989
20
6.0784324458115
30
0
0
SPLINE
5
13A
100
AcDbEntity
8
SK1
62
256
6
ByLayer
370
13
48
1
60
0
100
AcDbSpline
70
4
71
3
72
20
73
16
40
0
40
0
40
0
40
0
40
0.0453685402449268
40
0.113618264793879
40
0.181867989342832
40
0.250117713891785
40
0.318367438440737
40
0.38661716298969
40
0.454866887538642
40
0.591366336636547
40
0.727865785734452
40
0.796115510283405
40
0.864365234832358
40
0.93261495938131
40
1
40
1
40
1
40
1
41
1
10
-0.394913799811292
20
-5.38724256160785
30
0
41
1
10
-0.394913799811292
20
-5.7190547501427
30
0
41
1
10
-0.394913799811292
20
-6.5348354946259
30
0
41
1
10
-0.394913799811292
20
-7.7796880789966
30
0
41
1
10
-0.394913799811292
20
-9.09679923539034
30
0
41
1
10
-0.394913799811292
20
-10.3283869583107
30
0
41
1
10
-0.394913799811292
20
-11.4729576347282
30
0
41
1
10
-0.394913799811292
20
-12.5286533763275
30
0
41
1
10
-0.394913799811292
20
-13.8156305223415
30
0
41
1
10
-0.394913799811292
20
-15.1889742433629
30
0
41
1
10
-0.394913799811292
20
-16.224825355641
30
0
41
1
10
-0.394913799811292
20
-16.8259463034278
30
0
41
1
10
-0.394913799811292
20
-17.1536380024563
30
0
41
1
10
-0.394913799811292
20
-17.3456596442434
30
0
41
1
10
-0.394913799811292
20
-17.3741382160258
30
0
41
1
10
-0.394913799811292
20
-17.3602188927761
30
0
0
SPLINE
5
13B
100
AcDbEntity
8
SK1
62
256
6
ByLayer
370
18
48
1
60
0
100
AcDbSpline
70
4
71
3
72
50
73
46
40
0
40
0
40
0
40
0
40
0.0312500000000015
40
0.0312500000000015
40
0.0468750000000022
40
0.0468750000000022
40
0.0625000000000029
40
0.0625000000000029
40
0.0781250000000036
40
0.0781250000000036
40
0.0937500000000043
40
0.0937500000000043
40
0.109375000000005
40
0.109375000000005
40
0.125000000000006
40
0.125000000000006
40
0.140625000000006
40
0.140625000000006
40
0.156250000000007
40
0.156250000000007
40
0.187500000000007
40
0.187500000000007
40
0.218750000000006
40
0.218750000000006
40
0.250000000000006
40
0.250000000000006
40
0.281250000000005
40
0.281250000000005
40
0.312500000000005
40
0.312500000000005
40
0.375000000000004
40
0.375000000000004
40
0.437500000000003
40
0.437500000000003
40
0.500000000000001
40
0.500000000000001
40
0.625
40
0.625
40
0.6875
40
0.6875
40
0.75
40
0.75
40
0.875
40
0.875
40
1
40
1
40
1
40
1
41
1
10
-0.394913799811292
20
-5.38724256160785
30
0
41
1
10
-0.411056331481689
20
-5.40096705709072
30
0
41
1
10
-0.428167571421085
20
-5.41359596702645
30
0
41
1
10
-0.455974774655147
20
-5.43013648208003
30
0
41
1
10
-0.465658214706991
20
-5.43526409556435
30
0
41
1
10
-0.485484698823484
20
-5.44430592701531
30
0
41
1
10
-0.495657428995088
20
-5.44824432393753
30
0
41
1
10
-0.516608715435041
20
-5.45476351226009
30
0
41
1
10
-0.527386860231815
20
-5.45734523281897
30
0
41
1
10
-0.549664818445279
20
-5.46089328829356
30
0
41
1
10
-0.560930035443761
20
-5.46180969649637
30
0
41
1
10
-0.58336584661788
20
-5.4618713105761
30
0
41
1
10
-0.594591467840019
20
-5.46102572365922
30
0
41
1
10
-0.617058166617738
20
-5.45757599588921
30
0
41
1
10
-0.627999143283205
20
-5.45501931647436
30
0
41
1
10
-0.649331735085582
20
-5.44848807488125
30
0
41
1
10
-0.659758151599817
20
-5.44449947952501
30
0
41
1
10
-0.680036525045011
20
-5.43533205618732
30
0
41
1
10
-0.689742098894556
20
-5.43022628481572
30
0
41
1
10
-0.717826906306101
20
-5.41366379171245
30
0
41
1
10
-0.735187935399324
20
-5.40097830060952
30
0
41
1
10
-0.768034946557918
20
-5.3733304614868
30
0
41
1
10
-0.783237057424145
20
-5.35859529837754
30
0
41
1
10
-0.811836627358673
20
-5.32802442998909
30
0
41
1
10
-0.825257514875972
20
-5.31215335693128
30
0
41
1
10
-0.85080730255018
20
-5.27953884086708
30
0
41
1
10
-0.862932209486871
20
-5.26279281423712
30
0
41
1
10
-0.8861698860768
20
-5.22860723544375
30
0
41
1
10
-0.897260448987026
20
-5.21119248410571
30
0
41
1
10
-0.929029640850729
20
-5.15857889561175
30
0
41
1
10
-0.948347177186207
20
-5.12284414993096
30
0
41
1
10
-0.984487535026432
20
-5.05043807526351
30
0
41
1
10
-1.00129416978024
20
-5.013761649543
30
0
41
1
10
-1.03304457478234
20
-4.93966608077309
30
0
41
1
10
-1.04798244371665
20
-4.90224508459647
30
0
41
1
10
-1.09059413059555
20
-4.78904752584498
30
0
41
1
10
-1.11609621830422
20
-4.71234577760799
30
0
41
1
10
-1.15135515985602
20
-4.5958383808707
30
0
41
1
10
-1.16260343866753
20
-4.55673847320071
30
0
41
1
10
-1.18417456263643
20
-4.47826299864514
30
0
41
1
10
-1.19450305218302
20
-4.4388689467043
30
0
41
1
10
-1.22429462395718
20
-4.32024366329264
30
0
41
1
10
-1.24257202444835
20
-4.24057073726357
30
0
41
1
10
-1.27661859809459
20
-4.08013408760161
30
0
41
1
10
-1.29238372607517
20
-3.99936988902869
30
0
41
1
10
-1.30710678118655
20
-3.91808269248796
30
0
0
SPLINE
5
13C
100
AcDbEntity
8
SK1
62
256
6
ByLayer
370
18
48
1
60
0
100
AcDbSpline
70
4
71
3
72
38
73
34
40
0
40
0
40
0
40
0
40
0.0624999999999996
40
0.0624999999999996
40
0.124999999999999
40
0.124999999999999
40
0.249999999999999
40
0.249999999999999
40
0.374999999999998
40
0.374999999999998
40
0.390624999999998
40
0.390624999999998
40
0.406249999999998
40
0.406249999999998
40
0.437499999999998
40
0.437499999999998
40
0.499999999999998
40
0.499999999999998
40
0.562499999999998
40
0.562499999999998
40
0.624999999999999
40
0.624999999999999
40
0.749999999999999
40
0.749999999999999
40
0.781249999999999
40
0.781249999999999
40
0.812499999999999
40
0.812499999999999
40
0.874999999999999
40
0.874999999999999
40
0.9375
40
0.9375
40
1
40
1
40
1
40
1
41
1
10
-1.30710678118655
20
-3.91808269248796
30
0
41
1
10
-1.33526487251859
20
-3.76261955749285
30
0
41
1
10
-1.36267126502631
20
-3.6063109858577
30
0
41
1
10
-1.41562242099803
20
-3.29187611045597
30
0
41
1
10
-1.44117770353176
20
-3.13375373985022
30
0
41
1
10
-1.51435013598103
20
-2.65639932915295
30
0
41
1
10
-1.55846884179033
20
-2.33418302861881
30
0
41
1
10
-1.63296978491243
20
-1.68004719877027
30
0
41
1
10
-1.66337509736468
20
-1.34813830750838
30
0
41
1
10
-1.68707319146449
20
-0.968091690681803
30
0
41
1
10
-1.68955923537888
20
-0.925771372654197
30
0
41
1
10
-1.69422507481971
20
-0.840939584978429
30
0
41
1
10
-1.6964065979426
20
-0.798386309984579
30
0
41
1
10
-1.70245250680873
20
-0.670897601193616
30
0
41
1
10
-1.70582437938029
20
-0.586052568901891
30
0
41
1
10
-1.71388361409092
20
-0.331968562037986
30
0
41
1
10
-1.71646782396985
20
-0.163187101305908
30
0
41
1
10
-1.71636335941631
20
0.173213348331899
30
0
41
1
10
-1.71367008139578
20
0.34083166255536
30
0
41
1
10
-1.70293626023371
20
0.674902568806147
30
0
41
1
10
-1.69494665814693
20
0.841362289300548
30
0
41
1
10
-1.66399327242203
20
1.33914312869118
30
0
41
1
10
-1.63408221528164
20
1.66887252592326
30
0
41
1
10
-1.5876007265538
20
2.07872253566578
30
0
41
1
10
-1.57784909269048
20
2.16057674059007
30
0
41
1
10
-1.5574977199426
20
2.32406172494171
30
0
41
1
10
-1.54688933197929
20
2.40575612114199
30
0
41
1
10
-1.51394731043965
20
2.65007047288915
30
0
41
1
10
-1.49055743488208
20
2.81150726182861
30
0
41
1
10
-1.44149329508792
20
3.13180385741538
30
0
41
1
10
-1.41582315096537
20
3.29066553946589
30
0
41
1
10
-1.36271475580057
20
3.60607338167011
30
0
41
1
10
-1.33526589565594
20
3.76261441071909
30
0
41
1
10
-1.30710678118655
20
3.91808311129771
30
0
0
SPLINE
5
13D
100
AcDbEntity
8
SK1
62
256
6
ByLayer
370
18
48
1
60
0
100
AcDbSpline
70
4
71
3
72
53
73
49
40
0
40
0
40
0
40
0
40
0.125000000000001
40
0.125000000000001
40
0.250000000000003
40
0.250000000000003
40
0.312500000000002
40
0.312500000000002
40
0.375000000000001
40
0.375000000000001
40
0.499999999999999
40
0.499999999999999
40
0.562499999999999
40
0.562499999999999
40
0.624999999999998
40
0.624999999999998
40
0.687499999999997
40
0.687499999999997
40
0.718749999999997
40
0.718749999999997
40
0.749999999999997
40
0.749999999999997
40
0.781249999999997
40
0.781249999999997
40
0.812499999999997
40
0.812499999999997
40
0.843749999999997
40
0.843749999999997
40
0.859374999999997
40
0.859374999999997
40
0.874999999999998
40
0.874999999999998
40
0.890624999999998
40
0.890624999999998
40
0.898437499999998
40
0.898437499999998
40
0.906249999999998
40
0.906249999999998
40
0.921874999999998
40
0.929687499999998
40
0.929687499999998
40
0.937499999999998
40
0.937499999999998
40
0.968749999999999
40
0.968749999999999
40
0.984374999999999
40
0.984374999999999
40
1
40
1
40
1
40
1
41
1
10
-1.30710678118655
20
3.91808311129773
30
0
41
1
10
-1.29239108240532
20
3.99932964943406
30
0
41
1
10
-1.27663490881506
20
4.08005058420358
30
0
41
1
10
-1.24261095077244
20
4.24039497937329
30
0
41
1
10
-1.22434718173434
20
4.32001891689725
30
0
41
1
10
-1.19458151328425
20
4.43856580615747
30
0
41
1
10
-1.18426257821704
20
4.47793290560355
30
0
41
1
10
-1.16271294340757
20
4.55635268985432
30
0
41
1
10
-1.1514750174868
20
4.5954305661744
30
0
41
1
10
-1.11622081339451
20
4.71196262616607
30
0
41
1
10
-1.09072783956066
20
4.78866062339225
30
0
41
1
10
-1.04815216411876
20
4.90181336669082
30
0
41
1
10
-1.03323011355693
20
4.93921284702577
30
0
41
1
10
-1.00152410230021
20
5.01324987497111
30
0
41
1
10
-0.984745886096874
20
5.04988928444075
30
0
41
1
10
-0.948685190430894
20
5.12220258194967
30
0
41
1
10
-0.929418355061557
20
5.15788155457773
30
0
41
1
10
-0.897760317588421
20
5.21039425330486
30
0
41
1
10
-0.886742970836565
20
5.22772922691752
30
0
41
1
10
-0.863513824307972
20
5.26197522516887
30
0
41
1
10
-0.851357742368606
20
5.27880041053592
30
0
41
1
10
-0.825828436847473
20
5.31146357138681
30
0
41
1
10
-0.812437519911811
20
5.32733553299153
30
0
41
1
10
-0.783971777383869
20
5.35785904442616
30
0
41
1
10
-0.768905931142399
20
5.37251692611162
30
0
41
1
10
-0.736341322354491
20
5.40008757388526
30
0
41
1
10
-0.718704728837935
20
5.41307616107983
30
0
41
1
10
-0.690494000998513
20
5.42981903443433
30
0
41
1
10
-0.680770506186064
20
5.43496537787158
30
0
41
1
10
-0.660532703009267
20
5.4441860527954
30
0
41
1
10
-0.650045797817
20
5.44823342219186
30
0
41
1
10
-0.628779113836032
20
5.45481846069109
30
0
41
1
10
-0.617932285477195
20
5.4573891634796
30
0
41
1
10
-0.601299914959753
20
5.46002170773141
30
0
41
1
10
-0.595695338837032
20
5.46069496960084
30
0
41
1
10
-0.584356912700144
20
5.46160478770395
30
0
41
1
10
-0.578637021974231
20
5.46183701163628
30
0
41
1
10
-0.561675487241928
20
5.46185622962994
30
0
41
1
10
-0.544917445528739
20
5.46054034675203
30
0
41
1
10
-0.528445210270377
20
5.45734844847985
30
0
41
1
10
-0.517525389033324
20
5.45481548249097
30
0
41
1
10
-0.512078734988165
20
5.4533397528954
30
0
41
1
10
-0.48545098532486
20
5.44513209892818
30
0
41
1
10
-0.465729936503919
20
5.43590631685376
30
0
41
1
10
-0.437770416117502
20
5.4193273215547
30
0
41
1
10
-0.428743917867394
20
5.41334179407008
30
0
41
1
10
-0.411386251483435
20
5.40075705360888
30
0
41
1
10
-0.403020392727001
20
5.39413717786437
30
0
41
1
10
-0.394913799811292
20
5.38724490303858
30
0
0
SPLINE
5
13E
100
AcDbEntity
8
SK1
62
256
6
ByLayer
370
13
48
1
60
0
100
AcDbSpline
70
4
71
3
72
20
73
16
40
0
40
0
40
0
40
0
40
0.0673842633960285
40
0.135634052033101
40
0.203883840670173
40
0.272133629307245
40
0.40863320658139
40
0.545132783855534
40
0.613382572492606
40
0.681632361129679
40
0.749882149766751
40
0.818131938403823
40
0.886381727040895
40
0.954631515677967
40
1
40
1
40
1
40
1
41
1
10
-0.394913799811292
20
17.3602193110949
30
0
41
1
10
-0.394913799811292
20
17.3741378070456
30
0
41
1
10
-0.394913799811292
20
17.345658249464
30
0
41
1
10
-0.394913799811292
20
17.1536376810083
30
0
41
1
10
-0.394913799811292
20
16.8259464323311
30
0
41
1
10
-0.394913799811292
20
16.2248245878661
30
0
41
1
10
-0.394913799811292
20
15.1889746622834
30
0
41
1
10
-0.394913799811292
20
13.8156301488903
30
0
41
1
10
-0.394913799811292
20
12.5286535254346
30
0
41
1
10
-0.394913799811292
20
11.4729578043957
30
0
41
1
10
-0.394913799811292
20
10.3283867090429
30
0
41
1
10
-0.394913799811292
20
9.09679950047928
30
0
41
1
10
-0.394913799811292
20
7.77968825069564
30
0
41
1
10
-0.394913799811292
20
6.53483606378791
30
0
41
1
10
-0.394913799811292
20
5.71905630139054
30
0
41
1
10
-0.394913799811292
20
5.38724490303881
30
0
0
SPLINE
5
13F
100
AcDbEntity
8
SK1
62
256
6
ByLayer
370
13
48
1
60
0
100
AcDbSpline
70
4
71
3
72
45
73
41
40
0
40
0
40
0
40
0
40
0.0139247370261957
40
0.0425174007479304
40
0.0711100644696651
40
0.0997027281913997
40
0.156888055634869
40
0.214073383078339
40
0.242666046800073
40
0.271258710521808
40
0.299851374243543
40
0.328444037965277
40
0.357036701687012
40
0.385629365408746
40
0.414222029130481
40
0.428518360991348
40
0.442814692852216
40
0.471407356573951
40
0.485703688434818
40
0.492851854365252
40
0.500000020295685
40
0.507148186226119
40
0.514296352156553
40
0.52859268401742
40
0.557185347739155
40
0.571481679600022
40
0.585778011460889
40
0.614370675182624
40
0.642963338904359
40
0.671556002626093
40
0.700148666347828
40
0.728741330069563
40
0.757333993791297
40
0.785926657513032
40
0.843111984956501
40
0.900297312399971
40
0.928889976121706
40
0.95748263984344
40
0.986075303565175
40
1
40
1
40
1
40
1
41
1
10
-1.99503997793926
20
17.3200454231799
30
0
41
1
10
-1.99503997793928
20
17.3133442640211
30
0
41
1
10
-1.99503997793928
20
17.2734193792016
30
0
41
1
10
-1.99503997793928
20
17.1138751154123
30
0
41
1
10
-1.99503997793928
20
16.7867763596001
30
0
41
1
10
-1.99503997793928
20
16.1866009265939
30
0
41
1
10
-1.99503997793928
20
15.1524691326423
30
0
41
1
10
-1.99503997793928
20
13.7813331880937
30
0
41
1
10
-1.99503997793928
20
12.4962106263157
30
0
41
1
10
-1.99503997793928
20
11.4421779521075
30
0
41
1
10
-1.99503997793928
20
10.2994799380558
30
0
41
1
10
-1.99503997793928
20
9.07001746022104
30
0
41
1
10
-1.99503997793928
20
7.75535376586828
30
0
41
1
10
-1.99503997793928
20
6.35676341745574
30
0
41
1
10
-1.99503997793928
20
5.12318926412425
30
0
41
1
10
-1.99503997793928
20
4.09531236648536
30
0
41
1
10
-1.99503997793928
20
3.04236295320669
30
0
41
1
10
-1.99503997793928
20
1.95640625727882
30
0
41
1
10
-1.99503997793928
20
0.981337226851394
30
0
41
1
10
-1.99503997793928
20
0.420771319084707
30
0
41
1
10
-1.99503997793928
20
6.88173714E-08
30
0
41
1
10
-1.99503997793928
20
-0.420771221994357
30
0
41
1
10
-1.99503997793928
20
-0.981337209960486
30
0
41
1
10
-1.99503997793928
20
-1.95640624898675
30
0
41
1
10
-1.99503997793928
20
-3.04236280324244
30
0
41
1
10
-1.99503997793928
20
-4.0953123914187
30
0
41
1
10
-1.99503997793928
20
-5.12318891405303
30
0
41
1
10
-1.99503997793928
20
-6.35676356337376
30
0
41
1
10
-1.99503997793928
20
-7.7553535878281
30
0
41
1
10
-1.99503997793928
20
-9.07001720037854
30
0
41
1
10
-1.99503997793928
20
-10.2994801886281
30
0
41
1
10
-1.99503997793928
20
-11.4421777785236
30
0
41
1
10
-1.99503997793928
20
-12.4962104807245
30
0
41
1
10
-1.99503997793928
20
-13.7813335607202
30
0
41
1
10
-1.99503997793928
20
-15.152468715744
30
0
41
1
10
-1.99503997793928
20
-16.1866016937524
30
0
41
1
10
-1.99503997793928
20
-16.786776230537
30
0
41
1
10
-1.99503997793928
20
-17.1138754381145
30
0
41
1
10
-1.99503997793928
20
-17.2734198434928
30
0
41
1
10
-1.99503997793926
20
-17.3133444726109
30
0
41
1
10
-1.99503997793926
20
-17.3200455766443
30
0
0
SPLINE
5
140
100
AcDbEntity
8
SK1
62
256
6
ByLayer
370
18
48
1
60
0
100
AcDbSpline
70
4
71
3
72
45
73
41
40
0
40
0
40
0
40
0
40
0.0138970649491042
40
0.0424913612515415
40
0.0710856575539788
40
0.0996799538564161
40
0.156868546461291
40
0.214057139066165
40
0.242651435368603
40
0.27124573167104
40
0.299840027973477
40
0.328434324275915
40
0.357028620578352
40
0.385622916880789
40
0.414217213183227
40
0.428514361334445
40
0.442811509485664
40
0.471405805788101
40
0.48570295393932
40
0.492851528014929
40
0.500000102090538
40
0.507148676166148
40
0.514297250241757
40
0.528594398392976
40
0.557188694695413
40
0.571485842846632
40
0.58578299099785
40
0.614377287300288
40
0.642971583602725
40
0.671565879905162
40
0.7001601762076
40
0.728754472510037
40
0.757348768812474
40
0.785943065114912
40
0.843131657719786
40
0.900320250324661
40
0.928914546627098
40
0.957508842929535
40
0.986103139231973
40
1
40
1
40
1
40
1
41
1
10
-2.20000000000002
20
17.5147945431309
30
0
41
1
10
-2.20000000000002
20
17.5080193398943
30
0
41
1
10
-2.2
20
17.4676802399612
30
0
41
1
10
-2.2
20
17.3066644250431
30
0
41
1
10
-2.2
20
16.9766929599708
30
0
41
1
10
-2.2
20
16.3719288388599
30
0
41
1
10
-2.2
20
15.3294666616432
30
0
41
1
10
-2.2
20
13.9476224427057
30
0
41
1
10
-2.2
20
12.6535104390874
30
0
41
1
10
-2.2
20
11.5914144609754
30
0
41
1
10
-2.2
20
10.4396347881955
30
0
41
1
10
-2.2
20
9.19987052615136
30
0
41
1
10
-2.2
20
7.87333982787851
30
0
41
1
10
-2.2
20
6.4607857552443
30
0
41
1
10
-2.2
20
5.21252898167785
30
0
41
1
10
-2.2
20
4.17223684682958
30
0
41
1
10
-2.2
20
3.10486150423552
30
0
41
1
10
-2.2
20
1.99745537289451
30
0
41
1
10
-2.2
20
1.00299597482069
30
0
41
1
10
-2.2
20
0.430523794544825
30
0
41
1
10
-2.2
20
2.03164063E-08
30
0
41
1
10
-2.2
20
-0.430523737893537
30
0
41
1
10
-2.2
20
-1.00299590932914
30
0
41
1
10
-2.2
20
-1.99745538275133
30
0
41
1
10
-2.2
20
-3.10486136355075
30
0
41
1
10
-2.2
20
-4.17223690222141
30
0
41
1
10
-2.2
20
-5.21252864051553
30
0
41
1
10
-2.2
20
-6.46078587277509
30
0
41
1
10
-2.2
20
-7.87333968058334
30
0
41
1
10
-2.2
20
-9.19987024087132
30
0
41
1
10
-2.2
20
-10.4396350324424
30
0
41
1
10
-2.2
20
-11.5914143063801
30
0
41
1
10
-2.2
20
-12.6535102764493
30
0
41
1
10
-2.2
20
-13.9476228193307
30
0
41
1
10
-2.2
20
-15.3294662349403
30
0
41
1
10
-2.2
20
-16.3719296090069
30
0
41
1
10
-2.2
20
-16.9766928316826
30
0
41
1
10
-2.2
20
-17.3066647416643
30
0
41
1
10
-2.2
20
-17.4676803358245
30
0
41
1
10
-2.20000000000002
20
-17.5080192381054
30
0
41
1
10
-2.20000000000002
20
-17.5147944569355
30
0
0
SPLINE
5
141
100
AcDbEntity
8
SK1
62
256
6
ByLayer
370
18
48
1
60
0
100
AcDbSpline
70
4
71
3
72
45
73
41
40
0
40
0
40
0
40
0
40
0.0275256180788036
40
0.0553182314126223
40
0.0831108447464411
40
0.11090345808026
40
0.166488684747898
40
0.222073911415535
40
0.249866524749354
40
0.277659138083173
40
0.305451751416991
40
0.33324436475081
40
0.361036978084629
40
0.388829591418448
40
0.416622204752267
40
0.430518511419176
40
0.444414818086085
40
0.472207431419904
40
0.486103738086814
40
0.493051891420268
40
0.500000044753723
40
0.506948198087178
40
0.513896351420632
40
0.527792658087542
40
0.55558527142136
40
0.56948157808827
40
0.583377884755179
40
0.611170498088998
40
0.638963111422817
40
0.666755724756635
40
0.694548338090454
40
0.722340951424273
40
0.750133564758092
40
0.777926178091911
40
0.833511404759548
40
0.889096631427186
40
0.916889244761005
40
0.944681858094823
40
0.972474471428642
40
1
40
1
40
1
40
1
41
1
10
-28.5
20
16.8545102408272
30
0
41
1
10
-28.5
20
16.8681141430836
30
0
41
1
10
-28.5
20
16.8405420082914
30
0
41
1
10
-28.5
20
16.6531187925377
30
0
41
1
10
-28.5
20
16.3328856609547
30
0
41
1
10
-28.5
20
15.7436769514769
30
0
41
1
10
-28.5
20
14.7294543359372
30
0
41
1
10
-28.5
20
13.3839106046769
30
0
41
1
10
-28.5
20
12.1202723366856
30
0
41
1
10
-28.5
20
11.0855105352455
30
0
41
1
10
-28.5
20
9.96451720849825
30
0
41
1
10
-28.5
20
8.75967545377557
30
0
41
1
10
-28.5
20
7.47337327542297
30
0
41
1
10
-28.5
20
6.10815549439155
30
0
41
1
10
-28.5
20
4.9096720321497
30
0
41
1
10
-28.5
20
3.9114668992739
30
0
41
1
10
-28.5
20
2.89299469927084
30
0
41
1
10
-28.5
20
1.85830102725041
30
0
41
1
10
-28.5
20
0.929573956929886
30
0
41
1
10
-28.5
20
0.39746341502854
30
0
41
1
10
-28.5
20
1.847321585E-07
30
0
41
1
10
-28.5
20
-0.397463221290906
30
0
41
1
10
-28.5
20
-0.929574056191939
30
0
41
1
10
-28.5
20
-1.85830097558352
30
0
41
1
10
-28.5
20
-2.89299452712916
30
0
41
1
10
-28.5
20
-3.91146685141305
30
0
41
1
10
-28.5
20
-4.90967166078667
30
0
41
1
10
-28.5
20
-6.10815570815362
30
0
41
1
10
-28.5
20
-7.47337302390386
30
0
41
1
10
-28.5
20
-8.75967525472745
30
0
41
1
10
-28.5
20
-9.96451747418803
30
0
41
1
10
-28.5
20
-11.0855103162798
30
0
41
1
10
-28.5
20
-12.1202722318355
30
0
41
1
10
-28.5
20
-13.3839109677473
30
0
41
1
10
-28.5
20
-14.7294539424714
30
0
41
1
10
-28.5
20
-15.7436777114932
30
0
41
1
10
-28.5
20
-16.3328855300396
30
0
41
1
10
-28.5
20
-16.653119129773
30
0
41
1
10
-28.5
20
-16.8405423970848
30
0
41
1
10
-28.5
20
-16.8681141129084
30
0
41
1
10
-28.5
20
-16.8545104805642
30
0
0
SPLINE
5
142
100
AcDbEntity
8
1
62
256
6
ByLayer
370
18
48
1
60
0
100
AcDbSpline
70
4
71
3
72
18
73
14
40
0
40
0
40
0
40
0
40
0.106502320877109
40
0.209819720887682
40
0.309970050663242
40
0.40697292239906
40
0.500849920824627
40
0.591624858695397
40
0.679324076625586
40
0.763976789998163
40
0.845615488386625
40
0.924276395492978
40
1
40
1
40
1
40
1
41
1
10
57.5901186384098
20
30.9812734893215
30
0
41
1
10
57.5885415273356
20
30.9819496850206
30
0
41
1
10
57.5854344682341
20
30.9832818549835
30
0
41
1
10
57.5809243323184
20
30.9855770156533
30
0
41
1
10
57.5766153234622
20
30.9880308534472
30
0
41
1
10
57.572512622517
20
30.9906474810406
30
0
41
1
10
57.5686149102103
20
30.9934029725073
30
0
41
1
10
57.5649224452295
20
30.9962810978358
30
0
41
1
10
57.5614353720448
20
30.999264831746
30
0
41
1
10
57.5581528367138
20
31.0023366182316
30
0
41
1
10
57.5550778698624
20
31.0054853292608
30
0
41
1
10
57.552199683592
20
31.008679899611
30
0
41
1
10
57.5504035869185
20
31.0109106507846
30
0
41
1
10
57.5495226247498
20
31.0120048053592
30
0
0
SPLINE
5
143
100
AcDbEntity
8
1
62
256
6
ByLayer
370
18
48
1
60
0
100
AcDbSpline
70
4
71
3
72
16
73
12
40
0
40
0
40
0
40
0
40
0.11731955209595
40
0.233085853241665
40
0.347299362202343
40
0.459960556706247
40
0.571069934503125
40
0.680628014495723
40
0.788635337949903
40
0.895092469791814
40
1
40
1
40
1
40
1
41
1
10
57.7489454154498
20
30.9261979503869
30
0
41
1
10
57.7426777667175
20
30.9280098113906
30
0
41
1
10
57.7302254497208
20
30.9316095452837
30
0
41
1
10
57.7117192560501
20
30.9372918435796
30
0
41
1
10
57.6934972967514
20
30.9431255105662
30
0
41
1
10
57.6755628434143
20
30.9491239823832
30
0
41
1
10
57.6579151154144
20
30.955272767606
30
0
41
1
10
57.6405540289176
20
30.9615631094022
30
0
41
1
10
57.6234806581602
20
30.9679913275185
30
0
41
1
10
57.6066908752726
20
30.9745291270345
30
0
41
1
10
57.5956156516846
20
30.9790363834165
30
0
41
1
10
57.5901186384098
20
30.9812734893285
30
0
0
SPLINE
5
144
100
AcDbEntity
8
1
62
256
6
ByLayer
370
18
48
1
60
0
100
AcDbSpline
70
4
71
2
72
10
73
7
40
0
40
0
40
0
40
0.5
40
0.5
40
0.75
40
0.75
40
1
40
1
40
1
41
1
10
57.7489454154403
20
30.9261979504229
30
0
41
1
10
57.8165392416629
20
30.9068212662844
30
0
41
1
10
57.8642354827659
20
30.8551810431714
30
0
41
1
10
57.8902224727177
20
30.8270452000084
30
0
41
1
10
57.9068593747272
20
30.7912188905061
30
0
41
1
10
57.9248252361492
20
30.7525307674764
30
0
41
1
10
57.9289461970798
20
30.7095155046322
30
0
0
SPLINE
5
145
100
AcDbEntity
8
1
62
256
6
ByLayer
370
18
48
1
60
0
100
AcDbSpline
70
4
71
2
72
6
73
3
40
0
40
0
40
0
40
1
40
1
40
1
41
1
10
57.9289461971178
20
30.7095155047182
30
0
41
1
10
57.9378374892899
20
30.6143121349446
30
0
41
1
10
57.9378609595283
20
30.5187957680523
30
0
0
SPLINE
5
146
100
AcDbEntity
8
1
62
256
6
ByLayer
370
18
48
1
60
0
100
AcDbSpline
70
4
71
3
72
17
73
13
40
0
40
0
40
0
40
0
40
0.10031741181697
40
0.200541310293309
40
0.300680278273328
40
0.400742920447469
40
0.500737861201741
40
0.600673742442696
40
0.700559221399157
40
0.800402968404838
40
0.900213664663583
40
1
40
1
40
1
40
1
41
1
10
57.9289461971198
20
30.2880449725394
30
0
41
1
10
57.9295231228816
20
30.2943903273405
30
0
41
1
10
57.9306764366095
20
30.3070751219643
30
0
41
1
10
57.9321818251211
20
30.3261322033485
30
0
41
1
10
57.933521626251
20
30.3451969815231
30
0
41
1
10
57.9346798037511
20
30.3642707575547
30
0
41
1
10
57.9356607269912
20
30.3833510656775
30
0
41
1
10
57.9364629358427
20
30.4024364484599
30
0
41
1
10
57.9370879043614
20
30.4215251819916
30
0
41
1
10
57.9375311975089
20
30.4406156061118
30
0
41
1
10
57.9378090731843
20
30.4597060779128
30
0
41
1
10
57.9378436654887
20
30.4724330954711
30
0
41
1
10
57.9378609595298
20
30.4787958275806
30
0
0
SPLINE
5
147
100
AcDbEntity
8
1
62
256
6
ByLayer
370
18
48
1
60
0
100
AcDbSpline
70
4
71
3
72
38
73
34
40
0
40
0
40
0
40
0
40
0.0320161803190448
40
0.0634137556495118
40
0.0941938978101107
40
0.124357850627713
40
0.153906935790701
40
0.182842559292632
40
0.211166218534099
40
0.238879510162443
40
0.265984138740218
40
0.29248192634399
40
0.318374823211782
40
0.343664919571546
40
0.368354458804057
40
0.392445852114297
40
0.415941694911103
40
0.438844785123569
40
0.461158143716725
40
0.482885037704947
40
0.504029006008769
40
0.551366811163283
40
0.597409666800358
40
0.642207857910827
40
0.685815975457087
40
0.728293199079296
40
0.769703557231243
40
0.810116149643025
40
0.849605314210597
40
0.888250718110496
40
0.92613735164932
40
0.963355403684628
40
1
40
1
40
1
40
1
41
1
10
57.7489454154398
20
30.0707342058944
30
0
41
1
10
57.7515736233645
20
30.0715198790754
30
0
41
1
10
57.7567792579365
20
30.073076044946
30
0
41
1
10
57.7644507904015
20
30.0757255430245
30
0
41
1
10
57.7719249095611
20
30.0785628112066
30
0
41
1
10
57.7791975153445
20
30.0815985580919
30
0
41
1
10
57.7862696764339
20
30.0848136670014
30
0
41
1
10
57.7931411178625
20
30.0881970015865
30
0
41
1
10
57.7998119140343
20
30.0917356089105
30
0
41
1
10
57.8062820488616
20
30.0954172932183
30
0
41
1
10
57.8125515300005
20
30.0992299730953
30
0
41
1
10
57.8186203592439
20
30.1031618710533
30
0
41
1
10
57.8244885401617
20
30.1072014845098
30
0
41
1
10
57.830156076366
20
30.1113376108708
30
0
41
1
10
57.8356229711865
20
30.1155593564344
30
0
41
1
10
57.8408892306565
20
30.1198561462978
30
0
41
1
10
57.8459548524152
20
30.1242177350366
30
0
41
1
10
57.8508198658017
20
30.1286342035792
30
0
41
1
10
57.85548418791
20
30.1330959991581
30
0
41
1
10
57.8599481402176
20
30.1375938135108
30
0
41
1
10
57.8660095567996
20
30.1440288947972
30
0
41
1
10
57.8734588192031
20
30.152630685031
30
0
41
1
10
57.8820027422794
20
30.1637188987429
30
0
41
1
10
57.8898489226433
20
30.1751820000156
30
0
41
1
10
57.8969976055376
20
30.1869744614707
30
0
41
1
10
57.9034486190904
20
30.1990517499825
30
0
41
1
10
57.9092017357356
20
30.2113697620713
30
0
41
1
10
57.9142571546105
20
30.2238850509337
30
0
41
1
10
57.9186132961069
20
30.2365553198647
30
0
41
1
10
57.9222748801837
20
30.2493380742677
30
0
41
1
10
57.9252236999945
20
30.2621960826091
30
0
41
1
10
57.9275246334316
20
30.2750780570712
30
0
41
1
10
57.9284748015059
20
30.2837450971975
30
0
41
1
10
57.9289461970798
20
30.2880449726253
30
0
0
SPLINE
5
148
100
AcDbEntity
8
1
62
256
6
ByLayer
370
18
48
1
60
0
100
AcDbSpline
70
4
71
2
72
6
73
3
40
0
40
0
40
0
40
1
40
1
40
1
41
1
10
57.7489454154488
20
30.0707342059304
30
0
41
1
10
57.6679467190095
20
30.0473406390518
30
0
41
1
10
57.5901186384093
20
30.0151042572303
30
0
0
SPLINE
5
149
100
AcDbEntity
8
1
62
256
6
ByLayer
370
18
48
1
60
0
100
AcDbSpline
70
4
71
2
72
6
73
3
40
0
40
0
40
0
40
1
40
1
40
1
41
1
10
57.5901186384083
20
30.0151042572373
30
0
41
1
10
57.565819759415
20
30.0048925441628
30
0
41
1
10
57.5495226247478
20
29.9842312344516
30
0
0
LINE
5
7D
100
AcDbEntity
8
1
62
256
6
ByLayer
370
18
48
1
60
0
100
AcDbLine
10
20.279208
20
25
30
0
11
0.3
21
25
31
0
39
0
210
0
220
0
230
1
0
LINE
5
7E
100
AcDbEntity
8
1
62
256
6
ByLayer
370
18
48
1
60
0
100
AcDbLine
10
0.3
20
-25
30
0
11
20
21
-25
31
0
39
0
210
0
220
0
230
1
0
LINE
5
7F
100
AcDbEntity
8
1
62
256
6
ByLayer
370
18
48
1
60
0
100
AcDbLine
10
0
20
-24.7
30
0
11
0.3
21
-25
31
0
39
0
210
0
220
0
230
1
0
LINE
5
80
100
AcDbEntity
8
1
62
256
6
ByLayer
370
18
48
1
60
0
100
AcDbLine
10
0.3
20
25
30
0
11
0
21
24.7
31
0
39
0
210
0
220
0
230
1
0
LINE
5
81
100
AcDbEntity
8
81
62
256
6
ByLayer
370
18
48
1
60
0
100
AcDbLine
10
65
20
33
30
0
11
70
21
33
31
0
39
0
210
0
220
0
230
1
0
LINE
5
82
100
AcDbEntity
8
80
62
256
6
ByLayer
370
18
48
1
60
0
100
AcDbLine
10
0
20
0
30
0
11
-5
21
0
31
0
39
0
210
0
220
0
230
1
0
LINE
5
83
100
AcDbEntity
8
1
62
256
6
ByLayer
370
18
48
1
60
0
100
AcDbLine
10
55.336855
20
32.774349
30
0
11
55.337144
21
32.936424
31
0
39
0
210
0
220
0
230
1
0
LINE
5
84
100
AcDbEntity
8
1
62
256
6
ByLayer
370
18
48
1
60
0
100
AcDbLine
10
57.806193
20
32.60798
30
0
11
57.806769
21
32.930811
31
0
39
0
210
0
220
0
230
1
0
LINE
5
85
100
AcDbEntity
8
1
62
256
6
ByLayer
370
13
48
1
60
0
100
AcDbLine
10
21.593923
20
26.15
30
0
11
23.2
21
26.15
31
0
39
0
210
0
220
0
230
1
0
LINE
5
86
100
AcDbEntity
8
1
62
256
6
ByLayer
370
13
48
1
60
0
100
AcDbLine
10
23.2
20
26.15
30
0
11
23.2
21
25.15
31
0
39
0
210
0
220
0
230
1
0
LINE
5
87
100
AcDbEntity
8
1
62
256
6
ByLayer
370
18
48
1
60
0
100
AcDbLine
10
27.280343
20
40.646503
30
0
11
52.920615
21
40.646503
31
0
39
0
210
0
220
0
230
1
0
LINE
5
88
100
AcDbEntity
8
1
62
256
6
ByLayer
370
18
48
1
60
0
100
AcDbLine
10
27.400188
20
32.71717
30
0
11
26.893238
21
32.71717
31
0
39
0
210
0
220
0
230
1
0
LINE
5
89
100
AcDbEntity
8
1
62
256
6
ByLayer
370
18
48
1
60
0
100
AcDbLine
10
53.730329
20
32.936424
30
0
11
55.337144
21
32.936424
31
0
39
0
210
0
220
0
230
1
0
LINE
5
8A
100
AcDbEntity
8
1
62
256
6
ByLayer
370
18
48
1
60
0
100
AcDbLine
10
57.806769
20
32.930811
30
0
11
63.108755
21
32.930811
31
0
39
0
210
0
220
0
230
1
0
LINE
5
8B
100
AcDbEntity
8
1
62
256
6
ByLayer
370
18
48
1
60
0
100
AcDbLine
10
64
20
33.615
30
0
11
64
21
32.969729
31
0
39
0
210
0
220
0
230
1
0
LINE
5
8C
100
AcDbEntity
8
1
62
256
6
ByLayer
370
13
48
1
60
0
100
AcDbLine
10
23.2
20
26.15
30
0
11
23.2
21
32.203604
31
0
39
0
210
0
220
0
230
1
0
LINE
5
8D
100
AcDbEntity
8
1
62
256
6
ByLayer
370
13
48
1
60
0
100
AcDbLine
10
23.2
20
26.15
30
0
11
26.893238
21
26.15
31
0
39
0
210
0
220
0
230
1
0
LINE
5
8E
100
AcDbEntity
8
1
62
256
6
ByLayer
370
18
48
1
60
0
100
AcDbLine
10
26.893238
20
26.15
30
0
11
26.893238
21
32.71717
31
0
39
0
210
0
220
0
230
1
0
LINE
5
8F
100
AcDbEntity
8
1
62
256
6
ByLayer
370
18
48
1
60
0
100
AcDbLine
10
27.279216
20
32.684509
30
0
11
27.279216
21
26.15
31
0
39
0
210
0
220
0
230
1
0
LINE
5
90
100
AcDbEntity
8
1
62
256
6
ByLayer
370
13
48
1
60
0
100
AcDbLine
10
27.4
20
26.15
30
0
11
27.279216
21
26.15
31
0
39
0
210
0
220
0
230
1
0
LINE
5
91
100
AcDbEntity
8
1
62
256
6
ByLayer
370
18
48
1
60
0
100
AcDbLine
10
24.399843
20
25.15
30
0
11
23.400157
21
25.15
31
0
39
0
210
0
220
0
230
1
0
LINE
5
92
100
AcDbEntity
8
1
62
256
6
ByLayer
370
18
48
1
60
0
100
AcDbLine
10
24.400047
20
-13.500009
30
0
11
24.065604
21
-13.500009
31
0
39
0
210
0
220
0
230
1
0
LINE
5
93
100
AcDbEntity
8
1
62
256
6
ByLayer
370
18
48
1
60
0
100
AcDbLine
10
27.279216
20
32.684509
30
0
11
27.400018
21
32.684509
31
0
39
0
210
0
220
0
230
1
0
LINE
5
94
100
AcDbEntity
8
1
62
256
6
ByLayer
370
13
48
1
60
0
100
AcDbLine
10
47
20
29.665181
30
0
11
47
21
28.364427
31
0
39
0
210
0
220
0
230
1
0
LINE
5
95
100
AcDbEntity
8
1
62
256
6
ByLayer
370
18
48
1
60
0
100
AcDbLine
10
46.216465
20
33.876222
30
0
11
43.360174
21
33.876222
31
0
39
0
210
0
220
0
230
1
0
LINE
5
96
100
AcDbEntity
8
1
62
256
6
ByLayer
370
18
48
1
60
0
100
AcDbLine
10
45.4
20
28.325004
30
0
11
45.4
21
28.328926
31
0
39
0
210
0
220
0
230
1
0
LINE
5
97
100
AcDbEntity
8
1
62
256
6
ByLayer
370
18
48
1
60
0
100
AcDbLine
10
53.5
20
32.966011
30
0
11
53.5
21
28.686753
31
0
39
0
210
0
220
0
230
1
0
LINE
5
98
100
AcDbEntity
8
1
62
256
6
ByLayer
370
18
48
1
60
0
100
AcDbLine
10
45.4
20
28.325004
30
0
11
45.4
21
26.783869
31
0
39
0
210
0
220
0
230
1
0
LINE
5
99
100
AcDbEntity
8
1
62
256
6
ByLayer
370
13
48
1
60
0
100
AcDbLine
10
43.360174
20
28.325004
30
0
11
45.4
21
28.325004
31
0
39
0
210
0
220
0
230
1
0
LINE
5
9A
100
AcDbEntity
8
1
62
256
6
ByLayer
370
18
48
1
60
0
100
AcDbLine
10
24.4
20
25.15
30
0
11
26.4
21
25.15
31
0
39
0
210
0
220
0
230
1
0
LINE
5
9B
100
AcDbEntity
8
1
62
256
6
ByLayer
370
18
48
1
60
0
100
AcDbLine
10
33.9
20
-13.500009
30
0
11
24.4
21
-13.500009
31
0
39
0
210
0
220
0
230
1
0
LINE
5
9C
100
AcDbEntity
8
1
62
256
6
ByLayer
370
18
48
1
60
0
100
AcDbLine
10
24.4
20
-13.500009
30
0
11
24.4
21
25.15
31
0
39
0
210
0
220
0
230
1
0
LINE
5
9D
100
AcDbEntity
8
1
62
256
6
ByLayer
370
18
48
1
60
0
100
AcDbLine
10
27.4
20
26.15
30
0
11
27.4
21
33.876222
31
0
39
0
210
0
220
0
230
1
0
LINE
5
9E
100
AcDbEntity
8
1
62
256
6
ByLayer
370
18
48
1
60
0
100
AcDbLine
10
27.4
20
33.876222
30
0
11
43.360174
21
33.876222
31
0
39
0
210
0
220
0
230
1
0
LINE
5
9F
100
AcDbEntity
8
1
62
256
6
ByLayer
370
18
48
1
60
0
100
AcDbLine
10
33.9
20
-13.500009
30
0
11
45.4
21
14.599991
31
0
39
0
210
0
220
0
230
1
0
LINE
5
A0
100
AcDbEntity
8
1
62
256
6
ByLayer
370
18
48
1
60
0
100
AcDbLine
10
45.4
20
14.599991
30
0
11
45.4
21
26.783869
31
0
39
0
210
0
220
0
230
1
0
LINE
5
A1
100
AcDbEntity
8
1
62
256
6
ByLayer
370
18
48
1
60
0
100
AcDbLine
10
43.360174
20
28.325004
30
0
11
43.360174
21
33.876222
31
0
39
0
210
0
220
0
230
1
0
LINE
5
A2
100
AcDbEntity
8
1
62
256
6
ByLayer
370
13
48
1
60
0
100
AcDbLine
10
21.438319
20
25.15
30
0
11
21.438319
21
22.336278
31
0
39
0
210
0
220
0
230
1
0
LINE
5
A3
100
AcDbEntity
8
1
62
256
6
ByLayer
370
18
48
1
60
0
100
AcDbLine
10
23.4
20
-13.555776
30
0
11
23.4
21
25.15
31
0
39
0
210
0
220
0
230
1
0
LINE
5
A4
100
AcDbEntity
8
1
62
256
6
ByLayer
370
18
48
1
60
0
100
AcDbLine
10
23.4
20
25.15
30
0
11
22.044729
21
25.15
31
0
39
0
210
0
220
0
230
1
0
LINE
5
A5
100
AcDbEntity
8
1
62
256
6
ByLayer
370
13
48
1
60
0
100
AcDbLine
10
11.461325
20
-7.529667
30
0
11
11.461325
21
-23.83913
31
0
39
0
210
0
220
0
230
1
0
LINE
5
A6
100
AcDbEntity
8
1
62
256
6
ByLayer
370
13
48
1
60
0
100
AcDbLine
10
11.894338
20
-8.055848
30
0
11
11.894338
21
-23.666502
31
0
39
0
210
0
220
0
230
1
0
LINE
5
A7
100
AcDbEntity
8
1
62
256
6
ByLayer
370
13
48
1
60
0
100
AcDbLine
10
8.105662
20
23.666502
30
0
11
8.105662
21
8.055848
31
0
39
0
210
0
220
0
230
1
0
LINE
5
A8
100
AcDbEntity
8
1
62
256
6
ByLayer
370
13
48
1
60
0
100
AcDbLine
10
8.538675
20
23.83913
30
0
11
8.538675
21
7.529667
31
0
39
0
210
0
220
0
230
1
0
LINE
5
A9
100
AcDbEntity
8
1
62
256
6
ByLayer
370
13
48
1
60
0
100
AcDbLine
10
8.105662
20
-8.055848
30
0
11
8.105662
21
-23.666502
31
0
39
0
210
0
220
0
230
1
0
LINE
5
AA
100
AcDbEntity
8
1
62
256
6
ByLayer
370
13
48
1
60
0
100
AcDbLine
10
8.538675
20
-7.529667
30
0
11
8.538675
21
-23.83913
31
0
39
0
210
0
220
0
230
1
0
LINE
5
AB
100
AcDbEntity
8
1
62
256
6
ByLayer
370
13
48
1
60
0
100
AcDbLine
10
11.461325
20
23.83913
30
0
11
11.461325
21
7.529667
31
0
39
0
210
0
220
0
230
1
0
LINE
5
AC
100
AcDbEntity
8
1
62
256
6
ByLayer
370
13
48
1
60
0
100
AcDbLine
10
11.894338
20
23.666502
30
0
11
11.894338
21
8.055848
31
0
39
0
210
0
220
0
230
1
0
LINE
5
AD
100
AcDbEntity
8
1
62
256
6
ByLayer
370
18
48
1
60
0
100
AcDbLine
10
11.461325
20
7.529667
30
0
11
8.538675
21
7.529667
31
0
39
0
210
0
220
0
230
1
0
LINE
5
AE
100
AcDbEntity
8
1
62
256
6
ByLayer
370
18
48
1
60
0
100
AcDbLine
10
8.538675
20
23.83913
30
0
11
11.461325
21
23.83913
31
0
39
0
210
0
220
0
230
1
0
LINE
5
AF
100
AcDbEntity
8
1
62
256
6
ByLayer
370
18
48
1
60
0
100
AcDbLine
10
8.538675
20
-7.529667
30
0
11
11.461325
21
-7.529667
31
0
39
0
210
0
220
0
230
1
0
LINE
5
B0
100
AcDbEntity
8
1
62
256
6
ByLayer
370
18
48
1
60
0
100
AcDbLine
10
11.461325
20
-23.83913
30
0
11
8.538675
21
-23.83913
31
0
39
0
210
0
220
0
230
1
0
LINE
5
B1
100
AcDbEntity
8
1
62
256
6
ByLayer
370
18
48
1
60
0
100
AcDbLine
10
20.063901
20
-17.67767
30
0
11
20
21
-25
31
0
39
0
210
0
220
0
230
1
0
LINE
5
B2
100
AcDbEntity
8
1
62
256
6
ByLayer
370
13
48
1
60
0
100
AcDbLine
10
20.279208
20
25
30
0
11
20.279208
21
20.117129
31
0
39
0
210
0
220
0
230
1
0
LINE
5
B3
100
AcDbEntity
8
1
62
256
6
ByLayer
370
18
48
1
60
0
100
AcDbLine
10
0.3
20
-25
30
0
11
0.3
21
25
31
0
39
0
210
0
220
0
230
1
0
LINE
5
B4
100
AcDbEntity
8
1
62
256
6
ByLayer
370
18
48
1
60
0
100
AcDbLine
10
0
20
-24.7
30
0
11
0
21
24.7
31
0
39
0
210
0
220
0
230
1
0
LINE
5
B5
100
AcDbEntity
8
1
62
256
6
ByLayer
370
18
48
1
60
0
100
AcDbLine
10
20.065756
20
-17.465103
30
0
11
20.063901
21
-17.67767
31
0
39
0
210
0
220
0
230
1
0
LINE
5
B6
100
AcDbEntity
8
1
62
256
6
ByLayer
370
13
48
1
60
0
100
AcDbLine
10
20.078012
20
-17.185191
30
0
11
20.078012
21
19.158624
31
0
39
0
210
0
220
0
230
1
0
LINE
5
B7
100
AcDbEntity
8
SK1
62
256
6
ByLayer
370
18
48
1
60
0
100
AcDbLine
10
-0.2
20
-6.078431
30
0
11
-0.2
21
-17.833485
31
0
39
0
210
0
220
0
230
1
0
LINE
5
B9
100
AcDbEntity
8
SK1
62
256
6
ByLayer
370
18
48
1
60
0
100
AcDbLine
10
-0.2
20
17.833485
30
0
11
-0.2
21
6.078432
31
0
39
0
210
0
220
0
230
1
0
LINE
5
BA
100
AcDbEntity
8
SK1
62
256
6
ByLayer
370
13
48
1
60
0
100
AcDbLine
10
-1.307107
20
3.918083
30
0
11
-1.307107
21
-3.918083
31
0
39
0
210
0
220
0
230
1
0
LINE
5
BB
100
AcDbEntity
8
SK1
62
256
6
ByLayer
370
18
48
1
60
0
100
AcDbLine
10
-1.99504
20
17.325269
30
0
11
-1.99504
21
17.320045
31
0
39
0
210
0
220
0
230
1
0
LINE
5
BC
100
AcDbEntity
8
SK1
62
256
6
ByLayer
370
18
48
1
60
0
100
AcDbLine
10
-1.99504
20
-17.320045
30
0
11
-1.99504
21
-17.325269
31
0
39
0
210
0
220
0
230
1
0
LINE
5
BD
100
AcDbEntity
8
1
62
256
6
ByLayer
370
18
48
1
60
0
100
AcDbLine
10
58.63
20
28.400007
30
0
11
60.124301
21
28.400007
31
0
39
0
210
0
220
0
230
1
0
LINE
5
BE
100
AcDbEntity
8
1
62
256
6
ByLayer
370
18
48
1
60
0
100
AcDbLine
10
60.5
20
28.183097
30
0
11
60.124301
21
28.400007
31
0
39
0
210
0
220
0
230
1
0
LINE
5
BF
100
AcDbEntity
8
1
62
256
6
ByLayer
370
18
48
1
60
0
100
AcDbLine
10
64.686914
20
28.000293
30
0
11
60.5
21
28.183097
31
0
39
0
210
0
220
0
230
1
0
LINE
5
C0
100
AcDbEntity
8
1
62
256
6
ByLayer
370
18
48
1
60
0
100
AcDbLine
10
65
20
28.300007
30
0
11
65
21
32.7
31
0
39
0
210
0
220
0
230
1
0
LINE
5
C1
100
AcDbEntity
8
1
62
256
6
ByLayer
370
18
48
1
60
0
100
AcDbLine
10
64.686914
20
32.999714
30
0
11
60.5
21
32.81691
31
0
39
0
210
0
220
0
230
1
0
LINE
5
C2
100
AcDbEntity
8
1
62
256
6
ByLayer
370
18
48
1
60
0
100
AcDbLine
10
60.5
20
32.81691
30
0
11
60.124301
21
32.600001
31
0
39
0
210
0
220
0
230
1
0
LINE
5
C3
100
AcDbEntity
8
1
62
256
6
ByLayer
370
13
48
1
60
0
100
AcDbLine
10
57
20
30.478796
30
0
11
57.937861
21
30.478796
31
0
39
0
210
0
220
0
230
1
0
LINE
5
C4
100
AcDbEntity
8
1
62
256
6
ByLayer
370
13
48
1
60
0
100
AcDbLine
10
56.999915
20
30.518796
30
0
11
57.937861
21
30.518796
31
0
39
0
210
0
220
0
230
1
0
LINE
5
C5
100
AcDbEntity
8
1
62
256
6
ByLayer
370
13
48
1
60
0
100
AcDbLine
10
57.000172
20
30.288045
30
0
11
57.928946
21
30.288045
31
0
39
0
210
0
220
0
230
1
0
LINE
5
C6
100
AcDbEntity
8
1
62
256
6
ByLayer
370
13
48
1
60
0
100
AcDbLine
10
56.999748
20
30.709516
30
0
11
57.928946
21
30.709516
31
0
39
0
210
0
220
0
230
1
0
LINE
5
C7
100
AcDbEntity
8
1
62
256
6
ByLayer
370
13
48
1
60
0
100
AcDbLine
10
56.912067
20
30.070734
30
0
11
57.748945
21
30.070734
31
0
39
0
210
0
220
0
230
1
0
LINE
5
C8
100
AcDbEntity
8
1
62
256
6
ByLayer
370
13
48
1
60
0
100
AcDbLine
10
56.90936
20
30.926198
30
0
11
57.748945
21
30.926198
31
0
39
0
210
0
220
0
230
1
0
LINE
5
C9
100
AcDbEntity
8
1
62
256
6
ByLayer
370
13
48
1
60
0
100
AcDbLine
10
57.590119
20
30.015104
30
0
11
56.807592
21
30.015104
31
0
39
0
210
0
220
0
230
1
0
LINE
5
CA
100
AcDbEntity
8
1
62
256
6
ByLayer
370
13
48
1
60
0
100
AcDbLine
10
57.590119
20
30.981273
30
0
11
56.804968
21
30.981273
31
0
39
0
210
0
220
0
230
1
0
LINE
5
CB
100
AcDbEntity
8
1
62
256
6
ByLayer
370
13
48
1
60
0
100
AcDbLine
10
56.773237
20
29.984231
30
0
11
57.549523
21
29.984231
31
0
39
0
210
0
220
0
230
1
0
LINE
5
CC
100
AcDbEntity
8
1
62
256
6
ByLayer
370
13
48
1
60
0
100
AcDbLine
10
56.771975
20
31.012005
30
0
11
57.549523
21
31.012005
31
0
39
0
210
0
220
0
230
1
0
LINE
5
CD
100
AcDbEntity
8
1
62
256
6
ByLayer
370
13
48
1
60
0
100
AcDbLine
10
56.761837
20
29.892329
30
0
11
57.477691
21
29.892329
31
0
39
0
210
0
220
0
230
1
0
LINE
5
CE
100
AcDbEntity
8
1
62
256
6
ByLayer
370
13
48
1
60
0
100
AcDbLine
10
56.760282
20
31.103657
30
0
11
57.477691
21
31.103657
31
0
39
0
210
0
220
0
230
1
0
LINE
5
CF
100
AcDbEntity
8
1
62
256
6
ByLayer
370
13
48
1
60
0
100
AcDbLine
10
56.756253
20
29.848025
30
0
11
57.457959
21
29.848025
31
0
39
0
210
0
220
0
230
1
0
LINE
5
D0
100
AcDbEntity
8
1
62
256
6
ByLayer
370
18
48
1
60
0
100
AcDbLine
10
56.572224
20
28.397592
30
0
11
57.246355
21
28.397592
31
0
39
0
210
0
220
0
230
1
0
LINE
5
D1
100
AcDbEntity
8
1
62
256
6
ByLayer
370
13
48
1
60
0
100
AcDbLine
10
56.604114
20
28.638843
30
0
11
57.246355
21
28.638843
31
0
39
0
210
0
220
0
230
1
0
LINE
5
D2
100
AcDbEntity
8
1
62
256
6
ByLayer
370
13
48
1
60
0
100
AcDbLine
10
56.606318
20
28.65621
30
0
11
57.247874
21
28.65621
31
0
39
0
210
0
220
0
230
1
0
LINE
5
D3
100
AcDbEntity
8
1
62
256
6
ByLayer
370
13
48
1
60
0
100
AcDbLine
10
56.754703
20
31.147891
30
0
11
57.457959
21
31.147891
31
0
39
0
210
0
220
0
230
1
0
LINE
5
D4
100
AcDbEntity
8
1
62
256
6
ByLayer
370
13
48
1
60
0
100
AcDbLine
10
56.60157
20
32.338973
30
0
11
57.247874
21
32.338973
31
0
39
0
210
0
220
0
230
1
0
LINE
5
D5
100
AcDbEntity
8
1
62
256
6
ByLayer
370
13
48
1
60
0
100
AcDbLine
10
56.599219
20
32.356335
30
0
11
57.246355
21
32.356335
31
0
39
0
210
0
220
0
230
1
0
LINE
5
D6
100
AcDbEntity
8
1
62
256
6
ByLayer
370
18
48
1
60
0
100
AcDbLine
10
58.63
20
32.600001
30
0
11
60.124301
21
32.600001
31
0
39
0
210
0
220
0
230
1
0
LINE
5
D7
100
AcDbEntity
8
1
62
256
6
ByLayer
370
18
48
1
60
0
100
AcDbLine
10
60.138002
20
32.608001
30
0
11
56.564584
21
32.608001
31
0
39
0
210
0
220
0
230
1
0
LINE
5
D8
100
AcDbEntity
8
1
62
256
6
ByLayer
370
18
48
1
60
0
100
AcDbLine
10
56.566143
20
32.597586
30
0
11
57.246355
21
32.597586
31
0
39
0
210
0
220
0
230
1
0
LINE
5
D9
100
AcDbEntity
8
1
62
256
6
ByLayer
370
18
48
1
60
0
100
AcDbLine
10
58.63
20
28.400007
30
0
11
58.63
21
32.600001
31
0
39
0
210
0
220
0
230
1
0
LINE
5
DA
100
AcDbEntity
8
1
62
256
6
ByLayer
370
18
48
1
60
0
100
AcDbLine
10
57.246355
20
32.597586
30
0
11
58.63
21
32.600001
31
0
39
0
210
0
220
0
230
1
0
LINE
5
DB
100
AcDbEntity
8
1
62
256
6
ByLayer
370
18
48
1
60
0
100
AcDbLine
10
57.246355
20
32.356335
30
0
11
57.246355
21
32.597586
31
0
39
0
210
0
220
0
230
1
0
LINE
5
DC
100
AcDbEntity
8
1
62
256
6
ByLayer
370
18
48
1
60
0
100
AcDbLine
10
57.457959
20
31.147891
30
0
11
57.247874
21
32.338973
31
0
39
0
210
0
220
0
230
1
0
LINE
5
DD
100
AcDbEntity
8
1
62
256
6
ByLayer
370
18
48
1
60
0
100
AcDbLine
10
57.549523
20
31.012005
30
0
11
57.477691
21
31.103657
31
0
39
0
210
0
220
0
230
1
0
LINE
5
DE
100
AcDbEntity
8
1
62
256
6
ByLayer
370
18
48
1
60
0
100
AcDbLine
10
57.937861
20
30.478796
30
0
11
57.937861
21
30.518796
31
0
39
0
210
0
220
0
230
1
0
LINE
5
DF
100
AcDbEntity
8
1
62
256
6
ByLayer
370
18
48
1
60
0
100
AcDbLine
10
57.549523
20
29.984231
30
0
11
57.477691
21
29.892329
31
0
39
0
210
0
220
0
230
1
0
LINE
5
E0
100
AcDbEntity
8
1
62
256
6
ByLayer
370
18
48
1
60
0
100
AcDbLine
10
57.457959
20
29.848025
30
0
11
57.247874
21
28.65621
31
0
39
0
210
0
220
0
230
1
0
LINE
5
E1
100
AcDbEntity
8
1
62
256
6
ByLayer
370
18
48
1
60
0
100
AcDbLine
10
57.246355
20
28.638843
30
0
11
57.246355
21
28.397592
31
0
39
0
210
0
220
0
230
1
0
LINE
5
E2
100
AcDbEntity
8
1
62
256
6
ByLayer
370
18
48
1
60
0
100
AcDbLine
10
57.246355
20
28.397592
30
0
11
58.63
21
28.400007
31
0
39
0
210
0
220
0
230
1
0
LINE
5
E3
100
AcDbEntity
8
SK2
62
256
6
ByLayer
370
18
48
1
60
0
100
AcDbLine
10
-39.975
20
-25
30
0
11
-39.975
21
25
31
0
39
0
210
0
220
0
230
1
0
LINE
5
E5
100
AcDbEntity
8
SK2
62
256
6
ByLayer
370
18
48
1
60
0
100
AcDbLine
10
-1.2875
20
25
30
0
11
-41.975
21
25
31
0
39
0
210
0
220
0
230
1
0
LINE
5
E6
100
AcDbEntity
8
SK2
62
256
6
ByLayer
370
18
48
1
60
0
100
AcDbLine
10
-1.2875
20
-25
30
0
11
-41.975
21
-25
31
0
39
0
210
0
220
0
230
1
0
LINE
5
E7
100
AcDbEntity
8
1
62
256
6
ByLayer
370
18
48
1
60
1
100
AcDbLine
10
-39.975
20
25
30
0
11
-39.514216
21
21.500002
31
0
39
0
210
0
220
0
230
1
0
LINE
5
E8
100
AcDbEntity
8
1
62
256
6
ByLayer
370
18
48
1
60
1
100
AcDbLine
10
-39.514216
20
21.500002
30
0
11
-40.435784
21
21.499998
31
0
39
0
210
0
220
0
230
1
0
LINE
5
E9
100
AcDbEntity
8
1
62
256
6
ByLayer
370
18
48
1
60
1
100
AcDbLine
10
-40.435784
20
21.499998
30
0
11
-39.975
21
25
31
0
39
0
210
0
220
0
230
1
0
LINE
5
EA
100
AcDbEntity
8
1
62
256
6
ByLayer
370
18
48
1
60
1
100
AcDbLine
10
-39.975
20
-25
30
0
11
-40.435784
21
-21.500002
31
0
39
0
210
0
220
0
230
1
0
LINE
5
EB
100
AcDbEntity
8
1
62
256
6
ByLayer
370
18
48
1
60
1
100
AcDbLine
10
-40.435784
20
-21.500002
30
0
11
-39.514216
21
-21.499998
31
0
39
0
210
0
220
0
230
1
0
LINE
5
EC
100
AcDbEntity
8
1
62
256
6
ByLayer
370
18
48
1
60
1
100
AcDbLine
10
-39.514216
20
-21.499998
30
0
11
-39.975
21
-25
31
0
39
0
210
0
220
0
230
1
0
LINE
5
14E
100
AcDbEntity
8
1
62
256
6
ByLayer
370
18
48
1
60
1
100
AcDbLine
10
-39.975
20
25
30
0
11
-39.514216
21
21.500002
31
0
39
0
210
0
220
0
230
1
0
LINE
5
14F
100
AcDbEntity
8
1
62
256
6
ByLayer
370
18
48
1
60
1
100
AcDbLine
10
-39.514216
20
21.500002
30
0
11
-40.435784
21
21.499998
31
0
39
0
210
0
220
0
230
1
0
LINE
5
150
100
AcDbEntity
8
1
62
256
6
ByLayer
370
18
48
1
60
1
100
AcDbLine
10
-40.435784
20
21.499998
30
0
11
-39.975
21
25
31
0
39
0
210
0
220
0
230
1
0
LINE
5
152
100
AcDbEntity
8
1
62
256
6
ByLayer
370
18
48
1
60
1
100
AcDbLine
10
-39.975
20
-25
30
0
11
-40.435784
21
-21.500002
31
0
39
0
210
0
220
0
230
1
0
LINE
5
153
100
AcDbEntity
8
1
62
256
6
ByLayer
370
18
48
1
60
1
100
AcDbLine
10
-40.435784
20
-21.500002
30
0
11
-39.514216
21
-21.499998
31
0
39
0
210
0
220
0
230
1
0
LINE
5
154
100
AcDbEntity
8
1
62
256
6
ByLayer
370
18
48
1
60
1
100
AcDbLine
10
-39.514216
20
-21.499998
30
0
11
-39.975
21
-25
31
0
39
0
210
0
220
0
230
1
0
MTEXT
5
14A
100
AcDbEntity
8
SK2
62
256
6
ByLayer
370
18
48
1
60
0
100
AcDbMText
10
-41.539634
20
-4.530622
30
0
210
0
220
0
230
1
1
%%c
40
3.5
41
0
44
1.084337
50
90
71
7
72
5
7
iso_b_vert
0
MTEXT
5
14D
100
AcDbEntity
8
SK2
62
256
6
ByLayer
370
18
48
1
60
0
100
AcDbMText
10
-41.539634
20
2.442034
30
0
210
0
220
0
230
1
1
\W0.6740;50
40
3.5
41
0
44
1.084337
50
90
71
7
72
5
7
iso_b_vert
0
MTEXT
5
156
100
AcDbEntity
8
SK6
62
256
6
ByLayer
370
18
48
1
60
0
100
AcDbMText
10
-14.8145
20
-45.588843
30
0
210
0
220
0
230
1
1
\W0.7514;C2A-CC5-RFJ18B-060CB
40
3.5
41
0
44
1.084337
50
0
71
7
72
5
7
iso_b_vert
0
HATCH
5
151
100
AcDbEntity
8
SK2
62
256
6
ByLayer
370
13
48
1
60
0
100
AcDbHatch
10
0
20
0
30
0
210
0
220
0
230
1
2
ANSI31
70
0
71
0
91
1
92
5
93
3
72
1
10
-39.9750000000001
20
25
11
-39.5142162584473
21
21.5000016925532
72
1
10
-39.5142162584473
20
21.5000016925532
11
-40.4357837415528
21
21.4999983074468
72
1
10
-40.4357837415528
20
21.4999983074468
11
-39.9750000000001
21
25
97
0
75
0
76
1
52
0
41
0.0062
77
0
78
1
53
45
43
0
44
0
45
-0.0139193969876572
46
0.0139193969876572
79
0
47
0
98
1
10
0
20
0
0
HATCH
5
155
100
AcDbEntity
8
SK2
62
256
6
ByLayer
370
13
48
1
60
0
100
AcDbHatch
10
0
20
0
30
0
210
0
220
0
230
1
2
ANSI31
70
0
71
0
91
1
92
5
93
3
72
1
10
-39.9750000000001
20
-25
11
-40.4357837415528
21
-21.5000016925532
72
1
10
-40.4357837415528
20
-21.5000016925532
11
-39.5142162584473
21
-21.4999983074468
72
1
10
-39.5142162584473
20
-21.4999983074468
11
-39.9750000000001
21
-25
97
0
75
0
76
1
52
0
41
0.0062
77
0
78
1
53
45
43
0
44
0
45
-0.0139193969876572
46
0.0139193969876572
79
0
47
0
98
1
10
0
20
0
0
DIMENSION
5
159
100
AcDbEntity
8
2
62
256
6
ByLayer
370
18
48
1
60
0
100
AcDbDimension
2
_U0
10
96.1
20
0
30
0
11
96.1
21
16.5
31
0
70
32
71
1
72
1
41
1
210
0
220
0
230
1
3
Standard
100
AcDbAlignedDimension
13
65
23
33
33
0
14
0
24
0
34
0
50
90
100
AcDbRotatedDimension
1001
ACAD
1000
DSTYLE
1002
{
1070
   371
1070
    13
1070
   372
1070
    13
1070
   170
1070
     0
1070
   144
1040
1.0
1070
   277
1070
     2
1070
   284
1070
     8
1070
   278
1070
    46
1070
   146
1040
1.0
1070
   345
1005
16
1070
   347
1005
16
1070
   346
1005
16
1070
   344
1005
0
1070
   343
1005
0
1070
   172
1070
     1
1070
    76
1070
     0
1070
    75
1070
     0
1070
   282
1070
     0
1070
   281
1070
     0
1070
    71
1070
     0
1070
    74
1070
     0
1070
   279
1070
     0
1070
   173
1070
     1
1070
   340
1005
14B
1070
   271
1070
     1
1070
   272
1070
     2
1070
    77
1070
     1
1070
    73
1070
     0
1070
   171
1070
     3
1070
   274
1070
     4
1070
   177
1070
     2
1070
   176
1070
     2
1070
   178
1070
     2
1070
    78
1070
     8
1070
    48
1040
-0.1
1070
    41
1040
3.5
1070
   147
1040
1.75
1070
    42
1040
1.5875
1070
    44
1040
2.0
1070
   140
1040
3.5
1002
}
1001
ACAD_DSTYLE_DIM_LINETYPE
1070
   380
1005
16
1001
ACAD_DSTYLE_DIM_EXT1_LINETYPE
1070
   381
1005
16
1001
ACAD_DSTYLE_DIM_EXT2_LINETYPE
1070
   382
1005
16
0
DIMENSION
5
173
100
AcDbEntity
8
2
62
256
6
ByLayer
370
18
48
1
60
0
100
AcDbDimension
2
_U1
10
85.1
20
33
30
0
11
85.1
21
30.5
31
0
70
32
71
1
72
1
41
1
210
0
220
0
230
1
3
Standard
100
AcDbAlignedDimension
13
65
23
28
33
0
14
65
24
33
34
0
50
90
100
AcDbRotatedDimension
1001
ACAD
1000
DSTYLE
1002
{
1070
   371
1070
    13
1070
   372
1070
    13
1070
   170
1070
     0
1070
   144
1040
1.0
1070
   277
1070
     2
1070
   284
1070
     8
1070
   278
1070
    46
1070
   146
1040
1.0
1070
   345
1005
16
1070
   347
1005
16
1070
   346
1005
16
1070
   344
1005
0
1070
   343
1005
0
1070
   172
1070
     1
1070
    76
1070
     0
1070
    75
1070
     0
1070
   282
1070
     0
1070
   281
1070
     0
1070
    71
1070
     0
1070
    74
1070
     0
1070
   279
1070
     0
1070
   173
1070
     1
1070
   340
1005
14B
1070
   271
1070
     1
1070
   272
1070
     2
1070
    77
1070
     1
1070
    73
1070
     0
1070
   171
1070
     3
1070
   274
1070
     4
1070
   177
1070
     2
1070
   176
1070
     2
1070
   178
1070
     2
1070
    78
1070
     8
1070
    48
1040
-0.1
1070
    41
1040
3.5
1070
   147
1040
1.75
1070
    42
1040
1.5875
1070
    44
1040
2.0
1070
   140
1040
3.5
1002
}
1001
ACAD_DSTYLE_DIM_LINETYPE
1070
   380
1005
16
1001
ACAD_DSTYLE_DIM_EXT1_LINETYPE
1070
   381
1005
16
1001
ACAD_DSTYLE_DIM_EXT2_LINETYPE
1070
   382
1005
16
0
DIMENSION
5
18C
100
AcDbEntity
8
2
62
256
6
ByLayer
370
18
48
1
60
0
100
AcDbDimension
2
_U2
10
65
20
-23.424996
30
0
11
56
21
-23.424996
31
0
70
32
71
1
72
1
41
1
210
0
220
0
230
1
3
Standard
100
AcDbAlignedDimension
13
47
23
28.325004
33
0
14
65
24
28
34
0
50
0
100
AcDbRotatedDimension
1001
ACAD
1000
DSTYLE
1002
{
1070
   371
1070
    13
1070
   372
1070
    13
1070
   170
1070
     0
1070
   144
1040
1.0
1070
   277
1070
     2
1070
   284
1070
     8
1070
   278
1070
    46
1070
   146
1040
1.0
1070
   345
1005
16
1070
   347
1005
16
1070
   346
1005
16
1070
   344
1005
0
1070
   343
1005
0
1070
   172
1070
     1
1070
    76
1070
     0
1070
    75
1070
     0
1070
   282
1070
     0
1070
   281
1070
     0
1070
    71
1070
     0
1070
    74
1070
     0
1070
   279
1070
     0
1070
   173
1070
     1
1070
   340
1005
14B
1070
   271
1070
     1
1070
   272
1070
     2
1070
    77
1070
     1
1070
    73
1070
     1
1070
   171
1070
     3
1070
   274
1070
     4
1070
   177
1070
     2
1070
   176
1070
     2
1070
   178
1070
     2
1070
    78
1070
     8
1070
    48
1040
-0.1
1070
    41
1040
3.5
1070
   147
1040
1.75
1070
    42
1040
1.5875
1070
    44
1040
2.0
1070
   140
1040
3.5
1002
}
1001
ACAD_DSTYLE_DIM_LINETYPE
1070
   380
1005
16
1001
ACAD_DSTYLE_DIM_EXT1_LINETYPE
1070
   381
1005
16
1001
ACAD_DSTYLE_DIM_EXT2_LINETYPE
1070
   382
1005
16
0
DIMENSION
5
1A4
100
AcDbEntity
8
2
62
256
6
ByLayer
370
18
48
1
60
0
100
AcDbDimension
2
_U3
10
65
20
47.25
30
0
11
32.5
21
47.25
31
0
70
32
71
1
72
1
41
1
210
0
220
0
230
1
3
Standard
100
AcDbAlignedDimension
13
0
23
0
33
0
14
65
24
33
34
0
50
0
100
AcDbRotatedDimension
1001
ACAD
1000
DSTYLE
1002
{
1070
   371
1070
    13
1070
   372
1070
    13
1070
   170
1070
     0
1070
   144
1040
1.0
1070
   277
1070
     2
1070
   284
1070
     8
1070
   278
1070
    46
1070
   146
1040
1.0
1070
   345
1005
16
1070
   347
1005
16
1070
   346
1005
16
1070
   344
1005
0
1070
   343
1005
0
1070
   172
1070
     1
1070
    76
1070
     0
1070
    75
1070
     0
1070
   282
1070
     0
1070
   281
1070
     0
1070
    71
1070
     0
1070
    74
1070
     0
1070
   279
1070
     0
1070
   173
1070
     1
1070
   340
1005
14B
1070
   271
1070
     1
1070
   272
1070
     2
1070
    77
1070
     1
1070
    73
1070
     1
1070
   171
1070
     3
1070
   274
1070
     4
1070
   177
1070
     2
1070
   176
1070
     2
1070
   178
1070
     2
1070
    78
1070
     8
1070
    48
1040
-0.1
1070
    41
1040
3.5
1070
   147
1040
1.75
1070
    42
1040
1.5875
1070
    44
1040
2.0
1070
   140
1040
3.5
1002
}
1001
ACAD_DSTYLE_DIM_LINETYPE
1070
   380
1005
16
1001
ACAD_DSTYLE_DIM_EXT1_LINETYPE
1070
   381
1005
16
1001
ACAD_DSTYLE_DIM_EXT2_LINETYPE
1070
   382
1005
16
0
ENDSEC
0
SECTION
2
OBJECTS
0
DICTIONARY
5
22b
330
0
100
AcDbDictionary
280
0
281
1
3
ACAD_GROUP
350
22c
3
ACAD_MLINESTYLE
350
22d
0
DICTIONARY
5
22c
330
0
100
AcDbDictionary
280
0
281
1
0
DICTIONARY
5
22d
330
0
100
AcDbDictionary
280
0
281
1
3
Standard
350
18
0
MLINESTYLE
5
18
330
22d
100
AcDbMlineStyle
2
Standard
70
0
3

62
256
51
90
52
90
71
2
49
-0.5
62
256
6
ByLayer
49
0.5
62
256
6
ByLayer
0
RASTERVARIABLES
5
21a
330

100
AcDbRasterVariables
90
0
70
1
71
1
72
1
0
ENDSEC
0
EOF
