0
SECTION
2
HEADER
9
$ACADVER
1
AC1015
9
$DWGCODEPAGE
3
ANSI_1252
9
$HANDSEED
5
2be
9
$ANGBASE
50
0
9
$ANGDIR
70
0
9
$ATTMODE
70
1
9
$AUNITS
70
0
9
$AUPREC
70
0
9
$CECOLOR
62
256
9
$CELTSCALE
40
1
9
$CELTYPE
6
ByLayer
9
$CELWEIGHT
370
18
9
$CLAYER
8
0
9
$CMLJUST
70
0
9
$CMLSCALE
40
1
9
$CMLSTYLE
2
Standard
9
$DIMSTYLE
2
Standard
9
$TEXTSIZE
40
0.2
9
$TEXTSTYLE
7
Standard
9
$LUNITS
70
2
9
$LUPREC
70
4
9
$EXTNAMES
290
1
9
$INSUNITS
70
4
9
$LTSCALE
40
1
9
$LWDISPLAY
290
1
9
$PDMODE
70
0
9
$PDSIZE
40
0
9
$PLINEGEN
70
0
0
ENDSEC
0
SECTION
2
CLASSES
0
CLASS
1
RASTERVARIABLES
2
AcDbRasterVariables
3
ISM
90
0
280
0
281
0
0
ENDSEC
0
SECTION
2
TABLES
0
TABLE
2
VPORT
5
2b4
100
AcDbSymbolTable
0
VPORT
5
1
100
AcDbSymbolTableRecord
100
AcDbViewportTableRecord
2
*Active
70
0
10
0
20
0
11
1
21
1
12
-1
22
1
13
0
23
0
14
0.5
24
0.5
15
10
25
10
16
0
26
0
36
1
17
0
27
0
37
0
0
ENDTAB
0
TABLE
2
LTYPE
5
2b5
100
AcDbSymbolTable
0
LTYPE
5
14
100
AcDbSymbolTableRecord
100
AcDbLinetypeTableRecord
70
0
2
ByBlock
3

72
65
73
0
40
0
0
LTYPE
5
15
100
AcDbSymbolTableRecord
100
AcDbLinetypeTableRecord
70
0
2
ByLayer
3

72
65
73
0
40
0
0
LTYPE
5
16
100
AcDbSymbolTableRecord
100
AcDbLinetypeTableRecord
70
0
2
Continuous
3
Solid line
72
65
73
0
40
0
0
LTYPE
5
6E
100
AcDbSymbolTableRecord
100
AcDbLinetypeTableRecord
70
0
2
CENTER
3
____ _ ____ _ ____ _ ____
72
65
73
4
40
47.5
49
22
74
0
49
-8.5
74
0
49
8.5
74
0
49
-8.5
74
0
0
LTYPE
5
6F
100
AcDbSymbolTableRecord
100
AcDbLinetypeTableRecord
70
0
2
DASHED
3
__ __ __ __ __ __ __ __ __
72
65
73
2
40
25.72
49
12.86
74
0
49
-12.86
74
0
0
ENDTAB
0
TABLE
2
LAYER
5
2b6
100
AcDbSymbolTable
0
LAYER
5
10
100
AcDbSymbolTableRecord
100
AcDbLayerTableRecord
2
0
70
0
62
7
6
Continuous
290
1
370
-3
390
0
0
LAYER
5
71
100
AcDbSymbolTableRecord
100
AcDbLayerTableRecord
2
80
70
0
62
-6
6
Continuous
290
1
370
-3
390
0
0
LAYER
5
73
100
AcDbSymbolTableRecord
100
AcDbLayerTableRecord
2
81
70
0
62
-3
6
Continuous
290
1
370
-3
390
0
0
LAYER
5
75
100
AcDbSymbolTableRecord
100
AcDbLayerTableRecord
2
1
70
0
62
4
6
Continuous
290
1
370
-3
390
0
0
LAYER
5
F6
100
AcDbSymbolTableRecord
100
AcDbLayerTableRecord
2
4
70
0
62
-2
6
CENTER
290
1
370
-3
390
0
0
LAYER
5
163
100
AcDbSymbolTableRecord
100
AcDbLayerTableRecord
2
Defpoints
70
0
62
7
6
Continuous
290
0
370
-3
390
0
0
LAYER
5
206
100
AcDbSymbolTableRecord
100
AcDbLayerTableRecord
2
2
70
0
62
7
6
Continuous
290
1
370
-3
390
0
0
LAYER
5
29f
100
AcDbSymbolTableRecord
100
AcDbLayerTableRecord
2
SK1
70
0
62
4
6
Continuous
290
1
370
-3
390
0
0
LAYER
5
2a0
100
AcDbSymbolTableRecord
100
AcDbLayerTableRecord
2
SK4
70
0
62
2
6
CENTER
290
1
370
-3
390
0
0
LAYER
5
2a1
100
AcDbSymbolTableRecord
100
AcDbLayerTableRecord
2
SK3
70
0
62
1
6
DASHED
290
1
370
-3
390
0
0
LAYER
5
2a2
100
AcDbSymbolTableRecord
100
AcDbLayerTableRecord
2
SK2
70
0
62
7
6
Continuous
290
1
370
-3
390
0
0
LAYER
5
2a3
100
AcDbSymbolTableRecord
100
AcDbLayerTableRecord
2
SK6
70
0
62
5
6
Continuous
290
1
370
-3
390
0
0
ENDTAB
0
TABLE
2
STYLE
5
2b7
100
AcDbSymbolTable
0
STYLE
5
11
100
AcDbSymbolTableRecord
100
AcDbTextStyleTableRecord
2
Standard
3
txt
70
0
71
0
40
0
41
1
42
0
50
0
0
STYLE
5
147
100
AcDbSymbolTableRecord
100
AcDbTextStyleTableRecord
2
iso_b_vert
3
simplex.shx
70
0
71
0
40
0
41
1
42
0
50
0
0
STYLE
5
148
100
AcDbSymbolTableRecord
100
AcDbTextStyleTableRecord
2
DWGDirectTextStyle
3
simplex
70
0
71
0
40
0
41
1
42
0
50
0
0
ENDTAB
0
TABLE
2
DIMSTYLE
5
2b8
100
AcDbSymbolTable
100
AcDbDimStyleTable
0
DIMSTYLE
105
27
100
AcDbSymbolTableRecord
100
AcDbDimStyleTableRecord
2
Standard
70
0
3
<>
41
0.18
42
0.0625
44
0.18
140
0.18
147
0.09
73
0
74
0
77
1
271
2
275
0
278
52
280
0
340
11
0
ENDTAB
0
TABLE
2
VIEW
5
2b9
100
AcDbSymbolTable
0
ENDTAB
0
TABLE
2
UCS
5
2ba
100
AcDbSymbolTable
0
ENDTAB
0
TABLE
2
APPID
5
2bb
100
AcDbSymbolTable
0
APPID
5
12
100
AcDbSymbolTableRecord
100
AcDbRegAppTableRecord
2
ACAD
70
0
0
APPID
5
15F
100
AcDbSymbolTableRecord
100
AcDbRegAppTableRecord
2
ACAD_DSTYLE_DIMBREAK
70
0
0
APPID
5
25E
100
AcDbSymbolTableRecord
100
AcDbRegAppTableRecord
2
ACAD_DSTYLE_DIM_LINETYPE
70
0
0
APPID
5
25F
100
AcDbSymbolTableRecord
100
AcDbRegAppTableRecord
2
ACAD_DSTYLE_DIM_EXT1_LINETYPE
70
0
0
APPID
5
260
100
AcDbSymbolTableRecord
100
AcDbRegAppTableRecord
2
ACAD_DSTYLE_DIM_EXT2_LINETYPE
70
0
0
APPID
5
29B
100
AcDbSymbolTableRecord
100
AcDbRegAppTableRecord
2
ACAD_MLEADERVER
70
0
0
ENDTAB
0
TABLE
2
BLOCK_RECORD
5
2bc
100
AcDbSymbolTable
0
BLOCK_RECORD
5
1F
100
AcDbSymbolTableRecord
100
AcDbBlockTableRecord
2
*Model_Space
340
0
70
0
0
BLOCK_RECORD
5
1B
100
AcDbSymbolTableRecord
100
AcDbBlockTableRecord
2
*Paper_Space
340
0
70
0
0
BLOCK_RECORD
5
23
100
AcDbSymbolTableRecord
100
AcDbBlockTableRecord
2
*Paper_Space0
340
0
70
0
0
BLOCK_RECORD
5
156
100
AcDbSymbolTableRecord
100
AcDbBlockTableRecord
2
LABLE3D_1
340
0
70
0
0
BLOCK_RECORD
5
164
100
AcDbSymbolTableRecord
100
AcDbBlockTableRecord
2
*D2
340
0
70
0
0
BLOCK_RECORD
5
170
100
AcDbSymbolTableRecord
100
AcDbBlockTableRecord
2
_U0
340
0
70
0
0
BLOCK_RECORD
5
17D
100
AcDbSymbolTableRecord
100
AcDbBlockTableRecord
2
*D4
340
0
70
0
0
BLOCK_RECORD
5
18B
100
AcDbSymbolTableRecord
100
AcDbBlockTableRecord
2
_U1
340
0
70
0
0
BLOCK_RECORD
5
198
100
AcDbSymbolTableRecord
100
AcDbBlockTableRecord
2
*D6
340
0
70
0
0
BLOCK_RECORD
5
1A4
100
AcDbSymbolTableRecord
100
AcDbBlockTableRecord
2
_U2
340
0
70
0
0
BLOCK_RECORD
5
1B1
100
AcDbSymbolTableRecord
100
AcDbBlockTableRecord
2
*D8
340
0
70
0
0
BLOCK_RECORD
5
1BD
100
AcDbSymbolTableRecord
100
AcDbBlockTableRecord
2
_U3
340
0
70
0
0
BLOCK_RECORD
5
1C9
100
AcDbSymbolTableRecord
100
AcDbBlockTableRecord
2
*D10
340
0
70
0
0
BLOCK_RECORD
5
1D6
100
AcDbSymbolTableRecord
100
AcDbBlockTableRecord
2
_U4
340
0
70
0
0
BLOCK_RECORD
5
1E2
100
AcDbSymbolTableRecord
100
AcDbBlockTableRecord
2
*D12
340
0
70
0
0
BLOCK_RECORD
5
1EE
100
AcDbSymbolTableRecord
100
AcDbBlockTableRecord
2
_U5
340
0
70
0
0
BLOCK_RECORD
5
1FA
100
AcDbSymbolTableRecord
100
AcDbBlockTableRecord
2
*D14
340
0
70
0
0
BLOCK_RECORD
5
207
100
AcDbSymbolTableRecord
100
AcDbBlockTableRecord
2
_U6
340
0
70
0
0
BLOCK_RECORD
5
213
100
AcDbSymbolTableRecord
100
AcDbBlockTableRecord
2
*D16
340
0
70
0
0
BLOCK_RECORD
5
21F
100
AcDbSymbolTableRecord
100
AcDbBlockTableRecord
2
_U7
340
0
70
0
0
BLOCK_RECORD
5
22B
100
AcDbSymbolTableRecord
100
AcDbBlockTableRecord
2
*D18
340
0
70
0
0
BLOCK_RECORD
5
237
100
AcDbSymbolTableRecord
100
AcDbBlockTableRecord
2
_U8
340
0
70
0
0
ENDTAB
0
ENDSEC
0
SECTION
2
BLOCKS
0
BLOCK
5
20
100
AcDbEntity
8
0
100
AcDbBlockBegin
2
*Model_Space
70
0
10
0
20
0
30
0
3
*Model_Space
0
ENDBLK
5
21
100
AcDbEntity
8
0
100
AcDbBlockEnd
0
BLOCK
5
1C
100
AcDbEntity
8
0
100
AcDbBlockBegin
2
*Paper_Space
70
0
10
0
20
0
30
0
3
*Paper_Space
0
ENDBLK
5
1D
100
AcDbEntity
8
0
100
AcDbBlockEnd
0
BLOCK
5
24
100
AcDbEntity
8
0
100
AcDbBlockBegin
2
*Paper_Space0
70
0
10
0
20
0
30
0
3
*Paper_Space0
0
ENDBLK
5
25
100
AcDbEntity
8
0
100
AcDbBlockEnd
0
BLOCK
5
15D
100
AcDbEntity
8
0
100
AcDbBlockBegin
2
LABLE3D_1
70
0
10
-52.4
20
59.965
30
0
3
LABLE3D_1
0
MTEXT
5
15B
100
AcDbEntity
8
SK6
62
256
6
ByLayer
370
18
48
1
60
0
100
AcDbMText
10
-53.7145
20
57.497634
30
0
210
0
220
0
230
1
1
\W1.0000;
40
3.5
41
0
44
1.084337
50
0
71
7
72
5
7
iso_b_vert
0
ENDBLK
5
15E
100
AcDbEntity
8
0
100
AcDbBlockEnd
0
BLOCK
5
165
100
AcDbEntity
8
0
100
AcDbBlockBegin
2
*D2
70
1
10
0
20
0
30
0
3
*D2
0
LINE
5
167
100
AcDbEntity
8
0
62
256
6
ByLayer
370
-2
48
1
60
0
100
AcDbLine
10
96.5875
20
-16
30
0
11
141.25
21
-16
31
0
39
0
210
0
220
0
230
1
0
LINE
5
168
100
AcDbEntity
8
0
62
256
6
ByLayer
370
-2
48
1
60
0
100
AcDbLine
10
96.5875
20
16
30
0
11
141.25
21
16
31
0
39
0
210
0
220
0
230
1
0
LINE
5
169
100
AcDbEntity
8
0
62
256
6
ByLayer
370
-2
48
1
60
0
100
AcDbLine
10
139.25
20
-11.5
30
0
11
139.25
21
11.5
31
0
39
0
210
0
220
0
230
1
0
SOLID
5
16A
100
AcDbEntity
8
0
62
256
6
ByLayer
370
-1
48
1
60
0
100
AcDbTrace
10
138.5
20
-11.5
30
0
11
140
21
-11.5
31
0
12
139.25
22
-16
32
0
13
139.25
23
-16
33
0
39
0
210
0
220
0
230
1
0
SOLID
5
16B
100
AcDbEntity
8
0
62
256
6
ByLayer
370
-1
48
1
60
0
100
AcDbTrace
10
140
20
11.5
30
0
11
138.5
21
11.5
31
0
12
139.25
22
16
32
0
13
139.25
23
16
33
0
39
0
210
0
220
0
230
1
0
MTEXT
5
16C
100
AcDbEntity
8
0
62
256
6
ByLayer
370
18
48
1
60
0
100
AcDbMText
10
130.25
20
0
30
0
210
0
220
0
230
1
1
\A1;32
40
4.5
41
0
44
1
50
90
71
5
72
5
7
iso_b_vert
0
POINT
5
16D
100
AcDbEntity
8
Defpoints
62
0
6
ByLayer
370
-1
48
1
60
0
100
AcDbPoint
10
95
20
-16
30
0
39
0
210
0
220
0
230
1
50
360
0
POINT
5
16E
100
AcDbEntity
8
Defpoints
62
0
6
ByLayer
370
-1
48
1
60
0
100
AcDbPoint
10
95
20
16
30
0
39
0
210
0
220
0
230
1
50
360
0
POINT
5
16F
100
AcDbEntity
8
Defpoints
62
0
6
ByLayer
370
-1
48
1
60
0
100
AcDbPoint
10
139.25
20
16
30
0
39
0
210
0
220
0
230
1
50
360
0
ENDBLK
5
166
100
AcDbEntity
8
0
100
AcDbBlockEnd
0
BLOCK
5
178
100
AcDbEntity
8
0
100
AcDbBlockBegin
2
_U0
70
0
10
0
20
0
30
0
3
_U0
0
MTEXT
5
171
100
AcDbEntity
8
SK2
62
256
6
ByLayer
370
18
48
1
60
0
100
AcDbMText
10
137.185366
20
-7.780242
30
0
210
0
220
0
230
1
1
%%c
40
3.5
41
0
44
1.084337
50
90
71
7
72
5
7
iso_b_vert
0
MTEXT
5
172
100
AcDbEntity
8
SK2
62
256
6
ByLayer
370
18
48
1
60
0
100
AcDbMText
10
137.488328
20
2.764758
30
0
210
0
220
0
230
1
1
\W0.6740;32
40
4.5
41
0
44
1.084337
50
90
71
7
72
5
7
iso_b_vert
0
LINE
5
173
100
AcDbEntity
8
SK2
62
256
6
ByLayer
370
13
48
1
60
0
100
AcDbLine
10
96.5875
20
-16
30
0
11
141.25
21
-16
31
0
39
0
210
0
220
0
230
1
0
LINE
5
174
100
AcDbEntity
8
SK2
62
256
6
ByLayer
370
13
48
1
60
0
100
AcDbLine
10
96.5875
20
16
30
0
11
141.25
21
16
31
0
39
0
210
0
220
0
230
1
0
LINE
5
175
100
AcDbEntity
8
SK2
62
256
6
ByLayer
370
13
48
1
60
0
100
AcDbLine
10
139.25
20
-16
30
0
11
139.25
21
16
31
0
39
0
210
0
220
0
230
1
0
SOLID
5
176
100
AcDbEntity
8
SK2
62
256
6
ByLayer
370
18
48
1
60
0
100
AcDbTrace
10
139.25
20
-16
30
0
11
138.252374
21
-11.500004
31
0
12
140.247626
22
-11.499996
32
0
13
140.247626
23
-11.499996
33
0
39
0
210
0
220
0
230
1
0
SOLID
5
177
100
AcDbEntity
8
SK2
62
256
6
ByLayer
370
18
48
1
60
0
100
AcDbTrace
10
139.25
20
16
30
0
11
140.247626
21
11.500004
31
0
12
138.252374
22
11.499996
32
0
13
138.252374
23
11.499996
33
0
39
0
210
0
220
0
230
1
0
ENDBLK
5
179
100
AcDbEntity
8
0
100
AcDbBlockEnd
0
BLOCK
5
17E
100
AcDbEntity
8
0
100
AcDbBlockBegin
2
*D4
70
1
10
0
20
0
30
0
3
*D4
0
LINE
5
180
100
AcDbEntity
8
0
62
256
6
ByLayer
370
-2
48
1
60
0
100
AcDbLine
10
96.5875
20
6
30
0
11
129.25
21
6
31
0
39
0
210
0
220
0
230
1
0
LINE
5
181
100
AcDbEntity
8
0
62
256
6
ByLayer
370
-2
48
1
60
0
100
AcDbLine
10
96.5875
20
-6
30
0
11
129.25
21
-6
31
0
39
0
210
0
220
0
230
1
0
LINE
5
182
100
AcDbEntity
8
0
62
256
6
ByLayer
370
-2
48
1
60
0
100
AcDbLine
10
127.25
20
6
30
0
11
127.25
21
35.142857
31
0
39
0
210
0
220
0
230
1
0
LINE
5
183
100
AcDbEntity
8
0
62
256
6
ByLayer
370
-2
48
1
60
0
100
AcDbLine
10
127.25
20
10.5
30
0
11
127.25
21
15
31
0
39
0
210
0
220
0
230
1
0
LINE
5
184
100
AcDbEntity
8
0
62
256
6
ByLayer
370
-2
48
1
60
0
100
AcDbLine
10
127.25
20
-10.5
30
0
11
127.25
21
-15
31
0
39
0
210
0
220
0
230
1
0
SOLID
5
185
100
AcDbEntity
8
0
62
256
6
ByLayer
370
-1
48
1
60
0
100
AcDbTrace
10
126.5
20
10.5
30
0
11
128
21
10.5
31
0
12
127.25
22
6
32
0
13
127.25
23
6
33
0
39
0
210
0
220
0
230
1
0
SOLID
5
186
100
AcDbEntity
8
0
62
256
6
ByLayer
370
-1
48
1
60
0
100
AcDbTrace
10
128
20
-10.5
30
0
11
126.5
21
-10.5
31
0
12
127.25
22
-6
32
0
13
127.25
23
-6
33
0
39
0
210
0
220
0
230
1
0
MTEXT
5
187
100
AcDbEntity
8
0
62
256
6
ByLayer
370
18
48
1
60
0
100
AcDbMText
10
118.25
20
25.071429
30
0
210
0
220
0
230
1
1
\A1;12
40
4.5
41
0
44
1
50
90
71
5
72
5
7
iso_b_vert
0
POINT
5
188
100
AcDbEntity
8
Defpoints
62
0
6
ByLayer
370
-1
48
1
60
0
100
AcDbPoint
10
95
20
6
30
0
39
0
210
0
220
0
230
1
50
360
0
POINT
5
189
100
AcDbEntity
8
Defpoints
62
0
6
ByLayer
370
-1
48
1
60
0
100
AcDbPoint
10
95
20
-6
30
0
39
0
210
0
220
0
230
1
50
360
0
POINT
5
18A
100
AcDbEntity
8
Defpoints
62
0
6
ByLayer
370
-1
48
1
60
0
100
AcDbPoint
10
127.25
20
-6
30
0
39
0
210
0
220
0
230
1
50
360
0
ENDBLK
5
17F
100
AcDbEntity
8
0
100
AcDbBlockEnd
0
BLOCK
5
193
100
AcDbEntity
8
0
100
AcDbBlockBegin
2
_U1
70
0
10
0
20
0
30
0
3
_U1
0
MTEXT
5
18C
100
AcDbEntity
8
SK2
62
256
6
ByLayer
370
18
48
1
60
0
100
AcDbMText
10
125.185366
20
17.1575
30
0
210
0
220
0
230
1
1
%%c
40
3.5
41
0
44
1.084337
50
90
71
7
72
5
7
iso_b_vert
0
MTEXT
5
18D
100
AcDbEntity
8
SK2
62
256
6
ByLayer
370
18
48
1
60
0
100
AcDbMText
10
125.488328
20
27.7025
30
0
210
0
220
0
230
1
1
\W0.5321;12
40
4.5
41
0
44
1.084337
50
90
71
7
72
5
7
iso_b_vert
0
LINE
5
18E
100
AcDbEntity
8
SK2
62
256
6
ByLayer
370
13
48
1
60
0
100
AcDbLine
10
96.5875
20
6
30
0
11
129.25
21
6
31
0
39
0
210
0
220
0
230
1
0
LINE
5
18F
100
AcDbEntity
8
SK2
62
256
6
ByLayer
370
13
48
1
60
0
100
AcDbLine
10
96.5875
20
-6
30
0
11
129.25
21
-6
31
0
39
0
210
0
220
0
230
1
0
LINE
5
190
100
AcDbEntity
8
SK2
62
256
6
ByLayer
370
13
48
1
60
0
100
AcDbLine
10
127.25
20
-6
30
0
11
127.25
21
31.750656
31
0
39
0
210
0
220
0
230
1
0
SOLID
5
191
100
AcDbEntity
8
SK2
62
256
6
ByLayer
370
18
48
1
60
0
100
AcDbTrace
10
127.25
20
6
30
0
11
128.247626
21
1.500004
31
0
12
126.252374
22
1.499996
32
0
13
126.252374
23
1.499996
33
0
39
0
210
0
220
0
230
1
0
SOLID
5
192
100
AcDbEntity
8
SK2
62
256
6
ByLayer
370
18
48
1
60
0
100
AcDbTrace
10
127.25
20
-6
30
0
11
126.252374
21
-1.500004
31
0
12
128.247626
22
-1.499996
32
0
13
128.247626
23
-1.499996
33
0
39
0
210
0
220
0
230
1
0
ENDBLK
5
194
100
AcDbEntity
8
0
100
AcDbBlockEnd
0
BLOCK
5
199
100
AcDbEntity
8
0
100
AcDbBlockBegin
2
*D6
70
1
10
0
20
0
30
0
3
*D6
0
LINE
5
19B
100
AcDbEntity
8
0
62
256
6
ByLayer
370
-2
48
1
60
0
100
AcDbLine
10
56.5875
20
25
30
0
11
161.25
21
25
31
0
39
0
210
0
220
0
230
1
0
LINE
5
19C
100
AcDbEntity
8
0
62
256
6
ByLayer
370
-2
48
1
60
0
100
AcDbLine
10
56.5875
20
-25
30
0
11
161.25
21
-25
31
0
39
0
210
0
220
0
230
1
0
LINE
5
19D
100
AcDbEntity
8
0
62
256
6
ByLayer
370
-2
48
1
60
0
100
AcDbLine
10
159.25
20
20.5
30
0
11
159.25
21
-20.5
31
0
39
0
210
0
220
0
230
1
0
SOLID
5
19E
100
AcDbEntity
8
0
62
256
6
ByLayer
370
-1
48
1
60
0
100
AcDbTrace
10
160
20
20.5
30
0
11
158.5
21
20.5
31
0
12
159.25
22
25
32
0
13
159.25
23
25
33
0
39
0
210
0
220
0
230
1
0
SOLID
5
19F
100
AcDbEntity
8
0
62
256
6
ByLayer
370
-1
48
1
60
0
100
AcDbTrace
10
158.5
20
-20.5
30
0
11
160
21
-20.5
31
0
12
159.25
22
-25
32
0
13
159.25
23
-25
33
0
39
0
210
0
220
0
230
1
0
MTEXT
5
1A0
100
AcDbEntity
8
0
62
256
6
ByLayer
370
18
48
1
60
0
100
AcDbMText
10
150.25
20
0
30
0
210
0
220
0
230
1
1
\A1;50
40
4.5
41
0
44
1
50
90
71
5
72
5
7
iso_b_vert
0
POINT
5
1A1
100
AcDbEntity
8
Defpoints
62
0
6
ByLayer
370
-1
48
1
60
0
100
AcDbPoint
10
55
20
25
30
0
39
0
210
0
220
0
230
1
50
360
0
POINT
5
1A2
100
AcDbEntity
8
Defpoints
62
0
6
ByLayer
370
-1
48
1
60
0
100
AcDbPoint
10
55
20
-25
30
0
39
0
210
0
220
0
230
1
50
360
0
POINT
5
1A3
100
AcDbEntity
8
Defpoints
62
0
6
ByLayer
370
-1
48
1
60
0
100
AcDbPoint
10
159.25
20
-25
30
0
39
0
210
0
220
0
230
1
50
360
0
ENDBLK
5
19A
100
AcDbEntity
8
0
100
AcDbBlockEnd
0
BLOCK
5
1AC
100
AcDbEntity
8
0
100
AcDbBlockBegin
2
_U2
70
0
10
0
20
0
30
0
3
_U2
0
MTEXT
5
1A5
100
AcDbEntity
8
SK2
62
256
6
ByLayer
370
18
48
1
60
0
100
AcDbMText
10
157.185366
20
-7.780242
30
0
210
0
220
0
230
1
1
%%c
40
3.5
41
0
44
1.084337
50
90
71
7
72
5
7
iso_b_vert
0
MTEXT
5
1A6
100
AcDbEntity
8
SK2
62
256
6
ByLayer
370
18
48
1
60
0
100
AcDbMText
10
157.488328
20
2.764758
30
0
210
0
220
0
230
1
1
\W0.6740;50
40
4.5
41
0
44
1.084337
50
90
71
7
72
5
7
iso_b_vert
0
LINE
5
1A7
100
AcDbEntity
8
SK2
62
256
6
ByLayer
370
13
48
1
60
0
100
AcDbLine
10
56.5875
20
25
30
0
11
161.25
21
25
31
0
39
0
210
0
220
0
230
1
0
LINE
5
1A8
100
AcDbEntity
8
SK2
62
256
6
ByLayer
370
13
48
1
60
0
100
AcDbLine
10
56.5875
20
-25
30
0
11
161.25
21
-25
31
0
39
0
210
0
220
0
230
1
0
LINE
5
1A9
100
AcDbEntity
8
SK2
62
256
6
ByLayer
370
13
48
1
60
0
100
AcDbLine
10
159.25
20
25
30
0
11
159.25
21
-25
31
0
39
0
210
0
220
0
230
1
0
SOLID
5
1AA
100
AcDbEntity
8
SK2
62
256
6
ByLayer
370
18
48
1
60
0
100
AcDbTrace
10
159.25
20
25
30
0
11
160.247626
21
20.500004
31
0
12
158.252374
22
20.499996
32
0
13
158.252374
23
20.499996
33
0
39
0
210
0
220
0
230
1
0
SOLID
5
1AB
100
AcDbEntity
8
SK2
62
256
6
ByLayer
370
18
48
1
60
0
100
AcDbTrace
10
159.25
20
-25
30
0
11
158.252374
21
-20.500004
31
0
12
160.247626
22
-20.499996
32
0
13
160.247626
23
-20.499996
33
0
39
0
210
0
220
0
230
1
0
ENDBLK
5
1AD
100
AcDbEntity
8
0
100
AcDbBlockEnd
0
BLOCK
5
1B2
100
AcDbEntity
8
0
100
AcDbBlockBegin
2
*D8
70
1
10
0
20
0
30
0
3
*D8
0
LINE
5
1B4
100
AcDbEntity
8
0
62
256
6
ByLayer
370
-2
48
1
60
0
100
AcDbLine
10
49
20
-7.5875
30
0
11
49
21
-70.565
31
0
39
0
210
0
220
0
230
1
0
LINE
5
1B5
100
AcDbEntity
8
0
62
256
6
ByLayer
370
-2
48
1
60
0
100
AcDbLine
10
95
20
-7.5875
30
0
11
95
21
-70.565
31
0
39
0
210
0
220
0
230
1
0
LINE
5
1B6
100
AcDbEntity
8
0
62
256
6
ByLayer
370
-2
48
1
60
0
100
AcDbLine
10
53.5
20
-68.565
30
0
11
90.5
21
-68.565
31
0
39
0
210
0
220
0
230
1
0
SOLID
5
1B7
100
AcDbEntity
8
0
62
256
6
ByLayer
370
-1
48
1
60
0
100
AcDbTrace
10
53.5
20
-67.815
30
0
11
53.5
21
-69.315
31
0
12
49
22
-68.565
32
0
13
49
23
-68.565
33
0
39
0
210
0
220
0
230
1
0
SOLID
5
1B8
100
AcDbEntity
8
0
62
256
6
ByLayer
370
-1
48
1
60
0
100
AcDbTrace
10
90.5
20
-69.315
30
0
11
90.5
21
-67.815
31
0
12
95
22
-68.565
32
0
13
95
23
-68.565
33
0
39
0
210
0
220
0
230
1
0
MTEXT
5
1B9
100
AcDbEntity
8
0
62
256
6
ByLayer
370
18
48
1
60
0
100
AcDbMText
10
72
20
-59.565
30
0
210
0
220
0
230
1
1
\A1;46
40
4.5
41
0
44
1
50
0
71
5
72
5
7
iso_b_vert
0
POINT
5
1BA
100
AcDbEntity
8
Defpoints
62
0
6
ByLayer
370
-1
48
1
60
0
100
AcDbPoint
10
49
20
-6
30
0
39
0
210
0
220
0
230
1
50
360
0
POINT
5
1BB
100
AcDbEntity
8
Defpoints
62
0
6
ByLayer
370
-1
48
1
60
0
100
AcDbPoint
10
95
20
-6
30
0
39
0
210
0
220
0
230
1
50
360
0
POINT
5
1BC
100
AcDbEntity
8
Defpoints
62
0
6
ByLayer
370
-1
48
1
60
0
100
AcDbPoint
10
95
20
-68.565
30
0
39
0
210
0
220
0
230
1
50
360
0
ENDBLK
5
1B3
100
AcDbEntity
8
0
100
AcDbBlockEnd
0
BLOCK
5
1C4
100
AcDbEntity
8
0
100
AcDbBlockBegin
2
_U3
70
0
10
0
20
0
30
0
3
_U3
0
MTEXT
5
1BE
100
AcDbEntity
8
SK2
62
256
6
ByLayer
370
18
48
1
60
0
100
AcDbMText
10
51.114389
20
-67.237328
30
0
210
0
220
0
230
1
1
\W0.7346;min 36-max 46
40
4.5
41
0
44
1.084337
50
0
71
7
72
5
7
iso_b_vert
0
LINE
5
1BF
100
AcDbEntity
8
SK2
62
256
6
ByLayer
370
13
48
1
60
0
100
AcDbLine
10
49
20
-7.5875
30
0
11
49
21
-70.565
31
0
39
0
210
0
220
0
230
1
0
LINE
5
1C0
100
AcDbEntity
8
SK2
62
256
6
ByLayer
370
13
48
1
60
0
100
AcDbLine
10
95
20
-7.5875
30
0
11
95
21
-70.565
31
0
39
0
210
0
220
0
230
1
0
LINE
5
1C1
100
AcDbEntity
8
SK2
62
256
6
ByLayer
370
13
48
1
60
0
100
AcDbLine
10
37.75
20
-68.565
30
0
11
106.25
21
-68.565
31
0
39
0
210
0
220
0
230
1
0
SOLID
5
1C2
100
AcDbEntity
8
SK2
62
256
6
ByLayer
370
18
48
1
60
0
100
AcDbTrace
10
49
20
-68.565
30
0
11
44.500004
21
-69.562626
31
0
12
44.499996
22
-67.567374
32
0
13
44.499996
23
-67.567374
33
0
39
0
210
0
220
0
230
1
0
SOLID
5
1C3
100
AcDbEntity
8
SK2
62
256
6
ByLayer
370
18
48
1
60
0
100
AcDbTrace
10
95
20
-68.565
30
0
11
99.499996
21
-67.567374
31
0
12
99.500004
22
-69.562626
32
0
13
99.500004
23
-69.562626
33
0
39
0
210
0
220
0
230
1
0
ENDBLK
5
1C5
100
AcDbEntity
8
0
100
AcDbBlockEnd
0
BLOCK
5
1CA
100
AcDbEntity
8
0
100
AcDbBlockBegin
2
*D10
70
1
10
0
20
0
30
0
3
*D10
0
LINE
5
1CC
100
AcDbEntity
8
0
62
256
6
ByLayer
370
-2
48
1
60
0
100
AcDbLine
10
83.7
20
-17.5875
30
0
11
83.7
21
-60.565
31
0
39
0
210
0
220
0
230
1
0
LINE
5
1CD
100
AcDbEntity
8
0
62
256
6
ByLayer
370
-2
48
1
60
0
100
AcDbLine
10
95
20
-17.5875
30
0
11
95
21
-60.565
31
0
39
0
210
0
220
0
230
1
0
LINE
5
1CE
100
AcDbEntity
8
0
62
256
6
ByLayer
370
-2
48
1
60
0
100
AcDbLine
10
79.2
20
-58.565
30
0
11
74.7
21
-58.565
31
0
39
0
210
0
220
0
230
1
0
LINE
5
1CF
100
AcDbEntity
8
0
62
256
6
ByLayer
370
-2
48
1
60
0
100
AcDbLine
10
99.5
20
-58.565
30
0
11
104
21
-58.565
31
0
39
0
210
0
220
0
230
1
0
SOLID
5
1D0
100
AcDbEntity
8
0
62
256
6
ByLayer
370
-1
48
1
60
0
100
AcDbTrace
10
79.2
20
-59.315
30
0
11
79.2
21
-57.815
31
0
12
83.7
22
-58.565
32
0
13
83.7
23
-58.565
33
0
39
0
210
0
220
0
230
1
0
SOLID
5
1D1
100
AcDbEntity
8
0
62
256
6
ByLayer
370
-1
48
1
60
0
100
AcDbTrace
10
99.5
20
-57.815
30
0
11
99.5
21
-59.315
31
0
12
95
22
-58.565
32
0
13
95
23
-58.565
33
0
39
0
210
0
220
0
230
1
0
MTEXT
5
1D2
100
AcDbEntity
8
0
62
256
6
ByLayer
370
18
48
1
60
0
100
AcDbMText
10
89.35
20
-49.565
30
0
210
0
220
0
230
1
1
\A1;11.3
40
4.5
41
0
44
1
50
0
71
5
72
5
7
iso_b_vert
0
POINT
5
1D3
100
AcDbEntity
8
Defpoints
62
0
6
ByLayer
370
-1
48
1
60
0
100
AcDbPoint
10
83.7
20
-16
30
0
39
0
210
0
220
0
230
1
50
360
0
POINT
5
1D4
100
AcDbEntity
8
Defpoints
62
0
6
ByLayer
370
-1
48
1
60
0
100
AcDbPoint
10
95
20
-16
30
0
39
0
210
0
220
0
230
1
50
360
0
POINT
5
1D5
100
AcDbEntity
8
Defpoints
62
0
6
ByLayer
370
-1
48
1
60
0
100
AcDbPoint
10
95
20
-58.565
30
0
39
0
210
0
220
0
230
1
50
360
0
ENDBLK
5
1CB
100
AcDbEntity
8
0
100
AcDbBlockEnd
0
BLOCK
5
1DD
100
AcDbEntity
8
0
100
AcDbBlockBegin
2
_U4
70
0
10
0
20
0
30
0
3
_U4
0
MTEXT
5
1D7
100
AcDbEntity
8
SK2
62
256
6
ByLayer
370
18
48
1
60
0
100
AcDbMText
10
85.551101
20
-57.237328
30
0
210
0
220
0
230
1
1
\W0.5583;11,3
40
4.5
41
0
44
1.084337
50
0
71
7
72
5
7
iso_b_vert
0
LINE
5
1D8
100
AcDbEntity
8
SK2
62
256
6
ByLayer
370
13
48
1
60
0
100
AcDbLine
10
83.7
20
-17.5875
30
0
11
83.7
21
-60.565
31
0
39
0
210
0
220
0
230
1
0
LINE
5
1D9
100
AcDbEntity
8
SK2
62
256
6
ByLayer
370
13
48
1
60
0
100
AcDbLine
10
95
20
-17.5875
30
0
11
95
21
-60.565
31
0
39
0
210
0
220
0
230
1
0
LINE
5
1DA
100
AcDbEntity
8
SK2
62
256
6
ByLayer
370
13
48
1
60
0
100
AcDbLine
10
72.45
20
-58.565
30
0
11
106.25
21
-58.565
31
0
39
0
210
0
220
0
230
1
0
SOLID
5
1DB
100
AcDbEntity
8
SK2
62
256
6
ByLayer
370
18
48
1
60
0
100
AcDbTrace
10
83.7
20
-58.565
30
0
11
79.200004
21
-59.562626
31
0
12
79.199996
22
-57.567374
32
0
13
79.199996
23
-57.567374
33
0
39
0
210
0
220
0
230
1
0
SOLID
5
1DC
100
AcDbEntity
8
SK2
62
256
6
ByLayer
370
18
48
1
60
0
100
AcDbTrace
10
95
20
-58.565
30
0
11
99.499996
21
-57.567374
31
0
12
99.500004
22
-59.562626
32
0
13
99.500004
23
-59.562626
33
0
39
0
210
0
220
0
230
1
0
ENDBLK
5
1DE
100
AcDbEntity
8
0
100
AcDbBlockEnd
0
BLOCK
5
1E3
100
AcDbEntity
8
0
100
AcDbBlockBegin
2
*D12
70
1
10
0
20
0
30
0
3
*D12
0
LINE
5
1E5
100
AcDbEntity
8
0
62
256
6
ByLayer
370
-2
48
1
60
0
100
AcDbLine
10
95
20
17.5875
30
0
11
95
21
71.065
31
0
39
0
210
0
220
0
230
1
0
LINE
5
1E6
100
AcDbEntity
8
0
62
256
6
ByLayer
370
-2
48
1
60
0
100
AcDbLine
10
55
20
17.5875
30
0
11
55
21
71.065
31
0
39
0
210
0
220
0
230
1
0
LINE
5
1E7
100
AcDbEntity
8
0
62
256
6
ByLayer
370
-2
48
1
60
0
100
AcDbLine
10
90.5
20
69.065
30
0
11
59.5
21
69.065
31
0
39
0
210
0
220
0
230
1
0
SOLID
5
1E8
100
AcDbEntity
8
0
62
256
6
ByLayer
370
-1
48
1
60
0
100
AcDbTrace
10
90.5
20
68.315
30
0
11
90.5
21
69.815
31
0
12
95
22
69.065
32
0
13
95
23
69.065
33
0
39
0
210
0
220
0
230
1
0
SOLID
5
1E9
100
AcDbEntity
8
0
62
256
6
ByLayer
370
-1
48
1
60
0
100
AcDbTrace
10
59.5
20
69.815
30
0
11
59.5
21
68.315
31
0
12
55
22
69.065
32
0
13
55
23
69.065
33
0
39
0
210
0
220
0
230
1
0
MTEXT
5
1EA
100
AcDbEntity
8
0
62
256
6
ByLayer
370
18
48
1
60
0
100
AcDbMText
10
75
20
78.065
30
0
210
0
220
0
230
1
1
\A1;40
40
4.5
41
0
44
1
50
0
71
5
72
5
7
iso_b_vert
0
POINT
5
1EB
100
AcDbEntity
8
Defpoints
62
0
6
ByLayer
370
-1
48
1
60
0
100
AcDbPoint
10
95
20
16
30
0
39
0
210
0
220
0
230
1
50
360
0
POINT
5
1EC
100
AcDbEntity
8
Defpoints
62
0
6
ByLayer
370
-1
48
1
60
0
100
AcDbPoint
10
55
20
16
30
0
39
0
210
0
220
0
230
1
50
360
0
POINT
5
1ED
100
AcDbEntity
8
Defpoints
62
0
6
ByLayer
370
-1
48
1
60
0
100
AcDbPoint
10
55
20
69.065
30
0
39
0
210
0
220
0
230
1
50
360
0
ENDBLK
5
1E4
100
AcDbEntity
8
0
100
AcDbBlockEnd
0
BLOCK
5
1F5
100
AcDbEntity
8
0
100
AcDbBlockBegin
2
_U5
70
0
10
0
20
0
30
0
3
_U5
0
MTEXT
5
1EF
100
AcDbEntity
8
SK2
62
256
6
ByLayer
370
18
48
1
60
0
100
AcDbMText
10
72.313843
20
70.392672
30
0
210
0
220
0
230
1
1
\W0.7361;40
40
4.5
41
0
44
1.084337
50
0
71
7
72
5
7
iso_b_vert
0
LINE
5
1F0
100
AcDbEntity
8
SK2
62
256
6
ByLayer
370
13
48
1
60
0
100
AcDbLine
10
95
20
17.5875
30
0
11
95
21
71.065
31
0
39
0
210
0
220
0
230
1
0
LINE
5
1F1
100
AcDbEntity
8
SK2
62
256
6
ByLayer
370
13
48
1
60
0
100
AcDbLine
10
55
20
17.5875
30
0
11
55
21
71.065
31
0
39
0
210
0
220
0
230
1
0
LINE
5
1F2
100
AcDbEntity
8
SK2
62
256
6
ByLayer
370
13
48
1
60
0
100
AcDbLine
10
95
20
69.065
30
0
11
55
21
69.065
31
0
39
0
210
0
220
0
230
1
0
SOLID
5
1F3
100
AcDbEntity
8
SK2
62
256
6
ByLayer
370
18
48
1
60
0
100
AcDbTrace
10
95
20
69.065
30
0
11
90.500004
21
68.067374
31
0
12
90.499996
22
70.062626
32
0
13
90.499996
23
70.062626
33
0
39
0
210
0
220
0
230
1
0
SOLID
5
1F4
100
AcDbEntity
8
SK2
62
256
6
ByLayer
370
18
48
1
60
0
100
AcDbTrace
10
55
20
69.065
30
0
11
59.499996
21
70.062626
31
0
12
59.500004
22
68.067374
32
0
13
59.500004
23
68.067374
33
0
39
0
210
0
220
0
230
1
0
ENDBLK
5
1F6
100
AcDbEntity
8
0
100
AcDbBlockEnd
0
BLOCK
5
1FB
100
AcDbEntity
8
0
100
AcDbBlockBegin
2
*D14
70
1
10
0
20
0
30
0
3
*D14
0
LINE
5
1FD
100
AcDbEntity
8
0
62
256
6
ByLayer
370
-2
48
1
60
0
100
AcDbLine
10
0
20
51.5525
30
0
11
0
21
91.065
31
0
39
0
210
0
220
0
230
1
0
LINE
5
1FE
100
AcDbEntity
8
0
62
256
6
ByLayer
370
-2
48
1
60
0
100
AcDbLine
10
95
20
17.5875
30
0
11
95
21
91.065
31
0
39
0
210
0
220
0
230
1
0
LINE
5
1FF
100
AcDbEntity
8
0
62
256
6
ByLayer
370
-2
48
1
60
0
100
AcDbLine
10
4.5
20
89.065
30
0
11
90.5
21
89.065
31
0
39
0
210
0
220
0
230
1
0
SOLID
5
200
100
AcDbEntity
8
0
62
256
6
ByLayer
370
-1
48
1
60
0
100
AcDbTrace
10
4.5
20
89.815
30
0
11
4.5
21
88.315
31
0
12
0
22
89.065
32
0
13
0
23
89.065
33
0
39
0
210
0
220
0
230
1
0
SOLID
5
201
100
AcDbEntity
8
0
62
256
6
ByLayer
370
-1
48
1
60
0
100
AcDbTrace
10
90.5
20
88.315
30
0
11
90.5
21
89.815
31
0
12
95
22
89.065
32
0
13
95
23
89.065
33
0
39
0
210
0
220
0
230
1
0
MTEXT
5
202
100
AcDbEntity
8
0
62
256
6
ByLayer
370
18
48
1
60
0
100
AcDbMText
10
47.5
20
98.065
30
0
210
0
220
0
230
1
1
\A1;95
40
4.5
41
0
44
1
50
0
71
5
72
5
7
iso_b_vert
0
POINT
5
203
100
AcDbEntity
8
Defpoints
62
0
6
ByLayer
370
-1
48
1
60
0
100
AcDbPoint
10
0
20
49.965
30
0
39
0
210
0
220
0
230
1
50
360
0
POINT
5
204
100
AcDbEntity
8
Defpoints
62
0
6
ByLayer
370
-1
48
1
60
0
100
AcDbPoint
10
95
20
16
30
0
39
0
210
0
220
0
230
1
50
360
0
POINT
5
205
100
AcDbEntity
8
Defpoints
62
0
6
ByLayer
370
-1
48
1
60
0
100
AcDbPoint
10
95
20
89.065
30
0
39
0
210
0
220
0
230
1
50
360
0
ENDBLK
5
1FC
100
AcDbEntity
8
0
100
AcDbBlockEnd
0
BLOCK
5
20E
100
AcDbEntity
8
0
100
AcDbBlockBegin
2
_U6
70
0
10
0
20
0
30
0
3
_U6
0
MTEXT
5
208
100
AcDbEntity
8
2
62
256
6
ByLayer
370
18
48
1
60
0
100
AcDbMText
10
45.050758
20
90.392672
30
0
210
0
220
0
230
1
1
\W0.6740;95
40
4.5
41
0
44
1.084337
50
0
71
7
72
5
7
iso_b_vert
0
LINE
5
209
100
AcDbEntity
8
2
62
256
6
ByLayer
370
13
48
1
60
0
100
AcDbLine
10
0
20
51.5525
30
0
11
0
21
91.065
31
0
39
0
210
0
220
0
230
1
0
LINE
5
20A
100
AcDbEntity
8
2
62
256
6
ByLayer
370
13
48
1
60
0
100
AcDbLine
10
95
20
17.5875
30
0
11
95
21
91.065
31
0
39
0
210
0
220
0
230
1
0
LINE
5
20B
100
AcDbEntity
8
2
62
256
6
ByLayer
370
13
48
1
60
0
100
AcDbLine
10
0
20
89.065
30
0
11
95
21
89.065
31
0
39
0
210
0
220
0
230
1
0
SOLID
5
20C
100
AcDbEntity
8
2
62
256
6
ByLayer
370
18
48
1
60
0
100
AcDbTrace
10
0
20
89.065
30
0
11
4.499996
21
90.062626
31
0
12
4.500004
22
88.067374
32
0
13
4.500004
23
88.067374
33
0
39
0
210
0
220
0
230
1
0
SOLID
5
20D
100
AcDbEntity
8
2
62
256
6
ByLayer
370
18
48
1
60
0
100
AcDbTrace
10
95
20
89.065
30
0
11
90.500004
21
88.067374
31
0
12
90.499996
22
90.062626
32
0
13
90.499996
23
90.062626
33
0
39
0
210
0
220
0
230
1
0
ENDBLK
5
20F
100
AcDbEntity
8
0
100
AcDbBlockEnd
0
BLOCK
5
214
100
AcDbEntity
8
0
100
AcDbBlockBegin
2
*D16
70
1
10
0
20
0
30
0
3
*D16
0
LINE
5
216
100
AcDbEntity
8
0
62
256
6
ByLayer
370
-2
48
1
60
0
100
AcDbLine
10
0
20
23.6425
30
0
11
0
21
91.065
31
0
39
0
210
0
220
0
230
1
0
LINE
5
217
100
AcDbEntity
8
0
62
256
6
ByLayer
370
-2
48
1
60
0
100
AcDbLine
10
-49.9
20
37.1875
30
0
11
-49.9
21
91.065
31
0
39
0
210
0
220
0
230
1
0
LINE
5
218
100
AcDbEntity
8
0
62
256
6
ByLayer
370
-2
48
1
60
0
100
AcDbLine
10
-4.5
20
89.065
30
0
11
-45.4
21
89.065
31
0
39
0
210
0
220
0
230
1
0
SOLID
5
219
100
AcDbEntity
8
0
62
256
6
ByLayer
370
-1
48
1
60
0
100
AcDbTrace
10
-4.5
20
88.315
30
0
11
-4.5
21
89.815
31
0
12
0
22
89.065
32
0
13
0
23
89.065
33
0
39
0
210
0
220
0
230
1
0
SOLID
5
21A
100
AcDbEntity
8
0
62
256
6
ByLayer
370
-1
48
1
60
0
100
AcDbTrace
10
-45.4
20
89.815
30
0
11
-45.4
21
88.315
31
0
12
-49.9
22
89.065
32
0
13
-49.9
23
89.065
33
0
39
0
210
0
220
0
230
1
0
MTEXT
5
21B
100
AcDbEntity
8
0
62
256
6
ByLayer
370
18
48
1
60
0
100
AcDbMText
10
-24.95
20
98.065
30
0
210
0
220
0
230
1
1
\A1;49.9
40
4.5
41
0
44
1
50
0
71
5
72
5
7
iso_b_vert
0
POINT
5
21C
100
AcDbEntity
8
Defpoints
62
0
6
ByLayer
370
-1
48
1
60
0
100
AcDbPoint
10
0
20
22.055
30
0
39
0
210
0
220
0
230
1
50
360
0
POINT
5
21D
100
AcDbEntity
8
Defpoints
62
0
6
ByLayer
370
-1
48
1
60
0
100
AcDbPoint
10
-49.9
20
35.6
30
0
39
0
210
0
220
0
230
1
50
360
0
POINT
5
21E
100
AcDbEntity
8
Defpoints
62
0
6
ByLayer
370
-1
48
1
60
0
100
AcDbPoint
10
-49.9
20
89.065
30
0
39
0
210
0
220
0
230
1
50
360
0
ENDBLK
5
215
100
AcDbEntity
8
0
100
AcDbBlockEnd
0
BLOCK
5
226
100
AcDbEntity
8
0
100
AcDbBlockBegin
2
_U7
70
0
10
0
20
0
30
0
3
_U7
0
MTEXT
5
220
100
AcDbEntity
8
SK2
62
256
6
ByLayer
370
18
48
1
60
0
100
AcDbMText
10
-30.110642
20
90.392672
30
0
210
0
220
0
230
1
1
\W0.7607;49,9
40
4.5
41
0
44
1.084337
50
0
71
7
72
5
7
iso_b_vert
0
LINE
5
221
100
AcDbEntity
8
SK2
62
256
6
ByLayer
370
13
48
1
60
0
100
AcDbLine
10
0
20
23.6425
30
0
11
0
21
91.065
31
0
39
0
210
0
220
0
230
1
0
LINE
5
222
100
AcDbEntity
8
SK2
62
256
6
ByLayer
370
13
48
1
60
0
100
AcDbLine
10
-49.9
20
37.1875
30
0
11
-49.9
21
91.065
31
0
39
0
210
0
220
0
230
1
0
LINE
5
223
100
AcDbEntity
8
SK2
62
256
6
ByLayer
370
13
48
1
60
0
100
AcDbLine
10
0
20
89.065
30
0
11
-49.9
21
89.065
31
0
39
0
210
0
220
0
230
1
0
SOLID
5
224
100
AcDbEntity
8
SK2
62
256
6
ByLayer
370
18
48
1
60
0
100
AcDbTrace
10
0
20
89.065
30
0
11
-4.499996
21
88.067374
31
0
12
-4.500004
22
90.062626
32
0
13
-4.500004
23
90.062626
33
0
39
0
210
0
220
0
230
1
0
SOLID
5
225
100
AcDbEntity
8
SK2
62
256
6
ByLayer
370
18
48
1
60
0
100
AcDbTrace
10
-49.9
20
89.065
30
0
11
-45.400004
21
90.062626
31
0
12
-45.399996
22
88.067374
32
0
13
-45.399996
23
88.067374
33
0
39
0
210
0
220
0
230
1
0
ENDBLK
5
227
100
AcDbEntity
8
0
100
AcDbBlockEnd
0
BLOCK
5
22C
100
AcDbEntity
8
0
100
AcDbBlockBegin
2
*D18
70
1
10
0
20
0
30
0
3
*D18
0
LINE
5
22E
100
AcDbEntity
8
0
62
256
6
ByLayer
370
-2
48
1
60
0
100
AcDbLine
10
0
20
23.6425
30
0
11
0
21
71.065
31
0
39
0
210
0
220
0
230
1
0
LINE
5
22F
100
AcDbEntity
8
0
62
256
6
ByLayer
370
-2
48
1
60
0
100
AcDbLine
10
29
20
51.5525
30
0
11
29
21
71.065
31
0
39
0
210
0
220
0
230
1
0
LINE
5
230
100
AcDbEntity
8
0
62
256
6
ByLayer
370
-2
48
1
60
0
100
AcDbLine
10
4.5
20
69.065
30
0
11
24.5
21
69.065
31
0
39
0
210
0
220
0
230
1
0
SOLID
5
231
100
AcDbEntity
8
0
62
256
6
ByLayer
370
-1
48
1
60
0
100
AcDbTrace
10
4.5
20
69.815
30
0
11
4.5
21
68.315
31
0
12
0
22
69.065
32
0
13
0
23
69.065
33
0
39
0
210
0
220
0
230
1
0
SOLID
5
232
100
AcDbEntity
8
0
62
256
6
ByLayer
370
-1
48
1
60
0
100
AcDbTrace
10
24.5
20
68.315
30
0
11
24.5
21
69.815
31
0
12
29
22
69.065
32
0
13
29
23
69.065
33
0
39
0
210
0
220
0
230
1
0
MTEXT
5
233
100
AcDbEntity
8
0
62
256
6
ByLayer
370
18
48
1
60
0
100
AcDbMText
10
14.5
20
78.065
30
0
210
0
220
0
230
1
1
\A1;29
40
4.5
41
0
44
1
50
0
71
5
72
5
7
iso_b_vert
0
POINT
5
234
100
AcDbEntity
8
Defpoints
62
0
6
ByLayer
370
-1
48
1
60
0
100
AcDbPoint
10
0
20
22.055
30
0
39
0
210
0
220
0
230
1
50
360
0
POINT
5
235
100
AcDbEntity
8
Defpoints
62
0
6
ByLayer
370
-1
48
1
60
0
100
AcDbPoint
10
29
20
49.965
30
0
39
0
210
0
220
0
230
1
50
360
0
POINT
5
236
100
AcDbEntity
8
Defpoints
62
0
6
ByLayer
370
-1
48
1
60
0
100
AcDbPoint
10
29
20
69.065
30
0
39
0
210
0
220
0
230
1
50
360
0
ENDBLK
5
22D
100
AcDbEntity
8
0
100
AcDbBlockEnd
0
BLOCK
5
23E
100
AcDbEntity
8
0
100
AcDbBlockBegin
2
_U8
70
0
10
0
20
0
30
0
3
_U8
0
MTEXT
5
238
100
AcDbEntity
8
SK2
62
256
6
ByLayer
370
18
48
1
60
0
100
AcDbMText
10
12.050758
20
70.392672
30
0
210
0
220
0
230
1
1
\W0.6927;29
40
4.5
41
0
44
1.084337
50
0
71
7
72
5
7
iso_b_vert
0
LINE
5
239
100
AcDbEntity
8
SK2
62
256
6
ByLayer
370
13
48
1
60
0
100
AcDbLine
10
0
20
23.6425
30
0
11
0
21
71.065
31
0
39
0
210
0
220
0
230
1
0
LINE
5
23A
100
AcDbEntity
8
SK2
62
256
6
ByLayer
370
13
48
1
60
0
100
AcDbLine
10
29
20
51.5525
30
0
11
29
21
71.065
31
0
39
0
210
0
220
0
230
1
0
LINE
5
23B
100
AcDbEntity
8
SK2
62
256
6
ByLayer
370
13
48
1
60
0
100
AcDbLine
10
0
20
69.065
30
0
11
29
21
69.065
31
0
39
0
210
0
220
0
230
1
0
SOLID
5
23C
100
AcDbEntity
8
SK2
62
256
6
ByLayer
370
18
48
1
60
0
100
AcDbTrace
10
0
20
69.065
30
0
11
4.499996
21
70.062626
31
0
12
4.500004
22
68.067374
32
0
13
4.500004
23
68.067374
33
0
39
0
210
0
220
0
230
1
0
SOLID
5
23D
100
AcDbEntity
8
SK2
62
256
6
ByLayer
370
18
48
1
60
0
100
AcDbTrace
10
29
20
69.065
30
0
11
24.500004
21
68.067374
31
0
12
24.499996
22
70.062626
32
0
13
24.499996
23
70.062626
33
0
39
0
210
0
220
0
230
1
0
ENDBLK
5
23F
100
AcDbEntity
8
0
100
AcDbBlockEnd
0
ENDSEC
0
SECTION
2
ENTITIES
0
ARC
5
103
100
AcDbEntity
8
1
62
256
6
ByLayer
370
18
48
1
60
0
100
AcDbCircle
39
0
10
56.750519
20
-18.5
30
0
40
2.5
210
0
220
0
230
1
100
AcDbArc
50
90
51
160
0
ARC
5
104
100
AcDbEntity
8
1
62
256
6
ByLayer
370
18
48
1
60
0
100
AcDbCircle
39
0
10
56.750519
20
18.5
30
0
40
2.5
210
0
220
0
230
1
100
AcDbArc
50
200
51
270
0
ARC
5
105
100
AcDbEntity
8
1
62
256
6
ByLayer
370
18
48
1
60
0
100
AcDbCircle
39
0
10
51.02406
20
-24
30
0
40
1
210
0
220
0
230
1
100
AcDbArc
50
270
51
340
0
ARC
5
106
100
AcDbEntity
8
1
62
256
6
ByLayer
370
18
48
1
60
0
100
AcDbCircle
39
0
10
51.02406
20
24
30
0
40
1
210
0
220
0
230
1
100
AcDbArc
50
20
51
90
0
ARC
5
107
100
AcDbEntity
8
1
62
256
6
ByLayer
370
18
48
1
60
0
100
AcDbCircle
39
0
10
31.45
20
27.5
30
0
40
2.5
210
0
220
0
230
1
100
AcDbArc
50
180
51
270
0
ARC
5
108
100
AcDbEntity
8
1
62
256
6
ByLayer
370
18
48
1
60
0
100
AcDbCircle
39
0
10
31.45
20
-27.5
30
0
40
2.5
210
0
220
0
230
1
100
AcDbArc
50
90
51
180
0
ARC
5
109
100
AcDbEntity
8
SK1
62
256
6
ByLayer
370
18
48
1
60
0
100
AcDbCircle
39
0
10
-0.8
20
38.632252
30
0
40
1
210
0
220
0
230
1
100
AcDbArc
50
270
51
323.130102
0
ARC
5
10A
100
AcDbEntity
8
SK1
62
256
6
ByLayer
370
18
48
1
60
0
100
AcDbCircle
39
0
10
-0.8
20
-38.632252
30
0
40
1
210
0
220
0
230
1
100
AcDbArc
50
36.869898
51
90
0
ARC
5
10B
100
AcDbEntity
8
SK1
62
256
6
ByLayer
370
18
48
1
60
0
100
AcDbCircle
39
0
10
-36.7
20
-34.125
30
0
40
1.9
210
0
220
0
230
1
100
AcDbArc
50
34.956498
51
90
0
ARC
5
10C
100
AcDbEntity
8
SK1
62
256
6
ByLayer
370
18
48
1
60
0
100
AcDbCircle
39
0
10
-41.7
20
34.125
30
0
40
1.9
210
0
220
0
230
1
100
AcDbArc
50
270
51
313.848061
0
ARC
5
10D
100
AcDbEntity
8
1
62
256
6
ByLayer
370
18
48
1
60
0
100
AcDbCircle
39
0
10
93.8
20
13.000586
30
0
40
1.2
210
0
220
0
230
1
100
AcDbArc
50
0
51
80
0
ARC
5
10E
100
AcDbEntity
8
1
62
256
6
ByLayer
370
18
48
1
60
0
100
AcDbCircle
39
0
10
93.8
20
-13.000586
30
0
40
1.2
210
0
220
0
230
1
100
AcDbArc
50
280
51
0
0
ARC
5
10F
100
AcDbEntity
8
1
62
256
6
ByLayer
370
18
48
1
60
0
100
AcDbCircle
39
0
10
81.950227
20
-4
30
0
40
20
210
0
220
0
230
1
100
AcDbArc
50
80
51
90
0
ARC
5
110
100
AcDbEntity
8
1
62
256
6
ByLayer
370
18
48
1
60
0
100
AcDbCircle
39
0
10
81.950227
20
4
30
0
40
20
210
0
220
0
230
1
100
AcDbArc
50
270
51
280
0
ELLIPSE
5
111
100
AcDbEntity
8
SK1
62
256
6
ByLayer
370
13
48
1
60
0
100
AcDbEllipse
10
-36.7
20
-33.386024
30
0
11
-1.9
21
2.32675207226252E-16
31
0
210
0
220
0
230
1
40
0.891007
41
-2.02954223438805
42
-1.5707963267949
0
ELLIPSE
5
112
100
AcDbEntity
8
1
62
256
6
ByLayer
370
18
48
1
60
0
100
AcDbEllipse
10
20
20
-7.629233
30
0
11
1.75
21
0
31
0
210
0
220
0
230
1
40
0.984808
41
-3.0325203847362
42
-0.0612609476745431
0
ELLIPSE
5
113
100
AcDbEntity
8
1
62
256
6
ByLayer
370
18
48
1
60
0
100
AcDbEllipse
10
20
20
7.629233
30
0
11
-1.75
21
2.14306111918916E-16
31
0
210
0
220
0
230
1
40
0.984808
41
-3.0086638594735
42
-0.0760850869764937
0
POINT
5
70
100
AcDbEntity
8
80
62
256
6
ByLayer
370
18
48
1
60
0
100
AcDbPoint
10
0
20
0
30
0
39
0
210
0
220
0
230
1
50
360
0
POINT
5
72
100
AcDbEntity
8
81
62
256
6
ByLayer
370
18
48
1
60
0
100
AcDbPoint
10
95
20
0
30
0
39
0
210
0
220
0
230
1
50
360
0
POINT
5
74
100
AcDbEntity
8
1
62
256
6
ByLayer
370
18
48
1
60
1
100
AcDbPoint
10
95
20
-16
30
0
39
0
210
0
220
0
230
1
50
360
0
POINT
5
76
100
AcDbEntity
8
1
62
256
6
ByLayer
370
18
48
1
60
1
100
AcDbPoint
10
95
20
16
30
0
39
0
210
0
220
0
230
1
50
360
0
POINT
5
77
100
AcDbEntity
8
1
62
256
6
ByLayer
370
18
48
1
60
1
100
AcDbPoint
10
95
20
6
30
0
39
0
210
0
220
0
230
1
50
360
0
POINT
5
78
100
AcDbEntity
8
1
62
256
6
ByLayer
370
18
48
1
60
1
100
AcDbPoint
10
95
20
-6
30
0
39
0
210
0
220
0
230
1
50
360
0
POINT
5
79
100
AcDbEntity
8
1
62
256
6
ByLayer
370
18
48
1
60
1
100
AcDbPoint
10
55
20
25
30
0
39
0
210
0
220
0
230
1
50
360
0
POINT
5
7A
100
AcDbEntity
8
1
62
256
6
ByLayer
370
18
48
1
60
1
100
AcDbPoint
10
55
20
-25
30
0
39
0
210
0
220
0
230
1
50
360
0
POINT
5
7B
100
AcDbEntity
8
1
62
256
6
ByLayer
370
18
48
1
60
1
100
AcDbPoint
10
49
20
-6
30
0
39
0
210
0
220
0
230
1
50
360
0
POINT
5
7C
100
AcDbEntity
8
1
62
256
6
ByLayer
370
18
48
1
60
1
100
AcDbPoint
10
83.7
20
-16
30
0
39
0
210
0
220
0
230
1
50
360
0
POINT
5
7D
100
AcDbEntity
8
1
62
256
6
ByLayer
370
18
48
1
60
1
100
AcDbPoint
10
95
20
-16
30
0
39
0
210
0
220
0
230
1
50
360
0
POINT
5
7E
100
AcDbEntity
8
1
62
256
6
ByLayer
370
18
48
1
60
1
100
AcDbPoint
10
95
20
16
30
0
39
0
210
0
220
0
230
1
50
360
0
POINT
5
7F
100
AcDbEntity
8
1
62
256
6
ByLayer
370
18
48
1
60
1
100
AcDbPoint
10
55
20
16
30
0
39
0
210
0
220
0
230
1
50
360
0
POINT
5
80
100
AcDbEntity
8
1
62
256
6
ByLayer
370
18
48
1
60
1
100
AcDbPoint
10
0
20
49.965
30
0
39
0
210
0
220
0
230
1
50
360
0
POINT
5
81
100
AcDbEntity
8
1
62
256
6
ByLayer
370
18
48
1
60
1
100
AcDbPoint
10
95
20
16
30
0
39
0
210
0
220
0
230
1
50
360
0
POINT
5
82
100
AcDbEntity
8
1
62
256
6
ByLayer
370
18
48
1
60
1
100
AcDbPoint
10
0
20
22.055
30
0
39
0
210
0
220
0
230
1
50
360
0
POINT
5
83
100
AcDbEntity
8
1
62
256
6
ByLayer
370
18
48
1
60
1
100
AcDbPoint
10
-49.9
20
35.6
30
0
39
0
210
0
220
0
230
1
50
360
0
POINT
5
84
100
AcDbEntity
8
1
62
256
6
ByLayer
370
18
48
1
60
1
100
AcDbPoint
10
0
20
22.055
30
0
39
0
210
0
220
0
230
1
50
360
0
POINT
5
85
100
AcDbEntity
8
1
62
256
6
ByLayer
370
18
48
1
60
1
100
AcDbPoint
10
29
20
49.965
30
0
39
0
210
0
220
0
230
1
50
360
0
POINT
5
86
100
AcDbEntity
8
1
62
256
6
ByLayer
370
18
48
1
60
1
100
AcDbPoint
10
-24.95
20
35.6
30
0
39
0
210
0
220
0
230
1
50
360
0
SPLINE
5
114
100
AcDbEntity
8
SK1
62
256
6
ByLayer
370
18
48
1
60
0
100
AcDbSpline
70
4
71
3
72
8
73
4
40
0
40
0
40
0
40
0
40
1
40
1
40
1
40
1
41
1
10
-48.0000748840348
20
32.2180191381091
30
0
41
1
10
-48.0872671766727
20
32.2186394162915
30
0
41
1
10
-48.1701858378083
20
32.2200218675636
30
0
41
1
10
-48.2500000000026
20
32.2214193285101
30
0
0
SPLINE
5
115
100
AcDbEntity
8
SK1
62
256
6
ByLayer
370
18
48
1
60
0
100
AcDbSpline
70
4
71
3
72
16
73
12
40
0
40
0
40
0
40
0
40
0.249999999999999
40
0.249999999999999
40
0.499999999999999
40
0.499999999999999
40
0.749999999999998
40
0.749999999999998
40
0.874999999999998
40
0.874999999999998
40
1
40
1
40
1
40
1
41
1
10
-48.25
20
32.2214193285101
30
0
41
1
10
-48.3271926111221
20
32.1386292038047
30
0
41
1
10
-48.4027254550249
20
32.0509309488243
30
0
41
1
10
-48.5487630795254
20
31.8664202589755
30
0
41
1
10
-48.6193596629137
20
31.7695548980976
30
0
41
1
10
-48.7515583290416
20
31.5684003800481
30
0
41
1
10
-48.8135365930104
20
31.4639005301247
30
0
41
1
10
-48.890678976663
20
31.3061007614431
30
0
41
1
10
-48.9136547790544
20
31.2533832647304
30
0
41
1
10
-48.9502629966483
20
31.1497138010379
30
0
41
1
10
-48.9636881947292
20
31.098751381076
30
0
41
1
10
-48.9697166806889
20
31.0518395799782
30
0
0
SPLINE
5
116
100
AcDbEntity
8
1
62
256
6
ByLayer
370
18
48
1
60
0
100
AcDbSpline
70
2053
71
3
72
116
73
112
40
0
40
0
40
0
40
0
40
0.0312500000000001
40
0.0312500000000001
40
0.0625000000000003
40
0.0625000000000003
40
0.0781250000000003
40
0.0781250000000003
40
0.0937500000000004
40
0.0937500000000004
40
0.125000000000001
40
0.125000000000001
40
0.140625000000001
40
0.140625000000001
40
0.156250000000002
40
0.156250000000002
40
0.187500000000002
40
0.187500000000002
40
0.203125000000002
40
0.203125000000002
40
0.218750000000002
40
0.218750000000002
40
0.234375000000003
40
0.234375000000003
40
0.250000000000003
40
0.250000000000003
40
0.265625000000003
40
0.265625000000003
40
0.273437500000003
40
0.273437500000003
40
0.281250000000003
40
0.281250000000003
40
0.312500000000005
40
0.312500000000005
40
0.328125000000005
40
0.328125000000005
40
0.343750000000006
40
0.343750000000006
40
0.359375000000007
40
0.359375000000007
40
0.367187500000007
40
0.367187500000007
40
0.375000000000008
40
0.375000000000008
40
0.406250000000009
40
0.406250000000009
40
0.421875000000009
40
0.421875000000009
40
0.43750000000001
40
0.43750000000001
40
0.468750000000011
40
0.468750000000011
40
0.484375000000011
40
0.484375000000011
40
0.500000000000011
40
0.500000000000011
40
0.531250000000011
40
0.531250000000011
40
0.546875000000011
40
0.546875000000011
40
0.554687500000011
40
0.554687500000011
40
0.562500000000011
40
0.562500000000011
40
0.593750000000011
40
0.593750000000011
40
0.609375000000012
40
0.609375000000012
40
0.625000000000012
40
0.625000000000012
40
0.656250000000012
40
0.656250000000012
40
0.671875000000012
40
0.671875000000012
40
0.687500000000012
40
0.687500000000012
40
0.718750000000013
40
0.718750000000013
40
0.726562500000013
40
0.726562500000013
40
0.734375000000012
40
0.734375000000012
40
0.750000000000012
40
0.750000000000012
40
0.765625000000011
40
0.765625000000011
40
0.773437500000011
40
0.773437500000011
40
0.781250000000011
40
0.781250000000011
40
0.812500000000009
40
0.812500000000009
40
0.828125000000008
40
0.828125000000008
40
0.843750000000007
40
0.843750000000007
40
0.859375000000006
40
0.859375000000006
40
0.875000000000006
40
0.875000000000006
40
0.906250000000004
40
0.906250000000004
40
0.921875000000003
40
0.921875000000003
40
0.937500000000003
40
0.937500000000003
40
0.953125000000002
40
0.953125000000002
40
0.968750000000002
40
0.968750000000002
40
1
40
1
40
1
40
1
41
1
10
39.75
20
-22.1979728804231
30
0
41
1
10
39.75
20
-22.0269721837477
30
0
41
1
10
39.7808118367498
20
-21.8516038646982
30
0
41
1
10
39.897169414056
20
-21.4928356821103
30
0
41
1
10
39.9827580809529
20
-21.3094312274768
30
0
41
1
10
40.1518430597583
20
-21.0291187891908
30
0
41
1
10
40.2152014910297
20
-20.9345912722457
30
0
41
1
10
40.3553665736649
20
-20.7449833198463
30
0
41
1
10
40.4315098401823
20
-20.65075765397
30
0
41
1
10
40.6778460022029
20
-20.370262601346
30
0
41
1
10
40.8657376530849
20
-20.1861018942244
30
0
41
1
10
41.1854982948819
20
-19.9169915079185
30
0
41
1
10
41.2984535378123
20
-19.8284923204688
30
0
41
1
10
41.5382379394257
20
-19.654655296318
30
0
41
1
10
41.6639063242046
20
-19.570194465134
30
0
41
1
10
42.0565632918573
20
-19.3270148649863
30
0
41
1
10
42.3398982392075
20
-19.1775783779899
30
0
41
1
10
42.803818344975
20
-18.9800382770534
30
0
41
1
10
42.9654302284705
20
-18.9186435238087
30
0
41
1
10
43.2949597461164
20
-18.8094121915628
30
0
41
1
10
43.4637751307593
20
-18.7611493882127
30
0
41
1
10
43.8101048343194
20
-18.6787323988437
30
0
41
1
10
43.9876157677801
20
-18.6445730359237
30
0
41
1
10
44.3522783770783
20
-18.5922501732288
30
0
41
1
10
44.535239695257
20
-18.5747197064666
30
0
41
1
10
44.9014476012168
20
-18.5569770849292
30
0
41
1
10
45.0848536389218
20
-18.5567423394031
30
0
41
1
10
45.3604202104996
20
-18.5694721331936
30
0
41
1
10
45.4523521023057
20
-18.5758976292735
30
0
41
1
10
45.6363708079591
20
-18.5931586391863
30
0
41
1
10
45.7284705047993
20
-18.6040190375094
30
0
41
1
10
46.1819944515331
20
-18.6682298008096
30
0
41
1
10
46.5287447680451
20
-18.7515094612535
30
0
41
1
10
47.0277555523022
20
-18.9161272110853
30
0
41
1
10
47.188043393081
20
-18.9768571479792
30
0
41
1
10
47.4959817817426
20
-19.1074266755417
30
0
41
1
10
47.6439810723101
20
-19.1773897198841
30
0
41
1
10
47.929090105528
20
-19.3253185310103
30
0
41
1
10
48.0661960555891
20
-19.4032881304754
30
0
41
1
10
48.2641303463912
20
-19.5255128013299
30
0
41
1
10
48.3289341612828
20
-19.5672191997514
30
0
41
1
10
48.4548467301121
20
-19.6515023116912
30
0
41
1
10
48.5160843054314
20
-19.6941522371341
30
0
41
1
10
48.8140934775845
20
-19.9096538707997
30
0
41
1
10
49.026625864835
20
-20.0891356568017
30
0
41
1
10
49.3105374469153
20
-20.3651902095549
30
0
41
1
10
49.3993020016819
20
-20.4583718935429
30
0
41
1
10
49.5651201539336
20
-20.6466699174982
30
0
41
1
10
49.6420342313054
20
-20.7417077256121
30
0
41
1
10
49.8515772356646
20
-21.0244594624021
30
0
41
1
10
49.9646545176185
20
-21.2113809218542
30
0
41
1
10
50.0944024258772
20
-21.488137136812
30
0
41
1
10
50.130960336625
20
-21.5797915309133
30
0
41
1
10
50.1901215778256
20
-21.7617629535306
30
0
41
1
10
50.2126690476976
20
-21.8521984731513
30
0
41
1
10
50.2574700939512
20
-22.1162802378457
30
0
41
1
10
50.2577484039918
20
-22.2844341082227
30
0
41
1
10
50.2118091833093
20
-22.5250398147826
30
0
41
1
10
50.1887247176962
20
-22.6033026347834
30
0
41
1
10
50.1417288858272
20
-22.7178032675465
30
0
41
1
10
50.1239985312072
20
-22.7554877916361
30
0
41
1
10
50.0842405533516
20
-22.8298935796753
30
0
41
1
10
50.0621780710927
20
-22.8666405982052
30
0
41
1
10
49.9422259785378
20
-23.0458195781292
30
0
41
1
10
49.814803626082
20
-23.1764323890899
30
0
41
1
10
49.5750346162963
20
-23.3554711442162
30
0
41
1
10
49.4869590711902
20
-23.4123272616252
30
0
41
1
10
49.2936140109905
20
-23.5206501593256
30
0
41
1
10
49.187592899445
20
-23.572393837439
30
0
41
1
10
48.8497688655685
20
-23.7165917956997
30
0
41
1
10
48.5975931531294
20
-23.7989484055413
30
0
41
1
10
48.1783687058758
20
-23.9053944932108
30
0
41
1
10
48.0317287887925
20
-23.9380111608451
30
0
41
1
10
47.7240900400858
20
-23.9978174061644
30
0
41
1
10
47.5660274781634
20
-24.0244417906595
30
0
41
1
10
47.0795085871336
20
-24.0956364628028
30
0
41
1
10
46.7388586999772
20
-24.1316560595129
30
0
41
1
10
46.2919433052647
20
-24.1641223896767
30
0
41
1
10
46.2014348449306
20
-24.1699753963868
30
0
41
1
10
46.0205407863304
20
-24.1802939391216
30
0
41
1
10
45.9298755894619
20
-24.1847815437132
30
0
41
1
10
45.6572366683596
20
-24.1963091299307
30
0
41
1
10
45.4746214482184
20
-24.2014235200694
30
0
41
1
10
45.1076929082595
20
-24.2066930453744
30
0
41
1
10
44.9233796926732
20
-24.2068484882223
30
0
41
1
10
44.645601496628
20
-24.2032634232413
30
0
41
1
10
44.5525152123642
20
-24.2014201526781
30
0
41
1
10
44.3678609166826
20
-24.1964683493305
30
0
41
1
10
44.276175803126
20
-24.1933624872764
30
0
41
1
10
43.8208974803504
20
-24.1746919658369
30
0
41
1
10
43.4666391187691
20
-24.1498910562463
30
0
41
1
10
42.9503182231511
20
-24.0957944536837
30
0
41
1
10
42.7804593705438
20
-24.0748207653568
30
0
41
1
10
42.4539896882097
20
-24.0276557466055
30
0
41
1
10
42.2963174906176
20
-24.0013707174811
30
0
41
1
10
41.9918617243255
20
-23.9429553356829
30
0
41
1
10
41.8450788757653
20
-23.9108256557021
30
0
41
1
10
41.5625084181347
20
-23.8400471931447
30
0
41
1
10
41.4262189872191
20
-23.8011867347441
30
0
41
1
10
41.0428474623778
20
-23.6764246220391
30
0
41
1
10
40.8181854037569
20
-23.5818536017634
30
0
41
1
10
40.5255477061855
20
-23.4199792128268
30
0
41
1
10
40.43504376974
20
-23.3623275373821
30
0
41
1
10
40.2719621209118
20
-23.2418245780615
30
0
41
1
10
40.1991393352666
20
-23.1789328745088
30
0
41
1
10
40.0700345804998
20
-23.0476537191928
30
0
41
1
10
40.0137553241169
20
-22.9792664033101
30
0
41
1
10
39.9172979624391
20
-22.836723300135
30
0
41
1
10
39.8770378035468
20
-22.7623576268481
30
0
41
1
10
39.7809143313512
20
-22.5315419326316
30
0
41
1
10
39.75
20
-22.3689735770985
30
0
41
1
10
39.75
20
-22.1979728804231
30
0
0
SPLINE
5
117
100
AcDbEntity
8
1
62
256
6
ByLayer
370
18
48
1
60
0
100
AcDbSpline
70
4
71
3
72
18
73
14
40
0
40
0
40
0
40
0
40
0.125
40
0.125
40
0.25
40
0.25
40
0.375
40
0.375
40
0.5
40
0.5
40
0.75
40
0.75
40
1
40
1
40
1
40
1
41
1
10
21.525
20
44.8695908606263
30
0
41
1
10
21.5517378464693
20
44.8695908606263
30
0
41
1
10
21.5780101894623
20
44.8723101582132
30
0
41
1
10
21.6296644478641
20
44.8829502990312
30
0
41
1
10
21.6553243182897
20
44.8910115548159
30
0
41
1
10
21.7040121339361
20
44.911927757222
30
0
41
1
10
21.7270694103047
20
44.9247079592142
30
0
41
1
10
21.7706424702431
20
44.9548552263696
30
0
41
1
10
21.7911169009721
20
44.9722869852765
30
0
41
1
10
21.8460780376992
20
45.0292352390516
30
0
41
1
10
21.8754510308215
20
45.0748760654238
30
0
41
1
10
21.9146673402983
20
45.1727794546347
30
0
41
1
10
21.925
20
45.2259166074628
30
0
41
1
10
21.925
20
45.2793571509137
30
0
0
SPLINE
5
118
100
AcDbEntity
8
1
62
256
6
ByLayer
370
18
48
1
60
0
100
AcDbSpline
70
4
71
3
72
8
73
4
40
0
40
0
40
0
40
0
40
1
40
1
40
1
40
1
41
1
10
23.2418217614998
20
48.9497781813156
30
0
41
1
10
22.8025473277703
20
48.1731525519584
30
0
41
1
10
22.3635905977075
20
47.3963468891299
30
0
41
1
10
21.925
20
46.6193337496941
30
0
0
SPLINE
5
119
100
AcDbEntity
8
1
62
256
6
ByLayer
370
18
48
1
60
0
100
AcDbSpline
70
4
71
3
72
18
73
14
40
0
40
0
40
0
40
0
40
0.250000000000008
40
0.250000000000008
40
0.375000000000009
40
0.375000000000009
40
0.50000000000001
40
0.50000000000001
40
0.62500000000001
40
0.62500000000001
40
0.750000000000011
40
0.750000000000011
40
1
40
1
40
1
40
1
41
1
10
18.075
20
45.2793571509137
30
0
41
1
10
18.075
20
45.2258951579939
30
0
41
1
10
18.0850987620181
20
45.1734873705315
30
0
41
1
10
18.1146615643392
20
45.0994985711344
30
0
41
1
10
18.1267390541631
20
45.0760690993221
30
0
41
1
10
18.1553121188661
20
45.0316613441459
30
0
41
1
10
18.1720193738144
20
45.0105106814329
30
0
41
1
10
18.2087066861074
20
44.97244290554
30
0
41
1
10
18.2287465288035
20
44.9553398928838
30
0
41
1
10
18.2722976889051
20
44.9250856644646
30
0
41
1
10
18.2957997133537
20
44.9120339458099
30
0
41
1
10
18.3684406058228
20
44.8807519638871
30
0
41
1
10
18.4215003788337
20
44.8695908606258
30
0
41
1
10
18.4749999999999
20
44.8695908606258
30
0
0
SPLINE
5
11A
100
AcDbEntity
8
1
62
256
6
ByLayer
370
18
48
1
60
0
100
AcDbSpline
70
4
71
3
72
8
73
4
40
0
40
0
40
0
40
0
40
1
40
1
40
1
40
1
41
1
10
18.075
20
46.6193337496941
30
0
41
1
10
17.6364094022925
20
47.3963468891299
30
0
41
1
10
17.1974526722298
20
48.1731525519584
30
0
41
1
10
16.7581782385003
20
48.9497781813156
30
0
0
SPLINE
5
11B
100
AcDbEntity
8
1
62
256
6
ByLayer
370
18
48
1
60
0
100
AcDbSpline
70
4
71
3
72
8
73
4
40
0
40
0
40
0
40
0
40
1
40
1
40
1
40
1
41
1
10
28.25
20
48.9497781813156
30
0
41
1
10
28.4833688074846
20
48.7115692884626
30
0
41
1
10
28.7167026607245
20
48.473326146111
30
0
41
1
10
28.95
20
48.2350472581919
30
0
0
SPLINE
5
11C
100
AcDbEntity
8
1
62
256
6
ByLayer
370
18
48
1
60
0
100
AcDbSpline
70
4
71
3
72
8
73
4
40
0
40
0
40
0
40
0
40
1
40
1
40
1
40
1
41
1
10
28.95
20
38.0028646946516
30
0
41
1
10
28.7173562411003
20
38.3044523479584
30
0
41
1
10
28.4840108581953
20
38.6054962027896
30
0
41
1
10
28.25
20
38.9060242764536
30
0
0
SPLINE
5
11D
100
AcDbEntity
8
1
62
256
6
ByLayer
370
18
48
1
60
0
100
AcDbSpline
70
4
71
3
72
14
73
10
40
0
40
0
40
0
40
0
40
0.25
40
0.25
40
0.5
40
0.5
40
0.75
40
0.75
40
1
40
1
40
1
40
1
41
1
10
21.925
20
34.1733540203475
30
0
41
1
10
21.925
20
34.1108627893628
30
0
41
1
10
21.9172890126657
20
34.0494534877724
30
0
41
1
10
21.8853877951666
20
33.9289470887802
30
0
41
1
10
21.8615898121832
20
33.8714388679173
30
0
41
1
10
21.7951921456049
20
33.7660665659034
30
0
41
1
10
21.752602730807
20
33.7187708180694
30
0
41
1
10
21.6489016655089
20
33.6494788884693
30
0
41
1
10
21.5879901196903
20
33.6285314130724
30
0
41
1
10
21.525
20
33.6285314130724
30
0
0
SPLINE
5
11E
100
AcDbEntity
8
1
62
256
6
ByLayer
370
18
48
1
60
0
100
AcDbSpline
70
4
71
3
72
18
73
14
40
0
40
0
40
0
40
0
40
0.125000000000002
40
0.125000000000002
40
0.250000000000004
40
0.250000000000004
40
0.375000000000006
40
0.375000000000006
40
0.500000000000007
40
0.500000000000007
40
0.750000000000004
40
0.750000000000004
40
1
40
1
40
1
40
1
41
1
10
18.475
20
33.6285314130724
30
0
41
1
10
18.4434987369894
20
33.6285314130724
30
0
41
1
10
18.4129304493033
20
33.6335454460468
30
0
41
1
10
18.3534920432836
20
33.6526998810503
30
0
41
1
10
18.3252736656945
20
33.6667501121099
30
0
41
1
10
18.273475100613
20
33.7013305092828
30
0
41
1
10
18.2496079235521
20
33.7220658364735
30
0
41
1
10
18.2072915355371
20
33.7672773212184
30
0
41
1
10
18.188439999168
20
33.7920716989343
30
0
41
1
10
18.1383780626368
20
33.8714311447422
30
0
41
1
10
18.1147728929386
20
33.9284926539025
30
0
41
1
10
18.0827688667537
20
34.0490833264241
30
0
41
1
10
18.075
20
34.110859737085
30
0
41
1
10
18.075
20
34.1733540203475
30
0
0
SPLINE
5
11F
100
AcDbEntity
8
1
62
256
6
ByLayer
370
18
48
1
60
0
100
AcDbSpline
70
4
71
3
72
8
73
4
40
0
40
0
40
0
40
0
40
1
40
1
40
1
40
1
41
1
10
18.075
20
35.9299348769987
30
0
41
1
10
17.6422334838249
20
36.9247269811209
30
0
41
1
10
17.2029449502984
20
37.9166925396768
30
0
41
1
10
16.7581782385003
20
38.9060242764536
30
0
0
SPLINE
5
120
100
AcDbEntity
8
SK1
62
256
6
ByLayer
370
18
48
1
60
0
100
AcDbSpline
70
4
71
3
72
38
73
34
40
0
40
0
40
0
40
0
40
0.124999999999985
40
0.124999999999985
40
0.249999999999969
40
0.249999999999969
40
0.374999999999954
40
0.374999999999954
40
0.437499999999946
40
0.437499999999946
40
0.468749999999943
40
0.468749999999943
40
0.484374999999942
40
0.484374999999942
40
0.499999999999941
40
0.499999999999941
40
0.51562499999994
40
0.51562499999994
40
0.531249999999939
40
0.531249999999939
40
0.562499999999944
40
0.562499999999944
40
0.593749999999948
40
0.593749999999948
40
0.624999999999953
40
0.624999999999953
40
0.687499999999961
40
0.687499999999961
40
0.749999999999969
40
0.749999999999969
40
0.874999999999984
40
0.874999999999984
40
1
40
1
40
1
40
1
41
1
10
-48.9697166806889
20
31.0518395799782
30
0
41
1
10
-48.9785920072052
20
30.9827745518777
30
0
41
1
10
-48.9897988429112
20
30.9117001184861
30
0
41
1
10
-49.0180200701852
20
30.7651112497696
30
0
41
1
10
-49.0349596018354
20
30.689617644059
30
0
41
1
10
-49.0776368040331
20
30.5317908512401
30
0
41
1
10
-49.1028110851933
20
30.4499369160026
30
0
41
1
10
-49.1550913172456
20
30.317350722814
30
0
41
1
10
-49.1748981865299
20
30.2713888389703
30
0
41
1
10
-49.213105131189
20
30.1984221538169
30
0
41
1
10
-49.2271311024145
20
30.1735571398704
30
0
41
1
10
-49.2532197444689
20
30.1341354250739
30
0
41
1
10
-49.2626054593683
20
30.1209142770315
30
0
41
1
10
-49.2836318505295
20
30.0945179347595
30
0
41
1
10
-49.2953270589805
20
30.0813976247599
30
0
41
1
10
-49.319353824489
20
30.0587891916677
30
0
41
1
10
-49.3315330405264
20
30.0495225827976
30
0
41
1
10
-49.3534803255341
20
30.0364407310505
30
0
41
1
10
-49.3632583160042
20
30.03244544729
30
0
41
1
10
-49.3893780959704
20
30.0251732526116
30
0
41
1
10
-49.402790966828
20
30.0261603638781
30
0
41
1
10
-49.426109610967
20
30.0320990988029
30
0
41
1
10
-49.4360300073955
20
30.0373756104626
30
0
41
1
10
-49.4536465627324
20
30.05009267426
30
0
41
1
10
-49.4613809145867
20
30.0576000217042
30
0
41
1
10
-49.4825843709667
20
30.0822611043646
30
0
41
1
10
-49.4940886918431
20
30.10151663653
30
0
41
1
10
-49.5143265433238
20
30.1429917109399
30
0
41
1
10
-49.5230060395869
20
30.1653087850481
30
0
41
1
10
-49.5461141913003
20
30.2350370912028
30
0
41
1
10
-49.55769939786
20
30.2851732802833
30
0
41
1
10
-49.5766217121052
20
30.3895051882632
30
0
41
1
10
-49.5838739667785
20
30.4437819936304
30
0
41
1
10
-49.5895655549792
20
30.4995501889748
30
0
0
SPLINE
5
121
100
AcDbEntity
8
1
62
256
6
ByLayer
370
18
48
1
60
0
100
AcDbSpline
70
4
71
3
72
8
73
4
40
0
40
0
40
0
40
0
40
1
40
1
40
1
40
1
41
1
10
23.2418217614997
20
38.9060242764536
30
0
41
1
10
22.7970550497016
20
37.9166925396768
30
0
41
1
10
22.3577665161751
20
36.9247269811209
30
0
41
1
10
21.925
20
35.9299348769987
30
0
0
SPLINE
5
122
100
AcDbEntity
8
SK1
62
256
6
ByLayer
370
18
48
1
60
0
100
AcDbSpline
70
4
71
3
72
20
73
16
40
0
40
0
40
0
40
0
40
0.125000000000001
40
0.125000000000001
40
0.250000000000003
40
0.250000000000003
40
0.375000000000004
40
0.375000000000004
40
0.500000000000005
40
0.500000000000005
40
0.750000000000002
40
0.750000000000002
40
0.875000000000001
40
0.875000000000001
40
1
40
1
40
1
40
1
41
1
10
-49.5895655549784
20
30.4995501889755
30
0
41
1
10
-49.5938438505297
20
30.5414704428013
30
0
41
1
10
-49.6049683093642
20
30.5736536682674
30
0
41
1
10
-49.63404517589
20
30.6211675217734
30
0
41
1
10
-49.6518644269889
20
30.6372366968267
30
0
41
1
10
-49.6892963863512
20
30.6593955935909
30
0
41
1
10
-49.7090162772404
20
30.6654187392771
30
0
41
1
10
-49.7472116456448
20
30.669914592121
30
0
41
1
10
-49.7657471332944
20
30.6684012417398
30
0
41
1
10
-49.8175132720516
20
30.6548592983592
30
0
41
1
10
-49.8468765798769
20
30.6339008480967
30
0
41
1
10
-49.877780648273
20
30.5885036001346
30
0
41
1
10
-49.8859126744472
20
30.5710058767978
30
0
41
1
10
-49.897027983605
20
30.5317088740763
30
0
41
1
10
-49.9000000000001
20
30.5098178790645
30
0
41
1
10
-49.9
20
30.4863255500981
30
0
0
SPLINE
5
123
100
AcDbEntity
8
SK1
62
256
6
ByLayer
370
18
48
1
60
0
100
AcDbSpline
70
4
71
3
72
18
73
14
40
0
40
0
40
0
40
0
40
0.249999999999999
40
0.249999999999999
40
0.499999999999998
40
0.499999999999998
40
0.624999999999999
40
0.624999999999999
40
0.749999999999999
40
0.749999999999999
40
0.875
40
0.875
40
1
40
1
40
1
40
1
41
1
10
-49.9
20
-30.4863255500981
30
0
41
1
10
-49.9
20
-30.5331440500946
30
0
41
1
10
-49.8880954243342
20
-30.5734119958504
30
0
41
1
10
-49.8466949254967
20
-30.6341069216931
30
0
41
1
10
-49.8172289822046
20
-30.6550057044745
30
0
41
1
10
-49.7654721025835
20
-30.6684367338321
30
0
41
1
10
-49.746966021924
20
-30.6699096269832
30
0
41
1
10
-49.7088928990193
20
-30.6653800372027
30
0
41
1
10
-49.6892337992104
20
-30.6593913261802
30
0
41
1
10
-49.6516067034723
20
-30.6370510672176
30
0
41
1
10
-49.6337937644521
20
-30.6208519565919
30
0
41
1
10
-49.6049071185944
20
-30.5734573819969
30
0
41
1
10
-49.5939181016739
20
-30.5421979817881
30
0
41
1
10
-49.5895655549784
20
-30.4995501889754
30
0
0
SPLINE
5
124
100
AcDbEntity
8
SK1
62
256
6
ByLayer
370
18
48
1
60
0
100
AcDbSpline
70
4
71
3
72
40
73
36
40
0
40
0
40
0
40
0
40
0.125000000000007
40
0.125000000000007
40
0.250000000000015
40
0.250000000000015
40
0.312500000000019
40
0.312500000000019
40
0.375000000000023
40
0.375000000000023
40
0.406250000000023
40
0.406250000000023
40
0.437500000000023
40
0.437500000000023
40
0.468750000000024
40
0.468750000000024
40
0.484375000000021
40
0.484375000000021
40
0.500000000000018
40
0.500000000000018
40
0.515625000000015
40
0.515625000000015
40
0.531250000000013
40
0.531250000000013
40
0.56250000000001
40
0.56250000000001
40
0.62500000000001
40
0.62500000000001
40
0.687500000000009
40
0.687500000000009
40
0.750000000000008
40
0.750000000000008
40
0.875000000000004
40
0.875000000000004
40
1
40
1
40
1
40
1
41
1
10
-49.5895655549792
20
-30.4995501889747
30
0
41
1
10
-49.5838353228094
20
-30.4434033463457
30
0
41
1
10
-49.5765237282894
20
-30.3887657890136
30
0
41
1
10
-49.5574093314111
20
-30.2837771770311
30
0
41
1
10
-49.5456957326029
20
-30.2333409846471
30
0
41
1
10
-49.5222591930027
20
-30.1632854640857
30
0
41
1
10
-49.5134598230438
20
-30.1409133703465
30
0
41
1
10
-49.4928886422764
20
-30.0993914077422
30
0
41
1
10
-49.4811795919192
20
-30.0801448890007
30
0
41
1
10
-49.4594795206729
20
-30.0556760550679
30
0
41
1
10
-49.4515481246873
20
-30.0482624420088
30
0
41
1
10
-49.4333883452651
20
-30.0358790510255
30
0
41
1
10
-49.423180328387
20
-30.030864964393
30
0
41
1
10
-49.3989452107881
20
-30.0258282630629
30
0
41
1
10
-49.3848860971834
20
-30.0254524368677
30
0
41
1
10
-49.3572375948682
20
-30.0348646694981
30
0
41
1
10
-49.3471371335928
20
-30.039655805845
30
0
41
1
10
-49.3240756254536
20
-30.055018933378
30
0
41
1
10
-49.311633741674
20
-30.0654809554195
30
0
41
1
10
-49.2878974305992
20
-30.0894997512517
30
0
41
1
10
-49.2766782142939
20
-30.1028469760892
30
0
41
1
10
-49.2564939288942
20
-30.1293708479221
30
0
41
1
10
-49.2473774605384
20
-30.1426915407753
30
0
41
1
10
-49.2224337229422
20
-30.1815979777182
30
0
41
1
10
-49.208462927181
20
-30.2068796389626
30
0
41
1
10
-49.1713028177833
20
-30.2793276173569
30
0
41
1
10
-49.1521030123029
20
-30.3244567972158
30
0
41
1
10
-49.117846377049
20
-30.4123592208556
30
0
41
1
10
-49.1032444980111
20
-30.4545620875276
30
0
41
1
10
-49.0770941752504
20
-30.5364615922634
30
0
41
1
10
-49.0655553917678
20
-30.5762354690865
30
0
41
1
10
-49.0341580608355
20
-30.693093404698
30
0
41
1
10
-49.0174697672
20
-30.7677510917348
30
0
41
1
10
-48.9896238249295
20
-30.9128335552643
30
0
41
1
10
-48.978535329285
20
-30.9832156018093
30
0
41
1
10
-48.9697166806889
20
-31.0518395799783
30
0
0
SPLINE
5
125
100
AcDbEntity
8
SK1
62
256
6
ByLayer
370
18
48
1
60
0
100
AcDbSpline
70
4
71
3
72
16
73
12
40
0
40
0
40
0
40
0
40
0.125000000000001
40
0.125000000000001
40
0.250000000000003
40
0.250000000000003
40
0.500000000000002
40
0.500000000000002
40
0.750000000000001
40
0.750000000000001
40
1
40
1
40
1
40
1
41
1
10
-48.9697166806889
20
-31.0518395799783
30
0
41
1
10
-48.9637063548781
20
-31.0986100644505
30
0
41
1
10
-48.9503765441757
20
-31.1493366368437
30
0
41
1
10
-48.9137832609594
20
-31.2530746683362
30
0
41
1
10
-48.8908057316729
20
-31.3058228219767
30
0
41
1
10
-48.8136508224281
20
-31.4637040410836
30
0
41
1
10
-48.7516550184804
20
-31.5682444455936
30
0
41
1
10
-48.6194252885657
20
-31.7694638418396
30
0
41
1
10
-48.5488137390866
20
-31.8663536140567
30
0
41
1
10
-48.402748993605
20
-32.0509038470389
30
0
41
1
10
-48.3272038467047
20
-32.13861715349
30
0
41
1
10
-48.2499999999955
20
-32.221419328515
30
0
0
SPLINE
5
126
100
AcDbEntity
8
SK1
62
256
6
ByLayer
370
18
48
1
60
0
100
AcDbSpline
70
4
71
3
72
48
73
44
40
0
40
0
40
0
40
0
40
0.0304136410920244
40
0.0304136410920244
40
0.118606224178054
40
0.118606224178054
40
0.162702515721068
40
0.162702515721068
40
0.206798807264083
40
0.206798807264083
40
0.250895098807098
40
0.250895098807098
40
0.272943244578605
40
0.272943244578605
40
0.294991390350112
40
0.294991390350112
40
0.383183973436139
40
0.383183973436139
40
0.405232119207645
40
0.405232119207645
40
0.427280264979152
40
0.427280264979152
40
0.471376556522165
40
0.471376556522165
40
0.559569139608191
40
0.559569139608191
40
0.581617285379698
40
0.581617285379698
40
0.603665431151204
40
0.603665431151204
40
0.647761722694218
40
0.647761722694218
40
0.735954305780244
40
0.735954305780244
40
0.82414688886627
40
0.82414688886627
40
0.868243180409283
40
0.868243180409283
40
0.890291326180789
40
0.890291326180789
40
0.912339471952295
40
0.912339471952295
40
1
40
1
40
1
40
1
41
1
10
-21.5003030900299
20
36.9303274279971
30
0
41
1
10
-21.5003205896252
20
36.9303287485353
30
0
41
1
10
-21.4945817763358
20
36.9297144142717
30
0
41
1
10
-21.4498288048684
20
36.9249401100864
30
0
41
1
10
-21.3693936385694
20
36.9163245075861
30
0
41
1
10
-21.1798585373343
20
36.897133000463
30
0
41
1
10
-21.1045484218457
20
36.8896418336767
30
0
41
1
10
-20.9336984414678
20
36.8732096996663
30
0
41
1
10
-20.8381663994694
20
36.8642674983842
30
0
41
1
10
-20.6277026172264
20
36.8453956781906
30
0
41
1
10
-20.5127683695523
20
36.8354652706284
30
0
41
1
10
-20.3259534364661
20
36.8201847810037
30
0
41
1
10
-20.2612748889477
20
36.8150272955365
30
0
41
1
10
-20.1270714652588
20
36.8046467961892
30
0
41
1
10
-20.0575839629269
20
36.7994279044641
30
0
41
1
10
-19.7018759519755
20
36.7736107865396
30
0
41
1
10
-19.3882948559382
20
36.7536248949776
30
0
41
1
10
-18.9620640465054
20
36.7319290441064
30
0
41
1
10
-18.8750883563166
20
36.7277542839077
30
0
41
1
10
-18.697663084403
20
36.7197967214497
30
0
41
1
10
-18.6069830648147
20
36.716005392555
30
0
41
1
10
-18.33159291211
20
36.7053889620148
30
0
41
1
10
-18.1438090790637
20
36.6993254571723
30
0
41
1
10
-17.5684458351734
20
36.6846878981391
30
0
41
1
10
-17.1689578013558
20
36.6796620819657
30
0
41
1
10
-16.6498428130994
20
36.6809736164551
30
0
41
1
10
-16.5447734644276
20
36.6816193234952
30
0
41
1
10
-16.3343566840739
20
36.683694093718
30
0
41
1
10
-16.2289201577456
20
36.6851213491485
30
0
41
1
10
-15.9119423978817
20
36.6905867845331
30
0
41
1
10
-15.6997345346391
20
36.6958087892369
30
0
41
1
10
-15.0605125507604
20
36.7163150853667
30
0
41
1
10
-14.6303851822011
20
36.736473095903
30
0
41
1
10
-13.7652261619111
20
36.7900879436726
30
0
41
1
10
-13.3417623294627
20
36.8228041039209
30
0
41
1
10
-12.7196612322654
20
36.8794901682004
30
0
41
1
10
-12.5144907978947
20
36.899654325518
30
0
41
1
10
-12.2100856511036
20
36.931641208065
30
0
41
1
10
-12.1091765833283
20
36.9425935267274
30
0
41
1
10
-11.9084979340843
20
36.9650497232216
30
0
41
1
10
-11.8085453104273
20
36.9765766243879
30
0
41
1
10
-11.3188612693283
20
37.0346536310643
30
0
41
1
10
-10.9485423328088
20
37.0836923152395
30
0
41
1
10
-10.5990327309415
20
37.1337504322447
30
0
0
SPLINE
5
127
100
AcDbEntity
8
SK1
62
256
6
ByLayer
370
18
48
1
60
0
100
AcDbSpline
70
4
71
3
72
28
73
24
40
0
40
0
40
0
40
0
40
0.0012945512515772
40
0.0012945512515772
40
0.108585916778188
40
0.108585916778188
40
0.215877282304798
40
0.215877282304798
40
0.430460013358017
40
0.430460013358017
40
0.537751378884628
40
0.537751378884628
40
0.591397061647934
40
0.591397061647934
40
0.645042744411239
40
0.645042744411239
40
0.859625475464461
40
0.859625475464461
40
0.913271158227765
40
0.913271158227765
40
0.966916840991071
40
0.966916840991071
40
1
40
1
40
1
40
1
41
1
10
-10.5990327306974
20
37.1337504322796
30
0
41
1
10
-10.59691138439
20
37.1340542597027
30
0
41
1
10
-10.5947908046726
20
37.1343581246804
30
0
41
1
10
-10.4169825834356
20
37.1598491941588
30
0
41
1
10
-10.2465956544478
20
37.1852912900697
30
0
41
1
10
-9.91686171290058
20
37.2362386167098
30
0
41
1
10
-9.75671722096266
20
37.2618805587122
30
0
41
1
10
-9.30321798042897
20
37.336613739822
30
0
41
1
10
-9.03439763047743
20
37.3838219122384
30
0
41
1
10
-8.6829188755205
20
37.4477676879998
30
0
41
1
10
-8.57444639548058
20
37.4679349832436
30
0
41
1
10
-8.42560621888916
20
37.4960290260594
30
0
41
1
10
-8.3781928492694
20
37.5050561844893
30
0
41
1
10
-8.28928559335196
20
37.5221002066893
30
0
41
1
10
-8.24766627157831
20
37.5301403291027
30
0
41
1
10
-8.05361259286613
20
37.5678455216581
30
0
41
1
10
-7.94286500319691
20
37.5900542338922
30
0
41
1
10
-7.86238706757703
20
37.6062409897782
30
0
41
1
10
-7.84921759077622
20
37.6088975557112
30
0
41
1
10
-7.82891076227196
20
37.6129983926133
30
0
41
1
10
-7.82182531390421
20
37.614432146739
30
0
41
1
10
-7.81539741138846
20
37.6157330243898
30
0
41
1
10
-7.81411259146856
20
37.615992799745
30
0
41
1
10
-7.81398569155741
20
37.616018265274
30
0
0
SPLINE
5
128
100
AcDbEntity
8
SK1
62
256
6
ByLayer
370
18
48
1
60
0
100
AcDbSpline
70
4
71
3
72
26
73
22
40
0
40
0
40
0
40
0
40
0.0312500000000005
40
0.0312500000000005
40
0.062500000000001
40
0.062500000000001
40
0.0937500000000015
40
0.0937500000000015
40
0.125000000000002
40
0.125000000000002
40
0.187500000000005
40
0.187500000000005
40
0.250000000000008
40
0.250000000000008
40
0.375000000000009
40
0.375000000000009
40
0.500000000000009
40
0.500000000000009
40
0.750000000000005
40
0.750000000000005
40
1
40
1
40
1
40
1
41
1
10
-36.7
20
-30.5167400608159
30
0
41
1
10
-36.6723520115423
20
-30.5101356537868
30
0
41
1
10
-36.6423696915965
20
-30.5065072694912
30
0
41
1
10
-36.5803294033383
20
-30.5080299931912
30
0
41
1
10
-36.5493451762328
20
-30.5133018760686
30
0
41
1
10
-36.4931583412701
20
-30.5297936483297
30
0
41
1
10
-36.4677835309982
20
-30.5407933374159
30
0
41
1
10
-36.4221691261039
20
-30.5649857809798
30
0
41
1
10
-36.4014717604107
20
-30.5784333670386
30
0
41
1
10
-36.3452074767482
20
-30.6198295358645
30
0
41
1
10
-36.314332380426
20
-30.6492810703226
30
0
41
1
10
-36.2587744633152
20
-30.7097676061227
30
0
41
1
10
-36.2343979816068
20
-30.7408000948689
30
0
41
1
10
-36.168456573194
20
-30.833688204311
30
0
41
1
10
-36.1332977691624
20
-30.8960495995319
30
0
41
1
10
-36.0717993238636
20
-31.0206707065771
30
0
41
1
10
-36.0457186531498
20
-31.082958226578
30
0
41
1
10
-35.9766840938967
20
-31.2691988470955
30
0
41
1
10
-35.9429353363202
20
-31.3921595601779
30
0
41
1
10
-35.8903024847613
20
-31.6332833548406
30
0
41
1
10
-35.8715743572718
20
-31.7517730859096
30
0
41
1
10
-35.8586343515165
20
-31.8681445143572
30
0
0
SPLINE
5
129
100
AcDbEntity
8
SK1
62
256
6
ByLayer
370
18
48
1
60
0
100
AcDbSpline
70
4
71
3
72
22
73
18
40
0
40
0
40
0
40
0
40
0.062499999999999
40
0.062499999999999
40
0.124999999999998
40
0.124999999999998
40
0.249999999999997
40
0.249999999999997
40
0.374999999999996
40
0.374999999999996
40
0.499999999999996
40
0.499999999999996
40
0.749999999999998
40
0.749999999999998
40
0.874999999999999
40
0.874999999999999
40
1
40
1
40
1
40
1
41
1
10
-35.8586343515163
20
-31.8681445143572
30
0
41
1
10
-35.8532824870943
20
-31.9162746403731
30
0
41
1
10
-35.8420484718122
20
-31.9643163678555
30
0
41
1
10
-35.8106132186993
20
-32.0583025828621
30
0
41
1
10
-35.7904281681567
20
-32.1045597838675
30
0
41
1
10
-35.7207592605222
20
-32.2415482348937
30
0
41
1
10
-35.6625027525674
20
-32.3305315431174
30
0
41
1
10
-35.539037071009
20
-32.5053321821076
30
0
41
1
10
-35.473686214462
20
-32.5911334031272
30
0
41
1
10
-35.3448966005915
20
-32.7602674648848
30
0
41
1
10
-35.2813492424227
20
-32.8436033441989
30
0
41
1
10
-35.1017936668652
20
-33.0900149905005
30
0
41
1
10
-34.996864779501
20
-33.2496002738163
30
0
41
1
10
-34.8839372794759
20
-33.4823184480597
30
0
41
1
10
-34.8536295063491
20
-33.5587714504723
30
0
41
1
10
-34.8116025552663
20
-33.7094259340464
30
0
41
1
10
-34.8
20
-33.7836072579488
30
0
41
1
10
-34.8
20
-33.8551849401856
30
0
0
SPLINE
5
12A
100
AcDbEntity
8
SK1
62
256
6
ByLayer
370
18
48
1
60
0
100
AcDbSpline
70
4
71
3
72
14
73
10
40
0
40
0
40
0
40
0
40
0.5
40
0.5
40
0.75
40
0.75
40
0.875
40
0.875
40
1
40
1
40
1
40
1
41
1
10
-48.0000748840304
20
32.2180191381099
30
0
41
1
10
-46.9418373491891
20
32.2104909308025
30
0
41
1
10
-45.8857893422584
20
32.1967324901871
30
0
41
1
10
-44.3083267061908
20
32.1570690384718
30
0
41
1
10
-43.783619912471
20
32.1406404640853
30
0
41
1
10
-42.9994067134446
20
32.1077633942848
30
0
41
1
10
-42.7384837114112
20
32.0954119198531
30
0
41
1
10
-42.2180175863266
20
32.0667099366043
30
0
41
1
10
-41.9584607819819
20
32.0503992514928
30
0
41
1
10
-41.7
20
32.0309069691676
30
0
0
SPLINE
5
12B
100
AcDbEntity
8
SK1
62
256
6
ByLayer
370
18
48
1
60
0
100
AcDbSpline
70
4
71
3
72
22
73
18
40
0
40
0
40
0
40
0
40
0.140761564794192
40
0.140761564794192
40
0.248174535067365
40
0.248174535067365
40
0.355587505340538
40
0.355587505340538
40
0.46300047561371
40
0.46300047561371
40
0.570413445886883
40
0.570413445886883
40
0.785239386433229
40
0.785239386433229
40
0.892652356706402
40
0.892652356706402
40
1
40
1
40
1
40
1
41
1
10
-7.81393363324852
20
-37.6160183511075
30
0
41
1
10
-7.81293356269745
20
-37.6162142454132
30
0
41
1
10
-7.83288898341021
20
-37.6121786655389
30
0
41
1
10
-7.90401938970575
20
-37.5978643200393
30
0
41
1
10
-7.94682603268524
20
-37.5892744457166
30
0
41
1
10
-8.05678067056567
20
-37.5674385113497
30
0
41
1
10
-8.12296034878406
20
-37.5543864526651
30
0
41
1
10
-8.27650963287374
20
-37.5245223063311
30
0
41
1
10
-8.363883518526
20
-37.5077091100661
30
0
41
1
10
-8.55934011924268
20
-37.4707604766403
30
0
41
1
10
-8.6677262068556
20
-37.4505691772693
30
0
41
1
10
-9.02224068775902
20
-37.3859651585138
30
0
41
1
10
-9.29203768730378
20
-37.3385413045564
30
0
41
1
10
-9.74294187348733
20
-37.2641107454528
30
0
41
1
10
-9.90101278299193
20
-37.2387432185991
30
0
41
1
10
-10.2326797493636
20
-37.1873904714869
30
0
41
1
10
-10.4039175998192
20
-37.1617721350141
30
0
41
1
10
-10.5802005534343
20
-37.1364515277838
30
0
0
SPLINE
5
12C
100
AcDbEntity
8
SK1
62
256
6
ByLayer
370
18
48
1
60
0
100
AcDbSpline
70
4
71
3
72
49
73
45
40
0
40
0
40
0
40
0
40
2.68003986202E-05
40
2.68003986202E-05
40
0.0881591806888578
40
0.0881591806888578
40
0.132225370833976
40
0.132225370833976
40
0.176291560979095
40
0.176291560979095
40
0.264423941269333
40
0.264423941269333
40
0.308490131414451
40
0.308490131414451
40
0.352556321559571
40
0.396622511704689
40
0.396622511704689
40
0.440688701849808
40
0.440688701849808
40
0.528821082140046
40
0.528821082140046
40
0.572887272285165
40
0.572887272285165
40
0.594920367357725
40
0.594920367357725
40
0.616953462430284
40
0.616953462430284
40
0.705085842720521
40
0.705085842720521
40
0.74915203286564
40
0.74915203286564
40
0.771185127938199
40
0.771185127938199
40
0.793218223010759
40
0.793218223010759
40
0.881350603300996
40
0.881350603300996
40
0.903383698373555
40
0.903383698373555
40
0.925416793446115
40
0.925416793446115
40
0.969482983591233
40
0.969482983591233
40
1
40
1
40
1
40
1
41
1
10
-10.5802005535107
20
-37.1364515277729
30
0
41
1
10
-10.5803078314147
20
-37.1364361187862
30
0
41
1
10
-10.5804151111871
20
-37.1364207099099
30
0
41
1
10
-10.9333151439845
20
-37.0857339940661
30
0
41
1
10
-11.3063696486206
20
-37.0362303398644
30
0
41
1
10
-11.8959977254833
20
-36.9661590006794
30
0
41
1
10
-12.0980146755157
20
-36.943465795214
30
0
41
1
10
-12.504623519719
20
-36.9006453716284
30
0
41
1
10
-12.7101008067842
20
-36.8804063621189
30
0
41
1
10
-13.3329274966522
20
-36.8235220137755
30
0
41
1
10
-13.7566173697358
20
-36.7907091037419
30
0
41
1
10
-14.4053592033579
20
-36.7503756777311
30
0
41
1
10
-14.6217528973237
20
-36.7385495974298
30
0
41
1
10
-15.0515339178398
20
-36.7182697117814
30
0
41
1
10
-15.4793698235701
20
-36.7012949835454
30
0
41
1
10
-15.9033351135488
20
-36.6907800985153
30
0
41
1
10
-16.3253206667313
20
-36.6834161371024
30
0
41
1
10
-16.5357958894141
20
-36.6813087666769
30
0
41
1
10
-17.1610688819993
20
-36.6795911127004
30
0
41
1
10
-17.5606613341731
20
-36.6845691536644
30
0
41
1
10
-18.1345127096911
20
-36.6990506549429
30
0
41
1
10
-18.3215120123631
20
-36.7050489330838
30
0
41
1
10
-18.5953566041001
20
-36.7155350418152
30
0
41
1
10
-18.6855270941446
20
-36.7192784702565
30
0
41
1
10
-18.8635817024607
20
-36.7272154010049
30
0
41
1
10
-18.951577249599
20
-36.7314160492031
30
0
41
1
10
-19.3808051771791
20
-36.7531661196654
30
0
41
1
10
-19.6939506387392
20
-36.7731011494097
30
0
41
1
10
-20.1178044749984
20
-36.8037675886412
30
0
41
1
10
-20.2513914030593
20
-36.8141200678032
30
0
41
1
10
-20.439615686537
20
-36.8294669366736
30
0
41
1
10
-20.5005047626921
20
-36.834567538558
30
0
41
1
10
-20.6171088075762
20
-36.8445599021399
30
0
41
1
10
-20.672760505381
20
-36.849445134383
30
0
41
1
10
-20.9379158948068
20
-36.8731778600015
30
0
41
1
10
-21.1085204427239
20
-36.8899298376396
30
0
41
1
10
-21.2681489348146
20
-36.9060685060795
30
0
41
1
10
-21.2973671368314
20
-36.9090569172942
30
0
41
1
10
-21.3502338905028
20
-36.9145065829596
30
0
41
1
10
-21.3739327954396
20
-36.9169731616413
30
0
41
1
10
-21.4356815342219
20
-36.9234371005883
30
0
41
1
10
-21.4646850920711
20
-36.926525514033
30
0
41
1
10
-21.4936844023466
20
-36.9296183553871
30
0
41
1
10
-21.4998567479744
20
-36.930279121121
30
0
41
1
10
-21.5003081775986
20
-36.9303279994089
30
0
0
SPLINE
5
12D
100
AcDbEntity
8
SK1
62
256
6
ByLayer
370
18
48
1
60
0
100
AcDbSpline
70
4
71
3
72
28
73
24
40
0
40
0
40
0
40
0
40
0.25
40
0.25
40
0.500000000000001
40
0.500000000000001
40
0.625000000000002
40
0.625000000000002
40
0.750000000000004
40
0.750000000000004
40
0.812500000000003
40
0.812500000000003
40
0.875000000000002
40
0.875000000000002
40
0.906250000000002
40
0.906250000000002
40
0.937500000000001
40
0.937500000000001
40
0.968750000000001
40
0.968750000000001
40
0.984375
40
0.984375
40
1
40
1
40
1
40
1
41
1
10
-48.0000748840301
20
-32.2180191381109
30
0
41
1
10
-47.2920063015544
20
-32.2129820014557
30
0
41
1
10
-46.5847885799496
20
-32.2049994907428
30
0
41
1
10
-45.1729437467021
20
-32.1799971463907
30
0
41
1
10
-44.4680645864857
20
-32.1631396658888
30
0
41
1
10
-43.415409199457
20
-32.1257816327307
30
0
41
1
10
-43.0652911334007
20
-32.111287225081
30
0
41
1
10
-42.3674228186904
20
-32.0759871178214
30
0
41
1
10
-42.0199833891343
20
-32.0553166766555
30
0
41
1
10
-41.5029798735435
20
-32.0158941357554
30
0
41
1
10
-41.3312906827058
20
-32.0013210311442
30
0
41
1
10
-40.9909028378714
20
-31.9678620177118
30
0
41
1
10
-40.8219334623681
20
-31.9490274212945
30
0
41
1
10
-40.5727061907896
20
-31.915108292349
30
0
41
1
10
-40.490586850094
20
-31.9028734059453
30
0
41
1
10
-40.3291688182512
20
-31.8756644049794
30
0
41
1
10
-40.2498347547774
20
-31.8607246629206
30
0
41
1
10
-40.0958429025148
20
-31.8263027117733
30
0
41
1
10
-40.0206900004236
20
-31.8068984000489
30
0
41
1
10
-39.9164550314465
20
-31.7708083954288
30
0
41
1
10
-39.8836877170008
20
-31.7577598076127
30
0
41
1
10
-39.824598554423
20
-31.728342656003
30
0
41
1
10
-39.7980274390186
20
-31.7118142979791
30
0
41
1
10
-39.7785586500799
20
-31.6931118380392
30
0
0
SPLINE
5
12E
100
AcDbEntity
8
1
62
256
6
ByLayer
370
18
48
1
60
0
100
AcDbSpline
70
4
71
3
72
32
73
28
40
0
40
0
40
0
40
0
40
0.124999999999996
40
0.124999999999996
40
0.187499999999995
40
0.187499999999995
40
0.249999999999995
40
0.312499999999994
40
0.312499999999994
40
0.374999999999994
40
0.374999999999994
40
0.437499999999993
40
0.437499999999993
40
0.499999999999993
40
0.499999999999993
40
0.624999999999995
40
0.624999999999995
40
0.687499999999996
40
0.687499999999996
40
0.749999999999997
40
0.749999999999997
40
0.812499999999997
40
0.812499999999997
40
0.874999999999998
40
0.937499999999999
40
0.937499999999999
40
1
40
1
40
1
40
1
41
1
10
18.475
20
-7.13671025908167
30
0
41
1
10
18.5513861616256
20
-7.00262939854505
30
0
41
1
10
18.6438595734138
20
-6.88134386908996
30
0
41
1
10
18.8060069310248
20
-6.71812236978477
30
0
41
1
10
18.864456285234
20
-6.66658966880203
30
0
41
1
10
18.9863395554148
20
-6.57270811008951
30
0
41
1
10
19.11359268875
20
-6.48743024054025
30
0
41
1
10
19.2514036903981
20
-6.41908820971184
30
0
41
1
10
19.3946849315294
20
-6.35952986801894
30
0
41
1
10
19.4680791264001
20
-6.33459707735182
30
0
41
1
10
19.6164454423373
20
-6.2947441153936
30
0
41
1
10
19.6917046822215
20
-6.27970369831215
30
0
41
1
10
19.8443892686386
20
-6.25946236842998
30
0
41
1
10
19.9224072561307
20
-6.25428635291249
30
0
41
1
10
20.1544609345376
20
-6.25425460185977
30
0
41
1
10
20.3066731843671
20
-6.27422159089812
30
0
41
1
10
20.531230069186
20
-6.33434802757415
30
0
41
1
10
20.6049149503404
20
-6.359419880118
30
0
41
1
10
20.7468111863422
20
-6.4182907097474
30
0
41
1
10
20.8155120434485
20
-6.45221272773634
30
0
41
1
10
20.9484162585484
20
-6.52902737412731
30
0
41
1
10
21.0130448268994
20
-6.57226196882868
30
0
41
1
10
21.1353630867141
20
-6.66642267742586
30
0
41
1
10
21.2502848660052
20
-6.76770948572053
30
0
41
1
10
21.3508223253883
20
-6.88283276927464
30
0
41
1
10
21.4439897454683
20
-7.00503409348852
30
0
41
1
10
21.4868069740568
20
-7.06966992512616
30
0
41
1
10
21.525
20
-7.13671025908167
30
0
0
SPLINE
5
12F
100
AcDbEntity
8
1
62
256
6
ByLayer
370
18
48
1
60
0
100
AcDbSpline
70
4
71
3
72
32
73
28
40
0
40
0
40
0
40
0
40
0.125000000000002
40
0.125000000000002
40
0.187500000000002
40
0.187500000000002
40
0.250000000000002
40
0.312500000000001
40
0.312500000000001
40
0.375000000000001
40
0.375000000000001
40
0.437500000000001
40
0.437500000000001
40
0.500000000000001
40
0.500000000000001
40
0.625000000000001
40
0.625000000000001
40
0.687500000000001
40
0.687500000000001
40
0.75
40
0.75
40
0.8125
40
0.8125
40
0.875
40
0.9375
40
0.9375
40
1
40
1
40
1
40
1
41
1
10
21.525
20
-8.82745624824835
30
0
41
1
10
21.4486138383744
20
-8.96065699518161
30
0
41
1
10
21.3561404265863
20
-9.08094054886934
30
0
41
1
10
21.1939930689754
20
-9.24263282001343
30
0
41
1
10
21.1355437147663
20
-9.29364804000204
30
0
41
1
10
21.0136604445855
20
-9.38653975566419
30
0
41
1
10
20.8864073112505
20
-9.47086828252657
30
0
41
1
10
20.7485963096024
20
-9.53838905803212
30
0
41
1
10
20.6053150684712
20
-9.5972142447755
30
0
41
1
10
20.5319208736005
20
-9.62183017311946
30
0
41
1
10
20.3835545576634
20
-9.66116977299058
30
0
41
1
10
20.3082953177793
20
-9.67601216104055
30
0
41
1
10
20.1556107313623
20
-9.6959857695532
30
0
41
1
10
20.0775927438702
20
-9.70109242948556
30
0
41
1
10
19.8455390654633
20
-9.70112375686534
30
0
41
1
10
19.6933268156339
20
-9.68142782614808
30
0
41
1
10
19.4687699308152
20
-9.62207607023211
30
0
41
1
10
19.3950850496608
20
-9.59732277564342
30
0
41
1
10
19.2531888136589
20
-9.53917684240378
30
0
41
1
10
19.1844879565527
20
-9.50566279471809
30
0
41
1
10
19.0515837414528
20
-9.42973408567605
30
0
41
1
10
18.9869551731018
20
-9.38698108186122
30
0
41
1
10
18.8646369132871
20
-9.29381338114024
30
0
41
1
10
18.7497151339959
20
-9.19354381991005
30
0
41
1
10
18.6491776746128
20
-9.07943318378554
30
0
41
1
10
18.5560102545327
20
-8.95821559703492
30
0
41
1
10
18.5131930259432
20
-8.89405652603438
30
0
41
1
10
18.475
20
-8.82745624824835
30
0
0
SPLINE
5
130
100
AcDbEntity
8
1
62
256
6
ByLayer
370
18
48
1
60
0
100
AcDbSpline
70
4
71
3
72
32
73
28
40
0
40
0
40
0
40
0
40
0.125000000000002
40
0.125000000000002
40
0.187500000000001
40
0.187500000000001
40
0.250000000000001
40
0.312500000000001
40
0.312500000000001
40
0.375000000000001
40
0.375000000000001
40
0.437500000000001
40
0.437500000000001
40
0.5
40
0.5
40
0.625
40
0.625
40
0.6875
40
0.6875
40
0.75
40
0.75
40
0.8125
40
0.8125
40
0.875
40
0.9375
40
0.9375
40
1
40
1
40
1
40
1
41
1
10
21.525
20
7.13671025908167
30
0
41
1
10
21.4486138383744
20
7.00262939854511
30
0
41
1
10
21.3561404265863
20
6.8813438690901
30
0
41
1
10
21.1939930689754
20
6.71812236978496
30
0
41
1
10
21.1355437147663
20
6.66658966880226
30
0
41
1
10
21.0136604445855
20
6.57270811008976
30
0
41
1
10
20.8864073112505
20
6.4874302405405
30
0
41
1
10
20.7485963096025
20
6.4190882097121
30
0
41
1
10
20.6053150684712
20
6.35952986801917
30
0
41
1
10
20.5319208736005
20
6.33459707735204
30
0
41
1
10
20.3835545576634
20
6.29474411539377
30
0
41
1
10
20.3082953177793
20
6.27970369831232
30
0
41
1
10
20.1556107313623
20
6.25946236843006
30
0
41
1
10
20.0775927438702
20
6.25428635291254
30
0
41
1
10
19.8455390654634
20
6.25425460185971
30
0
41
1
10
19.6933268156339
20
6.27422159089798
30
0
41
1
10
19.4687699308152
20
6.33434802757381
30
0
41
1
10
19.3950850496608
20
6.3594198801176
30
0
41
1
10
19.2531888136589
20
6.41829070974688
30
0
41
1
10
19.1844879565527
20
6.45221272773577
30
0
41
1
10
19.0515837414528
20
6.52902737412657
30
0
41
1
10
18.9869551731018
20
6.57226196882786
30
0
41
1
10
18.8646369132871
20
6.66642267742492
30
0
41
1
10
18.7497151339959
20
6.76770948571945
30
0
41
1
10
18.6491776746128
20
6.88283276927339
30
0
41
1
10
18.5560102545327
20
7.00503409348713
30
0
41
1
10
18.5131930259432
20
7.06966992512622
30
0
41
1
10
18.475
20
7.13671025908167
30
0
0
SPLINE
5
131
100
AcDbEntity
8
1
62
256
6
ByLayer
370
18
48
1
60
0
100
AcDbSpline
70
4
71
3
72
20
73
16
40
0
40
0
40
0
40
0
40
0.125
40
0.125
40
0.25
40
0.25
40
0.375000000000001
40
0.375000000000001
40
0.500000000000001
40
0.500000000000001
40
0.75
40
0.75
40
0.875
40
0.875
40
1
40
1
40
1
40
1
41
1
10
18.475
20
-8.8274562482483
30
0
41
1
10
18.4380065148146
20
-8.76294770699565
30
0
41
1
10
18.4055957501353
20
-8.69757931554463
30
0
41
1
10
18.3495345456506
20
-8.56380175830611
30
0
41
1
10
18.3258411647692
20
-8.49509856806051
30
0
41
1
10
18.2880881975834
20
-8.35624167092934
30
0
41
1
10
18.2738767598581
20
-8.28582374167701
30
0
41
1
10
18.2547792248508
20
-8.1419336522105
30
0
41
1
10
18.2499206423301
20
-8.06776072732808
30
0
41
1
10
18.2501617103198
20
-7.84547208694988
30
0
41
1
10
18.2693366352307
20
-7.69792674624938
30
0
41
1
10
18.326222538458
20
-7.47941731746744
30
0
41
1
10
18.3498614114103
20
-7.407612453637
30
0
41
1
10
18.4057310907038
20
-7.26887763656325
30
0
41
1
10
18.4380470186177
20
-7.20157393906871
30
0
41
1
10
18.475
20
-7.13671025908158
30
0
0
SPLINE
5
132
100
AcDbEntity
8
1
62
256
6
ByLayer
370
18
48
1
60
0
100
AcDbSpline
70
4
71
3
72
20
73
16
40
0
40
0
40
0
40
0
40
0.125
40
0.125
40
0.249999999999999
40
0.249999999999999
40
0.374999999999999
40
0.374999999999999
40
0.499999999999998
40
0.499999999999998
40
0.749999999999999
40
0.749999999999999
40
0.874999999999999
40
0.874999999999999
40
1
40
1
40
1
40
1
41
1
10
18.475
20
7.13671025908164
30
0
41
1
10
18.4380065148146
20
7.20164503551686
30
0
41
1
10
18.4055957501353
20
7.26914175517516
30
0
41
1
10
18.3495345456506
20
7.40849667487311
30
0
41
1
10
18.3258411647692
20
7.48068732427845
30
0
41
1
10
18.2880881975834
20
7.62609647329765
30
0
41
1
10
18.2738767598581
20
7.69958701504842
30
0
41
1
10
18.2547792248508
20
7.8478365717109
30
0
41
1
10
18.2499206423301
20
7.92327007570862
30
0
41
1
10
18.2501617103198
20
8.14549857532577
30
0
41
1
10
18.2693366352307
20
8.28765278262648
30
0
41
1
10
18.326222538458
20
8.49630899217507
30
0
41
1
10
18.3498614114103
20
8.56464729533124
30
0
41
1
10
18.4057310907038
20
8.69783618605581
30
0
41
1
10
18.4380470186177
20
8.76301833676294
30
0
41
1
10
18.475
20
8.82745624824821
30
0
0
SPLINE
5
133
100
AcDbEntity
8
SK1
62
256
6
ByLayer
370
18
48
1
60
0
100
AcDbSpline
70
4
71
3
72
28
73
24
40
0
40
0
40
0
40
0
40
0.249999999999997
40
0.249999999999997
40
0.374999999999996
40
0.374999999999996
40
0.499999999999995
40
0.499999999999995
40
0.624999999999995
40
0.624999999999995
40
0.749999999999994
40
0.749999999999994
40
0.812499999999995
40
0.812499999999995
40
0.874999999999997
40
0.874999999999997
40
0.906249999999998
40
0.906249999999998
40
0.937499999999998
40
0.937499999999998
40
0.968749999999999
40
0.968749999999999
40
1
40
1
40
1
40
1
41
1
10
-39.8
20
33.731867181004
30
0
41
1
10
-39.7999999999989
20
33.5934982940213
30
0
41
1
10
-39.8499328604566
20
33.4495320959711
30
0
41
1
10
-39.9786760357967
20
33.2265304775474
30
0
41
1
10
-40.0307804205494
20
33.1509812446764
30
0
41
1
10
-40.1517174586434
20
32.9975472577824
30
0
41
1
10
-40.2199418029989
20
32.9204273544261
30
0
41
1
10
-40.3699446706122
20
32.7659816807454
30
0
41
1
10
-40.4517476783099
20
32.688560134193
30
0
41
1
10
-40.6293280732628
20
32.5336399428529
30
0
41
1
10
-40.7248436064324
20
32.4560945344747
30
0
41
1
10
-40.8827947262705
20
32.3406067790668
30
0
41
1
10
-40.9380207067499
20
32.3021996830472
30
0
41
1
10
-41.0551079321724
20
32.2269849247296
30
0
41
1
10
-41.1171269705677
20
32.1899142945076
30
0
41
1
10
-41.2188385127876
20
32.1377315395355
30
0
41
1
10
-41.2542332468957
20
32.1209048401272
30
0
41
1
10
-41.3299949303496
20
32.0892388210252
30
0
41
1
10
-41.3705728908807
20
32.0743260732673
30
0
41
1
10
-41.457414089094
20
32.0493660663453
30
0
41
1
10
-41.5045201166844
20
32.0392554927684
30
0
41
1
10
-41.601100423406
20
32.0281721119873
30
0
41
1
10
-41.6517769015209
20
32.0272701379078
30
0
41
1
10
-41.7000000000014
20
32.0309069691632
30
0
0
SPLINE
5
134
100
AcDbEntity
8
1
62
256
6
ByLayer
370
18
48
1
60
0
100
AcDbSpline
70
4
71
3
72
14
73
10
40
0
40
0
40
0
40
0
40
0.25
40
0.25
40
0.5
40
0.5
40
0.75
40
0.75
40
1
40
1
40
1
40
1
41
1
10
18.0749949995
20
31.35
30
0
41
1
10
18.0750050005
20
31.35
30
0
41
1
10
18.0827109873343
20
31.35
30
0
41
1
10
18.1146122048334
20
31.35
30
0
41
1
10
18.1384101878168
20
31.35
30
0
41
1
10
18.2048078543951
20
31.35
30
0
41
1
10
18.247397269193
20
31.35
30
0
41
1
10
18.3510983344911
20
31.35
30
0
41
1
10
18.4120098803097
20
31.35
30
0
41
1
10
18.475
20
31.35
30
0
0
SPLINE
5
135
100
AcDbEntity
8
1
62
256
6
ByLayer
370
18
48
1
60
0
100
AcDbSpline
70
4
71
3
72
20
73
16
40
0
40
0
40
0
40
0
40
0.124999999999999
40
0.124999999999999
40
0.249999999999997
40
0.249999999999997
40
0.374999999999996
40
0.374999999999996
40
0.499999999999994
40
0.499999999999994
40
0.749999999999996
40
0.749999999999996
40
0.874999999999998
40
0.874999999999998
40
1
40
1
40
1
40
1
41
1
10
21.5250000000008
20
8.82745624824693
30
0
41
1
10
21.5619869726805
20
8.76295906337862
30
0
41
1
10
21.594400837076
20
8.69758810320201
30
0
41
1
10
21.6504733659192
20
8.56378223525982
30
0
41
1
10
21.6741677662639
20
8.49507084950682
30
0
41
1
10
21.7119187961555
20
8.35621081538136
30
0
41
1
10
21.7261325980267
20
8.28577888363091
30
0
41
1
10
21.7452313490292
20
8.14182830789827
30
0
41
1
10
21.7500841294777
20
8.0676067139045
30
0
41
1
10
21.7498283660267
20
7.84544014240529
30
0
41
1
10
21.7306632069373
20
7.69789515429858
30
0
41
1
10
21.6737425660449
20
7.4792987844443
30
0
41
1
10
21.6501117172361
20
7.40753893321525
30
0
41
1
10
21.5942520871461
20
7.2688426631957
30
0
41
1
10
21.5619432409418
20
7.20155684164396
30
0
41
1
10
21.525
20
7.13671025908158
30
0
0
SPLINE
5
136
100
AcDbEntity
8
1
62
256
6
ByLayer
370
18
48
1
60
0
100
AcDbSpline
70
4
71
3
72
20
73
16
40
0
40
0
40
0
40
0
40
0.124999999999998
40
0.124999999999998
40
0.249999999999996
40
0.249999999999996
40
0.374999999999995
40
0.374999999999995
40
0.499999999999994
40
0.499999999999994
40
0.749999999999993
40
0.749999999999993
40
0.874999999999997
40
0.874999999999997
40
1
40
1
40
1
40
1
41
1
10
21.5250000000008
20
-7.136710259083
30
0
41
1
10
21.5619869726805
20
-7.20163360409745
30
0
41
1
10
21.594400837076
20
-7.26913256750177
30
0
41
1
10
21.6504733659192
20
-7.40851704551065
30
0
41
1
10
21.6741677662639
20
-7.4807164171892
30
0
41
1
10
21.7119187961555
20
-7.62612871840159
30
0
41
1
10
21.7261325980267
20
-7.69963387411966
30
0
41
1
10
21.7452313490292
20
-7.84794446503912
30
0
41
1
10
21.7500841294777
20
-7.92342527956814
30
0
41
1
10
21.7498283660267
20
-8.14552804418634
30
0
41
1
10
21.7306632069373
20
-8.28768331434691
30
0
41
1
10
21.6737425660449
20
-8.49642199786413
30
0
41
1
10
21.6501117172361
20
-8.56471756359053
30
0
41
1
10
21.5942520871461
20
-8.69787007479005
30
0
41
1
10
21.5619432409418
20
-8.76303532195925
30
0
41
1
10
21.525
20
-8.82745624824815
30
0
0
SPLINE
5
137
100
AcDbEntity
8
1
62
256
6
ByLayer
370
18
48
1
60
0
100
AcDbSpline
70
4
71
3
72
18
73
14
40
0
40
0
40
0
40
0
40
0.249999999999997
40
0.249999999999997
40
0.374999999999993
40
0.374999999999993
40
0.499999999999989
40
0.499999999999989
40
0.624999999999985
40
0.624999999999985
40
0.74999999999998
40
0.74999999999998
40
1
40
1
40
1
40
1
41
1
10
21.925
20
-45.0464003445336
30
0
41
1
10
21.925
20
-44.9927973317854
30
0
41
1
10
21.9149632464786
20
-44.9402648840758
30
0
41
1
10
21.8855106670945
20
-44.8659784975754
30
0
41
1
10
21.8734746529813
20
-44.842447702897
30
0
41
1
10
21.8449915342835
20
-44.7978344149108
30
0
41
1
10
21.8283257164339
20
-44.7765652710677
30
0
41
1
10
21.7916763731046
20
-44.7382384548027
30
0
41
1
10
21.7716526779473
20
-44.721015284677
30
0
41
1
10
21.7281284714978
20
-44.6905393726375
30
0
41
1
10
21.7045842047396
20
-44.6773557947653
30
0
41
1
10
21.6318265144144
20
-44.6457761842377
30
0
41
1
10
21.5786492755801
20
-44.6344954491475
30
0
41
1
10
21.5250000000001
20
-44.6344954491475
30
0
0
SPLINE
5
138
100
AcDbEntity
8
1
62
256
6
ByLayer
370
18
48
1
60
0
100
AcDbSpline
70
4
71
3
72
18
73
14
40
0
40
0
40
0
40
0
40
0.125138563884156
40
0.125138563884156
40
0.250277127768311
40
0.250277127768311
40
0.375415691652467
40
0.375415691652467
40
0.500554255536622
40
0.500554255536622
40
0.750831383304925
40
0.750831383304925
40
1
40
1
40
1
40
1
41
1
10
21.525
20
31.35
30
0
41
1
10
21.5565012630106
20
31.35
30
0
41
1
10
21.5870695506967
20
31.35
30
0
41
1
10
21.6465079567164
20
31.35
30
0
41
1
10
21.6747263343055
20
31.35
30
0
41
1
10
21.726524899387
20
31.35
30
0
41
1
10
21.7503920764479
20
31.35
30
0
41
1
10
21.7927084644629
20
31.35
30
0
41
1
10
21.811560000832
20
31.35
30
0
41
1
10
21.8616219373632
20
31.35
30
0
41
1
10
21.8852271070614
20
31.35
30
0
41
1
10
21.9171602581772
20
31.35
30
0
41
1
10
21.9249419236413
20
31.35
30
0
41
1
10
21.9249950000001
20
31.3500000000001
30
0
0
SPLINE
5
139
100
AcDbEntity
8
1
62
256
6
ByLayer
370
18
48
1
60
0
100
AcDbSpline
70
4
71
3
72
18
73
14
40
0
40
0
40
0
40
0
40
0.125000000000003
40
0.125000000000003
40
0.250000000000006
40
0.250000000000006
40
0.375000000000008
40
0.375000000000008
40
0.500000000000011
40
0.500000000000011
40
0.750000000000006
40
0.750000000000006
40
1
40
1
40
1
40
1
41
1
10
18.475
20
-44.6344954491478
30
0
41
1
10
18.4481901666429
20
-44.6344954491478
30
0
41
1
10
18.4218513271603
20
-44.6372436508221
30
0
41
1
10
18.3700740143099
20
-44.6479935994871
30
0
41
1
10
18.3443563093877
20
-44.6561391473402
30
0
41
1
10
18.2956101762811
20
-44.6772463511922
30
0
41
1
10
18.2725331551858
20
-44.6901389643193
30
0
41
1
10
18.2289373266519
20
-44.7205410736944
30
0
41
1
10
18.20849122524
20
-44.73809042813
30
0
41
1
10
18.153611381455
20
-44.7954008848904
30
0
41
1
10
18.1243362782755
20
-44.841265007127
30
0
41
1
10
18.0852711547245
20
-44.9395516565003
30
0
41
1
10
18.075
20
-44.9928232341299
30
0
41
1
10
18.075
20
-45.0464003445336
30
0
0
SPLINE
5
13A
100
AcDbEntity
8
1
62
256
6
ByLayer
370
18
48
1
60
0
100
AcDbSpline
70
4
71
3
72
38
73
34
40
0
40
0
40
0
40
0
40
0.125
40
0.125
40
0.187499999999999
40
0.187499999999999
40
0.218749999999999
40
0.218749999999999
40
0.249999999999999
40
0.249999999999999
40
0.374999999999999
40
0.374999999999999
40
0.40625
40
0.40625
40
0.4375
40
0.4375
40
0.5
40
0.5
40
0.625
40
0.625
40
0.65625
40
0.65625
40
0.6875
40
0.6875
40
0.75
40
0.75
40
0.8125
40
0.8125
40
0.84375
40
0.84375
40
0.875
40
0.875
40
1
40
1
40
1
40
1
41
1
10
14.95
20
-48.7343696378644
30
0
41
1
10
14.2872361540965
20
-48.7343696378644
30
0
41
1
10
13.63596381161
20
-48.749251078063
30
0
41
1
10
12.6754919299054
20
-48.7917402554333
30
0
41
1
10
12.358093938917
20
-48.809267872866
30
0
41
1
10
11.8862122860646
20
-48.8403526914631
30
0
41
1
10
11.7292150064824
20
-48.8515452447628
30
0
41
1
10
11.4187515333456
20
-48.8753220985444
30
0
41
1
10
11.2655498884332
20
-48.8878806568078
30
0
41
1
10
10.5094586586362
20
-48.953743054403
30
0
41
1
10
9.9360349772513
20
-49.016232619189
30
0
41
1
10
9.25780740131532
20
-49.1024378176854
30
0
41
1
10
9.1241071697944
20
-49.1200845666749
30
0
41
1
10
8.86065032110835
20
-49.1560872897809
30
0
41
1
10
8.73063288966949
20
-49.1744837413844
30
0
41
1
10
8.3504638548728
20
-49.2300062218261
30
0
41
1
10
8.10907647024368
20
-49.267602508421
30
0
41
1
10
7.41995257546776
20
-49.3806948087458
30
0
41
1
10
7.00690580404807
20
-49.4565017766262
30
0
41
1
10
6.55011611846712
20
-49.5471872507651
30
0
41
1
10
6.46174420639801
20
-49.5651265050236
30
0
41
1
10
6.2929678002883
20
-49.6000938532601
30
0
41
1
10
6.21230230261042
20
-49.617172972123
30
0
41
1
10
5.98129593649492
20
-49.6670683357459
30
0
41
1
10
5.84191861237483
20
-49.6985422181599
30
0
41
1
10
5.59213609509965
20
-49.7572475370043
30
0
41
1
10
5.48173027698672
20
-49.7844801347868
30
0
41
1
10
5.33828630346613
20
-49.8216503380533
30
0
41
1
10
5.29417252865377
20
-49.8334271708375
30
0
41
1
10
5.21350605560119
20
-49.8556682585491
30
0
41
1
10
5.17699346553482
20
-49.8661237211516
30
0
41
1
10
5.01520437841552
20
-49.9144711632947
30
0
41
1
10
4.94999999999999
20
-49.9410252744281
30
0
41
1
10
4.94999999999999
20
-49.9545671986056
30
0
0
SPLINE
5
13B
100
AcDbEntity
8
1
62
256
6
ByLayer
370
18
48
1
60
0
100
AcDbSpline
70
4
71
3
72
8
73
4
40
0
40
0
40
0
40
0
40
1
40
1
40
1
40
1
41
1
10
28.25
20
31.35
30
0
41
1
10
28.4840108581953
20
31.35
30
0
41
1
10
28.7173562411003
20
31.35
30
0
41
1
10
28.95
20
31.35
30
0
0
SPLINE
5
13C
100
AcDbEntity
8
1
62
256
6
ByLayer
370
18
48
1
60
0
100
AcDbSpline
70
4
71
3
72
8
73
4
40
0
40
0
40
0
40
0
40
1
40
1
40
1
40
1
41
1
10
28.95
20
-48.0164324372396
30
0
41
1
10
28.7167107889956
20
-48.255787849476
30
0
41
1
10
28.4833768142322
20
-48.4950996399192
30
0
41
1
10
28.25
20
-48.7343696378644
30
0
0
SPLINE
5
13D
100
AcDbEntity
8
1
62
256
6
ByLayer
370
18
48
1
60
0
100
AcDbSpline
70
4
71
3
72
8
73
4
40
0
40
0
40
0
40
0
40
1
40
1
40
1
40
1
41
1
10
18.075
20
31.35
30
0
41
1
10
17.6422334838249
20
31.35
30
0
41
1
10
17.2029449502984
20
31.35
30
0
41
1
10
16.7581782385003
20
31.35
30
0
0
SPLINE
5
13E
100
AcDbEntity
8
1
62
256
6
ByLayer
370
18
48
1
60
0
100
AcDbSpline
70
4
71
3
72
36
73
32
40
0
40
0
40
0
40
0
40
0.124999999999999
40
0.124999999999999
40
0.156249999999999
40
0.156249999999999
40
0.187499999999999
40
0.187499999999999
40
0.249999999999998
40
0.249999999999998
40
0.312499999999998
40
0.312499999999998
40
0.343749999999997
40
0.343749999999997
40
0.374999999999997
40
0.374999999999997
40
0.499999999999997
40
0.499999999999997
40
0.531249999999996
40
0.531249999999996
40
0.562499999999996
40
0.562499999999996
40
0.624999999999996
40
0.624999999999996
40
0.749999999999997
40
0.749999999999997
40
0.812499999999998
40
0.812499999999998
40
0.874999999999999
40
0.874999999999999
40
1
40
1
40
1
40
1
41
1
10
14.6467511395681
20
38.9060242764537
30
0
41
1
10
13.9832285341507
20
38.9060242764536
30
0
41
1
10
13.3347215217744
20
38.8536007542642
30
0
41
1
10
12.5416814220239
20
38.7255085306534
30
0
41
1
10
12.383963109061
20
38.6967182657897
30
0
41
1
10
12.0703148101885
20
38.6326992925925
30
0
41
1
10
11.9138588463049
20
38.5973313964736
30
0
41
1
10
11.4520623352003
20
38.4825859574487
30
0
41
1
10
11.1540548418276
20
38.3946725236202
30
0
41
1
10
10.5763842373153
20
38.1969250689817
30
0
41
1
10
10.296727818471
20
38.0870837881047
30
0
41
1
10
9.89043876468227
20
37.9059676052274
30
0
41
1
10
9.75721243195869
20
37.8428644174422
30
0
41
1
10
9.49511503861015
20
37.7111519089432
30
0
41
1
10
9.36636914159877
20
37.6425808216338
30
0
41
1
10
8.7398711884006
20
37.28969128934
30
0
41
1
10
8.2878002701184
20
36.9727862939199
30
0
41
1
10
7.77542915937084
20
36.5355105945935
30
0
41
1
10
7.67561378932746
20
36.4459838849724
30
0
41
1
10
7.48116322311799
20
36.2627890675726
30
0
41
1
10
7.38672762762477
20
36.1692900574886
30
0
41
1
10
7.11319814865399
20
35.8850538034043
30
0
41
1
10
6.94309571337084
20
35.6898731010346
30
0
41
1
10
6.46580226958551
20
35.0879379951325
30
0
41
1
10
6.19144846467972
20
34.6648408682257
30
0
41
1
10
5.83544277713793
20
33.9988565429648
30
0
41
1
10
5.72608056235424
20
33.7716238615613
30
0
41
1
10
5.52474719399399
20
33.3067721853349
30
0
41
1
10
5.43318832865455
20
33.0700379330775
30
0
41
1
10
5.18460445300204
20
32.3504831278838
30
0
41
1
10
5.05295798465576
20
31.8569541742864
30
0
41
1
10
4.95000000000002
20
31.35
30
0
0
SPLINE
5
13F
100
AcDbEntity
8
1
62
256
6
ByLayer
370
18
48
1
60
0
100
AcDbSpline
70
4
71
3
72
32
73
28
40
0
40
0
40
0
40
0
40
0.125000000000001
40
0.125000000000001
40
0.1875
40
0.1875
40
0.249999999999999
40
0.312499999999998
40
0.312499999999998
40
0.374999999999997
40
0.374999999999997
40
0.437499999999996
40
0.437499999999996
40
0.499999999999995
40
0.499999999999995
40
0.624999999999996
40
0.624999999999996
40
0.687499999999997
40
0.687499999999997
40
0.749999999999997
40
0.749999999999997
40
0.812499999999998
40
0.812499999999998
40
0.874999999999999
40
0.937499999999999
40
0.937499999999999
40
1
40
1
40
1
40
1
41
1
10
18.475
20
8.82745624824838
30
0
41
1
10
18.5513861616256
20
8.96065699518169
30
0
41
1
10
18.6438595734138
20
9.08094054886948
30
0
41
1
10
18.8060069310248
20
9.24263282001363
30
0
41
1
10
18.864456285234
20
9.29364804000224
30
0
41
1
10
18.9863395554148
20
9.38653975566442
30
0
41
1
10
19.11359268875
20
9.47086828252682
30
0
41
1
10
19.2514036903981
20
9.53838905803238
30
0
41
1
10
19.3946849315294
20
9.59721424477573
30
0
41
1
10
19.4680791264001
20
9.62183017311966
30
0
41
1
10
19.6164454423373
20
9.66116977299075
30
0
41
1
10
19.6917046822215
20
9.67601216104072
30
0
41
1
10
19.8443892686386
20
9.69598576955329
30
0
41
1
10
19.9224072561307
20
9.70109242948561
30
0
41
1
10
20.1544609345376
20
9.70112375686529
30
0
41
1
10
20.3066731843671
20
9.68142782614794
30
0
41
1
10
20.531230069186
20
9.6220760702318
30
0
41
1
10
20.6049149503403
20
9.59732277564305
30
0
41
1
10
20.7468111863422
20
9.53917684240326
30
0
41
1
10
20.8155120434485
20
9.50566279471752
30
0
41
1
10
20.9484162585484
20
9.42973408567534
30
0
41
1
10
21.0130448268994
20
9.38698108186045
30
0
41
1
10
21.1353630867141
20
9.2938133811393
30
0
41
1
10
21.2502848660052
20
9.19354381990897
30
0
41
1
10
21.3508223253883
20
9.07943318378432
30
0
41
1
10
21.4439897454683
20
8.95821559703353
30
0
41
1
10
21.4868069740568
20
8.89405652603443
30
0
41
1
10
21.525
20
8.82745624824835
30
0
0
SPLINE
5
140
100
AcDbEntity
8
1
62
256
6
ByLayer
370
18
48
1
60
0
100
AcDbSpline
70
4
71
3
72
38
73
34
40
0
40
0
40
0
40
0
40
0.125000000000001
40
0.125000000000001
40
0.187500000000001
40
0.187500000000001
40
0.218750000000001
40
0.218750000000001
40
0.250000000000001
40
0.250000000000001
40
0.375000000000002
40
0.375000000000002
40
0.406250000000002
40
0.406250000000002
40
0.437500000000002
40
0.437500000000002
40
0.500000000000002
40
0.500000000000002
40
0.625000000000002
40
0.625000000000002
40
0.656250000000001
40
0.656250000000001
40
0.687500000000001
40
0.687500000000001
40
0.750000000000001
40
0.750000000000001
40
0.812500000000001
40
0.812500000000001
40
0.843750000000001
40
0.843750000000001
40
0.875
40
0.875
40
1
40
1
40
1
40
1
41
1
10
4.94999999999999
20
49.9649989992995
30
0
41
1
10
4.94999999999999
20
49.9648663441184
30
0
41
1
10
5.0151728605004
20
49.951562241423
30
0
41
1
10
5.20645717115093
20
49.9137526441137
30
0
41
1
10
5.2859233180298
20
49.8981710893977
30
0
41
1
10
5.42919526161708
20
49.8705606266813
30
0
41
1
10
5.48111293693006
20
49.860624151411
30
0
41
1
10
5.59247143207011
20
49.8395093703489
30
0
41
1
10
5.65175821083133
20
49.8283600107279
30
0
41
1
10
5.96585710584677
20
49.7699084962509
30
0
41
1
10
6.27314653968841
20
49.7145002020947
30
0
41
1
10
6.72669127560818
20
49.6383211918924
30
0
41
1
10
6.82090406151792
20
49.6227393754479
30
0
41
1
10
7.01645449344994
20
49.5909833392075
30
0
41
1
10
7.11806357316343
20
49.5747676055306
30
0
41
1
10
7.43073675066452
20
49.5258658156003
30
0
41
1
10
7.65012115091272
20
49.49283978992
30
0
41
1
10
8.34023241646182
20
49.3939015066669
30
0
41
1
10
8.84259918549134
20
49.3281078820367
30
0
41
1
10
9.52543881185341
20
49.2507842480035
30
0
41
1
10
9.66498342361436
20
49.2355485941909
30
0
41
1
10
9.94660630653928
20
49.206018070312
30
0
41
1
10
10.0890311791962
20
49.1916821724469
30
0
41
1
10
10.5210784957349
20
49.1500980949936
30
0
41
1
10
10.8154624092022
20
49.1242736319172
30
0
41
1
10
11.4168562129141
20
49.0771304171379
30
0
41
1
10
11.7238658185651
20
49.0558106059303
30
0
41
1
10
12.194064069406
20
49.0277473714167
30
0
41
1
10
12.3524136518404
20
49.0190458747657
30
0
41
1
10
12.6724189025046
20
49.0030419947934
30
0
41
1
10
12.8341365388844
20
48.9957419844596
30
0
41
1
10
13.6432209365995
20
48.9632550948834
30
0
41
1
10
14.2981986747492
20
48.9497781813156
30
0
41
1
10
14.961
20
48.9497781813156
30
0
0
SPLINE
5
141
100
AcDbEntity
8
1
62
256
6
ByLayer
370
18
48
1
60
0
100
AcDbSpline
70
4
71
3
72
8
73
4
40
0
40
0
40
0
40
0
40
1
40
1
40
1
40
1
41
1
10
23.2418217614998
20
31.35
30
0
41
1
10
22.7970550497016
20
31.35
30
0
41
1
10
22.3577665161751
20
31.35
30
0
41
1
10
21.925
20
31.35
30
0
0
SPLINE
5
142
100
AcDbEntity
8
1
62
256
6
ByLayer
370
18
48
1
60
0
100
AcDbSpline
70
4
71
3
72
8
73
4
40
0
40
0
40
0
40
0
40
1
40
1
40
1
40
1
41
1
10
21.925
20
-46.3931059454459
30
0
41
1
10
22.363511531413
20
-47.1737672945194
30
0
41
1
10
22.8024719501864
20
-47.9541774266955
30
0
41
1
10
23.2418217614998
20
-48.7343696378644
30
0
0
SPLINE
5
143
100
AcDbEntity
8
1
62
256
6
ByLayer
370
18
48
1
60
0
100
AcDbSpline
70
4
71
3
72
8
73
4
40
0
40
0
40
0
40
0
40
1
40
1
40
1
40
1
41
1
10
16.7581782385003
20
-48.7343696378644
30
0
41
1
10
17.1975280498136
20
-47.9541774266956
30
0
41
1
10
17.636488468587
20
-47.1737672945194
30
0
41
1
10
18.075
20
-46.3931059454459
30
0
0
SPLINE
5
144
100
AcDbEntity
8
SK1
62
256
6
ByLayer
370
18
48
1
60
0
100
AcDbSpline
70
4
71
3
72
8
73
4
40
0
40
0
40
0
40
0
40
1
40
1
40
1
40
1
41
1
10
-48.0000748840348
20
-32.2180191381091
30
0
41
1
10
-48.087267176674
20
-32.2186394162915
30
0
41
1
10
-48.1701858378107
20
-32.2200218675636
30
0
41
1
10
-48.2500000000061
20
-32.2214193285102
30
0
0
SPLINE
5
145
100
AcDbEntity
8
SK1
62
256
6
ByLayer
370
18
48
1
60
0
100
AcDbSpline
70
4
71
3
72
18
73
14
40
0
40
0
40
0
40
0
40
0.25
40
0.25
40
0.5
40
0.5
40
0.75
40
0.75
40
0.875
40
0.875
40
0.9375
40
0.9375
40
1
40
1
40
1
40
1
41
1
10
-36.7
20
-30.5167400608159
30
0
41
1
10
-37.0018287508318
20
-30.5888393358362
30
0
41
1
10
-37.2989191849967
20
-30.6646521442084
30
0
41
1
10
-37.8794932717711
20
-30.8269417246916
30
0
41
1
10
-38.163833200289
20
-30.9136573189832
30
0
41
1
10
-38.7023271093628
20
-31.1006246277984
30
0
41
1
10
-38.9577119316175
20
-31.2008741775999
30
0
41
1
10
-39.3043580486321
20
-31.3690299746908
30
0
41
1
10
-39.413743181854
20
-31.4280902527835
30
0
41
1
10
-39.5643417048923
20
-31.5232596505823
30
0
41
1
10
-39.6123981742517
20
-31.5562191934827
30
0
41
1
10
-39.7010248175164
20
-31.6234380759346
30
0
41
1
10
-39.7418257552054
20
-31.6578248205967
30
0
41
1
10
-39.7785586500799
20
-31.6931118380392
30
0
0
INSERT
5
15C
100
AcDbEntity
8
SK6
62
256
6
ByLayer
370
18
48
1
60
0
100
AcDbBlockReference
2
LABLE3D_1
10
-52.4
20
59.965
30
0
41
1
42
1
43
1
50
0
210
0
220
0
230
1
0
LINE
5
87
100
AcDbEntity
8
1
62
256
6
ByLayer
370
13
48
1
60
0
100
AcDbLine
10
49.08
20
-23
30
0
11
49.08
21
-21.315875
31
0
39
0
210
0
220
0
230
1
0
LINE
5
88
100
AcDbEntity
8
1
62
256
6
ByLayer
370
13
48
1
60
0
100
AcDbLine
10
40.92
20
-23
30
0
11
40.92
21
-21.341
31
0
39
0
210
0
220
0
230
1
0
LINE
5
89
100
AcDbEntity
8
1
62
256
6
ByLayer
370
18
48
1
60
0
100
AcDbLine
10
49.095
20
-23
30
0
11
40.905
21
-23
31
0
39
0
210
0
220
0
230
1
0
LINE
5
8A
100
AcDbEntity
8
1
62
256
6
ByLayer
370
18
48
1
60
0
100
AcDbLine
10
50
20
-22.095
30
0
11
40
21
-22.095
31
0
39
0
210
0
220
0
230
1
0
LINE
5
8B
100
AcDbEntity
8
1
62
256
6
ByLayer
370
13
48
1
60
0
100
AcDbLine
10
94.008378
20
-14.182355
30
0
11
94.008378
21
14.182355
31
0
39
0
210
0
220
0
230
1
0
LINE
5
8C
100
AcDbEntity
8
1
62
256
6
ByLayer
370
13
48
1
60
0
100
AcDbLine
10
85.42319
20
-15.696155
30
0
11
85.42319
21
0
31
0
39
0
210
0
220
0
230
1
0
LINE
5
8D
100
AcDbEntity
8
1
62
256
6
ByLayer
370
13
48
1
60
0
100
AcDbLine
10
85.42319
20
0
30
0
11
85.42319
21
15.696155
31
0
39
0
210
0
220
0
230
1
0
LINE
5
8E
100
AcDbEntity
8
1
62
256
6
ByLayer
370
13
48
1
60
0
100
AcDbLine
10
81.950227
20
16
30
0
11
81.950227
21
-16
31
0
39
0
210
0
220
0
230
1
0
LINE
5
8F
100
AcDbEntity
8
SK1
62
256
6
ByLayer
370
13
48
1
60
0
100
AcDbLine
10
-41.7
20
32.225
30
0
11
-41.7
21
32.030907
31
0
39
0
210
0
220
0
230
1
0
LINE
5
91
100
AcDbEntity
8
SK1
62
256
6
ByLayer
370
13
48
1
60
0
100
AcDbLine
10
-36.7
20
-31.693112
30
0
11
-36.7
21
-32.225
31
0
39
0
210
0
220
0
230
1
0
LINE
5
92
100
AcDbEntity
8
1
62
256
6
ByLayer
370
13
48
1
60
0
100
AcDbLine
10
56.750519
20
-16
30
0
11
56.750519
21
0
31
0
39
0
210
0
220
0
230
1
0
LINE
5
93
100
AcDbEntity
8
1
62
256
6
ByLayer
370
13
48
1
60
0
100
AcDbLine
10
56.750519
20
0
30
0
11
56.750519
21
16
31
0
39
0
210
0
220
0
230
1
0
LINE
5
94
100
AcDbEntity
8
1
62
256
6
ByLayer
370
18
48
1
60
0
100
AcDbLine
10
18.475
20
44.869591
30
0
11
21.525
21
44.869591
31
0
39
0
210
0
220
0
230
1
0
LINE
5
95
100
AcDbEntity
8
SK1
62
256
6
ByLayer
370
13
48
1
60
0
100
AcDbLine
10
-49.589566
20
30.49955
30
0
11
-48.969717
21
31.05184
31
0
39
0
210
0
220
0
230
1
0
LINE
5
96
100
AcDbEntity
8
SK1
62
256
6
ByLayer
370
13
48
1
60
0
100
AcDbLine
10
-49.589566
20
-30.49955
30
0
11
-48.969717
21
-31.05184
31
0
39
0
210
0
220
0
230
1
0
LINE
5
97
100
AcDbEntity
8
SK1
62
256
6
ByLayer
370
13
48
1
60
0
100
AcDbLine
10
-39.778559
20
-31.693112
30
0
11
-36.7
21
-31.693112
31
0
39
0
210
0
220
0
230
1
0
LINE
5
98
100
AcDbEntity
8
SK1
62
256
6
ByLayer
370
13
48
1
60
0
100
AcDbLine
10
-36.7
20
-31.693112
30
0
11
-36.7
21
-30.51674
31
0
39
0
210
0
220
0
230
1
0
LINE
5
99
100
AcDbEntity
8
1
62
256
6
ByLayer
370
13
48
1
60
0
100
AcDbLine
10
54.401287
20
-17.64495
30
0
11
54.401287
21
17.64495
31
0
39
0
210
0
220
0
230
1
0
LINE
5
9A
100
AcDbEntity
8
1
62
256
6
ByLayer
370
13
48
1
60
0
100
AcDbLine
10
51.963753
20
24.34202
30
0
11
51.963753
21
-24.34202
31
0
39
0
210
0
220
0
230
1
0
LINE
5
9B
100
AcDbEntity
8
1
62
256
6
ByLayer
370
13
48
1
60
0
100
AcDbLine
10
51.02406
20
25
30
0
11
51.02406
21
-25
31
0
39
0
210
0
220
0
230
1
0
LINE
5
9C
100
AcDbEntity
8
1
62
256
6
ByLayer
370
18
48
1
60
0
100
AcDbLine
10
21.925
20
46.619334
30
0
11
21.925
21
35.929935
31
0
39
0
210
0
220
0
230
1
0
LINE
5
9D
100
AcDbEntity
8
1
62
256
6
ByLayer
370
18
48
1
60
0
100
AcDbLine
10
28.95
20
48.235047
30
0
11
28.95
21
38.002865
31
0
39
0
210
0
220
0
230
1
0
LINE
5
9E
100
AcDbEntity
8
1
62
256
6
ByLayer
370
13
48
1
60
0
100
AcDbLine
10
31.45
20
0
30
0
11
31.45
21
-25
31
0
39
0
210
0
220
0
230
1
0
LINE
5
9F
100
AcDbEntity
8
1
62
256
6
ByLayer
370
13
48
1
60
0
100
AcDbLine
10
31.45
20
25
30
0
11
31.45
21
0
31
0
39
0
210
0
220
0
230
1
0
LINE
5
A0
100
AcDbEntity
8
1
62
256
6
ByLayer
370
18
48
1
60
0
100
AcDbLine
10
18.075
20
46.619334
30
0
11
18.075
21
35.929935
31
0
39
0
210
0
220
0
230
1
0
LINE
5
A1
100
AcDbEntity
8
1
62
256
6
ByLayer
370
18
48
1
60
0
100
AcDbLine
10
28.95
20
38.002865
30
0
11
28.95
21
31.35
31
0
39
0
210
0
220
0
230
1
0
LINE
5
A2
100
AcDbEntity
8
1
62
256
6
ByLayer
370
13
48
1
60
0
100
AcDbLine
10
21.525
20
33.628531
30
0
11
21.525
21
44.869591
31
0
39
0
210
0
220
0
230
1
0
LINE
5
A3
100
AcDbEntity
8
1
62
256
6
ByLayer
370
18
48
1
60
0
100
AcDbLine
10
18.075
20
34.173354
30
0
11
18.075
21
35.929935
31
0
39
0
210
0
220
0
230
1
0
LINE
5
A4
100
AcDbEntity
8
1
62
256
6
ByLayer
370
13
48
1
60
0
100
AcDbLine
10
18.475
20
44.869591
30
0
11
18.475
21
33.628531
31
0
39
0
210
0
220
0
230
1
0
LINE
5
A5
100
AcDbEntity
8
1
62
256
6
ByLayer
370
18
48
1
60
0
100
AcDbLine
10
23.241822
20
38.906024
30
0
11
28.25
21
38.906024
31
0
39
0
210
0
220
0
230
1
0
LINE
5
A6
100
AcDbEntity
8
1
62
256
6
ByLayer
370
18
48
1
60
0
100
AcDbLine
10
28.25
20
38.906024
30
0
11
28.25
21
48.949778
31
0
39
0
210
0
220
0
230
1
0
LINE
5
A7
100
AcDbEntity
8
1
62
256
6
ByLayer
370
18
48
1
60
0
100
AcDbLine
10
23.241822
20
48.949778
30
0
11
28.25
21
48.949778
31
0
39
0
210
0
220
0
230
1
0
LINE
5
A8
100
AcDbEntity
8
1
62
256
6
ByLayer
370
18
48
1
60
0
100
AcDbLine
10
18.475
20
31.35
30
0
11
21.525
21
31.35
31
0
39
0
210
0
220
0
230
1
0
LINE
5
A9
100
AcDbEntity
8
1
62
256
6
ByLayer
370
18
48
1
60
0
100
AcDbLine
10
23.241822
20
38.906024
30
0
11
23.241822
21
48.949778
31
0
39
0
210
0
220
0
230
1
0
LINE
5
AA
100
AcDbEntity
8
1
62
256
6
ByLayer
370
18
48
1
60
0
100
AcDbLine
10
18.475
20
33.628531
30
0
11
21.525
21
33.628531
31
0
39
0
210
0
220
0
230
1
0
LINE
5
AB
100
AcDbEntity
8
1
62
256
6
ByLayer
370
18
48
1
60
0
100
AcDbLine
10
21.525
20
-44.634495
30
0
11
18.475
21
-44.634495
31
0
39
0
210
0
220
0
230
1
0
LINE
5
AC
100
AcDbEntity
8
1
62
256
6
ByLayer
370
18
48
1
60
0
100
AcDbLine
10
21.925
20
35.929935
30
0
11
21.925
21
34.173354
31
0
39
0
210
0
220
0
230
1
0
LINE
5
AD
100
AcDbEntity
8
SK1
62
256
6
ByLayer
370
18
48
1
60
0
100
AcDbLine
10
-49.9
20
-30.486326
30
0
11
-49.9
21
30.486326
31
0
39
0
210
0
220
0
230
1
0
LINE
5
AE
100
AcDbEntity
8
SK1
62
256
6
ByLayer
370
18
48
1
60
0
100
AcDbLine
10
-2.066987
20
37.632252
30
0
11
-2.066987
21
-37.632252
31
0
39
0
210
0
220
0
230
1
0
LINE
5
AF
100
AcDbEntity
8
SK1
62
256
6
ByLayer
370
18
48
1
60
0
100
AcDbLine
10
-34.8
20
-33.855185
30
0
11
-34.8
21
-36.264015
31
0
39
0
210
0
220
0
230
1
0
LINE
5
B0
100
AcDbEntity
8
SK1
62
256
6
ByLayer
370
13
48
1
60
0
100
AcDbLine
10
-48.000075
20
32.218019
30
0
11
-48.000075
21
-32.218019
31
0
39
0
210
0
220
0
230
1
0
LINE
5
B1
100
AcDbEntity
8
SK1
62
256
6
ByLayer
370
18
48
1
60
0
100
AcDbLine
10
-2.5
20
37.882252
30
0
11
-2.5
21
-37.882252
31
0
39
0
210
0
220
0
230
1
0
LINE
5
B2
100
AcDbEntity
8
SK1
62
256
6
ByLayer
370
18
48
1
60
0
100
AcDbLine
10
-39.8
20
36.013514
30
0
11
-39.8
21
33.731867
31
0
39
0
210
0
220
0
230
1
0
LINE
5
B3
100
AcDbEntity
8
SK1
62
256
6
ByLayer
370
18
48
1
60
0
100
AcDbLine
10
-48.25
20
32.225
30
0
11
-48.25
21
32.221419
31
0
39
0
210
0
220
0
230
1
0
LINE
5
B4
100
AcDbEntity
8
SK1
62
256
6
ByLayer
370
13
48
1
60
0
100
AcDbLine
10
-0.8
20
-37.632252
30
0
11
-0.8
21
37.632252
31
0
39
0
210
0
220
0
230
1
0
LINE
5
B5
100
AcDbEntity
8
1
62
256
6
ByLayer
370
13
48
1
60
0
100
AcDbLine
10
14.646751
20
31.35
30
0
11
14.646751
21
38.906024
31
0
39
0
210
0
220
0
230
1
0
LINE
5
B6
100
AcDbEntity
8
1
62
256
6
ByLayer
370
18
48
1
60
0
100
AcDbLine
10
0.7
20
0
30
0
11
0.7
21
-49.965
31
0
39
0
210
0
220
0
230
1
0
LINE
5
B7
100
AcDbEntity
8
1
62
256
6
ByLayer
370
18
48
1
60
0
100
AcDbLine
10
0.7
20
49.965
30
0
11
0.7
21
0
31
0
39
0
210
0
220
0
230
1
0
LINE
5
B8
100
AcDbEntity
8
1
62
256
6
ByLayer
370
13
48
1
60
0
100
AcDbLine
10
18.475
20
-8.827456
30
0
11
18.475
21
-44.634495
31
0
39
0
210
0
220
0
230
1
0
LINE
5
B9
100
AcDbEntity
8
1
62
256
6
ByLayer
370
18
48
1
60
0
100
AcDbLine
10
0
20
49.265
30
0
11
0
21
-49.265
31
0
39
0
210
0
220
0
230
1
0
LINE
5
BA
100
AcDbEntity
8
1
62
256
6
ByLayer
370
13
48
1
60
0
100
AcDbLine
10
18.475
20
7.13671
30
0
11
18.475
21
-7.13671
31
0
39
0
210
0
220
0
230
1
0
LINE
5
BB
100
AcDbEntity
8
1
62
256
6
ByLayer
370
13
48
1
60
0
100
AcDbLine
10
18.475
20
31.35
30
0
11
18.475
21
8.827456
31
0
39
0
210
0
220
0
230
1
0
LINE
5
BC
100
AcDbEntity
8
1
62
256
6
ByLayer
370
13
48
1
60
0
100
AcDbLine
10
21.525
20
-7.13671
30
0
11
21.525
21
7.13671
31
0
39
0
210
0
220
0
230
1
0
LINE
5
BD
100
AcDbEntity
8
1
62
256
6
ByLayer
370
18
48
1
60
0
100
AcDbLine
10
4.95
20
-49.965
30
0
11
4.95
21
-49.954567
31
0
39
0
210
0
220
0
230
1
0
LINE
5
BE
100
AcDbEntity
8
1
62
256
6
ByLayer
370
13
48
1
60
0
100
AcDbLine
10
21.525
20
-44.634495
30
0
11
21.525
21
-8.827456
31
0
39
0
210
0
220
0
230
1
0
LINE
5
BF
100
AcDbEntity
8
1
62
256
6
ByLayer
370
18
48
1
60
0
100
AcDbLine
10
18.075
20
31.35
30
0
11
18.075
21
-46.393106
31
0
39
0
210
0
220
0
230
1
0
LINE
5
C0
100
AcDbEntity
8
1
62
256
6
ByLayer
370
13
48
1
60
0
100
AcDbLine
10
21.525
20
8.827456
30
0
11
21.525
21
31.35
31
0
39
0
210
0
220
0
230
1
0
LINE
5
C1
100
AcDbEntity
8
1
62
256
6
ByLayer
370
18
48
1
60
0
100
AcDbLine
10
28.25
20
-48.73437
30
0
11
23.241822
21
-48.73437
31
0
39
0
210
0
220
0
230
1
0
LINE
5
C2
100
AcDbEntity
8
1
62
256
6
ByLayer
370
18
48
1
60
0
100
AcDbLine
10
16.758178
20
31.35
30
0
11
16.758178
21
-48.73437
31
0
39
0
210
0
220
0
230
1
0
LINE
5
C3
100
AcDbEntity
8
1
62
256
6
ByLayer
370
18
48
1
60
0
100
AcDbLine
10
23.241822
20
-48.73437
30
0
11
23.241822
21
31.35
31
0
39
0
210
0
220
0
230
1
0
LINE
5
C4
100
AcDbEntity
8
1
62
256
6
ByLayer
370
18
48
1
60
0
100
AcDbLine
10
16.758178
20
31.35
30
0
11
4.95
21
31.35
31
0
39
0
210
0
220
0
230
1
0
LINE
5
C5
100
AcDbEntity
8
1
62
256
6
ByLayer
370
18
48
1
60
0
100
AcDbLine
10
14.646751
20
38.906024
30
0
11
16.758178
21
38.906024
31
0
39
0
210
0
220
0
230
1
0
LINE
5
C6
100
AcDbEntity
8
1
62
256
6
ByLayer
370
18
48
1
60
0
100
AcDbLine
10
16.758178
20
48.949778
30
0
11
16.758178
21
38.906024
31
0
39
0
210
0
220
0
230
1
0
LINE
5
C7
100
AcDbEntity
8
1
62
256
6
ByLayer
370
18
48
1
60
0
100
AcDbLine
10
28.95
20
31.35
30
0
11
28.95
21
-48.016432
31
0
39
0
210
0
220
0
230
1
0
LINE
5
C8
100
AcDbEntity
8
1
62
256
6
ByLayer
370
18
48
1
60
0
100
AcDbLine
10
14.961
20
48.949778
30
0
11
16.758178
21
48.949778
31
0
39
0
210
0
220
0
230
1
0
LINE
5
C9
100
AcDbEntity
8
1
62
256
6
ByLayer
370
18
48
1
60
0
100
AcDbLine
10
21.925
20
31.35
30
0
11
21.925
21
-46.393106
31
0
39
0
210
0
220
0
230
1
0
LINE
5
CA
100
AcDbEntity
8
1
62
256
6
ByLayer
370
18
48
1
60
0
100
AcDbLine
10
28.25
20
-48.73437
30
0
11
28.25
21
31.35
31
0
39
0
210
0
220
0
230
1
0
LINE
5
CB
100
AcDbEntity
8
1
62
256
6
ByLayer
370
18
48
1
60
0
100
AcDbLine
10
28.25
20
31.35
30
0
11
23.241822
21
31.35
31
0
39
0
210
0
220
0
230
1
0
LINE
5
CC
100
AcDbEntity
8
1
62
256
6
ByLayer
370
18
48
1
60
0
100
AcDbLine
10
16.758178
20
-48.73437
30
0
11
14.95
21
-48.73437
31
0
39
0
210
0
220
0
230
1
0
LINE
5
CD
100
AcDbEntity
8
1
62
256
6
ByLayer
370
18
48
1
60
0
100
AcDbLine
10
95
20
-13.000586
30
0
11
95
21
13.000586
31
0
39
0
210
0
220
0
230
1
0
LINE
5
CE
100
AcDbEntity
8
SK1
62
256
6
ByLayer
370
18
48
1
60
0
100
AcDbLine
10
-48.25
20
-32.225
30
0
11
-48.25
21
-32.221419
31
0
39
0
210
0
220
0
230
1
0
LINE
5
CF
100
AcDbEntity
8
SK4
62
256
6
ByLayer
370
18
48
0.05
60
0
100
AcDbLine
10
-59.9
20
0
30
0
11
105
21
0
31
0
39
0
210
0
220
0
230
1
0
LINE
5
D1
100
AcDbEntity
8
1
62
256
6
ByLayer
370
18
48
1
60
0
100
AcDbLine
10
94.008378
20
14.182355
30
0
11
85.42319
21
15.696155
31
0
39
0
210
0
220
0
230
1
0
LINE
5
D2
100
AcDbEntity
8
1
62
256
6
ByLayer
370
18
48
1
60
0
100
AcDbLine
10
85.42319
20
-15.696155
30
0
11
94.008378
21
-14.182355
31
0
39
0
210
0
220
0
230
1
0
LINE
5
D3
100
AcDbEntity
8
1
62
256
6
ByLayer
370
18
48
1
60
0
100
AcDbLine
10
81.950227
20
16
30
0
11
56.750519
21
16
31
0
39
0
210
0
220
0
230
1
0
LINE
5
D4
100
AcDbEntity
8
1
62
256
6
ByLayer
370
18
48
1
60
0
100
AcDbLine
10
56.750519
20
-16
30
0
11
81.950227
21
-16
31
0
39
0
210
0
220
0
230
1
0
LINE
5
D5
100
AcDbEntity
8
SK1
62
256
6
ByLayer
370
18
48
1
60
0
100
AcDbLine
10
-41.7
20
32.225
30
0
11
-48.25
21
32.225
31
0
39
0
210
0
220
0
230
1
0
LINE
5
D6
100
AcDbEntity
8
SK1
62
256
6
ByLayer
370
18
48
1
60
0
100
AcDbLine
10
-48.25
20
32.225
30
0
11
-49.849203
21
30.625797
31
0
39
0
210
0
220
0
230
1
0
LINE
5
D7
100
AcDbEntity
8
SK1
62
256
6
ByLayer
370
18
48
1
60
0
100
AcDbLine
10
-49.849858
20
-30.625142
30
0
11
-48.25
21
-32.225
31
0
39
0
210
0
220
0
230
1
0
LINE
5
D8
100
AcDbEntity
8
SK1
62
256
6
ByLayer
370
18
48
1
60
0
100
AcDbLine
10
-48.25
20
-32.225
30
0
11
-36.7
21
-32.225
31
0
39
0
210
0
220
0
230
1
0
LINE
5
D9
100
AcDbEntity
8
1
62
256
6
ByLayer
370
18
48
1
60
0
100
AcDbLine
10
54.401287
20
17.64495
30
0
11
51.963753
21
24.34202
31
0
39
0
210
0
220
0
230
1
0
LINE
5
DA
100
AcDbEntity
8
1
62
256
6
ByLayer
370
18
48
1
60
0
100
AcDbLine
10
51.963753
20
-24.34202
30
0
11
54.401287
21
-17.64495
31
0
39
0
210
0
220
0
230
1
0
LINE
5
DB
100
AcDbEntity
8
1
62
256
6
ByLayer
370
18
48
1
60
0
100
AcDbLine
10
51.02406
20
25
30
0
11
31.45
21
25
31
0
39
0
210
0
220
0
230
1
0
LINE
5
DC
100
AcDbEntity
8
1
62
256
6
ByLayer
370
18
48
1
60
0
100
AcDbLine
10
31.45
20
-25
30
0
11
51.02406
21
-25
31
0
39
0
210
0
220
0
230
1
0
LINE
5
DD
100
AcDbEntity
8
SK1
62
256
6
ByLayer
370
18
48
1
60
0
100
AcDbLine
10
-2.066987
20
-37.632252
30
0
11
-0.8
21
-37.632252
31
0
39
0
210
0
220
0
230
1
0
LINE
5
DE
100
AcDbEntity
8
SK1
62
256
6
ByLayer
370
18
48
1
60
0
100
AcDbLine
10
-0.8
20
37.632252
30
0
11
-2.066987
21
37.632252
31
0
39
0
210
0
220
0
230
1
0
LINE
5
DF
100
AcDbEntity
8
SK1
62
256
6
ByLayer
370
18
48
1
60
0
100
AcDbLine
10
-2.066987
20
37.632252
30
0
11
-2.5
21
37.882252
31
0
39
0
210
0
220
0
230
1
0
LINE
5
E0
100
AcDbEntity
8
SK1
62
256
6
ByLayer
370
18
48
1
60
0
100
AcDbLine
10
-2.5
20
-37.882252
30
0
11
-2.066987
21
-37.632252
31
0
39
0
210
0
220
0
230
1
0
LINE
5
E1
100
AcDbEntity
8
SK1
62
256
6
ByLayer
370
18
48
1
60
0
100
AcDbLine
10
-34.8
20
-36.264015
30
0
11
-21.483372
21
-36.931181
31
0
39
0
210
0
220
0
230
1
0
LINE
5
E2
100
AcDbEntity
8
SK1
62
256
6
ByLayer
370
18
48
1
60
0
100
AcDbLine
10
-7.834332
20
-37.615
30
0
11
-2.5
21
-37.882252
31
0
39
0
210
0
220
0
230
1
0
LINE
5
E3
100
AcDbEntity
8
SK1
62
256
6
ByLayer
370
18
48
1
60
0
100
AcDbLine
10
-2.5
20
37.882252
30
0
11
-7.834293
21
37.615002
31
0
39
0
210
0
220
0
230
1
0
LINE
5
E4
100
AcDbEntity
8
SK1
62
256
6
ByLayer
370
18
48
1
60
0
100
AcDbLine
10
-21.487679
20
36.930965
30
0
11
-39.8
21
36.013514
31
0
39
0
210
0
220
0
230
1
0
LINE
5
E5
100
AcDbEntity
8
1
62
256
6
ByLayer
370
18
48
1
60
0
100
AcDbLine
10
0
20
-49.265
30
0
11
0.7
21
-49.965
31
0
39
0
210
0
220
0
230
1
0
LINE
5
E6
100
AcDbEntity
8
1
62
256
6
ByLayer
370
18
48
1
60
0
100
AcDbLine
10
0.7
20
49.965
30
0
11
0
21
49.265
31
0
39
0
210
0
220
0
230
1
0
LINE
5
E7
100
AcDbEntity
8
1
62
256
6
ByLayer
370
18
48
1
60
0
100
AcDbLine
10
0.7
20
-49.965
30
0
11
4.95
21
-49.965
31
0
39
0
210
0
220
0
230
1
0
LINE
5
E8
100
AcDbEntity
8
1
62
256
6
ByLayer
370
18
48
1
60
0
100
AcDbLine
10
4.949421
20
49.965
30
0
11
4.949176
21
49.965
31
0
39
0
210
0
220
0
230
1
0
LINE
5
E9
100
AcDbEntity
8
1
62
256
6
ByLayer
370
18
48
1
60
0
100
AcDbLine
10
4.949176
20
49.965
30
0
11
0.7
21
49.965
31
0
39
0
210
0
220
0
230
1
0
LINE
5
EA
100
AcDbEntity
8
1
62
256
6
ByLayer
370
18
48
1
60
0
100
AcDbLine
10
49.095
20
-23
30
0
11
50
21
-22.095
31
0
39
0
210
0
220
0
230
1
0
LINE
5
EB
100
AcDbEntity
8
1
62
256
6
ByLayer
370
18
48
1
60
0
100
AcDbLine
10
40
20
-22.095
30
0
11
40.905
21
-23
31
0
39
0
210
0
220
0
230
1
0
LINE
5
EC
100
AcDbEntity
8
1
62
256
6
ByLayer
370
18
48
1
60
0
100
AcDbLine
10
40
20
-21.341032
30
0
11
40
21
-22.095
31
0
39
0
210
0
220
0
230
1
0
LINE
5
ED
100
AcDbEntity
8
1
62
256
6
ByLayer
370
18
48
1
60
0
100
AcDbLine
10
50
20
-22.095
30
0
11
50
21
-21.31606
31
0
39
0
210
0
220
0
230
1
0
LINE
5
EE
100
AcDbEntity
8
SK3
62
256
6
ByLayer
370
18
48
0.05
60
0
100
AcDbLine
10
50.5
20
-6
30
0
11
50.5
21
6
31
0
39
0
210
0
220
0
230
1
0
LINE
5
F0
100
AcDbEntity
8
SK3
62
256
6
ByLayer
370
18
48
0.05
60
0
100
AcDbLine
10
49
20
-4.5
30
0
11
50.5
21
-6
31
0
39
0
210
0
220
0
230
1
0
LINE
5
F1
100
AcDbEntity
8
SK3
62
256
6
ByLayer
370
18
48
0.05
60
0
100
AcDbLine
10
50.5
20
6
30
0
11
49
21
4.5
31
0
39
0
210
0
220
0
230
1
0
LINE
5
F2
100
AcDbEntity
8
SK3
62
256
6
ByLayer
370
18
48
0.05
60
0
100
AcDbLine
10
95
20
6
30
0
11
50.5
21
6
31
0
39
0
210
0
220
0
230
1
0
LINE
5
F3
100
AcDbEntity
8
81
62
256
6
ByLayer
370
18
48
1
60
0
100
AcDbLine
10
95
20
0
30
0
11
99.742527
21
0
31
0
39
0
210
0
220
0
230
1
0
LINE
5
F4
100
AcDbEntity
8
80
62
256
6
ByLayer
370
18
48
1
60
0
100
AcDbLine
10
0
20
0
30
0
11
-10.875929
21
0
31
0
39
0
210
0
220
0
230
1
0
LINE
5
F5
100
AcDbEntity
8
4
62
256
6
ByLayer
370
18
48
0.05
60
0
100
AcDbLine
10
95
20
0
30
0
11
0
21
0
31
0
39
0
210
0
220
0
230
1
0
LINE
5
F7
100
AcDbEntity
8
SK3
62
256
6
ByLayer
370
18
48
0.05
60
0
100
AcDbLine
10
50.5
20
-6
30
0
11
95
21
-6
31
0
39
0
210
0
220
0
230
1
0
LINE
5
F8
100
AcDbEntity
8
SK3
62
256
6
ByLayer
370
18
48
0.05
60
0
100
AcDbLine
10
49
20
4.5
30
0
11
49
21
-4.5
31
0
39
0
210
0
220
0
230
1
0
LINE
5
F9
100
AcDbEntity
8
SK2
62
256
6
ByLayer
370
13
48
1
60
0
100
AcDbLine
10
-86
20
-49.965
30
0
11
-86
21
49.965
31
0
39
0
210
0
220
0
230
1
0
LINE
5
FB
100
AcDbEntity
8
SK2
62
256
6
ByLayer
370
13
48
1
60
0
100
AcDbLine
10
-1.5875
20
49.965
30
0
11
-88
21
49.965
31
0
39
0
210
0
220
0
230
1
0
LINE
5
FC
100
AcDbEntity
8
SK2
62
256
6
ByLayer
370
13
48
1
60
0
100
AcDbLine
10
-1.5875
20
-49.965
30
0
11
-88
21
-49.965
31
0
39
0
210
0
220
0
230
1
0
LINE
5
FD
100
AcDbEntity
8
1
62
256
6
ByLayer
370
18
48
1
60
1
100
AcDbLine
10
-86
20
49.965
30
0
11
-85.002374
21
45.465004
31
0
39
0
210
0
220
0
230
1
0
LINE
5
FE
100
AcDbEntity
8
1
62
256
6
ByLayer
370
18
48
1
60
1
100
AcDbLine
10
-85.002374
20
45.465004
30
0
11
-86.997626
21
45.464996
31
0
39
0
210
0
220
0
230
1
0
LINE
5
FF
100
AcDbEntity
8
1
62
256
6
ByLayer
370
18
48
1
60
1
100
AcDbLine
10
-86.997626
20
45.464996
30
0
11
-86
21
49.965
31
0
39
0
210
0
220
0
230
1
0
LINE
5
100
100
AcDbEntity
8
1
62
256
6
ByLayer
370
18
48
1
60
1
100
AcDbLine
10
-86
20
-49.965
30
0
11
-86.997626
21
-45.465004
31
0
39
0
210
0
220
0
230
1
0
LINE
5
101
100
AcDbEntity
8
1
62
256
6
ByLayer
370
18
48
1
60
1
100
AcDbLine
10
-86.997626
20
-45.465004
30
0
11
-85.002374
21
-45.464996
31
0
39
0
210
0
220
0
230
1
0
LINE
5
102
100
AcDbEntity
8
1
62
256
6
ByLayer
370
18
48
1
60
1
100
AcDbLine
10
-85.002374
20
-45.464996
30
0
11
-86
21
-49.965
31
0
39
0
210
0
220
0
230
1
0
LINE
5
14A
100
AcDbEntity
8
1
62
256
6
ByLayer
370
18
48
1
60
1
100
AcDbLine
10
-86
20
49.965
30
0
11
-85.002374
21
45.465004
31
0
39
0
210
0
220
0
230
1
0
LINE
5
14B
100
AcDbEntity
8
1
62
256
6
ByLayer
370
18
48
1
60
1
100
AcDbLine
10
-85.002374
20
45.465004
30
0
11
-86.997626
21
45.464996
31
0
39
0
210
0
220
0
230
1
0
LINE
5
14C
100
AcDbEntity
8
1
62
256
6
ByLayer
370
18
48
1
60
1
100
AcDbLine
10
-86.997626
20
45.464996
30
0
11
-86
21
49.965
31
0
39
0
210
0
220
0
230
1
0
LINE
5
14E
100
AcDbEntity
8
1
62
256
6
ByLayer
370
18
48
1
60
1
100
AcDbLine
10
-86
20
-49.965
30
0
11
-86.997626
21
-45.465004
31
0
39
0
210
0
220
0
230
1
0
LINE
5
14F
100
AcDbEntity
8
1
62
256
6
ByLayer
370
18
48
1
60
1
100
AcDbLine
10
-86.997626
20
-45.465004
30
0
11
-85.002374
21
-45.464996
31
0
39
0
210
0
220
0
230
1
0
LINE
5
150
100
AcDbEntity
8
1
62
256
6
ByLayer
370
18
48
1
60
1
100
AcDbLine
10
-85.002374
20
-45.464996
30
0
11
-86
21
-49.965
31
0
39
0
210
0
220
0
230
1
0
LINE
5
157
100
AcDbEntity
8
SK6
62
256
6
ByLayer
370
13
48
1
60
0
100
AcDbLine
10
-53.9
20
59.965
30
0
11
-53.9
21
59.965
31
0
39
0
210
0
220
0
230
1
0
MTEXT
5
146
100
AcDbEntity
8
SK2
62
256
6
ByLayer
370
18
48
1
60
0
100
AcDbMText
10
-88.011672
20
-5.818013
30
0
210
0
220
0
230
1
1
%%c
40
4.5
41
0
44
1.084337
50
90
71
7
72
5
7
iso_b_vert
0
MTEXT
5
149
100
AcDbEntity
8
SK2
62
256
6
ByLayer
370
18
48
1
60
0
100
AcDbMText
10
-88.011672
20
0.896831
30
0
210
0
220
0
230
1
1
\W0.6217;100
40
4.5
41
0
44
1.084337
50
90
71
7
72
5
7
iso_b_vert
0
MTEXT
5
152
100
AcDbEntity
8
SK6
62
256
6
ByLayer
370
18
48
1
60
0
100
AcDbMText
10
-7.8145
20
-64.182366
30
0
210
0
220
0
230
1
1
\W0.7329;930-HA10-S-12-095A
40
3.5
41
0
44
1.084337
50
0
71
7
72
5
7
iso_b_vert
0
MTEXT
5
154
100
AcDbEntity
8
SK6
62
256
6
ByLayer
370
18
48
1
60
0
100
AcDbMText
10
-97.358693
20
57.497634
30
0
210
0
220
0
230
1
1
\W0.7679;DIN69893-HSK-A100
40
3.5
41
0
44
1.084337
50
0
71
7
72
5
7
iso_b_vert
0
MTEXT
5
155
100
AcDbEntity
8
SK6
62
256
6
ByLayer
370
18
48
1
60
0
100
AcDbMText
10
-54.773633
20
57.497634
30
0
210
0
220
0
230
1
1
\W0.2969; 
40
3.5
41
0
44
1.084337
50
0
71
7
72
5
7
iso_b_vert
0
HATCH
5
14D
100
AcDbEntity
8
SK2
62
256
6
ByLayer
370
13
48
1
60
0
100
AcDbHatch
10
0
20
0
30
0
210
0
220
0
230
1
2
ANSI31
70
0
71
0
91
1
92
5
93
3
72
1
10
-86
20
49.965
11
-85.0023740181135
21
45.4650036644848
72
1
10
-85.0023740181135
20
45.4650036644848
11
-86.9976259818865
21
45.4649963355152
72
1
10
-86.9976259818865
20
45.4649963355152
11
-86
21
49.965
97
0
75
0
76
1
52
0
41
0.0062
77
0
78
1
53
45
43
0
44
0
45
-0.0139193969876572
46
0.0139193969876572
79
0
47
0
98
1
10
0
20
0
0
HATCH
5
151
100
AcDbEntity
8
SK2
62
256
6
ByLayer
370
13
48
1
60
0
100
AcDbHatch
10
0
20
0
30
0
210
0
220
0
230
1
2
ANSI31
70
0
71
0
91
1
92
5
93
3
72
1
10
-86
20
-49.965
11
-86.9976259818865
21
-45.4650036644848
72
1
10
-86.9976259818865
20
-45.4650036644848
11
-85.0023740181135
21
-45.4649963355152
72
1
10
-85.0023740181135
20
-45.4649963355152
11
-86
21
-49.965
97
0
75
0
76
1
52
0
41
0.0062
77
0
78
1
53
45
43
0
44
0
45
-0.0139193969876572
46
0.0139193969876572
79
0
47
0
98
1
10
0
20
0
0
DIMENSION
5
160
100
AcDbEntity
8
SK2
62
256
6
ByLayer
370
18
48
1
60
0
100
AcDbDimension
2
_U0
10
139.25
20
16
30
0
11
139.25
21
0
31
0
70
32
71
1
72
1
41
1
210
0
220
0
230
1
3
Standard
100
AcDbAlignedDimension
13
95
23
-16
33
0
14
95
24
16
34
0
50
90
100
AcDbRotatedDimension
1001
ACAD
1000
DSTYLE
1002
{
1070
   371
1070
    13
1070
   372
1070
    13
1070
   170
1070
     0
1070
   144
1040
1.0
1070
   277
1070
     2
1070
   284
1070
     8
1070
   278
1070
    44
1070
   146
1040
0.777778
1070
   345
1005
16
1070
   347
1005
16
1070
   346
1005
16
1070
   344
1005
0
1070
   343
1005
0
1070
   172
1070
     1
1070
    76
1070
     0
1070
    75
1070
     0
1070
   282
1070
     0
1070
   281
1070
     0
1070
    71
1070
     0
1070
    74
1070
     0
1070
   279
1070
     0
1070
   173
1070
     1
1070
   340
1005
147
1070
   271
1070
     1
1070
   272
1070
     2
1070
    77
1070
     1
1070
    73
1070
     0
1070
   171
1070
     3
1070
   274
1070
     4
1070
   177
1070
     2
1070
   176
1070
     2
1070
   178
1070
     2
1070
    78
1070
     8
1070
    48
1040
-0.1
1070
    41
1040
4.5
1070
   147
1040
2.25
1070
    42
1040
1.5875
1070
    44
1040
2.0
1070
   140
1040
4.5
1002
}
1001
ACAD_DSTYLE_DIM_LINETYPE
1070
   380
1005
16
1001
ACAD_DSTYLE_DIM_EXT1_LINETYPE
1070
   381
1005
16
1001
ACAD_DSTYLE_DIM_EXT2_LINETYPE
1070
   382
1005
16
0
DIMENSION
5
17A
100
AcDbEntity
8
SK2
62
256
6
ByLayer
370
18
48
1
60
0
100
AcDbDimension
2
_U1
10
127.25
20
-6
30
0
11
127.25
21
25.071429
31
0
70
32
71
1
72
1
41
1
210
0
220
0
230
1
3
Standard
100
AcDbAlignedDimension
13
95
23
6
33
0
14
95
24
-6
34
0
50
90
100
AcDbRotatedDimension
1001
ACAD
1000
DSTYLE
1002
{
1070
   371
1070
    13
1070
   372
1070
    13
1070
   170
1070
     0
1070
   144
1040
1.0
1070
   277
1070
     2
1070
   284
1070
     8
1070
   278
1070
    44
1070
   146
1040
0.777778
1070
   345
1005
16
1070
   347
1005
16
1070
   346
1005
16
1070
   344
1005
0
1070
   343
1005
0
1070
   172
1070
     1
1070
    76
1070
     0
1070
    75
1070
     0
1070
   282
1070
     0
1070
   281
1070
     0
1070
    71
1070
     0
1070
    74
1070
     0
1070
   279
1070
     0
1070
   173
1070
     1
1070
   340
1005
147
1070
   271
1070
     1
1070
   272
1070
     2
1070
    77
1070
     1
1070
    73
1070
     0
1070
   171
1070
     3
1070
   274
1070
     4
1070
   177
1070
     2
1070
   176
1070
     2
1070
   178
1070
     2
1070
    78
1070
     8
1070
    48
1040
-0.1
1070
    41
1040
4.5
1070
   147
1040
2.25
1070
    42
1040
1.5875
1070
    44
1040
2.0
1070
   140
1040
4.5
1002
}
1001
ACAD_DSTYLE_DIM_LINETYPE
1070
   380
1005
16
1001
ACAD_DSTYLE_DIM_EXT1_LINETYPE
1070
   381
1005
16
1001
ACAD_DSTYLE_DIM_EXT2_LINETYPE
1070
   382
1005
16
0
DIMENSION
5
195
100
AcDbEntity
8
SK2
62
256
6
ByLayer
370
18
48
1
60
0
100
AcDbDimension
2
_U2
10
159.25
20
-25
30
0
11
159.25
21
0
31
0
70
32
71
1
72
1
41
1
210
0
220
0
230
1
3
Standard
100
AcDbAlignedDimension
13
55
23
25
33
0
14
55
24
-25
34
0
50
90
100
AcDbRotatedDimension
1001
ACAD
1000
DSTYLE
1002
{
1070
   371
1070
    13
1070
   372
1070
    13
1070
   170
1070
     0
1070
   144
1040
1.0
1070
   277
1070
     2
1070
   284
1070
     8
1070
   278
1070
    44
1070
   146
1040
0.777778
1070
   345
1005
16
1070
   347
1005
16
1070
   346
1005
16
1070
   344
1005
0
1070
   343
1005
0
1070
   172
1070
     1
1070
    76
1070
     0
1070
    75
1070
     0
1070
   282
1070
     0
1070
   281
1070
     0
1070
    71
1070
     0
1070
    74
1070
     0
1070
   279
1070
     0
1070
   173
1070
     1
1070
   340
1005
147
1070
   271
1070
     1
1070
   272
1070
     2
1070
    77
1070
     1
1070
    73
1070
     0
1070
   171
1070
     3
1070
   274
1070
     4
1070
   177
1070
     2
1070
   176
1070
     2
1070
   178
1070
     2
1070
    78
1070
     8
1070
    48
1040
-0.1
1070
    41
1040
4.5
1070
   147
1040
2.25
1070
    42
1040
1.5875
1070
    44
1040
2.0
1070
   140
1040
4.5
1002
}
1001
ACAD_DSTYLE_DIM_LINETYPE
1070
   380
1005
16
1001
ACAD_DSTYLE_DIM_EXT1_LINETYPE
1070
   381
1005
16
1001
ACAD_DSTYLE_DIM_EXT2_LINETYPE
1070
   382
1005
16
0
DIMENSION
5
1AE
100
AcDbEntity
8
SK2
62
256
6
ByLayer
370
18
48
1
60
0
100
AcDbDimension
2
_U3
10
95
20
-68.565
30
0
11
72
21
-68.565
31
0
70
32
71
1
72
1
41
1
210
0
220
0
230
1
3
Standard
100
AcDbAlignedDimension
13
49
23
-6
33
0
14
95
24
-6
34
0
50
0
100
AcDbRotatedDimension
1001
ACAD
1000
DSTYLE
1002
{
1070
   371
1070
    13
1070
   372
1070
    13
1070
     3
1000

1070
   170
1070
     0
1070
   144
1040
1.0
1070
   277
1070
     2
1070
   284
1070
     8
1070
   278
1070
    44
1070
   146
1040
0.777778
1070
   345
1005
16
1070
   347
1005
16
1070
   346
1005
16
1070
   344
1005
0
1070
   343
1005
0
1070
   172
1070
     1
1070
    76
1070
     0
1070
    75
1070
     0
1070
   282
1070
     0
1070
   281
1070
     0
1070
    71
1070
     0
1070
    74
1070
     0
1070
   279
1070
     0
1070
   173
1070
     1
1070
   340
1005
147
1070
   271
1070
     0
1070
   272
1070
     2
1070
    77
1070
     1
1070
    73
1070
     1
1070
   171
1070
     3
1070
   274
1070
     4
1070
   177
1070
     2
1070
   176
1070
     2
1070
   178
1070
     2
1070
    78
1070
     8
1070
    48
1040
-0.1
1070
    41
1040
4.5
1070
   147
1040
2.25
1070
    42
1040
1.5875
1070
    44
1040
2.0
1070
   140
1040
4.5
1002
}
1001
ACAD_DSTYLE_DIM_LINETYPE
1070
   380
1005
16
1001
ACAD_DSTYLE_DIM_EXT1_LINETYPE
1070
   381
1005
16
1001
ACAD_DSTYLE_DIM_EXT2_LINETYPE
1070
   382
1005
16
0
DIMENSION
5
1C6
100
AcDbEntity
8
SK2
62
256
6
ByLayer
370
18
48
1
60
0
100
AcDbDimension
2
_U4
10
95
20
-58.565
30
0
11
89.35
21
-58.565
31
0
70
32
71
1
72
1
41
1
210
0
220
0
230
1
3
Standard
100
AcDbAlignedDimension
13
83.7
23
-16
33
0
14
95
24
-16
34
0
50
0
100
AcDbRotatedDimension
1001
ACAD
1000
DSTYLE
1002
{
1070
   371
1070
    13
1070
   372
1070
    13
1070
   170
1070
     0
1070
   144
1040
1.0
1070
   277
1070
     2
1070
   284
1070
     8
1070
   278
1070
    44
1070
   146
1040
0.777778
1070
   345
1005
16
1070
   347
1005
16
1070
   346
1005
16
1070
   344
1005
0
1070
   343
1005
0
1070
   172
1070
     1
1070
    76
1070
     0
1070
    75
1070
     0
1070
   282
1070
     0
1070
   281
1070
     0
1070
    71
1070
     0
1070
    74
1070
     0
1070
   279
1070
     0
1070
   173
1070
     1
1070
   340
1005
147
1070
   271
1070
     1
1070
   272
1070
     2
1070
    77
1070
     1
1070
    73
1070
     1
1070
   171
1070
     3
1070
   274
1070
     4
1070
   177
1070
     2
1070
   176
1070
     2
1070
   178
1070
     2
1070
    78
1070
     8
1070
    48
1040
-0.1
1070
    41
1040
4.5
1070
   147
1040
2.25
1070
    42
1040
1.5875
1070
    44
1040
2.0
1070
   140
1040
4.5
1002
}
1001
ACAD_DSTYLE_DIM_LINETYPE
1070
   380
1005
16
1001
ACAD_DSTYLE_DIM_EXT1_LINETYPE
1070
   381
1005
16
1001
ACAD_DSTYLE_DIM_EXT2_LINETYPE
1070
   382
1005
16
0
DIMENSION
5
1DF
100
AcDbEntity
8
SK2
62
256
6
ByLayer
370
18
48
1
60
0
100
AcDbDimension
2
_U5
10
55
20
69.065
30
0
11
75
21
69.065
31
0
70
32
71
1
72
1
41
1
210
0
220
0
230
1
3
Standard
100
AcDbAlignedDimension
13
95
23
16
33
0
14
55
24
16
34
0
50
0
100
AcDbRotatedDimension
1001
ACAD
1000
DSTYLE
1002
{
1070
   371
1070
    13
1070
   372
1070
    13
1070
   170
1070
     0
1070
   144
1040
1.0
1070
   277
1070
     2
1070
   284
1070
     8
1070
   278
1070
    44
1070
   146
1040
0.777778
1070
   345
1005
16
1070
   347
1005
16
1070
   346
1005
16
1070
   344
1005
0
1070
   343
1005
0
1070
   172
1070
     1
1070
    76
1070
     0
1070
    75
1070
     0
1070
   282
1070
     0
1070
   281
1070
     0
1070
    71
1070
     0
1070
    74
1070
     0
1070
   279
1070
     0
1070
   173
1070
     1
1070
   340
1005
147
1070
   271
1070
     1
1070
   272
1070
     2
1070
    77
1070
     1
1070
    73
1070
     1
1070
   171
1070
     3
1070
   274
1070
     4
1070
   177
1070
     2
1070
   176
1070
     2
1070
   178
1070
     2
1070
    78
1070
     8
1070
    48
1040
-0.1
1070
    41
1040
4.5
1070
   147
1040
2.25
1070
    42
1040
1.5875
1070
    44
1040
2.0
1070
   140
1040
4.5
1002
}
1001
ACAD_DSTYLE_DIM_LINETYPE
1070
   380
1005
16
1001
ACAD_DSTYLE_DIM_EXT1_LINETYPE
1070
   381
1005
16
1001
ACAD_DSTYLE_DIM_EXT2_LINETYPE
1070
   382
1005
16
0
DIMENSION
5
1F7
100
AcDbEntity
8
2
62
256
6
ByLayer
370
18
48
1
60
0
100
AcDbDimension
2
_U6
10
95
20
89.065
30
0
11
47.5
21
89.065
31
0
70
32
71
1
72
1
41
1
210
0
220
0
230
1
3
Standard
100
AcDbAlignedDimension
13
0
23
49.965
33
0
14
95
24
16
34
0
50
0
100
AcDbRotatedDimension
1001
ACAD
1000
DSTYLE
1002
{
1070
   371
1070
    13
1070
   372
1070
    13
1070
   170
1070
     0
1070
   144
1040
1.0
1070
   277
1070
     2
1070
   284
1070
     8
1070
   278
1070
    44
1070
   146
1040
0.777778
1070
   345
1005
16
1070
   347
1005
16
1070
   346
1005
16
1070
   344
1005
0
1070
   343
1005
0
1070
   172
1070
     1
1070
    76
1070
     0
1070
    75
1070
     0
1070
   282
1070
     0
1070
   281
1070
     0
1070
    71
1070
     0
1070
    74
1070
     0
1070
   279
1070
     0
1070
   173
1070
     1
1070
   340
1005
147
1070
   271
1070
     1
1070
   272
1070
     2
1070
    77
1070
     1
1070
    73
1070
     1
1070
   171
1070
     3
1070
   274
1070
     4
1070
   177
1070
     2
1070
   176
1070
     2
1070
   178
1070
     2
1070
    78
1070
     8
1070
    48
1040
-0.1
1070
    41
1040
4.5
1070
   147
1040
2.25
1070
    42
1040
1.5875
1070
    44
1040
2.0
1070
   140
1040
4.5
1002
}
1001
ACAD_DSTYLE_DIM_LINETYPE
1070
   380
1005
16
1001
ACAD_DSTYLE_DIM_EXT1_LINETYPE
1070
   381
1005
16
1001
ACAD_DSTYLE_DIM_EXT2_LINETYPE
1070
   382
1005
16
0
DIMENSION
5
210
100
AcDbEntity
8
SK2
62
256
6
ByLayer
370
18
48
1
60
0
100
AcDbDimension
2
_U7
10
-49.9
20
89.065
30
0
11
-24.95
21
89.065
31
0
70
32
71
1
72
1
41
1
210
0
220
0
230
1
3
Standard
100
AcDbAlignedDimension
13
0
23
22.055
33
0
14
-49.9
24
35.6
34
0
50
0
100
AcDbRotatedDimension
1001
ACAD
1000
DSTYLE
1002
{
1070
   371
1070
    13
1070
   372
1070
    13
1070
   170
1070
     0
1070
   144
1040
1.0
1070
   277
1070
     2
1070
   284
1070
     8
1070
   278
1070
    44
1070
   146
1040
0.777778
1070
   345
1005
16
1070
   347
1005
16
1070
   346
1005
16
1070
   344
1005
0
1070
   343
1005
0
1070
   172
1070
     1
1070
    76
1070
     0
1070
    75
1070
     0
1070
   282
1070
     0
1070
   281
1070
     0
1070
    71
1070
     0
1070
    74
1070
     0
1070
   279
1070
     0
1070
   173
1070
     1
1070
   340
1005
147
1070
   271
1070
     1
1070
   272
1070
     2
1070
    77
1070
     1
1070
    73
1070
     1
1070
   171
1070
     3
1070
   274
1070
     4
1070
   177
1070
     2
1070
   176
1070
     2
1070
   178
1070
     2
1070
    78
1070
     8
1070
    48
1040
-0.1
1070
    41
1040
4.5
1070
   147
1040
2.25
1070
    42
1040
1.5875
1070
    44
1040
2.0
1070
   140
1040
4.5
1002
}
1001
ACAD_DSTYLE_DIM_LINETYPE
1070
   380
1005
16
1001
ACAD_DSTYLE_DIM_EXT1_LINETYPE
1070
   381
1005
16
1001
ACAD_DSTYLE_DIM_EXT2_LINETYPE
1070
   382
1005
16
0
DIMENSION
5
228
100
AcDbEntity
8
SK2
62
256
6
ByLayer
370
18
48
1
60
0
100
AcDbDimension
2
_U8
10
29
20
69.065
30
0
11
14.5
21
69.065
31
0
70
32
71
1
72
1
41
1
210
0
220
0
230
1
3
Standard
100
AcDbAlignedDimension
13
0
23
22.055
33
0
14
29
24
49.965
34
0
50
0
100
AcDbRotatedDimension
1001
ACAD
1000
DSTYLE
1002
{
1070
   371
1070
    13
1070
   372
1070
    13
1070
   170
1070
     0
1070
   144
1040
1.0
1070
   277
1070
     2
1070
   284
1070
     8
1070
   278
1070
    44
1070
   146
1040
0.777778
1070
   345
1005
16
1070
   347
1005
16
1070
   346
1005
16
1070
   344
1005
0
1070
   343
1005
0
1070
   172
1070
     1
1070
    76
1070
     0
1070
    75
1070
     0
1070
   282
1070
     0
1070
   281
1070
     0
1070
    71
1070
     0
1070
    74
1070
     0
1070
   279
1070
     0
1070
   173
1070
     1
1070
   340
1005
147
1070
   271
1070
     2
1070
   272
1070
     2
1070
    77
1070
     1
1070
    73
1070
     1
1070
   171
1070
     3
1070
   274
1070
     4
1070
   177
1070
     2
1070
   176
1070
     2
1070
   178
1070
     2
1070
    78
1070
     8
1070
    48
1040
-0.1
1070
    41
1040
4.5
1070
   147
1040
2.25
1070
    42
1040
1.5875
1070
    44
1040
2.0
1070
   140
1040
4.5
1002
}
1001
ACAD_DSTYLE_DIM_LINETYPE
1070
   380
1005
16
1001
ACAD_DSTYLE_DIM_EXT1_LINETYPE
1070
   381
1005
16
1001
ACAD_DSTYLE_DIM_EXT2_LINETYPE
1070
   382
1005
16
0
ENDSEC
0
SECTION
2
OBJECTS
0
DICTIONARY
5
2b1
330
0
100
AcDbDictionary
280
0
281
1
3
ACAD_GROUP
350
2b2
3
ACAD_MLINESTYLE
350
2b3
0
DICTIONARY
5
2b2
330
0
100
AcDbDictionary
280
0
281
1
0
DICTIONARY
5
2b3
330
0
100
AcDbDictionary
280
0
281
1
3
Standard
350
18
0
MLINESTYLE
5
18
330
2b3
100
AcDbMlineStyle
2
Standard
70
0
3

62
256
51
90
52
90
71
2
49
-0.5
62
256
6
ByLayer
49
0.5
62
256
6
ByLayer
0
RASTERVARIABLES
5
29e
330

100
AcDbRasterVariables
90
0
70
1
71
1
72
1
0
ENDSEC
0
EOF
