0
SECTION
2
HEADER
9
$ACADVER
1
AC1015
9
$DWGCODEPAGE
3
ANSI_1252
9
$HANDSEED
5
274
9
$ANGBASE
50
0
9
$ANGDIR
70
0
9
$ATTMODE
70
1
9
$AUNITS
70
0
9
$AUPREC
70
0
9
$CECOLOR
62
256
9
$CELTSCALE
40
1
9
$CELTYPE
6
ByLayer
9
$CELWEIGHT
370
18
9
$CLAYER
8
0
9
$CMLJUST
70
0
9
$CMLSCALE
40
1
9
$CMLSTYLE
2
Standard
9
$DIMSTYLE
2
Standard
9
$TEXTSIZE
40
0.2
9
$TEXTSTYLE
7
Standard
9
$LUNITS
70
2
9
$LUPREC
70
4
9
$EXTNAMES
290
1
9
$INSUNITS
70
4
9
$LTSCALE
40
1
9
$LWDISPLAY
290
1
9
$PDMODE
70
0
9
$PDSIZE
40
0
9
$PLINEGEN
70
0
0
ENDSEC
0
SECTION
2
CLASSES
0
CLASS
1
RASTERVARIABLES
2
AcDbRasterVariables
3
ISM
90
0
280
0
281
0
0
ENDSEC
0
SECTION
2
TABLES
0
TABLE
2
VPORT
5
26a
100
AcDbSymbolTable
0
VPORT
5
1
100
AcDbSymbolTableRecord
100
AcDbViewportTableRecord
2
*Active
70
0
10
0
20
0
11
1
21
1
12
-1
22
1
13
0
23
0
14
0.5
24
0.5
15
10
25
10
16
0
26
0
36
1
17
0
27
0
37
0
0
ENDTAB
0
TABLE
2
LTYPE
5
26b
100
AcDbSymbolTable
0
LTYPE
5
14
100
AcDbSymbolTableRecord
100
AcDbLinetypeTableRecord
70
0
2
ByBlock
3

72
65
73
0
40
0
0
LTYPE
5
15
100
AcDbSymbolTableRecord
100
AcDbLinetypeTableRecord
70
0
2
ByLayer
3

72
65
73
0
40
0
0
LTYPE
5
16
100
AcDbSymbolTableRecord
100
AcDbLinetypeTableRecord
70
0
2
Continuous
3
Solid line
72
65
73
0
40
0
0
LTYPE
5
6E
100
AcDbSymbolTableRecord
100
AcDbLinetypeTableRecord
70
0
2
CENTER
3
____ _ ____ _ ____ _ ____
72
65
73
4
40
47.5
49
22
74
0
49
-8.5
74
0
49
8.5
74
0
49
-8.5
74
0
0
LTYPE
5
6F
100
AcDbSymbolTableRecord
100
AcDbLinetypeTableRecord
70
0
2
DASHED
3
__ __ __ __ __ __ __ __ __
72
65
73
2
40
25.72
49
12.86
74
0
49
-12.86
74
0
0
ENDTAB
0
TABLE
2
LAYER
5
26c
100
AcDbSymbolTable
0
LAYER
5
10
100
AcDbSymbolTableRecord
100
AcDbLayerTableRecord
2
0
70
0
62
7
6
Continuous
290
1
370
-3
390
0
0
LAYER
5
71
100
AcDbSymbolTableRecord
100
AcDbLayerTableRecord
2
80
70
0
62
-6
6
Continuous
290
1
370
-3
390
0
0
LAYER
5
73
100
AcDbSymbolTableRecord
100
AcDbLayerTableRecord
2
81
70
0
62
-3
6
Continuous
290
1
370
-3
390
0
0
LAYER
5
75
100
AcDbSymbolTableRecord
100
AcDbLayerTableRecord
2
1
70
0
62
4
6
Continuous
290
1
370
-3
390
0
0
LAYER
5
EB
100
AcDbSymbolTableRecord
100
AcDbLayerTableRecord
2
4
70
0
62
-2
6
CENTER
290
1
370
-3
390
0
0
LAYER
5
163
100
AcDbSymbolTableRecord
100
AcDbLayerTableRecord
2
Defpoints
70
0
62
7
6
Continuous
290
0
370
-3
390
0
0
LAYER
5
1D4
100
AcDbSymbolTableRecord
100
AcDbLayerTableRecord
2
2
70
0
62
7
6
Continuous
290
1
370
-3
390
0
0
LAYER
5
255
100
AcDbSymbolTableRecord
100
AcDbLayerTableRecord
2
SK1
70
0
62
4
6
Continuous
290
1
370
-3
390
0
0
LAYER
5
256
100
AcDbSymbolTableRecord
100
AcDbLayerTableRecord
2
SK4
70
0
62
2
6
CENTER
290
1
370
-3
390
0
0
LAYER
5
257
100
AcDbSymbolTableRecord
100
AcDbLayerTableRecord
2
SK3
70
0
62
1
6
DASHED
290
1
370
-3
390
0
0
LAYER
5
258
100
AcDbSymbolTableRecord
100
AcDbLayerTableRecord
2
SK2
70
0
62
7
6
Continuous
290
1
370
-3
390
0
0
LAYER
5
259
100
AcDbSymbolTableRecord
100
AcDbLayerTableRecord
2
SK6
70
0
62
5
6
Continuous
290
1
370
-3
390
0
0
ENDTAB
0
TABLE
2
STYLE
5
26d
100
AcDbSymbolTable
0
STYLE
5
11
100
AcDbSymbolTableRecord
100
AcDbTextStyleTableRecord
2
Standard
3
txt
70
0
71
0
40
0
41
1
42
0
50
0
0
STYLE
5
147
100
AcDbSymbolTableRecord
100
AcDbTextStyleTableRecord
2
iso_b_vert
3
simplex.shx
70
0
71
0
40
0
41
1
42
0
50
0
0
STYLE
5
148
100
AcDbSymbolTableRecord
100
AcDbTextStyleTableRecord
2
DWGDirectTextStyle
3
simplex
70
0
71
0
40
0
41
1
42
0
50
0
0
ENDTAB
0
TABLE
2
DIMSTYLE
5
26e
100
AcDbSymbolTable
100
AcDbDimStyleTable
0
DIMSTYLE
105
27
100
AcDbSymbolTableRecord
100
AcDbDimStyleTableRecord
2
Standard
70
0
3
<>
41
0.18
42
0.0625
44
0.18
140
0.18
147
0.09
73
0
74
0
77
1
271
2
275
0
278
52
280
0
340
11
0
ENDTAB
0
TABLE
2
VIEW
5
26f
100
AcDbSymbolTable
0
ENDTAB
0
TABLE
2
UCS
5
270
100
AcDbSymbolTable
0
ENDTAB
0
TABLE
2
APPID
5
271
100
AcDbSymbolTable
0
APPID
5
12
100
AcDbSymbolTableRecord
100
AcDbRegAppTableRecord
2
ACAD
70
0
0
APPID
5
15F
100
AcDbSymbolTableRecord
100
AcDbRegAppTableRecord
2
ACAD_DSTYLE_DIMBREAK
70
0
0
APPID
5
214
100
AcDbSymbolTableRecord
100
AcDbRegAppTableRecord
2
ACAD_DSTYLE_DIM_LINETYPE
70
0
0
APPID
5
215
100
AcDbSymbolTableRecord
100
AcDbRegAppTableRecord
2
ACAD_DSTYLE_DIM_EXT1_LINETYPE
70
0
0
APPID
5
216
100
AcDbSymbolTableRecord
100
AcDbRegAppTableRecord
2
ACAD_DSTYLE_DIM_EXT2_LINETYPE
70
0
0
APPID
5
251
100
AcDbSymbolTableRecord
100
AcDbRegAppTableRecord
2
ACAD_MLEADERVER
70
0
0
ENDTAB
0
TABLE
2
BLOCK_RECORD
5
272
100
AcDbSymbolTable
0
BLOCK_RECORD
5
1F
100
AcDbSymbolTableRecord
100
AcDbBlockTableRecord
2
*Model_Space
340
0
70
0
0
BLOCK_RECORD
5
1B
100
AcDbSymbolTableRecord
100
AcDbBlockTableRecord
2
*Paper_Space
340
0
70
0
0
BLOCK_RECORD
5
23
100
AcDbSymbolTableRecord
100
AcDbBlockTableRecord
2
*Paper_Space0
340
0
70
0
0
BLOCK_RECORD
5
156
100
AcDbSymbolTableRecord
100
AcDbBlockTableRecord
2
LABLE3D_1
340
0
70
0
0
BLOCK_RECORD
5
164
100
AcDbSymbolTableRecord
100
AcDbBlockTableRecord
2
*D2
340
0
70
0
0
BLOCK_RECORD
5
170
100
AcDbSymbolTableRecord
100
AcDbBlockTableRecord
2
_U0
340
0
70
0
0
BLOCK_RECORD
5
17D
100
AcDbSymbolTableRecord
100
AcDbBlockTableRecord
2
*D4
340
0
70
0
0
BLOCK_RECORD
5
18A
100
AcDbSymbolTableRecord
100
AcDbBlockTableRecord
2
_U1
340
0
70
0
0
BLOCK_RECORD
5
197
100
AcDbSymbolTableRecord
100
AcDbBlockTableRecord
2
*D6
340
0
70
0
0
BLOCK_RECORD
5
1A3
100
AcDbSymbolTableRecord
100
AcDbBlockTableRecord
2
_U2
340
0
70
0
0
BLOCK_RECORD
5
1AF
100
AcDbSymbolTableRecord
100
AcDbBlockTableRecord
2
*D8
340
0
70
0
0
BLOCK_RECORD
5
1BC
100
AcDbSymbolTableRecord
100
AcDbBlockTableRecord
2
_U3
340
0
70
0
0
BLOCK_RECORD
5
1C8
100
AcDbSymbolTableRecord
100
AcDbBlockTableRecord
2
*D10
340
0
70
0
0
BLOCK_RECORD
5
1D5
100
AcDbSymbolTableRecord
100
AcDbBlockTableRecord
2
_U4
340
0
70
0
0
BLOCK_RECORD
5
1E1
100
AcDbSymbolTableRecord
100
AcDbBlockTableRecord
2
*D12
340
0
70
0
0
BLOCK_RECORD
5
1ED
100
AcDbSymbolTableRecord
100
AcDbBlockTableRecord
2
_U5
340
0
70
0
0
ENDTAB
0
ENDSEC
0
SECTION
2
BLOCKS
0
BLOCK
5
20
100
AcDbEntity
8
0
100
AcDbBlockBegin
2
*Model_Space
70
0
10
0
20
0
30
0
3
*Model_Space
0
ENDBLK
5
21
100
AcDbEntity
8
0
100
AcDbBlockEnd
0
BLOCK
5
1C
100
AcDbEntity
8
0
100
AcDbBlockBegin
2
*Paper_Space
70
0
10
0
20
0
30
0
3
*Paper_Space
0
ENDBLK
5
1D
100
AcDbEntity
8
0
100
AcDbBlockEnd
0
BLOCK
5
24
100
AcDbEntity
8
0
100
AcDbBlockBegin
2
*Paper_Space0
70
0
10
0
20
0
30
0
3
*Paper_Space0
0
ENDBLK
5
25
100
AcDbEntity
8
0
100
AcDbBlockEnd
0
BLOCK
5
15D
100
AcDbEntity
8
0
100
AcDbBlockBegin
2
LABLE3D_1
70
0
10
-27.4
20
34.975
30
0
3
LABLE3D_1
0
MTEXT
5
15B
100
AcDbEntity
8
SK6
62
256
6
ByLayer
370
18
48
1
60
0
100
AcDbMText
10
-28.7145
20
32.507634
30
0
210
0
220
0
230
1
1
\W1.0000;
40
3.5
41
0
44
1.084337
50
0
71
7
72
5
7
iso_b_vert
0
ENDBLK
5
15E
100
AcDbEntity
8
0
100
AcDbBlockEnd
0
BLOCK
5
165
100
AcDbEntity
8
0
100
AcDbBlockBegin
2
*D2
70
1
10
0
20
0
30
0
3
*D2
0
LINE
5
167
100
AcDbEntity
8
0
62
256
6
ByLayer
370
-2
48
1
60
0
100
AcDbLine
10
91.5875
20
-20.75
30
0
11
166.25
21
-20.75
31
0
39
0
210
0
220
0
230
1
0
LINE
5
168
100
AcDbEntity
8
0
62
256
6
ByLayer
370
-2
48
1
60
0
100
AcDbLine
10
91.5875
20
20.75
30
0
11
166.25
21
20.75
31
0
39
0
210
0
220
0
230
1
0
LINE
5
169
100
AcDbEntity
8
0
62
256
6
ByLayer
370
-2
48
1
60
0
100
AcDbLine
10
164.25
20
-16.25
30
0
11
164.25
21
16.25
31
0
39
0
210
0
220
0
230
1
0
SOLID
5
16A
100
AcDbEntity
8
0
62
256
6
ByLayer
370
-1
48
1
60
0
100
AcDbTrace
10
163.5
20
-16.25
30
0
11
165
21
-16.25
31
0
12
164.25
22
-20.75
32
0
13
164.25
23
-20.75
33
0
39
0
210
0
220
0
230
1
0
SOLID
5
16B
100
AcDbEntity
8
0
62
256
6
ByLayer
370
-1
48
1
60
0
100
AcDbTrace
10
165
20
16.25
30
0
11
163.5
21
16.25
31
0
12
164.25
22
20.75
32
0
13
164.25
23
20.75
33
0
39
0
210
0
220
0
230
1
0
MTEXT
5
16C
100
AcDbEntity
8
0
62
256
6
ByLayer
370
18
48
1
60
0
100
AcDbMText
10
155.25
20
0
30
0
210
0
220
0
230
1
1
\A1;41.5
40
4.5
41
0
44
1
50
90
71
5
72
5
7
iso_b_vert
0
POINT
5
16D
100
AcDbEntity
8
Defpoints
62
0
6
ByLayer
370
-1
48
1
60
0
100
AcDbPoint
10
90
20
-20.75
30
0
39
0
210
0
220
0
230
1
50
360
0
POINT
5
16E
100
AcDbEntity
8
Defpoints
62
0
6
ByLayer
370
-1
48
1
60
0
100
AcDbPoint
10
90
20
20.75
30
0
39
0
210
0
220
0
230
1
50
360
0
POINT
5
16F
100
AcDbEntity
8
Defpoints
62
0
6
ByLayer
370
-1
48
1
60
0
100
AcDbPoint
10
164.25
20
20.75
30
0
39
0
210
0
220
0
230
1
50
360
0
ENDBLK
5
166
100
AcDbEntity
8
0
100
AcDbBlockEnd
0
BLOCK
5
178
100
AcDbEntity
8
0
100
AcDbBlockBegin
2
_U0
70
0
10
0
20
0
30
0
3
_U0
0
MTEXT
5
171
100
AcDbEntity
8
SK2
62
256
6
ByLayer
370
18
48
1
60
0
100
AcDbMText
10
162.185366
20
-9.929227
30
0
210
0
220
0
230
1
1
%%c
40
3.5
41
0
44
1.084337
50
90
71
7
72
5
7
iso_b_vert
0
MTEXT
5
172
100
AcDbEntity
8
SK2
62
256
6
ByLayer
370
18
48
1
60
0
100
AcDbMText
10
162.488328
20
0.615773
30
0
210
0
220
0
230
1
1
\W0.6709;41,5
40
4.5
41
0
44
1.084337
50
90
71
7
72
5
7
iso_b_vert
0
LINE
5
173
100
AcDbEntity
8
SK2
62
256
6
ByLayer
370
13
48
1
60
0
100
AcDbLine
10
91.5875
20
-20.75
30
0
11
166.25
21
-20.75
31
0
39
0
210
0
220
0
230
1
0
LINE
5
174
100
AcDbEntity
8
SK2
62
256
6
ByLayer
370
13
48
1
60
0
100
AcDbLine
10
91.5875
20
20.75
30
0
11
166.25
21
20.75
31
0
39
0
210
0
220
0
230
1
0
LINE
5
175
100
AcDbEntity
8
SK2
62
256
6
ByLayer
370
13
48
1
60
0
100
AcDbLine
10
164.25
20
-20.75
30
0
11
164.25
21
20.75
31
0
39
0
210
0
220
0
230
1
0
SOLID
5
176
100
AcDbEntity
8
SK2
62
256
6
ByLayer
370
18
48
1
60
0
100
AcDbTrace
10
164.25
20
-20.75
30
0
11
163.252374
21
-16.250004
31
0
12
165.247626
22
-16.249996
32
0
13
165.247626
23
-16.249996
33
0
39
0
210
0
220
0
230
1
0
SOLID
5
177
100
AcDbEntity
8
SK2
62
256
6
ByLayer
370
18
48
1
60
0
100
AcDbTrace
10
164.25
20
20.75
30
0
11
165.247626
21
16.250004
31
0
12
163.252374
22
16.249996
32
0
13
163.252374
23
16.249996
33
0
39
0
210
0
220
0
230
1
0
ENDBLK
5
179
100
AcDbEntity
8
0
100
AcDbBlockEnd
0
BLOCK
5
17E
100
AcDbEntity
8
0
100
AcDbBlockBegin
2
*D4
70
1
10
0
20
0
30
0
3
*D4
0
LINE
5
180
100
AcDbEntity
8
0
62
256
6
ByLayer
370
-2
48
1
60
0
100
AcDbLine
10
91.5875
20
10
30
0
11
144.25
21
10
31
0
39
0
210
0
220
0
230
1
0
LINE
5
181
100
AcDbEntity
8
0
62
256
6
ByLayer
370
-2
48
1
60
0
100
AcDbLine
10
91.5875
20
-10
30
0
11
144.25
21
-10
31
0
39
0
210
0
220
0
230
1
0
LINE
5
182
100
AcDbEntity
8
0
62
256
6
ByLayer
370
-2
48
1
60
0
100
AcDbLine
10
142.25
20
14.5
30
0
11
142.25
21
19
31
0
39
0
210
0
220
0
230
1
0
LINE
5
183
100
AcDbEntity
8
0
62
256
6
ByLayer
370
-2
48
1
60
0
100
AcDbLine
10
142.25
20
-14.5
30
0
11
142.25
21
-19
31
0
39
0
210
0
220
0
230
1
0
SOLID
5
184
100
AcDbEntity
8
0
62
256
6
ByLayer
370
-1
48
1
60
0
100
AcDbTrace
10
141.5
20
14.5
30
0
11
143
21
14.5
31
0
12
142.25
22
10
32
0
13
142.25
23
10
33
0
39
0
210
0
220
0
230
1
0
SOLID
5
185
100
AcDbEntity
8
0
62
256
6
ByLayer
370
-1
48
1
60
0
100
AcDbTrace
10
143
20
-14.5
30
0
11
141.5
21
-14.5
31
0
12
142.25
22
-10
32
0
13
142.25
23
-10
33
0
39
0
210
0
220
0
230
1
0
MTEXT
5
186
100
AcDbEntity
8
0
62
256
6
ByLayer
370
18
48
1
60
0
100
AcDbMText
10
133.25
20
0
30
0
210
0
220
0
230
1
1
\A1;20
40
4.5
41
0
44
1
50
90
71
5
72
5
7
iso_b_vert
0
POINT
5
187
100
AcDbEntity
8
Defpoints
62
0
6
ByLayer
370
-1
48
1
60
0
100
AcDbPoint
10
90
20
10
30
0
39
0
210
0
220
0
230
1
50
360
0
POINT
5
188
100
AcDbEntity
8
Defpoints
62
0
6
ByLayer
370
-1
48
1
60
0
100
AcDbPoint
10
90
20
-10
30
0
39
0
210
0
220
0
230
1
50
360
0
POINT
5
189
100
AcDbEntity
8
Defpoints
62
0
6
ByLayer
370
-1
48
1
60
0
100
AcDbPoint
10
142.25
20
-10
30
0
39
0
210
0
220
0
230
1
50
360
0
ENDBLK
5
17F
100
AcDbEntity
8
0
100
AcDbBlockEnd
0
BLOCK
5
192
100
AcDbEntity
8
0
100
AcDbBlockBegin
2
_U1
70
0
10
0
20
0
30
0
3
_U1
0
MTEXT
5
18B
100
AcDbEntity
8
SK2
62
256
6
ByLayer
370
18
48
1
60
0
100
AcDbMText
10
140.185366
20
-7.780242
30
0
210
0
220
0
230
1
1
%%c
40
3.5
41
0
44
1.084337
50
90
71
7
72
5
7
iso_b_vert
0
MTEXT
5
18C
100
AcDbEntity
8
SK2
62
256
6
ByLayer
370
18
48
1
60
0
100
AcDbMText
10
140.488328
20
2.764758
30
0
210
0
220
0
230
1
1
\W0.6740;20
40
4.5
41
0
44
1.084337
50
90
71
7
72
5
7
iso_b_vert
0
LINE
5
18D
100
AcDbEntity
8
SK2
62
256
6
ByLayer
370
13
48
1
60
0
100
AcDbLine
10
91.5875
20
10
30
0
11
144.25
21
10
31
0
39
0
210
0
220
0
230
1
0
LINE
5
18E
100
AcDbEntity
8
SK2
62
256
6
ByLayer
370
13
48
1
60
0
100
AcDbLine
10
91.5875
20
-10
30
0
11
144.25
21
-10
31
0
39
0
210
0
220
0
230
1
0
LINE
5
18F
100
AcDbEntity
8
SK2
62
256
6
ByLayer
370
13
48
1
60
0
100
AcDbLine
10
142.25
20
21.25
30
0
11
142.25
21
-21.25
31
0
39
0
210
0
220
0
230
1
0
SOLID
5
190
100
AcDbEntity
8
SK2
62
256
6
ByLayer
370
18
48
1
60
0
100
AcDbTrace
10
142.25
20
10
30
0
11
141.252374
21
14.499996
31
0
12
143.247626
22
14.500004
32
0
13
143.247626
23
14.500004
33
0
39
0
210
0
220
0
230
1
0
SOLID
5
191
100
AcDbEntity
8
SK2
62
256
6
ByLayer
370
18
48
1
60
0
100
AcDbTrace
10
142.25
20
-10
30
0
11
143.247626
21
-14.499996
31
0
12
141.252374
22
-14.500004
32
0
13
141.252374
23
-14.500004
33
0
39
0
210
0
220
0
230
1
0
ENDBLK
5
193
100
AcDbEntity
8
0
100
AcDbBlockEnd
0
BLOCK
5
198
100
AcDbEntity
8
0
100
AcDbBlockBegin
2
*D6
70
1
10
0
20
0
30
0
3
*D6
0
LINE
5
19A
100
AcDbEntity
8
0
62
256
6
ByLayer
370
-2
48
1
60
0
100
AcDbLine
10
39
20
-11.5875
30
0
11
39
21
-45.575
31
0
39
0
210
0
220
0
230
1
0
LINE
5
19B
100
AcDbEntity
8
0
62
256
6
ByLayer
370
-2
48
1
60
0
100
AcDbLine
10
90
20
-11.5875
30
0
11
90
21
-45.575
31
0
39
0
210
0
220
0
230
1
0
LINE
5
19C
100
AcDbEntity
8
0
62
256
6
ByLayer
370
-2
48
1
60
0
100
AcDbLine
10
43.5
20
-43.575
30
0
11
85.5
21
-43.575
31
0
39
0
210
0
220
0
230
1
0
SOLID
5
19D
100
AcDbEntity
8
0
62
256
6
ByLayer
370
-1
48
1
60
0
100
AcDbTrace
10
43.5
20
-42.825
30
0
11
43.5
21
-44.325
31
0
12
39
22
-43.575
32
0
13
39
23
-43.575
33
0
39
0
210
0
220
0
230
1
0
SOLID
5
19E
100
AcDbEntity
8
0
62
256
6
ByLayer
370
-1
48
1
60
0
100
AcDbTrace
10
85.5
20
-44.325
30
0
11
85.5
21
-42.825
31
0
12
90
22
-43.575
32
0
13
90
23
-43.575
33
0
39
0
210
0
220
0
230
1
0
MTEXT
5
19F
100
AcDbEntity
8
0
62
256
6
ByLayer
370
18
48
1
60
0
100
AcDbMText
10
64.5
20
-34.575
30
0
210
0
220
0
230
1
1
\A1;51
40
4.5
41
0
44
1
50
0
71
5
72
5
7
iso_b_vert
0
POINT
5
1A0
100
AcDbEntity
8
Defpoints
62
0
6
ByLayer
370
-1
48
1
60
0
100
AcDbPoint
10
39
20
-10
30
0
39
0
210
0
220
0
230
1
50
360
0
POINT
5
1A1
100
AcDbEntity
8
Defpoints
62
0
6
ByLayer
370
-1
48
1
60
0
100
AcDbPoint
10
90
20
-10
30
0
39
0
210
0
220
0
230
1
50
360
0
POINT
5
1A2
100
AcDbEntity
8
Defpoints
62
0
6
ByLayer
370
-1
48
1
60
0
100
AcDbPoint
10
90
20
-43.575
30
0
39
0
210
0
220
0
230
1
50
360
0
ENDBLK
5
199
100
AcDbEntity
8
0
100
AcDbBlockEnd
0
BLOCK
5
1AA
100
AcDbEntity
8
0
100
AcDbBlockBegin
2
_U2
70
0
10
0
20
0
30
0
3
_U2
0
MTEXT
5
1A4
100
AcDbEntity
8
SK2
62
256
6
ByLayer
370
18
48
1
60
0
100
AcDbMText
10
44.739217
20
-42.247328
30
0
210
0
220
0
230
1
1
\W0.7114;min 41-max 51
40
4.5
41
0
44
1.084337
50
0
71
7
72
5
7
iso_b_vert
0
LINE
5
1A5
100
AcDbEntity
8
SK2
62
256
6
ByLayer
370
13
48
1
60
0
100
AcDbLine
10
39
20
-11.5875
30
0
11
39
21
-45.575
31
0
39
0
210
0
220
0
230
1
0
LINE
5
1A6
100
AcDbEntity
8
SK2
62
256
6
ByLayer
370
13
48
1
60
0
100
AcDbLine
10
90
20
-11.5875
30
0
11
90
21
-45.575
31
0
39
0
210
0
220
0
230
1
0
LINE
5
1A7
100
AcDbEntity
8
SK2
62
256
6
ByLayer
370
13
48
1
60
0
100
AcDbLine
10
27.75
20
-43.575
30
0
11
101.25
21
-43.575
31
0
39
0
210
0
220
0
230
1
0
SOLID
5
1A8
100
AcDbEntity
8
SK2
62
256
6
ByLayer
370
18
48
1
60
0
100
AcDbTrace
10
39
20
-43.575
30
0
11
34.500004
21
-44.572626
31
0
12
34.499996
22
-42.577374
32
0
13
34.499996
23
-42.577374
33
0
39
0
210
0
220
0
230
1
0
SOLID
5
1A9
100
AcDbEntity
8
SK2
62
256
6
ByLayer
370
18
48
1
60
0
100
AcDbTrace
10
90
20
-43.575
30
0
11
94.499996
21
-42.577374
31
0
12
94.500004
22
-44.572626
32
0
13
94.500004
23
-44.572626
33
0
39
0
210
0
220
0
230
1
0
ENDBLK
5
1AB
100
AcDbEntity
8
0
100
AcDbBlockEnd
0
BLOCK
5
1B0
100
AcDbEntity
8
0
100
AcDbBlockBegin
2
*D8
70
1
10
0
20
0
30
0
3
*D8
0
LINE
5
1B2
100
AcDbEntity
8
0
62
256
6
ByLayer
370
-2
48
1
60
0
100
AcDbLine
10
74
20
-22.3375
30
0
11
74
21
-35.575
31
0
39
0
210
0
220
0
230
1
0
LINE
5
1B3
100
AcDbEntity
8
0
62
256
6
ByLayer
370
-2
48
1
60
0
100
AcDbLine
10
90
20
-22.3375
30
0
11
90
21
-35.575
31
0
39
0
210
0
220
0
230
1
0
LINE
5
1B4
100
AcDbEntity
8
0
62
256
6
ByLayer
370
-2
48
1
60
0
100
AcDbLine
10
69.5
20
-33.575
30
0
11
65
21
-33.575
31
0
39
0
210
0
220
0
230
1
0
LINE
5
1B5
100
AcDbEntity
8
0
62
256
6
ByLayer
370
-2
48
1
60
0
100
AcDbLine
10
94.5
20
-33.575
30
0
11
99
21
-33.575
31
0
39
0
210
0
220
0
230
1
0
SOLID
5
1B6
100
AcDbEntity
8
0
62
256
6
ByLayer
370
-1
48
1
60
0
100
AcDbTrace
10
69.5
20
-34.325
30
0
11
69.5
21
-32.825
31
0
12
74
22
-33.575
32
0
13
74
23
-33.575
33
0
39
0
210
0
220
0
230
1
0
SOLID
5
1B7
100
AcDbEntity
8
0
62
256
6
ByLayer
370
-1
48
1
60
0
100
AcDbTrace
10
94.5
20
-32.825
30
0
11
94.5
21
-34.325
31
0
12
90
22
-33.575
32
0
13
90
23
-33.575
33
0
39
0
210
0
220
0
230
1
0
MTEXT
5
1B8
100
AcDbEntity
8
0
62
256
6
ByLayer
370
18
48
1
60
0
100
AcDbMText
10
82
20
-24.575
30
0
210
0
220
0
230
1
1
\A1;16
40
4.5
41
0
44
1
50
0
71
5
72
5
7
iso_b_vert
0
POINT
5
1B9
100
AcDbEntity
8
Defpoints
62
0
6
ByLayer
370
-1
48
1
60
0
100
AcDbPoint
10
74
20
-20.75
30
0
39
0
210
0
220
0
230
1
50
360
0
POINT
5
1BA
100
AcDbEntity
8
Defpoints
62
0
6
ByLayer
370
-1
48
1
60
0
100
AcDbPoint
10
90
20
-20.75
30
0
39
0
210
0
220
0
230
1
50
360
0
POINT
5
1BB
100
AcDbEntity
8
Defpoints
62
0
6
ByLayer
370
-1
48
1
60
0
100
AcDbPoint
10
90
20
-33.575
30
0
39
0
210
0
220
0
230
1
50
360
0
ENDBLK
5
1B1
100
AcDbEntity
8
0
100
AcDbBlockEnd
0
BLOCK
5
1C3
100
AcDbEntity
8
0
100
AcDbBlockBegin
2
_U3
70
0
10
0
20
0
30
0
3
_U3
0
MTEXT
5
1BD
100
AcDbEntity
8
SK2
62
256
6
ByLayer
370
18
48
1
60
0
100
AcDbMText
10
80.113172
20
-32.247328
30
0
210
0
220
0
230
1
1
\W0.5321;16
40
4.5
41
0
44
1.084337
50
0
71
7
72
5
7
iso_b_vert
0
LINE
5
1BE
100
AcDbEntity
8
SK2
62
256
6
ByLayer
370
13
48
1
60
0
100
AcDbLine
10
74
20
-22.3375
30
0
11
74
21
-35.575
31
0
39
0
210
0
220
0
230
1
0
LINE
5
1BF
100
AcDbEntity
8
SK2
62
256
6
ByLayer
370
13
48
1
60
0
100
AcDbLine
10
90
20
-22.3375
30
0
11
90
21
-35.575
31
0
39
0
210
0
220
0
230
1
0
LINE
5
1C0
100
AcDbEntity
8
SK2
62
256
6
ByLayer
370
13
48
1
60
0
100
AcDbLine
10
62.75
20
-33.575
30
0
11
101.25
21
-33.575
31
0
39
0
210
0
220
0
230
1
0
SOLID
5
1C1
100
AcDbEntity
8
SK2
62
256
6
ByLayer
370
18
48
1
60
0
100
AcDbTrace
10
74
20
-33.575
30
0
11
69.500004
21
-34.572626
31
0
12
69.499996
22
-32.577374
32
0
13
69.499996
23
-32.577374
33
0
39
0
210
0
220
0
230
1
0
SOLID
5
1C2
100
AcDbEntity
8
SK2
62
256
6
ByLayer
370
18
48
1
60
0
100
AcDbTrace
10
90
20
-33.575
30
0
11
94.499996
21
-32.577374
31
0
12
94.500004
22
-34.572626
32
0
13
94.500004
23
-34.572626
33
0
39
0
210
0
220
0
230
1
0
ENDBLK
5
1C4
100
AcDbEntity
8
0
100
AcDbBlockEnd
0
BLOCK
5
1C9
100
AcDbEntity
8
0
100
AcDbBlockBegin
2
*D10
70
1
10
0
20
0
30
0
3
*D10
0
LINE
5
1CB
100
AcDbEntity
8
0
62
256
6
ByLayer
370
-2
48
1
60
0
100
AcDbLine
10
0
20
26.5625
30
0
11
0
21
66.075
31
0
39
0
210
0
220
0
230
1
0
LINE
5
1CC
100
AcDbEntity
8
0
62
256
6
ByLayer
370
-2
48
1
60
0
100
AcDbLine
10
90
20
22.3375
30
0
11
90
21
66.075
31
0
39
0
210
0
220
0
230
1
0
LINE
5
1CD
100
AcDbEntity
8
0
62
256
6
ByLayer
370
-2
48
1
60
0
100
AcDbLine
10
4.5
20
64.075
30
0
11
85.5
21
64.075
31
0
39
0
210
0
220
0
230
1
0
SOLID
5
1CE
100
AcDbEntity
8
0
62
256
6
ByLayer
370
-1
48
1
60
0
100
AcDbTrace
10
4.5
20
64.825
30
0
11
4.5
21
63.325
31
0
12
0
22
64.075
32
0
13
0
23
64.075
33
0
39
0
210
0
220
0
230
1
0
SOLID
5
1CF
100
AcDbEntity
8
0
62
256
6
ByLayer
370
-1
48
1
60
0
100
AcDbTrace
10
85.5
20
63.325
30
0
11
85.5
21
64.825
31
0
12
90
22
64.075
32
0
13
90
23
64.075
33
0
39
0
210
0
220
0
230
1
0
MTEXT
5
1D0
100
AcDbEntity
8
0
62
256
6
ByLayer
370
18
48
1
60
0
100
AcDbMText
10
45
20
73.075
30
0
210
0
220
0
230
1
1
\A1;90
40
4.5
41
0
44
1
50
0
71
5
72
5
7
iso_b_vert
0
POINT
5
1D1
100
AcDbEntity
8
Defpoints
62
0
6
ByLayer
370
-1
48
1
60
0
100
AcDbPoint
10
0
20
24.975
30
0
39
0
210
0
220
0
230
1
50
360
0
POINT
5
1D2
100
AcDbEntity
8
Defpoints
62
0
6
ByLayer
370
-1
48
1
60
0
100
AcDbPoint
10
90
20
20.75
30
0
39
0
210
0
220
0
230
1
50
360
0
POINT
5
1D3
100
AcDbEntity
8
Defpoints
62
0
6
ByLayer
370
-1
48
1
60
0
100
AcDbPoint
10
90
20
64.075
30
0
39
0
210
0
220
0
230
1
50
360
0
ENDBLK
5
1CA
100
AcDbEntity
8
0
100
AcDbBlockEnd
0
BLOCK
5
1DC
100
AcDbEntity
8
0
100
AcDbBlockBegin
2
_U4
70
0
10
0
20
0
30
0
3
_U4
0
MTEXT
5
1D6
100
AcDbEntity
8
2
62
256
6
ByLayer
370
18
48
1
60
0
100
AcDbMText
10
42.550758
20
65.402672
30
0
210
0
220
0
230
1
1
\W0.6740;90
40
4.5
41
0
44
1.084337
50
0
71
7
72
5
7
iso_b_vert
0
LINE
5
1D7
100
AcDbEntity
8
2
62
256
6
ByLayer
370
13
48
1
60
0
100
AcDbLine
10
0
20
26.5625
30
0
11
0
21
66.075
31
0
39
0
210
0
220
0
230
1
0
LINE
5
1D8
100
AcDbEntity
8
2
62
256
6
ByLayer
370
13
48
1
60
0
100
AcDbLine
10
90
20
22.3375
30
0
11
90
21
66.075
31
0
39
0
210
0
220
0
230
1
0
LINE
5
1D9
100
AcDbEntity
8
2
62
256
6
ByLayer
370
13
48
1
60
0
100
AcDbLine
10
0
20
64.075
30
0
11
90
21
64.075
31
0
39
0
210
0
220
0
230
1
0
SOLID
5
1DA
100
AcDbEntity
8
2
62
256
6
ByLayer
370
18
48
1
60
0
100
AcDbTrace
10
0
20
64.075
30
0
11
4.499996
21
65.072626
31
0
12
4.500004
22
63.077374
32
0
13
4.500004
23
63.077374
33
0
39
0
210
0
220
0
230
1
0
SOLID
5
1DB
100
AcDbEntity
8
2
62
256
6
ByLayer
370
18
48
1
60
0
100
AcDbTrace
10
90
20
64.075
30
0
11
85.500004
21
63.077374
31
0
12
85.499996
22
65.072626
32
0
13
85.499996
23
65.072626
33
0
39
0
210
0
220
0
230
1
0
ENDBLK
5
1DD
100
AcDbEntity
8
0
100
AcDbBlockEnd
0
BLOCK
5
1E2
100
AcDbEntity
8
0
100
AcDbBlockBegin
2
*D12
70
1
10
0
20
0
30
0
3
*D12
0
LINE
5
1E4
100
AcDbEntity
8
0
62
256
6
ByLayer
370
-2
48
1
60
0
100
AcDbLine
10
0
20
23.6425
30
0
11
0
21
66.075
31
0
39
0
210
0
220
0
230
1
0
LINE
5
1E5
100
AcDbEntity
8
0
62
256
6
ByLayer
370
-2
48
1
60
0
100
AcDbLine
10
-24.9
20
19.9875
30
0
11
-24.9
21
66.075
31
0
39
0
210
0
220
0
230
1
0
LINE
5
1E6
100
AcDbEntity
8
0
62
256
6
ByLayer
370
-2
48
1
60
0
100
AcDbLine
10
-4.5
20
64.075
30
0
11
-20.4
21
64.075
31
0
39
0
210
0
220
0
230
1
0
SOLID
5
1E7
100
AcDbEntity
8
0
62
256
6
ByLayer
370
-1
48
1
60
0
100
AcDbTrace
10
-4.5
20
63.325
30
0
11
-4.5
21
64.825
31
0
12
0
22
64.075
32
0
13
0
23
64.075
33
0
39
0
210
0
220
0
230
1
0
SOLID
5
1E8
100
AcDbEntity
8
0
62
256
6
ByLayer
370
-1
48
1
60
0
100
AcDbTrace
10
-20.4
20
64.825
30
0
11
-20.4
21
63.325
31
0
12
-24.9
22
64.075
32
0
13
-24.9
23
64.075
33
0
39
0
210
0
220
0
230
1
0
MTEXT
5
1E9
100
AcDbEntity
8
0
62
256
6
ByLayer
370
18
48
1
60
0
100
AcDbMText
10
-12.45
20
73.075
30
0
210
0
220
0
230
1
1
\A1;24.9
40
4.5
41
0
44
1
50
0
71
5
72
5
7
iso_b_vert
0
POINT
5
1EA
100
AcDbEntity
8
Defpoints
62
0
6
ByLayer
370
-1
48
1
60
0
100
AcDbPoint
10
0
20
22.055
30
0
39
0
210
0
220
0
230
1
50
360
0
POINT
5
1EB
100
AcDbEntity
8
Defpoints
62
0
6
ByLayer
370
-1
48
1
60
0
100
AcDbPoint
10
-24.9
20
18.4
30
0
39
0
210
0
220
0
230
1
50
360
0
POINT
5
1EC
100
AcDbEntity
8
Defpoints
62
0
6
ByLayer
370
-1
48
1
60
0
100
AcDbPoint
10
-24.9
20
64.075
30
0
39
0
210
0
220
0
230
1
50
360
0
ENDBLK
5
1E3
100
AcDbEntity
8
0
100
AcDbBlockEnd
0
BLOCK
5
1F4
100
AcDbEntity
8
0
100
AcDbBlockBegin
2
_U5
70
0
10
0
20
0
30
0
3
_U5
0
MTEXT
5
1EE
100
AcDbEntity
8
SK2
62
256
6
ByLayer
370
18
48
1
60
0
100
AcDbMText
10
-17.610642
20
65.402672
30
0
210
0
220
0
230
1
1
\W0.7607;24,9
40
4.5
41
0
44
1.084337
50
0
71
7
72
5
7
iso_b_vert
0
LINE
5
1EF
100
AcDbEntity
8
SK2
62
256
6
ByLayer
370
13
48
1
60
0
100
AcDbLine
10
0
20
23.6425
30
0
11
0
21
66.075
31
0
39
0
210
0
220
0
230
1
0
LINE
5
1F0
100
AcDbEntity
8
SK2
62
256
6
ByLayer
370
13
48
1
60
0
100
AcDbLine
10
-24.9
20
19.9875
30
0
11
-24.9
21
66.075
31
0
39
0
210
0
220
0
230
1
0
LINE
5
1F1
100
AcDbEntity
8
SK2
62
256
6
ByLayer
370
13
48
1
60
0
100
AcDbLine
10
0
20
64.075
30
0
11
-24.9
21
64.075
31
0
39
0
210
0
220
0
230
1
0
SOLID
5
1F2
100
AcDbEntity
8
SK2
62
256
6
ByLayer
370
18
48
1
60
0
100
AcDbTrace
10
0
20
64.075
30
0
11
-4.499996
21
63.077374
31
0
12
-4.500004
22
65.072626
32
0
13
-4.500004
23
65.072626
33
0
39
0
210
0
220
0
230
1
0
SOLID
5
1F3
100
AcDbEntity
8
SK2
62
256
6
ByLayer
370
18
48
1
60
0
100
AcDbTrace
10
-24.9
20
64.075
30
0
11
-20.400004
21
65.072626
31
0
12
-20.399996
22
63.077374
32
0
13
-20.399996
23
63.077374
33
0
39
0
210
0
220
0
230
1
0
ENDBLK
5
1F5
100
AcDbEntity
8
0
100
AcDbBlockEnd
0
ENDSEC
0
SECTION
2
ENTITIES
0
ARC
5
F8
100
AcDbEntity
8
1
62
256
6
ByLayer
370
18
48
1
60
0
100
AcDbCircle
39
0
10
26.95
20
21.75
30
0
40
1
210
0
220
0
230
1
100
AcDbArc
50
238.140151
51
270
0
ARC
5
F9
100
AcDbEntity
8
SK1
62
256
6
ByLayer
370
18
48
1
60
0
100
AcDbCircle
39
0
10
-0.45
20
19.504801
30
0
40
0.6
210
0
220
0
230
1
100
AcDbArc
50
270
51
318.590378
0
ARC
5
FA
100
AcDbEntity
8
SK1
62
256
6
ByLayer
370
18
48
1
60
0
100
AcDbCircle
39
0
10
-0.45
20
-19.504801
30
0
40
0.6
210
0
220
0
230
1
100
AcDbArc
50
41.409622
51
90
0
ARC
5
FB
100
AcDbEntity
8
1
62
256
6
ByLayer
370
18
48
1
60
0
100
AcDbCircle
39
0
10
72.776748
20
0.75
30
0
40
20
210
0
220
0
230
1
100
AcDbArc
50
83
51
90
0
ARC
5
FC
100
AcDbEntity
8
1
62
256
6
ByLayer
370
18
48
1
60
0
100
AcDbCircle
39
0
10
72.776748
20
-0.75
30
0
40
20
210
0
220
0
230
1
100
AcDbArc
50
270
51
277
0
ARC
5
FD
100
AcDbEntity
8
1
62
256
6
ByLayer
370
18
48
1
60
0
100
AcDbCircle
39
0
10
88.8
20
-17.723777
30
0
40
1.20000000000002
210
0
220
0
230
1
100
AcDbArc
50
277
51
0
0
ARC
5
FE
100
AcDbEntity
8
1
62
256
6
ByLayer
370
18
48
1
60
0
100
AcDbCircle
39
0
10
88.8
20
17.723777
30
0
40
1.20000000000002
210
0
220
0
230
1
100
AcDbArc
50
0
51
83
0
ARC
5
FF
100
AcDbEntity
8
SK1
62
256
6
ByLayer
370
18
48
1
60
0
100
AcDbCircle
39
0
10
-18.7
20
-17.635
30
0
40
1.4
210
0
220
0
230
1
100
AcDbArc
50
42.04285
51
90
0
ARC
5
100
100
AcDbEntity
8
SK1
62
256
6
ByLayer
370
18
48
1
60
0
100
AcDbCircle
39
0
10
-21.7
20
17.635
30
0
40
1.4
210
0
220
0
230
1
100
AcDbArc
50
270
51
307.418843
0
ELLIPSE
5
101
100
AcDbEntity
8
SK1
62
256
6
ByLayer
370
13
48
1
60
0
100
AcDbEllipse
10
-18.7
20
-17.223005
30
0
11
-1.4
21
1.71444889535133E-16
31
0
210
0
220
0
230
1
40
0.891007
41
-2.02769088511822
42
-1.5707963267949
0
ELLIPSE
5
102
100
AcDbEntity
8
SK1
62
256
6
ByLayer
370
18
48
1
60
0
100
AcDbEllipse
10
-41.086371
20
0.767648
30
0
11
16.7227062782683
21
16.7178522379808
31
0
210
0
220
0
230
1
40
0.23981
41
-0.319020373292972
42
-0.265939722161567
0
ELLIPSE
5
103
100
AcDbEntity
8
1
62
256
6
ByLayer
370
18
48
1
60
0
100
AcDbEllipse
10
18
20
3.673263
30
0
11
-1.75
21
2.14306111918916E-16
31
0
210
0
220
0
230
1
40
0.97237
41
-2.74270837382103
42
-0.407719492930383
0
ELLIPSE
5
104
100
AcDbEntity
8
SK1
62
256
6
ByLayer
370
18
48
1
60
0
100
AcDbEllipse
10
-41.086372
20
-0.767648
30
0
11
16.7227067210094
21
-16.7178526204706
31
0
210
0
220
0
230
1
40
0.23981
41
0.265939718514871
42
0.319020368963233
0
ELLIPSE
5
105
100
AcDbEntity
8
1
62
256
6
ByLayer
370
13
48
1
60
0
100
AcDbEllipse
10
26.95
20
-20.9
30
0
11
-1
21
1.22460635382238E-16
31
0
210
0
220
0
230
1
40
0.96092
41
-1.5707963267949
42
0
0
ELLIPSE
5
106
100
AcDbEntity
8
1
62
256
6
ByLayer
370
18
48
1
60
0
100
AcDbEllipse
10
18
20
-3.673263
30
0
11
1.75
21
0
31
0
210
0
220
0
230
1
40
0.97237
41
-2.73446169889475
42
-0.39466240560201
0
ELLIPSE
5
107
100
AcDbEntity
8
1
62
256
6
ByLayer
370
18
48
1
60
0
100
AcDbEllipse
10
7.5
20
9.113859
30
0
11
-1.75
21
2.14306111918916E-16
31
0
210
0
220
0
230
1
40
0.891007
41
-2.35226771905717
42
-0.801891643452645
0
ELLIPSE
5
108
100
AcDbEntity
8
1
62
256
6
ByLayer
370
18
48
1
60
0
100
AcDbEllipse
10
7.5
20
3.830491
30
0
11
-1.75
21
2.14306111918916E-16
31
0
210
0
220
0
230
1
40
0.981627
41
-2.8711213659229
42
-0.258003530873382
0
ELLIPSE
5
109
100
AcDbEntity
8
1
62
256
6
ByLayer
370
18
48
1
60
0
100
AcDbEllipse
10
7.5
20
-1.749652
30
0
11
1.75
21
0
31
0
210
0
220
0
230
1
40
0.996195
41
-3.0195615859753
42
-0.0734349393862964
0
POINT
5
70
100
AcDbEntity
8
80
62
256
6
ByLayer
370
18
48
1
60
0
100
AcDbPoint
10
0
20
0
30
0
39
0
210
0
220
0
230
1
50
360
0
POINT
5
72
100
AcDbEntity
8
81
62
256
6
ByLayer
370
18
48
1
60
0
100
AcDbPoint
10
90
20
0
30
0
39
0
210
0
220
0
230
1
50
360
0
POINT
5
74
100
AcDbEntity
8
1
62
256
6
ByLayer
370
18
48
1
60
1
100
AcDbPoint
10
90
20
-20.75
30
0
39
0
210
0
220
0
230
1
50
360
0
POINT
5
76
100
AcDbEntity
8
1
62
256
6
ByLayer
370
18
48
1
60
1
100
AcDbPoint
10
90
20
20.75
30
0
39
0
210
0
220
0
230
1
50
360
0
POINT
5
77
100
AcDbEntity
8
1
62
256
6
ByLayer
370
18
48
1
60
1
100
AcDbPoint
10
90
20
10
30
0
39
0
210
0
220
0
230
1
50
360
0
POINT
5
78
100
AcDbEntity
8
1
62
256
6
ByLayer
370
18
48
1
60
1
100
AcDbPoint
10
90
20
-10
30
0
39
0
210
0
220
0
230
1
50
360
0
POINT
5
79
100
AcDbEntity
8
1
62
256
6
ByLayer
370
18
48
1
60
1
100
AcDbPoint
10
39
20
-10
30
0
39
0
210
0
220
0
230
1
50
360
0
POINT
5
7A
100
AcDbEntity
8
1
62
256
6
ByLayer
370
18
48
1
60
1
100
AcDbPoint
10
74
20
-20.75
30
0
39
0
210
0
220
0
230
1
50
360
0
POINT
5
7B
100
AcDbEntity
8
1
62
256
6
ByLayer
370
18
48
1
60
1
100
AcDbPoint
10
90
20
-20.75
30
0
39
0
210
0
220
0
230
1
50
360
0
POINT
5
7C
100
AcDbEntity
8
1
62
256
6
ByLayer
370
18
48
1
60
1
100
AcDbPoint
10
0
20
24.975
30
0
39
0
210
0
220
0
230
1
50
360
0
POINT
5
7D
100
AcDbEntity
8
1
62
256
6
ByLayer
370
18
48
1
60
1
100
AcDbPoint
10
90
20
20.75
30
0
39
0
210
0
220
0
230
1
50
360
0
POINT
5
7E
100
AcDbEntity
8
1
62
256
6
ByLayer
370
18
48
1
60
1
100
AcDbPoint
10
0
20
22.055
30
0
39
0
210
0
220
0
230
1
50
360
0
POINT
5
7F
100
AcDbEntity
8
1
62
256
6
ByLayer
370
18
48
1
60
1
100
AcDbPoint
10
-24.9
20
18.4
30
0
39
0
210
0
220
0
230
1
50
360
0
POINT
5
80
100
AcDbEntity
8
1
62
256
6
ByLayer
370
18
48
1
60
1
100
AcDbPoint
10
-12.45
20
18.4
30
0
39
0
210
0
220
0
230
1
50
360
0
SPLINE
5
10A
100
AcDbEntity
8
1
62
256
6
ByLayer
370
18
48
1
60
0
100
AcDbSpline
70
4
71
3
72
13
73
9
40
0
40
0
40
0
40
0
40
0.0455487101080498
40
0.0896591360946449
40
0.175084020990766
40
0.309716532524501
40
0.606421667503719
40
1
40
1
40
1
40
1
41
1
10
25.9938826335902
20
-20.8743379206264
30
0
41
1
10
25.9963734168944
20
-20.872927478494
30
0
41
1
10
26.0031662248056
20
-20.8692481334281
30
0
41
1
10
26.0248803383252
20
-20.8577479988295
30
0
41
1
10
26.0682288845052
20
-20.8365706103274
30
0
41
1
10
26.1547298104
20
-20.800791987151
30
0
41
1
10
26.3010283911195
20
-20.7589835369908
30
0
41
1
10
26.4262432958076
20
-20.7499576219257
30
0
41
1
10
26.4993473054425
20
-20.7527165686931
30
0
0
SPLINE
5
10B
100
AcDbEntity
8
SK1
62
256
6
ByLayer
370
18
48
1
60
0
100
AcDbSpline
70
4
71
3
72
42
73
38
40
0
40
0
40
0
40
0
40
0.124999999999997
40
0.124999999999997
40
0.249999999999994
40
0.249999999999994
40
0.374999999999991
40
0.374999999999991
40
0.43749999999999
40
0.43749999999999
40
0.468749999999989
40
0.468749999999989
40
0.499999999999989
40
0.499999999999989
40
0.515624999999989
40
0.515624999999989
40
0.531249999999989
40
0.531249999999989
40
0.546874999999989
40
0.546874999999989
40
0.56249999999999
40
0.56249999999999
40
0.57812499999999
40
0.57812499999999
40
0.59374999999999
40
0.59374999999999
40
0.62499999999999
40
0.62499999999999
40
0.656249999999991
40
0.656249999999991
40
0.687499999999991
40
0.687499999999991
40
0.749999999999993
40
0.749999999999993
40
0.874999999999996
40
0.874999999999996
40
1
40
1
40
1
40
1
41
1
10
-24.9
20
-14.9463960501138
30
0
41
1
10
-24.9
20
-14.8306333163207
30
0
41
1
10
-24.8999682631659
20
-14.7148991428572
30
0
41
1
10
-24.8982643404261
20
-14.484907054274
30
0
41
1
10
-24.8966592850763
20
-14.3705887276214
30
0
41
1
10
-24.8879173438391
20
-14.1469302300719
30
0
41
1
10
-24.8811188626072
20
-14.0370896503346
30
0
41
1
10
-24.858523734464
20
-13.884433749389
30
0
41
1
10
-24.8489192782436
20
-13.8355723542106
30
0
41
1
10
-24.8278837553025
20
-13.7687528997128
30
0
41
1
10
-24.8197507439503
20
-13.7475744995994
30
0
41
1
10
-24.7997518668449
20
-13.7088625937003
30
0
41
1
10
-24.7878659598063
20
-13.6911316938963
30
0
41
1
10
-24.7649861346185
20
-13.6704198806133
30
0
41
1
10
-24.7565162102463
20
-13.6645102575895
30
0
41
1
10
-24.7369247488689
20
-13.6558174049604
30
0
41
1
10
-24.7258260316215
20
-13.6529632155281
30
0
41
1
10
-24.6988547481523
20
-13.6530649522478
30
0
41
1
10
-24.6831903053887
20
-13.6560250395507
30
0
41
1
10
-24.6452971382857
20
-13.6731691850474
30
0
41
1
10
-24.6229453790747
20
-13.6879509429881
30
0
41
1
10
-24.5769146734491
20
-13.7285998995386
30
0
41
1
10
-24.554160194366
20
-13.7534204521222
30
0
41
1
10
-24.5136324245045
20
-13.8029929380228
30
0
41
1
10
-24.4950599533667
20
-13.828527994287
30
0
41
1
10
-24.4443059303338
20
-13.9031118544044
30
0
41
1
10
-24.4157260205434
20
-13.9518265241013
30
0
41
1
10
-24.364410808638
20
-14.0456188376299
30
0
41
1
10
-24.3417273843045
20
-14.0908697358552
30
0
41
1
10
-24.2997365400768
20
-14.1795039933178
30
0
41
1
10
-24.2804911026497
20
-14.2228530650783
30
0
41
1
10
-24.2264121841026
20
-14.3508770823706
30
0
41
1
10
-24.1952289964116
20
-14.4334972881789
30
0
41
1
10
-24.1119095361001
20
-14.6728269068103
30
0
41
1
10
-24.069181058291
20
-14.8228223446404
30
0
41
1
10
-23.9987211162508
20
-15.111630665518
30
0
41
1
10
-23.9713285378173
20
-15.2501908576563
30
0
41
1
10
-23.9500374420152
20
-15.384201466411
30
0
0
SPLINE
5
10C
100
AcDbEntity
8
SK1
62
256
6
ByLayer
370
18
48
1
60
0
100
AcDbSpline
70
4
71
3
72
42
73
38
40
0
40
0
40
0
40
0
40
0.125000000000004
40
0.125000000000004
40
0.250000000000009
40
0.250000000000009
40
0.31250000000001
40
0.31250000000001
40
0.343750000000011
40
0.343750000000011
40
0.375000000000012
40
0.375000000000012
40
0.406250000000013
40
0.406250000000013
40
0.421875000000013
40
0.421875000000013
40
0.437500000000013
40
0.437500000000013
40
0.453125000000013
40
0.453125000000013
40
0.468750000000013
40
0.468750000000013
40
0.484375000000013
40
0.484375000000013
40
0.500000000000013
40
0.500000000000013
40
0.531250000000012
40
0.531250000000012
40
0.562500000000011
40
0.562500000000011
40
0.625000000000009
40
0.625000000000009
40
0.750000000000006
40
0.750000000000006
40
0.875000000000003
40
0.875000000000003
40
1
40
1
40
1
40
1
41
1
10
-23.9500374420152
20
15.384201466411
30
0
41
1
10
-23.9712866752095
20
15.2504543496629
30
0
41
1
10
-23.9986001291935
20
15.112277727417
30
0
41
1
10
-24.068706460192
20
14.8246178053164
30
0
41
1
10
-24.1111805776559
20
14.6753673378785
30
0
41
1
10
-24.1936627545075
20
14.437780683
30
0
41
1
10
-24.2242903743068
20
14.3562962758905
30
0
41
1
10
-24.2781070450725
20
14.228317331198
30
0
41
1
10
-24.2974701180655
20
14.184492398756
30
0
41
1
10
-24.3396155934276
20
14.0951430411892
30
0
41
1
10
-24.3623382206752
20
14.0496399818478
30
0
41
1
10
-24.4134378487732
20
13.9557949015432
30
0
41
1
10
-24.441873033077
20
13.9071014054429
30
0
41
1
10
-24.4920388023366
20
13.8327856430462
30
0
41
1
10
-24.5103529162886
20
13.8073464202645
30
0
41
1
10
-24.5507174323082
20
13.757342125519
30
0
41
1
10
-24.5729640125798
20
13.7326535142379
30
0
41
1
10
-24.6189776341861
20
13.6909796573179
30
0
41
1
10
-24.6418557335641
20
13.6752415194421
30
0
41
1
10
-24.6803037749849
20
13.6568942697032
30
0
41
1
10
-24.696439558457
20
13.6534440360187
30
0
41
1
10
-24.7236862956663
20
13.6526585558849
30
0
41
1
10
-24.7352012794579
20
13.6553008985369
30
0
41
1
10
-24.755206017206
20
13.6637157830277
30
0
41
1
10
-24.7637830762772
20
13.6695234617595
30
0
41
1
10
-24.7868852338665
20
13.6898981742275
30
0
41
1
10
-24.7988415785281
20
13.7073888091267
30
0
41
1
10
-24.8191849215417
20
13.7462112002861
30
0
41
1
10
-24.8274170353091
20
13.7674567303706
30
0
41
1
10
-24.8486765578193
20
13.8344436880498
30
0
41
1
10
-24.8583313669266
20
13.883374747877
30
0
41
1
10
-24.8810401966444
20
14.036084151609
30
0
41
1
10
-24.8878530362462
20
14.1457650852857
30
0
41
1
10
-24.8966431506972
20
14.3697001824509
30
0
41
1
10
-24.8982565368716
20
14.4842184568512
30
0
41
1
10
-24.8999684062332
20
14.7145553734389
30
0
41
1
10
-24.9
20
14.8304615743796
30
0
41
1
10
-24.9
20
14.9463960501139
30
0
0
SPLINE
5
10D
100
AcDbEntity
8
1
62
256
6
ByLayer
370
18
48
1
60
0
100
AcDbSpline
70
4
71
3
72
8
73
4
40
0
40
0
40
0
40
0
40
1
40
1
40
1
40
1
41
1
10
21.3774990747593
20
24.23923098512
30
0
41
1
10
20.8920523728878
20
23.3728900374927
30
0
41
1
10
20.4077391150865
20
22.5059102843728
30
0
41
1
10
19.925
20
21.6380512009471
30
0
0
SPLINE
5
10E
100
AcDbEntity
8
1
62
256
6
ByLayer
370
18
48
1
60
0
100
AcDbSpline
70
4
71
3
72
8
73
4
40
0
40
0
40
0
40
0
40
1
40
1
40
1
40
1
41
1
10
25.45
20
24.23923098512
30
0
41
1
10
25.6167207719384
20
24.0674494924762
30
0
41
1
10
25.7833885950701
20
23.895616592967
30
0
41
1
10
25.95
20
23.7237290228581
30
0
0
SPLINE
5
10F
100
AcDbEntity
8
1
62
256
6
ByLayer
370
18
48
1
60
0
100
AcDbSpline
70
4
71
3
72
8
73
4
40
0
40
0
40
0
40
0
40
1
40
1
40
1
40
1
41
1
10
21.3774990747593
20
19.7009676158305
30
0
41
1
10
20.8786689974833
20
18.6056723796033
30
0
41
1
10
20.3926471834713
20
17.5045039135302
30
0
41
1
10
19.925
20
16.3949097595811
30
0
0
SPLINE
5
110
100
AcDbEntity
8
1
62
256
6
ByLayer
370
18
48
1
60
0
100
AcDbSpline
70
4
71
3
72
8
73
4
40
0
40
0
40
0
40
0
40
1
40
1
40
1
40
1
41
1
10
16.075
20
16.3949097595811
30
0
41
1
10
15.6073528165287
20
17.5045039135303
30
0
41
1
10
15.1213310025167
20
18.6056723796033
30
0
41
1
10
14.6225009252407
20
19.7009676158305
30
0
0
SPLINE
5
111
100
AcDbEntity
8
1
62
256
6
ByLayer
370
18
48
1
60
0
100
AcDbSpline
70
4
71
3
72
8
73
4
40
0
40
0
40
0
40
0
40
1
40
1
40
1
40
1
41
1
10
25.95
20
19.0631352353174
30
0
41
1
10
25.7839972362789
20
19.2762647962171
30
0
41
1
10
25.6173125826249
20
19.4888647469491
30
0
41
1
10
25.45
20
19.7009676158305
30
0
0
SPLINE
5
112
100
AcDbEntity
8
1
62
256
6
ByLayer
370
18
48
1
60
0
100
AcDbSpline
70
4
71
3
72
32
73
28
40
0
40
0
40
0
40
0
40
0.124999999999999
40
0.124999999999999
40
0.187499999999998
40
0.187499999999998
40
0.249999999999998
40
0.312499999999997
40
0.312499999999997
40
0.374999999999997
40
0.374999999999997
40
0.437499999999996
40
0.437499999999996
40
0.499999999999995
40
0.499999999999995
40
0.624999999999994
40
0.624999999999994
40
0.687499999999995
40
0.687499999999995
40
0.749999999999996
40
0.749999999999996
40
0.812499999999997
40
0.812499999999997
40
0.874999999999998
40
0.937499999999999
40
0.937499999999999
40
1
40
1
40
1
40
1
41
1
10
19.525
20
-11.9436072614952
30
0
41
1
10
19.4486208109124
20
-12.0564657938374
30
0
41
1
10
19.3561709247325
20
-12.1577846710459
30
0
41
1
10
19.1940797261
20
-12.2934753440975
30
0
41
1
10
19.1356514749337
20
-12.3361902504149
30
0
41
1
10
19.0138024594151
20
-12.4138433505967
30
0
41
1
10
18.8865823280216
20
-12.4842003837414
30
0
41
1
10
18.7487926284898
20
-12.5403735823754
30
0
41
1
10
18.6055212278078
20
-12.5892686489121
30
0
41
1
10
18.5321089139642
20
-12.6097087940554
30
0
41
1
10
18.3837172687539
20
-12.6423525424051
30
0
41
1
10
18.3084423617038
20
-12.6546577403141
30
0
41
1
10
18.1557191593385
20
-12.6712156190501
30
0
41
1
10
18.0776748723534
20
-12.67544840359
30
0
41
1
10
17.8455155062896
20
-12.675479392831
30
0
41
1
10
17.6932515066903
20
-12.6591735638971
30
0
41
1
10
17.4686410172644
20
-12.6099284081573
30
0
41
1
10
17.3949506751818
20
-12.5893803308197
30
0
41
1
10
17.2530484623046
20
-12.5410504710474
30
0
41
1
10
17.1843486064406
20
-12.5131683071507
30
0
41
1
10
17.051450486043
20
-12.4498948863184
30
0
41
1
10
16.9868227166197
20
-12.4142170217233
30
0
41
1
10
16.8645581624118
20
-12.3363484286876
30
0
41
1
10
16.7496781374922
20
-12.2523990234925
30
0
41
1
10
16.6491576605513
20
-12.156443338613
30
0
41
1
10
16.555995594775
20
-12.0542418652454
30
0
41
1
10
16.5131893503938
20
-12.0000361669083
30
0
41
1
10
16.475
20
-11.9436072614952
30
0
0
SPLINE
5
113
100
AcDbEntity
8
1
62
256
6
ByLayer
370
18
48
1
60
0
100
AcDbSpline
70
4
71
3
72
32
73
28
40
0
40
0
40
0
40
0
40
0.125000000000003
40
0.125000000000003
40
0.187500000000004
40
0.187500000000004
40
0.250000000000005
40
0.312500000000006
40
0.312500000000006
40
0.375000000000008
40
0.375000000000008
40
0.437500000000009
40
0.437500000000009
40
0.50000000000001
40
0.50000000000001
40
0.625000000000009
40
0.625000000000009
40
0.687500000000008
40
0.687500000000008
40
0.750000000000006
40
0.750000000000006
40
0.812500000000005
40
0.812500000000005
40
0.875000000000003
40
0.937500000000002
40
0.937500000000002
40
1
40
1
40
1
40
1
41
1
10
16.475
20
11.9436072614952
30
0
41
1
10
16.5513791890876
20
12.0564657938374
30
0
41
1
10
16.6438290752675
20
12.1577846710459
30
0
41
1
10
16.8059202739
20
12.2934753440975
30
0
41
1
10
16.8643485250663
20
12.3361902504149
30
0
41
1
10
16.9861975405849
20
12.4138433505967
30
0
41
1
10
17.1134176719784
20
12.4842003837414
30
0
41
1
10
17.2512073715102
20
12.5403735823754
30
0
41
1
10
17.3944787721922
20
12.5892686489121
30
0
41
1
10
17.4678910860358
20
12.6097087940554
30
0
41
1
10
17.6162827312461
20
12.6423525424052
30
0
41
1
10
17.6915576382962
20
12.6546577403141
30
0
41
1
10
17.8442808406615
20
12.6712156190501
30
0
41
1
10
17.9223251276466
20
12.67544840359
30
0
41
1
10
18.1544844937104
20
12.675479392831
30
0
41
1
10
18.3067484933097
20
12.6591735638971
30
0
41
1
10
18.5313589827356
20
12.6099284081573
30
0
41
1
10
18.6050493248182
20
12.5893803308197
30
0
41
1
10
18.7469515376954
20
12.5410504710474
30
0
41
1
10
18.8156513935594
20
12.5131683071507
30
0
41
1
10
18.948549513957
20
12.4498948863184
30
0
41
1
10
19.0131772833803
20
12.4142170217233
30
0
41
1
10
19.1354418375882
20
12.3363484286876
30
0
41
1
10
19.2503218625078
20
12.2523990234925
30
0
41
1
10
19.3508423394487
20
12.156443338613
30
0
41
1
10
19.444004405225
20
12.0542418652454
30
0
41
1
10
19.4868106496062
20
12.0000361669083
30
0
41
1
10
19.525
20
11.9436072614952
30
0
0
SPLINE
5
114
100
AcDbEntity
8
SK1
62
256
6
ByLayer
370
18
48
1
60
0
100
AcDbSpline
70
4
71
3
72
46
73
42
40
0
40
0
40
0
40
0
40
0.0358261475124072
40
0.0358261475124072
40
0.074419159520478
40
0.113012171528549
40
0.113012171528549
40
0.151605183536619
40
0.151605183536619
40
0.228791207552761
40
0.228791207552761
40
0.267384219560832
40
0.267384219560832
40
0.305977231568903
40
0.344570243576974
40
0.344570243576974
40
0.383163255585044
40
0.383163255585044
40
0.460349279601186
40
0.460349279601186
40
0.498942291609257
40
0.498942291609257
40
0.537535303617327
40
0.537535303617327
40
0.614721327633469
40
0.614721327633469
40
0.65331433964154
40
0.65331433964154
40
0.691907351649611
40
0.691907351649611
40
0.769093375665752
40
0.769093375665752
40
0.807686387673823
40
0.807686387673823
40
0.846279399681894
40
0.846279399681894
40
0.923465423698035
40
0.923465423698035
40
0.962058435706105
40
0.962058435706105
40
1
40
1
40
1
40
1
41
1
10
-11.0037118733443
20
18.7037126440312
30
0
41
1
10
-11.0036571405976
20
18.7037060258521
30
0
41
1
10
-10.9978895389006
20
18.7030377072251
30
0
41
1
10
-10.9745044277145
20
18.7003522607798
30
0
41
1
10
-10.9375211899052
20
18.6961203637691
30
0
41
1
10
-10.875456153627
20
18.6892203453255
30
0
41
1
10
-10.800640387596
20
18.6811194011503
30
0
41
1
10
-10.7571086181055
20
18.676497878646
30
0
41
1
10
-10.6107393468015
20
18.6614893358229
30
0
41
1
10
-10.4916470475045
20
18.6498817250584
30
0
41
1
10
-10.2814981586255
20
18.6316722250531
30
0
41
1
10
-10.2065892297725
20
18.6255131702622
30
0
41
1
10
-10.0494566733098
20
18.6134722899644
30
0
41
1
10
-9.88443914918173
20
18.601659530683
30
0
41
1
10
-9.70411226585927
20
18.5908603542486
30
0
41
1
10
-9.51613192981947
20
18.5808540751884
30
0
41
1
10
-9.41823143746521
20
18.576252393349
30
0
41
1
10
-9.11900362411436
20
18.5642912183339
30
0
41
1
10
-8.91034460029343
20
18.558666603812
30
0
41
1
10
-8.58407621925573
20
18.5549445953919
30
0
41
1
10
-8.47260231476719
20
18.5544925700675
30
0
41
1
10
-8.24752461928648
20
18.555351712747
30
0
41
1
10
-8.13437264276274
20
18.5566530609391
30
0
41
1
10
-7.79315012275666
20
18.5632527271097
30
0
41
1
10
-7.5633283973778
20
18.5712470718759
30
0
41
1
10
-7.2150787851802
20
18.588926100304
30
0
41
1
10
-7.09811121093659
20
18.5957949525041
30
0
41
1
10
-6.86738003111066
20
18.6111484853373
30
0
41
1
10
-6.75309636705163
20
18.6196545080577
30
0
41
1
10
-6.41342075106647
20
18.6474986148957
30
0
41
1
10
-6.19117667754315
20
18.6691660491992
30
0
41
1
10
-5.86432216535312
20
18.7056481136454
30
0
41
1
10
-5.75685739589778
20
18.7184351381126
30
0
41
1
10
-5.54835551905609
20
18.7446383584093
30
0
41
1
10
-5.44680598725478
20
18.7581107779699
30
0
41
1
10
-5.15022831704408
20
18.7993023849843
30
0
41
1
10
-4.96318113195389
20
18.8278079850629
30
0
41
1
10
-4.69994479977589
20
18.8706616385025
30
0
41
1
10
-4.61616854143247
20
18.8847880761849
30
0
41
1
10
-4.45920073335895
20
18.9119920743697
30
0
41
1
10
-4.38563172764057
20
18.9251199121563
30
0
41
1
10
-4.31637181657479
20
18.9377574162945
30
0
0
SPLINE
5
115
100
AcDbEntity
8
SK1
62
256
6
ByLayer
370
18
48
1
60
0
100
AcDbSpline
70
4
71
3
72
20
73
16
40
0
40
0
40
0
40
0
40
0.0027712000268978
40
0.0027712000268978
40
0.166897144146971
40
0.166897144146971
40
0.331023088267045
40
0.331023088267045
40
0.659274976507193
40
0.659274976507193
40
0.823400920627267
40
0.823400920627267
40
0.98752686474734
40
0.98752686474734
40
1
40
1
40
1
40
1
41
1
10
-4.31637280037916
20
18.9377572367847
30
0
41
1
10
-4.31518329539873
20
18.9379742796678
30
0
41
1
10
-4.31399506144348
20
18.9381911779205
30
0
41
1
10
-4.24250954300811
20
18.9512452514849
30
0
41
1
10
-4.1766690424123
20
18.9635735189259
30
0
41
1
10
-4.05432610726305
20
18.9869061200053
30
0
41
1
10
-3.99753918611714
20
18.9979671348577
30
0
41
1
10
-3.8443833256126
20
19.0282295460663
30
0
41
1
10
-3.76623936684004
20
19.0442680985316
30
0
41
1
10
-3.68538197762862
20
19.0610072717434
30
0
41
1
10
-3.66453384612194
20
19.0653648067288
30
0
41
1
10
-3.63571500642811
20
19.0714025299287
30
0
41
1
10
-3.62794867134039
20
19.0730394019314
30
0
41
1
10
-3.62675348449193
20
19.0732909101158
30
0
41
1
10
-3.6267067054271
20
19.073300694969
30
0
41
1
10
-3.6266975756109
20
19.0733025104386
30
0
0
SPLINE
5
116
100
AcDbEntity
8
SK1
62
256
6
ByLayer
370
18
48
1
60
0
100
AcDbSpline
70
4
71
3
72
28
73
24
40
0
40
0
40
0
40
0
40
0.124999999999999
40
0.124999999999999
40
0.249999999999997
40
0.249999999999997
40
0.499999999999995
40
0.499999999999995
40
0.624999999999996
40
0.624999999999996
40
0.749999999999996
40
0.749999999999996
40
0.812499999999998
40
0.812499999999998
40
0.875
40
0.875
40
0.90625
40
0.90625
40
0.9375
40
0.9375
40
0.96875
40
0.96875
40
1
40
1
40
1
40
1
41
1
10
-20.2999999999987
20
17.236448504827
30
0
41
1
10
-20.2999999999986
20
17.1932297648485
30
0
41
1
10
-20.309520504599
20
17.1481658860202
30
0
41
1
10
-20.3458638443239
20
17.0544207764324
30
0
41
1
10
-20.3723845254307
20
17.0065690770056
30
0
41
1
10
-20.4727296940029
20
16.8610711765942
30
0
41
1
10
-20.5672231281159
20
16.7611242105708
30
0
41
1
10
-20.742094485694
20
16.6074712614682
30
0
41
1
10
-20.8052936072808
20
16.5562172907921
30
0
41
1
10
-20.9403944411383
20
16.4540991116998
30
0
41
1
10
-21.0122327984822
20
16.4031481141617
30
0
41
1
10
-21.1279634869778
20
16.327512372969
30
0
41
1
10
-21.1678812972848
20
16.3024349975342
30
0
41
1
10
-21.2517090851213
20
16.2529425166848
30
0
41
1
10
-21.2954639208317
20
16.2284841895547
30
0
41
1
10
-21.3672695885145
20
16.1931991899439
30
0
41
1
10
-21.3924464983975
20
16.181601149631
30
0
41
1
10
-21.445463423101
20
16.1598869771453
30
0
41
1
10
-21.4735555207081
20
16.1496483649475
30
0
41
1
10
-21.5334166816522
20
16.1325040074234
30
0
41
1
10
-21.5649009132472
20
16.1256648368675
30
0
41
1
10
-21.6328990125495
20
16.1182634648327
30
0
41
1
10
-21.6670595602435
20
16.1181820362056
30
0
41
1
10
-21.7
20
16.1211847832759
30
0
0
SPLINE
5
117
100
AcDbEntity
8
SK1
62
256
6
ByLayer
370
18
48
1
60
0
100
AcDbSpline
70
4
71
3
72
12
73
8
40
0
40
0
40
0
40
0
40
0.500000000000002
40
0.500000000000002
40
0.750000000000001
40
0.750000000000001
40
1
40
1
40
1
40
1
41
1
10
-23.75
20
16.2139289192152
30
0
41
1
10
-23.4050231330737
20
16.2067102094577
30
0
41
1
10
-23.0609762578347
20
16.1971898300292
30
0
41
1
10
-22.5475956481942
20
16.176211189451
30
0
41
1
10
-22.3769232614776
20
16.1680864239298
30
0
41
1
10
-22.037047951534
20
16.148168156248
30
0
41
1
10
-21.8678025450653
20
16.1364811364612
30
0
41
1
10
-21.7
20
16.1211847832761
30
0
0
SPLINE
5
118
100
AcDbEntity
8
SK1
62
256
6
ByLayer
370
18
48
1
60
0
100
AcDbSpline
70
4
71
3
72
8
73
4
40
0
40
0
40
0
40
0
40
1
40
1
40
1
40
1
41
1
10
-23.8978773747949
20
15.8438358218462
30
0
41
1
10
-23.8895880587382
20
15.9738505276097
30
0
41
1
10
-23.8357338186722
20
16.0967974003095
30
0
41
1
10
-23.75
20
16.2139289192152
30
0
0
SPLINE
5
119
100
AcDbEntity
8
SK1
62
256
6
ByLayer
370
18
48
1
60
0
100
AcDbSpline
70
4
71
3
72
20
73
16
40
0
40
0
40
0
40
0
40
0.138956267953548
40
0.138956267953548
40
0.246579488167726
40
0.246579488167726
40
0.354202708381904
40
0.354202708381904
40
0.56944914881026
40
0.56944914881026
40
0.784695589238617
40
0.784695589238617
40
0.999942029666973
40
0.999942029666973
40
1
40
1
40
1
40
1
41
1
10
-3.62665840213776
20
-19.0733044459603
30
0
41
1
10
-3.62657698243828
20
-19.0733180765324
30
0
41
1
10
-3.63753199338535
20
-19.0710156572473
30
0
41
1
10
-3.67598432252413
20
-19.0629735817398
30
0
41
1
10
-3.69924316890052
20
-19.0581232630413
30
0
41
1
10
-3.75901990551125
20
-19.04578842358
30
0
41
1
10
-3.79499112272913
20
-19.0384178316532
30
0
41
1
10
-3.92000668606494
20
-19.0131610416483
30
0
41
1
10
-4.02634491969957
20
-18.9920703927878
30
0
41
1
10
-4.2821910795854
20
-18.9436825335486
30
0
41
1
10
-4.42805641451693
20
-18.9170873285213
30
0
41
1
10
-4.75272494591047
20
-18.8615428253202
30
0
41
1
10
-4.93316448452939
20
-18.8323702883642
30
0
41
1
10
-5.12339659619781
20
-18.8041136014121
30
0
41
1
10
-5.12344781664206
20
-18.8041059934002
30
0
41
1
10
-5.12349903786986
20
-18.8040983854397
30
0
0
SPLINE
5
11A
100
AcDbEntity
8
SK1
62
256
6
ByLayer
370
18
48
1
60
0
100
AcDbSpline
70
4
71
3
72
40
73
36
40
0
40
0
40
0
40
0
40
0.0881134610783732
40
0.0881134610783732
40
0.132182060202141
40
0.132182060202141
40
0.176250659325908
40
0.176250659325908
40
0.264387857573444
40
0.264387857573444
40
0.308456456697212
40
0.308456456697212
40
0.352525055820979
40
0.352525055820979
40
0.440662254068515
40
0.440662254068515
40
0.52879945231605
40
0.52879945231605
40
0.572868051439818
40
0.572868051439818
40
0.616936650563586
40
0.616936650563586
40
0.705073848811123
40
0.705073848811123
40
0.74914244793489
40
0.74914244793489
40
0.793211047058658
40
0.793211047058658
40
0.881348245306194
40
0.881348245306194
40
0.925416844429963
40
0.925416844429963
40
0.969485443553731
40
0.969485443553731
40
1
40
1
40
1
40
1
41
1
10
-5.12349903782268
20
-18.8040983854467
30
0
41
1
10
-5.31363452731441
20
-18.7758572954407
30
0
41
1
10
-5.51456672443646
20
-18.7483231434504
30
0
41
1
10
-5.83199619970529
20
-18.7094501807157
30
0
41
1
10
-5.94074090744522
20
-18.6968777876698
30
0
41
1
10
-6.15959064867795
20
-18.6731930546163
30
0
41
1
10
-6.27016944028901
20
-18.6620190176819
30
0
41
1
10
-6.60530307236385
20
-18.6306819635589
30
0
41
1
10
-6.8332265982508
20
-18.6127038578038
30
0
41
1
10
-7.18212879736737
20
-18.5907966912792
30
0
41
1
10
-7.2985906856749
20
-18.5844070544148
30
0
41
1
10
-7.52981069295541
20
-18.5735413433134
30
0
41
1
10
-7.64489068734835
20
-18.5690447881392
30
0
41
1
10
-7.98854877360017
20
-18.5582989203229
30
0
41
1
10
-8.21587676988585
20
-18.5547957671141
30
0
41
1
10
-8.66474392867877
20
-18.5547305431798
30
0
41
1
10
-8.87987201768254
20
-18.5581503917499
30
0
41
1
10
-9.18880967415089
20
-18.5672227597852
30
0
41
1
10
-9.2894812710247
20
-18.5709051099085
30
0
41
1
10
-9.48604906831707
20
-18.5793824828609
30
0
41
1
10
-9.58243441768903
20
-18.5842063920619
30
0
41
1
10
-9.860212829837
20
-18.5998102464234
30
0
41
1
10
-10.0290785044922
20
-18.6116094947858
30
0
41
1
10
-10.2576497963255
20
-18.629672834312
30
0
41
1
10
-10.3296899682349
20
-18.6357563843546
30
0
41
1
10
-10.4650349222394
20
-18.6477613145138
30
0
41
1
10
-10.5284616840774
20
-18.6536976841025
30
0
41
1
10
-10.7004108995494
20
-18.670393645279
30
0
41
1
10
-10.7925437382005
20
-18.6801835746085
30
0
41
1
10
-10.8959210101034
20
-18.6914839697316
30
0
41
1
10
-10.924642031273
20
-18.6947006697551
30
0
41
1
10
-10.9691063003312
20
-18.6997285404181
30
0
41
1
10
-10.984727976545
20
-18.7015246584765
30
0
41
1
10
-11.0002676951319
20
-18.7033139877042
30
0
41
1
10
-11.0035561259151
20
-18.7036899516061
30
0
41
1
10
-11.0037358740035
20
-18.7037085373968
30
0
0
SPLINE
5
11B
100
AcDbEntity
8
1
62
256
6
ByLayer
370
18
48
1
60
0
100
AcDbSpline
70
4
71
3
72
32
73
28
40
0
40
0
40
0
40
0
40
0.125
40
0.125
40
0.187499999999999
40
0.187499999999999
40
0.249999999999999
40
0.312499999999998
40
0.312499999999998
40
0.374999999999998
40
0.374999999999998
40
0.437499999999997
40
0.437499999999997
40
0.499999999999997
40
0.499999999999997
40
0.624999999999996
40
0.624999999999996
40
0.687499999999996
40
0.687499999999996
40
0.749999999999997
40
0.749999999999997
40
0.812499999999998
40
0.812499999999998
40
0.874999999999999
40
0.937499999999999
40
0.937499999999999
40
1
40
1
40
1
40
1
41
1
10
16.475
20
-10.479770351525
30
0
41
1
10
16.5513791890876
20
-10.3612393251041
30
0
41
1
10
16.6438290752675
20
-10.253461821091
30
0
41
1
10
16.8059202739
20
-10.1079105346751
30
0
41
1
10
16.8643485250663
20
-10.0618582204067
30
0
41
1
10
16.9861975405849
20
-9.97781951452458
30
0
41
1
10
17.1134176719784
20
-9.90133669142969
30
0
41
1
10
17.2512073715102
20
-9.83986151865128
30
0
41
1
10
17.3944787721922
20
-9.78623210254702
30
0
41
1
10
17.4678910860358
20
-9.76374472117962
30
0
41
1
10
17.6162827312461
20
-9.72778415307454
30
0
41
1
10
17.6915576382962
20
-9.71419920510576
30
0
41
1
10
17.8442808406615
20
-9.69591092296062
30
0
41
1
10
17.9223251276466
20
-9.69122961809302
30
0
41
1
10
18.1544844937104
20
-9.69119535969492
30
0
41
1
10
18.3067484933097
20
-9.70925319622148
30
0
41
1
10
18.5313589827356
20
-9.76350319150171
30
0
41
1
10
18.6050493248182
20
-9.7861088595844
30
0
41
1
10
18.7469515376954
20
-9.83911982422705
30
0
41
1
10
18.8156513935594
20
-9.86963601976692
30
0
41
1
10
18.948549513957
20
-9.9386281378367
30
0
41
1
10
19.0131772833803
20
-9.97741432586548
30
0
41
1
10
19.1354418375882
20
-10.0616878190054
30
0
41
1
10
19.2503218625078
20
-10.1521975379717
30
0
41
1
10
19.3508423394487
20
-10.2546826145989
30
0
41
1
10
19.444004405225
20
-10.3632267588941
30
0
41
1
10
19.4868106496062
20
-10.420505217205
30
0
41
1
10
19.525
20
-10.479770351525
30
0
0
SPLINE
5
11C
100
AcDbEntity
8
1
62
256
6
ByLayer
370
18
48
1
60
0
100
AcDbSpline
70
4
71
3
72
100
73
96
40
0
40
0
40
0
40
0
40
0.0312500000000004
40
0.0312500000000004
40
0.0625000000000007
40
0.0625000000000007
40
0.0781250000000009
40
0.0781250000000009
40
0.0937500000000011
40
0.0937500000000011
40
0.125000000000002
40
0.125000000000002
40
0.140625000000002
40
0.140625000000002
40
0.156250000000002
40
0.156250000000002
40
0.187500000000002
40
0.187500000000002
40
0.203125000000001
40
0.203125000000001
40
0.218750000000001
40
0.218750000000001
40
0.25
40
0.25
40
0.265625000000001
40
0.265625000000001
40
0.281250000000001
40
0.281250000000001
40
0.312500000000001
40
0.312500000000001
40
0.328125000000001
40
0.328125000000001
40
0.343750000000001
40
0.343750000000001
40
0.375000000000002
40
0.375000000000002
40
0.390625000000002
40
0.390625000000002
40
0.406250000000002
40
0.406250000000002
40
0.437500000000003
40
0.437500000000003
40
0.453125000000003
40
0.453125000000003
40
0.468750000000003
40
0.468750000000003
40
0.500000000000004
40
0.500000000000004
40
0.515625000000004
40
0.515625000000004
40
0.531250000000004
40
0.531250000000004
40
0.562500000000004
40
0.562500000000004
40
0.578125000000004
40
0.578125000000004
40
0.593750000000004
40
0.593750000000004
40
0.625000000000003
40
0.625000000000003
40
0.656250000000003
40
0.656250000000003
40
0.671875000000002
40
0.671875000000002
40
0.687500000000002
40
0.687500000000002
40
0.718750000000001
40
0.718750000000001
40
0.734375000000001
40
0.734375000000001
40
0.750000000000001
40
0.750000000000001
40
0.765625000000001
40
0.765625000000001
40
0.773437500000001
40
0.773437500000001
40
0.781250000000001
40
0.781250000000001
40
0.812500000000001
40
0.812500000000001
40
0.828125000000001
40
0.828125000000001
40
0.843750000000001
40
0.843750000000001
40
0.859375000000001
40
0.859375000000001
40
0.875
40
0.875
40
0.90625
40
0.90625
40
0.9375
40
0.9375
40
0.96875
40
0.96875
40
1
40
1
40
1
40
1
41
1
10
26.95
20
-19.9284819007485
30
0
41
1
10
27.0946049193612
20
-20.0013519606175
30
0
41
1
10
27.2613631096384
20
-20.0663122564054
30
0
41
1
10
27.6407091220552
20
-20.1818315253697
30
0
41
1
10
27.8479914898956
20
-20.2308543448739
30
0
41
1
10
28.184607070983
20
-20.2941582218489
30
0
41
1
10
28.3011157221079
20
-20.3135424212319
30
0
41
1
10
28.5428813547686
20
-20.3492306803975
30
0
41
1
10
28.6684535284612
20
-20.3655704174168
30
0
41
1
10
29.0567426666809
20
-20.4101609323292
30
0
41
1
10
29.3257505567183
20
-20.433492509237
30
0
41
1
10
29.7439173408573
20
-20.4612307267745
30
0
41
1
10
29.8857625719616
20
-20.4692517093373
30
0
41
1
10
30.1744361995187
20
-20.4830666518038
30
0
41
1
10
30.3219358916045
20
-20.4888802547564
30
0
41
1
10
30.7671071323415
20
-20.503009302229
30
0
41
1
10
31.0652640464026
20
-20.5080562784934
30
0
41
1
10
31.5144967820689
20
-20.5098353216046
30
0
41
1
10
31.664575872848
20
-20.5094479945463
30
0
41
1
10
31.9654159777464
20
-20.5066621772322
30
0
41
1
10
32.1169173201232
20
-20.504242894599
30
0
41
1
10
32.5653811856454
20
-20.493893144743
30
0
41
1
10
32.8569063728817
20
-20.4829687209664
30
0
41
1
10
33.2832910141906
20
-20.459568959952
30
0
41
1
10
33.4235916350021
20
-20.4505868940078
30
0
41
1
10
33.700458341309
20
-20.4299235166838
30
0
41
1
10
33.837537207797
20
-20.4181802469895
30
0
41
1
10
34.2355835905619
20
-20.3789918453336
30
0
41
1
10
34.4855047376184
20
-20.3475250293269
30
0
41
1
10
34.8377616979096
20
-20.2902229836334
30
0
41
1
10
34.9513897814728
20
-20.2694284536451
30
0
41
1
10
35.1709151844805
20
-20.223961089037
30
0
41
1
10
35.2769115308049
20
-20.1992267273667
30
0
41
1
10
35.577129904929
20
-20.1200129215935
30
0
41
1
10
35.7559121692088
20
-20.0601356157162
30
0
41
1
10
35.9931887359556
20
-19.9576917239724
30
0
41
1
10
36.067106314036
20
-19.9214330915478
30
0
41
1
10
36.2044924447093
20
-19.8442693462802
30
0
41
1
10
36.267707918454
20
-19.8034504754879
30
0
41
1
10
36.4385871892567
20
-19.6758739839831
30
0
41
1
10
36.528839342279
20
-19.5833384853458
30
0
41
1
10
36.6306700118648
20
-19.4322863564084
30
0
41
1
10
36.6589958857477
20
-19.3798916580698
30
0
41
1
10
36.704438153719
20
-19.2708066454073
30
0
41
1
10
36.7213800530517
20
-19.2144455356096
30
0
41
1
10
36.755241866097
20
-19.0414221935073
30
0
41
1
10
36.7555628166307
20
-18.9202108013665
30
0
41
1
10
36.7247195796659
20
-18.7296340378142
30
0
41
1
10
36.7091921259417
20
-18.6646480434902
30
0
41
1
10
36.6676941359496
20
-18.5317556104699
30
0
41
1
10
36.6417383047843
20
-18.4640112304226
30
0
41
1
10
36.5496941526039
20
-18.2593991744402
30
0
41
1
10
36.4692675558442
20
-18.1202575245144
30
0
41
1
10
36.321218295936
20
-17.9082278743522
30
0
41
1
10
36.2672766474966
20
-17.8370004468282
30
0
41
1
10
36.1501228370709
20
-17.6936064050684
30
0
41
1
10
36.0866701141947
20
-17.6211893873756
30
0
41
1
10
35.8839067436336
20
-17.4048395905261
30
0
41
1
10
35.7328103165694
20
-17.2621876188144
30
0
41
1
10
35.3986532593139
20
-16.9821736165103
30
0
41
1
10
35.2156164228254
20
-16.8447914793906
30
0
41
1
10
34.9146471394382
20
-16.6451326111253
30
0
41
1
10
34.8094301232124
20
-16.5793969347846
30
0
41
1
10
34.5919556136265
20
-16.4521800381689
30
0
41
1
10
34.4798213548674
20
-16.3907310122281
30
0
41
1
10
34.1328085224046
20
-16.2136903177994
30
0
41
1
10
33.8874399471861
20
-16.1053049129278
30
0
41
1
10
33.4948382561052
20
-15.9619606311617
30
0
41
1
10
33.3591345582338
20
-15.9172270595451
30
0
41
1
10
33.0838128311753
20
-15.8368169073287
30
0
41
1
10
32.9439022593671
20
-15.8009829264752
30
0
41
1
10
32.6593901293705
20
-15.7387143811098
30
0
41
1
10
32.5147890857669
20
-15.7122788869752
30
0
41
1
10
32.2941486617028
20
-15.680283498283
30
0
41
1
10
32.2199778589964
20
-15.6708959713788
30
0
41
1
10
32.0703399994821
20
-15.6547951800303
30
0
41
1
10
31.9946934911862
20
-15.6480771212652
30
0
41
1
10
31.6179577996781
20
-15.6217669365462
30
0
41
1
10
31.3181461328864
20
-15.623510329809
30
0
41
1
10
30.8707263989793
20
-15.6592979323313
30
0
41
1
10
30.7216111216397
20
-15.6768230408886
30
0
41
1
10
30.4256857181295
20
-15.7226665885497
30
0
41
1
10
30.2808411588923
20
-15.7506452432495
30
0
41
1
10
29.9968968960431
20
-15.8156990071636
30
0
41
1
10
29.857798340725
20
-15.8527757897152
30
0
41
1
10
29.5850093660923
20
-15.9352133671496
30
0
41
1
10
29.45098018268
20
-15.9807039926184
30
0
41
1
10
29.0589165337133
20
-16.1277795984652
30
0
41
1
10
28.8153181259055
20
-16.2380134682215
30
0
41
1
10
28.3579024832069
20
-16.4761792132419
30
0
41
1
10
28.1441362823381
20
-16.6041585869597
30
0
41
1
10
27.7442873860987
20
-16.873816691354
30
0
41
1
10
27.5624642122575
20
-17.012608241967
30
0
41
1
10
27.2316868561807
20
-17.2946264382626
30
0
41
1
10
27.0827126871394
20
-17.4379067074512
30
0
41
1
10
26.95
20
-17.5823948633722
30
0
0
SPLINE
5
11D
100
AcDbEntity
8
1
62
256
6
ByLayer
370
18
48
1
60
0
100
AcDbSpline
70
4
71
3
72
8
73
4
40
0
40
0
40
0
40
0
40
1
40
1
40
1
40
1
41
1
10
19.925
20
15.5850288738905
30
0
41
1
10
19.925
20
15.5048018720275
30
0
41
1
10
19.9133365447271
20
15.4263835960527
30
0
41
1
10
19.8885525837917
20
15.35
30
0
0
SPLINE
5
11E
100
AcDbEntity
8
1
62
256
6
ByLayer
370
18
48
1
60
0
100
AcDbSpline
70
4
71
3
72
18
73
14
40
0
40
0
40
0
40
0
40
0.0624999999999959
40
0.0624999999999959
40
0.124999999999992
40
0.124999999999992
40
0.249999999999991
40
0.249999999999991
40
0.499999999999994
40
0.499999999999994
40
0.749999999999997
40
0.749999999999997
40
1
40
1
40
1
40
1
41
1
10
19.525
20
20.9
30
0
41
1
10
19.5505177245639
20
20.9
30
0
41
1
10
19.5742747739212
20
20.9
30
0
41
1
10
19.6142642665795
20
20.9
30
0
41
1
10
19.6309877895017
20
20.9
30
0
41
1
10
19.6755097291803
20
20.9
30
0
41
1
10
19.6981207692574
20
20.9
30
0
41
1
10
19.7573600545246
20
20.9
30
0
41
1
10
19.785809745859
20
20.9
30
0
41
1
10
19.8336305070041
20
20.9
30
0
41
1
10
19.8524793178426
20
20.9
30
0
41
1
10
19.8834907833552
20
20.9
30
0
41
1
10
19.8955582407618
20
20.9
30
0
41
1
10
19.9046466263386
20
20.9
30
0
0
SPLINE
5
11F
100
AcDbEntity
8
1
62
256
6
ByLayer
370
18
48
1
60
0
100
AcDbSpline
70
4
71
3
72
32
73
28
40
0
40
0
40
0
40
0
40
0.124999999999998
40
0.124999999999998
40
0.187499999999997
40
0.187499999999997
40
0.249999999999997
40
0.312499999999997
40
0.312499999999997
40
0.374999999999996
40
0.374999999999996
40
0.437499999999996
40
0.437499999999996
40
0.499999999999995
40
0.499999999999995
40
0.624999999999995
40
0.624999999999995
40
0.687499999999996
40
0.687499999999996
40
0.749999999999996
40
0.749999999999996
40
0.812499999999997
40
0.812499999999997
40
0.874999999999998
40
0.937499999999999
40
0.937499999999999
40
1
40
1
40
1
40
1
41
1
10
19.525
20
10.479770351525
30
0
41
1
10
19.4486208109124
20
10.3612393251041
30
0
41
1
10
19.3561709247325
20
10.253461821091
30
0
41
1
10
19.1940797261
20
10.1079105346751
30
0
41
1
10
19.1356514749337
20
10.0618582204067
30
0
41
1
10
19.0138024594151
20
9.97781951452458
30
0
41
1
10
18.8865823280216
20
9.90133669142969
30
0
41
1
10
18.7487926284898
20
9.83986151865128
30
0
41
1
10
18.6055212278079
20
9.78623210254702
30
0
41
1
10
18.5321089139642
20
9.76374472117962
30
0
41
1
10
18.383717268754
20
9.72778415307454
30
0
41
1
10
18.3084423617038
20
9.71419920510576
30
0
41
1
10
18.1557191593385
20
9.69591092296062
30
0
41
1
10
18.0776748723534
20
9.69122961809302
30
0
41
1
10
17.8455155062896
20
9.69119535969492
30
0
41
1
10
17.6932515066903
20
9.70925319622148
30
0
41
1
10
17.4686410172643
20
9.76350319150171
30
0
41
1
10
17.3949506751818
20
9.7861088595844
30
0
41
1
10
17.2530484623046
20
9.83911982422705
30
0
41
1
10
17.1843486064407
20
9.86963601976692
30
0
41
1
10
17.051450486043
20
9.9386281378367
30
0
41
1
10
16.9868227166197
20
9.97741432586548
30
0
41
1
10
16.8645581624118
20
10.0616878190054
30
0
41
1
10
16.7496782254066
20
10.1521978396918
30
0
41
1
10
16.6491576605513
20
10.2546826145989
30
0
41
1
10
16.555995594775
20
10.3632267588941
30
0
41
1
10
16.5131893503938
20
10.420505217205
30
0
41
1
10
16.475
20
10.479770351525
30
0
0
SPLINE
5
120
100
AcDbEntity
8
1
62
256
6
ByLayer
370
13
48
1
60
0
100
AcDbSpline
70
4
71
3
72
18
73
14
40
0
40
0
40
0
40
0
40
0.125009495183788
40
0.125009495183788
40
0.250018990367576
40
0.250018990367576
40
0.500037980735152
40
0.500037980735152
40
0.750056971102728
40
0.750056971102728
40
0.875066466286517
40
0.875066466286517
40
1
40
1
40
1
40
1
41
1
10
26.95
20
-19.9390804597701
30
0
41
1
10
26.95
20
-20.006815830112
30
0
41
1
10
26.9425061249638
20
-20.0702937290791
30
0
41
1
10
26.9173325485863
20
-20.1883207137732
30
0
41
1
10
26.8996165382744
20
-20.2429717345671
30
0
41
1
10
26.8362291357701
20
-20.3941669809015
30
0
41
1
10
26.7802186215516
20
-20.4779814462254
30
0
41
1
10
26.6641395459314
20
-20.6125613501745
30
0
41
1
10
26.6035947757104
20
-20.6633287108248
30
0
41
1
10
26.5330679396757
20
-20.7146642826401
30
0
41
1
10
26.5131051986324
20
-20.7276325619119
30
0
41
1
10
26.4851447266265
20
-20.7451591908518
30
0
41
1
10
26.4772528207559
20
-20.7497221452859
30
0
41
1
10
26.4768034850752
20
-20.7499877032901
30
0
0
SPLINE
5
121
100
AcDbEntity
8
1
62
256
6
ByLayer
370
18
48
1
60
0
100
AcDbSpline
70
4
71
3
72
32
73
28
40
0
40
0
40
0
40
0
40
0.124999999999999
40
0.124999999999999
40
0.187499999999999
40
0.187499999999999
40
0.249999999999998
40
0.312499999999998
40
0.312499999999998
40
0.374999999999997
40
0.374999999999997
40
0.437499999999997
40
0.437499999999997
40
0.499999999999996
40
0.499999999999996
40
0.624999999999995
40
0.624999999999995
40
0.687499999999996
40
0.687499999999996
40
0.749999999999996
40
0.749999999999996
40
0.812499999999997
40
0.812499999999997
40
0.874999999999998
40
0.937499999999999
40
0.937499999999999
40
1
40
1
40
1
40
1
41
1
10
16.475
20
-4.17453628219747
30
0
41
1
10
16.5513791890876
20
-4.04132817002872
30
0
41
1
10
16.6438290752675
20
-3.92065626029901
30
0
41
1
10
16.8059202739
20
-3.75808615373535
30
0
41
1
10
16.8643485250663
20
-3.7067245369218
30
0
41
1
10
16.9861975405849
20
-3.61309955868782
30
0
41
1
10
17.1134176719784
20
-3.52800136949188
30
0
41
1
10
17.2512073715102
20
-3.45973252644615
30
0
41
1
10
17.3944787721922
20
-3.40021429749982
30
0
41
1
10
17.4678910860358
20
-3.37527920278427
30
0
41
1
10
17.6162827312461
20
-3.33541929873371
30
0
41
1
10
17.6915576382962
20
-3.32037056032402
30
0
41
1
10
17.8442808406615
20
-3.30011432902683
30
0
41
1
10
17.9223251276466
20
-3.29493121908578
30
0
41
1
10
18.1544844937104
20
-3.29489328384423
30
0
41
1
10
18.3067484933097
20
-3.31487921708489
30
0
41
1
10
18.5313589827356
20
-3.37501135764924
30
0
41
1
10
18.6050493248182
20
-3.40007775804838
30
0
41
1
10
18.7469515376954
20
-3.45890915732372
30
0
41
1
10
18.8156513935594
20
-3.49279698021456
30
0
41
1
10
18.948549513957
20
-3.56949378883473
30
0
41
1
10
19.0131772833803
20
-3.6126484033191
30
0
41
1
10
19.1354418375882
20
-3.70653444655073
30
0
41
1
10
19.2503218625078
20
-3.80747852100546
30
0
41
1
10
19.3508423394487
20
-3.92209028558392
30
0
41
1
10
19.444004405225
20
-4.04367670461568
30
0
41
1
10
19.4868106496062
20
-4.10793265191961
30
0
41
1
10
19.525
20
-4.17453628219747
30
0
0
SPLINE
5
122
100
AcDbEntity
8
1
62
256
6
ByLayer
370
18
48
1
60
0
100
AcDbSpline
70
4
71
3
72
32
73
28
40
0
40
0
40
0
40
0
40
0.124999999999999
40
0.124999999999999
40
0.187499999999999
40
0.187499999999999
40
0.249999999999998
40
0.312499999999998
40
0.312499999999998
40
0.374999999999997
40
0.374999999999997
40
0.437499999999997
40
0.437499999999997
40
0.499999999999996
40
0.499999999999996
40
0.624999999999995
40
0.624999999999995
40
0.687499999999996
40
0.687499999999996
40
0.749999999999997
40
0.749999999999997
40
0.812499999999997
40
0.812499999999997
40
0.874999999999998
40
0.937499999999999
40
0.937499999999999
40
1
40
1
40
1
40
1
41
1
10
16.475
20
5.84392864620977
30
0
41
1
10
16.5513791890876
20
5.97460236396367
30
0
41
1
10
16.6438290752675
20
6.09238864570085
30
0
41
1
10
16.8059202739
20
6.2505531622206
30
0
41
1
10
16.8643485250663
20
6.3004236698406
30
0
41
1
10
16.9861975405849
20
6.3911956449339
30
0
41
1
10
17.1134176719784
20
6.47355691318805
30
0
41
1
10
17.2512073715102
20
6.53945690516528
30
0
41
1
10
17.3944787721922
20
6.59685989010512
30
0
41
1
10
17.4678910860358
20
6.62088030708276
30
0
41
1
10
17.6162827312461
20
6.65925830047002
30
0
41
1
10
17.6915576382962
20
6.67373526368541
30
0
41
1
10
17.8442808406615
20
6.69321837390484
30
0
41
1
10
17.9223251276466
20
6.69820109096796
30
0
41
1
10
18.1544844937104
20
6.6982375655939
30
0
41
1
10
18.3067484933097
20
6.67903440589092
30
0
41
1
10
18.5313589827356
20
6.62113836063182
30
0
41
1
10
18.6050493248182
20
6.59699126423197
30
0
41
1
10
18.7469515376954
20
6.54025131994524
30
0
41
1
10
18.8156513935594
20
6.50754034712989
30
0
41
1
10
18.948549513957
20
6.43339857587733
30
0
41
1
10
19.0131772833803
20
6.39163271869103
30
0
41
1
10
19.1354418375882
20
6.30060829908146
30
0
41
1
10
19.2503217745935
20
6.20259533995363
30
0
41
1
10
19.3508423394487
20
6.0909007652379
30
0
41
1
10
19.444004405225
20
5.97214816666522
30
0
41
1
10
19.4868106496062
20
5.90926508738153
30
0
41
1
10
19.525
20
5.84392864620977
30
0
0
SPLINE
5
123
100
AcDbEntity
8
1
62
256
6
ByLayer
370
18
48
1
60
0
100
AcDbSpline
70
4
71
3
72
32
73
28
40
0
40
0
40
0
40
0
40
0.125
40
0.125
40
0.1875
40
0.1875
40
0.249999999999999
40
0.312499999999998
40
0.312499999999998
40
0.374999999999998
40
0.374999999999998
40
0.437499999999997
40
0.437499999999997
40
0.499999999999997
40
0.499999999999997
40
0.624999999999995
40
0.624999999999995
40
0.687499999999996
40
0.687499999999996
40
0.749999999999997
40
0.749999999999997
40
0.812499999999998
40
0.812499999999998
40
0.874999999999998
40
0.937499999999999
40
0.937499999999999
40
1
40
1
40
1
40
1
41
1
10
19.525
20
4.17453628219747
30
0
41
1
10
19.4486208109124
20
4.04132817002875
30
0
41
1
10
19.3561709247325
20
3.92065626029901
30
0
41
1
10
19.1940797261
20
3.75808615373535
30
0
41
1
10
19.1356514749337
20
3.70672453692183
30
0
41
1
10
19.0138024594151
20
3.61309955868782
30
0
41
1
10
18.8865823280216
20
3.52800136949188
30
0
41
1
10
18.7487926284898
20
3.45973252644617
30
0
41
1
10
18.6055212278079
20
3.40021429749982
30
0
41
1
10
18.5321089139642
20
3.3752792027843
30
0
41
1
10
18.3837172687539
20
3.33541929873371
30
0
41
1
10
18.3084423617038
20
3.32037056032405
30
0
41
1
10
18.1557191593385
20
3.30011432902683
30
0
41
1
10
18.0776748723534
20
3.29493121908581
30
0
41
1
10
17.8455155062896
20
3.29489328384423
30
0
41
1
10
17.6932515066903
20
3.31487921708492
30
0
41
1
10
17.4686410172644
20
3.37501135764927
30
0
41
1
10
17.3949506751818
20
3.40007775804838
30
0
41
1
10
17.2530484623046
20
3.45890915732374
30
0
41
1
10
17.1843486064406
20
3.49279698021459
30
0
41
1
10
17.051450486043
20
3.56949378883476
30
0
41
1
10
16.9868227166197
20
3.61264840331913
30
0
41
1
10
16.8645581624118
20
3.70653444655076
30
0
41
1
10
16.7496781374922
20
3.80747852100549
30
0
41
1
10
16.6491576605513
20
3.92209028558395
30
0
41
1
10
16.555995594775
20
4.04367670461571
30
0
41
1
10
16.5131893503938
20
4.10793265191964
30
0
41
1
10
16.475
20
4.17453628219749
30
0
0
SPLINE
5
124
100
AcDbEntity
8
1
62
256
6
ByLayer
370
18
48
1
60
0
100
AcDbSpline
70
4
71
3
72
24
73
20
40
0
40
0
40
0
40
0
40
0.125000000000001
40
0.125000000000001
40
0.250000000000001
40
0.250000000000001
40
0.312500000000001
40
0.312500000000001
40
0.375000000000002
40
0.375000000000002
40
0.500000000000001
40
0.500000000000001
40
0.625000000000001
40
0.625000000000001
40
0.750000000000001
40
0.750000000000001
40
0.875
40
0.875
40
1
40
1
40
1
40
1
41
1
10
26.95
20
-19.9284819007485
30
0
41
1
10
26.8266865505489
20
-19.8663411486646
30
0
41
1
10
26.7183003080603
20
-19.8210883641863
30
0
41
1
10
26.5339302832806
20
-19.7373367310603
30
0
41
1
10
26.4579094717563
20
-19.6992077637276
30
0
41
1
10
26.3695166380187
20
-19.6290727768259
30
0
41
1
10
26.3443412091889
20
-19.6034413156322
30
0
41
1
10
26.3032601261689
20
-19.5456249763655
30
0
41
1
10
26.28722166653
20
-19.5133387520093
30
0
41
1
10
26.2518345660384
20
-19.4032076008726
30
0
41
1
10
26.2451692312781
20
-19.3113345778345
30
0
41
1
10
26.261442359029
20
-19.089051323946
30
0
41
1
10
26.2838972878249
20
-18.9630360864047
30
0
41
1
10
26.3520464155747
20
-18.6952713711603
30
0
41
1
10
26.3978172905423
20
-18.5536005808337
30
0
41
1
10
26.5125215830785
20
-18.2664144351673
30
0
41
1
10
26.5816796117666
20
-18.1204124198879
30
0
41
1
10
26.744856429828
20
-17.839442510607
30
0
41
1
10
26.8387282196159
20
-17.7035396815527
30
0
41
1
10
26.95
20
-17.5823948633722
30
0
0
SPLINE
5
125
100
AcDbEntity
8
1
62
256
6
ByLayer
370
18
48
1
60
0
100
AcDbSpline
70
4
71
3
72
8
73
4
40
0
40
0
40
0
40
0
40
1
40
1
40
1
40
1
41
1
10
25.9508749149506
20
15.35
30
0
41
1
10
25.9502921341966
20
15.3696896120202
30
0
41
1
10
25.95
20
15.3893899925894
30
0
41
1
10
25.95
20
15.4090882274066
30
0
0
SPLINE
5
126
100
AcDbEntity
8
SK1
62
256
6
ByLayer
370
18
48
1
60
0
100
AcDbSpline
70
4
71
3
72
22
73
18
40
0
40
0
40
0
40
0
40
0.249999999999999
40
0.249999999999999
40
0.499999999999999
40
0.499999999999999
40
0.625
40
0.625
40
0.750000000000002
40
0.750000000000002
40
0.875000000000003
40
0.875000000000003
40
0.937500000000003
40
0.937500000000003
40
0.968750000000002
40
0.968750000000002
40
1
40
1
40
1
40
1
41
1
10
-23.7499999999985
20
-16.2139289192198
30
0
41
1
10
-23.5070144314101
20
-16.2088443977257
30
0
41
1
10
-23.2644431885848
20
-16.2025670376277
30
0
41
1
10
-22.7805671809428
20
-16.1863503108052
30
0
41
1
10
-22.5391164930492
20
-16.1764720646716
30
0
41
1
10
-22.1791814184769
20
-16.1567831901494
30
0
41
1
10
-22.059585328457
20
-16.1493967258177
30
0
41
1
10
-21.8215655094456
20
-16.1320944028714
30
0
41
1
10
-21.7031025151358
20
-16.1222178084648
30
0
41
1
10
-21.4691010620245
20
-16.0980688675128
30
0
41
1
10
-21.3528596496349
20
-16.083984394902
30
0
41
1
10
-21.1861972761073
20
-16.055160799642
30
0
41
1
10
-21.1318540911733
20
-16.0443086153225
30
0
41
1
10
-21.0547125229635
20
-16.0235348588154
30
0
41
1
10
-21.0297113432393
20
-16.0158143685097
30
0
41
1
10
-20.9842011012711
20
-15.9980615041357
30
0
41
1
10
-20.9631090084393
20
-15.9878891033125
30
0
41
1
10
-20.9474880448678
20
-15.9755955275683
30
0
0
SPLINE
5
127
100
AcDbEntity
8
1
62
256
6
ByLayer
370
18
48
1
60
0
100
AcDbSpline
70
4
71
3
72
18
73
14
40
0
40
0
40
0
40
0
40
0.249999999999999
40
0.249999999999999
40
0.375
40
0.375
40
0.500000000000001
40
0.500000000000001
40
0.75
40
0.75
40
0.875
40
0.875
40
1
40
1
40
1
40
1
41
1
10
19.525
20
-10.479770351525
30
0
41
1
10
19.5987845402596
20
-10.5942748048381
30
0
41
1
10
19.6554136638246
20
-10.7267704148194
30
0
41
1
10
19.7117895459884
20
-10.9264204261267
30
0
41
1
10
19.726013122535
20
-10.9935152926514
30
0
41
1
10
19.7451798568556
20
-11.1271117714894
30
0
41
1
10
19.7500786426658
20
-11.1942300136031
30
0
41
1
10
19.7498397826116
20
-11.3868375726642
30
0
41
1
10
19.7306156768468
20
-11.5038628813236
30
0
41
1
10
19.6735340853405
20
-11.673005615567
30
0
41
1
10
19.6498442942942
20
-11.7279483582815
30
0
41
1
10
19.5940026895941
20
-11.8359659824523
30
0
41
1
10
19.5617612950983
20
-11.8892884626006
30
0
41
1
10
19.525
20
-11.9436072614952
30
0
0
SPLINE
5
128
100
AcDbEntity
8
1
62
256
6
ByLayer
370
18
48
1
60
0
100
AcDbSpline
70
4
71
3
72
22
73
18
40
0
40
0
40
0
40
0
40
0.25
40
0.25
40
0.5
40
0.5
40
0.625
40
0.625
40
0.75
40
0.75
40
0.875000000000001
40
0.875000000000001
40
0.937500000000003
40
0.937500000000003
40
0.968750000000001
40
0.968750000000001
40
1
40
1
40
1
40
1
41
1
10
19.9250050005
20
-20.9
30
0
41
1
10
19.9249949995
20
-20.9
30
0
41
1
10
19.9190541572673
20
-20.9
30
0
41
1
10
19.8960649341763
20
-20.9
30
0
41
1
10
19.8790976950769
20
-20.9
30
0
41
1
10
19.8431736176128
20
-20.9
30
0
41
1
10
19.8294627160862
20
-20.9
30
0
41
1
10
19.7973542975415
20
-20.9
30
0
41
1
10
19.7790440287712
20
-20.9
30
0
41
1
10
19.7348804581522
20
-20.9
30
0
41
1
10
19.7094245331839
20
-20.9
30
0
41
1
10
19.6582483088821
20
-20.9
30
0
41
1
10
19.6388567578743
20
-20.9
30
0
41
1
10
19.6024934472772
20
-20.9
30
0
41
1
10
19.589032444828
20
-20.9
30
0
41
1
10
19.5592080262388
20
-20.9
30
0
41
1
10
19.5423246421311
20
-20.9
30
0
41
1
10
19.525
20
-20.9
30
0
0
SPLINE
5
129
100
AcDbEntity
8
1
62
256
6
ByLayer
370
18
48
1
60
0
100
AcDbSpline
70
4
71
3
72
18
73
14
40
0
40
0
40
0
40
0
40
0.25
40
0.25
40
0.375000000000001
40
0.375000000000001
40
0.500000000000003
40
0.500000000000003
40
0.750000000000002
40
0.750000000000002
40
0.875000000000001
40
0.875000000000001
40
1
40
1
40
1
40
1
41
1
10
19.525
20
11.9436072614952
30
0
41
1
10
19.5987845402596
20
11.834582604089
30
0
41
1
10
19.6554136638246
20
11.727157632269
30
0
41
1
10
19.7117895459884
20
11.5594149748091
30
0
41
1
10
19.726013122535
20
11.5021950344885
30
0
41
1
10
19.7451798568556
20
11.3826170257319
30
0
41
1
10
19.7500786426658
20
11.3195444630761
30
0
41
1
10
19.7498397826116
20
11.1267468125571
30
0
41
1
10
19.7306156768468
20
10.9925692412857
30
0
41
1
10
19.6735340853405
20
10.7912078479986
30
0
41
1
10
19.6498442942942
20
10.7248114735615
30
0
41
1
10
19.5940026895941
20
10.5978060567903
30
0
41
1
10
19.5617612950983
20
10.5368193211804
30
0
41
1
10
19.525
20
10.479770351525
30
0
0
SPLINE
5
12A
100
AcDbEntity
8
1
62
256
6
ByLayer
370
18
48
1
60
0
100
AcDbSpline
70
4
71
3
72
20
73
16
40
0
40
0
40
0
40
0
40
0.124999999999998
40
0.124999999999998
40
0.249999999999995
40
0.249999999999995
40
0.499999999999995
40
0.499999999999995
40
0.624999999999996
40
0.624999999999996
40
0.749999999999997
40
0.749999999999997
40
0.874999999999999
40
0.874999999999999
40
1
40
1
40
1
40
1
41
1
10
16.475
20
-11.943607261495
30
0
41
1
10
16.4379752916389
20
-11.8888992409472
30
0
41
1
10
16.4056235762383
20
-11.8353324353843
30
0
41
1
10
16.3497001597275
20
-11.7269764469036
30
0
41
1
10
16.3260388113227
20
-11.6719205430229
30
0
41
1
10
16.2692104330671
20
-11.502981660548
30
0
41
1
10
16.2499271760482
20
-11.3856712364616
30
0
41
1
10
16.2500367153818
20
-11.191372067177
30
0
41
1
10
16.2550043680155
20
-11.125349574387
30
0
41
1
10
16.2742367523723
20
-10.9922626714324
30
0
41
1
10
16.2885005092502
20
-10.9251263918808
30
0
41
1
10
16.3264053386597
20
-10.7914300096924
30
0
41
1
10
16.3501757984193
20
-10.7247474112371
30
0
41
1
10
16.4061006633774
20
-10.5975893964444
30
0
41
1
10
16.4383465929842
20
-10.5366518922602
30
0
41
1
10
16.475
20
-10.479770351525
30
0
0
SPLINE
5
12B
100
AcDbEntity
8
1
62
256
6
ByLayer
370
18
48
1
60
0
100
AcDbSpline
70
4
71
3
72
18
73
14
40
0
40
0
40
0
40
0
40
0.25
40
0.25
40
0.375
40
0.375
40
0.5
40
0.5
40
0.750000000000001
40
0.750000000000001
40
0.875000000000001
40
0.875000000000001
40
1
40
1
40
1
40
1
41
1
10
19.525
20
5.8439286462098
30
0
41
1
10
19.5987845402596
20
5.71769399638353
30
0
41
1
10
19.6554136638246
20
5.5864892094001
30
0
41
1
10
19.7117895459884
20
5.38412568892025
30
0
41
1
10
19.726013122535
20
5.31544598776213
30
0
41
1
10
19.7451798568556
20
5.17421469505433
30
0
41
1
10
19.7500786426658
20
5.10088221944085
30
0
41
1
10
19.7498397826116
20
4.8810773922516
30
0
41
1
10
19.7306156768468
20
4.73400699925278
30
0
41
1
10
19.6735340853405
20
4.51554396813631
30
0
41
1
10
19.6498442942942
20
4.44379638145594
30
0
41
1
10
19.5940026895941
20
4.30554186853936
30
0
41
1
10
19.5617612950983
20
4.23864933156884
30
0
41
1
10
19.525
20
4.17453628219747
30
0
0
SPLINE
5
12C
100
AcDbEntity
8
1
62
256
6
ByLayer
370
18
48
1
60
0
100
AcDbSpline
70
4
71
3
72
18
73
14
40
0
40
0
40
0
40
0
40
0.249999999999998
40
0.249999999999998
40
0.374999999999999
40
0.374999999999999
40
0.499999999999999
40
0.499999999999999
40
0.75
40
0.75
40
0.875
40
0.875
40
1
40
1
40
1
40
1
41
1
10
19.525
20
-4.17453628219747
30
0
41
1
10
19.5987845402596
20
-4.30321923147505
30
0
41
1
10
19.6554136638246
20
-4.44562524396014
30
0
41
1
10
19.7117895459884
20
-4.66224454298484
30
0
41
1
10
19.726013122535
20
-4.73533622897207
30
0
41
1
10
19.7451798568556
20
-4.88283078644238
30
0
41
1
10
19.7500786426658
20
-4.95797081747679
30
0
41
1
10
19.7498397826116
20
-5.17769071434748
30
0
41
1
10
19.7306156768468
20
-5.31709770603425
30
0
41
1
10
19.6735340853405
20
-5.52116587161171
30
0
41
1
10
19.6498442942942
20
-5.58779612897195
30
0
41
1
10
19.5940026895941
20
-5.71756715035048
30
0
41
1
10
19.5617612950983
20
-5.78103540058459
30
0
41
1
10
19.525
20
-5.84392864620977
30
0
0
SPLINE
5
12D
100
AcDbEntity
8
1
62
256
6
ByLayer
370
18
48
1
60
0
100
AcDbSpline
70
4
71
3
72
20
73
16
40
0
40
0
40
0
40
0
40
0.125000000000001
40
0.125000000000001
40
0.250000000000003
40
0.250000000000003
40
0.500000000000004
40
0.500000000000004
40
0.625000000000003
40
0.625000000000003
40
0.750000000000002
40
0.750000000000002
40
0.875000000000001
40
0.875000000000001
40
1
40
1
40
1
40
1
41
1
10
16.475
20
-5.84392864620963
30
0
41
1
10
16.4379752916389
20
-5.78058473868603
30
0
41
1
10
16.4056235762384
20
-5.71681217857335
30
0
41
1
10
16.3497001597275
20
-5.58662223093626
30
0
41
1
10
16.3260388113227
20
-5.51985271471071
30
0
41
1
10
16.2692104330671
20
-5.31604270278589
30
0
41
1
10
16.2499271760481
20
-5.17629627724529
30
0
41
1
10
16.2500367153818
20
-4.95474339113557
30
0
41
1
10
16.2550043680155
20
-4.88087094021375
30
0
41
1
10
16.2742367523723
20
-4.7339679530412
30
0
41
1
10
16.2885005092502
20
-4.66083608382584
30
0
41
1
10
16.3264053386597
20
-4.51578513804327
30
0
41
1
10
16.3501757984193
20
-4.44372743184275
30
0
41
1
10
16.4061006633774
20
-4.30530522963647
30
0
41
1
10
16.4383465929841
20
-4.23846117078904
30
0
41
1
10
16.475
20
-4.17453628219747
30
0
0
SPLINE
5
12E
100
AcDbEntity
8
1
62
256
6
ByLayer
370
18
48
1
60
0
100
AcDbSpline
70
4
71
3
72
20
73
16
40
0
40
0
40
0
40
0
40
0.125
40
0.125
40
0.25
40
0.25
40
0.500000000000001
40
0.500000000000001
40
0.625
40
0.625
40
0.75
40
0.75
40
0.875
40
0.875
40
1
40
1
40
1
40
1
41
1
10
16.475
20
4.17453628219741
30
0
41
1
10
16.4379752916389
20
4.23910873397767
30
0
41
1
10
16.4056235762384
20
4.30633865744636
30
0
41
1
10
16.3497001597275
20
4.4450546705998
30
0
41
1
10
16.3260388113227
20
4.51695466570567
30
0
41
1
10
16.2692104330671
20
4.73512646548636
30
0
41
1
10
16.2499271760481
20
4.88255469085891
30
0
41
1
10
16.2500367153818
20
5.10406862841859
30
0
41
1
10
16.2550043680155
20
5.17611038307743
30
0
41
1
10
16.2742367523723
20
5.31673665805974
30
0
41
1
10
16.2885005092502
20
5.3854474666083
30
0
41
1
10
16.3264053386597
20
5.5209404031763
30
0
41
1
10
16.3501757984193
20
5.58785978583461
30
0
41
1
10
16.4061006633774
20
5.71779033300876
30
0
41
1
10
16.4383465929841
20
5.78121998145008
30
0
41
1
10
16.475
20
5.84392864620977
30
0
0
SPLINE
5
12F
100
AcDbEntity
8
1
62
256
6
ByLayer
370
18
48
1
60
0
100
AcDbSpline
70
4
71
3
72
20
73
16
40
0
40
0
40
0
40
0
40
0.125000000000001
40
0.125000000000001
40
0.250000000000002
40
0.250000000000002
40
0.500000000000001
40
0.500000000000001
40
0.625000000000001
40
0.625000000000001
40
0.750000000000001
40
0.750000000000001
40
0.875
40
0.875
40
1
40
1
40
1
40
1
41
1
10
16.475
20
10.4797703515248
30
0
41
1
10
16.4379752916389
20
10.5372281058869
30
0
41
1
10
16.4056235762384
20
10.5985331991647
30
0
41
1
10
16.3497001597275
20
10.725972269534
30
0
41
1
10
16.3260388113227
20
10.7925112365478
30
0
41
1
10
16.2692104330671
20
10.9935947434327
30
0
41
1
10
16.2499271760481
20
11.1280986097891
30
0
41
1
10
16.2500367153818
20
11.3223106042375
30
0
41
1
10
16.2550043680155
20
11.3842356236223
30
0
41
1
10
16.2742367523723
20
11.5032739583963
30
0
41
1
10
16.2885005092502
20
11.5605149981592
30
0
41
1
10
16.3264053386597
20
11.6728185969842
30
0
41
1
10
16.3501757984193
20
11.7280005743455
30
0
41
1
10
16.4061006633774
20
11.8361525249651
30
0
41
1
10
16.4383465929841
20
11.8894478789387
30
0
41
1
10
16.475
20
11.9436072614952
30
0
0
SPLINE
5
130
100
AcDbEntity
8
1
62
256
6
ByLayer
370
18
48
1
60
0
100
AcDbSpline
70
4
71
3
72
22
73
18
40
0
40
0
40
0
40
0
40
0.25
40
0.25
40
0.5
40
0.5
40
0.624999999999999
40
0.624999999999999
40
0.749999999999998
40
0.749999999999998
40
0.874999999999996
40
0.874999999999996
40
0.937499999999998
40
0.937499999999998
40
0.968749999999999
40
0.968749999999999
40
1
40
1
40
1
40
1
41
1
10
16.0953533736614
20
20.9
30
0
41
1
10
16.1044447390831
20
20.9
30
0
41
1
10
16.1165128096909
20
20.9
30
0
41
1
10
16.1474963252049
20
20.9
30
0
41
1
10
16.1663191954391
20
20.9
30
0
41
1
10
16.2020762930789
20
20.9
30
0
41
1
10
16.2152642884143
20
20.9
30
0
41
1
10
16.2453677927007
20
20.9
30
0
41
1
10
16.2622664013147
20
20.9
30
0
41
1
10
16.3021098832957
20
20.9
30
0
41
1
10
16.3246745542283
20
20.9
30
0
41
1
10
16.3692201256513
20
20.9
30
0
41
1
10
16.3860313603294
20
20.9
30
0
41
1
10
16.4159531524705
20
20.9
30
0
41
1
10
16.4265672619871
20
20.9
30
0
41
1
10
16.4497816120616
20
20.9
30
0
41
1
10
16.462299290499
20
20.9
30
0
41
1
10
16.475
20
20.9
30
0
0
SPLINE
5
131
100
AcDbEntity
8
1
62
256
6
ByLayer
370
18
48
1
60
0
100
AcDbSpline
70
4
71
3
72
8
73
4
40
0
40
0
40
0
40
0
40
1
40
1
40
1
40
1
41
1
10
16.111447416206
20
15.35
30
0
41
1
10
16.0866634552708
20
15.4263835960528
30
0
41
1
10
16.075
20
15.5048018720276
30
0
41
1
10
16.075
20
15.5850288738905
30
0
0
SPLINE
5
132
100
AcDbEntity
8
1
62
256
6
ByLayer
370
18
48
1
60
0
100
AcDbSpline
70
4
71
3
72
22
73
18
40
0
40
0
40
0
40
0
40
0.0312912515074066
40
0.0312912515074066
40
0.0625825030148132
40
0.0625825030148132
40
0.125165006029626
40
0.125165006029626
40
0.250330012059253
40
0.250330012059253
40
0.375495018088879
40
0.375495018088879
40
0.500660024118506
40
0.500660024118506
40
0.75099003617776
40
0.75099003617776
40
1
40
1
40
1
40
1
41
1
10
16.475
20
-20.9
30
0
41
1
10
16.4574473307212
20
-20.9
30
0
41
1
10
16.4405709066304
20
-20.9
30
0
41
1
10
16.4101965969592
20
-20.9
30
0
41
1
10
16.3966259050187
20
-20.9
30
0
41
1
10
16.360068751584
20
-20.9
30
0
41
1
10
16.3406179795197
20
-20.9
30
0
41
1
10
16.2892269662463
20
-20.9
30
0
41
1
10
16.264165769675
20
-20.9
30
0
41
1
10
16.2201322650349
20
-20.9
30
0
41
1
10
16.2017804327691
20
-20.9
30
0
41
1
10
16.1698680812613
20
-20.9
30
0
41
1
10
16.1562793549472
20
-20.9
30
0
41
1
10
16.120713384254
20
-20.9
30
0
41
1
10
16.1038471509812
20
-20.9
30
0
41
1
10
16.0810127257825
20
-20.9
30
0
41
1
10
16.0750520437785
20
-20.8999999999999
30
0
41
1
10
16.0750050000005
20
-20.9000000000001
30
0
0
SPLINE
5
133
100
AcDbEntity
8
1
62
256
6
ByLayer
370
18
48
1
60
0
100
AcDbSpline
70
2053
71
3
72
88
73
84
40
0
40
0
40
0
40
0
40
0.0312500000000008
40
0.0312500000000008
40
0.0468750000000008
40
0.0468750000000008
40
0.0625000000000008
40
0.0625000000000008
40
0.0937500000000006
40
0.0937500000000006
40
0.125
40
0.125
40
0.15625
40
0.15625
40
0.171875
40
0.171875
40
0.187499999999999
40
0.203124999999999
40
0.203124999999999
40
0.218749999999998
40
0.218749999999998
40
0.249999999999998
40
0.249999999999998
40
0.281249999999998
40
0.281249999999998
40
0.312499999999998
40
0.312499999999998
40
0.328124999999998
40
0.328124999999998
40
0.343749999999998
40
0.343749999999998
40
0.374999999999998
40
0.374999999999998
40
0.406249999999998
40
0.406249999999998
40
0.421874999999998
40
0.421874999999998
40
0.437499999999998
40
0.437499999999998
40
0.468749999999998
40
0.468749999999998
40
0.499999999999998
40
0.499999999999998
40
0.531249999999998
40
0.531249999999998
40
0.546874999999998
40
0.546874999999998
40
0.562499999999997
40
0.578124999999997
40
0.578124999999997
40
0.593749999999997
40
0.593749999999997
40
0.624999999999998
40
0.624999999999998
40
0.656249999999998
40
0.656249999999998
40
0.687499999999998
40
0.687499999999998
40
0.703124999999998
40
0.703124999999998
40
0.718749999999998
40
0.718749999999998
40
0.749999999999998
40
0.749999999999998
40
0.781249999999999
40
0.781249999999999
40
0.796874999999999
40
0.796874999999999
40
0.812499999999999
40
0.812499999999999
40
0.843749999999999
40
0.843749999999999
40
0.874999999999999
40
0.874999999999999
40
0.906249999999999
40
0.906249999999999
40
0.921874999999999
40
0.921874999999999
40
0.937499999999999
40
0.937499999999999
40
0.96875
40
0.96875
40
1
40
1
40
1
40
1
41
1
10
7.5
20
12.8698051454608
30
0
41
1
10
7.61565140529308
20
12.8698051454608
30
0
41
1
10
7.72936309469512
20
12.8600560649229
30
0
41
1
10
7.89714168106582
20
12.831380850932
30
0
41
1
10
7.95259960487496
20
12.8194625053017
30
0
41
1
10
8.06255796164007
20
12.7907861638465
30
0
41
1
10
8.11720017106751
20
12.7739490726486
30
0
41
1
10
8.27613354081169
20
12.7171828000943
30
0
41
1
10
8.37663471201878
20
12.6708199889792
30
0
41
1
10
8.5668374134134
20
12.5610341842036
30
0
41
1
10
8.65686558531581
20
12.4970396010689
30
0
41
1
10
8.81824410371431
20
12.3568577047351
30
0
41
1
10
8.8906719821257
20
12.2801868340379
30
0
41
1
10
8.98662147741624
20
12.1549019853608
30
0
41
1
10
9.01640157043346
20
12.1114458776519
30
0
41
1
10
9.07038370992649
20
12.0229673791334
30
0
41
1
10
9.11915891478782
20
11.9324630231486
30
0
41
1
10
9.15767201711026
20
11.8379243337141
30
0
41
1
10
9.1909808928128
20
11.741322235897
30
0
41
1
10
9.20508830580806
20
11.691717891149
30
0
41
1
10
9.23881317622428
20
11.5418056217166
30
0
41
1
10
9.24993825761604
20
11.4409731424397
30
0
41
1
10
9.25006123474637
20
11.2375319068914
30
0
41
1
10
9.23869698506186
20
11.1338405647602
30
0
41
1
10
9.19404526679847
20
10.9324442814914
30
0
41
1
10
9.16100738695425
20
10.834211411628
30
0
41
1
10
9.09528636687247
20
10.6906656816522
30
0
41
1
10
9.07050547010962
20
10.6432115697147
30
0
41
1
10
9.01634041058023
20
10.5513843237451
30
0
41
1
10
8.98694227760652
20
10.5069012457571
30
0
41
1
10
8.89196368011301
20
10.377674700583
30
0
41
1
10
8.81966573904657
20
10.2971110099519
30
0
41
1
10
8.65638136197913
20
10.1478063572916
30
0
41
1
10
8.56792718735127
20
10.0814129886912
30
0
41
1
10
8.42583270028726
20
9.99417921484826
30
0
41
1
10
8.37686557680058
20
9.96715583950316
30
0
41
1
10
8.27565439899334
20
9.91733175438833
30
0
41
1
10
8.22320096892844
20
9.89447714100973
30
0
41
1
10
8.06420301550054
20
9.83380321817782
30
0
41
1
10
7.95512257365658
20
9.80326598483225
30
0
41
1
10
7.73085729716243
20
9.76192588839447
30
0
41
1
10
7.61485153630076
20
9.75132040646088
30
0
41
1
10
7.38640984965704
20
9.75124442491568
30
0
41
1
10
7.27286645545951
20
9.76143117895029
30
0
41
1
10
7.10358936399308
20
9.79235120220724
30
0
41
1
10
7.04733141935051
20
9.80532402013665
30
0
41
1
10
6.93765286126748
20
9.83595130837423
30
0
41
1
10
6.83016707064988
20
9.87135804664686
30
0
41
1
10
6.72699414187787
20
9.91613676231529
30
0
41
1
10
6.62600368756802
20
9.96564032529471
30
0
41
1
10
6.57635772256344
20
9.99290757993458
30
0
41
1
10
6.43266998689904
20
10.0809039183925
30
0
41
1
10
6.34450952748711
20
10.1472040266887
30
0
41
1
10
6.18301219949873
20
10.2944547037918
30
0
41
1
10
6.10906311502706
20
10.3764174654137
30
0
41
1
10
5.981835445022
20
10.549243630265
30
0
41
1
10
5.9280117001185
20
10.6402725675943
30
0
41
1
10
5.86203252609755
20
10.7836516359599
30
0
41
1
10
5.84243297045364
20
10.8328755547643
30
0
41
1
10
5.80897301705136
20
10.9319325802122
30
0
41
1
10
5.79505774932909
20
10.9817938575542
30
0
41
1
10
5.76154994226812
20
11.1323336912367
30
0
41
1
10
5.75011507112211
20
11.2339567463068
30
0
41
1
10
5.74988664019639
20
11.4397847968559
30
0
41
1
10
5.76115372040258
20
11.5410686435597
30
0
41
1
10
5.79435389362135
20
11.6895257295907
30
0
41
1
10
5.80815729265251
20
11.7384954352421
30
0
41
1
10
5.84134888231779
20
11.8353945133401
30
0
41
1
10
5.86085501446618
20
11.8835222719083
30
0
41
1
10
5.92665416341833
20
12.0233797878599
30
0
41
1
10
5.98033910388227
20
12.1114482820267
30
0
41
1
10
6.10708697102456
20
12.2775654872323
30
0
41
1
10
6.18091323326246
20
12.3560260779685
30
0
41
1
10
6.34225124134815
20
12.4963710154455
30
0
41
1
10
6.43024939905757
20
12.5591399225412
30
0
41
1
10
6.5734730103843
20
12.6421241599767
30
0
41
1
10
6.62318596364238
20
12.6679143258454
30
0
41
1
10
6.7242169227674
20
12.714611825948
30
0
41
1
10
6.77579455387118
20
12.7356829206535
30
0
41
1
10
6.93366227587967
20
12.7922078676045
30
0
41
1
10
7.0435597937429
20
12.8211246885814
30
0
41
1
10
7.26993368880909
20
12.8600551010492
30
0
41
1
10
7.38434859470692
20
12.8698051454608
30
0
41
1
10
7.5
20
12.8698051454608
30
0
0
SPLINE
5
134
100
AcDbEntity
8
1
62
256
6
ByLayer
370
18
48
1
60
0
100
AcDbSpline
70
2053
71
3
72
88
73
84
40
0
40
0
40
0
40
0
40
0.03125
40
0.03125
40
0.0468750000000001
40
0.0468750000000001
40
0.0625000000000002
40
0.0625000000000002
40
0.0937500000000007
40
0.0937500000000007
40
0.125000000000001
40
0.125000000000001
40
0.156250000000002
40
0.156250000000002
40
0.171875000000002
40
0.171875000000002
40
0.187500000000002
40
0.203125000000002
40
0.203125000000002
40
0.218750000000003
40
0.218750000000003
40
0.250000000000003
40
0.250000000000003
40
0.281250000000004
40
0.281250000000004
40
0.312500000000005
40
0.312500000000005
40
0.328125000000005
40
0.328125000000005
40
0.343750000000005
40
0.343750000000005
40
0.375000000000005
40
0.375000000000005
40
0.406250000000005
40
0.406250000000005
40
0.421875000000005
40
0.421875000000005
40
0.437500000000004
40
0.437500000000004
40
0.468750000000004
40
0.468750000000004
40
0.500000000000003
40
0.500000000000003
40
0.531250000000003
40
0.531250000000003
40
0.546875000000002
40
0.546875000000002
40
0.562500000000002
40
0.578125000000002
40
0.578125000000002
40
0.593750000000001
40
0.593750000000001
40
0.625000000000001
40
0.625000000000001
40
0.65625
40
0.65625
40
0.6875
40
0.6875
40
0.703125
40
0.703125
40
0.71875
40
0.71875
40
0.749999999999999
40
0.749999999999999
40
0.781249999999999
40
0.781249999999999
40
0.796874999999999
40
0.796874999999999
40
0.812499999999999
40
0.812499999999999
40
0.843749999999999
40
0.843749999999999
40
0.875
40
0.875
40
0.90625
40
0.90625
40
0.921875
40
0.921875
40
0.9375
40
0.9375
40
0.96875
40
0.96875
40
1
40
1
40
1
40
1
41
1
10
7.49999999999999
20
6.47158908581247
30
0
41
1
10
7.61565140529308
20
6.47158908581247
30
0
41
1
10
7.72936309469512
20
6.46059951417408
30
0
41
1
10
7.89714168106582
20
6.42829706443362
30
0
41
1
10
7.95259960487496
20
6.41487336065939
30
0
41
1
10
8.06255796164007
20
6.38258757840364
30
0
41
1
10
8.11720017106751
20
6.36363658860847
30
0
41
1
10
8.27613354081169
20
6.29977473556949
30
0
41
1
10
8.37663471201878
20
6.24765226220998
30
0
41
1
10
8.5668374134134
20
6.12440731760515
30
0
41
1
10
8.65686558531581
20
6.05264667994231
30
0
41
1
10
8.81824410371428
20
5.89573062554615
30
0
41
1
10
8.8906719821257
20
5.81003055547617
30
0
41
1
10
8.98662147741624
20
5.67027336129755
30
0
41
1
10
9.01640157043346
20
5.62184146137179
30
0
41
1
10
9.07038370992649
20
5.52333159347214
30
0
41
1
10
9.11915891478782
20
5.4226627746601
30
0
41
1
10
9.15767201711026
20
5.31772007318375
30
0
41
1
10
9.1909808928128
20
5.21060202515068
30
0
41
1
10
9.20508830580806
20
5.15565493060856
30
0
41
1
10
9.23881317622428
20
4.98977865234457
30
0
41
1
10
9.24993825761607
20
4.87844741275183
30
0
41
1
10
9.25006123474637
20
4.65431232866635
30
0
41
1
10
9.23869698506186
20
4.54032358337508
30
0
41
1
10
9.19404526679844
20
4.31939348453457
30
0
41
1
10
9.16100738695425
20
4.21186514211723
30
0
41
1
10
9.0952863668725
20
4.05503692154738
30
0
41
1
10
9.07050547010962
20
4.00324409881205
30
0
41
1
10
9.01634041058023
20
3.90311355509348
30
0
41
1
10
8.98694227760652
20
3.85465511230319
30
0
41
1
10
8.89196368011304
20
3.71399884038888
30
0
41
1
10
8.81966573904657
20
3.62647315576029
30
0
41
1
10
8.65638136197913
20
3.4644903563356
30
0
41
1
10
8.56792718735127
20
3.39257904096235
30
0
41
1
10
8.42583270028726
20
3.29818887755928
30
0
41
1
10
8.37686557680058
20
3.2689667278573
30
0
41
1
10
8.27565439899334
20
3.21511306892396
30
0
41
1
10
8.22320096892841
20
3.1904234467001
30
0
41
1
10
8.06420301550054
20
3.12490132244
30
0
41
1
10
7.95512257365658
20
3.09195679238317
30
0
41
1
10
7.73085729716243
20
3.04736720500441
30
0
41
1
10
7.61485153630076
20
3.03593501698322
30
0
41
1
10
7.38640984965704
20
3.03585309667767
30
0
41
1
10
7.27286645545951
20
3.046833772691
30
0
41
1
10
7.10358936399308
20
3.08018398739961
30
0
41
1
10
7.04733141935054
20
3.09417859391488
30
0
41
1
10
6.93765286126748
20
3.12722981221168
30
0
41
1
10
6.83016707064988
20
3.16544856603332
30
0
41
1
10
6.72699414187787
20
3.2138219233326
30
0
41
1
10
6.62600368756802
20
3.26732817845863
30
0
41
1
10
6.57635772256344
20
3.29681335770769
30
0
41
1
10
6.43266998689904
20
3.39202735827877
30
0
41
1
10
6.34450952748711
20
3.46383864133645
30
0
41
1
10
6.18301219949873
20
3.62358956669024
30
0
41
1
10
6.10906311502706
20
3.71263168136761
30
0
41
1
10
5.981835445022
20
3.90074130189225
30
0
41
1
10
5.9280117001185
20
3.99998472032215
30
0
41
1
10
5.86203252609755
20
4.15662514812018
30
0
41
1
10
5.84243297045364
20
4.21045403157655
30
0
41
1
10
5.80897301705136
20
4.31889168082816
30
0
41
1
10
5.79505774932909
20
4.37353047829674
30
0
41
1
10
5.76154994226812
20
4.53866877310386
30
0
41
1
10
5.75011507112211
20
4.65037737469908
30
0
41
1
10
5.74988664019639
20
4.87713440975287
30
0
41
1
10
5.76115372040258
20
4.98896590990969
30
0
41
1
10
5.79435389362135
20
5.15322800487624
30
0
41
1
10
5.80815729265251
20
5.20746965139043
30
0
41
1
10
5.84134888231779
20
5.3149128282447
30
0
41
1
10
5.86085501446618
20
5.36833524244369
30
0
41
1
10
5.92665416341833
20
5.52373564300686
30
0
41
1
10
5.98033910388227
20
5.62180309390737
30
0
41
1
10
6.10708697102456
20
5.80710346620853
30
0
41
1
10
6.18091323326246
20
5.89480061848374
30
0
41
1
10
6.34225124134815
20
6.05189739687228
30
0
41
1
10
6.43024939905757
20
6.12228223902309
30
0
41
1
10
6.5734730103843
20
6.21543780436235
30
0
41
1
10
6.62318596364238
20
6.24440890871651
30
0
41
1
10
6.7242169227674
20
6.29689185421998
30
0
41
1
10
6.77579455387118
20
6.32058747143501
30
0
41
1
10
6.93366227587967
20
6.38417734085715
30
0
41
1
10
7.0435597937429
20
6.4167436815184
30
0
41
1
10
7.26993368880909
20
6.46059831049658
30
0
41
1
10
7.38434859470689
20
6.47158908581247
30
0
41
1
10
7.49999999999999
20
6.47158908581247
30
0
0
SPLINE
5
135
100
AcDbEntity
8
1
62
256
6
ByLayer
370
18
48
1
60
0
100
AcDbSpline
70
4
71
3
72
8
73
4
40
0
40
0
40
0
40
0
40
1
40
1
40
1
40
1
41
1
10
14.6225009252407
20
-23.9688405800114
30
0
41
1
10
15.1084706372476
20
-23.0917826085416
30
0
41
1
10
15.592843750771
20
-22.2138549049127
30
0
41
1
10
16.075
20
-21.334719585099
30
0
0
SPLINE
5
136
100
AcDbEntity
8
1
62
256
6
ByLayer
370
18
48
1
60
0
100
AcDbSpline
70
4
71
3
72
34
73
30
40
0
40
0
40
0
40
0
40
0.125
40
0.125
40
0.187500000000001
40
0.187500000000001
40
0.218750000000001
40
0.218750000000001
40
0.25
40
0.25
40
0.375
40
0.375
40
0.40625
40
0.40625
40
0.4375
40
0.4375
40
0.5
40
0.5
40
0.625
40
0.625
40
0.6875
40
0.6875
40
0.75
40
0.75
40
0.8125
40
0.8125
40
0.875
40
0.875
40
1
40
1
40
1
40
1
41
1
10
12.95
20
-23.9688405800114
30
0
41
1
10
12.5511866236371
20
-23.9688405800114
30
0
41
1
10
12.1594607292676
20
-23.980463851584
30
0
41
1
10
11.5819722348747
20
-24.0136375302133
30
0
41
1
10
11.3911715183358
20
-24.0273218403443
30
0
41
1
10
11.1075539788174
20
-24.0515952354149
30
0
41
1
10
11.0131807220452
20
-24.060338522303
30
0
41
1
10
10.8268784361012
20
-24.0788823071742
30
0
41
1
10
10.7349579581442
20
-24.0886768579925
30
0
41
1
10
10.2813570968611
20
-24.1400490049629
30
0
41
1
10
9.93750723692696
20
-24.1888002262203
30
0
41
1
10
9.53087548182887
20
-24.2562116822257
30
0
41
1
10
9.45071894234459
20
-24.2700188383782
30
0
41
1
10
9.29277413881297
20
-24.2982087191444
30
0
41
1
10
9.21498613429654
20
-24.3125947611776
30
0
41
1
10
8.98765364034489
20
-24.356024522131
30
0
41
1
10
8.84325806550603
20
-24.385489478478
30
0
41
1
10
8.43087074020127
20
-24.4743757843422
30
0
41
1
10
8.18346539165941
20
-24.534290667328
30
0
41
1
10
7.85482102287617
20
-24.6212255623312
30
0
41
1
10
7.75367381324824
20
-24.6493822308222
30
0
41
1
10
7.56926570462002
20
-24.7030936817848
30
0
41
1
10
7.48573193325839
20
-24.7287217654243
30
0
41
1
10
7.33590248623537
20
-24.7770449707092
30
0
41
1
10
7.26960612918467
20
-24.7997409658022
30
0
41
1
10
7.15467218590149
20
-24.8417224424839
30
0
41
1
10
7.10589755968456
20
-24.8610789656855
30
0
41
1
10
6.98929044016577
20
-24.9124450465345
30
0
41
1
10
6.94999999999999
20
-24.9380196400002
30
0
41
1
10
6.94999999999999
20
-24.9542645403546
30
0
0
SPLINE
5
137
100
AcDbEntity
8
SK1
62
256
6
ByLayer
370
18
48
1
60
0
100
AcDbSpline
70
4
71
3
72
20
73
16
40
0
40
0
40
0
40
0
40
0.249999999999999
40
0.249999999999999
40
0.499999999999999
40
0.499999999999999
40
0.624999999999998
40
0.624999999999998
40
0.749999999999998
40
0.749999999999998
40
0.874999999999998
40
0.874999999999998
40
0.937499999999999
40
0.937499999999999
40
1
40
1
40
1
40
1
41
1
10
-18.7
20
-15.2633176859716
30
0
41
1
10
-18.9086244322897
20
-15.3048064156649
30
0
41
1
10
-19.1155959495686
20
-15.3485829021189
30
0
41
1
10
-19.5246334309925
20
-15.4429255237827
30
0
41
1
10
-19.7267627056781
20
-15.4934040325168
30
0
41
1
10
-20.0238130793468
20
-15.5776249075897
30
0
41
1
10
-20.121440812704
20
-15.6070638392979
30
0
41
1
10
-20.3104051654916
20
-15.6688035427046
30
0
41
1
10
-20.4020768075269
20
-15.701180544684
30
0
41
1
10
-20.5775407575758
20
-15.77015984495
30
0
41
1
10
-20.6613917212451
20
-15.8067306891156
30
0
41
1
10
-20.7781534763925
20
-15.8664210870011
30
0
41
1
10
-20.8157169875875
20
-15.8872452903072
30
0
41
1
10
-20.8856674591651
20
-15.9302715635657
30
0
41
1
10
-20.9181336165529
20
-15.9524938228453
30
0
41
1
10
-20.9474880448678
20
-15.9755955275683
30
0
0
SPLINE
5
138
100
AcDbEntity
8
1
62
256
6
ByLayer
370
18
48
1
60
0
100
AcDbSpline
70
4
71
3
72
32
73
28
40
0
40
0
40
0
40
0
40
0.125
40
0.125
40
0.187499999999999
40
0.187499999999999
40
0.249999999999999
40
0.312499999999998
40
0.312499999999998
40
0.374999999999997
40
0.374999999999997
40
0.437499999999997
40
0.437499999999997
40
0.499999999999996
40
0.499999999999996
40
0.624999999999995
40
0.624999999999995
40
0.687499999999996
40
0.687499999999996
40
0.749999999999997
40
0.749999999999997
40
0.812499999999997
40
0.812499999999997
40
0.874999999999998
40
0.937499999999999
40
0.937499999999999
40
1
40
1
40
1
40
1
41
1
10
19.525
20
-5.84392864620977
30
0
41
1
10
19.4486208109124
20
-5.97460236396367
30
0
41
1
10
19.3561709247325
20
-6.09238864570085
30
0
41
1
10
19.1940797261
20
-6.2505531622206
30
0
41
1
10
19.1356514749337
20
-6.3004236698406
30
0
41
1
10
19.0138024594151
20
-6.39119564493387
30
0
41
1
10
18.8865823280216
20
-6.47355691318805
30
0
41
1
10
18.7487926284898
20
-6.53945690516528
30
0
41
1
10
18.6055212278079
20
-6.59685989010509
30
0
41
1
10
18.5321089139642
20
-6.62088030708276
30
0
41
1
10
18.383717268754
20
-6.65925830046999
30
0
41
1
10
18.3084423617038
20
-6.67373526368539
30
0
41
1
10
18.1557191593385
20
-6.69321837390484
30
0
41
1
10
18.0776748723534
20
-6.69820109096793
30
0
41
1
10
17.8455155062896
20
-6.69823756559387
30
0
41
1
10
17.6932515066903
20
-6.67903440589092
30
0
41
1
10
17.4686410172644
20
-6.62113836063179
30
0
41
1
10
17.3949506751818
20
-6.59699126423195
30
0
41
1
10
17.2530484623046
20
-6.54025131994521
30
0
41
1
10
17.1843486064406
20
-6.50754034712986
30
0
41
1
10
17.051450486043
20
-6.43339857587731
30
0
41
1
10
16.9868227166197
20
-6.391632718691
30
0
41
1
10
16.8645581624118
20
-6.30060829908143
30
0
41
1
10
16.7496781374922
20
-6.20259528499457
30
0
41
1
10
16.6491576605513
20
-6.09090076523788
30
0
41
1
10
16.555995594775
20
-5.97214816666522
30
0
41
1
10
16.5131893503938
20
-5.9092650873815
30
0
41
1
10
16.475
20
-5.84392864620977
30
0
0
SPLINE
5
139
100
AcDbEntity
8
1
62
256
6
ByLayer
370
18
48
1
60
0
100
AcDbSpline
70
4
71
3
72
32
73
28
40
0
40
0
40
0
40
0
40
0.125000000000001
40
0.125000000000001
40
0.187500000000002
40
0.187500000000002
40
0.250000000000002
40
0.250000000000002
40
0.312500000000002
40
0.312500000000002
40
0.343750000000003
40
0.343750000000003
40
0.375000000000003
40
0.375000000000003
40
0.500000000000002
40
0.500000000000002
40
0.562500000000003
40
0.562500000000003
40
0.625000000000003
40
0.625000000000003
40
0.750000000000003
40
0.750000000000003
40
0.812500000000003
40
0.812500000000003
40
0.875000000000002
40
0.875000000000002
40
1
40
1
40
1
40
1
41
1
10
12.7279045460072
20
19.7009676158305
30
0
41
1
10
12.3404994979457
20
19.7009676158305
30
0
41
1
10
11.961461519999
20
19.6721698937253
30
0
41
1
10
11.4047167103729
20
19.5874432520903
30
0
41
1
10
11.2206141822619
20
19.5520801446837
30
0
41
1
10
10.8586238934952
20
19.4672467402691
30
0
41
1
10
10.6832361523797
20
19.418407273523
30
0
41
1
10
10.342929658237
20
19.3082986990748
30
0
41
1
10
10.1780145346273
20
19.2470257414043
30
0
41
1
10
9.93818851663715
20
19.1457728556427
30
0
41
1
10
9.85950653262148
20
19.1104616136518
30
0
41
1
10
9.70463500078401
20
19.0366821435494
30
0
41
1
10
9.62825115170128
20
18.9981057988228
30
0
41
1
10
9.25550790435764
20
18.7988233328406
30
0
41
1
10
8.98607705353893
20
18.6191240710574
30
0
41
1
10
8.61894159792641
20
18.320259228476
30
0
41
1
10
8.50247817524598
20
18.2154222945348
30
0
41
1
10
8.28270648786761
20
17.9971917519544
30
0
41
1
10
8.18012828839503
20
17.8845960684206
30
0
41
1
10
7.89200111687811
20
17.5367468136344
30
0
41
1
10
7.72595617624677
20
17.2914587365315
30
0
41
1
10
7.50948441475237
20
16.904207871746
30
0
41
1
10
7.44279052222765
20
16.7718962131044
30
0
41
1
10
7.3195342988009
20
16.5008680641861
30
0
41
1
10
7.26294532322893
20
16.3620021936371
30
0
41
1
10
7.10858917381319
20
15.9395984366029
30
0
41
1
10
7.02557893092268
20
15.6491076034711
30
0
41
1
10
6.95896251163381
20
15.35
30
0
0
SPLINE
5
13A
100
AcDbEntity
8
SK1
62
256
6
ByLayer
370
18
48
1
60
0
100
AcDbSpline
70
4
71
3
72
24
73
20
40
0
40
0
40
0
40
0
40
0.0312500000000025
40
0.0312500000000025
40
0.0625000000000049
40
0.0625000000000049
40
0.125000000000004
40
0.125000000000004
40
0.187500000000004
40
0.187500000000004
40
0.250000000000003
40
0.250000000000003
40
0.375000000000002
40
0.375000000000002
40
0.500000000000001
40
0.500000000000001
40
0.750000000000001
40
0.750000000000001
40
1
40
1
40
1
40
1
41
1
10
-18.7
20
-15.2633176859716
30
0
41
1
10
-18.6820440222674
20
-15.2597468160675
30
0
41
1
10
-18.6634283861029
20
-15.2577185164863
30
0
41
1
10
-18.6245532249973
20
-15.2575225532063
30
0
41
1
10
-18.6051313716208
20
-15.2594187041946
30
0
41
1
10
-18.5490536746361
20
-15.2702993650732
30
0
41
1
10
-18.5156854990701
20
-15.2841331939411
30
0
41
1
10
-18.4591003472531
20
-15.3154805581217
30
0
41
1
10
-18.4349927944162
20
-15.3332501810505
30
0
41
1
10
-18.391903774889
20
-15.3701740392071
30
0
41
1
10
-18.3731919736298
20
-15.389167459252
30
0
41
1
10
-18.3220425035702
20
-15.446956707004
30
0
41
1
10
-18.2945320389494
20
-15.4865478997222
30
0
41
1
10
-18.2463223094563
20
-15.5663994856364
30
0
41
1
10
-18.2260973991827
20
-15.6061820716886
30
0
41
1
10
-18.1728377731893
20
-15.7245624365575
30
0
41
1
10
-18.147033788975
20
-15.8023235771398
30
0
41
1
10
-18.1066378443834
20
-15.9550594223456
30
0
41
1
10
-18.0922710710638
20
-16.0300454394067
30
0
41
1
10
-18.0823713351946
20
-16.1035462372081
30
0
0
SPLINE
5
13B
100
AcDbEntity
8
1
62
256
6
ByLayer
370
18
48
1
60
0
100
AcDbSpline
70
4
71
3
72
8
73
4
40
0
40
0
40
0
40
0
40
1
40
1
40
1
40
1
41
1
10
25.95
20
-23.4473947113533
30
0
41
1
10
25.7834110995033
20
-23.6212845353551
30
0
41
1
10
25.6167427789794
20
-23.795098304447
30
0
41
1
10
25.45
20
-23.9688405800114
30
0
0
SPLINE
5
13C
100
AcDbEntity
8
1
62
256
6
ByLayer
370
18
48
1
60
0
100
AcDbSpline
70
4
71
3
72
33
73
29
40
0
40
0
40
0
40
0
40
0.125
40
0.125
40
0.187499999999999
40
0.187499999999999
40
0.249999999999999
40
0.249999999999999
40
0.374999999999999
40
0.374999999999999
40
0.406249999999999
40
0.406249999999999
40
0.437499999999999
40
0.437499999999999
40
0.499999999999998
40
0.499999999999998
40
0.624999999999999
40
0.624999999999999
40
0.656249999999999
40
0.656249999999999
40
0.687499999999999
40
0.687499999999999
40
0.749999999999999
40
0.812499999999999
40
0.812499999999999
40
0.874999999999999
40
0.874999999999999
40
1
40
1
40
1
40
1
41
1
10
6.94999999999999
20
24.9749979979979
30
0
41
1
10
6.94999999999999
20
24.9748385414386
30
0
41
1
10
6.98920548535452
20
24.9651691832638
30
0
41
1
10
7.10421150737332
20
24.937777309398
30
0
41
1
10
7.15198395982367
20
24.926496372127
30
0
41
1
10
7.26680882792991
20
24.8998516367881
30
0
41
1
10
7.33407881763745
20
24.8844424291428
30
0
41
1
10
7.56039887812062
20
24.8337310018664
30
0
41
1
10
7.74484266644063
20
24.7936798184893
30
0
41
1
10
8.01701537954744
20
24.7385858597506
30
0
41
1
10
8.07355036685931
20
24.7273154943549
30
0
41
1
10
8.19089282595314
20
24.7043426772146
30
0
41
1
10
8.25182757488588
20
24.6926171820401
30
0
41
1
10
8.43919428689429
20
24.6572753265431
30
0
41
1
10
8.57066409305025
20
24.6333955915408
30
0
41
1
10
8.98428647084313
20
24.561813422639
30
0
41
1
10
9.28545599113269
20
24.5141503873064
30
0
41
1
10
9.6951098696612
20
24.4580490288756
30
0
41
1
10
9.77873207261996
20
24.4470051054234
30
0
41
1
10
9.94748428807415
20
24.4255943525462
30
0
41
1
10
10.0328418768535
20
24.4151955559595
30
0
41
1
10
10.2918240438719
20
24.385018901833
30
0
41
1
10
10.6448785527822
20
24.347503336774
30
0
41
1
10
11.013390099557
20
24.3164766470513
30
0
41
1
10
11.3898384696678
20
24.2892308406188
30
0
41
1
10
11.5830140523996
20
24.2774584761776
30
0
41
1
10
12.1658932261313
20
24.2490639698504
30
0
41
1
10
12.5592617728702
20
24.23923098512
30
0
41
1
10
12.9575
20
24.23923098512
30
0
0
SPLINE
5
13D
100
AcDbEntity
8
1
62
256
6
ByLayer
370
18
48
1
60
0
100
AcDbSpline
70
4
71
3
72
8
73
4
40
0
40
0
40
0
40
0
40
1
40
1
40
1
40
1
41
1
10
21.3774990747593
20
15.35
30
0
41
1
10
20.8786689974833
20
15.35
30
0
41
1
10
20.3926471834713
20
15.35
30
0
41
1
10
19.925
20
15.35
30
0
0
SPLINE
5
13E
100
AcDbEntity
8
1
62
256
6
ByLayer
370
18
48
1
60
0
100
AcDbSpline
70
4
71
3
72
8
73
4
40
0
40
0
40
0
40
0
40
1
40
1
40
1
40
1
41
1
10
19.925
20
-21.334719585099
30
0
41
1
10
20.407156249229
20
-22.2138549049127
30
0
41
1
10
20.8915293627524
20
-23.0917826085416
30
0
41
1
10
21.3774990747593
20
-23.9688405800114
30
0
0
SPLINE
5
13F
100
AcDbEntity
8
SK1
62
256
6
ByLayer
370
18
48
1
60
0
100
AcDbSpline
70
4
71
3
72
8
73
4
40
0
40
0
40
0
40
0
40
1
40
1
40
1
40
1
41
1
10
-23.75
20
-16.2139289192152
30
0
41
1
10
-23.8357338186721
20
-16.0967974003095
30
0
41
1
10
-23.8895880587382
20
-15.9738505276096
30
0
41
1
10
-23.8978773747949
20
-15.8438358218462
30
0
0
SPLINE
5
140
100
AcDbEntity
8
1
62
256
6
ByLayer
370
18
48
1
60
0
100
AcDbSpline
70
2053
71
3
72
88
73
84
40
0
40
0
40
0
40
0
40
0.0312499999999994
40
0.0312499999999994
40
0.0468749999999992
40
0.0468749999999992
40
0.062499999999999
40
0.062499999999999
40
0.0937499999999991
40
0.0937499999999991
40
0.124999999999999
40
0.124999999999999
40
0.156249999999999
40
0.156249999999999
40
0.171874999999999
40
0.171874999999999
40
0.187499999999999
40
0.203124999999999
40
0.203124999999999
40
0.218749999999999
40
0.218749999999999
40
0.249999999999999
40
0.249999999999999
40
0.28125
40
0.28125
40
0.3125
40
0.3125
40
0.328125
40
0.328125
40
0.34375
40
0.34375
40
0.375
40
0.375
40
0.40625
40
0.40625
40
0.421875
40
0.421875
40
0.4375
40
0.4375
40
0.46875
40
0.46875
40
0.5
40
0.5
40
0.53125
40
0.53125
40
0.546875
40
0.546875
40
0.562499999999999
40
0.578124999999999
40
0.578124999999999
40
0.593749999999999
40
0.593749999999999
40
0.624999999999999
40
0.624999999999999
40
0.656249999999999
40
0.656249999999999
40
0.687499999999999
40
0.687499999999999
40
0.703124999999999
40
0.703124999999999
40
0.718749999999999
40
0.718749999999999
40
0.749999999999999
40
0.749999999999999
40
0.781249999999999
40
0.781249999999999
40
0.796874999999999
40
0.796874999999999
40
0.8125
40
0.8125
40
0.84375
40
0.84375
40
0.875
40
0.875
40
0.90625
40
0.90625
40
0.921875
40
0.921875
40
0.9375
40
0.9375
40
0.96875
40
0.96875
40
1
40
1
40
1
40
1
41
1
10
7.5
20
-0.428023745372741
30
0
41
1
10
7.61565140529308
20
-0.428023745372741
30
0
41
1
10
7.72936309469512
20
-0.439402373376396
30
0
41
1
10
7.89714168106582
20
-0.4728293746264
30
0
41
1
10
7.95259960487496
20
-0.486718413507703
30
0
41
1
10
8.06255796164007
20
-0.520112243664187
30
0
41
1
10
8.11720017106751
20
-0.539708873646788
30
0
41
1
10
8.27613354081169
20
-0.605718507408568
30
0
41
1
10
8.37663471201878
20
-0.659562370569432
30
0
41
1
10
8.5668374134134
20
-0.786717854727215
30
0
41
1
10
8.65686558531581
20
-0.860684776115335
30
0
41
1
10
8.81824410371431
20
-1.02217766491913
30
0
41
1
10
8.8906719821257
20
-1.11026718361691
30
0
41
1
10
8.98662147741624
20
-1.2536688099313
30
0
41
1
10
9.01640157043346
20
-1.30332416274266
30
0
41
1
10
9.07038370992649
20
-1.40423318959196
30
0
41
1
10
9.11915891478782
20
-1.50726699260588
30
0
41
1
10
9.15767201711026
20
-1.61448310156632
30
0
41
1
10
9.1909808928128
20
-1.72381795678507
30
0
41
1
10
9.20508830580806
20
-1.77985068660993
30
0
41
1
10
9.23881317622428
20
-1.94883944229747
30
0
41
1
10
9.24993825761607
20
-2.06204387538426
30
0
41
1
10
9.25006123474637
20
-2.28950758193045
30
0
41
1
10
9.23869698506186
20
-2.40496226903238
30
0
41
1
10
9.19404526679844
20
-2.62830926875418
30
0
41
1
10
9.16100738695425
20
-2.73680215247782
30
0
41
1
10
9.09528636687247
20
-2.89476234505395
30
0
41
1
10
9.07050547010962
20
-2.94688114635647
30
0
41
1
10
9.01634041058023
20
-3.04755721292705
30
0
41
1
10
8.98694227760652
20
-3.09623662473732
30
0
41
1
10
8.89196368011304
20
-3.23742505253267
30
0
41
1
10
8.81966573904657
20
-3.32513153798999
30
0
41
1
10
8.65638136197913
20
-3.48724260630527
30
0
41
1
10
8.56792718735127
20
-3.55910042365065
30
0
41
1
10
8.42583270028726
20
-3.65333394691314
30
0
41
1
10
8.37686557680058
20
-3.68249083793106
30
0
41
1
10
8.27565439899334
20
-3.73620167185374
30
0
41
1
10
8.22320096892841
20
-3.76081343473709
30
0
41
1
10
8.06420301550054
20
-3.8261073284807
30
0
41
1
10
7.95512257365658
20
-3.85890672480375
30
0
41
1
10
7.73085729716243
20
-3.90329115313574
30
0
41
1
10
7.61485153630076
20
-3.91466432009321
30
0
41
1
10
7.38640984965704
20
-3.91474583225172
30
0
41
1
10
7.27286645545951
20
-3.90382197979204
30
0
41
1
10
7.10358936399308
20
-3.87062543514759
30
0
41
1
10
7.04733141935051
20
-3.85669329469133
30
0
41
1
10
6.93765284076989
20
-3.82377888139209
30
0
41
1
10
6.83016707064988
20
-3.78570913266543
30
0
41
1
10
6.72699414187787
20
-3.73748893738238
30
0
41
1
10
6.62600368756802
20
-3.68412547327026
30
0
41
1
10
6.57635772256344
20
-3.65470678109014
30
0
41
1
10
6.43266998689904
20
-3.55965197621603
30
0
41
1
10
6.34450952748711
20
-3.48789321303312
30
0
41
1
10
6.18301219949873
20
-3.32801899926957
30
0
41
1
10
6.10906311502706
20
-3.23879621256216
30
0
41
1
10
5.981835445022
20
-3.0499772317178
30
0
41
1
10
5.9280117001185
20
-2.95020837562578
30
0
41
1
10
5.86203252609755
20
-2.79244255743612
30
0
41
1
10
5.84243297045364
20
-2.73817918863702
30
0
41
1
10
5.80897301705136
20
-2.62876229683857
30
0
41
1
10
5.79505774932909
20
-2.57357920794323
30
0
41
1
10
5.76154994226812
20
-2.40663680696443
30
0
41
1
10
5.75011507112211
20
-2.29349746239396
30
0
41
1
10
5.74988664019639
20
-2.06337980877953
30
0
41
1
10
5.76115372040258
20
-1.94966498048316
30
0
41
1
10
5.79435389362135
20
-1.78232434654237
30
0
41
1
10
5.80815729265251
20
-1.72701321795631
30
0
41
1
10
5.84134888231779
20
-1.61735027525444
30
0
41
1
10
5.86085501446618
20
-1.56277219287455
30
0
41
1
10
5.92665416341836
20
-1.40386880363641
30
0
41
1
10
5.98033910388227
20
-1.30340032946529
30
0
41
1
10
6.10708697102456
20
-1.11327323439849
30
0
41
1
10
6.18091323326246
20
-1.02313399848461
30
0
41
1
10
6.34225124134815
20
-0.861456704721178
30
0
41
1
10
6.43024939905757
20
-0.788909106348427
30
0
41
1
10
6.5734730103843
20
-0.692799590335738
30
0
41
1
10
6.62318596364238
20
-0.662892130395079
30
0
41
1
10
6.7242169227674
20
-0.608689940092688
30
0
41
1
10
6.77579455387118
20
-0.584205656417282
30
0
41
1
10
6.93366227587967
20
-0.518477591917843
30
0
41
1
10
7.0435597937429
20
-0.484784861185659
30
0
41
1
10
7.26993368880909
20
-0.439403723600833
30
0
41
1
10
7.38434859470692
20
-0.428023745372741
30
0
41
1
10
7.5
20
-0.428023745372741
30
0
0
SPLINE
5
141
100
AcDbEntity
8
1
62
256
6
ByLayer
370
18
48
1
60
0
100
AcDbSpline
70
4
71
3
72
8
73
4
40
0
40
0
40
0
40
0
40
1
40
1
40
1
40
1
41
1
10
25.45
20
15.35
30
0
41
1
10
25.6173125826249
20
15.35
30
0
41
1
10
25.7839972362789
20
15.35
30
0
41
1
10
25.95
20
15.35
30
0
0
SPLINE
5
142
100
AcDbEntity
8
1
62
256
6
ByLayer
370
18
48
1
60
0
100
AcDbSpline
70
4
71
3
72
8
73
4
40
0
40
0
40
0
40
0
40
1
40
1
40
1
40
1
41
1
10
16.075
20
15.35
30
0
41
1
10
15.6073528165287
20
15.35
30
0
41
1
10
15.1213310025167
20
15.35
30
0
41
1
10
14.6225009252407
20
15.35
30
0
0
SPLINE
5
143
100
AcDbEntity
8
1
62
256
6
ByLayer
370
18
48
1
60
0
100
AcDbSpline
70
4
71
3
72
8
73
4
40
0
40
0
40
0
40
0
40
1
40
1
40
1
40
1
41
1
10
16.075
20
21.6380512009471
30
0
41
1
10
15.5922608849135
20
22.5059102843728
30
0
41
1
10
15.1079476271122
20
23.3728900374927
30
0
41
1
10
14.6225009252407
20
24.23923098512
30
0
0
SPLINE
5
144
100
AcDbEntity
8
1
62
256
6
ByLayer
370
18
48
1
60
0
100
AcDbSpline
70
4
71
3
72
17
73
13
40
0
40
0
40
0
40
0
40
0.249917534382691
40
0.249917534382691
40
0.499835068765381
40
0.499835068765381
40
0.749752603148072
40
0.749752603148072
40
0.874711370339417
40
0.874711370339417
40
0.999670137530763
40
1
40
1
40
1
40
1
41
1
10
25.9500004704432
20
20.9
30
0
41
1
10
25.9501357192554
20
20.9
30
0
41
1
10
25.9785709507024
20
20.9
30
0
41
1
10
26.0625636731897
20
20.9
30
0
41
1
10
26.1187726600035
20
20.9
30
0
41
1
10
26.2360198384725
20
20.9
30
0
41
1
10
26.2974550052578
20
20.9
30
0
41
1
10
26.3683608483302
20
20.9
30
0
41
1
10
26.388277767576
20
20.9
30
0
41
1
10
26.4157639167895
20
20.9
30
0
41
1
10
26.4232378347689
20
20.9
30
0
41
1
10
26.4232176983001
20
20.9
30
0
41
1
10
26.4232166982001
20
20.9
30
0
0
SPLINE
5
145
100
AcDbEntity
8
SK1
62
256
6
ByLayer
370
18
48
1
60
0
100
AcDbSpline
70
4
71
3
72
20
73
16
40
0
40
0
40
0
40
0
40
0.125000000000001
40
0.125000000000001
40
0.250000000000001
40
0.250000000000001
40
0.375000000000002
40
0.375000000000002
40
0.500000000000002
40
0.500000000000002
40
0.750000000000002
40
0.750000000000002
40
0.875000000000001
40
0.875000000000001
40
1
40
1
40
1
40
1
41
1
10
-18.0823713351946
20
-16.1035462372081
30
0
41
1
10
-18.0742328204929
20
-16.1639708112973
30
0
41
1
10
-18.0479693384148
20
-16.2225817642966
30
0
41
1
10
-17.9766206126756
20
-16.3370700760918
30
0
41
1
10
-17.9320858617272
20
-16.392746170063
30
0
41
1
10
-17.8390651367442
20
-16.5013594517433
30
0
41
1
10
-17.7903304604446
20
-16.5544350408135
30
0
41
1
10
-17.6950436125688
20
-16.6587649811567
30
0
41
1
10
-17.6484077459544
20
-16.7100092032673
30
0
41
1
10
-17.5171977822904
20
-16.8613825412081
30
0
41
1
10
-17.4413287187352
20
-16.959180535404
30
0
41
1
10
-17.3599255470604
20
-17.1015202805965
30
0
41
1
10
-17.3381408686688
20
-17.1482293752351
30
0
41
1
10
-17.3080346906447
20
-17.2401422571001
30
0
41
1
10
-17.2999999999996
20
-17.2845537678609
30
0
41
1
10
-17.2999999999996
20
-17.3272154067928
30
0
0
INSERT
5
15C
100
AcDbEntity
8
SK6
62
256
6
ByLayer
370
18
48
1
60
0
100
AcDbBlockReference
2
LABLE3D_1
10
-27.4
20
34.975
30
0
41
1
42
1
43
1
50
0
210
0
220
0
230
1
0
LINE
5
81
100
AcDbEntity
8
1
62
256
6
ByLayer
370
13
48
1
60
0
100
AcDbLine
10
35.58
20
-18.3
30
0
11
35.58
21
-17.728594
31
0
39
0
210
0
220
0
230
1
0
LINE
5
82
100
AcDbEntity
8
1
62
256
6
ByLayer
370
13
48
1
60
0
100
AcDbLine
10
27.42
20
-18.3
30
0
11
27.42
21
-17.741406
31
0
39
0
210
0
220
0
230
1
0
LINE
5
83
100
AcDbEntity
8
1
62
256
6
ByLayer
370
18
48
1
60
0
100
AcDbLine
10
26.498189
20
-20.75
30
0
11
72.776748
21
-20.75
31
0
39
0
210
0
220
0
230
1
0
LINE
5
84
100
AcDbEntity
8
1
62
256
6
ByLayer
370
18
48
1
60
0
100
AcDbLine
10
27.405
20
-18.3
30
0
11
35.595
21
-18.3
31
0
39
0
210
0
220
0
230
1
0
LINE
5
85
100
AcDbEntity
8
1
62
256
6
ByLayer
370
18
48
1
60
0
100
AcDbLine
10
27.101083
20
-17.395
30
0
11
35.830209
21
-17.395
31
0
39
0
210
0
220
0
230
1
0
LINE
5
86
100
AcDbEntity
8
SK1
62
256
6
ByLayer
370
18
48
1
60
0
100
AcDbLine
10
-24.9
20
14.950938
30
0
11
-24.9
21
14.946396
31
0
39
0
210
0
220
0
230
1
0
LINE
5
88
100
AcDbEntity
8
SK1
62
256
6
ByLayer
370
18
48
1
60
0
100
AcDbLine
10
-24.9
20
-14.946396
30
0
11
-24.9
21
14.946396
31
0
39
0
210
0
220
0
230
1
0
LINE
5
89
100
AcDbEntity
8
SK1
62
256
6
ByLayer
370
13
48
1
60
0
100
AcDbLine
10
-21.7
20
16.235
30
0
11
-21.7
21
16.121185
31
0
39
0
210
0
220
0
230
1
0
LINE
5
8A
100
AcDbEntity
8
1
62
256
6
ByLayer
370
18
48
1
60
0
100
AcDbLine
10
25.95
20
19.063135
30
0
11
25.95
21
15.409088
31
0
39
0
210
0
220
0
230
1
0
LINE
5
8B
100
AcDbEntity
8
1
62
256
6
ByLayer
370
18
48
1
60
0
100
AcDbLine
10
25.45
20
19.700968
30
0
11
25.45
21
24.239231
31
0
39
0
210
0
220
0
230
1
0
LINE
5
8C
100
AcDbEntity
8
SK1
62
256
6
ByLayer
370
13
48
1
60
0
100
AcDbLine
10
-18.7
20
-15.975596
30
0
11
-18.7
21
-16.235
31
0
39
0
210
0
220
0
230
1
0
LINE
5
8D
100
AcDbEntity
8
SK1
62
256
6
ByLayer
370
13
48
1
60
0
100
AcDbLine
10
-20.947488
20
-15.975596
30
0
11
-18.7
21
-15.975596
31
0
39
0
210
0
220
0
230
1
0
LINE
5
8E
100
AcDbEntity
8
SK1
62
256
6
ByLayer
370
13
48
1
60
0
100
AcDbLine
10
-18.7
20
-15.975596
30
0
11
-18.7
21
-15.263318
31
0
39
0
210
0
220
0
230
1
0
LINE
5
8F
100
AcDbEntity
8
1
62
256
6
ByLayer
370
18
48
1
60
0
100
AcDbLine
10
19.925
20
16.39491
30
0
11
19.925
21
15.585029
31
0
39
0
210
0
220
0
230
1
0
LINE
5
90
100
AcDbEntity
8
SK1
62
256
6
ByLayer
370
13
48
1
60
0
100
AcDbLine
10
-24.9
20
-14.950938
30
0
11
-23.897877
21
-15.843836
31
0
39
0
210
0
220
0
230
1
0
LINE
5
91
100
AcDbEntity
8
SK1
62
256
6
ByLayer
370
13
48
1
60
0
100
AcDbLine
10
-24.9
20
14.950938
30
0
11
-23.897877
21
15.843836
31
0
39
0
210
0
220
0
230
1
0
LINE
5
92
100
AcDbEntity
8
1
62
256
6
ByLayer
370
18
48
1
60
0
100
AcDbLine
10
25.95
20
23.723729
30
0
11
25.95
21
19.063135
31
0
39
0
210
0
220
0
230
1
0
LINE
5
93
100
AcDbEntity
8
1
62
256
6
ByLayer
370
18
48
1
60
0
100
AcDbLine
10
21.377499
20
19.700968
30
0
11
21.377499
21
24.239231
31
0
39
0
210
0
220
0
230
1
0
LINE
5
94
100
AcDbEntity
8
1
62
256
6
ByLayer
370
18
48
1
60
0
100
AcDbLine
10
19.925
20
21.638051
30
0
11
19.925
21
16.39491
31
0
39
0
210
0
220
0
230
1
0
LINE
5
95
100
AcDbEntity
8
1
62
256
6
ByLayer
370
18
48
1
60
0
100
AcDbLine
10
21.377499
20
24.239231
30
0
11
25.45
21
24.239231
31
0
39
0
210
0
220
0
230
1
0
LINE
5
96
100
AcDbEntity
8
1
62
256
6
ByLayer
370
18
48
1
60
0
100
AcDbLine
10
19.525
20
-20.9
30
0
11
16.475
21
-20.9
31
0
39
0
210
0
220
0
230
1
0
LINE
5
97
100
AcDbEntity
8
1
62
256
6
ByLayer
370
18
48
1
60
0
100
AcDbLine
10
16.475
20
20.9
30
0
11
19.525
21
20.9
31
0
39
0
210
0
220
0
230
1
0
LINE
5
98
100
AcDbEntity
8
1
62
256
6
ByLayer
370
18
48
1
60
0
100
AcDbLine
10
21.377499
20
19.700968
30
0
11
25.45
21
19.700968
31
0
39
0
210
0
220
0
230
1
0
LINE
5
99
100
AcDbEntity
8
SK1
62
256
6
ByLayer
370
18
48
1
60
0
100
AcDbLine
10
-2
20
19.154801
30
0
11
-2
21
-19.154801
31
0
39
0
210
0
220
0
230
1
0
LINE
5
9A
100
AcDbEntity
8
SK1
62
256
6
ByLayer
370
18
48
1
60
0
100
AcDbLine
10
-20.3
20
18.237967
30
0
11
-20.3
21
17.236449
31
0
39
0
210
0
220
0
230
1
0
LINE
5
9B
100
AcDbEntity
8
SK1
62
256
6
ByLayer
370
13
48
1
60
0
100
AcDbLine
10
-23.950037
20
15.384201
30
0
11
-23.950037
21
-15.384201
31
0
39
0
210
0
220
0
230
1
0
LINE
5
9C
100
AcDbEntity
8
SK1
62
256
6
ByLayer
370
18
48
1
60
0
100
AcDbLine
10
-17.3
20
-17.327215
30
0
11
-17.3
21
-18.388268
31
0
39
0
210
0
220
0
230
1
0
LINE
5
9D
100
AcDbEntity
8
SK1
62
256
6
ByLayer
370
13
48
1
60
0
100
AcDbLine
10
-0.45
20
-18.904801
30
0
11
-0.45
21
18.904801
31
0
39
0
210
0
220
0
230
1
0
LINE
5
9E
100
AcDbEntity
8
1
62
256
6
ByLayer
370
13
48
1
60
0
100
AcDbLine
10
12.727905
20
15.35
30
0
11
12.727905
21
19.700968
31
0
39
0
210
0
220
0
230
1
0
LINE
5
9F
100
AcDbEntity
8
1
62
256
6
ByLayer
370
13
48
1
60
0
100
AcDbLine
10
88.946243
20
-18.914832
30
0
11
88.946243
21
18.914832
31
0
39
0
210
0
220
0
230
1
0
LINE
5
A0
100
AcDbEntity
8
1
62
256
6
ByLayer
370
13
48
1
60
0
100
AcDbLine
10
75.214134
20
-20.600923
30
0
11
75.214134
21
0
31
0
39
0
210
0
220
0
230
1
0
LINE
5
A1
100
AcDbEntity
8
1
62
256
6
ByLayer
370
13
48
1
60
0
100
AcDbLine
10
75.214134
20
0
30
0
11
75.214134
21
20.600923
31
0
39
0
210
0
220
0
230
1
0
LINE
5
A2
100
AcDbEntity
8
1
62
256
6
ByLayer
370
18
48
1
60
0
100
AcDbLine
10
26.476804
20
-20.749988
30
0
11
26.480135
21
-20.748028
31
0
39
0
210
0
220
0
230
1
0
LINE
5
A3
100
AcDbEntity
8
1
62
256
6
ByLayer
370
13
48
1
60
0
100
AcDbLine
10
72.776748
20
-20.75
30
0
11
72.776748
21
20.75
31
0
39
0
210
0
220
0
230
1
0
LINE
5
A4
100
AcDbEntity
8
SK1
62
256
6
ByLayer
370
18
48
1
60
0
100
AcDbLine
10
-23.75
20
16.235
30
0
11
-23.75
21
16.213929
31
0
39
0
210
0
220
0
230
1
0
LINE
5
A5
100
AcDbEntity
8
1
62
256
6
ByLayer
370
13
48
1
60
0
100
AcDbLine
10
26.95
20
-19.928482
30
0
11
26.95
21
-19.93908
31
0
39
0
210
0
220
0
230
1
0
LINE
5
A6
100
AcDbEntity
8
1
62
256
6
ByLayer
370
13
48
1
60
0
100
AcDbLine
10
26.95
20
20.75
30
0
11
26.95
21
-17.582395
31
0
39
0
210
0
220
0
230
1
0
LINE
5
A7
100
AcDbEntity
8
1
62
256
6
ByLayer
370
13
48
1
60
0
100
AcDbLine
10
19.525
20
-10.47977
30
0
11
19.525
21
-5.843929
31
0
39
0
210
0
220
0
230
1
0
LINE
5
A8
100
AcDbEntity
8
1
62
256
6
ByLayer
370
13
48
1
60
0
100
AcDbLine
10
19.525
20
-20.9
30
0
11
19.525
21
-11.943607
31
0
39
0
210
0
220
0
230
1
0
LINE
5
A9
100
AcDbEntity
8
1
62
256
6
ByLayer
370
13
48
1
60
0
100
AcDbLine
10
19.525
20
11.943607
30
0
11
19.525
21
20.9
31
0
39
0
210
0
220
0
230
1
0
LINE
5
AA
100
AcDbEntity
8
1
62
256
6
ByLayer
370
13
48
1
60
0
100
AcDbLine
10
19.525
20
5.843929
30
0
11
19.525
21
10.47977
31
0
39
0
210
0
220
0
230
1
0
LINE
5
AB
100
AcDbEntity
8
1
62
256
6
ByLayer
370
13
48
1
60
0
100
AcDbLine
10
19.525
20
-4.174536
30
0
11
19.525
21
4.174536
31
0
39
0
210
0
220
0
230
1
0
LINE
5
AC
100
AcDbEntity
8
1
62
256
6
ByLayer
370
13
48
1
60
0
100
AcDbLine
10
16.475
20
-11.943607
30
0
11
16.475
21
-20.9
31
0
39
0
210
0
220
0
230
1
0
LINE
5
AD
100
AcDbEntity
8
1
62
256
6
ByLayer
370
13
48
1
60
0
100
AcDbLine
10
16.475
20
-5.843929
30
0
11
16.475
21
-10.47977
31
0
39
0
210
0
220
0
230
1
0
LINE
5
AE
100
AcDbEntity
8
1
62
256
6
ByLayer
370
13
48
1
60
0
100
AcDbLine
10
16.475
20
4.174536
30
0
11
16.475
21
-4.174536
31
0
39
0
210
0
220
0
230
1
0
LINE
5
AF
100
AcDbEntity
8
1
62
256
6
ByLayer
370
13
48
1
60
0
100
AcDbLine
10
16.475
20
10.47977
30
0
11
16.475
21
5.843929
31
0
39
0
210
0
220
0
230
1
0
LINE
5
B0
100
AcDbEntity
8
1
62
256
6
ByLayer
370
13
48
1
60
0
100
AcDbLine
10
16.475
20
20.9
30
0
11
16.475
21
11.943607
31
0
39
0
210
0
220
0
230
1
0
LINE
5
B1
100
AcDbEntity
8
1
62
256
6
ByLayer
370
18
48
1
60
0
100
AcDbLine
10
12.727905
20
19.700968
30
0
11
14.622501
21
19.700968
31
0
39
0
210
0
220
0
230
1
0
LINE
5
B2
100
AcDbEntity
8
1
62
256
6
ByLayer
370
18
48
1
60
0
100
AcDbLine
10
12.9575
20
24.239231
30
0
11
14.622501
21
24.239231
31
0
39
0
210
0
220
0
230
1
0
LINE
5
B3
100
AcDbEntity
8
1
62
256
6
ByLayer
370
18
48
1
60
0
100
AcDbLine
10
90
20
-17.723777
30
0
11
90
21
17.723777
31
0
39
0
210
0
220
0
230
1
0
LINE
5
B4
100
AcDbEntity
8
1
62
256
6
ByLayer
370
18
48
1
60
0
100
AcDbLine
10
19.925
20
15.35
30
0
11
19.925
21
-21.33472
31
0
39
0
210
0
220
0
230
1
0
LINE
5
B5
100
AcDbEntity
8
1
62
256
6
ByLayer
370
18
48
1
60
0
100
AcDbLine
10
14.622501
20
-23.968841
30
0
11
12.95
21
-23.968841
31
0
39
0
210
0
220
0
230
1
0
LINE
5
B6
100
AcDbEntity
8
SK1
62
256
6
ByLayer
370
18
48
1
60
0
100
AcDbLine
10
-24.9
20
15.085
30
0
11
-24.9
21
14.950938
31
0
39
0
210
0
220
0
230
1
0
LINE
5
B7
100
AcDbEntity
8
1
62
256
6
ByLayer
370
18
48
1
60
0
100
AcDbLine
10
14.622501
20
15.35
30
0
11
6.958963
21
15.35
31
0
39
0
210
0
220
0
230
1
0
LINE
5
B8
100
AcDbEntity
8
1
62
256
6
ByLayer
370
18
48
1
60
0
100
AcDbLine
10
16.075
20
15.585029
30
0
11
16.075
21
16.39491
31
0
39
0
210
0
220
0
230
1
0
LINE
5
B9
100
AcDbEntity
8
1
62
256
6
ByLayer
370
18
48
1
60
0
100
AcDbLine
10
0.5
20
0
30
0
11
0.5
21
-24.975
31
0
39
0
210
0
220
0
230
1
0
LINE
5
BA
100
AcDbEntity
8
1
62
256
6
ByLayer
370
18
48
1
60
0
100
AcDbLine
10
0.5
20
24.975
30
0
11
0.5
21
0
31
0
39
0
210
0
220
0
230
1
0
LINE
5
BB
100
AcDbEntity
8
SK1
62
256
6
ByLayer
370
18
48
1
60
0
100
AcDbLine
10
-1.566987
20
18.904801
30
0
11
-1.566987
21
-18.904801
31
0
39
0
210
0
220
0
230
1
0
LINE
5
BC
100
AcDbEntity
8
1
62
256
6
ByLayer
370
18
48
1
60
0
100
AcDbLine
10
25.45
20
15.35
30
0
11
21.377499
21
15.35
31
0
39
0
210
0
220
0
230
1
0
LINE
5
BD
100
AcDbEntity
8
1
62
256
6
ByLayer
370
18
48
1
60
0
100
AcDbLine
10
6.95
20
-24.954265
30
0
11
6.95
21
-24.975
31
0
39
0
210
0
220
0
230
1
0
LINE
5
BE
100
AcDbEntity
8
1
62
256
6
ByLayer
370
18
48
1
60
0
100
AcDbLine
10
0
20
24.475
30
0
11
0
21
-24.475
31
0
39
0
210
0
220
0
230
1
0
LINE
5
BF
100
AcDbEntity
8
1
62
256
6
ByLayer
370
18
48
1
60
0
100
AcDbLine
10
25.45
20
-23.968841
30
0
11
25.45
21
15.35
31
0
39
0
210
0
220
0
230
1
0
LINE
5
C0
100
AcDbEntity
8
1
62
256
6
ByLayer
370
18
48
1
60
0
100
AcDbLine
10
25.95
20
15.35
30
0
11
25.95
21
-23.447395
31
0
39
0
210
0
220
0
230
1
0
LINE
5
C1
100
AcDbEntity
8
1
62
256
6
ByLayer
370
18
48
1
60
0
100
AcDbLine
10
14.622501
20
24.239231
30
0
11
14.622501
21
19.700968
31
0
39
0
210
0
220
0
230
1
0
LINE
5
C2
100
AcDbEntity
8
1
62
256
6
ByLayer
370
18
48
1
60
0
100
AcDbLine
10
16.075
20
15.35
30
0
11
16.075
21
-21.33472
31
0
39
0
210
0
220
0
230
1
0
LINE
5
C3
100
AcDbEntity
8
1
62
256
6
ByLayer
370
18
48
1
60
0
100
AcDbLine
10
25.45
20
-23.968841
30
0
11
21.377499
21
-23.968841
31
0
39
0
210
0
220
0
230
1
0
LINE
5
C4
100
AcDbEntity
8
1
62
256
6
ByLayer
370
18
48
1
60
0
100
AcDbLine
10
14.622501
20
15.35
30
0
11
14.622501
21
-23.968841
31
0
39
0
210
0
220
0
230
1
0
LINE
5
C5
100
AcDbEntity
8
1
62
256
6
ByLayer
370
18
48
1
60
0
100
AcDbLine
10
21.377499
20
-23.968841
30
0
11
21.377499
21
15.35
31
0
39
0
210
0
220
0
230
1
0
LINE
5
C6
100
AcDbEntity
8
1
62
256
6
ByLayer
370
18
48
1
60
0
100
AcDbLine
10
16.075
20
21.638051
30
0
11
16.075
21
16.39491
31
0
39
0
210
0
220
0
230
1
0
LINE
5
C7
100
AcDbEntity
8
SK1
62
256
6
ByLayer
370
18
48
1
60
0
100
AcDbLine
10
-24.9
20
-15.085
30
0
11
-24.9
21
-14.950938
31
0
39
0
210
0
220
0
230
1
0
LINE
5
C8
100
AcDbEntity
8
SK1
62
256
6
ByLayer
370
18
48
1
60
0
100
AcDbLine
10
-24.9
20
-14.946396
30
0
11
-24.9
21
-14.950938
31
0
39
0
210
0
220
0
230
1
0
LINE
5
C9
100
AcDbEntity
8
SK1
62
256
6
ByLayer
370
18
48
1
60
0
100
AcDbLine
10
-23.75
20
-16.235
30
0
11
-23.75
21
-16.213929
31
0
39
0
210
0
220
0
230
1
0
LINE
5
CA
100
AcDbEntity
8
SK4
62
256
6
ByLayer
370
18
48
0.05
60
0
100
AcDbLine
10
-34.9
20
0
30
0
11
100
21
0
31
0
39
0
210
0
220
0
230
1
0
LINE
5
CC
100
AcDbEntity
8
SK1
62
256
6
ByLayer
370
18
48
1
60
0
100
AcDbLine
10
-21.7
20
16.235
30
0
11
-23.75
21
16.235
31
0
39
0
210
0
220
0
230
1
0
LINE
5
CD
100
AcDbEntity
8
SK1
62
256
6
ByLayer
370
18
48
1
60
0
100
AcDbLine
10
-23.75
20
16.235
30
0
11
-24.9
21
15.085
31
0
39
0
210
0
220
0
230
1
0
LINE
5
CE
100
AcDbEntity
8
SK1
62
256
6
ByLayer
370
18
48
1
60
0
100
AcDbLine
10
-24.9
20
-15.085
30
0
11
-23.75
21
-16.235
31
0
39
0
210
0
220
0
230
1
0
LINE
5
CF
100
AcDbEntity
8
SK1
62
256
6
ByLayer
370
18
48
1
60
0
100
AcDbLine
10
-23.75
20
-16.235
30
0
11
-18.7
21
-16.235
31
0
39
0
210
0
220
0
230
1
0
LINE
5
D0
100
AcDbEntity
8
SK1
62
256
6
ByLayer
370
18
48
1
60
0
100
AcDbLine
10
-1.566987
20
-18.904801
30
0
11
-0.45
21
-18.904801
31
0
39
0
210
0
220
0
230
1
0
LINE
5
D1
100
AcDbEntity
8
SK1
62
256
6
ByLayer
370
18
48
1
60
0
100
AcDbLine
10
-0.45
20
18.904801
30
0
11
-1.566987
21
18.904801
31
0
39
0
210
0
220
0
230
1
0
LINE
5
D2
100
AcDbEntity
8
SK1
62
256
6
ByLayer
370
18
48
1
60
0
100
AcDbLine
10
-1.566987
20
18.904801
30
0
11
-2
21
19.154801
31
0
39
0
210
0
220
0
230
1
0
LINE
5
D3
100
AcDbEntity
8
SK1
62
256
6
ByLayer
370
18
48
1
60
0
100
AcDbLine
10
-2
20
-19.154801
30
0
11
-1.566987
21
-18.904801
31
0
39
0
210
0
220
0
230
1
0
LINE
5
D4
100
AcDbEntity
8
SK1
62
256
6
ByLayer
370
18
48
1
60
0
100
AcDbLine
10
-17.3
20
-18.388268
30
0
11
-10.958425
21
-18.705982
31
0
39
0
210
0
220
0
230
1
0
LINE
5
D5
100
AcDbEntity
8
SK1
62
256
6
ByLayer
370
18
48
1
60
0
100
AcDbLine
10
-3.658731
20
-19.071698
30
0
11
-2
21
-19.154801
31
0
39
0
210
0
220
0
230
1
0
LINE
5
D6
100
AcDbEntity
8
SK1
62
256
6
ByLayer
370
18
48
1
60
0
100
AcDbLine
10
-2
20
19.154801
30
0
11
-3.66479
21
19.071394
31
0
39
0
210
0
220
0
230
1
0
LINE
5
D7
100
AcDbEntity
8
SK1
62
256
6
ByLayer
370
18
48
1
60
0
100
AcDbLine
10
-11.001588
20
18.703819
30
0
11
-20.3
21
18.237967
31
0
39
0
210
0
220
0
230
1
0
LINE
5
D8
100
AcDbEntity
8
1
62
256
6
ByLayer
370
18
48
1
60
0
100
AcDbLine
10
88.946243
20
18.914832
30
0
11
75.214134
21
20.600923
31
0
39
0
210
0
220
0
230
1
0
LINE
5
D9
100
AcDbEntity
8
1
62
256
6
ByLayer
370
18
48
1
60
0
100
AcDbLine
10
75.214134
20
-20.600923
30
0
11
88.946243
21
-18.914832
31
0
39
0
210
0
220
0
230
1
0
LINE
5
DA
100
AcDbEntity
8
1
62
256
6
ByLayer
370
18
48
1
60
0
100
AcDbLine
10
72.776748
20
20.75
30
0
11
26.95
21
20.75
31
0
39
0
210
0
220
0
230
1
0
LINE
5
DB
100
AcDbEntity
8
1
62
256
6
ByLayer
370
18
48
1
60
0
100
AcDbLine
10
0.5
20
-24.975
30
0
11
6.95
21
-24.975
31
0
39
0
210
0
220
0
230
1
0
LINE
5
DC
100
AcDbEntity
8
1
62
256
6
ByLayer
370
18
48
1
60
0
100
AcDbLine
10
6.95
20
24.975
30
0
11
6.949181
21
24.975
31
0
39
0
210
0
220
0
230
1
0
LINE
5
DD
100
AcDbEntity
8
1
62
256
6
ByLayer
370
18
48
1
60
0
100
AcDbLine
10
6.949181
20
24.975
30
0
11
6.948829
21
24.975
31
0
39
0
210
0
220
0
230
1
0
LINE
5
DE
100
AcDbEntity
8
1
62
256
6
ByLayer
370
18
48
1
60
0
100
AcDbLine
10
6.948829
20
24.975
30
0
11
0.5
21
24.975
31
0
39
0
210
0
220
0
230
1
0
LINE
5
DF
100
AcDbEntity
8
1
62
256
6
ByLayer
370
18
48
1
60
0
100
AcDbLine
10
0
20
-24.475
30
0
11
0.5
21
-24.975
31
0
39
0
210
0
220
0
230
1
0
LINE
5
E0
100
AcDbEntity
8
1
62
256
6
ByLayer
370
18
48
1
60
0
100
AcDbLine
10
0.5
20
24.975
30
0
11
0
21
24.475
31
0
39
0
210
0
220
0
230
1
0
LINE
5
E1
100
AcDbEntity
8
1
62
256
6
ByLayer
370
18
48
1
60
0
100
AcDbLine
10
35.595
20
-18.3
30
0
11
36.166324
21
-17.728676
31
0
39
0
210
0
220
0
230
1
0
LINE
5
E2
100
AcDbEntity
8
1
62
256
6
ByLayer
370
18
48
1
60
0
100
AcDbLine
10
26.846502
20
-17.741502
30
0
11
27.405
21
-18.3
31
0
39
0
210
0
220
0
230
1
0
LINE
5
E3
100
AcDbEntity
8
SK3
62
256
6
ByLayer
370
18
48
0.05
60
0
100
AcDbLine
10
40.5
20
-10
30
0
11
40.5
21
10
31
0
39
0
210
0
220
0
230
1
0
LINE
5
E5
100
AcDbEntity
8
SK3
62
256
6
ByLayer
370
18
48
0.05
60
0
100
AcDbLine
10
39
20
-8.5
30
0
11
40.5
21
-10
31
0
39
0
210
0
220
0
230
1
0
LINE
5
E6
100
AcDbEntity
8
SK3
62
256
6
ByLayer
370
18
48
0.05
60
0
100
AcDbLine
10
40.5
20
10
30
0
11
39
21
8.5
31
0
39
0
210
0
220
0
230
1
0
LINE
5
E7
100
AcDbEntity
8
SK3
62
256
6
ByLayer
370
18
48
0.05
60
0
100
AcDbLine
10
90
20
10
30
0
11
40.5
21
10
31
0
39
0
210
0
220
0
230
1
0
LINE
5
E8
100
AcDbEntity
8
81
62
256
6
ByLayer
370
18
48
1
60
0
100
AcDbLine
10
90
20
0
30
0
11
94.742527
21
0
31
0
39
0
210
0
220
0
230
1
0
LINE
5
E9
100
AcDbEntity
8
80
62
256
6
ByLayer
370
18
48
1
60
0
100
AcDbLine
10
0
20
0
30
0
11
-10.875929
21
0
31
0
39
0
210
0
220
0
230
1
0
LINE
5
EA
100
AcDbEntity
8
4
62
256
6
ByLayer
370
18
48
0.05
60
0
100
AcDbLine
10
90
20
0
30
0
11
0
21
0
31
0
39
0
210
0
220
0
230
1
0
LINE
5
EC
100
AcDbEntity
8
SK3
62
256
6
ByLayer
370
18
48
0.05
60
0
100
AcDbLine
10
40.5
20
-10
30
0
11
90
21
-10
31
0
39
0
210
0
220
0
230
1
0
LINE
5
ED
100
AcDbEntity
8
SK3
62
256
6
ByLayer
370
18
48
0.05
60
0
100
AcDbLine
10
39
20
8.5
30
0
11
39
21
-8.5
31
0
39
0
210
0
220
0
230
1
0
LINE
5
EE
100
AcDbEntity
8
SK2
62
256
6
ByLayer
370
13
48
1
60
0
100
AcDbLine
10
-61
20
-24.975
30
0
11
-61
21
24.975
31
0
39
0
210
0
220
0
230
1
0
LINE
5
F0
100
AcDbEntity
8
SK2
62
256
6
ByLayer
370
13
48
1
60
0
100
AcDbLine
10
-1.5875
20
24.975
30
0
11
-63
21
24.975
31
0
39
0
210
0
220
0
230
1
0
LINE
5
F1
100
AcDbEntity
8
SK2
62
256
6
ByLayer
370
13
48
1
60
0
100
AcDbLine
10
-1.5875
20
-24.975
30
0
11
-63
21
-24.975
31
0
39
0
210
0
220
0
230
1
0
LINE
5
F2
100
AcDbEntity
8
1
62
256
6
ByLayer
370
18
48
1
60
1
100
AcDbLine
10
-61
20
24.975
30
0
11
-60.002374
21
20.475004
31
0
39
0
210
0
220
0
230
1
0
LINE
5
F3
100
AcDbEntity
8
1
62
256
6
ByLayer
370
18
48
1
60
1
100
AcDbLine
10
-60.002374
20
20.475004
30
0
11
-61.997626
21
20.474996
31
0
39
0
210
0
220
0
230
1
0
LINE
5
F4
100
AcDbEntity
8
1
62
256
6
ByLayer
370
18
48
1
60
1
100
AcDbLine
10
-61.997626
20
20.474996
30
0
11
-61
21
24.975
31
0
39
0
210
0
220
0
230
1
0
LINE
5
F5
100
AcDbEntity
8
1
62
256
6
ByLayer
370
18
48
1
60
1
100
AcDbLine
10
-61
20
-24.975
30
0
11
-61.997626
21
-20.475004
31
0
39
0
210
0
220
0
230
1
0
LINE
5
F6
100
AcDbEntity
8
1
62
256
6
ByLayer
370
18
48
1
60
1
100
AcDbLine
10
-61.997626
20
-20.475004
30
0
11
-60.002374
21
-20.474996
31
0
39
0
210
0
220
0
230
1
0
LINE
5
F7
100
AcDbEntity
8
1
62
256
6
ByLayer
370
18
48
1
60
1
100
AcDbLine
10
-60.002374
20
-20.474996
30
0
11
-61
21
-24.975
31
0
39
0
210
0
220
0
230
1
0
LINE
5
14A
100
AcDbEntity
8
1
62
256
6
ByLayer
370
18
48
1
60
1
100
AcDbLine
10
-61
20
24.975
30
0
11
-60.002374
21
20.475004
31
0
39
0
210
0
220
0
230
1
0
LINE
5
14B
100
AcDbEntity
8
1
62
256
6
ByLayer
370
18
48
1
60
1
100
AcDbLine
10
-60.002374
20
20.475004
30
0
11
-61.997626
21
20.474996
31
0
39
0
210
0
220
0
230
1
0
LINE
5
14C
100
AcDbEntity
8
1
62
256
6
ByLayer
370
18
48
1
60
1
100
AcDbLine
10
-61.997626
20
20.474996
30
0
11
-61
21
24.975
31
0
39
0
210
0
220
0
230
1
0
LINE
5
14E
100
AcDbEntity
8
1
62
256
6
ByLayer
370
18
48
1
60
1
100
AcDbLine
10
-61
20
-24.975
30
0
11
-61.997626
21
-20.475004
31
0
39
0
210
0
220
0
230
1
0
LINE
5
14F
100
AcDbEntity
8
1
62
256
6
ByLayer
370
18
48
1
60
1
100
AcDbLine
10
-61.997626
20
-20.475004
30
0
11
-60.002374
21
-20.474996
31
0
39
0
210
0
220
0
230
1
0
LINE
5
150
100
AcDbEntity
8
1
62
256
6
ByLayer
370
18
48
1
60
1
100
AcDbLine
10
-60.002374
20
-20.474996
30
0
11
-61
21
-24.975
31
0
39
0
210
0
220
0
230
1
0
LINE
5
157
100
AcDbEntity
8
SK6
62
256
6
ByLayer
370
13
48
1
60
0
100
AcDbLine
10
-28.9
20
34.975
30
0
11
-28.9
21
34.975
31
0
39
0
210
0
220
0
230
1
0
MTEXT
5
146
100
AcDbEntity
8
SK2
62
256
6
ByLayer
370
18
48
1
60
0
100
AcDbMText
10
-63.011672
20
-4.699399
30
0
210
0
220
0
230
1
1
%%c
40
4.5
41
0
44
1.084337
50
90
71
7
72
5
7
iso_b_vert
0
MTEXT
5
149
100
AcDbEntity
8
SK2
62
256
6
ByLayer
370
18
48
1
60
0
100
AcDbMText
10
-63.011672
20
2.015444
30
0
210
0
220
0
230
1
1
\W0.6740;50
40
4.5
41
0
44
1.084337
50
90
71
7
72
5
7
iso_b_vert
0
MTEXT
5
152
100
AcDbEntity
8
SK6
62
256
6
ByLayer
370
18
48
1
60
0
100
AcDbMText
10
-7.8145
20
-39.192366
30
0
210
0
220
0
230
1
1
\W0.7605;930-HA05-S-20-090A
40
3.5
41
0
44
1.084337
50
0
71
7
72
5
7
iso_b_vert
0
MTEXT
5
154
100
AcDbEntity
8
SK6
62
256
6
ByLayer
370
18
48
1
60
0
100
AcDbMText
10
-70.618094
20
32.507634
30
0
210
0
220
0
230
1
1
\W0.7830;DIN69893-HSK-A50
40
3.5
41
0
44
1.084337
50
0
71
7
72
5
7
iso_b_vert
0
MTEXT
5
155
100
AcDbEntity
8
SK6
62
256
6
ByLayer
370
18
48
1
60
0
100
AcDbMText
10
-29.773633
20
32.507634
30
0
210
0
220
0
230
1
1
\W0.2969; 
40
3.5
41
0
44
1.084337
50
0
71
7
72
5
7
iso_b_vert
0
HATCH
5
14D
100
AcDbEntity
8
SK2
62
256
6
ByLayer
370
13
48
1
60
0
100
AcDbHatch
10
0
20
0
30
0
210
0
220
0
230
1
2
ANSI31
70
0
71
0
91
1
92
5
93
3
72
1
10
-61
20
24.975
11
-60.0023740181135
21
20.4750036644848
72
1
10
-60.0023740181135
20
20.4750036644848
11
-61.9976259818865
21
20.4749963355152
72
1
10
-61.9976259818865
20
20.4749963355152
11
-61
21
24.975
97
0
75
0
76
1
52
0
41
0.0062
77
0
78
1
53
45
43
0
44
0
45
-0.0139193969876572
46
0.0139193969876572
79
0
47
0
98
1
10
0
20
0
0
HATCH
5
151
100
AcDbEntity
8
SK2
62
256
6
ByLayer
370
13
48
1
60
0
100
AcDbHatch
10
0
20
0
30
0
210
0
220
0
230
1
2
ANSI31
70
0
71
0
91
1
92
5
93
3
72
1
10
-61
20
-24.975
11
-61.9976259818865
21
-20.4750036644848
72
1
10
-61.9976259818865
20
-20.4750036644848
11
-60.0023740181135
21
-20.4749963355152
72
1
10
-60.0023740181135
20
-20.4749963355152
11
-61
21
-24.975
97
0
75
0
76
1
52
0
41
0.0062
77
0
78
1
53
45
43
0
44
0
45
-0.0139193969876572
46
0.0139193969876572
79
0
47
0
98
1
10
0
20
0
0
DIMENSION
5
160
100
AcDbEntity
8
SK2
62
256
6
ByLayer
370
18
48
1
60
0
100
AcDbDimension
2
_U0
10
164.25
20
20.75
30
0
11
164.25
21
0
31
0
70
32
71
1
72
1
41
1
210
0
220
0
230
1
3
Standard
100
AcDbAlignedDimension
13
90
23
-20.75
33
0
14
90
24
20.75
34
0
50
90
100
AcDbRotatedDimension
1001
ACAD
1000
DSTYLE
1002
{
1070
   371
1070
    13
1070
   372
1070
    13
1070
   170
1070
     0
1070
   144
1040
1.0
1070
   277
1070
     2
1070
   284
1070
     8
1070
   278
1070
    44
1070
   146
1040
0.777778
1070
   345
1005
16
1070
   347
1005
16
1070
   346
1005
16
1070
   344
1005
0
1070
   343
1005
0
1070
   172
1070
     1
1070
    76
1070
     0
1070
    75
1070
     0
1070
   282
1070
     0
1070
   281
1070
     0
1070
    71
1070
     0
1070
    74
1070
     0
1070
   279
1070
     0
1070
   173
1070
     1
1070
   340
1005
147
1070
   271
1070
     1
1070
   272
1070
     2
1070
    77
1070
     1
1070
    73
1070
     0
1070
   171
1070
     3
1070
   274
1070
     4
1070
   177
1070
     2
1070
   176
1070
     2
1070
   178
1070
     2
1070
    78
1070
     8
1070
    48
1040
-0.1
1070
    41
1040
4.5
1070
   147
1040
2.25
1070
    42
1040
1.5875
1070
    44
1040
2.0
1070
   140
1040
4.5
1002
}
1001
ACAD_DSTYLE_DIM_LINETYPE
1070
   380
1005
16
1001
ACAD_DSTYLE_DIM_EXT1_LINETYPE
1070
   381
1005
16
1001
ACAD_DSTYLE_DIM_EXT2_LINETYPE
1070
   382
1005
16
0
DIMENSION
5
17A
100
AcDbEntity
8
SK2
62
256
6
ByLayer
370
18
48
1
60
0
100
AcDbDimension
2
_U1
10
142.25
20
-10
30
0
11
142.25
21
0
31
0
70
32
71
1
72
1
41
1
210
0
220
0
230
1
3
Standard
100
AcDbAlignedDimension
13
90
23
10
33
0
14
90
24
-10
34
0
50
90
100
AcDbRotatedDimension
1001
ACAD
1000
DSTYLE
1002
{
1070
   371
1070
    13
1070
   372
1070
    13
1070
   170
1070
     0
1070
   144
1040
1.0
1070
   277
1070
     2
1070
   284
1070
     8
1070
   278
1070
    44
1070
   146
1040
0.777778
1070
   345
1005
16
1070
   347
1005
16
1070
   346
1005
16
1070
   344
1005
0
1070
   343
1005
0
1070
   172
1070
     1
1070
    76
1070
     0
1070
    75
1070
     0
1070
   282
1070
     0
1070
   281
1070
     0
1070
    71
1070
     0
1070
    74
1070
     0
1070
   279
1070
     0
1070
   173
1070
     1
1070
   340
1005
147
1070
   271
1070
     1
1070
   272
1070
     2
1070
    77
1070
     1
1070
    73
1070
     0
1070
   171
1070
     3
1070
   274
1070
     4
1070
   177
1070
     2
1070
   176
1070
     2
1070
   178
1070
     2
1070
    78
1070
     8
1070
    48
1040
-0.1
1070
    41
1040
4.5
1070
   147
1040
2.25
1070
    42
1040
1.5875
1070
    44
1040
2.0
1070
   140
1040
4.5
1002
}
1001
ACAD_DSTYLE_DIM_LINETYPE
1070
   380
1005
16
1001
ACAD_DSTYLE_DIM_EXT1_LINETYPE
1070
   381
1005
16
1001
ACAD_DSTYLE_DIM_EXT2_LINETYPE
1070
   382
1005
16
0
DIMENSION
5
194
100
AcDbEntity
8
SK2
62
256
6
ByLayer
370
18
48
1
60
0
100
AcDbDimension
2
_U2
10
90
20
-43.575
30
0
11
64.5
21
-43.575
31
0
70
32
71
1
72
1
41
1
210
0
220
0
230
1
3
Standard
100
AcDbAlignedDimension
13
39
23
-10
33
0
14
90
24
-10
34
0
50
0
100
AcDbRotatedDimension
1001
ACAD
1000
DSTYLE
1002
{
1070
   371
1070
    13
1070
   372
1070
    13
1070
     3
1000

1070
   170
1070
     0
1070
   144
1040
1.0
1070
   277
1070
     2
1070
   284
1070
     8
1070
   278
1070
    44
1070
   146
1040
0.777778
1070
   345
1005
16
1070
   347
1005
16
1070
   346
1005
16
1070
   344
1005
0
1070
   343
1005
0
1070
   172
1070
     1
1070
    76
1070
     0
1070
    75
1070
     0
1070
   282
1070
     0
1070
   281
1070
     0
1070
    71
1070
     0
1070
    74
1070
     0
1070
   279
1070
     0
1070
   173
1070
     1
1070
   340
1005
147
1070
   271
1070
     0
1070
   272
1070
     2
1070
    77
1070
     1
1070
    73
1070
     1
1070
   171
1070
     3
1070
   274
1070
     4
1070
   177
1070
     2
1070
   176
1070
     2
1070
   178
1070
     2
1070
    78
1070
     8
1070
    48
1040
-0.1
1070
    41
1040
4.5
1070
   147
1040
2.25
1070
    42
1040
1.5875
1070
    44
1040
2.0
1070
   140
1040
4.5
1002
}
1001
ACAD_DSTYLE_DIM_LINETYPE
1070
   380
1005
16
1001
ACAD_DSTYLE_DIM_EXT1_LINETYPE
1070
   381
1005
16
1001
ACAD_DSTYLE_DIM_EXT2_LINETYPE
1070
   382
1005
16
0
DIMENSION
5
1AC
100
AcDbEntity
8
SK2
62
256
6
ByLayer
370
18
48
1
60
0
100
AcDbDimension
2
_U3
10
90
20
-33.575
30
0
11
82
21
-33.575
31
0
70
32
71
1
72
1
41
1
210
0
220
0
230
1
3
Standard
100
AcDbAlignedDimension
13
74
23
-20.75
33
0
14
90
24
-20.75
34
0
50
0
100
AcDbRotatedDimension
1001
ACAD
1000
DSTYLE
1002
{
1070
   371
1070
    13
1070
   372
1070
    13
1070
   170
1070
     0
1070
   144
1040
1.0
1070
   277
1070
     2
1070
   284
1070
     8
1070
   278
1070
    44
1070
   146
1040
0.777778
1070
   345
1005
16
1070
   347
1005
16
1070
   346
1005
16
1070
   344
1005
0
1070
   343
1005
0
1070
   172
1070
     1
1070
    76
1070
     0
1070
    75
1070
     0
1070
   282
1070
     0
1070
   281
1070
     0
1070
    71
1070
     0
1070
    74
1070
     0
1070
   279
1070
     0
1070
   173
1070
     1
1070
   340
1005
147
1070
   271
1070
     1
1070
   272
1070
     2
1070
    77
1070
     1
1070
    73
1070
     1
1070
   171
1070
     3
1070
   274
1070
     4
1070
   177
1070
     2
1070
   176
1070
     2
1070
   178
1070
     2
1070
    78
1070
     8
1070
    48
1040
-0.1
1070
    41
1040
4.5
1070
   147
1040
2.25
1070
    42
1040
1.5875
1070
    44
1040
2.0
1070
   140
1040
4.5
1002
}
1001
ACAD_DSTYLE_DIM_LINETYPE
1070
   380
1005
16
1001
ACAD_DSTYLE_DIM_EXT1_LINETYPE
1070
   381
1005
16
1001
ACAD_DSTYLE_DIM_EXT2_LINETYPE
1070
   382
1005
16
0
DIMENSION
5
1C5
100
AcDbEntity
8
2
62
256
6
ByLayer
370
18
48
1
60
0
100
AcDbDimension
2
_U4
10
90
20
64.075
30
0
11
45
21
64.075
31
0
70
32
71
1
72
1
41
1
210
0
220
0
230
1
3
Standard
100
AcDbAlignedDimension
13
0
23
24.975
33
0
14
90
24
20.75
34
0
50
0
100
AcDbRotatedDimension
1001
ACAD
1000
DSTYLE
1002
{
1070
   371
1070
    13
1070
   372
1070
    13
1070
   170
1070
     0
1070
   144
1040
1.0
1070
   277
1070
     2
1070
   284
1070
     8
1070
   278
1070
    44
1070
   146
1040
0.777778
1070
   345
1005
16
1070
   347
1005
16
1070
   346
1005
16
1070
   344
1005
0
1070
   343
1005
0
1070
   172
1070
     1
1070
    76
1070
     0
1070
    75
1070
     0
1070
   282
1070
     0
1070
   281
1070
     0
1070
    71
1070
     0
1070
    74
1070
     0
1070
   279
1070
     0
1070
   173
1070
     1
1070
   340
1005
147
1070
   271
1070
     1
1070
   272
1070
     2
1070
    77
1070
     1
1070
    73
1070
     1
1070
   171
1070
     3
1070
   274
1070
     4
1070
   177
1070
     2
1070
   176
1070
     2
1070
   178
1070
     2
1070
    78
1070
     8
1070
    48
1040
-0.1
1070
    41
1040
4.5
1070
   147
1040
2.25
1070
    42
1040
1.5875
1070
    44
1040
2.0
1070
   140
1040
4.5
1002
}
1001
ACAD_DSTYLE_DIM_LINETYPE
1070
   380
1005
16
1001
ACAD_DSTYLE_DIM_EXT1_LINETYPE
1070
   381
1005
16
1001
ACAD_DSTYLE_DIM_EXT2_LINETYPE
1070
   382
1005
16
0
DIMENSION
5
1DE
100
AcDbEntity
8
SK2
62
256
6
ByLayer
370
18
48
1
60
0
100
AcDbDimension
2
_U5
10
-24.9
20
64.075
30
0
11
-12.45
21
64.075
31
0
70
32
71
1
72
1
41
1
210
0
220
0
230
1
3
Standard
100
AcDbAlignedDimension
13
0
23
22.055
33
0
14
-24.9
24
18.4
34
0
50
0
100
AcDbRotatedDimension
1001
ACAD
1000
DSTYLE
1002
{
1070
   371
1070
    13
1070
   372
1070
    13
1070
   170
1070
     0
1070
   144
1040
1.0
1070
   277
1070
     2
1070
   284
1070
     8
1070
   278
1070
    44
1070
   146
1040
0.777778
1070
   345
1005
16
1070
   347
1005
16
1070
   346
1005
16
1070
   344
1005
0
1070
   343
1005
0
1070
   172
1070
     1
1070
    76
1070
     0
1070
    75
1070
     0
1070
   282
1070
     0
1070
   281
1070
     0
1070
    71
1070
     0
1070
    74
1070
     0
1070
   279
1070
     0
1070
   173
1070
     1
1070
   340
1005
147
1070
   271
1070
     1
1070
   272
1070
     2
1070
    77
1070
     1
1070
    73
1070
     1
1070
   171
1070
     3
1070
   274
1070
     4
1070
   177
1070
     2
1070
   176
1070
     2
1070
   178
1070
     2
1070
    78
1070
     8
1070
    48
1040
-0.1
1070
    41
1040
4.5
1070
   147
1040
2.25
1070
    42
1040
1.5875
1070
    44
1040
2.0
1070
   140
1040
4.5
1002
}
1001
ACAD_DSTYLE_DIM_LINETYPE
1070
   380
1005
16
1001
ACAD_DSTYLE_DIM_EXT1_LINETYPE
1070
   381
1005
16
1001
ACAD_DSTYLE_DIM_EXT2_LINETYPE
1070
   382
1005
16
0
ENDSEC
0
SECTION
2
OBJECTS
0
DICTIONARY
5
267
330
0
100
AcDbDictionary
280
0
281
1
3
ACAD_GROUP
350
268
3
ACAD_MLINESTYLE
350
269
0
DICTIONARY
5
268
330
0
100
AcDbDictionary
280
0
281
1
0
DICTIONARY
5
269
330
0
100
AcDbDictionary
280
0
281
1
3
Standard
350
18
0
MLINESTYLE
5
18
330
269
100
AcDbMlineStyle
2
Standard
70
0
3

62
256
51
90
52
90
71
2
49
-0.5
62
256
6
ByLayer
49
0.5
62
256
6
ByLayer
0
RASTERVARIABLES
5
254
330

100
AcDbRasterVariables
90
0
70
1
71
1
72
1
0
ENDSEC
0
EOF
