0
SECTION
2
HEADER
9
$ACADVER
1
AC1015
9
$DWGCODEPAGE
3
ANSI_1252
9
$HANDSEED
5
2cf
9
$ANGBASE
50
0
9
$ANGDIR
70
0
9
$ATTMODE
70
1
9
$AUNITS
70
0
9
$AUPREC
70
0
9
$CECOLOR
62
256
9
$CELTSCALE
40
1
9
$CELTYPE
6
ByLayer
9
$CELWEIGHT
370
18
9
$CLAYER
8
0
9
$CMLJUST
70
0
9
$CMLSCALE
40
1
9
$CMLSTYLE
2
Standard
9
$DIMSTYLE
2
Standard
9
$TEXTSIZE
40
0.2
9
$TEXTSTYLE
7
Standard
9
$LUNITS
70
2
9
$LUPREC
70
4
9
$EXTNAMES
290
1
9
$INSUNITS
70
4
9
$LTSCALE
40
1
9
$LWDISPLAY
290
1
9
$PDMODE
70
0
9
$PDSIZE
40
0
9
$PLINEGEN
70
0
0
ENDSEC
0
SECTION
2
CLASSES
0
CLASS
1
RASTERVARIABLES
2
AcDbRasterVariables
3
ISM
90
0
280
0
281
0
0
ENDSEC
0
SECTION
2
TABLES
0
TABLE
2
VPORT
5
2c5
100
AcDbSymbolTable
0
VPORT
5
1
100
AcDbSymbolTableRecord
100
AcDbViewportTableRecord
2
*Active
70
0
10
0
20
0
11
1
21
1
12
-1
22
1
13
0
23
0
14
0.5
24
0.5
15
10
25
10
16
0
26
0
36
1
17
0
27
0
37
0
0
ENDTAB
0
TABLE
2
LTYPE
5
2c6
100
AcDbSymbolTable
0
LTYPE
5
14
100
AcDbSymbolTableRecord
100
AcDbLinetypeTableRecord
70
0
2
ByBlock
3

72
65
73
0
40
0
0
LTYPE
5
15
100
AcDbSymbolTableRecord
100
AcDbLinetypeTableRecord
70
0
2
ByLayer
3

72
65
73
0
40
0
0
LTYPE
5
16
100
AcDbSymbolTableRecord
100
AcDbLinetypeTableRecord
70
0
2
Continuous
3
Solid line
72
65
73
0
40
0
0
LTYPE
5
6E
100
AcDbSymbolTableRecord
100
AcDbLinetypeTableRecord
70
0
2
CENTER
3
____ _ ____ _ ____ _ ____
72
65
73
4
40
47.5
49
22
74
0
49
-8.5
74
0
49
8.5
74
0
49
-8.5
74
0
0
LTYPE
5
6F
100
AcDbSymbolTableRecord
100
AcDbLinetypeTableRecord
70
0
2
DASHED
3
__ __ __ __ __ __ __ __ __
72
65
73
2
40
25.72
49
12.86
74
0
49
-12.86
74
0
0
ENDTAB
0
TABLE
2
LAYER
5
2c7
100
AcDbSymbolTable
0
LAYER
5
10
100
AcDbSymbolTableRecord
100
AcDbLayerTableRecord
2
0
70
0
62
7
6
Continuous
290
1
370
-3
390
0
0
LAYER
5
71
100
AcDbSymbolTableRecord
100
AcDbLayerTableRecord
2
80
70
0
62
-6
6
Continuous
290
1
370
-3
390
0
0
LAYER
5
73
100
AcDbSymbolTableRecord
100
AcDbLayerTableRecord
2
81
70
0
62
-3
6
Continuous
290
1
370
-3
390
0
0
LAYER
5
75
100
AcDbSymbolTableRecord
100
AcDbLayerTableRecord
2
1
70
0
62
4
6
Continuous
290
1
370
-3
390
0
0
LAYER
5
F8
100
AcDbSymbolTableRecord
100
AcDbLayerTableRecord
2
4
70
0
62
-2
6
CENTER
290
1
370
-3
390
0
0
LAYER
5
175
100
AcDbSymbolTableRecord
100
AcDbLayerTableRecord
2
Defpoints
70
0
62
7
6
Continuous
290
0
370
-3
390
0
0
LAYER
5
217
100
AcDbSymbolTableRecord
100
AcDbLayerTableRecord
2
2
70
0
62
7
6
Continuous
290
1
370
-3
390
0
0
LAYER
5
2b0
100
AcDbSymbolTableRecord
100
AcDbLayerTableRecord
2
SK1
70
0
62
4
6
Continuous
290
1
370
-3
390
0
0
LAYER
5
2b1
100
AcDbSymbolTableRecord
100
AcDbLayerTableRecord
2
SK4
70
0
62
2
6
CENTER
290
1
370
-3
390
0
0
LAYER
5
2b2
100
AcDbSymbolTableRecord
100
AcDbLayerTableRecord
2
SK3
70
0
62
1
6
DASHED
290
1
370
-3
390
0
0
LAYER
5
2b3
100
AcDbSymbolTableRecord
100
AcDbLayerTableRecord
2
SK2
70
0
62
7
6
Continuous
290
1
370
-3
390
0
0
LAYER
5
2b4
100
AcDbSymbolTableRecord
100
AcDbLayerTableRecord
2
SK6
70
0
62
5
6
Continuous
290
1
370
-3
390
0
0
ENDTAB
0
TABLE
2
STYLE
5
2c8
100
AcDbSymbolTable
0
STYLE
5
11
100
AcDbSymbolTableRecord
100
AcDbTextStyleTableRecord
2
Standard
3
txt
70
0
71
0
40
0
41
1
42
0
50
0
0
STYLE
5
159
100
AcDbSymbolTableRecord
100
AcDbTextStyleTableRecord
2
iso_b_vert
3
simplex.shx
70
0
71
0
40
0
41
1
42
0
50
0
0
STYLE
5
15A
100
AcDbSymbolTableRecord
100
AcDbTextStyleTableRecord
2
DWGDirectTextStyle
3
simplex
70
0
71
0
40
0
41
1
42
0
50
0
0
ENDTAB
0
TABLE
2
DIMSTYLE
5
2c9
100
AcDbSymbolTable
100
AcDbDimStyleTable
0
DIMSTYLE
105
27
100
AcDbSymbolTableRecord
100
AcDbDimStyleTableRecord
2
Standard
70
0
3
<>
41
0.18
42
0.0625
44
0.18
140
0.18
147
0.09
73
0
74
0
77
1
271
2
275
0
278
52
280
0
340
11
0
ENDTAB
0
TABLE
2
VIEW
5
2ca
100
AcDbSymbolTable
0
ENDTAB
0
TABLE
2
UCS
5
2cb
100
AcDbSymbolTable
0
ENDTAB
0
TABLE
2
APPID
5
2cc
100
AcDbSymbolTable
0
APPID
5
12
100
AcDbSymbolTableRecord
100
AcDbRegAppTableRecord
2
ACAD
70
0
0
APPID
5
171
100
AcDbSymbolTableRecord
100
AcDbRegAppTableRecord
2
ACAD_DSTYLE_DIMBREAK
70
0
0
APPID
5
26F
100
AcDbSymbolTableRecord
100
AcDbRegAppTableRecord
2
ACAD_DSTYLE_DIM_LINETYPE
70
0
0
APPID
5
270
100
AcDbSymbolTableRecord
100
AcDbRegAppTableRecord
2
ACAD_DSTYLE_DIM_EXT1_LINETYPE
70
0
0
APPID
5
271
100
AcDbSymbolTableRecord
100
AcDbRegAppTableRecord
2
ACAD_DSTYLE_DIM_EXT2_LINETYPE
70
0
0
APPID
5
2AC
100
AcDbSymbolTableRecord
100
AcDbRegAppTableRecord
2
ACAD_MLEADERVER
70
0
0
ENDTAB
0
TABLE
2
BLOCK_RECORD
5
2cd
100
AcDbSymbolTable
0
BLOCK_RECORD
5
1F
100
AcDbSymbolTableRecord
100
AcDbBlockTableRecord
2
*Model_Space
340
0
70
0
0
BLOCK_RECORD
5
1B
100
AcDbSymbolTableRecord
100
AcDbBlockTableRecord
2
*Paper_Space
340
0
70
0
0
BLOCK_RECORD
5
23
100
AcDbSymbolTableRecord
100
AcDbBlockTableRecord
2
*Paper_Space0
340
0
70
0
0
BLOCK_RECORD
5
168
100
AcDbSymbolTableRecord
100
AcDbBlockTableRecord
2
LABLE3D_1
340
0
70
0
0
BLOCK_RECORD
5
176
100
AcDbSymbolTableRecord
100
AcDbBlockTableRecord
2
*D2
340
0
70
0
0
BLOCK_RECORD
5
182
100
AcDbSymbolTableRecord
100
AcDbBlockTableRecord
2
_U0
340
0
70
0
0
BLOCK_RECORD
5
18F
100
AcDbSymbolTableRecord
100
AcDbBlockTableRecord
2
*D4
340
0
70
0
0
BLOCK_RECORD
5
19C
100
AcDbSymbolTableRecord
100
AcDbBlockTableRecord
2
_U1
340
0
70
0
0
BLOCK_RECORD
5
1A9
100
AcDbSymbolTableRecord
100
AcDbBlockTableRecord
2
*D6
340
0
70
0
0
BLOCK_RECORD
5
1B5
100
AcDbSymbolTableRecord
100
AcDbBlockTableRecord
2
_U2
340
0
70
0
0
BLOCK_RECORD
5
1C2
100
AcDbSymbolTableRecord
100
AcDbBlockTableRecord
2
*D8
340
0
70
0
0
BLOCK_RECORD
5
1CE
100
AcDbSymbolTableRecord
100
AcDbBlockTableRecord
2
_U3
340
0
70
0
0
BLOCK_RECORD
5
1DA
100
AcDbSymbolTableRecord
100
AcDbBlockTableRecord
2
*D10
340
0
70
0
0
BLOCK_RECORD
5
1E7
100
AcDbSymbolTableRecord
100
AcDbBlockTableRecord
2
_U4
340
0
70
0
0
BLOCK_RECORD
5
1F3
100
AcDbSymbolTableRecord
100
AcDbBlockTableRecord
2
*D12
340
0
70
0
0
BLOCK_RECORD
5
1FF
100
AcDbSymbolTableRecord
100
AcDbBlockTableRecord
2
_U5
340
0
70
0
0
BLOCK_RECORD
5
20B
100
AcDbSymbolTableRecord
100
AcDbBlockTableRecord
2
*D14
340
0
70
0
0
BLOCK_RECORD
5
218
100
AcDbSymbolTableRecord
100
AcDbBlockTableRecord
2
_U6
340
0
70
0
0
BLOCK_RECORD
5
224
100
AcDbSymbolTableRecord
100
AcDbBlockTableRecord
2
*D16
340
0
70
0
0
BLOCK_RECORD
5
230
100
AcDbSymbolTableRecord
100
AcDbBlockTableRecord
2
_U7
340
0
70
0
0
BLOCK_RECORD
5
23C
100
AcDbSymbolTableRecord
100
AcDbBlockTableRecord
2
*D18
340
0
70
0
0
BLOCK_RECORD
5
248
100
AcDbSymbolTableRecord
100
AcDbBlockTableRecord
2
_U8
340
0
70
0
0
ENDTAB
0
ENDSEC
0
SECTION
2
BLOCKS
0
BLOCK
5
20
100
AcDbEntity
8
0
100
AcDbBlockBegin
2
*Model_Space
70
0
10
0
20
0
30
0
3
*Model_Space
0
ENDBLK
5
21
100
AcDbEntity
8
0
100
AcDbBlockEnd
0
BLOCK
5
1C
100
AcDbEntity
8
0
100
AcDbBlockBegin
2
*Paper_Space
70
0
10
0
20
0
30
0
3
*Paper_Space
0
ENDBLK
5
1D
100
AcDbEntity
8
0
100
AcDbBlockEnd
0
BLOCK
5
24
100
AcDbEntity
8
0
100
AcDbBlockBegin
2
*Paper_Space0
70
0
10
0
20
0
30
0
3
*Paper_Space0
0
ENDBLK
5
25
100
AcDbEntity
8
0
100
AcDbBlockEnd
0
BLOCK
5
16F
100
AcDbEntity
8
0
100
AcDbBlockBegin
2
LABLE3D_1
70
0
10
-34.4
20
41.47
30
0
3
LABLE3D_1
0
MTEXT
5
16D
100
AcDbEntity
8
SK6
62
256
6
ByLayer
370
18
48
1
60
0
100
AcDbMText
10
-35.7145
20
39.002634
30
0
210
0
220
0
230
1
1
\W1.0000;
40
3.5
41
0
44
1.084337
50
0
71
7
72
5
7
iso_b_vert
0
ENDBLK
5
170
100
AcDbEntity
8
0
100
AcDbBlockEnd
0
BLOCK
5
177
100
AcDbEntity
8
0
100
AcDbBlockBegin
2
*D2
70
1
10
0
20
0
30
0
3
*D2
0
LINE
5
179
100
AcDbEntity
8
0
62
256
6
ByLayer
370
-2
48
1
60
0
100
AcDbLine
10
101.5875
20
-21
30
0
11
166.25
21
-21
31
0
39
0
210
0
220
0
230
1
0
LINE
5
17A
100
AcDbEntity
8
0
62
256
6
ByLayer
370
-2
48
1
60
0
100
AcDbLine
10
101.5875
20
21
30
0
11
166.25
21
21
31
0
39
0
210
0
220
0
230
1
0
LINE
5
17B
100
AcDbEntity
8
0
62
256
6
ByLayer
370
-2
48
1
60
0
100
AcDbLine
10
164.25
20
-16.5
30
0
11
164.25
21
16.5
31
0
39
0
210
0
220
0
230
1
0
SOLID
5
17C
100
AcDbEntity
8
0
62
256
6
ByLayer
370
-1
48
1
60
0
100
AcDbTrace
10
163.5
20
-16.5
30
0
11
165
21
-16.5
31
0
12
164.25
22
-21
32
0
13
164.25
23
-21
33
0
39
0
210
0
220
0
230
1
0
SOLID
5
17D
100
AcDbEntity
8
0
62
256
6
ByLayer
370
-1
48
1
60
0
100
AcDbTrace
10
165
20
16.5
30
0
11
163.5
21
16.5
31
0
12
164.25
22
21
32
0
13
164.25
23
21
33
0
39
0
210
0
220
0
230
1
0
MTEXT
5
17E
100
AcDbEntity
8
0
62
256
6
ByLayer
370
18
48
1
60
0
100
AcDbMText
10
155.25
20
0
30
0
210
0
220
0
230
1
1
\A1;42
40
4.5
41
0
44
1
50
90
71
5
72
5
7
iso_b_vert
0
POINT
5
17F
100
AcDbEntity
8
Defpoints
62
0
6
ByLayer
370
-1
48
1
60
0
100
AcDbPoint
10
100
20
-21
30
0
39
0
210
0
220
0
230
1
50
360
0
POINT
5
180
100
AcDbEntity
8
Defpoints
62
0
6
ByLayer
370
-1
48
1
60
0
100
AcDbPoint
10
100
20
21
30
0
39
0
210
0
220
0
230
1
50
360
0
POINT
5
181
100
AcDbEntity
8
Defpoints
62
0
6
ByLayer
370
-1
48
1
60
0
100
AcDbPoint
10
164.25
20
21
30
0
39
0
210
0
220
0
230
1
50
360
0
ENDBLK
5
178
100
AcDbEntity
8
0
100
AcDbBlockEnd
0
BLOCK
5
18A
100
AcDbEntity
8
0
100
AcDbBlockBegin
2
_U0
70
0
10
0
20
0
30
0
3
_U0
0
MTEXT
5
183
100
AcDbEntity
8
SK2
62
256
6
ByLayer
370
18
48
1
60
0
100
AcDbMText
10
162.185366
20
-8.017157
30
0
210
0
220
0
230
1
1
%%c
40
3.5
41
0
44
1.084337
50
90
71
7
72
5
7
iso_b_vert
0
MTEXT
5
184
100
AcDbEntity
8
SK2
62
256
6
ByLayer
370
18
48
1
60
0
100
AcDbMText
10
162.488328
20
2.527843
30
0
210
0
220
0
230
1
1
\W0.7361;42
40
4.5
41
0
44
1.084337
50
90
71
7
72
5
7
iso_b_vert
0
LINE
5
185
100
AcDbEntity
8
SK2
62
256
6
ByLayer
370
13
48
1
60
0
100
AcDbLine
10
101.5875
20
-21
30
0
11
166.25
21
-21
31
0
39
0
210
0
220
0
230
1
0
LINE
5
186
100
AcDbEntity
8
SK2
62
256
6
ByLayer
370
13
48
1
60
0
100
AcDbLine
10
101.5875
20
21
30
0
11
166.25
21
21
31
0
39
0
210
0
220
0
230
1
0
LINE
5
187
100
AcDbEntity
8
SK2
62
256
6
ByLayer
370
13
48
1
60
0
100
AcDbLine
10
164.25
20
-21
30
0
11
164.25
21
21
31
0
39
0
210
0
220
0
230
1
0
SOLID
5
188
100
AcDbEntity
8
SK2
62
256
6
ByLayer
370
18
48
1
60
0
100
AcDbTrace
10
164.25
20
-21
30
0
11
163.252374
21
-16.500004
31
0
12
165.247626
22
-16.499996
32
0
13
165.247626
23
-16.499996
33
0
39
0
210
0
220
0
230
1
0
SOLID
5
189
100
AcDbEntity
8
SK2
62
256
6
ByLayer
370
18
48
1
60
0
100
AcDbTrace
10
164.25
20
21
30
0
11
165.247626
21
16.500004
31
0
12
163.252374
22
16.499996
32
0
13
163.252374
23
16.499996
33
0
39
0
210
0
220
0
230
1
0
ENDBLK
5
18B
100
AcDbEntity
8
0
100
AcDbBlockEnd
0
BLOCK
5
190
100
AcDbEntity
8
0
100
AcDbBlockBegin
2
*D4
70
1
10
0
20
0
30
0
3
*D4
0
LINE
5
192
100
AcDbEntity
8
0
62
256
6
ByLayer
370
-2
48
1
60
0
100
AcDbLine
10
101.5875
20
10
30
0
11
154.25
21
10
31
0
39
0
210
0
220
0
230
1
0
LINE
5
193
100
AcDbEntity
8
0
62
256
6
ByLayer
370
-2
48
1
60
0
100
AcDbLine
10
101.5875
20
-10
30
0
11
154.25
21
-10
31
0
39
0
210
0
220
0
230
1
0
LINE
5
194
100
AcDbEntity
8
0
62
256
6
ByLayer
370
-2
48
1
60
0
100
AcDbLine
10
152.25
20
14.5
30
0
11
152.25
21
19
31
0
39
0
210
0
220
0
230
1
0
LINE
5
195
100
AcDbEntity
8
0
62
256
6
ByLayer
370
-2
48
1
60
0
100
AcDbLine
10
152.25
20
-14.5
30
0
11
152.25
21
-19
31
0
39
0
210
0
220
0
230
1
0
SOLID
5
196
100
AcDbEntity
8
0
62
256
6
ByLayer
370
-1
48
1
60
0
100
AcDbTrace
10
151.5
20
14.5
30
0
11
153
21
14.5
31
0
12
152.25
22
10
32
0
13
152.25
23
10
33
0
39
0
210
0
220
0
230
1
0
SOLID
5
197
100
AcDbEntity
8
0
62
256
6
ByLayer
370
-1
48
1
60
0
100
AcDbTrace
10
153
20
-14.5
30
0
11
151.5
21
-14.5
31
0
12
152.25
22
-10
32
0
13
152.25
23
-10
33
0
39
0
210
0
220
0
230
1
0
MTEXT
5
198
100
AcDbEntity
8
0
62
256
6
ByLayer
370
18
48
1
60
0
100
AcDbMText
10
143.25
20
0
30
0
210
0
220
0
230
1
1
\A1;20
40
4.5
41
0
44
1
50
90
71
5
72
5
7
iso_b_vert
0
POINT
5
199
100
AcDbEntity
8
Defpoints
62
0
6
ByLayer
370
-1
48
1
60
0
100
AcDbPoint
10
100
20
10
30
0
39
0
210
0
220
0
230
1
50
360
0
POINT
5
19A
100
AcDbEntity
8
Defpoints
62
0
6
ByLayer
370
-1
48
1
60
0
100
AcDbPoint
10
100
20
-10
30
0
39
0
210
0
220
0
230
1
50
360
0
POINT
5
19B
100
AcDbEntity
8
Defpoints
62
0
6
ByLayer
370
-1
48
1
60
0
100
AcDbPoint
10
152.25
20
-10
30
0
39
0
210
0
220
0
230
1
50
360
0
ENDBLK
5
191
100
AcDbEntity
8
0
100
AcDbBlockEnd
0
BLOCK
5
1A4
100
AcDbEntity
8
0
100
AcDbBlockBegin
2
_U1
70
0
10
0
20
0
30
0
3
_U1
0
MTEXT
5
19D
100
AcDbEntity
8
SK2
62
256
6
ByLayer
370
18
48
1
60
0
100
AcDbMText
10
150.185366
20
-7.780242
30
0
210
0
220
0
230
1
1
%%c
40
3.5
41
0
44
1.084337
50
90
71
7
72
5
7
iso_b_vert
0
MTEXT
5
19E
100
AcDbEntity
8
SK2
62
256
6
ByLayer
370
18
48
1
60
0
100
AcDbMText
10
150.488328
20
2.764758
30
0
210
0
220
0
230
1
1
\W0.6740;20
40
4.5
41
0
44
1.084337
50
90
71
7
72
5
7
iso_b_vert
0
LINE
5
19F
100
AcDbEntity
8
SK2
62
256
6
ByLayer
370
13
48
1
60
0
100
AcDbLine
10
101.5875
20
10
30
0
11
154.25
21
10
31
0
39
0
210
0
220
0
230
1
0
LINE
5
1A0
100
AcDbEntity
8
SK2
62
256
6
ByLayer
370
13
48
1
60
0
100
AcDbLine
10
101.5875
20
-10
30
0
11
154.25
21
-10
31
0
39
0
210
0
220
0
230
1
0
LINE
5
1A1
100
AcDbEntity
8
SK2
62
256
6
ByLayer
370
13
48
1
60
0
100
AcDbLine
10
152.25
20
21.25
30
0
11
152.25
21
-21.25
31
0
39
0
210
0
220
0
230
1
0
SOLID
5
1A2
100
AcDbEntity
8
SK2
62
256
6
ByLayer
370
18
48
1
60
0
100
AcDbTrace
10
152.25
20
10
30
0
11
151.252374
21
14.499996
31
0
12
153.247626
22
14.500004
32
0
13
153.247626
23
14.500004
33
0
39
0
210
0
220
0
230
1
0
SOLID
5
1A3
100
AcDbEntity
8
SK2
62
256
6
ByLayer
370
18
48
1
60
0
100
AcDbTrace
10
152.25
20
-10
30
0
11
153.247626
21
-14.499996
31
0
12
151.252374
22
-14.500004
32
0
13
151.252374
23
-14.500004
33
0
39
0
210
0
220
0
230
1
0
ENDBLK
5
1A5
100
AcDbEntity
8
0
100
AcDbBlockEnd
0
BLOCK
5
1AA
100
AcDbEntity
8
0
100
AcDbBlockBegin
2
*D6
70
1
10
0
20
0
30
0
3
*D6
0
LINE
5
1AC
100
AcDbEntity
8
0
62
256
6
ByLayer
370
-2
48
1
60
0
100
AcDbLine
10
50.5875
20
25
30
0
11
186.25
21
25
31
0
39
0
210
0
220
0
230
1
0
LINE
5
1AD
100
AcDbEntity
8
0
62
256
6
ByLayer
370
-2
48
1
60
0
100
AcDbLine
10
50.5875
20
-25
30
0
11
186.25
21
-25
31
0
39
0
210
0
220
0
230
1
0
LINE
5
1AE
100
AcDbEntity
8
0
62
256
6
ByLayer
370
-2
48
1
60
0
100
AcDbLine
10
184.25
20
20.5
30
0
11
184.25
21
-20.5
31
0
39
0
210
0
220
0
230
1
0
SOLID
5
1AF
100
AcDbEntity
8
0
62
256
6
ByLayer
370
-1
48
1
60
0
100
AcDbTrace
10
185
20
20.5
30
0
11
183.5
21
20.5
31
0
12
184.25
22
25
32
0
13
184.25
23
25
33
0
39
0
210
0
220
0
230
1
0
SOLID
5
1B0
100
AcDbEntity
8
0
62
256
6
ByLayer
370
-1
48
1
60
0
100
AcDbTrace
10
183.5
20
-20.5
30
0
11
185
21
-20.5
31
0
12
184.25
22
-25
32
0
13
184.25
23
-25
33
0
39
0
210
0
220
0
230
1
0
MTEXT
5
1B1
100
AcDbEntity
8
0
62
256
6
ByLayer
370
18
48
1
60
0
100
AcDbMText
10
175.25
20
0
30
0
210
0
220
0
230
1
1
\A1;50
40
4.5
41
0
44
1
50
90
71
5
72
5
7
iso_b_vert
0
POINT
5
1B2
100
AcDbEntity
8
Defpoints
62
0
6
ByLayer
370
-1
48
1
60
0
100
AcDbPoint
10
49
20
25
30
0
39
0
210
0
220
0
230
1
50
360
0
POINT
5
1B3
100
AcDbEntity
8
Defpoints
62
0
6
ByLayer
370
-1
48
1
60
0
100
AcDbPoint
10
49
20
-25
30
0
39
0
210
0
220
0
230
1
50
360
0
POINT
5
1B4
100
AcDbEntity
8
Defpoints
62
0
6
ByLayer
370
-1
48
1
60
0
100
AcDbPoint
10
184.25
20
-25
30
0
39
0
210
0
220
0
230
1
50
360
0
ENDBLK
5
1AB
100
AcDbEntity
8
0
100
AcDbBlockEnd
0
BLOCK
5
1BD
100
AcDbEntity
8
0
100
AcDbBlockBegin
2
_U2
70
0
10
0
20
0
30
0
3
_U2
0
MTEXT
5
1B6
100
AcDbEntity
8
SK2
62
256
6
ByLayer
370
18
48
1
60
0
100
AcDbMText
10
182.185366
20
-7.780242
30
0
210
0
220
0
230
1
1
%%c
40
3.5
41
0
44
1.084337
50
90
71
7
72
5
7
iso_b_vert
0
MTEXT
5
1B7
100
AcDbEntity
8
SK2
62
256
6
ByLayer
370
18
48
1
60
0
100
AcDbMText
10
182.488328
20
2.764758
30
0
210
0
220
0
230
1
1
\W0.6740;50
40
4.5
41
0
44
1.084337
50
90
71
7
72
5
7
iso_b_vert
0
LINE
5
1B8
100
AcDbEntity
8
SK2
62
256
6
ByLayer
370
13
48
1
60
0
100
AcDbLine
10
50.5875
20
25
30
0
11
186.25
21
25
31
0
39
0
210
0
220
0
230
1
0
LINE
5
1B9
100
AcDbEntity
8
SK2
62
256
6
ByLayer
370
13
48
1
60
0
100
AcDbLine
10
50.5875
20
-25
30
0
11
186.25
21
-25
31
0
39
0
210
0
220
0
230
1
0
LINE
5
1BA
100
AcDbEntity
8
SK2
62
256
6
ByLayer
370
13
48
1
60
0
100
AcDbLine
10
184.25
20
25
30
0
11
184.25
21
-25
31
0
39
0
210
0
220
0
230
1
0
SOLID
5
1BB
100
AcDbEntity
8
SK2
62
256
6
ByLayer
370
18
48
1
60
0
100
AcDbTrace
10
184.25
20
25
30
0
11
185.247626
21
20.500004
31
0
12
183.252374
22
20.499996
32
0
13
183.252374
23
20.499996
33
0
39
0
210
0
220
0
230
1
0
SOLID
5
1BC
100
AcDbEntity
8
SK2
62
256
6
ByLayer
370
18
48
1
60
0
100
AcDbTrace
10
184.25
20
-25
30
0
11
183.252374
21
-20.500004
31
0
12
185.247626
22
-20.499996
32
0
13
185.247626
23
-20.499996
33
0
39
0
210
0
220
0
230
1
0
ENDBLK
5
1BE
100
AcDbEntity
8
0
100
AcDbBlockEnd
0
BLOCK
5
1C3
100
AcDbEntity
8
0
100
AcDbBlockBegin
2
*D8
70
1
10
0
20
0
30
0
3
*D8
0
LINE
5
1C5
100
AcDbEntity
8
0
62
256
6
ByLayer
370
-2
48
1
60
0
100
AcDbLine
10
49
20
-11.5875
30
0
11
49
21
-52.07
31
0
39
0
210
0
220
0
230
1
0
LINE
5
1C6
100
AcDbEntity
8
0
62
256
6
ByLayer
370
-2
48
1
60
0
100
AcDbLine
10
100
20
-11.5875
30
0
11
100
21
-52.07
31
0
39
0
210
0
220
0
230
1
0
LINE
5
1C7
100
AcDbEntity
8
0
62
256
6
ByLayer
370
-2
48
1
60
0
100
AcDbLine
10
53.5
20
-50.07
30
0
11
95.5
21
-50.07
31
0
39
0
210
0
220
0
230
1
0
SOLID
5
1C8
100
AcDbEntity
8
0
62
256
6
ByLayer
370
-1
48
1
60
0
100
AcDbTrace
10
53.5
20
-49.32
30
0
11
53.5
21
-50.82
31
0
12
49
22
-50.07
32
0
13
49
23
-50.07
33
0
39
0
210
0
220
0
230
1
0
SOLID
5
1C9
100
AcDbEntity
8
0
62
256
6
ByLayer
370
-1
48
1
60
0
100
AcDbTrace
10
95.5
20
-50.82
30
0
11
95.5
21
-49.32
31
0
12
100
22
-50.07
32
0
13
100
23
-50.07
33
0
39
0
210
0
220
0
230
1
0
MTEXT
5
1CA
100
AcDbEntity
8
0
62
256
6
ByLayer
370
18
48
1
60
0
100
AcDbMText
10
74.5
20
-41.07
30
0
210
0
220
0
230
1
1
\A1;51
40
4.5
41
0
44
1
50
0
71
5
72
5
7
iso_b_vert
0
POINT
5
1CB
100
AcDbEntity
8
Defpoints
62
0
6
ByLayer
370
-1
48
1
60
0
100
AcDbPoint
10
49
20
-10
30
0
39
0
210
0
220
0
230
1
50
360
0
POINT
5
1CC
100
AcDbEntity
8
Defpoints
62
0
6
ByLayer
370
-1
48
1
60
0
100
AcDbPoint
10
100
20
-10
30
0
39
0
210
0
220
0
230
1
50
360
0
POINT
5
1CD
100
AcDbEntity
8
Defpoints
62
0
6
ByLayer
370
-1
48
1
60
0
100
AcDbPoint
10
100
20
-50.07
30
0
39
0
210
0
220
0
230
1
50
360
0
ENDBLK
5
1C4
100
AcDbEntity
8
0
100
AcDbBlockEnd
0
BLOCK
5
1D5
100
AcDbEntity
8
0
100
AcDbBlockBegin
2
_U3
70
0
10
0
20
0
30
0
3
_U3
0
MTEXT
5
1CF
100
AcDbEntity
8
SK2
62
256
6
ByLayer
370
18
48
1
60
0
100
AcDbMText
10
54.739217
20
-48.742328
30
0
210
0
220
0
230
1
1
\W0.7114;min 41-max 51
40
4.5
41
0
44
1.084337
50
0
71
7
72
5
7
iso_b_vert
0
LINE
5
1D0
100
AcDbEntity
8
SK2
62
256
6
ByLayer
370
13
48
1
60
0
100
AcDbLine
10
49
20
-11.5875
30
0
11
49
21
-52.07
31
0
39
0
210
0
220
0
230
1
0
LINE
5
1D1
100
AcDbEntity
8
SK2
62
256
6
ByLayer
370
13
48
1
60
0
100
AcDbLine
10
100
20
-11.5875
30
0
11
100
21
-52.07
31
0
39
0
210
0
220
0
230
1
0
LINE
5
1D2
100
AcDbEntity
8
SK2
62
256
6
ByLayer
370
13
48
1
60
0
100
AcDbLine
10
37.75
20
-50.07
30
0
11
111.25
21
-50.07
31
0
39
0
210
0
220
0
230
1
0
SOLID
5
1D3
100
AcDbEntity
8
SK2
62
256
6
ByLayer
370
18
48
1
60
0
100
AcDbTrace
10
49
20
-50.07
30
0
11
44.500004
21
-51.067626
31
0
12
44.499996
22
-49.072374
32
0
13
44.499996
23
-49.072374
33
0
39
0
210
0
220
0
230
1
0
SOLID
5
1D4
100
AcDbEntity
8
SK2
62
256
6
ByLayer
370
18
48
1
60
0
100
AcDbTrace
10
100
20
-50.07
30
0
11
104.499996
21
-49.072374
31
0
12
104.500004
22
-51.067626
32
0
13
104.500004
23
-51.067626
33
0
39
0
210
0
220
0
230
1
0
ENDBLK
5
1D6
100
AcDbEntity
8
0
100
AcDbBlockEnd
0
BLOCK
5
1DB
100
AcDbEntity
8
0
100
AcDbBlockBegin
2
*D10
70
1
10
0
20
0
30
0
3
*D10
0
LINE
5
1DD
100
AcDbEntity
8
0
62
256
6
ByLayer
370
-2
48
1
60
0
100
AcDbLine
10
84
20
-22.5875
30
0
11
84
21
-42.07
31
0
39
0
210
0
220
0
230
1
0
LINE
5
1DE
100
AcDbEntity
8
0
62
256
6
ByLayer
370
-2
48
1
60
0
100
AcDbLine
10
100
20
-22.5875
30
0
11
100
21
-42.07
31
0
39
0
210
0
220
0
230
1
0
LINE
5
1DF
100
AcDbEntity
8
0
62
256
6
ByLayer
370
-2
48
1
60
0
100
AcDbLine
10
79.5
20
-40.07
30
0
11
75
21
-40.07
31
0
39
0
210
0
220
0
230
1
0
LINE
5
1E0
100
AcDbEntity
8
0
62
256
6
ByLayer
370
-2
48
1
60
0
100
AcDbLine
10
104.5
20
-40.07
30
0
11
109
21
-40.07
31
0
39
0
210
0
220
0
230
1
0
SOLID
5
1E1
100
AcDbEntity
8
0
62
256
6
ByLayer
370
-1
48
1
60
0
100
AcDbTrace
10
79.5
20
-40.82
30
0
11
79.5
21
-39.32
31
0
12
84
22
-40.07
32
0
13
84
23
-40.07
33
0
39
0
210
0
220
0
230
1
0
SOLID
5
1E2
100
AcDbEntity
8
0
62
256
6
ByLayer
370
-1
48
1
60
0
100
AcDbTrace
10
104.5
20
-39.32
30
0
11
104.5
21
-40.82
31
0
12
100
22
-40.07
32
0
13
100
23
-40.07
33
0
39
0
210
0
220
0
230
1
0
MTEXT
5
1E3
100
AcDbEntity
8
0
62
256
6
ByLayer
370
18
48
1
60
0
100
AcDbMText
10
92
20
-31.07
30
0
210
0
220
0
230
1
1
\A1;16
40
4.5
41
0
44
1
50
0
71
5
72
5
7
iso_b_vert
0
POINT
5
1E4
100
AcDbEntity
8
Defpoints
62
0
6
ByLayer
370
-1
48
1
60
0
100
AcDbPoint
10
84
20
-21
30
0
39
0
210
0
220
0
230
1
50
360
0
POINT
5
1E5
100
AcDbEntity
8
Defpoints
62
0
6
ByLayer
370
-1
48
1
60
0
100
AcDbPoint
10
100
20
-21
30
0
39
0
210
0
220
0
230
1
50
360
0
POINT
5
1E6
100
AcDbEntity
8
Defpoints
62
0
6
ByLayer
370
-1
48
1
60
0
100
AcDbPoint
10
100
20
-40.07
30
0
39
0
210
0
220
0
230
1
50
360
0
ENDBLK
5
1DC
100
AcDbEntity
8
0
100
AcDbBlockEnd
0
BLOCK
5
1EE
100
AcDbEntity
8
0
100
AcDbBlockBegin
2
_U4
70
0
10
0
20
0
30
0
3
_U4
0
MTEXT
5
1E8
100
AcDbEntity
8
SK2
62
256
6
ByLayer
370
18
48
1
60
0
100
AcDbMText
10
90.113172
20
-38.742328
30
0
210
0
220
0
230
1
1
\W0.5321;16
40
4.5
41
0
44
1.084337
50
0
71
7
72
5
7
iso_b_vert
0
LINE
5
1E9
100
AcDbEntity
8
SK2
62
256
6
ByLayer
370
13
48
1
60
0
100
AcDbLine
10
84
20
-22.5875
30
0
11
84
21
-42.07
31
0
39
0
210
0
220
0
230
1
0
LINE
5
1EA
100
AcDbEntity
8
SK2
62
256
6
ByLayer
370
13
48
1
60
0
100
AcDbLine
10
100
20
-22.5875
30
0
11
100
21
-42.07
31
0
39
0
210
0
220
0
230
1
0
LINE
5
1EB
100
AcDbEntity
8
SK2
62
256
6
ByLayer
370
13
48
1
60
0
100
AcDbLine
10
72.75
20
-40.07
30
0
11
111.25
21
-40.07
31
0
39
0
210
0
220
0
230
1
0
SOLID
5
1EC
100
AcDbEntity
8
SK2
62
256
6
ByLayer
370
18
48
1
60
0
100
AcDbTrace
10
84
20
-40.07
30
0
11
79.500004
21
-41.067626
31
0
12
79.499996
22
-39.072374
32
0
13
79.499996
23
-39.072374
33
0
39
0
210
0
220
0
230
1
0
SOLID
5
1ED
100
AcDbEntity
8
SK2
62
256
6
ByLayer
370
18
48
1
60
0
100
AcDbTrace
10
100
20
-40.07
30
0
11
104.499996
21
-39.072374
31
0
12
104.500004
22
-41.067626
32
0
13
104.500004
23
-41.067626
33
0
39
0
210
0
220
0
230
1
0
ENDBLK
5
1EF
100
AcDbEntity
8
0
100
AcDbBlockEnd
0
BLOCK
5
1F4
100
AcDbEntity
8
0
100
AcDbBlockBegin
2
*D12
70
1
10
0
20
0
30
0
3
*D12
0
LINE
5
1F6
100
AcDbEntity
8
0
62
256
6
ByLayer
370
-2
48
1
60
0
100
AcDbLine
10
100
20
22.5875
30
0
11
100
21
52.57
31
0
39
0
210
0
220
0
230
1
0
LINE
5
1F7
100
AcDbEntity
8
0
62
256
6
ByLayer
370
-2
48
1
60
0
100
AcDbLine
10
49
20
22.5875
30
0
11
49
21
52.57
31
0
39
0
210
0
220
0
230
1
0
LINE
5
1F8
100
AcDbEntity
8
0
62
256
6
ByLayer
370
-2
48
1
60
0
100
AcDbLine
10
95.5
20
50.57
30
0
11
53.5
21
50.57
31
0
39
0
210
0
220
0
230
1
0
SOLID
5
1F9
100
AcDbEntity
8
0
62
256
6
ByLayer
370
-1
48
1
60
0
100
AcDbTrace
10
95.5
20
49.82
30
0
11
95.5
21
51.32
31
0
12
100
22
50.57
32
0
13
100
23
50.57
33
0
39
0
210
0
220
0
230
1
0
SOLID
5
1FA
100
AcDbEntity
8
0
62
256
6
ByLayer
370
-1
48
1
60
0
100
AcDbTrace
10
53.5
20
51.32
30
0
11
53.5
21
49.82
31
0
12
49
22
50.57
32
0
13
49
23
50.57
33
0
39
0
210
0
220
0
230
1
0
MTEXT
5
1FB
100
AcDbEntity
8
0
62
256
6
ByLayer
370
18
48
1
60
0
100
AcDbMText
10
74.5
20
59.57
30
0
210
0
220
0
230
1
1
\A1;51
40
4.5
41
0
44
1
50
0
71
5
72
5
7
iso_b_vert
0
POINT
5
1FC
100
AcDbEntity
8
Defpoints
62
0
6
ByLayer
370
-1
48
1
60
0
100
AcDbPoint
10
100
20
21
30
0
39
0
210
0
220
0
230
1
50
360
0
POINT
5
1FD
100
AcDbEntity
8
Defpoints
62
0
6
ByLayer
370
-1
48
1
60
0
100
AcDbPoint
10
49
20
21
30
0
39
0
210
0
220
0
230
1
50
360
0
POINT
5
1FE
100
AcDbEntity
8
Defpoints
62
0
6
ByLayer
370
-1
48
1
60
0
100
AcDbPoint
10
49
20
50.57
30
0
39
0
210
0
220
0
230
1
50
360
0
ENDBLK
5
1F5
100
AcDbEntity
8
0
100
AcDbBlockEnd
0
BLOCK
5
206
100
AcDbEntity
8
0
100
AcDbBlockBegin
2
_U5
70
0
10
0
20
0
30
0
3
_U5
0
MTEXT
5
200
100
AcDbEntity
8
SK2
62
256
6
ByLayer
370
18
48
1
60
0
100
AcDbMText
10
72.613172
20
51.897672
30
0
210
0
220
0
230
1
1
\W0.6351;51
40
4.5
41
0
44
1.084337
50
0
71
7
72
5
7
iso_b_vert
0
LINE
5
201
100
AcDbEntity
8
SK2
62
256
6
ByLayer
370
13
48
1
60
0
100
AcDbLine
10
100
20
22.5875
30
0
11
100
21
52.57
31
0
39
0
210
0
220
0
230
1
0
LINE
5
202
100
AcDbEntity
8
SK2
62
256
6
ByLayer
370
13
48
1
60
0
100
AcDbLine
10
49
20
22.5875
30
0
11
49
21
52.57
31
0
39
0
210
0
220
0
230
1
0
LINE
5
203
100
AcDbEntity
8
SK2
62
256
6
ByLayer
370
13
48
1
60
0
100
AcDbLine
10
100
20
50.57
30
0
11
49
21
50.57
31
0
39
0
210
0
220
0
230
1
0
SOLID
5
204
100
AcDbEntity
8
SK2
62
256
6
ByLayer
370
18
48
1
60
0
100
AcDbTrace
10
100
20
50.57
30
0
11
95.500004
21
49.572374
31
0
12
95.499996
22
51.567626
32
0
13
95.499996
23
51.567626
33
0
39
0
210
0
220
0
230
1
0
SOLID
5
205
100
AcDbEntity
8
SK2
62
256
6
ByLayer
370
18
48
1
60
0
100
AcDbTrace
10
49
20
50.57
30
0
11
53.499996
21
51.567626
31
0
12
53.500004
22
49.572374
32
0
13
53.500004
23
49.572374
33
0
39
0
210
0
220
0
230
1
0
ENDBLK
5
207
100
AcDbEntity
8
0
100
AcDbBlockEnd
0
BLOCK
5
20C
100
AcDbEntity
8
0
100
AcDbBlockBegin
2
*D14
70
1
10
0
20
0
30
0
3
*D14
0
LINE
5
20E
100
AcDbEntity
8
0
62
256
6
ByLayer
370
-2
48
1
60
0
100
AcDbLine
10
0
20
33.0575
30
0
11
0
21
72.57
31
0
39
0
210
0
220
0
230
1
0
LINE
5
20F
100
AcDbEntity
8
0
62
256
6
ByLayer
370
-2
48
1
60
0
100
AcDbLine
10
100
20
22.5875
30
0
11
100
21
72.57
31
0
39
0
210
0
220
0
230
1
0
LINE
5
210
100
AcDbEntity
8
0
62
256
6
ByLayer
370
-2
48
1
60
0
100
AcDbLine
10
4.5
20
70.57
30
0
11
95.5
21
70.57
31
0
39
0
210
0
220
0
230
1
0
SOLID
5
211
100
AcDbEntity
8
0
62
256
6
ByLayer
370
-1
48
1
60
0
100
AcDbTrace
10
4.5
20
71.32
30
0
11
4.5
21
69.82
31
0
12
0
22
70.57
32
0
13
0
23
70.57
33
0
39
0
210
0
220
0
230
1
0
SOLID
5
212
100
AcDbEntity
8
0
62
256
6
ByLayer
370
-1
48
1
60
0
100
AcDbTrace
10
95.5
20
69.82
30
0
11
95.5
21
71.32
31
0
12
100
22
70.57
32
0
13
100
23
70.57
33
0
39
0
210
0
220
0
230
1
0
MTEXT
5
213
100
AcDbEntity
8
0
62
256
6
ByLayer
370
18
48
1
60
0
100
AcDbMText
10
50
20
79.57
30
0
210
0
220
0
230
1
1
\A1;100
40
4.5
41
0
44
1
50
0
71
5
72
5
7
iso_b_vert
0
POINT
5
214
100
AcDbEntity
8
Defpoints
62
0
6
ByLayer
370
-1
48
1
60
0
100
AcDbPoint
10
0
20
31.47
30
0
39
0
210
0
220
0
230
1
50
360
0
POINT
5
215
100
AcDbEntity
8
Defpoints
62
0
6
ByLayer
370
-1
48
1
60
0
100
AcDbPoint
10
100
20
21
30
0
39
0
210
0
220
0
230
1
50
360
0
POINT
5
216
100
AcDbEntity
8
Defpoints
62
0
6
ByLayer
370
-1
48
1
60
0
100
AcDbPoint
10
100
20
70.57
30
0
39
0
210
0
220
0
230
1
50
360
0
ENDBLK
5
20D
100
AcDbEntity
8
0
100
AcDbBlockEnd
0
BLOCK
5
21F
100
AcDbEntity
8
0
100
AcDbBlockBegin
2
_U6
70
0
10
0
20
0
30
0
3
_U6
0
MTEXT
5
219
100
AcDbEntity
8
2
62
256
6
ByLayer
370
18
48
1
60
0
100
AcDbMText
10
46.431801
20
71.897672
30
0
210
0
220
0
230
1
1
\W0.6217;100
40
4.5
41
0
44
1.084337
50
0
71
7
72
5
7
iso_b_vert
0
LINE
5
21A
100
AcDbEntity
8
2
62
256
6
ByLayer
370
13
48
1
60
0
100
AcDbLine
10
0
20
33.0575
30
0
11
0
21
72.57
31
0
39
0
210
0
220
0
230
1
0
LINE
5
21B
100
AcDbEntity
8
2
62
256
6
ByLayer
370
13
48
1
60
0
100
AcDbLine
10
100
20
22.5875
30
0
11
100
21
72.57
31
0
39
0
210
0
220
0
230
1
0
LINE
5
21C
100
AcDbEntity
8
2
62
256
6
ByLayer
370
13
48
1
60
0
100
AcDbLine
10
0
20
70.57
30
0
11
100
21
70.57
31
0
39
0
210
0
220
0
230
1
0
SOLID
5
21D
100
AcDbEntity
8
2
62
256
6
ByLayer
370
18
48
1
60
0
100
AcDbTrace
10
0
20
70.57
30
0
11
4.499996
21
71.567626
31
0
12
4.500004
22
69.572374
32
0
13
4.500004
23
69.572374
33
0
39
0
210
0
220
0
230
1
0
SOLID
5
21E
100
AcDbEntity
8
2
62
256
6
ByLayer
370
18
48
1
60
0
100
AcDbTrace
10
100
20
70.57
30
0
11
95.500004
21
69.572374
31
0
12
95.499996
22
71.567626
32
0
13
95.499996
23
71.567626
33
0
39
0
210
0
220
0
230
1
0
ENDBLK
5
220
100
AcDbEntity
8
0
100
AcDbBlockEnd
0
BLOCK
5
225
100
AcDbEntity
8
0
100
AcDbBlockBegin
2
*D16
70
1
10
0
20
0
30
0
3
*D16
0
LINE
5
227
100
AcDbEntity
8
0
62
256
6
ByLayer
370
-2
48
1
60
0
100
AcDbLine
10
0
20
23.6425
30
0
11
0
21
72.57
31
0
39
0
210
0
220
0
230
1
0
LINE
5
228
100
AcDbEntity
8
0
62
256
6
ByLayer
370
-2
48
1
60
0
100
AcDbLine
10
-31.9
20
24.3875
30
0
11
-31.9
21
72.57
31
0
39
0
210
0
220
0
230
1
0
LINE
5
229
100
AcDbEntity
8
0
62
256
6
ByLayer
370
-2
48
1
60
0
100
AcDbLine
10
-4.5
20
70.57
30
0
11
-27.4
21
70.57
31
0
39
0
210
0
220
0
230
1
0
SOLID
5
22A
100
AcDbEntity
8
0
62
256
6
ByLayer
370
-1
48
1
60
0
100
AcDbTrace
10
-4.5
20
69.82
30
0
11
-4.5
21
71.32
31
0
12
0
22
70.57
32
0
13
0
23
70.57
33
0
39
0
210
0
220
0
230
1
0
SOLID
5
22B
100
AcDbEntity
8
0
62
256
6
ByLayer
370
-1
48
1
60
0
100
AcDbTrace
10
-27.4
20
71.32
30
0
11
-27.4
21
69.82
31
0
12
-31.9
22
70.57
32
0
13
-31.9
23
70.57
33
0
39
0
210
0
220
0
230
1
0
MTEXT
5
22C
100
AcDbEntity
8
0
62
256
6
ByLayer
370
18
48
1
60
0
100
AcDbMText
10
-15.95
20
79.57
30
0
210
0
220
0
230
1
1
\A1;31.9
40
4.5
41
0
44
1
50
0
71
5
72
5
7
iso_b_vert
0
POINT
5
22D
100
AcDbEntity
8
Defpoints
62
0
6
ByLayer
370
-1
48
1
60
0
100
AcDbPoint
10
0
20
22.055
30
0
39
0
210
0
220
0
230
1
50
360
0
POINT
5
22E
100
AcDbEntity
8
Defpoints
62
0
6
ByLayer
370
-1
48
1
60
0
100
AcDbPoint
10
-31.9
20
22.8
30
0
39
0
210
0
220
0
230
1
50
360
0
POINT
5
22F
100
AcDbEntity
8
Defpoints
62
0
6
ByLayer
370
-1
48
1
60
0
100
AcDbPoint
10
-31.9
20
70.57
30
0
39
0
210
0
220
0
230
1
50
360
0
ENDBLK
5
226
100
AcDbEntity
8
0
100
AcDbBlockEnd
0
BLOCK
5
237
100
AcDbEntity
8
0
100
AcDbBlockBegin
2
_U7
70
0
10
0
20
0
30
0
3
_U7
0
MTEXT
5
231
100
AcDbEntity
8
SK2
62
256
6
ByLayer
370
18
48
1
60
0
100
AcDbMText
10
-20.311313
20
71.897672
30
0
210
0
220
0
230
1
1
\W0.6463;31,9
40
4.5
41
0
44
1.084337
50
0
71
7
72
5
7
iso_b_vert
0
LINE
5
232
100
AcDbEntity
8
SK2
62
256
6
ByLayer
370
13
48
1
60
0
100
AcDbLine
10
0
20
23.6425
30
0
11
0
21
72.57
31
0
39
0
210
0
220
0
230
1
0
LINE
5
233
100
AcDbEntity
8
SK2
62
256
6
ByLayer
370
13
48
1
60
0
100
AcDbLine
10
-31.9
20
24.3875
30
0
11
-31.9
21
72.57
31
0
39
0
210
0
220
0
230
1
0
LINE
5
234
100
AcDbEntity
8
SK2
62
256
6
ByLayer
370
13
48
1
60
0
100
AcDbLine
10
0
20
70.57
30
0
11
-31.9
21
70.57
31
0
39
0
210
0
220
0
230
1
0
SOLID
5
235
100
AcDbEntity
8
SK2
62
256
6
ByLayer
370
18
48
1
60
0
100
AcDbTrace
10
0
20
70.57
30
0
11
-4.499996
21
69.572374
31
0
12
-4.500004
22
71.567626
32
0
13
-4.500004
23
71.567626
33
0
39
0
210
0
220
0
230
1
0
SOLID
5
236
100
AcDbEntity
8
SK2
62
256
6
ByLayer
370
18
48
1
60
0
100
AcDbTrace
10
-31.9
20
70.57
30
0
11
-27.400004
21
71.567626
31
0
12
-27.399996
22
69.572374
32
0
13
-27.399996
23
69.572374
33
0
39
0
210
0
220
0
230
1
0
ENDBLK
5
238
100
AcDbEntity
8
0
100
AcDbBlockEnd
0
BLOCK
5
23D
100
AcDbEntity
8
0
100
AcDbBlockBegin
2
*D18
70
1
10
0
20
0
30
0
3
*D18
0
LINE
5
23F
100
AcDbEntity
8
0
62
256
6
ByLayer
370
-2
48
1
60
0
100
AcDbLine
10
0
20
23.6425
30
0
11
0
21
52.57
31
0
39
0
210
0
220
0
230
1
0
LINE
5
240
100
AcDbEntity
8
0
62
256
6
ByLayer
370
-2
48
1
60
0
100
AcDbLine
10
26
20
33.0575
30
0
11
26
21
52.57
31
0
39
0
210
0
220
0
230
1
0
LINE
5
241
100
AcDbEntity
8
0
62
256
6
ByLayer
370
-2
48
1
60
0
100
AcDbLine
10
4.5
20
50.57
30
0
11
21.5
21
50.57
31
0
39
0
210
0
220
0
230
1
0
SOLID
5
242
100
AcDbEntity
8
0
62
256
6
ByLayer
370
-1
48
1
60
0
100
AcDbTrace
10
4.5
20
51.32
30
0
11
4.5
21
49.82
31
0
12
0
22
50.57
32
0
13
0
23
50.57
33
0
39
0
210
0
220
0
230
1
0
SOLID
5
243
100
AcDbEntity
8
0
62
256
6
ByLayer
370
-1
48
1
60
0
100
AcDbTrace
10
21.5
20
49.82
30
0
11
21.5
21
51.32
31
0
12
26
22
50.57
32
0
13
26
23
50.57
33
0
39
0
210
0
220
0
230
1
0
MTEXT
5
244
100
AcDbEntity
8
0
62
256
6
ByLayer
370
18
48
1
60
0
100
AcDbMText
10
13
20
59.57
30
0
210
0
220
0
230
1
1
\A1;26
40
4.5
41
0
44
1
50
0
71
5
72
5
7
iso_b_vert
0
POINT
5
245
100
AcDbEntity
8
Defpoints
62
0
6
ByLayer
370
-1
48
1
60
0
100
AcDbPoint
10
0
20
22.055
30
0
39
0
210
0
220
0
230
1
50
360
0
POINT
5
246
100
AcDbEntity
8
Defpoints
62
0
6
ByLayer
370
-1
48
1
60
0
100
AcDbPoint
10
26
20
31.47
30
0
39
0
210
0
220
0
230
1
50
360
0
POINT
5
247
100
AcDbEntity
8
Defpoints
62
0
6
ByLayer
370
-1
48
1
60
0
100
AcDbPoint
10
26
20
50.57
30
0
39
0
210
0
220
0
230
1
50
360
0
ENDBLK
5
23E
100
AcDbEntity
8
0
100
AcDbBlockEnd
0
BLOCK
5
24F
100
AcDbEntity
8
0
100
AcDbBlockBegin
2
_U8
70
0
10
0
20
0
30
0
3
_U8
0
MTEXT
5
249
100
AcDbEntity
8
SK2
62
256
6
ByLayer
370
18
48
1
60
0
100
AcDbMText
10
10.550758
20
51.897672
30
0
210
0
220
0
230
1
1
\W0.6740;26
40
4.5
41
0
44
1.084337
50
0
71
7
72
5
7
iso_b_vert
0
LINE
5
24A
100
AcDbEntity
8
SK2
62
256
6
ByLayer
370
13
48
1
60
0
100
AcDbLine
10
0
20
23.6425
30
0
11
0
21
52.57
31
0
39
0
210
0
220
0
230
1
0
LINE
5
24B
100
AcDbEntity
8
SK2
62
256
6
ByLayer
370
13
48
1
60
0
100
AcDbLine
10
26
20
33.0575
30
0
11
26
21
52.57
31
0
39
0
210
0
220
0
230
1
0
LINE
5
24C
100
AcDbEntity
8
SK2
62
256
6
ByLayer
370
13
48
1
60
0
100
AcDbLine
10
0
20
50.57
30
0
11
26
21
50.57
31
0
39
0
210
0
220
0
230
1
0
SOLID
5
24D
100
AcDbEntity
8
SK2
62
256
6
ByLayer
370
18
48
1
60
0
100
AcDbTrace
10
0
20
50.57
30
0
11
4.499996
21
51.567626
31
0
12
4.500004
22
49.572374
32
0
13
4.500004
23
49.572374
33
0
39
0
210
0
220
0
230
1
0
SOLID
5
24E
100
AcDbEntity
8
SK2
62
256
6
ByLayer
370
18
48
1
60
0
100
AcDbTrace
10
26
20
50.57
30
0
11
21.500004
21
49.572374
31
0
12
21.499996
22
51.567626
32
0
13
21.499996
23
51.567626
33
0
39
0
210
0
220
0
230
1
0
ENDBLK
5
250
100
AcDbEntity
8
0
100
AcDbBlockEnd
0
ENDSEC
0
SECTION
2
ENTITIES
0
ARC
5
105
100
AcDbEntity
8
1
62
256
6
ByLayer
370
18
48
1
60
0
100
AcDbCircle
39
0
10
82.776748
20
-1
30
0
40
20
210
0
220
0
230
1
100
AcDbArc
50
270
51
277
0
ARC
5
106
100
AcDbEntity
8
1
62
256
6
ByLayer
370
18
48
1
60
0
100
AcDbCircle
39
0
10
82.776748
20
1
30
0
40
20
210
0
220
0
230
1
100
AcDbArc
50
83
51
90
0
ARC
5
107
100
AcDbEntity
8
1
62
256
6
ByLayer
370
18
48
1
60
0
100
AcDbCircle
39
0
10
50.750519
20
23.5
30
0
40
2.5
210
0
220
0
230
1
100
AcDbArc
50
200
51
270
0
ARC
5
108
100
AcDbEntity
8
1
62
256
6
ByLayer
370
18
48
1
60
0
100
AcDbCircle
39
0
10
50.750519
20
-23.5
30
0
40
2.5
210
0
220
0
230
1
100
AcDbArc
50
90
51
160
0
ARC
5
109
100
AcDbEntity
8
SK1
62
256
6
ByLayer
370
18
48
1
60
0
100
AcDbCircle
39
0
10
-0.45
20
24.570431
30
0
40
0.6
210
0
220
0
230
1
100
AcDbArc
50
270
51
318.590378
0
ARC
5
10A
100
AcDbEntity
8
SK1
62
256
6
ByLayer
370
18
48
1
60
0
100
AcDbCircle
39
0
10
-0.45
20
-24.570431
30
0
40
0.6
210
0
220
0
230
1
100
AcDbArc
50
41.409622
51
90
0
ARC
5
10B
100
AcDbEntity
8
1
62
256
6
ByLayer
370
18
48
1
60
0
100
AcDbCircle
39
0
10
98.8
20
-17.973777
30
0
40
1.19999999999999
210
0
220
0
230
1
100
AcDbArc
50
277
51
0
0
ARC
5
10C
100
AcDbEntity
8
1
62
256
6
ByLayer
370
18
48
1
60
0
100
AcDbCircle
39
0
10
46.843912
20
-24
30
0
40
1
210
0
220
0
230
1
100
AcDbArc
50
270
51
340
0
ARC
5
10D
100
AcDbEntity
8
1
62
256
6
ByLayer
370
18
48
1
60
0
100
AcDbCircle
39
0
10
46.843912
20
24
30
0
40
1
210
0
220
0
230
1
100
AcDbArc
50
20
51
90
0
ARC
5
10E
100
AcDbEntity
8
1
62
256
6
ByLayer
370
18
48
1
60
0
100
AcDbCircle
39
0
10
26.95
20
-26
30
0
40
1
210
0
220
0
230
1
100
AcDbArc
50
90
51
180
0
ARC
5
10F
100
AcDbEntity
8
1
62
256
6
ByLayer
370
18
48
1
60
0
100
AcDbCircle
39
0
10
26.95
20
26
30
0
40
1
210
0
220
0
230
1
100
AcDbArc
50
180
51
270
0
ARC
5
110
100
AcDbEntity
8
SK1
62
256
6
ByLayer
370
18
48
1
60
0
100
AcDbCircle
39
0
10
-27.2
20
22.245
30
0
40
1.4
210
0
220
0
230
1
100
AcDbArc
50
270
51
304.922922
0
ARC
5
111
100
AcDbEntity
8
1
62
256
6
ByLayer
370
18
48
1
60
0
100
AcDbCircle
39
0
10
98.8
20
17.973777
30
0
40
1.19999999999999
210
0
220
0
230
1
100
AcDbArc
50
0
51
83
0
ARC
5
112
100
AcDbEntity
8
SK1
62
256
6
ByLayer
370
18
48
1
60
0
100
AcDbCircle
39
0
10
-23.2
20
-22.245
30
0
40
1.4
210
0
220
0
230
1
100
AcDbArc
50
40.841223
51
90
0
ELLIPSE
5
113
100
AcDbEntity
8
SK1
62
256
6
ByLayer
370
13
48
1
60
0
100
AcDbEllipse
10
-23.2
20
-21.778508
30
0
11
-1.4
21
1.71444889535133E-16
31
0
210
0
220
0
230
1
40
0.891007
41
-2.03608609507003
42
-1.5707963267949
0
ELLIPSE
5
114
100
AcDbEntity
8
1
62
256
6
ByLayer
370
18
48
1
60
0
100
AcDbEllipse
10
18
20
8.677456
30
0
11
-1.75
21
2.14306111918916E-16
31
0
210
0
220
0
230
1
40
0.909961
41
-2.10408185870024
42
-1.03299501333987
0
ELLIPSE
5
115
100
AcDbEntity
8
1
62
256
6
ByLayer
370
18
48
1
60
0
100
AcDbEllipse
10
18
20
-3.992678
30
0
11
1.75
21
0
31
0
210
0
220
0
230
1
40
0.981627
41
-2.77922972135734
42
-0.369039329318463
0
ELLIPSE
5
116
100
AcDbEntity
8
1
62
256
6
ByLayer
370
18
48
1
60
0
100
AcDbEllipse
10
18
20
3.992678
30
0
11
-1.75
21
2.14306111918916E-16
31
0
210
0
220
0
230
1
40
0.981627
41
-2.77638237042935
42
-0.386219135212876
0
ELLIPSE
5
117
100
AcDbEntity
8
1
62
256
6
ByLayer
370
18
48
1
60
0
100
AcDbEllipse
10
18
20
-8.677456
30
0
11
1.75
21
0
31
0
210
0
220
0
230
1
40
0.909961
41
-2.10388544597225
42
-1.02906822343251
0
POINT
5
70
100
AcDbEntity
8
80
62
256
6
ByLayer
370
18
48
1
60
0
100
AcDbPoint
10
0
20
0
30
0
39
0
210
0
220
0
230
1
50
360
0
POINT
5
72
100
AcDbEntity
8
81
62
256
6
ByLayer
370
18
48
1
60
0
100
AcDbPoint
10
100
20
0
30
0
39
0
210
0
220
0
230
1
50
360
0
POINT
5
74
100
AcDbEntity
8
1
62
256
6
ByLayer
370
18
48
1
60
1
100
AcDbPoint
10
100
20
-21
30
0
39
0
210
0
220
0
230
1
50
360
0
POINT
5
76
100
AcDbEntity
8
1
62
256
6
ByLayer
370
18
48
1
60
1
100
AcDbPoint
10
100
20
21
30
0
39
0
210
0
220
0
230
1
50
360
0
POINT
5
77
100
AcDbEntity
8
1
62
256
6
ByLayer
370
18
48
1
60
1
100
AcDbPoint
10
100
20
10
30
0
39
0
210
0
220
0
230
1
50
360
0
POINT
5
78
100
AcDbEntity
8
1
62
256
6
ByLayer
370
18
48
1
60
1
100
AcDbPoint
10
100
20
-10
30
0
39
0
210
0
220
0
230
1
50
360
0
POINT
5
79
100
AcDbEntity
8
1
62
256
6
ByLayer
370
18
48
1
60
1
100
AcDbPoint
10
49
20
25
30
0
39
0
210
0
220
0
230
1
50
360
0
POINT
5
7A
100
AcDbEntity
8
1
62
256
6
ByLayer
370
18
48
1
60
1
100
AcDbPoint
10
49
20
-25
30
0
39
0
210
0
220
0
230
1
50
360
0
POINT
5
7B
100
AcDbEntity
8
1
62
256
6
ByLayer
370
18
48
1
60
1
100
AcDbPoint
10
49
20
-10
30
0
39
0
210
0
220
0
230
1
50
360
0
POINT
5
7C
100
AcDbEntity
8
1
62
256
6
ByLayer
370
18
48
1
60
1
100
AcDbPoint
10
84
20
-21
30
0
39
0
210
0
220
0
230
1
50
360
0
POINT
5
7D
100
AcDbEntity
8
1
62
256
6
ByLayer
370
18
48
1
60
1
100
AcDbPoint
10
100
20
-21
30
0
39
0
210
0
220
0
230
1
50
360
0
POINT
5
7E
100
AcDbEntity
8
1
62
256
6
ByLayer
370
18
48
1
60
1
100
AcDbPoint
10
100
20
21
30
0
39
0
210
0
220
0
230
1
50
360
0
POINT
5
7F
100
AcDbEntity
8
1
62
256
6
ByLayer
370
18
48
1
60
1
100
AcDbPoint
10
49
20
21
30
0
39
0
210
0
220
0
230
1
50
360
0
POINT
5
80
100
AcDbEntity
8
1
62
256
6
ByLayer
370
18
48
1
60
1
100
AcDbPoint
10
0
20
31.47
30
0
39
0
210
0
220
0
230
1
50
360
0
POINT
5
81
100
AcDbEntity
8
1
62
256
6
ByLayer
370
18
48
1
60
1
100
AcDbPoint
10
100
20
21
30
0
39
0
210
0
220
0
230
1
50
360
0
POINT
5
82
100
AcDbEntity
8
1
62
256
6
ByLayer
370
18
48
1
60
1
100
AcDbPoint
10
0
20
22.055
30
0
39
0
210
0
220
0
230
1
50
360
0
POINT
5
83
100
AcDbEntity
8
1
62
256
6
ByLayer
370
18
48
1
60
1
100
AcDbPoint
10
-31.9
20
22.8
30
0
39
0
210
0
220
0
230
1
50
360
0
POINT
5
84
100
AcDbEntity
8
1
62
256
6
ByLayer
370
18
48
1
60
1
100
AcDbPoint
10
0
20
22.055
30
0
39
0
210
0
220
0
230
1
50
360
0
POINT
5
85
100
AcDbEntity
8
1
62
256
6
ByLayer
370
18
48
1
60
1
100
AcDbPoint
10
26
20
31.47
30
0
39
0
210
0
220
0
230
1
50
360
0
POINT
5
86
100
AcDbEntity
8
1
62
256
6
ByLayer
370
18
48
1
60
1
100
AcDbPoint
10
-15.95
20
22.8
30
0
39
0
210
0
220
0
230
1
50
360
0
SPLINE
5
118
100
AcDbEntity
8
1
62
256
6
ByLayer
370
18
48
1
60
0
100
AcDbSpline
70
4
71
3
72
8
73
4
40
0
40
0
40
0
40
0
40
1
40
1
40
1
40
1
41
1
10
21.3746123234134
20
30.4315723180712
30
0
41
1
10
20.8902935147949
20
29.5640826443993
30
0
41
1
10
20.4069881139936
20
28.6960191551286
30
0
41
1
10
19.925
20
27.8272318284485
30
0
0
SPLINE
5
119
100
AcDbEntity
8
1
62
256
6
ByLayer
370
18
48
1
60
0
100
AcDbSpline
70
4
71
3
72
8
73
4
40
0
40
0
40
0
40
0
40
1
40
1
40
1
40
1
41
1
10
21.3746123234134
20
24.4200409500066
30
0
41
1
10
20.8791781833817
20
23.3141891921862
30
0
41
1
10
20.3946406079361
20
22.2030165042125
30
0
41
1
10
19.925
20
21.0858397386544
30
0
0
SPLINE
5
11A
100
AcDbEntity
8
1
62
256
6
ByLayer
370
18
48
1
60
0
100
AcDbSpline
70
4
71
3
72
8
73
4
40
0
40
0
40
0
40
0
40
1
40
1
40
1
40
1
41
1
10
16.075
20
21.0858397386544
30
0
41
1
10
15.6053593920639
20
22.2030165042125
30
0
41
1
10
15.1208218166183
20
23.3141891921863
30
0
41
1
10
14.6253876765866
20
24.4200409500066
30
0
0
SPLINE
5
11B
100
AcDbEntity
8
1
62
256
6
ByLayer
370
18
48
1
60
0
100
AcDbSpline
70
4
71
3
72
32
73
28
40
0
40
0
40
0
40
0
40
0.124999999999995
40
0.124999999999995
40
0.187499999999994
40
0.187499999999994
40
0.249999999999993
40
0.312499999999992
40
0.312499999999992
40
0.37499999999999
40
0.37499999999999
40
0.437499999999989
40
0.437499999999989
40
0.499999999999988
40
0.499999999999988
40
0.624999999999989
40
0.624999999999989
40
0.687499999999991
40
0.687499999999991
40
0.749999999999992
40
0.749999999999992
40
0.812499999999994
40
0.812499999999994
40
0.874999999999996
40
0.937499999999998
40
0.937499999999998
40
1
40
1
40
1
40
1
41
1
10
19.525
20
-17.5834806976043
30
0
41
1
10
19.4486173535729
20
-17.6877993045009
30
0
41
1
10
19.3561557700621
20
-17.7814617199437
30
0
41
1
10
19.1940366172505
20
-17.9069004907673
30
0
41
1
10
19.13559785512
20
-17.9463880819062
30
0
41
1
10
19.0137317759039
20
-18.0181710676171
30
0
41
1
10
18.8864951980351
20
-18.083208317781
30
0
41
1
10
18.7486948676454
20
-18.1351304202462
30
0
41
1
10
18.6054185424351
20
-18.1803229284304
30
0
41
1
10
18.5320152400585
20
-18.1992118452365
30
0
41
1
10
18.3836362034952
20
-18.2293796390629
30
0
41
1
10
18.3083690965349
20
-18.2407510129894
30
0
41
1
10
18.1556651235716
20
-18.2560514133322
30
0
41
1
10
18.0776339171027
20
-18.2599618504986
30
0
41
1
10
17.8455272479434
20
-18.2599881688049
30
0
41
1
10
17.6932890361011
20
-18.2449196068723
30
0
41
1
10
17.4687052385781
20
-18.199407706782
30
0
41
1
10
17.3950176105023
20
-18.1804161364334
30
0
41
1
10
17.2531183644443
20
-18.1357460199801
30
0
41
1
10
17.1844180034841
20
-18.1099745989849
30
0
41
1
10
17.051516835617
20
-18.0514902687056
30
0
41
1
10
16.9868885771429
20
-18.0185141296695
30
0
41
1
10
16.8645973188877
20
-17.946525242615
30
0
41
1
10
16.7496965369979
20
-17.8689160540892
30
0
41
1
10
16.649167632036
20
-17.7802152843766
30
0
41
1
10
16.5560029254347
20
-17.6857479957067
30
0
41
1
10
16.5131911718163
20
-17.6356397942837
30
0
41
1
10
16.475
20
-17.5834806976043
30
0
0
SPLINE
5
11C
100
AcDbEntity
8
1
62
256
6
ByLayer
370
18
48
1
60
0
100
AcDbSpline
70
4
71
3
72
32
73
28
40
0
40
0
40
0
40
0
40
0.125000000000001
40
0.125000000000001
40
0.187500000000001
40
0.187500000000001
40
0.250000000000002
40
0.312500000000002
40
0.312500000000002
40
0.375000000000002
40
0.375000000000002
40
0.437500000000003
40
0.437500000000003
40
0.500000000000003
40
0.500000000000003
40
0.625000000000004
40
0.625000000000004
40
0.687500000000003
40
0.687500000000003
40
0.750000000000003
40
0.750000000000003
40
0.812500000000002
40
0.812500000000002
40
0.875000000000001
40
0.937500000000001
40
0.937500000000001
40
1
40
1
40
1
40
1
41
1
10
16.475
20
17.5834806976042
30
0
41
1
10
16.5513826464271
20
17.6877993045008
30
0
41
1
10
16.6438442299379
20
17.7814617199437
30
0
41
1
10
16.8059633827495
20
17.9069004907672
30
0
41
1
10
16.86440214488
20
17.9463880819061
30
0
41
1
10
16.9862682240961
20
18.0181710676171
30
0
41
1
10
17.1135048019649
20
18.0832083177809
30
0
41
1
10
17.2513051323546
20
18.1351304202462
30
0
41
1
10
17.3945814575649
20
18.1803229284304
30
0
41
1
10
17.4679847599415
20
18.1992118452365
30
0
41
1
10
17.6163637965048
20
18.2293796390628
30
0
41
1
10
17.691630903465
20
18.2407510129894
30
0
41
1
10
17.8443348764284
20
18.2560514133322
30
0
41
1
10
17.9223660828973
20
18.2599618504986
30
0
41
1
10
18.1544727520566
20
18.2599881688048
30
0
41
1
10
18.3067109638989
20
18.2449196068722
30
0
41
1
10
18.5312947614219
20
18.1994077067819
30
0
41
1
10
18.6049823894977
20
18.1804161364334
30
0
41
1
10
18.7468816355557
20
18.13574601998
30
0
41
1
10
18.8155819965158
20
18.1099745989848
30
0
41
1
10
18.948483164383
20
18.0514902687056
30
0
41
1
10
19.0131114228571
20
18.0185141296695
30
0
41
1
10
19.1354026811123
20
17.946525242615
30
0
41
1
10
19.250303463002
20
17.8689160540891
30
0
41
1
10
19.350832367964
20
17.7802152843765
30
0
41
1
10
19.4439970745653
20
17.6857479957067
30
0
41
1
10
19.4868088281837
20
17.6356397942836
30
0
41
1
10
19.525
20
17.5834806976042
30
0
0
SPLINE
5
11D
100
AcDbEntity
8
SK1
62
256
6
ByLayer
370
18
48
1
60
0
100
AcDbSpline
70
4
71
3
72
14
73
10
40
0
40
0
40
0
40
0
40
0.500000000000003
40
0.500000000000003
40
0.750000000000003
40
0.750000000000003
40
0.875000000000002
40
0.875000000000002
40
1
40
1
40
1
40
1
41
1
10
-30.7600449304182
20
20.8343104848558
30
0
41
1
10
-30.8410158990396
20
20.7494658583927
30
0
41
1
10
-30.9153687674598
20
20.654147883949
30
0
41
1
10
-31.0007051028079
20
20.5035329800827
30
0
41
1
10
-31.0245900033694
20
20.4521521286422
30
0
41
1
10
-31.0497392687941
20
20.3751260560866
30
0
41
1
10
-31.0563287190667
20
20.3494639188075
30
0
41
1
10
-31.0652639534866
20
20.2984378669064
30
0
41
1
10
-31.0675912850396
20
20.2729947455574
30
0
41
1
10
-31.0675798041816
20
20.2481331121862
30
0
0
SPLINE
5
11E
100
AcDbEntity
8
SK1
62
256
6
ByLayer
370
18
48
1
60
0
100
AcDbSpline
70
4
71
3
72
46
73
42
40
0
40
0
40
0
40
0
40
0.124999999999992
40
0.124999999999992
40
0.249999999999983
40
0.249999999999983
40
0.312499999999979
40
0.312499999999979
40
0.374999999999975
40
0.374999999999975
40
0.406249999999973
40
0.406249999999973
40
0.437499999999971
40
0.437499999999971
40
0.46874999999997
40
0.46874999999997
40
0.484374999999969
40
0.484374999999969
40
0.499999999999968
40
0.499999999999968
40
0.507812499999967
40
0.507812499999967
40
0.515624999999967
40
0.515624999999967
40
0.531249999999968
40
0.531249999999968
40
0.546874999999969
40
0.546874999999969
40
0.562499999999971
40
0.562499999999971
40
0.593749999999972
40
0.593749999999972
40
0.624999999999974
40
0.624999999999974
40
0.687499999999978
40
0.687499999999978
40
0.749999999999982
40
0.749999999999982
40
0.874999999999991
40
0.874999999999991
40
1
40
1
40
1
40
1
41
1
10
-31.0675798041839
20
20.2481331121841
30
0
41
1
10
-31.0675270596297
20
20.1339155356784
30
0
41
1
10
-31.0735498251318
20
20.0146004534606
30
0
41
1
10
-31.0985886373097
20
19.7650685993917
30
0
41
1
10
-31.1175078252541
20
19.6349330944518
30
0
41
1
10
-31.1586164093568
20
19.4290492129044
30
0
41
1
10
-31.174463091719
20
19.3586225326657
30
0
41
1
10
-31.2118452738115
20
19.2129961113654
30
0
41
1
10
-31.2333420532151
20
19.1378139218668
30
0
41
1
10
-31.2716956560997
20
19.0210730068394
30
0
41
1
10
-31.2855209894063
20
18.981444429778
30
0
41
1
10
-31.3161148762585
20
18.9001655384288
30
0
41
1
10
-31.3329109071436
20
18.8583842201108
30
0
41
1
10
-31.371028513756
20
18.7722610206364
30
0
41
1
10
-31.3920547532747
20
18.728206580914
30
0
41
1
10
-31.4306785409237
20
18.6585498606933
30
0
41
1
10
-31.4449003422993
20
18.6344621100172
30
0
41
1
10
-31.477633748689
20
18.5850613112171
30
0
41
1
10
-31.4962091563578
20
18.5595509902957
30
0
41
1
10
-31.5284835681266
20
18.5238786367316
30
0
41
1
10
-31.5399890407318
20
18.5125323717037
30
0
41
1
10
-31.5629081097261
20
18.4933433044005
30
0
41
1
10
-31.573949640732
20
18.4858058385281
30
0
41
1
10
-31.6041085453024
20
18.4693372908997
30
0
41
1
10
-31.6200106507229
20
18.4661707907915
30
0
41
1
10
-31.6465952899331
20
18.4660000946665
30
0
41
1
10
-31.6575780118013
20
18.4691435930138
30
0
41
1
10
-31.6767017209795
20
18.478273973885
30
0
41
1
10
-31.6849215107291
20
18.484354685757
30
0
41
1
10
-31.7072201019517
20
18.5052627206646
30
0
41
1
10
-31.7190034404449
20
18.522775366272
30
0
41
1
10
-31.739370752522
20
18.560941336635
30
0
41
1
10
-31.7478705596817
20
18.5816413722694
30
0
41
1
10
-31.7703670152431
20
18.6466253171813
30
0
41
1
10
-31.7814132924851
20
18.6937425561479
30
0
41
1
10
-31.7996689558078
20
18.7916617154488
30
0
41
1
10
-31.8067731217691
20
18.8425646818118
30
0
41
1
10
-31.8244061221441
20
18.9988071124354
30
0
41
1
10
-31.831350309781
20
19.1076314108608
30
0
41
1
10
-31.8403664097761
20
19.3295453236177
30
0
41
1
10
-31.842333353774
20
19.4427961106814
30
0
41
1
10
-31.8423156651183
20
19.5578384055689
30
0
0
SPLINE
5
11F
100
AcDbEntity
8
SK1
62
256
6
ByLayer
370
18
48
1
60
0
100
AcDbSpline
70
4
71
3
72
12
73
8
40
0
40
0
40
0
40
0
40
0.25
40
0.25
40
0.5
40
0.5
40
1
40
1
40
1
40
1
41
1
10
-31.8423156651183
20
19.5578384055689
30
0
41
1
10
-31.8423091894369
20
19.5999545092391
30
0
41
1
10
-31.8455917378832
20
19.632485699749
30
0
41
1
10
-31.8566881179001
20
19.6799291409913
30
0
41
1
10
-31.8641941814282
20
19.6942133335598
30
0
41
1
10
-31.8862602077993
20
19.7159322808133
30
0
41
1
10
-31.9
20
19.7022637505358
30
0
41
1
10
-31.9
20
19.6726615351915
30
0
0
SPLINE
5
120
100
AcDbEntity
8
1
62
256
6
ByLayer
370
18
48
1
60
0
100
AcDbSpline
70
4
71
3
72
32
73
28
40
0
40
0
40
0
40
0
40
0.124999999999998
40
0.124999999999998
40
0.187499999999999
40
0.187499999999999
40
0.249999999999999
40
0.3125
40
0.3125
40
0.375
40
0.375
40
0.437500000000001
40
0.437500000000001
40
0.500000000000001
40
0.500000000000001
40
0.625000000000002
40
0.625000000000002
40
0.687500000000002
40
0.687500000000002
40
0.750000000000002
40
0.750000000000002
40
0.812500000000001
40
0.812500000000001
40
0.875000000000001
40
0.9375
40
0.9375
40
1
40
1
40
1
40
1
41
1
10
16.475
20
-16.230601400091
30
0
41
1
10
16.5513826464271
20
-16.121059903053
30
0
41
1
10
16.6438442299379
20
-16.0214510985228
30
0
41
1
10
16.8059633827495
20
-15.8869353127408
30
0
41
1
10
16.86440214488
20
-15.8443758221429
30
0
41
1
10
16.9862682240961
20
-15.7667160545081
30
0
41
1
10
17.1135048019649
20
-15.6960418033308
30
0
41
1
10
17.2513051323546
20
-15.6392420148952
30
0
41
1
10
17.3945814575649
20
-15.5896945470305
30
0
41
1
10
17.4679847599415
20
-15.5689229534277
30
0
41
1
10
17.6163637965048
20
-15.5357049532121
30
0
41
1
10
17.6916309034651
20
-15.5231568310926
30
0
41
1
10
17.8443348764284
20
-15.5062654247245
30
0
41
1
10
17.9223660828973
20
-15.5019427108596
30
0
41
1
10
18.1544727520566
20
-15.5019136300972
30
0
41
1
10
18.3067109638989
20
-15.5185930448049
30
0
41
1
10
18.5312947614219
20
-15.5687076461504
30
0
41
1
10
18.6049823894977
20
-15.5895916904816
30
0
41
1
10
18.7468816355557
20
-15.6385677492125
30
0
41
1
10
18.8155819965159
20
-15.6667623225412
30
0
41
1
10
18.948483164383
20
-15.7305081077936
30
0
41
1
10
19.0131114228571
20
-15.7663441978205
30
0
41
1
10
19.1354026811123
20
-15.8442281361303
30
0
41
1
10
19.250303463002
20
-15.9278758442663
30
0
41
1
10
19.350832367964
20
-16.0225872482431
30
0
41
1
10
19.4439970745653
20
-16.1228934292575
30
0
41
1
10
19.4868088281837
20
-16.1758308686931
30
0
41
1
10
19.525
20
-16.230601400091
30
0
0
SPLINE
5
121
100
AcDbEntity
8
SK1
62
256
6
ByLayer
370
18
48
1
60
0
100
AcDbSpline
70
4
71
3
72
28
73
24
40
0
40
0
40
0
40
0
40
0.249999999999998
40
0.249999999999998
40
0.499999999999996
40
0.499999999999996
40
0.624999999999996
40
0.624999999999996
40
0.749999999999995
40
0.749999999999995
40
0.812499999999995
40
0.812499999999995
40
0.874999999999996
40
0.874999999999996
40
0.906249999999997
40
0.906249999999997
40
0.937499999999998
40
0.937499999999998
40
0.968749999999999
40
0.968749999999999
40
0.984375
40
0.984375
40
1
40
1
40
1
40
1
41
1
10
-30.7499999999997
20
-20.8447435124645
30
0
41
1
10
-30.2971691275869
20
-20.8439693671223
30
0
41
1
10
-29.8448372764214
20
-20.8414478438301
30
0
41
1
10
-28.9417030471519
20
-20.8310039243337
30
0
41
1
10
-28.4908612436777
20
-20.8231886403276
30
0
41
1
10
-27.8172910526117
20
-20.8041470946947
30
0
41
1
10
-27.5931952319325
20
-20.7965606674488
30
0
41
1
10
-27.1467868612304
20
-20.7775160548389
30
0
41
1
10
-26.9242995973496
20
-20.7661332248456
30
0
41
1
10
-26.5935596270585
20
-20.7437379525012
30
0
41
1
10
-26.4837478352699
20
-20.7353669713704
30
0
41
1
10
-26.2660793251742
20
-20.7157897042607
30
0
41
1
10
-26.1580350954131
20
-20.7046307191568
30
0
41
1
10
-25.9992597879575
20
-20.6839836468159
30
0
41
1
10
-25.9468520478655
20
-20.6764338748358
30
0
41
1
10
-25.8440820739599
20
-20.6592613891808
30
0
41
1
10
-25.7938237447175
20
-20.6497059570442
30
0
41
1
10
-25.6976119310275
20
-20.6268908772017
30
0
41
1
10
-25.6513865086135
20
-20.613808167133
30
0
41
1
10
-25.5930569234486
20
-20.5880807875394
30
0
41
1
10
-25.5759091649547
20
-20.5786316923602
30
0
41
1
10
-25.5501996273289
20
-20.5565664823866
30
0
41
1
10
-25.5424468386049
20
-20.5442200387263
30
0
41
1
10
-25.5425277000738
20
-20.5310987896625
30
0
0
SPLINE
5
122
100
AcDbEntity
8
SK1
62
256
6
ByLayer
370
18
48
1
60
0
100
AcDbSpline
70
4
71
3
72
24
73
20
40
0
40
0
40
0
40
0
40
0.249999999999999
40
0.249999999999999
40
0.374999999999999
40
0.374999999999999
40
0.499999999999999
40
0.499999999999999
40
0.624999999999999
40
0.624999999999999
40
0.749999999999999
40
0.749999999999999
40
0.812499999999999
40
0.812499999999999
40
0.874999999999999
40
0.874999999999999
40
0.9375
40
0.9375
40
1
40
1
40
1
40
1
41
1
10
-23.2
20
-19.4725065681034
30
0
41
1
10
-23.4577645521646
20
-19.5308156537197
30
0
41
1
10
-23.7110215598315
20
-19.5927309127619
30
0
41
1
10
-24.0802456285699
20
-19.6941332815307
30
0
41
1
10
-24.2018072233507
20
-19.7294669445773
30
0
41
1
10
-24.4384878085563
20
-19.8034487178426
30
0
41
1
10
-24.5535683637339
20
-19.8420607367675
30
0
41
1
10
-24.7749475554853
20
-19.9236521975046
30
0
41
1
10
-24.8812885806188
20
-19.9666105586424
30
0
41
1
10
-25.0813501274025
20
-20.058803708456
30
0
41
1
10
-25.1752032097578
20
-20.1079725720551
30
0
41
1
10
-25.3007369764709
20
-20.1893079354521
30
0
41
1
10
-25.3396343291087
20
-20.2175277603439
30
0
41
1
10
-25.4086340830932
20
-20.2755373707948
30
0
41
1
10
-25.4389691743771
20
-20.3054671422381
30
0
41
1
10
-25.4893901655705
20
-20.3676029500867
30
0
41
1
10
-25.5093651042268
20
-20.3998763092482
30
0
41
1
10
-25.5359144945267
20
-20.4648034817868
30
0
41
1
10
-25.5427334623997
20
-20.4977100970871
30
0
41
1
10
-25.5425277000738
20
-20.5310987896625
30
0
0
SPLINE
5
123
100
AcDbEntity
8
1
62
256
6
ByLayer
370
18
48
1
60
0
100
AcDbSpline
70
4
71
3
72
32
73
28
40
0
40
0
40
0
40
0
40
0.125000000000001
40
0.125000000000001
40
0.187500000000002
40
0.187500000000002
40
0.250000000000002
40
0.312500000000003
40
0.312500000000003
40
0.375000000000003
40
0.375000000000003
40
0.437500000000004
40
0.437500000000004
40
0.500000000000004
40
0.500000000000004
40
0.625000000000005
40
0.625000000000005
40
0.687500000000005
40
0.687500000000005
40
0.750000000000004
40
0.750000000000004
40
0.812500000000003
40
0.812500000000003
40
0.875000000000002
40
0.937500000000001
40
0.937500000000001
40
1
40
1
40
1
40
1
41
1
10
19.525
20
16.2306014000909
30
0
41
1
10
19.4486173535729
20
16.1210599030529
30
0
41
1
10
19.3561557700621
20
16.0214510985227
30
0
41
1
10
19.1940366172505
20
15.8869353127408
30
0
41
1
10
19.13559785512
20
15.8443758221429
30
0
41
1
10
19.0137317759039
20
15.766716054508
30
0
41
1
10
18.8864951980351
20
15.6960418033308
30
0
41
1
10
18.7486948676454
20
15.6392420148952
30
0
41
1
10
18.6054185424351
20
15.5896945470304
30
0
41
1
10
18.5320152400585
20
15.5689229534276
30
0
41
1
10
18.3836362034952
20
15.535704953212
30
0
41
1
10
18.308369096535
20
15.5231568310925
30
0
41
1
10
18.1556651235716
20
15.5062654247244
30
0
41
1
10
18.0776339171027
20
15.5019427108595
30
0
41
1
10
17.8455272479435
20
15.5019136300972
30
0
41
1
10
17.6932890361012
20
15.5185930448049
30
0
41
1
10
17.4687052385781
20
15.5687076461504
30
0
41
1
10
17.3950176105023
20
15.5895916904816
30
0
41
1
10
17.2531183644443
20
15.6385677492124
30
0
41
1
10
17.1844180034842
20
15.6667623225411
30
0
41
1
10
17.051516835617
20
15.7305081077936
30
0
41
1
10
16.9868885771429
20
15.7663441978204
30
0
41
1
10
16.8645973188877
20
15.8442281361303
30
0
41
1
10
16.749696536998
20
15.9278758442663
30
0
41
1
10
16.649167632036
20
16.0225872482431
30
0
41
1
10
16.5560029254347
20
16.1228934292574
30
0
41
1
10
16.5131911718163
20
16.175830868693
30
0
41
1
10
16.475
20
16.2306014000909
30
0
0
SPLINE
5
124
100
AcDbEntity
8
SK1
62
256
6
ByLayer
370
18
48
1
60
0
100
AcDbSpline
70
4
71
3
72
26
73
22
40
0
40
0
40
0
40
0
40
0.125000000000001
40
0.125000000000001
40
0.250000000000001
40
0.250000000000001
40
0.500000000000002
40
0.500000000000002
40
0.625000000000003
40
0.625000000000003
40
0.750000000000003
40
0.750000000000003
40
0.812500000000003
40
0.812500000000003
40
0.875000000000004
40
0.875000000000004
40
0.937500000000004
40
0.937500000000004
40
0.968750000000002
40
0.968750000000002
40
1
40
1
40
1
40
1
41
1
10
-25.8
20
21.8338164768251
30
0
41
1
10
-25.8
20
21.7915616932459
30
0
41
1
10
-25.8090351025927
20
21.7478886231867
30
0
41
1
10
-25.8431548692958
20
21.6578071143861
30
0
41
1
10
-25.8684641645678
20
21.6111821444051
30
0
41
1
10
-25.9642469084144
20
21.4706306346814
30
0
41
1
10
-26.0542386223504
20
21.3750914378881
30
0
41
1
10
-26.2216636085842
20
21.2296229266402
30
0
41
1
10
-26.2831168969646
20
21.1806521199652
30
0
41
1
10
-26.4171121948669
20
21.08282757941
30
0
41
1
10
-26.4893081339087
20
21.034041361489
30
0
41
1
10
-26.6081703997843
20
20.9624296091495
30
0
41
1
10
-26.64952079047
20
20.9388574261358
30
0
41
1
10
-26.7375692634737
20
20.8928909727541
30
0
41
1
10
-26.7838545339876
20
20.87062177108
30
0
41
1
10
-26.8849324792838
20
20.8294629205491
30
0
41
1
10
-26.9405411248387
20
20.8101386317689
30
0
41
1
10
-27.033741492765
20
20.7896833685914
30
0
41
1
10
-27.066632898975
20
20.7843942438384
30
0
41
1
10
-27.1327297867291
20
20.7784773789045
30
0
41
1
10
-27.166849727636
20
20.7777979843037
30
0
41
1
10
-27.2000000000001
20
20.7793761248439
30
0
0
SPLINE
5
125
100
AcDbEntity
8
SK1
62
256
6
ByLayer
370
18
48
1
60
0
100
AcDbSpline
70
4
71
3
72
12
73
8
40
0
40
0
40
0
40
0
40
0.500000000000001
40
0.500000000000001
40
0.750000000000001
40
0.750000000000001
40
1
40
1
40
1
40
1
41
1
10
-30.75
20
20.8447435124634
30
0
41
1
10
-30.1550416961173
20
20.843726390558
30
0
41
1
10
-29.5610680020745
20
20.8397833747407
30
0
41
1
10
-28.6727964488951
20
20.8257901832184
30
0
41
1
10
-28.3771606131415
20
20.8197595020288
30
0
41
1
10
-27.7872843517739
20
20.8034860351553
30
0
41
1
10
-27.4930169396388
20
20.7933253891619
30
0
41
1
10
-27.2
20
20.7793761248443
30
0
0
SPLINE
5
126
100
AcDbEntity
8
SK1
62
256
6
ByLayer
370
18
48
1
60
0
100
AcDbSpline
70
4
71
3
72
8
73
4
40
0
40
0
40
0
40
0
40
1
40
1
40
1
40
1
41
1
10
-30.7600449304183
20
20.8343104848558
30
0
41
1
10
-30.7567195771116
20
20.83779492334
30
0
41
1
10
-30.7533711052713
20
20.8412726012235
30
0
41
1
10
-30.75
20
20.8447435124635
30
0
0
SPLINE
5
127
100
AcDbEntity
8
SK1
62
256
6
ByLayer
370
18
48
1
60
0
100
AcDbSpline
70
4
71
3
72
20
73
16
40
0
40
0
40
0
40
0
40
0.142873413100717
40
0.142873413100717
40
0.250016945797337
40
0.250016945797337
40
0.357160478493956
40
0.357160478493956
40
0.464304011190575
40
0.464304011190575
40
0.571447543887195
40
0.571447543887195
40
0.785734609280433
40
0.785734609280433
40
1
40
1
40
1
40
1
41
1
10
-4.30502559915266
20
-24.1049457013847
30
0
41
1
10
-4.30433233951354
20
-24.1050830829352
30
0
41
1
10
-4.31785193645266
20
-24.1023147220749
30
0
41
1
10
-4.36566732820205
20
-24.0925760774327
30
0
41
1
10
-4.39400735362295
20
-24.0868209974
30
0
41
1
10
-4.46663985174456
20
-24.0722257401725
30
0
41
1
10
-4.5102727032654
20
-24.0635192942713
30
0
41
1
10
-4.61136596260624
20
-24.0436290636247
30
0
41
1
10
-4.66882923078825
20
-24.0324445317661
30
0
41
1
10
-4.79725894891652
20
-24.0078913530001
30
0
41
1
10
-4.86842176355847
20
-23.9944861430768
30
0
41
1
10
-5.10104839591818
20
-23.9516273027073
30
0
41
1
10
-5.27790682129196
20
-23.9202087279619
30
0
41
1
10
-5.67167193718598
20
-23.8545469400548
30
0
41
1
10
-5.89057504743701
20
-23.8200374642971
30
0
41
1
10
-6.12133993223398
20
-23.7865920950571
30
0
0
SPLINE
5
128
100
AcDbEntity
8
SK1
62
256
6
ByLayer
370
18
48
1
60
0
100
AcDbSpline
70
4
71
3
72
43
73
39
40
0
40
0
40
0
40
0
40
8.9234063368E-06
40
8.9234063368E-06
40
0.0882302333300548
40
0.0882302333300548
40
0.132340888291914
40
0.132340888291914
40
0.176451543253773
40
0.176451543253773
40
0.264672853177491
40
0.264672853177491
40
0.308783508139351
40
0.308783508139351
40
0.35289416310121
40
0.35289416310121
40
0.441115473024928
40
0.441115473024928
40
0.529336782948646
40
0.529336782948646
40
0.573447437910505
40
0.573447437910505
40
0.617558092872363
40
0.617558092872363
40
0.705779402796081
40
0.705779402796081
40
0.749890057757941
40
0.749890057757941
40
0.794000712719799
40
0.794000712719799
40
0.882222022643518
40
0.882222022643518
40
0.904277350124447
40
0.904277350124447
40
0.926332677605377
40
0.926332677605377
40
0.970443332567236
40
1
40
1
40
1
40
1
41
1
10
-6.12133993214408
20
-23.7865920950701
30
0
41
1
10
-6.12136327590471
20
-23.7865887117967
30
0
41
1
10
-6.12138661978673
20
-23.7865853285342
30
0
41
1
10
-6.35220059228487
20
-23.7531334081093
30
0
41
1
10
-6.59613995458142
20
-23.7204939046709
30
0
41
1
10
-6.98154730130062
20
-23.6743572962272
30
0
41
1
10
-7.11357260122804
20
-23.6594267644852
30
0
41
1
10
-7.37927289272292
20
-23.6312768052235
30
0
41
1
10
-7.51352456609342
20
-23.6179839683162
30
0
41
1
10
-7.92040495075068
20
-23.5806619448774
30
0
41
1
10
-8.19712409919595
20
-23.5591890896053
30
0
41
1
10
-8.62072317948315
20
-23.5328966301412
30
0
41
1
10
-8.76205514339614
20
-23.5252053045327
30
0
41
1
10
-9.04268350792719
20
-23.5120637936393
30
0
41
1
10
-9.18234786317714
20
-23.5065905110773
30
0
41
1
10
-9.59940111892348
20
-23.4933855776022
30
0
41
1
10
-9.87542361051575
20
-23.4888707902341
30
0
41
1
10
-10.4196701595311
20
-23.4879734611161
30
0
41
1
10
-10.6804659522594
20
-23.491575781171
30
0
41
1
10
-11.0549036414584
20
-23.5016071621067
30
0
41
1
10
-11.1769049852739
20
-23.5057236259709
30
0
41
1
10
-11.415087448325
20
-23.5152633596362
30
0
41
1
10
-11.5318893301296
20
-23.5207213367853
30
0
41
1
10
-11.867992714256
20
-23.5384082509526
30
0
41
1
10
-12.0722486736227
20
-23.5518519842118
30
0
41
1
10
-12.3485921109863
20
-23.5724748969697
30
0
41
1
10
-12.4356646464762
20
-23.5794274234335
30
0
41
1
10
-12.5991949734947
20
-23.5931540963071
30
0
41
1
10
-12.6757012001076
20
-23.5999368151123
30
0
41
1
10
-12.8830012577906
20
-23.6190120309297
30
0
41
1
10
-12.9939922983168
20
-23.6302028954101
30
0
41
1
10
-13.0976089350879
20
-23.6409530335778
30
0
41
1
10
-13.1165590161909
20
-23.642941626825
30
0
41
1
10
-13.1508118707668
20
-23.6465637742879
30
0
41
1
10
-13.1661511426398
20
-23.6482012755955
30
0
41
1
10
-13.2060653121271
20
-23.6524864678893
30
0
41
1
10
-13.2371986656808
20
-23.6558850723085
30
0
41
1
10
-13.2466527644304
20
-23.6569220328127
30
0
41
1
10
-13.2469410381687
20
-23.6569539848885
30
0
0
SPLINE
5
129
100
AcDbEntity
8
SK1
62
256
6
ByLayer
370
18
48
1
60
0
100
AcDbSpline
70
4
71
3
72
28
73
24
40
0
40
0
40
0
40
0
40
0.0156249999999999
40
0.0156249999999999
40
0.0312499999999997
40
0.0312499999999997
40
0.0624999999999994
40
0.0624999999999994
40
0.0937499999999992
40
0.0937499999999992
40
0.124999999999999
40
0.124999999999999
40
0.187499999999998
40
0.187499999999998
40
0.249999999999998
40
0.249999999999998
40
0.374999999999998
40
0.374999999999998
40
0.499999999999998
40
0.499999999999998
40
0.749999999999999
40
0.749999999999999
40
1
40
1
40
1
40
1
41
1
10
-23.2
20
-19.4725065681034
30
0
41
1
10
-23.1876502058549
20
-19.4697129132036
30
0
41
1
10
-23.1748847628705
20
-19.4677095952295
30
0
41
1
10
-23.1483383773588
20
-19.4656403206953
30
0
41
1
10
-23.1343760848
20
-19.4656198739454
30
0
41
1
10
-23.0935849629471
20
-19.4688291914607
30
0
41
1
10
-23.067081566601
20
-19.4754004428959
30
0
41
1
10
-23.0204194165109
20
-19.4931105485257
30
0
41
1
10
-23.0002900983264
20
-19.5038637712728
30
0
41
1
10
-22.9634130695384
20
-19.527335072255
30
0
41
1
10
-22.9472402693794
20
-19.5397543365687
30
0
41
1
10
-22.9027611907552
20
-19.5780017983515
30
0
41
1
10
-22.8782780140498
20
-19.6049557007804
30
0
41
1
10
-22.8347029279809
20
-19.659729636182
30
0
41
1
10
-22.8159778532693
20
-19.6872751764781
30
0
41
1
10
-22.7652741193391
20
-19.7700001304787
30
0
41
1
10
-22.7386990696325
20
-19.8252605344213
30
0
41
1
10
-22.693186878316
20
-19.9352660922314
30
0
41
1
10
-22.6744258675471
20
-19.9900867935991
30
0
41
1
10
-22.626495595419
20
-20.1530310183227
30
0
41
1
10
-22.6056606993562
20
-20.2589525452543
30
0
41
1
10
-22.5781968672318
20
-20.4653952654228
30
0
41
1
10
-22.5717791044903
20
-20.5659154603382
30
0
41
1
10
-22.571845502751
20
-20.6637088720743
30
0
0
SPLINE
5
12A
100
AcDbEntity
8
SK1
62
256
6
ByLayer
370
18
48
1
60
0
100
AcDbSpline
70
4
71
3
72
40
73
36
40
0
40
0
40
0
40
0
40
0.0298653626476922
40
0.0298653626476922
40
0.118109059113398
40
0.118109059113398
40
0.16223090734625
40
0.16223090734625
40
0.206352755579103
40
0.206352755579103
40
0.250474603811955
40
0.250474603811955
40
0.294596452044808
40
0.294596452044808
40
0.382840148510513
40
0.382840148510513
40
0.426961996743366
40
0.426961996743366
40
0.471083844976218
40
0.471083844976218
40
0.559327541441924
40
0.559327541441924
40
0.603449389674777
40
0.603449389674777
40
0.647571237907629
40
0.647571237907629
40
0.735814934373335
40
0.735814934373335
40
0.824058630839041
40
0.824058630839041
40
0.868180479071894
40
0.868180479071894
40
0.912302327304747
40
0.912302327304747
40
1
40
1
40
1
40
1
41
1
10
-13.2469334511664
20
23.656953148577
30
0
41
1
10
-13.2470513322666
20
23.6569657383098
30
0
41
1
10
-13.2435419199387
20
23.6565808008255
30
0
41
1
10
-13.2153508485345
20
23.6534979773236
30
0
41
1
10
-13.1634087506821
20
23.6477930957845
30
0
41
1
10
-13.0403939771075
20
23.6350108744128
30
0
41
1
10
-12.991448079874
20
23.6300130133134
30
0
41
1
10
-12.8803250329204
20
23.6190364934434
30
0
41
1
10
-12.8181444923187
20
23.6130561767701
30
0
41
1
10
-12.6810802123458
20
23.6004205005736
30
0
41
1
10
-12.6061948253973
20
23.5937646142666
30
0
41
1
10
-12.4438404778801
20
23.5800927962391
30
0
41
1
10
-12.355849278585
20
23.5730392201157
30
0
41
1
10
-12.0775902146087
20
23.5522074888199
30
0
41
1
10
-11.8730790530444
20
23.5387303882889
30
0
41
1
10
-11.5393803117224
20
23.5210895099798
30
0
41
1
10
-11.423166703879
20
23.5156201179232
30
0
41
1
10
-11.1836715026485
20
23.5059634677947
30
0
41
1
10
-11.0611711214308
20
23.5018027233071
30
0
41
1
10
-10.6857760993029
20
23.49166466447
30
0
41
1
10
-10.4250553580897
20
23.488028368508
30
0
41
1
10
-10.0183838891336
20
23.4886043057908
30
0
41
1
10
-9.88042915529701
20
23.4898142371902
30
0
41
1
10
-9.604611557743
20
23.4943304253164
30
0
41
1
10
-9.46610092252237
20
23.4976352026925
30
0
41
1
10
-9.04880982002933
20
23.5107623584792
30
0
41
1
10
-8.76778240886111
20
23.5238288991284
30
0
41
1
10
-8.2029865795302
20
23.558766326098
30
0
41
1
10
-7.92643664657976
20
23.5801702876859
30
0
41
1
10
-7.52001767331808
20
23.6173586351528
30
0
41
1
10
-7.38595470382973
20
23.630601915389
30
0
41
1
10
-7.12069688492997
20
23.658640624991
30
0
41
1
10
-6.98886466816836
20
23.6735143127793
30
0
41
1
10
-6.60458168586575
20
23.7194204939349
30
0
41
1
10
-6.3624841403028
20
23.7517426172567
30
0
41
1
10
-6.13386358193648
20
23.7847796831918
30
0
0
SPLINE
5
12B
100
AcDbEntity
8
SK1
62
256
6
ByLayer
370
18
48
1
60
0
100
AcDbSpline
70
4
71
3
72
26
73
22
40
0
40
0
40
0
40
0
40
0.0013250307292388
40
0.0013250307292388
40
0.108395102044155
40
0.108395102044155
40
0.215465173359071
40
0.215465173359071
40
0.429605315988901
40
0.429605315988901
40
0.536675387303817
40
0.536675387303817
40
0.590210422961275
40
0.590210422961275
40
0.643745458618733
40
0.643745458618733
40
0.857885601248564
40
0.857885601248564
40
0.96495567256348
40
0.96495567256348
40
1
40
1
40
1
40
1
41
1
10
-6.13386358198741
20
23.7847796831844
30
0
41
1
10
-6.13244014329246
20
23.784985378763
30
0
41
1
10
-6.13101722704155
20
23.7851911020567
30
0
41
1
10
-6.01465726600503
20
23.8020226918596
30
0
41
1
10
-5.90315419359308
20
23.8188274644239
30
0
41
1
10
-5.6873027555298
20
23.8524997295718
30
0
41
1
10
-5.58244323994742
20
23.869455980832
30
0
41
1
10
-5.28544956403417
20
23.9188950396662
30
0
41
1
10
-5.10923517016823
20
23.9501683322991
30
0
41
1
10
-4.87859120288414
20
23.9925900830115
30
0
41
1
10
-4.80736306908037
20
24.0059802878702
30
0
41
1
10
-4.70955259139615
20
24.0246507463844
30
0
41
1
10
-4.67838201798278
20
24.0306528608582
30
0
41
1
10
-4.61990896968183
20
24.041990717442
30
0
41
1
10
-4.59252240823716
20
24.047342233963
30
0
41
1
10
-4.46475792456815
20
24.07245472918
30
0
41
1
10
-4.39159556938444
20
24.0873003081025
30
0
41
1
10
-4.32731072257982
20
24.1003859981719
30
0
41
1
10
-4.31352805243057
20
24.1032108719032
30
0
41
1
10
-4.3061318938326
20
24.1047260481829
30
0
41
1
10
-4.30516897393736
20
24.1049231479534
30
0
41
1
10
-4.3050598199317
20
24.1049453713898
30
0
0
SPLINE
5
12C
100
AcDbEntity
8
1
62
256
6
ByLayer
370
18
48
1
60
0
100
AcDbSpline
70
2053
71
3
72
116
73
112
40
0
40
0
40
0
40
0
40
0.0312500000000002
40
0.0312500000000002
40
0.0625000000000004
40
0.0625000000000004
40
0.0781250000000005
40
0.0781250000000005
40
0.0937500000000006
40
0.0937500000000006
40
0.125
40
0.125
40
0.140625
40
0.140625
40
0.15625
40
0.15625
40
0.1875
40
0.1875
40
0.203125
40
0.203125
40
0.21875
40
0.21875
40
0.234375
40
0.234375
40
0.25
40
0.25
40
0.265625000000001
40
0.265625000000001
40
0.273437500000001
40
0.273437500000001
40
0.281250000000001
40
0.281250000000001
40
0.3125
40
0.3125
40
0.328125
40
0.328125
40
0.34375
40
0.34375
40
0.359374999999999
40
0.359374999999999
40
0.367187499999999
40
0.367187499999999
40
0.374999999999999
40
0.374999999999999
40
0.406249999999999
40
0.406249999999999
40
0.421874999999999
40
0.421874999999999
40
0.437499999999999
40
0.437499999999999
40
0.46875
40
0.46875
40
0.484375
40
0.484375
40
0.5
40
0.5
40
0.53125
40
0.53125
40
0.546875
40
0.546875
40
0.5546875
40
0.5546875
40
0.5625
40
0.5625
40
0.59375
40
0.59375
40
0.609375
40
0.609375
40
0.625
40
0.625
40
0.65625
40
0.65625
40
0.671875
40
0.671875
40
0.6875
40
0.6875
40
0.71875
40
0.71875
40
0.7265625
40
0.7265625
40
0.734375
40
0.734375
40
0.75
40
0.75
40
0.765625
40
0.765625
40
0.7734375
40
0.7734375
40
0.781250000000001
40
0.781250000000001
40
0.8125
40
0.8125
40
0.828125
40
0.828125
40
0.84375
40
0.84375
40
0.859375
40
0.859375
40
0.875
40
0.875
40
0.906250000000001
40
0.906250000000001
40
0.921875
40
0.921875
40
0.9375
40
0.9375
40
0.953125
40
0.953125
40
0.96875
40
0.96875
40
1
40
1
40
1
40
1
41
1
10
35.75
20
-22.1979728804231
30
0
41
1
10
35.75
20
-22.0269721837477
30
0
41
1
10
35.7808118367498
20
-21.8516038646982
30
0
41
1
10
35.897169414056
20
-21.4928356821103
30
0
41
1
10
35.9827580809529
20
-21.3094312274768
30
0
41
1
10
36.1518430597583
20
-21.0291187891908
30
0
41
1
10
36.2152014910297
20
-20.9345912722457
30
0
41
1
10
36.3553665736649
20
-20.7449833198463
30
0
41
1
10
36.4315098401822
20
-20.65075765397
30
0
41
1
10
36.6778460022029
20
-20.370262601346
30
0
41
1
10
36.8657376530849
20
-20.1861018942244
30
0
41
1
10
37.1854982948819
20
-19.9169915079185
30
0
41
1
10
37.2984535378123
20
-19.8284923204688
30
0
41
1
10
37.5382379394257
20
-19.654655296318
30
0
41
1
10
37.6639063242046
20
-19.570194465134
30
0
41
1
10
38.0565632918573
20
-19.3270148649863
30
0
41
1
10
38.3398982392076
20
-19.1775783779899
30
0
41
1
10
38.803818344975
20
-18.9800382770534
30
0
41
1
10
38.9654302284705
20
-18.9186435238087
30
0
41
1
10
39.2949597461165
20
-18.8094121915628
30
0
41
1
10
39.4637751307593
20
-18.7611493882127
30
0
41
1
10
39.8101048343194
20
-18.6787323988437
30
0
41
1
10
39.9876157677801
20
-18.6445730359237
30
0
41
1
10
40.3522783770783
20
-18.5922501732288
30
0
41
1
10
40.535239695257
20
-18.5747197064666
30
0
41
1
10
40.9014476012168
20
-18.5569770849292
30
0
41
1
10
41.0848536389219
20
-18.5567423394031
30
0
41
1
10
41.3604202104996
20
-18.5694721331936
30
0
41
1
10
41.4523521023057
20
-18.5758976292735
30
0
41
1
10
41.6363708079591
20
-18.5931586391864
30
0
41
1
10
41.7284705047993
20
-18.6040190375094
30
0
41
1
10
42.1819944515331
20
-18.6682298008096
30
0
41
1
10
42.5287447680452
20
-18.7515094612535
30
0
41
1
10
43.0277555523022
20
-18.9161272110854
30
0
41
1
10
43.188043393081
20
-18.9768571479792
30
0
41
1
10
43.4959817817426
20
-19.1074266755417
30
0
41
1
10
43.6439810723101
20
-19.1773897198841
30
0
41
1
10
43.929090105528
20
-19.3253185310103
30
0
41
1
10
44.0661960555891
20
-19.4032881304754
30
0
41
1
10
44.2641303463912
20
-19.5255128013299
30
0
41
1
10
44.3289341612828
20
-19.5672191997514
30
0
41
1
10
44.4548467301121
20
-19.6515023116912
30
0
41
1
10
44.5160843054314
20
-19.6941522371341
30
0
41
1
10
44.8140934775844
20
-19.9096538707997
30
0
41
1
10
45.026625864835
20
-20.0891356568017
30
0
41
1
10
45.3105374469153
20
-20.3651902095549
30
0
41
1
10
45.3993020016819
20
-20.4583718935429
30
0
41
1
10
45.5651201539336
20
-20.6466699174982
30
0
41
1
10
45.6420342313054
20
-20.7417077256121
30
0
41
1
10
45.8515772356646
20
-21.0244594624021
30
0
41
1
10
45.9646545176185
20
-21.2113809218543
30
0
41
1
10
46.0944024258772
20
-21.488137136812
30
0
41
1
10
46.130960336625
20
-21.5797915309133
30
0
41
1
10
46.1901215778256
20
-21.7617629535306
30
0
41
1
10
46.2126690476976
20
-21.8521984731513
30
0
41
1
10
46.2574700939512
20
-22.1162802378457
30
0
41
1
10
46.2577484039919
20
-22.2844341082227
30
0
41
1
10
46.2118091833093
20
-22.5250398147826
30
0
41
1
10
46.1887247176963
20
-22.6033026347834
30
0
41
1
10
46.1417288858272
20
-22.7178032675465
30
0
41
1
10
46.1239985312072
20
-22.7554877916361
30
0
41
1
10
46.0842405533515
20
-22.8298935796753
30
0
41
1
10
46.0621780710927
20
-22.8666405982052
30
0
41
1
10
45.9422259785377
20
-23.0458195781292
30
0
41
1
10
45.8148036260821
20
-23.1764323890899
30
0
41
1
10
45.5750346162963
20
-23.3554711442162
30
0
41
1
10
45.4869590711903
20
-23.4123272616252
30
0
41
1
10
45.2936140109905
20
-23.5206501593255
30
0
41
1
10
45.187592899445
20
-23.572393837439
30
0
41
1
10
44.8497688655685
20
-23.7165917956997
30
0
41
1
10
44.5975931531294
20
-23.7989484055413
30
0
41
1
10
44.1783687058758
20
-23.9053944932108
30
0
41
1
10
44.0317287887925
20
-23.938011160845
30
0
41
1
10
43.7240900400858
20
-23.9978174061644
30
0
41
1
10
43.5660274781634
20
-24.0244417906595
30
0
41
1
10
43.0795085871336
20
-24.0956364628028
30
0
41
1
10
42.7388586999773
20
-24.1316560595129
30
0
41
1
10
42.2919433052647
20
-24.1641223896767
30
0
41
1
10
42.2014348449306
20
-24.1699753963868
30
0
41
1
10
42.0205407863304
20
-24.1802939391216
30
0
41
1
10
41.9298755894619
20
-24.1847815437132
30
0
41
1
10
41.6572366683595
20
-24.1963091299307
30
0
41
1
10
41.4746214482185
20
-24.2014235200694
30
0
41
1
10
41.1076929082595
20
-24.2066930453744
30
0
41
1
10
40.9233796926732
20
-24.2068484882223
30
0
41
1
10
40.645601496628
20
-24.2032634232413
30
0
41
1
10
40.5525152123642
20
-24.2014201526781
30
0
41
1
10
40.3678609166826
20
-24.1964683493305
30
0
41
1
10
40.2761758031261
20
-24.1933624872764
30
0
41
1
10
39.8208974803505
20
-24.1746919658369
30
0
41
1
10
39.4666391187692
20
-24.1498910562464
30
0
41
1
10
38.9503182231511
20
-24.0957944536837
30
0
41
1
10
38.7804593705439
20
-24.0748207653568
30
0
41
1
10
38.4539896882098
20
-24.0276557466055
30
0
41
1
10
38.2963174906176
20
-24.0013707174811
30
0
41
1
10
37.9918617243255
20
-23.9429553356829
30
0
41
1
10
37.8450788757653
20
-23.9108256557021
30
0
41
1
10
37.5625084181347
20
-23.8400471931447
30
0
41
1
10
37.4262189872192
20
-23.8011867347441
30
0
41
1
10
37.0428474623778
20
-23.6764246220391
30
0
41
1
10
36.8181854037569
20
-23.5818536017634
30
0
41
1
10
36.5255477061855
20
-23.4199792128268
30
0
41
1
10
36.43504376974
20
-23.3623275373821
30
0
41
1
10
36.2719621209118
20
-23.2418245780615
30
0
41
1
10
36.1991393352666
20
-23.1789328745088
30
0
41
1
10
36.0700345804998
20
-23.0476537191928
30
0
41
1
10
36.0137553241169
20
-22.9792664033101
30
0
41
1
10
35.9172979624391
20
-22.836723300135
30
0
41
1
10
35.8770378035468
20
-22.7623576268481
30
0
41
1
10
35.7809143313512
20
-22.5315419326316
30
0
41
1
10
35.75
20
-22.3689735770985
30
0
41
1
10
35.75
20
-22.1979728804231
30
0
0
SPLINE
5
12D
100
AcDbEntity
8
1
62
256
6
ByLayer
370
18
48
1
60
0
100
AcDbSpline
70
4
71
3
72
32
73
28
40
0
40
0
40
0
40
0
40
0.125
40
0.125
40
0.1875
40
0.1875
40
0.25
40
0.312499999999999
40
0.312499999999999
40
0.374999999999999
40
0.374999999999999
40
0.437499999999999
40
0.437499999999999
40
0.499999999999998
40
0.499999999999998
40
0.625000000000001
40
0.625000000000001
40
0.687500000000001
40
0.687500000000001
40
0.75
40
0.75
40
0.8125
40
0.8125
40
0.875
40
0.9375
40
0.9375
40
1
40
1
40
1
40
1
41
1
10
19.525
20
-12.1692581906231
30
0
41
1
10
19.4486173535729
20
-12.2909774622373
30
0
41
1
10
19.3561557700621
20
-12.4005654856581
30
0
41
1
10
19.1940366172505
20
-12.547600694939
30
0
41
1
10
19.13559785512
20
-12.5939383584645
30
0
41
1
10
19.0137317759039
20
-12.6782442009626
30
0
41
1
10
18.8864951980351
20
-12.7547026658695
30
0
41
1
10
18.7486948676454
20
-12.8158336314505
30
0
41
1
10
18.6054185424351
20
-12.8690677842999
30
0
41
1
10
18.5320152400585
20
-12.8913328582103
30
0
41
1
10
18.3836362034951
20
-12.9269031973856
30
0
41
1
10
18.308369096535
20
-12.9403174920613
30
0
41
1
10
18.1556651235716
20
-12.9583685262845
30
0
41
1
10
18.0776339171027
20
-12.9629833231128
30
0
41
1
10
17.8455272479435
20
-12.9630143789972
30
0
41
1
10
17.6932890361011
20
-12.9452262869314
30
0
41
1
10
17.4687052385781
20
-12.8915637092717
30
0
41
1
10
17.3950176105023
20
-12.8691777382963
30
0
41
1
10
17.2531183644443
20
-12.8165586143721
30
0
41
1
10
17.1844180034842
20
-12.7862158835516
30
0
41
1
10
17.051516835617
20
-12.717414804918
30
0
41
1
10
16.9868885771429
20
-12.6786472821739
30
0
41
1
10
16.8645973188877
20
-12.5940992781155
30
0
41
1
10
16.749696536998
20
-12.5030266718522
30
0
41
1
10
16.649167632036
20
-12.3991526888183
30
0
41
1
10
16.5560029254347
20
-12.2886610949137
30
0
41
1
10
16.5131911718163
20
-12.2301175851717
30
0
41
1
10
16.475
20
-12.1692581906231
30
0
0
SPLINE
5
12E
100
AcDbEntity
8
1
62
256
6
ByLayer
370
18
48
1
60
0
100
AcDbSpline
70
4
71
3
72
32
73
28
40
0
40
0
40
0
40
0
40
0.124999999999998
40
0.124999999999998
40
0.187499999999998
40
0.187499999999998
40
0.249999999999998
40
0.312499999999998
40
0.312499999999998
40
0.374999999999998
40
0.374999999999998
40
0.437499999999998
40
0.437499999999998
40
0.499999999999998
40
0.499999999999998
40
0.625000000000001
40
0.625000000000001
40
0.687500000000001
40
0.687500000000001
40
0.750000000000001
40
0.750000000000001
40
0.8125
40
0.8125
40
0.875
40
0.9375
40
0.9375
40
1
40
1
40
1
40
1
41
1
10
16.475
20
12.169258190623
30
0
41
1
10
16.5513826464271
20
12.2909774622372
30
0
41
1
10
16.6438442299379
20
12.400565485658
30
0
41
1
10
16.8059633827495
20
12.5476006949389
30
0
41
1
10
16.86440214488
20
12.5939383584644
30
0
41
1
10
16.9862682240961
20
12.6782442009625
30
0
41
1
10
17.1135043632959
20
12.7547031588272
30
0
41
1
10
17.2513051323546
20
12.8158336314504
30
0
41
1
10
17.3945814575649
20
12.8690677842998
30
0
41
1
10
17.4679847599415
20
12.8913328582102
30
0
41
1
10
17.6163637965048
20
12.9269031973855
30
0
41
1
10
17.6916309034651
20
12.9403174920612
30
0
41
1
10
17.8443348764284
20
12.9583685262844
30
0
41
1
10
17.9223660828973
20
12.9629833231127
30
0
41
1
10
18.1544727520565
20
12.9630143789971
30
0
41
1
10
18.3067109638988
20
12.9452262869314
30
0
41
1
10
18.5312947614219
20
12.8915637092716
30
0
41
1
10
18.6049823894977
20
12.8691777382963
30
0
41
1
10
18.7468816355557
20
12.816558614372
30
0
41
1
10
18.8155819965158
20
12.7862158835515
30
0
41
1
10
18.948483164383
20
12.7174148049179
30
0
41
1
10
19.0131114228571
20
12.6786472821738
30
0
41
1
10
19.1354026811123
20
12.5940992781154
30
0
41
1
10
19.2503033645007
20
12.5030267546191
30
0
41
1
10
19.350832367964
20
12.3991526888182
30
0
41
1
10
19.4439970745653
20
12.2886610949137
30
0
41
1
10
19.4868088281837
20
12.2301175851716
30
0
41
1
10
19.525
20
12.169258190623
30
0
0
SPLINE
5
12F
100
AcDbEntity
8
1
62
256
6
ByLayer
370
18
48
1
60
0
100
AcDbSpline
70
4
71
3
72
32
73
28
40
0
40
0
40
0
40
0
40
0.125000000000002
40
0.125000000000002
40
0.187500000000002
40
0.187500000000002
40
0.250000000000003
40
0.312500000000003
40
0.312500000000003
40
0.375000000000004
40
0.375000000000004
40
0.437500000000004
40
0.437500000000004
40
0.500000000000005
40
0.500000000000005
40
0.625000000000006
40
0.625000000000006
40
0.687500000000005
40
0.687500000000005
40
0.750000000000004
40
0.750000000000004
40
0.812500000000003
40
0.812500000000003
40
0.875000000000002
40
0.937500000000001
40
0.937500000000001
40
1
40
1
40
1
40
1
41
1
10
16.475
20
-10.6070107729665
30
0
41
1
10
16.5513826464271
20
-10.4817735010622
30
0
41
1
10
16.6438442299379
20
-10.3681801476483
30
0
41
1
10
16.8059633827495
20
-10.2150309018106
30
0
41
1
10
16.86440214488
20
-10.1666240882752
30
0
41
1
10
16.9862682240961
20
-10.0783598013234
30
0
41
1
10
17.1135048019649
20
-9.99810440202512
30
0
41
1
10
17.2513051323546
20
-9.93368795652898
30
0
41
1
10
17.3945814575649
20
-9.8775204183307
30
0
41
1
10
17.4679847599415
20
-9.85398722325797
30
0
41
1
10
17.6163637965048
20
-9.8163623459493
30
0
41
1
10
17.691630903465
20
-9.80215542489776
30
0
41
1
10
17.8443348764284
20
-9.78303273120878
30
0
41
1
10
17.9223660828973
20
-9.77814023572986
30
0
41
1
10
18.1544727520566
20
-9.77810731912828
30
0
41
1
10
18.3067109638989
20
-9.79698043890409
30
0
41
1
10
18.5312947614219
20
-9.85374327406731
30
0
41
1
10
18.6049823894977
20
-9.87740396532968
30
0
41
1
10
18.7468816355557
20
-9.93292345777999
30
0
41
1
10
18.8155819965158
20
-9.96489835975117
30
0
41
1
10
18.948483164383
20
-10.0372434149228
30
0
41
1
10
19.0131114228571
20
-10.0779373248094
30
0
41
1
10
19.1354026811123
20
-10.1664560790588
30
0
41
1
10
19.2503034630021
20
-10.2615960719921
30
0
41
1
10
19.350832367964
20
-10.3695186588664
30
0
41
1
10
19.4439970745653
20
-10.4839431758089
30
0
41
1
10
19.4868088281837
20
-10.5443923852459
30
0
41
1
10
19.525
20
-10.6070107729665
30
0
0
SPLINE
5
130
100
AcDbEntity
8
1
62
256
6
ByLayer
370
18
48
1
60
0
100
AcDbSpline
70
4
71
3
72
32
73
28
40
0
40
0
40
0
40
0
40
0.125000000000002
40
0.125000000000002
40
0.187500000000002
40
0.187500000000002
40
0.250000000000003
40
0.312500000000003
40
0.312500000000003
40
0.375000000000003
40
0.375000000000003
40
0.437500000000004
40
0.437500000000004
40
0.500000000000004
40
0.500000000000004
40
0.625000000000005
40
0.625000000000005
40
0.687500000000004
40
0.687500000000004
40
0.750000000000003
40
0.750000000000003
40
0.812500000000003
40
0.812500000000003
40
0.875000000000002
40
0.937500000000001
40
0.937500000000001
40
1
40
1
40
1
40
1
41
1
10
19.525
20
10.6070107729664
30
0
41
1
10
19.4486173535729
20
10.4817735010621
30
0
41
1
10
19.3561557700621
20
10.3681801476482
30
0
41
1
10
19.1940366172505
20
10.2150309018105
30
0
41
1
10
19.13559785512
20
10.1666240882751
30
0
41
1
10
19.0137317759039
20
10.0783598013233
30
0
41
1
10
18.8864951980351
20
9.99810440202504
30
0
41
1
10
18.7486948676454
20
9.9336879565289
30
0
41
1
10
18.6054185424351
20
9.87752041833062
30
0
41
1
10
18.5320152400585
20
9.85398722325789
30
0
41
1
10
18.3836362034952
20
9.81636234594922
30
0
41
1
10
18.308369096535
20
9.80215542489771
30
0
41
1
10
18.1556651235716
20
9.78303273120869
30
0
41
1
10
18.0776339171027
20
9.77814023572978
30
0
41
1
10
17.8455272479434
20
9.7781073191282
30
0
41
1
10
17.6932890361012
20
9.796980438904
30
0
41
1
10
17.4687052385781
20
9.85374327406723
30
0
41
1
10
17.3950176105023
20
9.87740396532959
30
0
41
1
10
17.2531183644443
20
9.93292345777991
30
0
41
1
10
17.1844180034842
20
9.96489835975109
30
0
41
1
10
17.051516835617
20
10.0372434149228
30
0
41
1
10
16.9868885771429
20
10.0779373248093
30
0
41
1
10
16.8645973188877
20
10.1664560790587
30
0
41
1
10
16.7496966354993
20
10.2615963001117
30
0
41
1
10
16.649167632036
20
10.3695186588663
30
0
41
1
10
16.5560029254347
20
10.4839431758088
30
0
41
1
10
16.5131911718163
20
10.5443923852458
30
0
41
1
10
16.475
20
10.6070107729664
30
0
0
SPLINE
5
131
100
AcDbEntity
8
1
62
256
6
ByLayer
370
18
48
1
60
0
100
AcDbSpline
70
4
71
3
72
32
73
28
40
0
40
0
40
0
40
0
40
0.124999999999999
40
0.124999999999999
40
0.187499999999999
40
0.187499999999999
40
0.249999999999999
40
0.312499999999999
40
0.312499999999999
40
0.374999999999999
40
0.374999999999999
40
0.437499999999998
40
0.437499999999998
40
0.499999999999998
40
0.499999999999998
40
0.625000000000001
40
0.625000000000001
40
0.687500000000001
40
0.687500000000001
40
0.75
40
0.75
40
0.8125
40
0.8125
40
0.875
40
0.9375
40
0.9375
40
1
40
1
40
1
40
1
41
1
10
19.525
20
-6.08256053862559
30
0
41
1
10
19.4486173535729
20
-6.21495424862974
30
0
41
1
10
19.3561557700621
20
-6.33441202840734
30
0
41
1
10
19.1940366172505
20
-6.49491848707197
30
0
41
1
10
19.13559785512
20
-6.54554559632055
30
0
41
1
10
19.0137317759039
20
-6.6377155413274
30
0
41
1
10
18.8864956367041
20
-6.7213707318422
30
0
41
1
10
18.7486948676454
20
-6.78833183584041
30
0
41
1
10
18.6054185424351
20
-6.84666590559348
30
0
41
1
10
18.5320152400585
20
-6.87107676507915
30
0
41
1
10
18.3836362034952
20
-6.91008402699759
30
0
41
1
10
18.308369096535
20
-6.92479996636308
30
0
41
1
10
18.1556651235716
20
-6.94460413144176
30
0
41
1
10
18.0776339171027
20
-6.94966827352448
30
0
41
1
10
17.8455272479434
20
-6.94970235083392
30
0
41
1
10
17.6932890361012
20
-6.93017770143456
30
0
41
1
10
17.4687052385781
20
-6.87132984879014
30
0
41
1
10
17.3950176105023
20
-6.84678652950805
30
0
41
1
10
17.2531183644443
20
-6.78912613927815
30
0
41
1
10
17.1844180034841
20
-6.75588884276829
30
0
41
1
10
17.051516835617
20
-6.68057297433899
30
0
41
1
10
16.9868885771429
20
-6.6381563673657
30
0
41
1
10
16.8645973188877
20
-6.54572138246806
30
0
41
1
10
16.749696536998
20
-6.44621804518857
30
0
41
1
10
16.649167632036
20
-6.33291094167316
30
0
41
1
10
16.5560029254347
20
-6.21250082560383
30
0
41
1
10
16.5131911718163
20
-6.1487571312114
30
0
41
1
10
16.475
20
-6.08256053862559
30
0
0
SPLINE
5
132
100
AcDbEntity
8
SK1
62
256
6
ByLayer
370
18
48
1
60
0
100
AcDbSpline
70
4
71
3
72
20
73
16
40
0
40
0
40
0
40
0
40
0.0624999999999992
40
0.0624999999999992
40
0.124999999999998
40
0.124999999999998
40
0.249999999999998
40
0.249999999999998
40
0.374999999999998
40
0.374999999999998
40
0.499999999999998
40
0.499999999999998
40
0.749999999999999
40
0.749999999999999
40
1
40
1
40
1
40
1
41
1
10
-22.5718455027507
20
-20.6637088720744
30
0
41
1
10
-22.5718668370775
20
-20.695130728284
30
0
41
1
10
-22.5671706424718
20
-20.7267211158018
30
0
41
1
10
-22.549777668403
20
-20.7884452210753
30
0
41
1
10
-22.5371368339948
20
-20.8188378574837
30
0
41
1
10
-22.4907497329018
20
-20.9088265676243
30
0
41
1
10
-22.448800964515
20
-20.9673003853156
30
0
41
1
10
-22.3579876970575
20
-21.0817522166242
30
0
41
1
10
-22.3091147545311
20
-21.1376578096081
30
0
41
1
10
-22.2123773774188
20
-21.2475918157347
30
0
41
1
10
-22.1644141108179
20
-21.3016087266559
30
0
41
1
10
-22.0285176565244
20
-21.4613183789041
30
0
41
1
10
-21.9485004319115
20
-21.5648394371908
30
0
41
1
10
-21.8339547161812
20
-21.7659172917464
30
0
41
1
10
-21.8
20
-21.8616285601574
30
0
41
1
10
-21.8
20
-21.9520839046692
30
0
0
SPLINE
5
133
100
AcDbEntity
8
1
62
256
6
ByLayer
370
18
48
1
60
0
100
AcDbSpline
70
4
71
3
72
32
73
28
40
0
40
0
40
0
40
0
40
0.125000000000001
40
0.125000000000001
40
0.187500000000001
40
0.187500000000001
40
0.250000000000002
40
0.312500000000002
40
0.312500000000002
40
0.375000000000003
40
0.375000000000003
40
0.437500000000003
40
0.437500000000003
40
0.500000000000003
40
0.500000000000003
40
0.625000000000005
40
0.625000000000005
40
0.687500000000004
40
0.687500000000004
40
0.750000000000003
40
0.750000000000003
40
0.812500000000002
40
0.812500000000002
40
0.875000000000001
40
0.937500000000001
40
0.937500000000001
40
1
40
1
40
1
40
1
41
1
10
16.475
20
6.08256053862556
30
0
41
1
10
16.5513826464271
20
6.21495424862974
30
0
41
1
10
16.6438442299379
20
6.33441202840734
30
0
41
1
10
16.8059633827495
20
6.49491848707194
30
0
41
1
10
16.86440214488
20
6.54554559632055
30
0
41
1
10
16.9862682240961
20
6.6377155413274
30
0
41
1
10
17.1135048019649
20
6.72137011403402
30
0
41
1
10
17.2513051323546
20
6.78833183584041
30
0
41
1
10
17.3945814575649
20
6.84666590559345
30
0
41
1
10
17.4679847599415
20
6.87107676507915
30
0
41
1
10
17.6163637965048
20
6.91008402699757
30
0
41
1
10
17.691630903465
20
6.92479996636308
30
0
41
1
10
17.8443348764284
20
6.94460413144176
30
0
41
1
10
17.9223660828973
20
6.94966827352445
30
0
41
1
10
18.1544727520566
20
6.94970235083389
30
0
41
1
10
18.3067109638988
20
6.93017770143453
30
0
41
1
10
18.5312947614219
20
6.87132984879014
30
0
41
1
10
18.6049823894977
20
6.84678652950805
30
0
41
1
10
18.7468816355557
20
6.78912613927812
30
0
41
1
10
18.8155819965158
20
6.75588884276826
30
0
41
1
10
18.948483164383
20
6.68057297433899
30
0
41
1
10
19.0131114228571
20
6.6381563673657
30
0
41
1
10
19.1354026811123
20
6.54572138246806
30
0
41
1
10
19.2503034630021
20
6.44621804518857
30
0
41
1
10
19.350832367964
20
6.33291094167316
30
0
41
1
10
19.4439970745653
20
6.21250082560383
30
0
41
1
10
19.4868088281837
20
6.1487571312114
30
0
41
1
10
19.525
20
6.08256053862556
30
0
0
SPLINE
5
134
100
AcDbEntity
8
1
62
256
6
ByLayer
370
18
48
1
60
0
100
AcDbSpline
70
4
71
3
72
32
73
28
40
0
40
0
40
0
40
0
40
0.125
40
0.125
40
0.187499999999999
40
0.187499999999999
40
0.249999999999999
40
0.312499999999999
40
0.312499999999999
40
0.374999999999999
40
0.374999999999999
40
0.437499999999999
40
0.437499999999999
40
0.499999999999999
40
0.499999999999999
40
0.625000000000001
40
0.625000000000001
40
0.687500000000001
40
0.687500000000001
40
0.750000000000001
40
0.750000000000001
40
0.8125
40
0.8125
40
0.875
40
0.9375
40
0.9375
40
1
40
1
40
1
40
1
41
1
10
19.525
20
4.39727504184236
30
0
41
1
10
19.4486173535729
20
4.26326262665557
30
0
41
1
10
19.3561557700621
20
4.14196191115218
30
0
41
1
10
19.1940366172505
20
3.97864225696594
30
0
41
1
10
19.13559785512
20
3.9270630887155
30
0
41
1
10
19.0137317759039
20
3.83307178099574
30
0
41
1
10
18.8864956367041
20
3.74766941394341
30
0
41
1
10
18.7486948676454
20
3.67919672019559
30
0
41
1
10
18.6054185424351
20
3.6195129387668
30
0
41
1
10
18.5320152400585
20
3.59451859033044
30
0
41
1
10
18.3836362034951
20
3.5545659926388
30
0
41
1
10
18.308369096535
20
3.53948534937433
30
0
41
1
10
18.1556651235716
20
3.51918809146215
30
0
41
1
10
18.0776339171027
20
3.51399617444827
30
0
41
1
10
17.8455272479434
20
3.51396124098412
30
0
41
1
10
17.6932890361011
20
3.53398513422451
30
0
41
1
10
17.4687052385781
20
3.59425947989749
30
0
41
1
10
17.3950176105023
20
3.61938932452489
30
0
41
1
10
17.2531183644443
20
3.67838423470295
30
0
41
1
10
17.1844180034842
20
3.71237252714309
30
0
41
1
10
17.051516835617
20
3.78931905296753
30
0
41
1
10
16.9868885771429
20
3.83262203077484
30
0
41
1
10
16.8645973188877
20
3.92688404051131
30
0
41
1
10
16.7496966354993
20
4.02825901700859
30
0
41
1
10
16.649167632036
20
4.14342881752515
30
0
41
1
10
16.5560029254347
20
4.26564855337256
30
0
41
1
10
16.5131911718163
20
4.33026909987365
30
0
41
1
10
16.475
20
4.39727504184236
30
0
0
SPLINE
5
135
100
AcDbEntity
8
1
62
256
6
ByLayer
370
18
48
1
60
0
100
AcDbSpline
70
4
71
3
72
32
73
28
40
0
40
0
40
0
40
0
40
0.125000000000001
40
0.125000000000001
40
0.187500000000002
40
0.187500000000002
40
0.250000000000002
40
0.312500000000003
40
0.312500000000003
40
0.375000000000003
40
0.375000000000003
40
0.437500000000004
40
0.437500000000004
40
0.500000000000004
40
0.500000000000004
40
0.625000000000005
40
0.625000000000005
40
0.687500000000004
40
0.687500000000004
40
0.750000000000003
40
0.750000000000003
40
0.812500000000003
40
0.812500000000003
40
0.875000000000002
40
0.937500000000001
40
0.937500000000001
40
1
40
1
40
1
40
1
41
1
10
16.475
20
-4.39727504184239
30
0
41
1
10
16.5513826464271
20
-4.2632626266556
30
0
41
1
10
16.6438442299379
20
-4.14196191115221
30
0
41
1
10
16.8059633827495
20
-3.97864225696597
30
0
41
1
10
16.86440214488
20
-3.92706308871553
30
0
41
1
10
16.9862682240961
20
-3.83307178099577
30
0
41
1
10
17.1135048019649
20
-3.74767015971875
30
0
41
1
10
17.2513051323546
20
-3.67919672019562
30
0
41
1
10
17.3945814575649
20
-3.6195129387668
30
0
41
1
10
17.4679847599415
20
-3.59451859033044
30
0
41
1
10
17.6163637965048
20
-3.5545659926388
30
0
41
1
10
17.6916309034651
20
-3.53948534937433
30
0
41
1
10
17.8443348764284
20
-3.51918809146218
30
0
41
1
10
17.9223660828973
20
-3.5139961744483
30
0
41
1
10
18.1544727520566
20
-3.51396124098412
30
0
41
1
10
18.3067109638989
20
-3.53398513422451
30
0
41
1
10
18.5312947614219
20
-3.59425947989749
30
0
41
1
10
18.6049823894977
20
-3.61938932452492
30
0
41
1
10
18.7468816355557
20
-3.67838423470295
30
0
41
1
10
18.8155819965159
20
-3.71237252714309
30
0
41
1
10
18.948483164383
20
-3.78931905296753
30
0
41
1
10
19.0131114228571
20
-3.83262203077484
30
0
41
1
10
19.1354026811123
20
-3.92688404051134
30
0
41
1
10
19.250303463002
20
-4.02825886708573
30
0
41
1
10
19.350832367964
20
-4.14342881752515
30
0
41
1
10
19.4439970745653
20
-4.26564855337256
30
0
41
1
10
19.4868088281837
20
-4.33026909987365
30
0
41
1
10
19.525
20
-4.39727504184236
30
0
0
SPLINE
5
136
100
AcDbEntity
8
1
62
256
6
ByLayer
370
18
48
1
60
0
100
AcDbSpline
70
4
71
3
72
20
73
16
40
0
40
0
40
0
40
0
40
0.125
40
0.125
40
0.25
40
0.25
40
0.375000000000001
40
0.375000000000001
40
0.500000000000001
40
0.500000000000001
40
0.625000000000001
40
0.625000000000001
40
0.750000000000001
40
0.750000000000001
40
1
40
1
40
1
40
1
41
1
10
19.525
20
17.5834806976042
30
0
41
1
10
19.5618799877345
20
17.5331123335479
30
0
41
1
10
19.5946938627548
20
17.4835939122447
30
0
41
1
10
19.6508544377634
20
17.3847214252446
30
0
41
1
10
19.6741684306232
20
17.3355773656892
30
0
41
1
10
19.7117436573001
20
17.2345932044101
30
0
41
1
10
19.726003021713
20
17.1827568371785
30
0
41
1
10
19.745220512237
20
17.0734656033506
30
0
41
1
10
19.7500681239811
20
17.0157245392329
30
0
41
1
10
19.7499303960492
20
16.8976439031026
30
0
41
1
10
19.7450775919525
20
16.8368195467774
30
0
41
1
10
19.7260153322186
20
16.7126639799799
30
0
41
1
10
19.7117958770764
20
16.6493173145158
30
0
41
1
10
19.6546573621325
20
16.4592225820745
30
0
41
1
10
19.5990968796092
20
16.3368648447066
30
0
41
1
10
19.525
20
16.2306014000906
30
0
0
SPLINE
5
137
100
AcDbEntity
8
1
62
256
6
ByLayer
370
18
48
1
60
0
100
AcDbSpline
70
4
71
3
72
20
73
16
40
0
40
0
40
0
40
0
40
0.125
40
0.125
40
0.250000000000001
40
0.250000000000001
40
0.375000000000001
40
0.375000000000001
40
0.500000000000002
40
0.500000000000002
40
0.625000000000002
40
0.625000000000002
40
0.750000000000002
40
0.750000000000002
40
1
40
1
40
1
40
1
41
1
10
19.525
20
12.169258190623
30
0
41
1
10
19.5618799877345
20
12.1104882284109
30
0
41
1
10
19.5946938627548
20
12.0512465234366
30
0
41
1
10
19.6508544377634
20
11.9318951003217
30
0
41
1
10
19.6741684306232
20
11.8720394803575
30
0
41
1
10
19.7117436573002
20
11.7495915240686
30
0
41
1
10
19.726003021713
20
11.6870017839604
30
0
41
1
10
19.745220512237
20
11.556912009856
30
0
41
1
10
19.7500681239811
20
11.4891246534221
30
0
41
1
10
19.7499303960492
20
11.3528005125892
30
0
41
1
10
19.7450775919525
20
11.2836728639796
30
0
41
1
10
19.7260153322186
20
11.1441553179028
30
0
41
1
10
19.7117958770764
20
11.0737356436242
30
0
41
1
10
19.6546573621325
20
10.8630846305992
30
0
41
1
10
19.5990968796092
20
10.7285002930724
30
0
41
1
10
19.525
20
10.6070107729662
30
0
0
SPLINE
5
138
100
AcDbEntity
8
1
62
256
6
ByLayer
370
18
48
1
60
0
100
AcDbSpline
70
4
71
3
72
20
73
16
40
0
40
0
40
0
40
0
40
0.125
40
0.125
40
0.25
40
0.25
40
0.375
40
0.375
40
0.5
40
0.5
40
0.625
40
0.625
40
0.75
40
0.75
40
1
40
1
40
1
40
1
41
1
10
19.525
20
6.08256053862556
30
0
41
1
10
19.5618799877345
20
6.01863661572591
30
0
41
1
10
19.5946938627548
20
5.95294533312901
30
0
41
1
10
19.6508544377634
20
5.81971035254188
30
0
41
1
10
19.6741684306232
20
5.75245080325737
30
0
41
1
10
19.7117436573001
20
5.61530554551757
30
0
41
1
10
19.726003021713
20
5.54542115153561
30
0
41
1
10
19.745220512237
20
5.40172161878272
30
0
41
1
10
19.7500681239811
20
5.32763391014126
30
0
41
1
10
19.7499303960492
20
5.18059955833155
30
0
41
1
10
19.7450775919525
20
5.10698862230515
30
0
41
1
10
19.7260153322186
20
4.95981885875707
30
0
41
1
10
19.7117958770764
20
4.8862175780757
30
0
41
1
10
19.6546573621325
20
4.66665089298354
30
0
41
1
10
19.5990968796092
20
4.52727710721595
30
0
41
1
10
19.525
20
4.39727504184231
30
0
0
SPLINE
5
139
100
AcDbEntity
8
1
62
256
6
ByLayer
370
18
48
1
60
0
100
AcDbSpline
70
4
71
3
72
14
73
10
40
0
40
0
40
0
40
0
40
0.168648379045176
40
0.168648379045176
40
0.337296758090352
40
0.337296758090352
40
0.674593516180704
40
0.674593516180704
40
1
40
1
40
1
40
1
41
1
10
16.475
20
-26.4
30
0
41
1
10
16.4436701214745
20
-26.4
30
0
41
1
10
16.4145454579586
20
-26.4
30
0
41
1
10
16.3657196668088
20
-26.4
30
0
41
1
10
16.3456772764679
20
-26.4
30
0
41
1
10
16.2922017349905
20
-26.4
30
0
41
1
10
16.2659392404307
20
-26.4
30
0
41
1
10
16.2213258285017
20
-26.4
30
0
41
1
10
16.2030186582579
20
-26.4
30
0
41
1
10
16.1870769999997
20
-26.4
30
0
0
SPLINE
5
13A
100
AcDbEntity
8
SK1
62
256
6
ByLayer
370
18
48
1
60
0
100
AcDbSpline
70
4
71
3
72
12
73
8
40
0
40
0
40
0
40
0
40
0.25
40
0.25
40
0.499999999999999
40
0.499999999999999
40
1
40
1
40
1
40
1
41
1
10
-31.0675798041839
20
-20.2481331121841
30
0
41
1
10
-31.0676023659514
20
-20.296990296398
30
0
41
1
10
-31.0585660353668
20
-20.3475498311117
30
0
41
1
10
-31.0253596698745
20
-20.4503174808064
30
0
41
1
10
-31.0012677601939
20
-20.5024452969696
30
0
41
1
10
-30.9155247238345
20
-20.6540597597046
30
0
41
1
10
-30.8409817572411
20
-20.7495016335411
30
0
41
1
10
-30.7600449304084
20
-20.8343104848681
30
0
0
SPLINE
5
13B
100
AcDbEntity
8
1
62
256
6
ByLayer
370
18
48
1
60
0
100
AcDbSpline
70
4
71
3
72
22
73
18
40
0
40
0
40
0
40
0
40
0.125
40
0.125
40
0.25
40
0.25
40
0.375
40
0.375
40
0.5
40
0.5
40
0.625
40
0.625
40
0.75
40
0.75
40
0.875
40
0.875
40
1
40
1
40
1
40
1
41
1
10
16.475
20
-17.5834806976043
30
0
41
1
10
16.437854983375
20
-17.5327503737843
30
0
41
1
10
16.4053198737866
20
-17.4835768170796
30
0
41
1
10
16.3495615213434
20
-17.3854946962862
30
0
41
1
10
16.326187488582
20
-17.3364264052107
30
0
41
1
10
16.2883422234047
20
-17.2349302619221
30
0
41
1
10
16.2739051502371
20
-17.1822678584481
30
0
41
1
10
16.2548384621987
20
-17.0737676839107
30
0
41
1
10
16.2500516387366
20
-17.0175763711753
30
0
41
1
10
16.2499491888325
20
-16.9002253432658
30
0
41
1
10
16.2546601280749
20
-16.8388918730821
30
0
41
1
10
16.2739026626633
20
-16.7128404748933
30
0
41
1
10
16.2882086580281
20
-16.6494168701626
30
0
41
1
10
16.3258847455835
20
-16.5238438384575
30
0
41
1
10
16.349253580884
20
-16.461691061908
30
0
41
1
10
16.405491970684
20
-16.3412161698245
30
0
41
1
10
16.4381860255137
20
-16.2833968721751
30
0
41
1
10
16.475
20
-16.230601400091
30
0
0
SPLINE
5
13C
100
AcDbEntity
8
1
62
256
6
ByLayer
370
18
48
1
60
0
100
AcDbSpline
70
4
71
3
72
22
73
18
40
0
40
0
40
0
40
0
40
0.125
40
0.125
40
0.25
40
0.25
40
0.375
40
0.375
40
0.5
40
0.5
40
0.625
40
0.625
40
0.75
40
0.75
40
0.875
40
0.875
40
1
40
1
40
1
40
1
41
1
10
16.475
20
-12.1692581906231
30
0
41
1
10
16.437854983375
20
-12.1100658926447
30
0
41
1
10
16.4053198737866
20
-12.0512231016975
30
0
41
1
10
16.3495615213434
20
-11.9328312992733
30
0
41
1
10
16.3261874885821
20
-11.8730709856166
30
0
41
1
10
16.2883422234047
20
-11.7499982395487
30
0
41
1
10
16.2739051502371
20
-11.6864187587989
30
0
41
1
10
16.2548384621987
20
-11.5572725711198
30
0
41
1
10
16.2500516387366
20
-11.4912894619908
30
0
41
1
10
16.2499491888325
20
-11.3557549141455
30
0
41
1
10
16.2546601280749
20
-11.2860108668887
30
0
41
1
10
16.2739026626633
20
-11.1443445503862
30
0
41
1
10
16.2882086580281
20
-11.073847451494
30
0
41
1
10
16.3258847455835
20
-10.9346923673613
30
0
41
1
10
16.349253580884
20
-10.8660322816219
30
0
41
1
10
16.405491970684
20
-10.732091064393
30
0
41
1
10
16.4381860255137
20
-10.6673711028094
30
0
41
1
10
16.475
20
-10.6070107729665
30
0
0
SPLINE
5
13D
100
AcDbEntity
8
1
62
256
6
ByLayer
370
18
48
1
60
0
100
AcDbSpline
70
4
71
3
72
22
73
18
40
0
40
0
40
0
40
0
40
0.125
40
0.125
40
0.25
40
0.25
40
0.375
40
0.375
40
0.5
40
0.5
40
0.625
40
0.625
40
0.75
40
0.75
40
0.875
40
0.875
40
1
40
1
40
1
40
1
41
1
10
16.475
20
-6.08256053862559
30
0
41
1
10
16.437854983375
20
-6.01817724229869
30
0
41
1
10
16.4053198737866
20
-5.95291687910466
30
0
41
1
10
16.3495615213434
20
-5.82075774490031
30
0
41
1
10
16.326187488582
20
-5.7536077731092
30
0
41
1
10
16.2883422234047
20
-5.6157594438034
30
0
41
1
10
16.2739051502371
20
-5.54477629800615
30
0
41
1
10
16.2548384621987
20
-5.40212073607728
30
0
41
1
10
16.2500516387366
20
-5.32999206766982
30
0
41
1
10
16.2499491888325
20
-5.18376366058055
30
0
41
1
10
16.2546601280749
20
-5.10946310340557
30
0
41
1
10
16.2739026626633
20
-4.96001037179317
30
0
41
1
10
16.2882086580281
20
-4.88633545964791
30
0
41
1
10
16.3258847455835
20
-4.74128805519078
30
0
41
1
10
16.349253580884
20
-4.66991482753059
30
0
41
1
10
16.405491970684
20
-4.52990889814433
30
0
41
1
10
16.4381860255137
20
-4.46186470800751
30
0
41
1
10
16.475
20
-4.39727504184239
30
0
0
SPLINE
5
13E
100
AcDbEntity
8
1
62
256
6
ByLayer
370
18
48
1
60
0
100
AcDbSpline
70
4
71
3
72
22
73
18
40
0
40
0
40
0
40
0
40
0.125
40
0.125
40
0.25
40
0.25
40
0.375
40
0.375
40
0.5
40
0.5
40
0.625
40
0.625
40
0.75
40
0.75
40
0.875
40
0.875
40
1
40
1
40
1
40
1
41
1
10
16.475
20
4.39727504184236
30
0
41
1
10
16.437854983375
20
4.46244551737465
30
0
41
1
10
16.4053198737866
20
4.53035857451067
30
0
41
1
10
16.3495615213434
20
4.66912701919995
30
0
41
1
10
16.3261874885821
20
4.74026820315956
30
0
41
1
10
16.2883422234047
20
4.8856772597378
30
0
41
1
10
16.2739051502371
20
4.96022502366779
30
0
41
1
10
16.2548384621987
20
5.10784625919968
30
0
41
1
10
16.2500516387366
20
5.18138647828266
30
0
41
1
10
16.2499491888325
20
5.32764396818618
30
0
41
1
10
16.2546601280749
20
5.40055170525776
30
0
41
1
10
16.2739026626633
20
5.5449902419785
30
0
41
1
10
16.2882086580281
20
5.61513325494028
30
0
41
1
10
16.3258847455835
20
5.75264313705043
30
0
41
1
10
16.349253580884
20
5.82000846476006
30
0
41
1
10
16.405491970684
20
5.95334413437214
30
0
41
1
10
16.4381860255137
20
6.01875103620287
30
0
41
1
10
16.475
20
6.08256053862556
30
0
0
SPLINE
5
13F
100
AcDbEntity
8
1
62
256
6
ByLayer
370
18
48
1
60
0
100
AcDbSpline
70
4
71
3
72
22
73
18
40
0
40
0
40
0
40
0
40
0.125
40
0.125
40
0.25
40
0.25
40
0.375
40
0.375
40
0.5
40
0.5
40
0.625
40
0.625
40
0.75
40
0.75
40
0.875
40
0.875
40
1
40
1
40
1
40
1
41
1
10
16.475
20
10.6070107729664
30
0
41
1
10
16.437854983375
20
10.6679138807344
30
0
41
1
10
16.4053198737866
20
10.7325218833816
30
0
41
1
10
16.3495615213434
20
10.8652779792254
30
0
41
1
10
16.3261874885821
20
10.9337125627351
30
0
41
1
10
16.2883422234047
20
11.0732173564812
30
0
41
1
10
16.2739051502371
20
11.144543972262
30
0
41
1
10
16.2548384621987
20
11.2844822679564
30
0
41
1
10
16.2500516387366
20
11.3535331597424
30
0
41
1
10
16.2499491888325
20
11.4891309144953
30
0
41
1
10
16.2546601280749
20
11.5558478870379
30
0
41
1
10
16.2739026626633
20
11.6866166421607
30
0
41
1
10
16.2882086580281
20
11.7494377154953
30
0
41
1
10
16.3258847455835
20
11.8722111841937
30
0
41
1
10
16.349253580884
20
11.932160731819
30
0
41
1
10
16.405491970684
20
12.0516051919654
30
0
41
1
10
16.4381860255137
20
12.1105934235679
30
0
41
1
10
16.475
20
12.169258190623
30
0
0
SPLINE
5
140
100
AcDbEntity
8
1
62
256
6
ByLayer
370
18
48
1
60
0
100
AcDbSpline
70
4
71
3
72
8
73
4
40
0
40
0
40
0
40
0
40
1
40
1
40
1
40
1
41
1
10
25.45
20
19.85
30
0
41
1
10
25.6172281053953
20
19.85
30
0
41
1
10
25.7839073195555
20
19.85
30
0
41
1
10
25.95
20
19.85
30
0
0
SPLINE
5
141
100
AcDbEntity
8
1
62
256
6
ByLayer
370
18
48
1
60
0
100
AcDbSpline
70
4
71
3
72
8
73
4
40
0
40
0
40
0
40
0
40
1
40
1
40
1
40
1
41
1
10
25.95
20
-29.6281216709733
30
0
41
1
10
25.7833972663251
20
-29.802269958847
30
0
41
1
10
25.616729518114
20
-29.9763560701552
30
0
41
1
10
25.45
20
-30.1503829784963
30
0
0
SPLINE
5
142
100
AcDbEntity
8
SK1
62
256
6
ByLayer
370
18
48
1
60
0
100
AcDbSpline
70
4
71
3
72
46
73
42
40
0
40
0
40
0
40
0
40
0.125000000000018
40
0.125000000000018
40
0.250000000000036
40
0.250000000000036
40
0.312500000000045
40
0.312500000000045
40
0.375000000000053
40
0.375000000000053
40
0.406250000000057
40
0.406250000000057
40
0.437500000000061
40
0.437500000000061
40
0.453125000000063
40
0.453125000000063
40
0.468750000000065
40
0.468750000000065
40
0.484375000000067
40
0.484375000000067
40
0.492187500000068
40
0.492187500000068
40
0.500000000000069
40
0.500000000000069
40
0.515625000000066
40
0.515625000000066
40
0.531250000000064
40
0.531250000000064
40
0.562500000000059
40
0.562500000000059
40
0.593750000000055
40
0.593750000000055
40
0.625000000000051
40
0.625000000000051
40
0.687500000000042
40
0.687500000000042
40
0.750000000000034
40
0.750000000000034
40
0.875000000000017
40
0.875000000000017
40
1
40
1
40
1
40
1
41
1
10
-31.8423156651183
20
-19.5578384055689
30
0
41
1
10
-31.8423333696428
20
-19.4426929042022
30
0
41
1
10
-31.8403624974038
20
-19.3293941361596
30
0
41
1
10
-31.8313432234647
20
-19.1075119538047
30
0
41
1
10
-31.8244089309849
20
-18.998822569583
30
0
41
1
10
-31.8067667315249
20
-18.8425127768668
30
0
41
1
10
-31.7996556490151
20
-18.7915521022422
30
0
41
1
10
-31.7813470584703
20
-18.6934256973634
30
0
41
1
10
-31.7702616033531
20
-18.6461559068279
30
0
41
1
10
-31.7475764476873
20
-18.5808761554347
30
0
41
1
10
-31.7389660789657
20
-18.5600325845584
30
0
41
1
10
-31.718456416071
20
-18.5219079017732
30
0
41
1
10
-31.7066535903262
20
-18.5044901779697
30
0
41
1
10
-31.6840003263439
20
-18.4836215277605
30
0
41
1
10
-31.6756254278419
20
-18.4775833385399
30
0
41
1
10
-31.6562502532765
20
-18.4687098696514
30
0
41
1
10
-31.6452055204551
20
-18.4657549438783
30
0
41
1
10
-31.6182146378953
20
-18.4664683260196
30
0
41
1
10
-31.6022228809057
20
-18.4699939999054
30
0
41
1
10
-31.5718428985265
20
-18.4871723444236
30
0
41
1
10
-31.5607128581558
20
-18.4949940594773
30
0
41
1
10
-31.5378522429094
20
-18.5145478872329
30
0
41
1
10
-31.5264536291926
20
-18.5259792148931
30
0
41
1
10
-31.4944102236698
20
-18.5618687046716
30
0
41
1
10
-31.4759723818177
20
-18.5874183975315
30
0
41
1
10
-31.4437175201459
20
-18.636411294886
30
0
41
1
10
-31.4295173532011
20
-18.6605516956071
30
0
41
1
10
-31.3910298428173
20
-18.7302522221028
30
0
41
1
10
-31.3700696997771
20
-18.7743064812742
30
0
41
1
10
-31.3320753412388
20
-18.8603988401022
30
0
41
1
10
-31.3153650281158
20
-18.9020761034655
30
0
41
1
10
-31.2849697125713
20
-18.9829941343835
30
0
41
1
10
-31.2712520291669
20
-19.0223801855128
30
0
41
1
10
-31.2332190537207
20
-19.1382763207172
30
0
41
1
10
-31.211975920902
20
-19.2125591248249
30
0
41
1
10
-31.174788705394
20
-19.3572829828762
30
0
41
1
10
-31.1589109088521
20
-19.4276759801283
30
0
41
1
10
-31.1175998345456
20
-19.6342713662718
30
0
41
1
10
-31.098618347077
20
-19.7648038232765
30
0
41
1
10
-31.0735396200986
20
-20.0146708735929
30
0
41
1
10
-31.067527100527
20
-20.1340040983327
30
0
41
1
10
-31.0675798041839
20
-20.2481331121841
30
0
0
SPLINE
5
143
100
AcDbEntity
8
1
62
256
6
ByLayer
370
18
48
1
60
0
100
AcDbSpline
70
4
71
3
72
20
73
16
40
0
40
0
40
0
40
0
40
0.125
40
0.125
40
0.25
40
0.25
40
0.375
40
0.375
40
0.5
40
0.5
40
0.625
40
0.625
40
0.75
40
0.75
40
1
40
1
40
1
40
1
41
1
10
19.525
20
-4.39727504184236
30
0
41
1
10
19.5618799877345
20
-4.4619805274408
30
0
41
1
10
19.5946938627548
20
-4.5303253787429
30
0
41
1
10
19.6508544377634
20
-4.67023013615233
30
0
41
1
10
19.6741684306232
20
-4.74149096096775
30
0
41
1
10
19.7117436573001
20
-4.88615369573932
30
0
41
1
10
19.726003021713
20
-4.95955650201327
30
0
41
1
10
19.745220512237
20
-5.10826048874065
30
0
41
1
10
19.7500681239811
20
-5.18377863323661
30
0
41
1
10
19.7499303960492
20
-5.33077388781078
30
0
41
1
10
19.7450775919525
20
-5.40295529629267
30
0
41
1
10
19.7260153322186
20
-5.54516297811475
30
0
41
1
10
19.7117958770764
20
-5.61524707263078
30
0
41
1
10
19.6546573621325
20
-5.82339755297093
30
0
41
1
10
19.5990968796092
20
-5.9541287383401
30
0
41
1
10
19.525
20
-6.08256053862542
30
0
0
SPLINE
5
144
100
AcDbEntity
8
1
62
256
6
ByLayer
370
18
48
1
60
0
100
AcDbSpline
70
4
71
3
72
20
73
16
40
0
40
0
40
0
40
0
40
0.125000000000001
40
0.125000000000001
40
0.250000000000001
40
0.250000000000001
40
0.375000000000001
40
0.375000000000001
40
0.500000000000002
40
0.500000000000002
40
0.625000000000002
40
0.625000000000002
40
0.750000000000003
40
0.750000000000003
40
1
40
1
40
1
40
1
41
1
10
19.525
20
-10.6070107729665
30
0
41
1
10
19.5618799877345
20
-10.6674793383773
30
0
41
1
10
19.5946938627548
20
-10.7324881562113
30
0
41
1
10
19.6508544377634
20
-10.8663352867889
30
0
41
1
10
19.6741684306232
20
-10.9348870477364
30
0
41
1
10
19.7117436573001
20
-11.07367305413
30
0
41
1
10
19.726003021713
20
-11.1439095081653
30
0
41
1
10
19.745220512237
20
-11.2848756733031
30
0
41
1
10
19.7500681239811
20
-11.3557718563504
30
0
41
1
10
19.7499303960492
20
-11.4920110255113
30
0
41
1
10
19.7450775919525
20
-11.5580318215759
30
0
41
1
10
19.7260153322186
20
-11.6867650660152
30
0
41
1
10
19.7117958770764
20
-11.7495406911596
30
0
41
1
10
19.6546573621325
20
-11.9353803845814
30
0
41
1
10
19.5990968796092
20
-12.0511813939054
30
0
41
1
10
19.525
20
-12.1692581906228
30
0
0
SPLINE
5
145
100
AcDbEntity
8
1
62
256
6
ByLayer
370
18
48
1
60
0
100
AcDbSpline
70
4
71
3
72
20
73
16
40
0
40
0
40
0
40
0
40
0.125
40
0.125
40
0.249999999999999
40
0.249999999999999
40
0.374999999999999
40
0.374999999999999
40
0.499999999999999
40
0.499999999999999
40
0.624999999999998
40
0.624999999999998
40
0.749999999999998
40
0.749999999999998
40
1
40
1
40
1
40
1
41
1
10
19.525
20
-16.230601400091
30
0
41
1
10
19.5618799877345
20
-16.2834915427628
30
0
41
1
10
19.5946938627548
20
-16.3415719295053
30
0
41
1
10
19.6508544377634
20
-16.4619650195064
30
0
41
1
10
19.6741684306232
20
-16.5240195353622
30
0
41
1
10
19.7117436573001
20
-16.6492594765691
30
0
41
1
10
19.726003021713
20
-16.7124483007339
30
0
41
1
10
19.745220512237
20
-16.8378868315541
30
0
41
1
10
19.7500681239811
20
-16.9002433187906
30
0
41
1
10
19.7499303960492
20
-17.0181978043604
30
0
41
1
10
19.7450775919525
20
-17.0744096683064
30
0
41
1
10
19.7260153322186
20
-17.1825546557804
30
0
41
1
10
19.7117958770764
20
-17.2345528205133
30
0
41
1
10
19.6546573621325
20
-17.3878121959718
30
0
41
1
10
19.5990968796092
20
-17.4822838470392
30
0
41
1
10
19.525
20
-17.5834806976039
30
0
0
SPLINE
5
146
100
AcDbEntity
8
1
62
256
6
ByLayer
370
18
48
1
60
0
100
AcDbSpline
70
4
71
3
72
16
73
12
40
0
40
0
40
0
40
0
40
0.330461242508676
40
0.330461242508676
40
0.665230621254335
40
0.665230621254335
40
0.832615310627167
40
0.832615310627167
40
0.916307655313584
40
0.916307655313584
40
1
40
1
40
1
40
1
41
1
10
19.8134640000012
20
-26.4
30
0
41
1
10
19.7972277432661
20
-26.4
30
0
41
1
10
19.7785743925102
20
-26.4
30
0
41
1
10
19.7331597587649
20
-26.4
30
0
41
1
10
19.7067289670813
20
-26.4
30
0
41
1
10
19.6536024190797
20
-26.4
30
0
41
1
10
19.633431925426
20
-26.4
30
0
41
1
10
19.5970095019048
20
-26.4
30
0
41
1
10
19.5840823839824
20
-26.4
30
0
41
1
10
19.5558393454617
20
-26.4
30
0
41
1
10
19.5405156727525
20
-26.4
30
0
41
1
10
19.525
20
-26.4
30
0
0
SPLINE
5
147
100
AcDbEntity
8
1
62
256
6
ByLayer
370
18
48
1
60
0
100
AcDbSpline
70
4
71
3
72
12
73
8
40
0
40
0
40
0
40
0
40
0.250000000000007
40
0.250000000000007
40
0.500000000000015
40
0.500000000000015
40
1
40
1
40
1
40
1
41
1
10
19.8062602725373
20
26.4
30
0
41
1
10
19.8254284358842
20
26.4198103112886
30
0
41
1
10
19.842285623029
20
26.4411937101347
30
0
41
1
10
19.8716842168587
20
26.4868982708972
30
0
41
1
10
19.8843197277938
20
26.511491084155
30
0
41
1
10
19.9146347048598
20
26.5877662333161
30
0
41
1
10
19.925
20
26.6420047967162
30
0
41
1
10
19.925
20
26.697103190234
30
0
0
SPLINE
5
148
100
AcDbEntity
8
1
62
256
6
ByLayer
370
18
48
1
60
0
100
AcDbSpline
70
4
71
3
72
14
73
10
40
0
40
0
40
0
40
0
40
0.125000000000006
40
0.125000000000006
40
0.250000000000011
40
0.250000000000011
40
0.500000000000009
40
0.500000000000009
40
1
40
1
40
1
40
1
41
1
10
19.525
20
26.4
30
0
41
1
10
19.5471989190232
20
26.4
30
0
41
1
10
19.5685877183419
20
26.4
30
0
41
1
10
19.6064969261275
20
26.4
30
0
41
1
10
19.6233706470219
20
26.4
30
0
41
1
10
19.6682167548468
20
26.4
30
0
41
1
10
19.691837071748
20
26.4
30
0
41
1
10
19.7529339688684
20
26.4
30
0
41
1
10
19.7817887217438
20
26.4
30
0
41
1
10
19.8062602725374
20
26.4
30
0
0
SPLINE
5
149
100
AcDbEntity
8
1
62
256
6
ByLayer
370
18
48
1
60
0
100
AcDbSpline
70
4
71
3
72
22
73
18
40
0
40
0
40
0
40
0
40
0.125
40
0.125
40
0.25
40
0.25
40
0.375
40
0.375
40
0.5
40
0.5
40
0.625
40
0.625
40
0.75
40
0.75
40
0.875
40
0.875
40
1
40
1
40
1
40
1
41
1
10
16.475
20
16.2306014000909
30
0
41
1
10
16.437854983375
20
16.2838716246633
30
0
41
1
10
16.4053198737866
20
16.3416043243095
30
0
41
1
10
16.3495615213434
20
16.4610119483161
30
0
41
1
10
16.3261874885821
20
16.5229582253962
30
0
41
1
10
16.2883422234047
20
16.6488496991979
30
0
41
1
10
16.2739051502371
20
16.7130136466858
30
0
41
1
10
16.2548384621987
20
16.8375359900439
30
0
41
1
10
16.2500516387366
20
16.8982817912596
30
0
41
1
10
16.2499491888325
20
17.0157266573464
30
0
41
1
10
16.2546601280749
20
17.0725660748358
30
0
41
1
10
16.2739026626633
20
17.1824387461336
30
0
41
1
10
16.2882086580281
20
17.234466377327
30
0
41
1
10
16.3258847455835
20
17.3357189511873
30
0
41
1
10
16.349253580884
20
17.3849398971821
30
0
41
1
10
16.405491970684
20
17.4838926279791
30
0
41
1
10
16.4381860255137
20
17.5332024902839
30
0
41
1
10
16.475
20
17.5834806976042
30
0
0
SPLINE
5
14A
100
AcDbEntity
8
1
62
256
6
ByLayer
370
18
48
1
60
0
100
AcDbSpline
70
4
71
3
72
14
73
10
40
0
40
0
40
0
40
0
40
0.500000000000004
40
0.500000000000004
40
0.750000000000011
40
0.750000000000011
40
0.875000000000006
40
0.875000000000006
40
1
40
1
40
1
40
1
41
1
10
16.1937397274627
20
26.4
30
0
41
1
10
16.2182309805126
20
26.4
30
0
41
1
10
16.247144716711
20
26.4
30
0
41
1
10
16.3087939885721
20
26.4
30
0
41
1
10
16.3324007862069
20
26.4
30
0
41
1
10
16.3770388913467
20
26.4
30
0
41
1
10
16.3938072947253
20
26.4
30
0
41
1
10
16.4316350807094
20
26.4
30
0
41
1
10
16.4529533111466
20
26.4
30
0
41
1
10
16.475
20
26.4
30
0
0
SPLINE
5
14B
100
AcDbEntity
8
1
62
256
6
ByLayer
370
18
48
1
60
0
100
AcDbSpline
70
4
71
3
72
10
73
6
40
0
40
0
40
0
40
0
40
0.5
40
0.5
40
1
40
1
40
1
40
1
41
1
10
16.075
20
26.697103190234
30
0
41
1
10
16.075
20
26.6419796332792
30
0
41
1
10
16.085313399115
20
26.5879379927726
30
0
41
1
10
16.1257493575893
20
26.4861152843445
30
0
41
1
10
16.155388814132
20
26.4396356978774
30
0
41
1
10
16.1937397274627
20
26.4
30
0
0
SPLINE
5
14C
100
AcDbEntity
8
1
62
256
6
ByLayer
370
18
48
1
60
0
100
AcDbSpline
70
4
71
3
72
8
73
4
40
0
40
0
40
0
40
0
40
1
40
1
40
1
40
1
41
1
10
16.075
20
19.85
30
0
41
1
10
15.6053593920639
20
19.85
30
0
41
1
10
15.1208218166183
20
19.85
30
0
41
1
10
14.6253876765866
20
19.85
30
0
0
SPLINE
5
14D
100
AcDbEntity
8
1
62
256
6
ByLayer
370
18
48
1
60
0
100
AcDbSpline
70
4
71
3
72
8
73
4
40
0
40
0
40
0
40
0
40
1
40
1
40
1
40
1
41
1
10
19.925
20
-27.5194446025754
30
0
41
1
10
20.4066228497215
20
-28.3972829993793
30
0
41
1
10
20.8899595856872
20
-29.2741992018061
30
0
41
1
10
21.3746123234134
20
-30.1503829784963
30
0
0
SPLINE
5
14E
100
AcDbEntity
8
1
62
256
6
ByLayer
370
18
48
1
60
0
100
AcDbSpline
70
4
71
3
72
8
73
4
40
0
40
0
40
0
40
0
40
1
40
1
40
1
40
1
41
1
10
14.6253876765866
20
-30.1503829784963
30
0
41
1
10
15.1100404143128
20
-29.2741992018061
30
0
41
1
10
15.5933771502785
20
-28.3972829993794
30
0
41
1
10
16.075
20
-27.5194446025754
30
0
0
SPLINE
5
14F
100
AcDbEntity
8
1
62
256
6
ByLayer
370
18
48
1
60
0
100
AcDbSpline
70
4
71
3
72
30
73
26
40
0
40
0
40
0
40
0
40
0.125
40
0.125
40
0.1875
40
0.1875
40
0.25
40
0.25
40
0.375000000000001
40
0.375000000000001
40
0.406250000000001
40
0.406250000000001
40
0.437500000000001
40
0.437500000000001
40
0.500000000000001
40
0.500000000000001
40
0.625
40
0.625
40
0.6875
40
0.6875
40
0.749999999999999
40
0.749999999999999
40
0.875
40
0.875
40
1
40
1
40
1
40
1
41
1
10
12.1956203456893
20
24.4200409500066
30
0
41
1
10
11.7562475112852
20
24.4200409500066
30
0
41
1
10
11.3251302963921
20
24.3909497578602
30
0
41
1
10
10.6901035240454
20
24.3056038437389
30
0
41
1
10
10.4803827549288
20
24.2701435456968
30
0
41
1
10
10.0648745595293
20
24.1848444282514
30
0
41
1
10
9.85878661776317
20
24.1348190364467
30
0
41
1
10
9.26006146735202
20
23.9663861964588
30
0
41
1
10
8.88205821250946
20
23.8289334719872
30
0
41
1
10
8.4339120188076
20
23.6260043199278
30
0
41
1
10
8.34550879717324
20
23.5838515747132
30
0
41
1
10
8.1711319880734
20
23.4963787949209
30
0
41
1
10
8.08500476697938
20
23.4509668686439
30
0
41
1
10
7.83231360064809
20
23.311091922816
30
0
41
1
10
7.67087988193626
20
23.212752963373
30
0
41
1
10
7.20608604579277
20
22.9028875991274
30
0
41
1
10
6.92215056716839
20
22.6765668917347
30
0
41
1
10
6.53098295835537
20
22.3078010914531
30
0
41
1
10
6.40659745200387
20
22.1800697643894
30
0
41
1
10
6.17226321560696
20
21.9188742079098
30
0
41
1
10
6.06179410768456
20
21.784936542704
30
0
41
1
10
5.74865705723417
20
21.3734069993164
30
0
41
1
10
5.56418709064181
20
21.0861176330193
30
0
41
1
10
5.23652490731592
20
20.4866364512196
30
0
41
1
10
5.09337039057024
20
20.1744346090999
30
0
41
1
10
4.96821549226033
20
19.85
30
0
0
SPLINE
5
150
100
AcDbEntity
8
1
62
256
6
ByLayer
370
18
48
1
60
0
100
AcDbSpline
70
4
71
3
72
8
73
4
40
0
40
0
40
0
40
0
40
1
40
1
40
1
40
1
41
1
10
25.45
20
30.4315723180712
30
0
41
1
10
25.6167149861769
20
30.2591684553937
30
0
41
1
10
25.7833824731882
20
30.0867186469207
30
0
41
1
10
25.95
20
29.9142205940586
30
0
0
SPLINE
5
151
100
AcDbEntity
8
1
62
256
6
ByLayer
370
18
48
1
60
0
100
AcDbSpline
70
4
71
3
72
38
73
34
40
0
40
0
40
0
40
0
40
0.125000000000001
40
0.125000000000001
40
0.187500000000001
40
0.187500000000001
40
0.218750000000001
40
0.218750000000001
40
0.250000000000001
40
0.250000000000001
40
0.375000000000001
40
0.375000000000001
40
0.406250000000001
40
0.406250000000001
40
0.437500000000001
40
0.437500000000001
40
0.500000000000001
40
0.500000000000001
40
0.625
40
0.625
40
0.656250000000001
40
0.656250000000001
40
0.687500000000001
40
0.687500000000001
40
0.750000000000001
40
0.750000000000001
40
0.812500000000001
40
0.812500000000001
40
0.843750000000001
40
0.843750000000001
40
0.875
40
0.875
40
1
40
1
40
1
40
1
41
1
10
4.94999999999999
20
31.4699984111852
30
0
41
1
10
4.94999999999999
20
31.4698296536479
30
0
41
1
10
5.00230708374832
20
31.4562391697278
30
0
41
1
10
5.15571452437678
20
31.4176655060856
30
0
41
1
10
5.21943610515427
20
31.4017728091575
30
0
41
1
10
5.33430027174887
20
31.3736107488786
30
0
41
1
10
5.37593431951345
20
31.363472478499
30
0
41
1
10
5.46511004302158
20
31.3419559785114
30
0
41
1
10
5.51257900794357
20
31.3305949262852
30
0
41
1
10
5.76402842320039
20
31.2710321527611
30
0
41
1
10
6.00990201671502
20
31.2145668222899
30
0
41
1
10
6.37269305826686
20
31.1368630165868
30
0
41
1
10
6.44804988741379
20
31.1209660315191
30
0
41
1
10
6.60445685283204
20
31.0885594101365
30
0
41
1
10
6.68565103015175
20
31.0720225423576
30
0
41
1
10
6.93526213232315
20
31.0221827684181
30
0
41
1
10
7.11040967239754
20
30.9884987967216
30
0
41
1
10
7.66147908373202
20
30.8874987365028
30
0
41
1
10
8.06276376430699
20
30.8202083776254
30
0
41
1
10
8.60874373574561
20
30.7409539903556
30
0
41
1
10
8.72013162231119
20
30.7253594651143
30
0
41
1
10
8.9449358800284
20
30.6951200042667
30
0
41
1
10
9.05865310544959
20
30.680430490746
30
0
41
1
10
9.40370630453722
20
30.637794896977
30
0
41
1
10
9.63893458885079
20
30.6112816361137
30
0
41
1
10
10.1197726748233
20
30.5628267498568
30
0
41
1
10
10.3653820618296
20
30.5408840370386
30
0
41
1
10
10.7418048251405
20
30.5119727078943
30
0
41
1
10
10.8686162375855
20
30.5030029512015
30
0
41
1
10
11.1249812853466
20
30.4864983825465
30
0
41
1
10
11.254389755313
20
30.4789778793734
30
0
41
1
10
11.9019328821944
20
30.4454958853764
30
0
41
1
10
12.4264244436086
20
30.4315723180712
30
0
41
1
10
12.9575
20
30.4315723180712
30
0
0
SPLINE
5
152
100
AcDbEntity
8
1
62
256
6
ByLayer
370
18
48
1
60
0
100
AcDbSpline
70
4
71
3
72
8
73
4
40
0
40
0
40
0
40
0
40
1
40
1
40
1
40
1
41
1
10
21.3746123234134
20
19.85
30
0
41
1
10
20.8791781833817
20
19.85
30
0
41
1
10
20.3946406079361
20
19.85
30
0
41
1
10
19.925
20
19.85
30
0
0
SPLINE
5
153
100
AcDbEntity
8
1
62
256
6
ByLayer
370
18
48
1
60
0
100
AcDbSpline
70
4
71
3
72
36
73
32
40
0
40
0
40
0
40
0
40
0.124999999999999
40
0.124999999999999
40
0.187499999999999
40
0.187499999999999
40
0.218749999999999
40
0.218749999999999
40
0.249999999999999
40
0.249999999999999
40
0.374999999999999
40
0.374999999999999
40
0.406249999999999
40
0.406249999999999
40
0.437499999999998
40
0.437499999999998
40
0.499999999999998
40
0.499999999999998
40
0.624999999999999
40
0.624999999999999
40
0.656249999999999
40
0.656249999999999
40
0.687499999999999
40
0.687499999999999
40
0.749999999999999
40
0.749999999999999
40
0.812499999999999
40
0.812499999999999
40
0.874999999999999
40
0.874999999999999
40
1
40
1
40
1
40
1
41
1
10
12.95
20
-30.1503829784963
30
0
41
1
10
12.4182627187732
20
-30.1503829784963
30
0
41
1
10
11.8959989210176
20
-30.1662190884818
30
0
41
1
10
11.1260959657865
20
-30.2113619657957
30
0
41
1
10
10.8717264718107
20
-30.2299778939183
30
0
41
1
10
10.4936216560128
20
-30.2629761000306
30
0
41
1
10
10.3678086409658
20
-30.2748587965687
30
0
41
1
10
10.1194618268704
20
-30.3000493570683
30
0
41
1
10
9.99692951457195
20
-30.3133501209502
30
0
41
1
10
9.39226886038051
20
-30.3830824778242
30
0
41
1
10
8.93391089121613
20
-30.4491689339867
30
0
41
1
10
8.39183435684626
20
-30.5402922027968
30
0
41
1
10
8.28497698908882
20
-30.5589441303185
30
0
41
1
10
8.07441560051001
20
-30.5969970538394
30
0
41
1
10
7.97072778568187
20
-30.6163994640843
30
0
41
1
10
7.66769106088228
20
-30.674925228277
30
0
41
1
10
7.47519443651623
20
-30.7145691260908
30
0
41
1
10
6.92538504075443
20
-30.8339192459421
30
0
41
1
10
6.59546778476641
20
-30.9140497914083
30
0
41
1
10
6.23018156491224
20
-31.0102994103381
30
0
41
1
10
6.1597699232795
20
-31.0292845486695
30
0
41
1
10
6.02512185094676
20
-31.0663691769891
30
0
41
1
10
5.96073307416353
20
-31.0845086951601
30
0
41
1
10
5.7762484438189
20
-31.137589019802
30
0
41
1
10
5.66481288123552
20
-31.1711913504447
30
0
41
1
10
5.46492163805172
20
-31.2341535567076
30
0
41
1
10
5.37646500709747
20
-31.2635146855691
30
0
41
1
10
5.22310216121372
20
-31.3173168408205
30
0
41
1
10
5.15801311819183
20
-31.3418449109977
30
0
41
1
10
5.00241912655019
20
-31.4059316510968
30
0
41
1
10
4.94999999999999
20
-31.4363570809238
30
0
41
1
10
4.94999999999999
20
-31.4535466005028
30
0
0
SPLINE
5
154
100
AcDbEntity
8
SK1
62
256
6
ByLayer
370
18
48
1
60
0
100
AcDbSpline
70
4
71
3
72
8
73
4
40
0
40
0
40
0
40
0
40
1
40
1
40
1
40
1
41
1
10
-30.75
20
-20.8447435124635
30
0
41
1
10
-30.7533711052677
20
-20.8412726012272
30
0
41
1
10
-30.7567195771044
20
-20.8377949233474
30
0
41
1
10
-30.7600449304076
20
-20.834310484867
30
0
0
SPLINE
5
155
100
AcDbEntity
8
1
62
256
6
ByLayer
370
18
48
1
60
0
100
AcDbSpline
70
4
71
3
72
8
73
4
40
0
40
0
40
0
40
0
40
1
40
1
40
1
40
1
41
1
10
16.075
20
27.8272318284485
30
0
41
1
10
15.5930118860064
20
28.6960191551286
30
0
41
1
10
15.1097064852051
20
29.5640826443993
30
0
41
1
10
14.6253876765866
20
30.4315723180712
30
0
0
SPLINE
5
156
100
AcDbEntity
8
1
62
256
6
ByLayer
370
18
48
1
60
0
100
AcDbSpline
70
4
71
3
72
8
73
4
40
0
40
0
40
0
40
0
40
1
40
1
40
1
40
1
41
1
10
25.95
20
23.7722190802626
30
0
41
1
10
25.7839073195555
20
23.9886015011042
30
0
41
1
10
25.6172281053954
20
24.2045348217587
30
0
41
1
10
25.45
20
24.4200409500066
30
0
0
SPLINE
5
157
100
AcDbEntity
8
SK1
62
256
6
ByLayer
370
18
48
1
60
0
100
AcDbSpline
70
4
71
3
72
14
73
10
40
0
40
0
40
0
40
0
40
0.335305498420015
40
0.335305498420015
40
0.667652749210006
40
0.667652749210006
40
0.833826374605003
40
0.833826374605003
40
1
40
1
40
1
40
1
41
1
10
-31.8915269653698
20
-19.7035635096454
30
0
41
1
10
-31.8862812781564
20
-19.7090150371345
30
0
41
1
10
-31.8791359242647
20
-19.7088490836851
30
0
41
1
10
-31.8642483451557
20
-19.6943359625788
30
0
41
1
10
-31.8566861682458
20
-19.6798070029846
30
0
41
1
10
-31.8484469114169
20
-19.6447492917015
30
0
41
1
10
-31.8462031265134
20
-19.6308338087905
30
0
41
1
10
-31.8431317226051
20
-19.598059464364
30
0
41
1
10
-31.8423124056037
20
-19.5790374185097
30
0
41
1
10
-31.8423156651183
20
-19.5578384055689
30
0
0
INSERT
5
16E
100
AcDbEntity
8
SK6
62
256
6
ByLayer
370
18
48
1
60
0
100
AcDbBlockReference
2
LABLE3D_1
10
-34.4
20
41.47
30
0
41
1
42
1
43
1
50
0
210
0
220
0
230
1
0
LINE
5
87
100
AcDbEntity
8
1
62
256
6
ByLayer
370
13
48
1
60
0
100
AcDbLine
10
45.08
20
-22.5
30
0
11
45.08
21
-21.315937
31
0
39
0
210
0
220
0
230
1
0
LINE
5
88
100
AcDbEntity
8
1
62
256
6
ByLayer
370
13
48
1
60
0
100
AcDbLine
10
36.92
20
-22.5
30
0
11
36.92
21
-21.341062
31
0
39
0
210
0
220
0
230
1
0
LINE
5
89
100
AcDbEntity
8
1
62
256
6
ByLayer
370
18
48
1
60
0
100
AcDbLine
10
45.095
20
-22.5
30
0
11
36.905
21
-22.5
31
0
39
0
210
0
220
0
230
1
0
LINE
5
8A
100
AcDbEntity
8
1
62
256
6
ByLayer
370
18
48
1
60
0
100
AcDbLine
10
46
20
-21.595
30
0
11
36
21
-21.595
31
0
39
0
210
0
220
0
230
1
0
LINE
5
8B
100
AcDbEntity
8
1
62
256
6
ByLayer
370
18
48
1
60
0
100
AcDbLine
10
100
20
-17.973777
30
0
11
100
21
17.973777
31
0
39
0
210
0
220
0
230
1
0
LINE
5
8C
100
AcDbEntity
8
SK1
62
256
6
ByLayer
370
13
48
1
60
0
100
AcDbLine
10
-23.2
20
-20.531099
30
0
11
-23.2
21
-20.845
31
0
39
0
210
0
220
0
230
1
0
LINE
5
8E
100
AcDbEntity
8
SK1
62
256
6
ByLayer
370
13
48
1
60
0
100
AcDbLine
10
-25.542528
20
-20.531099
30
0
11
-23.2
21
-20.531099
31
0
39
0
210
0
220
0
230
1
0
LINE
5
8F
100
AcDbEntity
8
SK1
62
256
6
ByLayer
370
13
48
1
60
0
100
AcDbLine
10
-23.2
20
-20.531099
30
0
11
-23.2
21
-19.472507
31
0
39
0
210
0
220
0
230
1
0
LINE
5
90
100
AcDbEntity
8
SK1
62
256
6
ByLayer
370
13
48
1
60
0
100
AcDbLine
10
-31.842316
20
19.557838
30
0
11
-31.06758
21
20.248133
31
0
39
0
210
0
220
0
230
1
0
LINE
5
91
100
AcDbEntity
8
SK1
62
256
6
ByLayer
370
13
48
1
60
0
100
AcDbLine
10
-31.842316
20
-19.557838
30
0
11
-31.06758
21
-20.248133
31
0
39
0
210
0
220
0
230
1
0
LINE
5
92
100
AcDbEntity
8
1
62
256
6
ByLayer
370
18
48
1
60
0
100
AcDbLine
10
16.075
20
19.85
30
0
11
16.075
21
21.08584
31
0
39
0
210
0
220
0
230
1
0
LINE
5
93
100
AcDbEntity
8
1
62
256
6
ByLayer
370
18
48
1
60
0
100
AcDbLine
10
25.95
20
23.772219
30
0
11
25.95
21
19.85
31
0
39
0
210
0
220
0
230
1
0
LINE
5
94
100
AcDbEntity
8
1
62
256
6
ByLayer
370
18
48
1
60
0
100
AcDbLine
10
21.374612
20
24.420041
30
0
11
21.374612
21
30.431572
31
0
39
0
210
0
220
0
230
1
0
LINE
5
95
100
AcDbEntity
8
1
62
256
6
ByLayer
370
18
48
1
60
0
100
AcDbLine
10
21.374612
20
24.420041
30
0
11
25.45
21
24.420041
31
0
39
0
210
0
220
0
230
1
0
LINE
5
96
100
AcDbEntity
8
1
62
256
6
ByLayer
370
18
48
1
60
0
100
AcDbLine
10
25.45
20
24.420041
30
0
11
25.45
21
30.431572
31
0
39
0
210
0
220
0
230
1
0
LINE
5
97
100
AcDbEntity
8
1
62
256
6
ByLayer
370
18
48
1
60
0
100
AcDbLine
10
21.374612
20
30.431572
30
0
11
25.45
21
30.431572
31
0
39
0
210
0
220
0
230
1
0
LINE
5
98
100
AcDbEntity
8
1
62
256
6
ByLayer
370
18
48
1
60
0
100
AcDbLine
10
19.925
20
27.827232
30
0
11
19.925
21
21.08584
31
0
39
0
210
0
220
0
230
1
0
LINE
5
99
100
AcDbEntity
8
1
62
256
6
ByLayer
370
18
48
1
60
0
100
AcDbLine
10
19.925
20
21.08584
30
0
11
19.925
21
19.85
31
0
39
0
210
0
220
0
230
1
0
LINE
5
9A
100
AcDbEntity
8
1
62
256
6
ByLayer
370
13
48
1
60
0
100
AcDbLine
10
98.946243
20
-19.164832
30
0
11
98.946243
21
19.164832
31
0
39
0
210
0
220
0
230
1
0
LINE
5
9B
100
AcDbEntity
8
1
62
256
6
ByLayer
370
18
48
1
60
0
100
AcDbLine
10
19.525
20
-26.4
30
0
11
16.475
21
-26.4
31
0
39
0
210
0
220
0
230
1
0
LINE
5
9C
100
AcDbEntity
8
1
62
256
6
ByLayer
370
18
48
1
60
0
100
AcDbLine
10
16.475
20
26.4
30
0
11
19.525
21
26.4
31
0
39
0
210
0
220
0
230
1
0
LINE
5
9D
100
AcDbEntity
8
1
62
256
6
ByLayer
370
13
48
1
60
0
100
AcDbLine
10
85.214134
20
-20.850923
30
0
11
85.214134
21
0
31
0
39
0
210
0
220
0
230
1
0
LINE
5
9E
100
AcDbEntity
8
1
62
256
6
ByLayer
370
13
48
1
60
0
100
AcDbLine
10
85.214134
20
0
30
0
11
85.214134
21
20.850923
31
0
39
0
210
0
220
0
230
1
0
LINE
5
9F
100
AcDbEntity
8
1
62
256
6
ByLayer
370
13
48
1
60
0
100
AcDbLine
10
82.776748
20
21
30
0
11
82.776748
21
-21
31
0
39
0
210
0
220
0
230
1
0
LINE
5
A0
100
AcDbEntity
8
1
62
256
6
ByLayer
370
13
48
1
60
0
100
AcDbLine
10
50.750519
20
-21
30
0
11
50.750519
21
0
31
0
39
0
210
0
220
0
230
1
0
LINE
5
A1
100
AcDbEntity
8
1
62
256
6
ByLayer
370
13
48
1
60
0
100
AcDbLine
10
50.750519
20
0
30
0
11
50.750519
21
21
31
0
39
0
210
0
220
0
230
1
0
LINE
5
A2
100
AcDbEntity
8
SK1
62
256
6
ByLayer
370
18
48
1
60
0
100
AcDbLine
10
-25.8
20
23.028046
30
0
11
-25.8
21
21.833816
31
0
39
0
210
0
220
0
230
1
0
LINE
5
A3
100
AcDbEntity
8
SK1
62
256
6
ByLayer
370
13
48
1
60
0
100
AcDbLine
10
-30.760045
20
20.83431
30
0
11
-30.760045
21
-20.83431
31
0
39
0
210
0
220
0
230
1
0
LINE
5
A4
100
AcDbEntity
8
1
62
256
6
ByLayer
370
13
48
1
60
0
100
AcDbLine
10
48.401287
20
-22.64495
30
0
11
48.401287
21
22.64495
31
0
39
0
210
0
220
0
230
1
0
LINE
5
A5
100
AcDbEntity
8
SK1
62
256
6
ByLayer
370
13
48
1
60
0
100
AcDbLine
10
-0.45
20
-23.970431
30
0
11
-0.45
21
23.970431
31
0
39
0
210
0
220
0
230
1
0
LINE
5
A6
100
AcDbEntity
8
1
62
256
6
ByLayer
370
13
48
1
60
0
100
AcDbLine
10
47.783604
20
24.34202
30
0
11
47.783604
21
-24.34202
31
0
39
0
210
0
220
0
230
1
0
LINE
5
A7
100
AcDbEntity
8
1
62
256
6
ByLayer
370
13
48
1
60
0
100
AcDbLine
10
46.843912
20
25
30
0
11
46.843912
21
-25
31
0
39
0
210
0
220
0
230
1
0
LINE
5
A8
100
AcDbEntity
8
1
62
256
6
ByLayer
370
13
48
1
60
0
100
AcDbLine
10
12.19562
20
19.85
30
0
11
12.19562
21
24.420041
31
0
39
0
210
0
220
0
230
1
0
LINE
5
A9
100
AcDbEntity
8
SK1
62
256
6
ByLayer
370
18
48
1
60
0
100
AcDbLine
10
-2
20
24.220431
30
0
11
-2
21
-24.220431
31
0
39
0
210
0
220
0
230
1
0
LINE
5
AA
100
AcDbEntity
8
1
62
256
6
ByLayer
370
13
48
1
60
0
100
AcDbLine
10
26.95
20
0
30
0
11
26.95
21
-25
31
0
39
0
210
0
220
0
230
1
0
LINE
5
AB
100
AcDbEntity
8
1
62
256
6
ByLayer
370
13
48
1
60
0
100
AcDbLine
10
26.95
20
25
30
0
11
26.95
21
0
31
0
39
0
210
0
220
0
230
1
0
LINE
5
AC
100
AcDbEntity
8
SK1
62
256
6
ByLayer
370
18
48
1
60
0
100
AcDbLine
10
-21.8
20
-21.952084
30
0
11
-21.8
21
-23.228447
31
0
39
0
210
0
220
0
230
1
0
LINE
5
AD
100
AcDbEntity
8
SK1
62
256
6
ByLayer
370
18
48
1
60
0
100
AcDbLine
10
-1.566987
20
23.970431
30
0
11
-1.566987
21
-23.970431
31
0
39
0
210
0
220
0
230
1
0
LINE
5
AE
100
AcDbEntity
8
1
62
256
6
ByLayer
370
13
48
1
60
0
100
AcDbLine
10
16.475
20
16.230601
30
0
11
16.475
21
12.169258
31
0
39
0
210
0
220
0
230
1
0
LINE
5
AF
100
AcDbEntity
8
1
62
256
6
ByLayer
370
13
48
1
60
0
100
AcDbLine
10
16.475
20
26.4
30
0
11
16.475
21
17.583481
31
0
39
0
210
0
220
0
230
1
0
LINE
5
B0
100
AcDbEntity
8
1
62
256
6
ByLayer
370
18
48
1
60
0
100
AcDbLine
10
25.95
20
19.85
30
0
11
25.95
21
-29.628122
31
0
39
0
210
0
220
0
230
1
0
LINE
5
B1
100
AcDbEntity
8
1
62
256
6
ByLayer
370
13
48
1
60
0
100
AcDbLine
10
16.475
20
-17.583481
30
0
11
16.475
21
-26.4
31
0
39
0
210
0
220
0
230
1
0
LINE
5
B2
100
AcDbEntity
8
1
62
256
6
ByLayer
370
13
48
1
60
0
100
AcDbLine
10
16.475
20
-12.169258
30
0
11
16.475
21
-16.230601
31
0
39
0
210
0
220
0
230
1
0
LINE
5
B3
100
AcDbEntity
8
1
62
256
6
ByLayer
370
13
48
1
60
0
100
AcDbLine
10
16.475
20
-6.082561
30
0
11
16.475
21
-10.607011
31
0
39
0
210
0
220
0
230
1
0
LINE
5
B4
100
AcDbEntity
8
1
62
256
6
ByLayer
370
13
48
1
60
0
100
AcDbLine
10
16.475
20
4.397275
30
0
11
16.475
21
-4.397275
31
0
39
0
210
0
220
0
230
1
0
LINE
5
B5
100
AcDbEntity
8
1
62
256
6
ByLayer
370
13
48
1
60
0
100
AcDbLine
10
16.475
20
10.607011
30
0
11
16.475
21
6.082561
31
0
39
0
210
0
220
0
230
1
0
LINE
5
B6
100
AcDbEntity
8
1
62
256
6
ByLayer
370
13
48
1
60
0
100
AcDbLine
10
19.525
20
17.583481
30
0
11
19.525
21
26.4
31
0
39
0
210
0
220
0
230
1
0
LINE
5
B7
100
AcDbEntity
8
1
62
256
6
ByLayer
370
13
48
1
60
0
100
AcDbLine
10
19.525
20
12.169258
30
0
11
19.525
21
16.230601
31
0
39
0
210
0
220
0
230
1
0
LINE
5
B8
100
AcDbEntity
8
1
62
256
6
ByLayer
370
13
48
1
60
0
100
AcDbLine
10
19.525
20
6.082561
30
0
11
19.525
21
10.607011
31
0
39
0
210
0
220
0
230
1
0
LINE
5
B9
100
AcDbEntity
8
1
62
256
6
ByLayer
370
13
48
1
60
0
100
AcDbLine
10
19.525
20
-4.397275
30
0
11
19.525
21
4.397275
31
0
39
0
210
0
220
0
230
1
0
LINE
5
BA
100
AcDbEntity
8
1
62
256
6
ByLayer
370
13
48
1
60
0
100
AcDbLine
10
19.525
20
-10.607011
30
0
11
19.525
21
-6.082561
31
0
39
0
210
0
220
0
230
1
0
LINE
5
BB
100
AcDbEntity
8
1
62
256
6
ByLayer
370
18
48
1
60
0
100
AcDbLine
10
14.625388
20
19.85
30
0
11
4.968215
21
19.85
31
0
39
0
210
0
220
0
230
1
0
LINE
5
BC
100
AcDbEntity
8
1
62
256
6
ByLayer
370
13
48
1
60
0
100
AcDbLine
10
19.525
20
-16.230601
30
0
11
19.525
21
-12.169258
31
0
39
0
210
0
220
0
230
1
0
LINE
5
BD
100
AcDbEntity
8
1
62
256
6
ByLayer
370
13
48
1
60
0
100
AcDbLine
10
19.525
20
-26.4
30
0
11
19.525
21
-17.583481
31
0
39
0
210
0
220
0
230
1
0
LINE
5
BE
100
AcDbEntity
8
1
62
256
6
ByLayer
370
18
48
1
60
0
100
AcDbLine
10
14.625388
20
19.85
30
0
11
14.625388
21
-30.150383
31
0
39
0
210
0
220
0
230
1
0
LINE
5
BF
100
AcDbEntity
8
1
62
256
6
ByLayer
370
18
48
1
60
0
100
AcDbLine
10
25.45
20
-30.150383
30
0
11
21.374612
21
-30.150383
31
0
39
0
210
0
220
0
230
1
0
LINE
5
C0
100
AcDbEntity
8
SK1
62
256
6
ByLayer
370
13
48
1
60
0
100
AcDbLine
10
-27.2
20
20.845
30
0
11
-27.2
21
20.779376
31
0
39
0
210
0
220
0
230
1
0
LINE
5
C1
100
AcDbEntity
8
1
62
256
6
ByLayer
370
18
48
1
60
0
100
AcDbLine
10
25.45
20
-30.150383
30
0
11
25.45
21
19.85
31
0
39
0
210
0
220
0
230
1
0
LINE
5
C2
100
AcDbEntity
8
1
62
256
6
ByLayer
370
18
48
1
60
0
100
AcDbLine
10
19.925
20
19.85
30
0
11
19.925
21
-27.519445
31
0
39
0
210
0
220
0
230
1
0
LINE
5
C3
100
AcDbEntity
8
1
62
256
6
ByLayer
370
18
48
1
60
0
100
AcDbLine
10
21.374612
20
-30.150383
30
0
11
21.374612
21
19.85
31
0
39
0
210
0
220
0
230
1
0
LINE
5
C4
100
AcDbEntity
8
1
62
256
6
ByLayer
370
18
48
1
60
0
100
AcDbLine
10
16.075
20
19.85
30
0
11
16.075
21
-27.519445
31
0
39
0
210
0
220
0
230
1
0
LINE
5
C5
100
AcDbEntity
8
1
62
256
6
ByLayer
370
18
48
1
60
0
100
AcDbLine
10
12.19562
20
24.420041
30
0
11
14.625388
21
24.420041
31
0
39
0
210
0
220
0
230
1
0
LINE
5
C6
100
AcDbEntity
8
1
62
256
6
ByLayer
370
18
48
1
60
0
100
AcDbLine
10
14.625388
20
30.431572
30
0
11
14.625388
21
24.420041
31
0
39
0
210
0
220
0
230
1
0
LINE
5
C7
100
AcDbEntity
8
1
62
256
6
ByLayer
370
18
48
1
60
0
100
AcDbLine
10
25.95
20
29.914221
30
0
11
25.95
21
23.772219
31
0
39
0
210
0
220
0
230
1
0
LINE
5
C8
100
AcDbEntity
8
1
62
256
6
ByLayer
370
18
48
1
60
0
100
AcDbLine
10
25.45
20
19.85
30
0
11
21.374612
21
19.85
31
0
39
0
210
0
220
0
230
1
0
LINE
5
C9
100
AcDbEntity
8
1
62
256
6
ByLayer
370
18
48
1
60
0
100
AcDbLine
10
12.9575
20
30.431572
30
0
11
14.625388
21
30.431572
31
0
39
0
210
0
220
0
230
1
0
LINE
5
CA
100
AcDbEntity
8
1
62
256
6
ByLayer
370
18
48
1
60
0
100
AcDbLine
10
0.5
20
0
30
0
11
0.5
21
-31.47
31
0
39
0
210
0
220
0
230
1
0
LINE
5
CB
100
AcDbEntity
8
1
62
256
6
ByLayer
370
18
48
1
60
0
100
AcDbLine
10
0.5
20
31.47
30
0
11
0.5
21
0
31
0
39
0
210
0
220
0
230
1
0
LINE
5
CC
100
AcDbEntity
8
1
62
256
6
ByLayer
370
18
48
1
60
0
100
AcDbLine
10
0
20
30.97
30
0
11
0
21
-30.97
31
0
39
0
210
0
220
0
230
1
0
LINE
5
CD
100
AcDbEntity
8
1
62
256
6
ByLayer
370
18
48
1
60
0
100
AcDbLine
10
4.95
20
-31.47
30
0
11
4.95
21
-31.453547
31
0
39
0
210
0
220
0
230
1
0
LINE
5
CE
100
AcDbEntity
8
1
62
256
6
ByLayer
370
18
48
1
60
0
100
AcDbLine
10
14.625388
20
-30.150383
30
0
11
12.95
21
-30.150383
31
0
39
0
210
0
220
0
230
1
0
LINE
5
CF
100
AcDbEntity
8
1
62
256
6
ByLayer
370
18
48
1
60
0
100
AcDbLine
10
16.075
20
27.827232
30
0
11
16.075
21
21.08584
31
0
39
0
210
0
220
0
230
1
0
LINE
5
D0
100
AcDbEntity
8
SK1
62
256
6
ByLayer
370
18
48
1
60
0
100
AcDbLine
10
-31.9
20
-19.672662
30
0
11
-31.9
21
19.672662
31
0
39
0
210
0
220
0
230
1
0
LINE
5
D1
100
AcDbEntity
8
SK4
62
256
6
ByLayer
370
18
48
0.05
60
0
100
AcDbLine
10
-41.9
20
0
30
0
11
110
21
0
31
0
39
0
210
0
220
0
230
1
0
LINE
5
D3
100
AcDbEntity
8
SK1
62
256
6
ByLayer
370
18
48
1
60
0
100
AcDbLine
10
-27.2
20
20.845
30
0
11
-30.75
21
20.845
31
0
39
0
210
0
220
0
230
1
0
LINE
5
D4
100
AcDbEntity
8
SK1
62
256
6
ByLayer
370
18
48
1
60
0
100
AcDbLine
10
-31.898454
20
-19.696546
30
0
11
-30.75
21
-20.845
31
0
39
0
210
0
220
0
230
1
0
LINE
5
D5
100
AcDbEntity
8
SK1
62
256
6
ByLayer
370
18
48
1
60
0
100
AcDbLine
10
-30.75
20
20.845
30
0
11
-31.892671
21
19.702329
31
0
39
0
210
0
220
0
230
1
0
LINE
5
D6
100
AcDbEntity
8
SK1
62
256
6
ByLayer
370
18
48
1
60
0
100
AcDbLine
10
-30.75
20
-20.845
30
0
11
-23.2
21
-20.845
31
0
39
0
210
0
220
0
230
1
0
LINE
5
D7
100
AcDbEntity
8
1
62
256
6
ByLayer
370
18
48
1
60
0
100
AcDbLine
10
98.946243
20
19.164832
30
0
11
85.214134
21
20.850923
31
0
39
0
210
0
220
0
230
1
0
LINE
5
D8
100
AcDbEntity
8
1
62
256
6
ByLayer
370
18
48
1
60
0
100
AcDbLine
10
85.214134
20
-20.850923
30
0
11
98.946243
21
-19.164832
31
0
39
0
210
0
220
0
230
1
0
LINE
5
D9
100
AcDbEntity
8
1
62
256
6
ByLayer
370
18
48
1
60
0
100
AcDbLine
10
82.776748
20
21
30
0
11
50.750519
21
21
31
0
39
0
210
0
220
0
230
1
0
LINE
5
DA
100
AcDbEntity
8
1
62
256
6
ByLayer
370
18
48
1
60
0
100
AcDbLine
10
50.750519
20
-21
30
0
11
82.776748
21
-21
31
0
39
0
210
0
220
0
230
1
0
LINE
5
DB
100
AcDbEntity
8
SK1
62
256
6
ByLayer
370
18
48
1
60
0
100
AcDbLine
10
-1.566987
20
-23.970431
30
0
11
-0.45
21
-23.970431
31
0
39
0
210
0
220
0
230
1
0
LINE
5
DC
100
AcDbEntity
8
SK1
62
256
6
ByLayer
370
18
48
1
60
0
100
AcDbLine
10
-0.45
20
23.970431
30
0
11
-1.566987
21
23.970431
31
0
39
0
210
0
220
0
230
1
0
LINE
5
DD
100
AcDbEntity
8
SK1
62
256
6
ByLayer
370
18
48
1
60
0
100
AcDbLine
10
-1.566987
20
23.970431
30
0
11
-2
21
24.220431
31
0
39
0
210
0
220
0
230
1
0
LINE
5
DE
100
AcDbEntity
8
SK1
62
256
6
ByLayer
370
18
48
1
60
0
100
AcDbLine
10
-2
20
-24.220431
30
0
11
-1.566987
21
-23.970431
31
0
39
0
210
0
220
0
230
1
0
LINE
5
DF
100
AcDbEntity
8
SK1
62
256
6
ByLayer
370
18
48
1
60
0
100
AcDbLine
10
-21.8
20
-23.228447
30
0
11
-13.236595
21
-23.657475
31
0
39
0
210
0
220
0
230
1
0
LINE
5
E0
100
AcDbEntity
8
SK1
62
256
6
ByLayer
370
18
48
1
60
0
100
AcDbLine
10
-4.318307
20
-24.104283
30
0
11
-2
21
-24.220431
31
0
39
0
210
0
220
0
230
1
0
LINE
5
E1
100
AcDbEntity
8
SK1
62
256
6
ByLayer
370
18
48
1
60
0
100
AcDbLine
10
-2
20
24.220431
30
0
11
-4.318316
21
24.104283
31
0
39
0
210
0
220
0
230
1
0
LINE
5
E2
100
AcDbEntity
8
SK1
62
256
6
ByLayer
370
18
48
1
60
0
100
AcDbLine
10
-13.239275
20
23.657341
30
0
11
-25.8
21
23.028046
31
0
39
0
210
0
220
0
230
1
0
LINE
5
E3
100
AcDbEntity
8
1
62
256
6
ByLayer
370
18
48
1
60
0
100
AcDbLine
10
48.401287
20
22.64495
30
0
11
47.783604
21
24.34202
31
0
39
0
210
0
220
0
230
1
0
LINE
5
E4
100
AcDbEntity
8
1
62
256
6
ByLayer
370
18
48
1
60
0
100
AcDbLine
10
47.783604
20
-24.34202
30
0
11
48.401287
21
-22.64495
31
0
39
0
210
0
220
0
230
1
0
LINE
5
E5
100
AcDbEntity
8
1
62
256
6
ByLayer
370
18
48
1
60
0
100
AcDbLine
10
46.843912
20
25
30
0
11
26.95
21
25
31
0
39
0
210
0
220
0
230
1
0
LINE
5
E6
100
AcDbEntity
8
1
62
256
6
ByLayer
370
18
48
1
60
0
100
AcDbLine
10
26.95
20
-25
30
0
11
46.843912
21
-25
31
0
39
0
210
0
220
0
230
1
0
LINE
5
E7
100
AcDbEntity
8
1
62
256
6
ByLayer
370
18
48
1
60
0
100
AcDbLine
10
0
20
-30.97
30
0
11
0.5
21
-31.47
31
0
39
0
210
0
220
0
230
1
0
LINE
5
E8
100
AcDbEntity
8
1
62
256
6
ByLayer
370
18
48
1
60
0
100
AcDbLine
10
0.5
20
31.47
30
0
11
0
21
30.97
31
0
39
0
210
0
220
0
230
1
0
LINE
5
E9
100
AcDbEntity
8
1
62
256
6
ByLayer
370
18
48
1
60
0
100
AcDbLine
10
0.5
20
-31.47
30
0
11
4.95
21
-31.47
31
0
39
0
210
0
220
0
230
1
0
LINE
5
EA
100
AcDbEntity
8
1
62
256
6
ByLayer
370
18
48
1
60
0
100
AcDbLine
10
4.949408
20
31.47
30
0
11
4.949182
21
31.47
31
0
39
0
210
0
220
0
230
1
0
LINE
5
EB
100
AcDbEntity
8
1
62
256
6
ByLayer
370
18
48
1
60
0
100
AcDbLine
10
4.949182
20
31.47
30
0
11
0.5
21
31.47
31
0
39
0
210
0
220
0
230
1
0
LINE
5
EC
100
AcDbEntity
8
1
62
256
6
ByLayer
370
18
48
1
60
0
100
AcDbLine
10
45.095
20
-22.5
30
0
11
46
21
-21.595
31
0
39
0
210
0
220
0
230
1
0
LINE
5
ED
100
AcDbEntity
8
1
62
256
6
ByLayer
370
18
48
1
60
0
100
AcDbLine
10
36
20
-21.595
30
0
11
36.905
21
-22.5
31
0
39
0
210
0
220
0
230
1
0
LINE
5
EE
100
AcDbEntity
8
1
62
256
6
ByLayer
370
18
48
1
60
0
100
AcDbLine
10
36
20
-21.341116
30
0
11
36
21
-21.595
31
0
39
0
210
0
220
0
230
1
0
LINE
5
EF
100
AcDbEntity
8
1
62
256
6
ByLayer
370
18
48
1
60
0
100
AcDbLine
10
46
20
-21.595
30
0
11
46
21
-21.315984
31
0
39
0
210
0
220
0
230
1
0
LINE
5
F0
100
AcDbEntity
8
SK3
62
256
6
ByLayer
370
18
48
0.05
60
0
100
AcDbLine
10
50.5
20
-10
30
0
11
50.5
21
10
31
0
39
0
210
0
220
0
230
1
0
LINE
5
F2
100
AcDbEntity
8
SK3
62
256
6
ByLayer
370
18
48
0.05
60
0
100
AcDbLine
10
49
20
-8.5
30
0
11
50.5
21
-10
31
0
39
0
210
0
220
0
230
1
0
LINE
5
F3
100
AcDbEntity
8
SK3
62
256
6
ByLayer
370
18
48
0.05
60
0
100
AcDbLine
10
50.5
20
10
30
0
11
49
21
8.5
31
0
39
0
210
0
220
0
230
1
0
LINE
5
F4
100
AcDbEntity
8
SK3
62
256
6
ByLayer
370
18
48
0.05
60
0
100
AcDbLine
10
100
20
10
30
0
11
50.5
21
10
31
0
39
0
210
0
220
0
230
1
0
LINE
5
F5
100
AcDbEntity
8
81
62
256
6
ByLayer
370
18
48
1
60
0
100
AcDbLine
10
100
20
0
30
0
11
104.742527
21
0
31
0
39
0
210
0
220
0
230
1
0
LINE
5
F6
100
AcDbEntity
8
80
62
256
6
ByLayer
370
18
48
1
60
0
100
AcDbLine
10
0
20
0
30
0
11
-10.875929
21
0
31
0
39
0
210
0
220
0
230
1
0
LINE
5
F7
100
AcDbEntity
8
4
62
256
6
ByLayer
370
18
48
0.05
60
0
100
AcDbLine
10
100
20
0
30
0
11
0
21
0
31
0
39
0
210
0
220
0
230
1
0
LINE
5
F9
100
AcDbEntity
8
SK3
62
256
6
ByLayer
370
18
48
0.05
60
0
100
AcDbLine
10
50.5
20
-10
30
0
11
100
21
-10
31
0
39
0
210
0
220
0
230
1
0
LINE
5
FA
100
AcDbEntity
8
SK3
62
256
6
ByLayer
370
18
48
0.05
60
0
100
AcDbLine
10
49
20
8.5
30
0
11
49
21
-8.5
31
0
39
0
210
0
220
0
230
1
0
LINE
5
FB
100
AcDbEntity
8
SK2
62
256
6
ByLayer
370
13
48
1
60
0
100
AcDbLine
10
-68
20
-31.47
30
0
11
-68
21
31.47
31
0
39
0
210
0
220
0
230
1
0
LINE
5
FD
100
AcDbEntity
8
SK2
62
256
6
ByLayer
370
13
48
1
60
0
100
AcDbLine
10
-1.5875
20
31.47
30
0
11
-70
21
31.47
31
0
39
0
210
0
220
0
230
1
0
LINE
5
FE
100
AcDbEntity
8
SK2
62
256
6
ByLayer
370
13
48
1
60
0
100
AcDbLine
10
-1.5875
20
-31.47
30
0
11
-70
21
-31.47
31
0
39
0
210
0
220
0
230
1
0
LINE
5
FF
100
AcDbEntity
8
1
62
256
6
ByLayer
370
18
48
1
60
1
100
AcDbLine
10
-68
20
31.47
30
0
11
-67.002374
21
26.970004
31
0
39
0
210
0
220
0
230
1
0
LINE
5
100
100
AcDbEntity
8
1
62
256
6
ByLayer
370
18
48
1
60
1
100
AcDbLine
10
-67.002374
20
26.970004
30
0
11
-68.997626
21
26.969996
31
0
39
0
210
0
220
0
230
1
0
LINE
5
101
100
AcDbEntity
8
1
62
256
6
ByLayer
370
18
48
1
60
1
100
AcDbLine
10
-68.997626
20
26.969996
30
0
11
-68
21
31.47
31
0
39
0
210
0
220
0
230
1
0
LINE
5
102
100
AcDbEntity
8
1
62
256
6
ByLayer
370
18
48
1
60
1
100
AcDbLine
10
-68
20
-31.47
30
0
11
-68.997626
21
-26.970004
31
0
39
0
210
0
220
0
230
1
0
LINE
5
103
100
AcDbEntity
8
1
62
256
6
ByLayer
370
18
48
1
60
1
100
AcDbLine
10
-68.997626
20
-26.970004
30
0
11
-67.002374
21
-26.969996
31
0
39
0
210
0
220
0
230
1
0
LINE
5
104
100
AcDbEntity
8
1
62
256
6
ByLayer
370
18
48
1
60
1
100
AcDbLine
10
-67.002374
20
-26.969996
30
0
11
-68
21
-31.47
31
0
39
0
210
0
220
0
230
1
0
LINE
5
15C
100
AcDbEntity
8
1
62
256
6
ByLayer
370
18
48
1
60
1
100
AcDbLine
10
-68
20
31.47
30
0
11
-67.002374
21
26.970004
31
0
39
0
210
0
220
0
230
1
0
LINE
5
15D
100
AcDbEntity
8
1
62
256
6
ByLayer
370
18
48
1
60
1
100
AcDbLine
10
-67.002374
20
26.970004
30
0
11
-68.997626
21
26.969996
31
0
39
0
210
0
220
0
230
1
0
LINE
5
15E
100
AcDbEntity
8
1
62
256
6
ByLayer
370
18
48
1
60
1
100
AcDbLine
10
-68.997626
20
26.969996
30
0
11
-68
21
31.47
31
0
39
0
210
0
220
0
230
1
0
LINE
5
160
100
AcDbEntity
8
1
62
256
6
ByLayer
370
18
48
1
60
1
100
AcDbLine
10
-68
20
-31.47
30
0
11
-68.997626
21
-26.970004
31
0
39
0
210
0
220
0
230
1
0
LINE
5
161
100
AcDbEntity
8
1
62
256
6
ByLayer
370
18
48
1
60
1
100
AcDbLine
10
-68.997626
20
-26.970004
30
0
11
-67.002374
21
-26.969996
31
0
39
0
210
0
220
0
230
1
0
LINE
5
162
100
AcDbEntity
8
1
62
256
6
ByLayer
370
18
48
1
60
1
100
AcDbLine
10
-67.002374
20
-26.969996
30
0
11
-68
21
-31.47
31
0
39
0
210
0
220
0
230
1
0
LINE
5
169
100
AcDbEntity
8
SK6
62
256
6
ByLayer
370
13
48
1
60
0
100
AcDbLine
10
-35.9
20
41.47
30
0
11
-35.9
21
41.47
31
0
39
0
210
0
220
0
230
1
0
MTEXT
5
158
100
AcDbEntity
8
SK2
62
256
6
ByLayer
370
18
48
1
60
0
100
AcDbMText
10
-70.011672
20
-4.699399
30
0
210
0
220
0
230
1
1
%%c
40
4.5
41
0
44
1.084337
50
90
71
7
72
5
7
iso_b_vert
0
MTEXT
5
15B
100
AcDbEntity
8
SK2
62
256
6
ByLayer
370
18
48
1
60
0
100
AcDbMText
10
-70.011672
20
2.015444
30
0
210
0
220
0
230
1
1
\W0.6740;63
40
4.5
41
0
44
1.084337
50
90
71
7
72
5
7
iso_b_vert
0
MTEXT
5
164
100
AcDbEntity
8
SK6
62
256
6
ByLayer
370
18
48
1
60
0
100
AcDbMText
10
-7.8145
20
-45.687366
30
0
210
0
220
0
230
1
1
\W0.7467;930-HA06-S-20-100A
40
3.5
41
0
44
1.084337
50
0
71
7
72
5
7
iso_b_vert
0
MTEXT
5
166
100
AcDbEntity
8
SK6
62
256
6
ByLayer
370
18
48
1
60
0
100
AcDbMText
10
-77.618094
20
39.002634
30
0
210
0
220
0
230
1
1
\W0.7830;DIN69893-HSK-A63
40
3.5
41
0
44
1.084337
50
0
71
7
72
5
7
iso_b_vert
0
MTEXT
5
167
100
AcDbEntity
8
SK6
62
256
6
ByLayer
370
18
48
1
60
0
100
AcDbMText
10
-36.773633
20
39.002634
30
0
210
0
220
0
230
1
1
\W0.2969; 
40
3.5
41
0
44
1.084337
50
0
71
7
72
5
7
iso_b_vert
0
HATCH
5
15F
100
AcDbEntity
8
SK2
62
256
6
ByLayer
370
13
48
1
60
0
100
AcDbHatch
10
0
20
0
30
0
210
0
220
0
230
1
2
ANSI31
70
0
71
0
91
1
92
5
93
3
72
1
10
-68
20
31.47
11
-67.0023740181135
21
26.9700036644848
72
1
10
-67.0023740181135
20
26.9700036644848
11
-68.9976259818865
21
26.9699963355152
72
1
10
-68.9976259818865
20
26.9699963355152
11
-68
21
31.47
97
0
75
0
76
1
52
0
41
0.0062
77
0
78
1
53
45
43
0
44
0
45
-0.0139193969876572
46
0.0139193969876572
79
0
47
0
98
1
10
0
20
0
0
HATCH
5
163
100
AcDbEntity
8
SK2
62
256
6
ByLayer
370
13
48
1
60
0
100
AcDbHatch
10
0
20
0
30
0
210
0
220
0
230
1
2
ANSI31
70
0
71
0
91
1
92
5
93
3
72
1
10
-68
20
-31.47
11
-68.9976259818865
21
-26.9700036644848
72
1
10
-68.9976259818865
20
-26.9700036644848
11
-67.0023740181135
21
-26.9699963355152
72
1
10
-67.0023740181135
20
-26.9699963355152
11
-68
21
-31.47
97
0
75
0
76
1
52
0
41
0.0062
77
0
78
1
53
45
43
0
44
0
45
-0.0139193969876572
46
0.0139193969876572
79
0
47
0
98
1
10
0
20
0
0
DIMENSION
5
172
100
AcDbEntity
8
SK2
62
256
6
ByLayer
370
18
48
1
60
0
100
AcDbDimension
2
_U0
10
164.25
20
21
30
0
11
164.25
21
0
31
0
70
32
71
1
72
1
41
1
210
0
220
0
230
1
3
Standard
100
AcDbAlignedDimension
13
100
23
-21
33
0
14
100
24
21
34
0
50
90
100
AcDbRotatedDimension
1001
ACAD
1000
DSTYLE
1002
{
1070
   371
1070
    13
1070
   372
1070
    13
1070
   170
1070
     0
1070
   144
1040
1.0
1070
   277
1070
     2
1070
   284
1070
     8
1070
   278
1070
    44
1070
   146
1040
0.777778
1070
   345
1005
16
1070
   347
1005
16
1070
   346
1005
16
1070
   344
1005
0
1070
   343
1005
0
1070
   172
1070
     1
1070
    76
1070
     0
1070
    75
1070
     0
1070
   282
1070
     0
1070
   281
1070
     0
1070
    71
1070
     0
1070
    74
1070
     0
1070
   279
1070
     0
1070
   173
1070
     1
1070
   340
1005
159
1070
   271
1070
     1
1070
   272
1070
     2
1070
    77
1070
     1
1070
    73
1070
     0
1070
   171
1070
     3
1070
   274
1070
     4
1070
   177
1070
     2
1070
   176
1070
     2
1070
   178
1070
     2
1070
    78
1070
     8
1070
    48
1040
-0.1
1070
    41
1040
4.5
1070
   147
1040
2.25
1070
    42
1040
1.5875
1070
    44
1040
2.0
1070
   140
1040
4.5
1002
}
1001
ACAD_DSTYLE_DIM_LINETYPE
1070
   380
1005
16
1001
ACAD_DSTYLE_DIM_EXT1_LINETYPE
1070
   381
1005
16
1001
ACAD_DSTYLE_DIM_EXT2_LINETYPE
1070
   382
1005
16
0
DIMENSION
5
18C
100
AcDbEntity
8
SK2
62
256
6
ByLayer
370
18
48
1
60
0
100
AcDbDimension
2
_U1
10
152.25
20
-10
30
0
11
152.25
21
0
31
0
70
32
71
1
72
1
41
1
210
0
220
0
230
1
3
Standard
100
AcDbAlignedDimension
13
100
23
10
33
0
14
100
24
-10
34
0
50
90
100
AcDbRotatedDimension
1001
ACAD
1000
DSTYLE
1002
{
1070
   371
1070
    13
1070
   372
1070
    13
1070
   170
1070
     0
1070
   144
1040
1.0
1070
   277
1070
     2
1070
   284
1070
     8
1070
   278
1070
    44
1070
   146
1040
0.777778
1070
   345
1005
16
1070
   347
1005
16
1070
   346
1005
16
1070
   344
1005
0
1070
   343
1005
0
1070
   172
1070
     1
1070
    76
1070
     0
1070
    75
1070
     0
1070
   282
1070
     0
1070
   281
1070
     0
1070
    71
1070
     0
1070
    74
1070
     0
1070
   279
1070
     0
1070
   173
1070
     1
1070
   340
1005
159
1070
   271
1070
     1
1070
   272
1070
     2
1070
    77
1070
     1
1070
    73
1070
     0
1070
   171
1070
     3
1070
   274
1070
     4
1070
   177
1070
     2
1070
   176
1070
     2
1070
   178
1070
     2
1070
    78
1070
     8
1070
    48
1040
-0.1
1070
    41
1040
4.5
1070
   147
1040
2.25
1070
    42
1040
1.5875
1070
    44
1040
2.0
1070
   140
1040
4.5
1002
}
1001
ACAD_DSTYLE_DIM_LINETYPE
1070
   380
1005
16
1001
ACAD_DSTYLE_DIM_EXT1_LINETYPE
1070
   381
1005
16
1001
ACAD_DSTYLE_DIM_EXT2_LINETYPE
1070
   382
1005
16
0
DIMENSION
5
1A6
100
AcDbEntity
8
SK2
62
256
6
ByLayer
370
18
48
1
60
0
100
AcDbDimension
2
_U2
10
184.25
20
-25
30
0
11
184.25
21
0
31
0
70
32
71
1
72
1
41
1
210
0
220
0
230
1
3
Standard
100
AcDbAlignedDimension
13
49
23
25
33
0
14
49
24
-25
34
0
50
90
100
AcDbRotatedDimension
1001
ACAD
1000
DSTYLE
1002
{
1070
   371
1070
    13
1070
   372
1070
    13
1070
   170
1070
     0
1070
   144
1040
1.0
1070
   277
1070
     2
1070
   284
1070
     8
1070
   278
1070
    44
1070
   146
1040
0.777778
1070
   345
1005
16
1070
   347
1005
16
1070
   346
1005
16
1070
   344
1005
0
1070
   343
1005
0
1070
   172
1070
     1
1070
    76
1070
     0
1070
    75
1070
     0
1070
   282
1070
     0
1070
   281
1070
     0
1070
    71
1070
     0
1070
    74
1070
     0
1070
   279
1070
     0
1070
   173
1070
     1
1070
   340
1005
159
1070
   271
1070
     1
1070
   272
1070
     2
1070
    77
1070
     1
1070
    73
1070
     0
1070
   171
1070
     3
1070
   274
1070
     4
1070
   177
1070
     2
1070
   176
1070
     2
1070
   178
1070
     2
1070
    78
1070
     8
1070
    48
1040
-0.1
1070
    41
1040
4.5
1070
   147
1040
2.25
1070
    42
1040
1.5875
1070
    44
1040
2.0
1070
   140
1040
4.5
1002
}
1001
ACAD_DSTYLE_DIM_LINETYPE
1070
   380
1005
16
1001
ACAD_DSTYLE_DIM_EXT1_LINETYPE
1070
   381
1005
16
1001
ACAD_DSTYLE_DIM_EXT2_LINETYPE
1070
   382
1005
16
0
DIMENSION
5
1BF
100
AcDbEntity
8
SK2
62
256
6
ByLayer
370
18
48
1
60
0
100
AcDbDimension
2
_U3
10
100
20
-50.07
30
0
11
74.5
21
-50.07
31
0
70
32
71
1
72
1
41
1
210
0
220
0
230
1
3
Standard
100
AcDbAlignedDimension
13
49
23
-10
33
0
14
100
24
-10
34
0
50
0
100
AcDbRotatedDimension
1001
ACAD
1000
DSTYLE
1002
{
1070
   371
1070
    13
1070
   372
1070
    13
1070
     3
1000

1070
   170
1070
     0
1070
   144
1040
1.0
1070
   277
1070
     2
1070
   284
1070
     8
1070
   278
1070
    44
1070
   146
1040
0.777778
1070
   345
1005
16
1070
   347
1005
16
1070
   346
1005
16
1070
   344
1005
0
1070
   343
1005
0
1070
   172
1070
     1
1070
    76
1070
     0
1070
    75
1070
     0
1070
   282
1070
     0
1070
   281
1070
     0
1070
    71
1070
     0
1070
    74
1070
     0
1070
   279
1070
     0
1070
   173
1070
     1
1070
   340
1005
159
1070
   271
1070
     0
1070
   272
1070
     2
1070
    77
1070
     1
1070
    73
1070
     1
1070
   171
1070
     3
1070
   274
1070
     4
1070
   177
1070
     2
1070
   176
1070
     2
1070
   178
1070
     2
1070
    78
1070
     8
1070
    48
1040
-0.1
1070
    41
1040
4.5
1070
   147
1040
2.25
1070
    42
1040
1.5875
1070
    44
1040
2.0
1070
   140
1040
4.5
1002
}
1001
ACAD_DSTYLE_DIM_LINETYPE
1070
   380
1005
16
1001
ACAD_DSTYLE_DIM_EXT1_LINETYPE
1070
   381
1005
16
1001
ACAD_DSTYLE_DIM_EXT2_LINETYPE
1070
   382
1005
16
0
DIMENSION
5
1D7
100
AcDbEntity
8
SK2
62
256
6
ByLayer
370
18
48
1
60
0
100
AcDbDimension
2
_U4
10
100
20
-40.07
30
0
11
92
21
-40.07
31
0
70
32
71
1
72
1
41
1
210
0
220
0
230
1
3
Standard
100
AcDbAlignedDimension
13
84
23
-21
33
0
14
100
24
-21
34
0
50
0
100
AcDbRotatedDimension
1001
ACAD
1000
DSTYLE
1002
{
1070
   371
1070
    13
1070
   372
1070
    13
1070
   170
1070
     0
1070
   144
1040
1.0
1070
   277
1070
     2
1070
   284
1070
     8
1070
   278
1070
    44
1070
   146
1040
0.777778
1070
   345
1005
16
1070
   347
1005
16
1070
   346
1005
16
1070
   344
1005
0
1070
   343
1005
0
1070
   172
1070
     1
1070
    76
1070
     0
1070
    75
1070
     0
1070
   282
1070
     0
1070
   281
1070
     0
1070
    71
1070
     0
1070
    74
1070
     0
1070
   279
1070
     0
1070
   173
1070
     1
1070
   340
1005
159
1070
   271
1070
     1
1070
   272
1070
     2
1070
    77
1070
     1
1070
    73
1070
     1
1070
   171
1070
     3
1070
   274
1070
     4
1070
   177
1070
     2
1070
   176
1070
     2
1070
   178
1070
     2
1070
    78
1070
     8
1070
    48
1040
-0.1
1070
    41
1040
4.5
1070
   147
1040
2.25
1070
    42
1040
1.5875
1070
    44
1040
2.0
1070
   140
1040
4.5
1002
}
1001
ACAD_DSTYLE_DIM_LINETYPE
1070
   380
1005
16
1001
ACAD_DSTYLE_DIM_EXT1_LINETYPE
1070
   381
1005
16
1001
ACAD_DSTYLE_DIM_EXT2_LINETYPE
1070
   382
1005
16
0
DIMENSION
5
1F0
100
AcDbEntity
8
SK2
62
256
6
ByLayer
370
18
48
1
60
0
100
AcDbDimension
2
_U5
10
49
20
50.57
30
0
11
74.5
21
50.57
31
0
70
32
71
1
72
1
41
1
210
0
220
0
230
1
3
Standard
100
AcDbAlignedDimension
13
100
23
21
33
0
14
49
24
21
34
0
50
0
100
AcDbRotatedDimension
1001
ACAD
1000
DSTYLE
1002
{
1070
   371
1070
    13
1070
   372
1070
    13
1070
   170
1070
     0
1070
   144
1040
1.0
1070
   277
1070
     2
1070
   284
1070
     8
1070
   278
1070
    44
1070
   146
1040
0.777778
1070
   345
1005
16
1070
   347
1005
16
1070
   346
1005
16
1070
   344
1005
0
1070
   343
1005
0
1070
   172
1070
     1
1070
    76
1070
     0
1070
    75
1070
     0
1070
   282
1070
     0
1070
   281
1070
     0
1070
    71
1070
     0
1070
    74
1070
     0
1070
   279
1070
     0
1070
   173
1070
     1
1070
   340
1005
159
1070
   271
1070
     1
1070
   272
1070
     2
1070
    77
1070
     1
1070
    73
1070
     1
1070
   171
1070
     3
1070
   274
1070
     4
1070
   177
1070
     2
1070
   176
1070
     2
1070
   178
1070
     2
1070
    78
1070
     8
1070
    48
1040
-0.1
1070
    41
1040
4.5
1070
   147
1040
2.25
1070
    42
1040
1.5875
1070
    44
1040
2.0
1070
   140
1040
4.5
1002
}
1001
ACAD_DSTYLE_DIM_LINETYPE
1070
   380
1005
16
1001
ACAD_DSTYLE_DIM_EXT1_LINETYPE
1070
   381
1005
16
1001
ACAD_DSTYLE_DIM_EXT2_LINETYPE
1070
   382
1005
16
0
DIMENSION
5
208
100
AcDbEntity
8
2
62
256
6
ByLayer
370
18
48
1
60
0
100
AcDbDimension
2
_U6
10
100
20
70.57
30
0
11
50
21
70.57
31
0
70
32
71
1
72
1
41
1
210
0
220
0
230
1
3
Standard
100
AcDbAlignedDimension
13
0
23
31.47
33
0
14
100
24
21
34
0
50
0
100
AcDbRotatedDimension
1001
ACAD
1000
DSTYLE
1002
{
1070
   371
1070
    13
1070
   372
1070
    13
1070
   170
1070
     0
1070
   144
1040
1.0
1070
   277
1070
     2
1070
   284
1070
     8
1070
   278
1070
    44
1070
   146
1040
0.777778
1070
   345
1005
16
1070
   347
1005
16
1070
   346
1005
16
1070
   344
1005
0
1070
   343
1005
0
1070
   172
1070
     1
1070
    76
1070
     0
1070
    75
1070
     0
1070
   282
1070
     0
1070
   281
1070
     0
1070
    71
1070
     0
1070
    74
1070
     0
1070
   279
1070
     0
1070
   173
1070
     1
1070
   340
1005
159
1070
   271
1070
     1
1070
   272
1070
     2
1070
    77
1070
     1
1070
    73
1070
     1
1070
   171
1070
     3
1070
   274
1070
     4
1070
   177
1070
     2
1070
   176
1070
     2
1070
   178
1070
     2
1070
    78
1070
     8
1070
    48
1040
-0.1
1070
    41
1040
4.5
1070
   147
1040
2.25
1070
    42
1040
1.5875
1070
    44
1040
2.0
1070
   140
1040
4.5
1002
}
1001
ACAD_DSTYLE_DIM_LINETYPE
1070
   380
1005
16
1001
ACAD_DSTYLE_DIM_EXT1_LINETYPE
1070
   381
1005
16
1001
ACAD_DSTYLE_DIM_EXT2_LINETYPE
1070
   382
1005
16
0
DIMENSION
5
221
100
AcDbEntity
8
SK2
62
256
6
ByLayer
370
18
48
1
60
0
100
AcDbDimension
2
_U7
10
-31.9
20
70.57
30
0
11
-15.95
21
70.57
31
0
70
32
71
1
72
1
41
1
210
0
220
0
230
1
3
Standard
100
AcDbAlignedDimension
13
0
23
22.055
33
0
14
-31.9
24
22.8
34
0
50
0
100
AcDbRotatedDimension
1001
ACAD
1000
DSTYLE
1002
{
1070
   371
1070
    13
1070
   372
1070
    13
1070
   170
1070
     0
1070
   144
1040
1.0
1070
   277
1070
     2
1070
   284
1070
     8
1070
   278
1070
    44
1070
   146
1040
0.777778
1070
   345
1005
16
1070
   347
1005
16
1070
   346
1005
16
1070
   344
1005
0
1070
   343
1005
0
1070
   172
1070
     1
1070
    76
1070
     0
1070
    75
1070
     0
1070
   282
1070
     0
1070
   281
1070
     0
1070
    71
1070
     0
1070
    74
1070
     0
1070
   279
1070
     0
1070
   173
1070
     1
1070
   340
1005
159
1070
   271
1070
     1
1070
   272
1070
     2
1070
    77
1070
     1
1070
    73
1070
     1
1070
   171
1070
     3
1070
   274
1070
     4
1070
   177
1070
     2
1070
   176
1070
     2
1070
   178
1070
     2
1070
    78
1070
     8
1070
    48
1040
-0.1
1070
    41
1040
4.5
1070
   147
1040
2.25
1070
    42
1040
1.5875
1070
    44
1040
2.0
1070
   140
1040
4.5
1002
}
1001
ACAD_DSTYLE_DIM_LINETYPE
1070
   380
1005
16
1001
ACAD_DSTYLE_DIM_EXT1_LINETYPE
1070
   381
1005
16
1001
ACAD_DSTYLE_DIM_EXT2_LINETYPE
1070
   382
1005
16
0
DIMENSION
5
239
100
AcDbEntity
8
SK2
62
256
6
ByLayer
370
18
48
1
60
0
100
AcDbDimension
2
_U8
10
26
20
50.57
30
0
11
13
21
50.57
31
0
70
32
71
1
72
1
41
1
210
0
220
0
230
1
3
Standard
100
AcDbAlignedDimension
13
0
23
22.055
33
0
14
26
24
31.47
34
0
50
0
100
AcDbRotatedDimension
1001
ACAD
1000
DSTYLE
1002
{
1070
   371
1070
    13
1070
   372
1070
    13
1070
   170
1070
     0
1070
   144
1040
1.0
1070
   277
1070
     2
1070
   284
1070
     8
1070
   278
1070
    44
1070
   146
1040
0.777778
1070
   345
1005
16
1070
   347
1005
16
1070
   346
1005
16
1070
   344
1005
0
1070
   343
1005
0
1070
   172
1070
     1
1070
    76
1070
     0
1070
    75
1070
     0
1070
   282
1070
     0
1070
   281
1070
     0
1070
    71
1070
     0
1070
    74
1070
     0
1070
   279
1070
     0
1070
   173
1070
     1
1070
   340
1005
159
1070
   271
1070
     2
1070
   272
1070
     2
1070
    77
1070
     1
1070
    73
1070
     1
1070
   171
1070
     3
1070
   274
1070
     4
1070
   177
1070
     2
1070
   176
1070
     2
1070
   178
1070
     2
1070
    78
1070
     8
1070
    48
1040
-0.1
1070
    41
1040
4.5
1070
   147
1040
2.25
1070
    42
1040
1.5875
1070
    44
1040
2.0
1070
   140
1040
4.5
1002
}
1001
ACAD_DSTYLE_DIM_LINETYPE
1070
   380
1005
16
1001
ACAD_DSTYLE_DIM_EXT1_LINETYPE
1070
   381
1005
16
1001
ACAD_DSTYLE_DIM_EXT2_LINETYPE
1070
   382
1005
16
0
ENDSEC
0
SECTION
2
OBJECTS
0
DICTIONARY
5
2c2
330
0
100
AcDbDictionary
280
0
281
1
3
ACAD_GROUP
350
2c3
3
ACAD_MLINESTYLE
350
2c4
0
DICTIONARY
5
2c3
330
0
100
AcDbDictionary
280
0
281
1
0
DICTIONARY
5
2c4
330
0
100
AcDbDictionary
280
0
281
1
3
Standard
350
18
0
MLINESTYLE
5
18
330
2c4
100
AcDbMlineStyle
2
Standard
70
0
3

62
256
51
90
52
90
71
2
49
-0.5
62
256
6
ByLayer
49
0.5
62
256
6
ByLayer
0
RASTERVARIABLES
5
2af
330

100
AcDbRasterVariables
90
0
70
1
71
1
72
1
0
ENDSEC
0
EOF
