0
SECTION
2
HEADER
9
$ACADVER
1
AC1015
9
$DWGCODEPAGE
3
ANSI_1252
9
$HANDSEED
5
288
9
$ANGBASE
50
0
9
$ANGDIR
70
0
9
$ATTMODE
70
1
9
$AUNITS
70
0
9
$AUPREC
70
0
9
$CECOLOR
62
256
9
$CELTSCALE
40
1
9
$CELTYPE
6
ByLayer
9
$CELWEIGHT
370
18
9
$CLAYER
8
0
9
$CMLJUST
70
0
9
$CMLSCALE
40
1
9
$CMLSTYLE
2
Standard
9
$DIMSTYLE
2
Standard
9
$TEXTSIZE
40
0.2
9
$TEXTSTYLE
7
Standard
9
$LUNITS
70
2
9
$LUPREC
70
4
9
$EXTNAMES
290
1
9
$INSUNITS
70
4
9
$LTSCALE
40
1
9
$LWDISPLAY
290
1
9
$PDMODE
70
0
9
$PDSIZE
40
0
9
$PLINEGEN
70
0
0
ENDSEC
0
SECTION
2
CLASSES
0
CLASS
1
RASTERVARIABLES
2
AcDbRasterVariables
3
ISM
90
0
280
0
281
0
0
ENDSEC
0
SECTION
2
TABLES
0
TABLE
2
VPORT
5
27e
100
AcDbSymbolTable
0
VPORT
5
1
100
AcDbSymbolTableRecord
100
AcDbViewportTableRecord
2
*Active
70
0
10
0
20
0
11
1
21
1
12
-1
22
1
13
0
23
0
14
0.5
24
0.5
15
10
25
10
16
0
26
0
36
1
17
0
27
0
37
0
0
ENDTAB
0
TABLE
2
LTYPE
5
27f
100
AcDbSymbolTable
0
LTYPE
5
14
100
AcDbSymbolTableRecord
100
AcDbLinetypeTableRecord
70
0
2
ByBlock
3

72
65
73
0
40
0
0
LTYPE
5
15
100
AcDbSymbolTableRecord
100
AcDbLinetypeTableRecord
70
0
2
ByLayer
3

72
65
73
0
40
0
0
LTYPE
5
16
100
AcDbSymbolTableRecord
100
AcDbLinetypeTableRecord
70
0
2
Continuous
3
Solid line
72
65
73
0
40
0
0
LTYPE
5
6E
100
AcDbSymbolTableRecord
100
AcDbLinetypeTableRecord
70
0
2
CENTER
3
____ _ ____ _ ____ _ ____
72
65
73
4
40
47.5
49
22
74
0
49
-8.5
74
0
49
8.5
74
0
49
-8.5
74
0
0
LTYPE
5
6F
100
AcDbSymbolTableRecord
100
AcDbLinetypeTableRecord
70
0
2
DASHED
3
__ __ __ __ __ __ __ __ __
72
65
73
2
40
25.72
49
12.86
74
0
49
-12.86
74
0
0
ENDTAB
0
TABLE
2
LAYER
5
280
100
AcDbSymbolTable
0
LAYER
5
10
100
AcDbSymbolTableRecord
100
AcDbLayerTableRecord
2
0
70
0
62
7
6
Continuous
290
1
370
-3
390
0
0
LAYER
5
71
100
AcDbSymbolTableRecord
100
AcDbLayerTableRecord
2
80
70
0
62
-6
6
Continuous
290
1
370
-3
390
0
0
LAYER
5
73
100
AcDbSymbolTableRecord
100
AcDbLayerTableRecord
2
81
70
0
62
-3
6
Continuous
290
1
370
-3
390
0
0
LAYER
5
75
100
AcDbSymbolTableRecord
100
AcDbLayerTableRecord
2
1
70
0
62
4
6
Continuous
290
1
370
-3
390
0
0
LAYER
5
EB
100
AcDbSymbolTableRecord
100
AcDbLayerTableRecord
2
4
70
0
62
-2
6
CENTER
290
1
370
-3
390
0
0
LAYER
5
160
100
AcDbSymbolTableRecord
100
AcDbLayerTableRecord
2
Defpoints
70
0
62
7
6
Continuous
290
0
370
-3
390
0
0
LAYER
5
1D0
100
AcDbSymbolTableRecord
100
AcDbLayerTableRecord
2
2
70
0
62
7
6
Continuous
290
1
370
-3
390
0
0
LAYER
5
269
100
AcDbSymbolTableRecord
100
AcDbLayerTableRecord
2
SK1
70
0
62
4
6
Continuous
290
1
370
-3
390
0
0
LAYER
5
26a
100
AcDbSymbolTableRecord
100
AcDbLayerTableRecord
2
SK4
70
0
62
2
6
CENTER
290
1
370
-3
390
0
0
LAYER
5
26b
100
AcDbSymbolTableRecord
100
AcDbLayerTableRecord
2
SK3
70
0
62
1
6
DASHED
290
1
370
-3
390
0
0
LAYER
5
26c
100
AcDbSymbolTableRecord
100
AcDbLayerTableRecord
2
SK2
70
0
62
7
6
Continuous
290
1
370
-3
390
0
0
LAYER
5
26d
100
AcDbSymbolTableRecord
100
AcDbLayerTableRecord
2
SK6
70
0
62
5
6
Continuous
290
1
370
-3
390
0
0
ENDTAB
0
TABLE
2
STYLE
5
281
100
AcDbSymbolTable
0
STYLE
5
11
100
AcDbSymbolTableRecord
100
AcDbTextStyleTableRecord
2
Standard
3
txt
70
0
71
0
40
0
41
1
42
0
50
0
0
STYLE
5
144
100
AcDbSymbolTableRecord
100
AcDbTextStyleTableRecord
2
iso_b_vert
3
simplex.shx
70
0
71
0
40
0
41
1
42
0
50
0
0
STYLE
5
145
100
AcDbSymbolTableRecord
100
AcDbTextStyleTableRecord
2
DWGDirectTextStyle
3
simplex
70
0
71
0
40
0
41
1
42
0
50
0
0
ENDTAB
0
TABLE
2
DIMSTYLE
5
282
100
AcDbSymbolTable
100
AcDbDimStyleTable
0
DIMSTYLE
105
27
100
AcDbSymbolTableRecord
100
AcDbDimStyleTableRecord
2
Standard
70
0
3
<>
41
0.18
42
0.0625
44
0.18
140
0.18
147
0.09
73
0
74
0
77
1
271
2
275
0
278
52
280
0
340
11
0
ENDTAB
0
TABLE
2
VIEW
5
283
100
AcDbSymbolTable
0
ENDTAB
0
TABLE
2
UCS
5
284
100
AcDbSymbolTable
0
ENDTAB
0
TABLE
2
APPID
5
285
100
AcDbSymbolTable
0
APPID
5
12
100
AcDbSymbolTableRecord
100
AcDbRegAppTableRecord
2
ACAD
70
0
0
APPID
5
15C
100
AcDbSymbolTableRecord
100
AcDbRegAppTableRecord
2
ACAD_DSTYLE_DIMBREAK
70
0
0
APPID
5
228
100
AcDbSymbolTableRecord
100
AcDbRegAppTableRecord
2
ACAD_DSTYLE_DIM_LINETYPE
70
0
0
APPID
5
229
100
AcDbSymbolTableRecord
100
AcDbRegAppTableRecord
2
ACAD_DSTYLE_DIM_EXT1_LINETYPE
70
0
0
APPID
5
22A
100
AcDbSymbolTableRecord
100
AcDbRegAppTableRecord
2
ACAD_DSTYLE_DIM_EXT2_LINETYPE
70
0
0
APPID
5
265
100
AcDbSymbolTableRecord
100
AcDbRegAppTableRecord
2
ACAD_MLEADERVER
70
0
0
ENDTAB
0
TABLE
2
BLOCK_RECORD
5
286
100
AcDbSymbolTable
0
BLOCK_RECORD
5
1F
100
AcDbSymbolTableRecord
100
AcDbBlockTableRecord
2
*Model_Space
340
0
70
0
0
BLOCK_RECORD
5
1B
100
AcDbSymbolTableRecord
100
AcDbBlockTableRecord
2
*Paper_Space
340
0
70
0
0
BLOCK_RECORD
5
23
100
AcDbSymbolTableRecord
100
AcDbBlockTableRecord
2
*Paper_Space0
340
0
70
0
0
BLOCK_RECORD
5
153
100
AcDbSymbolTableRecord
100
AcDbBlockTableRecord
2
LABLE3D_1
340
0
70
0
0
BLOCK_RECORD
5
161
100
AcDbSymbolTableRecord
100
AcDbBlockTableRecord
2
*D2
340
0
70
0
0
BLOCK_RECORD
5
16D
100
AcDbSymbolTableRecord
100
AcDbBlockTableRecord
2
_U0
340
0
70
0
0
BLOCK_RECORD
5
17A
100
AcDbSymbolTableRecord
100
AcDbBlockTableRecord
2
*D4
340
0
70
0
0
BLOCK_RECORD
5
186
100
AcDbSymbolTableRecord
100
AcDbBlockTableRecord
2
_U1
340
0
70
0
0
BLOCK_RECORD
5
193
100
AcDbSymbolTableRecord
100
AcDbBlockTableRecord
2
*D6
340
0
70
0
0
BLOCK_RECORD
5
19F
100
AcDbSymbolTableRecord
100
AcDbBlockTableRecord
2
_U2
340
0
70
0
0
BLOCK_RECORD
5
1AB
100
AcDbSymbolTableRecord
100
AcDbBlockTableRecord
2
*D8
340
0
70
0
0
BLOCK_RECORD
5
1B8
100
AcDbSymbolTableRecord
100
AcDbBlockTableRecord
2
_U3
340
0
70
0
0
BLOCK_RECORD
5
1C4
100
AcDbSymbolTableRecord
100
AcDbBlockTableRecord
2
*D10
340
0
70
0
0
BLOCK_RECORD
5
1D1
100
AcDbSymbolTableRecord
100
AcDbBlockTableRecord
2
_U4
340
0
70
0
0
BLOCK_RECORD
5
1DD
100
AcDbSymbolTableRecord
100
AcDbBlockTableRecord
2
*D12
340
0
70
0
0
BLOCK_RECORD
5
1E9
100
AcDbSymbolTableRecord
100
AcDbBlockTableRecord
2
_U5
340
0
70
0
0
BLOCK_RECORD
5
1F5
100
AcDbSymbolTableRecord
100
AcDbBlockTableRecord
2
*D14
340
0
70
0
0
BLOCK_RECORD
5
201
100
AcDbSymbolTableRecord
100
AcDbBlockTableRecord
2
_U6
340
0
70
0
0
ENDTAB
0
ENDSEC
0
SECTION
2
BLOCKS
0
BLOCK
5
20
100
AcDbEntity
8
0
100
AcDbBlockBegin
2
*Model_Space
70
0
10
0
20
0
30
0
3
*Model_Space
0
ENDBLK
5
21
100
AcDbEntity
8
0
100
AcDbBlockEnd
0
BLOCK
5
1C
100
AcDbEntity
8
0
100
AcDbBlockBegin
2
*Paper_Space
70
0
10
0
20
0
30
0
3
*Paper_Space
0
ENDBLK
5
1D
100
AcDbEntity
8
0
100
AcDbBlockEnd
0
BLOCK
5
24
100
AcDbEntity
8
0
100
AcDbBlockBegin
2
*Paper_Space0
70
0
10
0
20
0
30
0
3
*Paper_Space0
0
ENDBLK
5
25
100
AcDbEntity
8
0
100
AcDbBlockEnd
0
BLOCK
5
15A
100
AcDbEntity
8
0
100
AcDbBlockBegin
2
LABLE3D_1
70
0
10
-42.4
20
49.97
30
0
3
LABLE3D_1
0
MTEXT
5
158
100
AcDbEntity
8
SK6
62
256
6
ByLayer
370
18
48
1
60
0
100
AcDbMText
10
-43.7145
20
47.502634
30
0
210
0
220
0
230
1
1
\W1.0000;
40
3.5
41
0
44
1.084337
50
0
71
7
72
5
7
iso_b_vert
0
ENDBLK
5
15B
100
AcDbEntity
8
0
100
AcDbBlockEnd
0
BLOCK
5
162
100
AcDbEntity
8
0
100
AcDbBlockBegin
2
*D2
70
1
10
0
20
0
30
0
3
*D2
0
LINE
5
164
100
AcDbEntity
8
0
62
256
6
ByLayer
370
-2
48
1
60
0
100
AcDbLine
10
111.5875
20
-25
30
0
11
186.25
21
-25
31
0
39
0
210
0
220
0
230
1
0
LINE
5
165
100
AcDbEntity
8
0
62
256
6
ByLayer
370
-2
48
1
60
0
100
AcDbLine
10
111.5875
20
25
30
0
11
186.25
21
25
31
0
39
0
210
0
220
0
230
1
0
LINE
5
166
100
AcDbEntity
8
0
62
256
6
ByLayer
370
-2
48
1
60
0
100
AcDbLine
10
184.25
20
-20.5
30
0
11
184.25
21
20.5
31
0
39
0
210
0
220
0
230
1
0
SOLID
5
167
100
AcDbEntity
8
0
62
256
6
ByLayer
370
-1
48
1
60
0
100
AcDbTrace
10
183.5
20
-20.5
30
0
11
185
21
-20.5
31
0
12
184.25
22
-25
32
0
13
184.25
23
-25
33
0
39
0
210
0
220
0
230
1
0
SOLID
5
168
100
AcDbEntity
8
0
62
256
6
ByLayer
370
-1
48
1
60
0
100
AcDbTrace
10
185
20
20.5
30
0
11
183.5
21
20.5
31
0
12
184.25
22
25
32
0
13
184.25
23
25
33
0
39
0
210
0
220
0
230
1
0
MTEXT
5
169
100
AcDbEntity
8
0
62
256
6
ByLayer
370
18
48
1
60
0
100
AcDbMText
10
175.25
20
0
30
0
210
0
220
0
230
1
1
\A1;50
40
4.5
41
0
44
1
50
90
71
5
72
5
7
iso_b_vert
0
POINT
5
16A
100
AcDbEntity
8
Defpoints
62
0
6
ByLayer
370
-1
48
1
60
0
100
AcDbPoint
10
110
20
-25
30
0
39
0
210
0
220
0
230
1
50
360
0
POINT
5
16B
100
AcDbEntity
8
Defpoints
62
0
6
ByLayer
370
-1
48
1
60
0
100
AcDbPoint
10
110
20
25
30
0
39
0
210
0
220
0
230
1
50
360
0
POINT
5
16C
100
AcDbEntity
8
Defpoints
62
0
6
ByLayer
370
-1
48
1
60
0
100
AcDbPoint
10
184.25
20
25
30
0
39
0
210
0
220
0
230
1
50
360
0
ENDBLK
5
163
100
AcDbEntity
8
0
100
AcDbBlockEnd
0
BLOCK
5
175
100
AcDbEntity
8
0
100
AcDbBlockBegin
2
_U0
70
0
10
0
20
0
30
0
3
_U0
0
MTEXT
5
16E
100
AcDbEntity
8
SK2
62
256
6
ByLayer
370
18
48
1
60
0
100
AcDbMText
10
182.185366
20
-7.780242
30
0
210
0
220
0
230
1
1
%%c
40
3.5
41
0
44
1.084337
50
90
71
7
72
5
7
iso_b_vert
0
MTEXT
5
16F
100
AcDbEntity
8
SK2
62
256
6
ByLayer
370
18
48
1
60
0
100
AcDbMText
10
182.488328
20
2.764758
30
0
210
0
220
0
230
1
1
\W0.6740;50
40
4.5
41
0
44
1.084337
50
90
71
7
72
5
7
iso_b_vert
0
LINE
5
170
100
AcDbEntity
8
SK2
62
256
6
ByLayer
370
13
48
1
60
0
100
AcDbLine
10
111.5875
20
-25
30
0
11
186.25
21
-25
31
0
39
0
210
0
220
0
230
1
0
LINE
5
171
100
AcDbEntity
8
SK2
62
256
6
ByLayer
370
13
48
1
60
0
100
AcDbLine
10
111.5875
20
25
30
0
11
186.25
21
25
31
0
39
0
210
0
220
0
230
1
0
LINE
5
172
100
AcDbEntity
8
SK2
62
256
6
ByLayer
370
13
48
1
60
0
100
AcDbLine
10
184.25
20
-25
30
0
11
184.25
21
25
31
0
39
0
210
0
220
0
230
1
0
SOLID
5
173
100
AcDbEntity
8
SK2
62
256
6
ByLayer
370
18
48
1
60
0
100
AcDbTrace
10
184.25
20
-25
30
0
11
183.252374
21
-20.500004
31
0
12
185.247626
22
-20.499996
32
0
13
185.247626
23
-20.499996
33
0
39
0
210
0
220
0
230
1
0
SOLID
5
174
100
AcDbEntity
8
SK2
62
256
6
ByLayer
370
18
48
1
60
0
100
AcDbTrace
10
184.25
20
25
30
0
11
185.247626
21
20.500004
31
0
12
183.252374
22
20.499996
32
0
13
183.252374
23
20.499996
33
0
39
0
210
0
220
0
230
1
0
ENDBLK
5
176
100
AcDbEntity
8
0
100
AcDbBlockEnd
0
BLOCK
5
17B
100
AcDbEntity
8
0
100
AcDbBlockBegin
2
*D4
70
1
10
0
20
0
30
0
3
*D4
0
LINE
5
17D
100
AcDbEntity
8
0
62
256
6
ByLayer
370
-2
48
1
60
0
100
AcDbLine
10
111.5875
20
12.5
30
0
11
164.25
21
12.5
31
0
39
0
210
0
220
0
230
1
0
LINE
5
17E
100
AcDbEntity
8
0
62
256
6
ByLayer
370
-2
48
1
60
0
100
AcDbLine
10
111.5875
20
-12.5
30
0
11
164.25
21
-12.5
31
0
39
0
210
0
220
0
230
1
0
LINE
5
17F
100
AcDbEntity
8
0
62
256
6
ByLayer
370
-2
48
1
60
0
100
AcDbLine
10
162.25
20
8
30
0
11
162.25
21
-8
31
0
39
0
210
0
220
0
230
1
0
SOLID
5
180
100
AcDbEntity
8
0
62
256
6
ByLayer
370
-1
48
1
60
0
100
AcDbTrace
10
163
20
8
30
0
11
161.5
21
8
31
0
12
162.25
22
12.5
32
0
13
162.25
23
12.5
33
0
39
0
210
0
220
0
230
1
0
SOLID
5
181
100
AcDbEntity
8
0
62
256
6
ByLayer
370
-1
48
1
60
0
100
AcDbTrace
10
161.5
20
-8
30
0
11
163
21
-8
31
0
12
162.25
22
-12.5
32
0
13
162.25
23
-12.5
33
0
39
0
210
0
220
0
230
1
0
MTEXT
5
182
100
AcDbEntity
8
0
62
256
6
ByLayer
370
18
48
1
60
0
100
AcDbMText
10
153.25
20
0
30
0
210
0
220
0
230
1
1
\A1;25
40
4.5
41
0
44
1
50
90
71
5
72
5
7
iso_b_vert
0
POINT
5
183
100
AcDbEntity
8
Defpoints
62
0
6
ByLayer
370
-1
48
1
60
0
100
AcDbPoint
10
110
20
12.5
30
0
39
0
210
0
220
0
230
1
50
360
0
POINT
5
184
100
AcDbEntity
8
Defpoints
62
0
6
ByLayer
370
-1
48
1
60
0
100
AcDbPoint
10
110
20
-12.5
30
0
39
0
210
0
220
0
230
1
50
360
0
POINT
5
185
100
AcDbEntity
8
Defpoints
62
0
6
ByLayer
370
-1
48
1
60
0
100
AcDbPoint
10
162.25
20
-12.5
30
0
39
0
210
0
220
0
230
1
50
360
0
ENDBLK
5
17C
100
AcDbEntity
8
0
100
AcDbBlockEnd
0
BLOCK
5
18E
100
AcDbEntity
8
0
100
AcDbBlockBegin
2
_U1
70
0
10
0
20
0
30
0
3
_U1
0
MTEXT
5
187
100
AcDbEntity
8
SK2
62
256
6
ByLayer
370
18
48
1
60
0
100
AcDbMText
10
160.185366
20
-7.780242
30
0
210
0
220
0
230
1
1
%%c
40
3.5
41
0
44
1.084337
50
90
71
7
72
5
7
iso_b_vert
0
MTEXT
5
188
100
AcDbEntity
8
SK2
62
256
6
ByLayer
370
18
48
1
60
0
100
AcDbMText
10
160.488328
20
2.764758
30
0
210
0
220
0
230
1
1
\W0.6740;25
40
4.5
41
0
44
1.084337
50
90
71
7
72
5
7
iso_b_vert
0
LINE
5
189
100
AcDbEntity
8
SK2
62
256
6
ByLayer
370
13
48
1
60
0
100
AcDbLine
10
111.5875
20
12.5
30
0
11
164.25
21
12.5
31
0
39
0
210
0
220
0
230
1
0
LINE
5
18A
100
AcDbEntity
8
SK2
62
256
6
ByLayer
370
13
48
1
60
0
100
AcDbLine
10
111.5875
20
-12.5
30
0
11
164.25
21
-12.5
31
0
39
0
210
0
220
0
230
1
0
LINE
5
18B
100
AcDbEntity
8
SK2
62
256
6
ByLayer
370
13
48
1
60
0
100
AcDbLine
10
162.25
20
23.75
30
0
11
162.25
21
-23.75
31
0
39
0
210
0
220
0
230
1
0
SOLID
5
18C
100
AcDbEntity
8
SK2
62
256
6
ByLayer
370
18
48
1
60
0
100
AcDbTrace
10
162.25
20
12.5
30
0
11
161.252374
21
16.999996
31
0
12
163.247626
22
17.000004
32
0
13
163.247626
23
17.000004
33
0
39
0
210
0
220
0
230
1
0
SOLID
5
18D
100
AcDbEntity
8
SK2
62
256
6
ByLayer
370
18
48
1
60
0
100
AcDbTrace
10
162.25
20
-12.5
30
0
11
163.247626
21
-16.999996
31
0
12
161.252374
22
-17.000004
32
0
13
161.252374
23
-17.000004
33
0
39
0
210
0
220
0
230
1
0
ENDBLK
5
18F
100
AcDbEntity
8
0
100
AcDbBlockEnd
0
BLOCK
5
194
100
AcDbEntity
8
0
100
AcDbBlockBegin
2
*D6
70
1
10
0
20
0
30
0
3
*D6
0
LINE
5
196
100
AcDbEntity
8
0
62
256
6
ByLayer
370
-2
48
1
60
0
100
AcDbLine
10
53
20
-14.0875
30
0
11
53
21
-60.57
31
0
39
0
210
0
220
0
230
1
0
LINE
5
197
100
AcDbEntity
8
0
62
256
6
ByLayer
370
-2
48
1
60
0
100
AcDbLine
10
110
20
-14.0875
30
0
11
110
21
-60.57
31
0
39
0
210
0
220
0
230
1
0
LINE
5
198
100
AcDbEntity
8
0
62
256
6
ByLayer
370
-2
48
1
60
0
100
AcDbLine
10
57.5
20
-58.57
30
0
11
105.5
21
-58.57
31
0
39
0
210
0
220
0
230
1
0
SOLID
5
199
100
AcDbEntity
8
0
62
256
6
ByLayer
370
-1
48
1
60
0
100
AcDbTrace
10
57.5
20
-57.82
30
0
11
57.5
21
-59.32
31
0
12
53
22
-58.57
32
0
13
53
23
-58.57
33
0
39
0
210
0
220
0
230
1
0
SOLID
5
19A
100
AcDbEntity
8
0
62
256
6
ByLayer
370
-1
48
1
60
0
100
AcDbTrace
10
105.5
20
-59.32
30
0
11
105.5
21
-57.82
31
0
12
110
22
-58.57
32
0
13
110
23
-58.57
33
0
39
0
210
0
220
0
230
1
0
MTEXT
5
19B
100
AcDbEntity
8
0
62
256
6
ByLayer
370
18
48
1
60
0
100
AcDbMText
10
81.5
20
-49.57
30
0
210
0
220
0
230
1
1
\A1;57
40
4.5
41
0
44
1
50
0
71
5
72
5
7
iso_b_vert
0
POINT
5
19C
100
AcDbEntity
8
Defpoints
62
0
6
ByLayer
370
-1
48
1
60
0
100
AcDbPoint
10
53
20
-12.5
30
0
39
0
210
0
220
0
230
1
50
360
0
POINT
5
19D
100
AcDbEntity
8
Defpoints
62
0
6
ByLayer
370
-1
48
1
60
0
100
AcDbPoint
10
110
20
-12.5
30
0
39
0
210
0
220
0
230
1
50
360
0
POINT
5
19E
100
AcDbEntity
8
Defpoints
62
0
6
ByLayer
370
-1
48
1
60
0
100
AcDbPoint
10
110
20
-58.57
30
0
39
0
210
0
220
0
230
1
50
360
0
ENDBLK
5
195
100
AcDbEntity
8
0
100
AcDbBlockEnd
0
BLOCK
5
1A6
100
AcDbEntity
8
0
100
AcDbBlockBegin
2
_U2
70
0
10
0
20
0
30
0
3
_U2
0
MTEXT
5
1A0
100
AcDbEntity
8
SK2
62
256
6
ByLayer
370
18
48
1
60
0
100
AcDbMText
10
60.614389
20
-57.242328
30
0
210
0
220
0
230
1
1
\W0.7346;min 47-max 57
40
4.5
41
0
44
1.084337
50
0
71
7
72
5
7
iso_b_vert
0
LINE
5
1A1
100
AcDbEntity
8
SK2
62
256
6
ByLayer
370
13
48
1
60
0
100
AcDbLine
10
53
20
-14.0875
30
0
11
53
21
-60.57
31
0
39
0
210
0
220
0
230
1
0
LINE
5
1A2
100
AcDbEntity
8
SK2
62
256
6
ByLayer
370
13
48
1
60
0
100
AcDbLine
10
110
20
-14.0875
30
0
11
110
21
-60.57
31
0
39
0
210
0
220
0
230
1
0
LINE
5
1A3
100
AcDbEntity
8
SK2
62
256
6
ByLayer
370
13
48
1
60
0
100
AcDbLine
10
53
20
-58.57
30
0
11
110
21
-58.57
31
0
39
0
210
0
220
0
230
1
0
SOLID
5
1A4
100
AcDbEntity
8
SK2
62
256
6
ByLayer
370
18
48
1
60
0
100
AcDbTrace
10
53
20
-58.57
30
0
11
57.499996
21
-57.572374
31
0
12
57.500004
22
-59.567626
32
0
13
57.500004
23
-59.567626
33
0
39
0
210
0
220
0
230
1
0
SOLID
5
1A5
100
AcDbEntity
8
SK2
62
256
6
ByLayer
370
18
48
1
60
0
100
AcDbTrace
10
110
20
-58.57
30
0
11
105.500004
21
-59.567626
31
0
12
105.499996
22
-57.572374
32
0
13
105.499996
23
-57.572374
33
0
39
0
210
0
220
0
230
1
0
ENDBLK
5
1A7
100
AcDbEntity
8
0
100
AcDbBlockEnd
0
BLOCK
5
1AC
100
AcDbEntity
8
0
100
AcDbBlockBegin
2
*D8
70
1
10
0
20
0
30
0
3
*D8
0
LINE
5
1AE
100
AcDbEntity
8
0
62
256
6
ByLayer
370
-2
48
1
60
0
100
AcDbLine
10
97.1
20
-26.5875
30
0
11
97.1
21
-50.57
31
0
39
0
210
0
220
0
230
1
0
LINE
5
1AF
100
AcDbEntity
8
0
62
256
6
ByLayer
370
-2
48
1
60
0
100
AcDbLine
10
110
20
-26.5875
30
0
11
110
21
-50.57
31
0
39
0
210
0
220
0
230
1
0
LINE
5
1B0
100
AcDbEntity
8
0
62
256
6
ByLayer
370
-2
48
1
60
0
100
AcDbLine
10
92.6
20
-48.57
30
0
11
88.1
21
-48.57
31
0
39
0
210
0
220
0
230
1
0
LINE
5
1B1
100
AcDbEntity
8
0
62
256
6
ByLayer
370
-2
48
1
60
0
100
AcDbLine
10
114.5
20
-48.57
30
0
11
119
21
-48.57
31
0
39
0
210
0
220
0
230
1
0
SOLID
5
1B2
100
AcDbEntity
8
0
62
256
6
ByLayer
370
-1
48
1
60
0
100
AcDbTrace
10
92.6
20
-49.32
30
0
11
92.6
21
-47.82
31
0
12
97.1
22
-48.57
32
0
13
97.1
23
-48.57
33
0
39
0
210
0
220
0
230
1
0
SOLID
5
1B3
100
AcDbEntity
8
0
62
256
6
ByLayer
370
-1
48
1
60
0
100
AcDbTrace
10
114.5
20
-47.82
30
0
11
114.5
21
-49.32
31
0
12
110
22
-48.57
32
0
13
110
23
-48.57
33
0
39
0
210
0
220
0
230
1
0
MTEXT
5
1B4
100
AcDbEntity
8
0
62
256
6
ByLayer
370
18
48
1
60
0
100
AcDbMText
10
103.55
20
-39.57
30
0
210
0
220
0
230
1
1
\A1;12.9
40
4.5
41
0
44
1
50
0
71
5
72
5
7
iso_b_vert
0
POINT
5
1B5
100
AcDbEntity
8
Defpoints
62
0
6
ByLayer
370
-1
48
1
60
0
100
AcDbPoint
10
97.1
20
-25
30
0
39
0
210
0
220
0
230
1
50
360
0
POINT
5
1B6
100
AcDbEntity
8
Defpoints
62
0
6
ByLayer
370
-1
48
1
60
0
100
AcDbPoint
10
110
20
-25
30
0
39
0
210
0
220
0
230
1
50
360
0
POINT
5
1B7
100
AcDbEntity
8
Defpoints
62
0
6
ByLayer
370
-1
48
1
60
0
100
AcDbPoint
10
110
20
-48.57
30
0
39
0
210
0
220
0
230
1
50
360
0
ENDBLK
5
1AD
100
AcDbEntity
8
0
100
AcDbBlockEnd
0
BLOCK
5
1BF
100
AcDbEntity
8
0
100
AcDbBlockBegin
2
_U3
70
0
10
0
20
0
30
0
3
_U3
0
MTEXT
5
1B9
100
AcDbEntity
8
SK2
62
256
6
ByLayer
370
18
48
1
60
0
100
AcDbMText
10
99.188687
20
-47.242328
30
0
210
0
220
0
230
1
1
\W0.6463;12,9
40
4.5
41
0
44
1.084337
50
0
71
7
72
5
7
iso_b_vert
0
LINE
5
1BA
100
AcDbEntity
8
SK2
62
256
6
ByLayer
370
13
48
1
60
0
100
AcDbLine
10
97.1
20
-26.5875
30
0
11
97.1
21
-50.57
31
0
39
0
210
0
220
0
230
1
0
LINE
5
1BB
100
AcDbEntity
8
SK2
62
256
6
ByLayer
370
13
48
1
60
0
100
AcDbLine
10
110
20
-26.5875
30
0
11
110
21
-50.57
31
0
39
0
210
0
220
0
230
1
0
LINE
5
1BC
100
AcDbEntity
8
SK2
62
256
6
ByLayer
370
13
48
1
60
0
100
AcDbLine
10
85.85
20
-48.57
30
0
11
121.25
21
-48.57
31
0
39
0
210
0
220
0
230
1
0
SOLID
5
1BD
100
AcDbEntity
8
SK2
62
256
6
ByLayer
370
18
48
1
60
0
100
AcDbTrace
10
97.1
20
-48.57
30
0
11
92.600004
21
-49.567626
31
0
12
92.599996
22
-47.572374
32
0
13
92.599996
23
-47.572374
33
0
39
0
210
0
220
0
230
1
0
SOLID
5
1BE
100
AcDbEntity
8
SK2
62
256
6
ByLayer
370
18
48
1
60
0
100
AcDbTrace
10
110
20
-48.57
30
0
11
114.499996
21
-47.572374
31
0
12
114.500004
22
-49.567626
32
0
13
114.500004
23
-49.567626
33
0
39
0
210
0
220
0
230
1
0
ENDBLK
5
1C0
100
AcDbEntity
8
0
100
AcDbBlockEnd
0
BLOCK
5
1C5
100
AcDbEntity
8
0
100
AcDbBlockBegin
2
*D10
70
1
10
0
20
0
30
0
3
*D10
0
LINE
5
1C7
100
AcDbEntity
8
0
62
256
6
ByLayer
370
-2
48
1
60
0
100
AcDbLine
10
0
20
41.5575
30
0
11
0
21
81.07
31
0
39
0
210
0
220
0
230
1
0
LINE
5
1C8
100
AcDbEntity
8
0
62
256
6
ByLayer
370
-2
48
1
60
0
100
AcDbLine
10
110
20
26.5875
30
0
11
110
21
81.07
31
0
39
0
210
0
220
0
230
1
0
LINE
5
1C9
100
AcDbEntity
8
0
62
256
6
ByLayer
370
-2
48
1
60
0
100
AcDbLine
10
4.5
20
79.07
30
0
11
105.5
21
79.07
31
0
39
0
210
0
220
0
230
1
0
SOLID
5
1CA
100
AcDbEntity
8
0
62
256
6
ByLayer
370
-1
48
1
60
0
100
AcDbTrace
10
4.5
20
79.82
30
0
11
4.5
21
78.32
31
0
12
0
22
79.07
32
0
13
0
23
79.07
33
0
39
0
210
0
220
0
230
1
0
SOLID
5
1CB
100
AcDbEntity
8
0
62
256
6
ByLayer
370
-1
48
1
60
0
100
AcDbTrace
10
105.5
20
78.32
30
0
11
105.5
21
79.82
31
0
12
110
22
79.07
32
0
13
110
23
79.07
33
0
39
0
210
0
220
0
230
1
0
MTEXT
5
1CC
100
AcDbEntity
8
0
62
256
6
ByLayer
370
18
48
1
60
0
100
AcDbMText
10
55
20
88.07
30
0
210
0
220
0
230
1
1
\A1;110
40
4.5
41
0
44
1
50
0
71
5
72
5
7
iso_b_vert
0
POINT
5
1CD
100
AcDbEntity
8
Defpoints
62
0
6
ByLayer
370
-1
48
1
60
0
100
AcDbPoint
10
0
20
39.97
30
0
39
0
210
0
220
0
230
1
50
360
0
POINT
5
1CE
100
AcDbEntity
8
Defpoints
62
0
6
ByLayer
370
-1
48
1
60
0
100
AcDbPoint
10
110
20
25
30
0
39
0
210
0
220
0
230
1
50
360
0
POINT
5
1CF
100
AcDbEntity
8
Defpoints
62
0
6
ByLayer
370
-1
48
1
60
0
100
AcDbPoint
10
110
20
79.07
30
0
39
0
210
0
220
0
230
1
50
360
0
ENDBLK
5
1C6
100
AcDbEntity
8
0
100
AcDbBlockEnd
0
BLOCK
5
1D8
100
AcDbEntity
8
0
100
AcDbBlockBegin
2
_U4
70
0
10
0
20
0
30
0
3
_U4
0
MTEXT
5
1D2
100
AcDbEntity
8
2
62
256
6
ByLayer
370
18
48
1
60
0
100
AcDbMText
10
51.994215
20
80.397672
30
0
210
0
220
0
230
1
1
\W0.5296;110
40
4.5
41
0
44
1.084337
50
0
71
7
72
5
7
iso_b_vert
0
LINE
5
1D3
100
AcDbEntity
8
2
62
256
6
ByLayer
370
13
48
1
60
0
100
AcDbLine
10
0
20
41.5575
30
0
11
0
21
81.07
31
0
39
0
210
0
220
0
230
1
0
LINE
5
1D4
100
AcDbEntity
8
2
62
256
6
ByLayer
370
13
48
1
60
0
100
AcDbLine
10
110
20
26.5875
30
0
11
110
21
81.07
31
0
39
0
210
0
220
0
230
1
0
LINE
5
1D5
100
AcDbEntity
8
2
62
256
6
ByLayer
370
13
48
1
60
0
100
AcDbLine
10
0
20
79.07
30
0
11
110
21
79.07
31
0
39
0
210
0
220
0
230
1
0
SOLID
5
1D6
100
AcDbEntity
8
2
62
256
6
ByLayer
370
18
48
1
60
0
100
AcDbTrace
10
0
20
79.07
30
0
11
4.499996
21
80.067626
31
0
12
4.500004
22
78.072374
32
0
13
4.500004
23
78.072374
33
0
39
0
210
0
220
0
230
1
0
SOLID
5
1D7
100
AcDbEntity
8
2
62
256
6
ByLayer
370
18
48
1
60
0
100
AcDbTrace
10
110
20
79.07
30
0
11
105.500004
21
78.072374
31
0
12
105.499996
22
80.067626
32
0
13
105.499996
23
80.067626
33
0
39
0
210
0
220
0
230
1
0
ENDBLK
5
1D9
100
AcDbEntity
8
0
100
AcDbBlockEnd
0
BLOCK
5
1DE
100
AcDbEntity
8
0
100
AcDbBlockBegin
2
*D12
70
1
10
0
20
0
30
0
3
*D12
0
LINE
5
1E0
100
AcDbEntity
8
0
62
256
6
ByLayer
370
-2
48
1
60
0
100
AcDbLine
10
0
20
23.6425
30
0
11
0
21
81.07
31
0
39
0
210
0
220
0
230
1
0
LINE
5
1E1
100
AcDbEntity
8
0
62
256
6
ByLayer
370
-2
48
1
60
0
100
AcDbLine
10
-39.9
20
30.7875
30
0
11
-39.9
21
81.07
31
0
39
0
210
0
220
0
230
1
0
LINE
5
1E2
100
AcDbEntity
8
0
62
256
6
ByLayer
370
-2
48
1
60
0
100
AcDbLine
10
-4.5
20
79.07
30
0
11
-35.4
21
79.07
31
0
39
0
210
0
220
0
230
1
0
SOLID
5
1E3
100
AcDbEntity
8
0
62
256
6
ByLayer
370
-1
48
1
60
0
100
AcDbTrace
10
-4.5
20
78.32
30
0
11
-4.5
21
79.82
31
0
12
0
22
79.07
32
0
13
0
23
79.07
33
0
39
0
210
0
220
0
230
1
0
SOLID
5
1E4
100
AcDbEntity
8
0
62
256
6
ByLayer
370
-1
48
1
60
0
100
AcDbTrace
10
-35.4
20
79.82
30
0
11
-35.4
21
78.32
31
0
12
-39.9
22
79.07
32
0
13
-39.9
23
79.07
33
0
39
0
210
0
220
0
230
1
0
MTEXT
5
1E5
100
AcDbEntity
8
0
62
256
6
ByLayer
370
18
48
1
60
0
100
AcDbMText
10
-19.95
20
88.07
30
0
210
0
220
0
230
1
1
\A1;39.9
40
4.5
41
0
44
1
50
0
71
5
72
5
7
iso_b_vert
0
POINT
5
1E6
100
AcDbEntity
8
Defpoints
62
0
6
ByLayer
370
-1
48
1
60
0
100
AcDbPoint
10
0
20
22.055
30
0
39
0
210
0
220
0
230
1
50
360
0
POINT
5
1E7
100
AcDbEntity
8
Defpoints
62
0
6
ByLayer
370
-1
48
1
60
0
100
AcDbPoint
10
-39.9
20
29.2
30
0
39
0
210
0
220
0
230
1
50
360
0
POINT
5
1E8
100
AcDbEntity
8
Defpoints
62
0
6
ByLayer
370
-1
48
1
60
0
100
AcDbPoint
10
-39.9
20
79.07
30
0
39
0
210
0
220
0
230
1
50
360
0
ENDBLK
5
1DF
100
AcDbEntity
8
0
100
AcDbBlockEnd
0
BLOCK
5
1F0
100
AcDbEntity
8
0
100
AcDbBlockBegin
2
_U5
70
0
10
0
20
0
30
0
3
_U5
0
MTEXT
5
1EA
100
AcDbEntity
8
SK2
62
256
6
ByLayer
370
18
48
1
60
0
100
AcDbMText
10
-24.873727
20
80.397672
30
0
210
0
220
0
230
1
1
\W0.7259;39,9
40
4.5
41
0
44
1.084337
50
0
71
7
72
5
7
iso_b_vert
0
LINE
5
1EB
100
AcDbEntity
8
SK2
62
256
6
ByLayer
370
13
48
1
60
0
100
AcDbLine
10
0
20
23.6425
30
0
11
0
21
81.07
31
0
39
0
210
0
220
0
230
1
0
LINE
5
1EC
100
AcDbEntity
8
SK2
62
256
6
ByLayer
370
13
48
1
60
0
100
AcDbLine
10
-39.9
20
30.7875
30
0
11
-39.9
21
81.07
31
0
39
0
210
0
220
0
230
1
0
LINE
5
1ED
100
AcDbEntity
8
SK2
62
256
6
ByLayer
370
13
48
1
60
0
100
AcDbLine
10
0
20
79.07
30
0
11
-39.9
21
79.07
31
0
39
0
210
0
220
0
230
1
0
SOLID
5
1EE
100
AcDbEntity
8
SK2
62
256
6
ByLayer
370
18
48
1
60
0
100
AcDbTrace
10
0
20
79.07
30
0
11
-4.499996
21
78.072374
31
0
12
-4.500004
22
80.067626
32
0
13
-4.500004
23
80.067626
33
0
39
0
210
0
220
0
230
1
0
SOLID
5
1EF
100
AcDbEntity
8
SK2
62
256
6
ByLayer
370
18
48
1
60
0
100
AcDbTrace
10
-39.9
20
79.07
30
0
11
-35.400004
21
80.067626
31
0
12
-35.399996
22
78.072374
32
0
13
-35.399996
23
78.072374
33
0
39
0
210
0
220
0
230
1
0
ENDBLK
5
1F1
100
AcDbEntity
8
0
100
AcDbBlockEnd
0
BLOCK
5
1F6
100
AcDbEntity
8
0
100
AcDbBlockBegin
2
*D14
70
1
10
0
20
0
30
0
3
*D14
0
LINE
5
1F8
100
AcDbEntity
8
0
62
256
6
ByLayer
370
-2
48
1
60
0
100
AcDbLine
10
0
20
23.6425
30
0
11
0
21
61.07
31
0
39
0
210
0
220
0
230
1
0
LINE
5
1F9
100
AcDbEntity
8
0
62
256
6
ByLayer
370
-2
48
1
60
0
100
AcDbLine
10
26
20
41.5575
30
0
11
26
21
61.07
31
0
39
0
210
0
220
0
230
1
0
LINE
5
1FA
100
AcDbEntity
8
0
62
256
6
ByLayer
370
-2
48
1
60
0
100
AcDbLine
10
4.5
20
59.07
30
0
11
21.5
21
59.07
31
0
39
0
210
0
220
0
230
1
0
SOLID
5
1FB
100
AcDbEntity
8
0
62
256
6
ByLayer
370
-1
48
1
60
0
100
AcDbTrace
10
4.5
20
59.82
30
0
11
4.5
21
58.32
31
0
12
0
22
59.07
32
0
13
0
23
59.07
33
0
39
0
210
0
220
0
230
1
0
SOLID
5
1FC
100
AcDbEntity
8
0
62
256
6
ByLayer
370
-1
48
1
60
0
100
AcDbTrace
10
21.5
20
58.32
30
0
11
21.5
21
59.82
31
0
12
26
22
59.07
32
0
13
26
23
59.07
33
0
39
0
210
0
220
0
230
1
0
MTEXT
5
1FD
100
AcDbEntity
8
0
62
256
6
ByLayer
370
18
48
1
60
0
100
AcDbMText
10
13
20
68.07
30
0
210
0
220
0
230
1
1
\A1;26
40
4.5
41
0
44
1
50
0
71
5
72
5
7
iso_b_vert
0
POINT
5
1FE
100
AcDbEntity
8
Defpoints
62
0
6
ByLayer
370
-1
48
1
60
0
100
AcDbPoint
10
0
20
22.055
30
0
39
0
210
0
220
0
230
1
50
360
0
POINT
5
1FF
100
AcDbEntity
8
Defpoints
62
0
6
ByLayer
370
-1
48
1
60
0
100
AcDbPoint
10
26
20
39.97
30
0
39
0
210
0
220
0
230
1
50
360
0
POINT
5
200
100
AcDbEntity
8
Defpoints
62
0
6
ByLayer
370
-1
48
1
60
0
100
AcDbPoint
10
26
20
59.07
30
0
39
0
210
0
220
0
230
1
50
360
0
ENDBLK
5
1F7
100
AcDbEntity
8
0
100
AcDbBlockEnd
0
BLOCK
5
208
100
AcDbEntity
8
0
100
AcDbBlockBegin
2
_U6
70
0
10
0
20
0
30
0
3
_U6
0
MTEXT
5
202
100
AcDbEntity
8
SK2
62
256
6
ByLayer
370
18
48
1
60
0
100
AcDbMText
10
10.550758
20
60.397672
30
0
210
0
220
0
230
1
1
\W0.6740;26
40
4.5
41
0
44
1.084337
50
0
71
7
72
5
7
iso_b_vert
0
LINE
5
203
100
AcDbEntity
8
SK2
62
256
6
ByLayer
370
13
48
1
60
0
100
AcDbLine
10
0
20
23.6425
30
0
11
0
21
61.07
31
0
39
0
210
0
220
0
230
1
0
LINE
5
204
100
AcDbEntity
8
SK2
62
256
6
ByLayer
370
13
48
1
60
0
100
AcDbLine
10
26
20
41.5575
30
0
11
26
21
61.07
31
0
39
0
210
0
220
0
230
1
0
LINE
5
205
100
AcDbEntity
8
SK2
62
256
6
ByLayer
370
13
48
1
60
0
100
AcDbLine
10
0
20
59.07
30
0
11
26
21
59.07
31
0
39
0
210
0
220
0
230
1
0
SOLID
5
206
100
AcDbEntity
8
SK2
62
256
6
ByLayer
370
18
48
1
60
0
100
AcDbTrace
10
0
20
59.07
30
0
11
4.499996
21
60.067626
31
0
12
4.500004
22
58.072374
32
0
13
4.500004
23
58.072374
33
0
39
0
210
0
220
0
230
1
0
SOLID
5
207
100
AcDbEntity
8
SK2
62
256
6
ByLayer
370
18
48
1
60
0
100
AcDbTrace
10
26
20
59.07
30
0
11
21.500004
21
58.072374
31
0
12
21.499996
22
60.067626
32
0
13
21.499996
23
60.067626
33
0
39
0
210
0
220
0
230
1
0
ENDBLK
5
209
100
AcDbEntity
8
0
100
AcDbBlockEnd
0
ENDSEC
0
SECTION
2
ENTITIES
0
ARC
5
F8
100
AcDbEntity
8
1
62
256
6
ByLayer
370
18
48
1
60
0
100
AcDbCircle
39
0
10
95.174219
20
-5
30
0
40
20
210
0
220
0
230
1
100
AcDbArc
50
270
51
281
0
ARC
5
F9
100
AcDbEntity
8
1
62
256
6
ByLayer
370
18
48
1
60
0
100
AcDbCircle
39
0
10
95.174219
20
5
30
0
40
20
210
0
220
0
230
1
100
AcDbArc
50
79
51
90
0
ARC
5
FA
100
AcDbEntity
8
1
62
256
6
ByLayer
370
18
48
1
60
0
100
AcDbCircle
39
0
10
108.8
20
21.50329
30
0
40
1.20000000000002
210
0
220
0
230
1
100
AcDbArc
50
0
51
79
0
ARC
5
FB
100
AcDbEntity
8
1
62
256
6
ByLayer
370
18
48
1
60
0
100
AcDbCircle
39
0
10
26.95
20
-26
30
0
40
1
210
0
220
0
230
1
100
AcDbArc
50
90
51
180
0
ARC
5
FC
100
AcDbEntity
8
SK1
62
256
6
ByLayer
370
18
48
1
60
0
100
AcDbCircle
39
0
10
-0.8
20
-31.031551
30
0
40
1
210
0
220
0
230
1
100
AcDbArc
50
36.869898
51
90
0
ARC
5
FD
100
AcDbEntity
8
SK1
62
256
6
ByLayer
370
18
48
1
60
0
100
AcDbCircle
39
0
10
-0.8
20
31.031551
30
0
40
1
210
0
220
0
230
1
100
AcDbArc
50
270
51
323.130102
0
ARC
5
FE
100
AcDbEntity
8
1
62
256
6
ByLayer
370
18
48
1
60
0
100
AcDbCircle
39
0
10
26.95
20
26
30
0
40
1
210
0
220
0
230
1
100
AcDbArc
50
180
51
270
0
ARC
5
FF
100
AcDbEntity
8
1
62
256
6
ByLayer
370
18
48
1
60
0
100
AcDbCircle
39
0
10
108.8
20
-21.50329
30
0
40
1.20000000000002
210
0
220
0
230
1
100
AcDbArc
50
281
51
0
0
ARC
5
100
100
AcDbEntity
8
SK1
62
256
6
ByLayer
370
18
48
1
60
0
100
AcDbCircle
39
0
10
-33.7
20
27.695
30
0
40
1.9
210
0
220
0
230
1
100
AcDbArc
50
270
51
308.187948
0
ARC
5
101
100
AcDbEntity
8
SK1
62
256
6
ByLayer
370
18
48
1
60
0
100
AcDbCircle
39
0
10
-29.7
20
-27.695
30
0
40
1.9
210
0
220
0
230
1
100
AcDbArc
50
41.88951
51
90
0
ELLIPSE
5
102
100
AcDbEntity
8
SK1
62
256
6
ByLayer
370
13
48
1
60
0
100
AcDbEllipse
10
-29.7
20
-27.065018
30
0
11
-1.9
21
2.32675207226252E-16
31
0
210
0
220
0
230
1
40
0.891007
41
-1.95453950182926
42
-1.5707963267949
0
ELLIPSE
5
103
100
AcDbEntity
8
1
62
256
6
ByLayer
370
18
48
1
60
0
100
AcDbEllipse
10
18
20
-5.180793
30
0
11
1.75
21
0
31
0
210
0
220
0
230
1
40
0.984808
41
-2.89517402338518
42
-0.282350818299864
0
ELLIPSE
5
104
100
AcDbEntity
8
1
62
256
6
ByLayer
370
18
48
1
60
0
100
AcDbEllipse
10
18
20
5.180793
30
0
11
-1.75
21
2.14306111918916E-16
31
0
210
0
220
0
230
1
40
0.984808
41
-2.90558075033482
42
-0.246811562473375
0
ELLIPSE
5
105
100
AcDbEntity
8
1
62
256
6
ByLayer
370
18
48
1
60
0
100
AcDbEllipse
10
18
20
-10.204171
30
0
11
1.75
21
0
31
0
210
0
220
0
230
1
40
0.939693
41
-2.57689149668158
42
-0.586397819496344
0
ELLIPSE
5
106
100
AcDbEntity
8
1
62
256
6
ByLayer
370
18
48
1
60
0
100
AcDbEllipse
10
18
20
10.204171
30
0
11
-1.75
21
2.14306111918916E-16
31
0
210
0
220
0
230
1
40
0.939693
41
-2.55892510148269
42
-0.581881531787552
0
POINT
5
70
100
AcDbEntity
8
80
62
256
6
ByLayer
370
18
48
1
60
0
100
AcDbPoint
10
0
20
0
30
0
39
0
210
0
220
0
230
1
50
360
0
POINT
5
72
100
AcDbEntity
8
81
62
256
6
ByLayer
370
18
48
1
60
0
100
AcDbPoint
10
110
20
0
30
0
39
0
210
0
220
0
230
1
50
360
0
POINT
5
74
100
AcDbEntity
8
1
62
256
6
ByLayer
370
18
48
1
60
1
100
AcDbPoint
10
110
20
-25
30
0
39
0
210
0
220
0
230
1
50
360
0
POINT
5
76
100
AcDbEntity
8
1
62
256
6
ByLayer
370
18
48
1
60
1
100
AcDbPoint
10
110
20
25
30
0
39
0
210
0
220
0
230
1
50
360
0
POINT
5
77
100
AcDbEntity
8
1
62
256
6
ByLayer
370
18
48
1
60
1
100
AcDbPoint
10
110
20
12.5
30
0
39
0
210
0
220
0
230
1
50
360
0
POINT
5
78
100
AcDbEntity
8
1
62
256
6
ByLayer
370
18
48
1
60
1
100
AcDbPoint
10
110
20
-12.5
30
0
39
0
210
0
220
0
230
1
50
360
0
POINT
5
79
100
AcDbEntity
8
1
62
256
6
ByLayer
370
18
48
1
60
1
100
AcDbPoint
10
53
20
-12.5
30
0
39
0
210
0
220
0
230
1
50
360
0
POINT
5
7A
100
AcDbEntity
8
1
62
256
6
ByLayer
370
18
48
1
60
1
100
AcDbPoint
10
97.1
20
-25
30
0
39
0
210
0
220
0
230
1
50
360
0
POINT
5
7B
100
AcDbEntity
8
1
62
256
6
ByLayer
370
18
48
1
60
1
100
AcDbPoint
10
110
20
-25
30
0
39
0
210
0
220
0
230
1
50
360
0
POINT
5
7C
100
AcDbEntity
8
1
62
256
6
ByLayer
370
18
48
1
60
1
100
AcDbPoint
10
0
20
39.97
30
0
39
0
210
0
220
0
230
1
50
360
0
POINT
5
7D
100
AcDbEntity
8
1
62
256
6
ByLayer
370
18
48
1
60
1
100
AcDbPoint
10
110
20
25
30
0
39
0
210
0
220
0
230
1
50
360
0
POINT
5
7E
100
AcDbEntity
8
1
62
256
6
ByLayer
370
18
48
1
60
1
100
AcDbPoint
10
0
20
22.055
30
0
39
0
210
0
220
0
230
1
50
360
0
POINT
5
7F
100
AcDbEntity
8
1
62
256
6
ByLayer
370
18
48
1
60
1
100
AcDbPoint
10
-39.9
20
29.2
30
0
39
0
210
0
220
0
230
1
50
360
0
POINT
5
80
100
AcDbEntity
8
1
62
256
6
ByLayer
370
18
48
1
60
1
100
AcDbPoint
10
0
20
22.055
30
0
39
0
210
0
220
0
230
1
50
360
0
POINT
5
81
100
AcDbEntity
8
1
62
256
6
ByLayer
370
18
48
1
60
1
100
AcDbPoint
10
26
20
39.97
30
0
39
0
210
0
220
0
230
1
50
360
0
POINT
5
82
100
AcDbEntity
8
1
62
256
6
ByLayer
370
18
48
1
60
1
100
AcDbPoint
10
-19.95
20
29.2
30
0
39
0
210
0
220
0
230
1
50
360
0
SPLINE
5
107
100
AcDbEntity
8
1
62
256
6
ByLayer
370
18
48
1
60
0
100
AcDbSpline
70
4
71
3
72
8
73
4
40
0
40
0
40
0
40
0
40
1
40
1
40
1
40
1
41
1
10
16.075
20
36.0991130120897
30
0
41
1
10
15.5445514673777
20
37.0461297519347
30
0
41
1
10
15.0131732025702
20
37.9926266199182
30
0
41
1
10
14.4810501092892
20
38.9387013008909
30
0
0
SPLINE
5
108
100
AcDbEntity
8
1
62
256
6
ByLayer
370
18
48
1
60
0
100
AcDbSpline
70
4
71
3
72
8
73
4
40
0
40
0
40
0
40
0
40
1
40
1
40
1
40
1
41
1
10
21.5189498907108
20
38.9387013008909
30
0
41
1
10
20.9868267974298
20
37.9926266199182
30
0
41
1
10
20.4554485326223
20
37.0461297519347
30
0
41
1
10
19.925
20
36.0991130120897
30
0
0
SPLINE
5
109
100
AcDbEntity
8
1
62
256
6
ByLayer
370
18
48
1
60
0
100
AcDbSpline
70
4
71
3
72
8
73
4
40
0
40
0
40
0
40
0
40
1
40
1
40
1
40
1
41
1
10
16.075
20
27.6947991734843
30
0
41
1
10
15.5553814291391
20
28.903997057031
30
0
41
1
10
15.0231633385955
20
30.1073827743457
30
0
41
1
10
14.4810501092892
20
31.3062038580215
30
0
0
SPLINE
5
10A
100
AcDbEntity
8
1
62
256
6
ByLayer
370
18
48
1
60
0
100
AcDbSpline
70
4
71
3
72
8
73
4
40
0
40
0
40
0
40
0
40
1
40
1
40
1
40
1
41
1
10
25.25
20
38.9387013008909
30
0
41
1
10
25.4833906621472
20
38.6991292439304
30
0
41
1
10
25.7167250585565
20
38.4595023586411
30
0
41
1
10
25.95
20
38.2198176212289
30
0
0
SPLINE
5
10B
100
AcDbEntity
8
1
62
256
6
ByLayer
370
18
48
1
60
0
100
AcDbSpline
70
4
71
3
72
8
73
4
40
0
40
0
40
0
40
0
40
1
40
1
40
1
40
1
41
1
10
21.5189498907108
20
31.3062038580215
30
0
41
1
10
20.9768366614045
20
30.1073827743456
30
0
41
1
10
20.4446185708609
20
28.903997057031
30
0
41
1
10
19.925
20
27.6947991734842
30
0
0
SPLINE
5
10C
100
AcDbEntity
8
1
62
256
6
ByLayer
370
18
48
1
60
0
100
AcDbSpline
70
4
71
3
72
8
73
4
40
0
40
0
40
0
40
0
40
1
40
1
40
1
40
1
41
1
10
25.95
20
30.4074069923761
30
0
41
1
10
25.717508145078
20
30.7076613068947
30
0
41
1
10
25.4841565050523
20
31.0072460045116
30
0
41
1
10
25.25
20
31.3062038580215
30
0
0
SPLINE
5
10D
100
AcDbEntity
8
1
62
256
6
ByLayer
370
18
48
1
60
0
100
AcDbSpline
70
4
71
3
72
12
73
8
40
0
40
0
40
0
40
0
40
0.636232170950062
40
0.636232170950062
40
0.954348256425091
40
0.954348256425091
40
1
40
1
40
1
40
1
41
1
10
39.25
20
-22.1719981057188
30
0
41
1
10
39.25
20
-22.3436325686877
30
0
41
1
10
39.2807603309104
20
-22.5055193852686
30
0
41
1
10
39.3746404335631
20
-22.7345295042364
30
0
41
1
10
39.4139363379976
20
-22.8085589168803
30
0
41
1
10
39.4685298033414
20
-22.8906255722725
30
0
41
1
10
39.4755634193807
20
-22.9008857312046
30
0
41
1
10
39.4827764773722
20
-22.9111023886501
30
0
0
SPLINE
5
10E
100
AcDbEntity
8
1
62
256
6
ByLayer
370
18
48
1
60
0
100
AcDbSpline
70
4
71
3
72
14
73
10
40
0
40
0
40
0
40
0
40
0.0645783803377437
40
0.0645783803377437
40
0.372839741382294
40
0.372839741382294
40
0.681101102426844
40
0.681101102426844
40
1
40
1
40
1
40
1
41
1
10
49.500540966168
20
-22.934242980713
30
0
41
1
10
49.5113762870042
20
-22.9195403434607
30
0
41
1
10
49.5218514558746
20
-22.904722022515
30
0
41
1
10
49.5802701212682
20
-22.8184964326328
30
0
41
1
10
49.6204415666525
20
-22.744550471845
30
0
41
1
10
49.6848653684316
20
-22.5911143679432
30
0
41
1
10
49.7091327301427
20
-22.5112905863719
30
0
41
1
10
49.7418995382725
20
-22.3458142728057
30
0
41
1
10
49.7500549470564
20
-22.2598258252951
30
0
41
1
10
49.750051948192
20
-22.1719982948744
30
0
0
SPLINE
5
10F
100
AcDbEntity
8
1
62
256
6
ByLayer
370
18
48
1
60
0
100
AcDbSpline
70
4
71
3
72
68
73
64
40
0
40
0
40
0
40
0
40
0.0292879545686565
40
0.0292879545686565
40
0.0596227059883857
40
0.0596227059883857
40
0.0899574574081151
40
0.0899574574081151
40
0.150626960247573
40
0.150626960247573
40
0.180961711667303
40
0.180961711667303
40
0.211296463087032
40
0.211296463087032
40
0.271965965926491
40
0.271965965926491
40
0.30230071734622
40
0.30230071734622
40
0.332635468765949
40
0.332635468765949
40
0.393304971605406
40
0.393304971605406
40
0.40847234731527
40
0.40847234731527
40
0.423639723025135
40
0.423639723025135
40
0.453974474444864
40
0.453974474444864
40
0.469141850154728
40
0.469141850154728
40
0.484309225864593
40
0.484309225864593
40
0.514643977284323
40
0.514643977284323
40
0.544978728704053
40
0.544978728704053
40
0.560146104413917
40
0.560146104413917
40
0.575313480123782
40
0.575313480123782
40
0.605648231543511
40
0.605648231543511
40
0.620815607253376
40
0.620815607253376
40
0.63598298296324
40
0.63598298296324
40
0.6966524858027
40
0.6966524858027
40
0.72698723722243
40
0.72698723722243
40
0.757321988642159
40
0.757321988642159
40
0.817991491481619
40
0.817991491481619
40
0.84832624290135
40
0.84832624290135
40
0.87866099432108
40
0.87866099432108
40
0.93933049716054
40
0.93933049716054
40
0.96966524858027
40
0.96966524858027
40
1
40
1
40
1
40
1
41
1
10
49.750051948192
20
-22.1719982949906
30
0
41
1
10
49.750049149401
20
-22.0900301047197
30
0
41
1
10
49.7429401943575
20
-22.0064600319389
30
0
41
1
10
49.7145769290607
20
-21.8330849348209
30
0
41
1
10
49.6927742243067
20
-21.7431635126459
30
0
41
1
10
49.6344639572555
20
-21.5599081932524
30
0
41
1
10
49.59819479361
20
-21.4673891953257
30
0
41
1
10
49.4695161791209
20
-21.1887976199405
30
0
41
1
10
49.3572291852887
20
-21.0010527357569
30
0
41
1
10
49.1495899313541
20
-20.7176774916614
30
0
41
1
10
49.0737963972698
20
-20.6229322766626
30
0
41
1
10
48.9085365536523
20
-20.4331797087664
30
0
41
1
10
48.8200258718855
20
-20.3392818118432
30
0
41
1
10
48.5374502671278
20
-20.0616380578931
30
0
41
1
10
48.3263410447699
20
-19.8815998221858
30
0
41
1
10
47.9724866496592
20
-19.6227558689718
30
0
41
1
10
47.8482882617697
20
-19.5383640466776
30
0
41
1
10
47.5861147059618
20
-19.3743225044742
30
0
41
1
10
47.4479698322639
20
-19.2946729491366
30
0
41
1
10
47.0201391448838
20
-19.0696907483942
30
0
41
1
10
46.7145945556462
20
-18.9362731750512
30
0
41
1
10
46.3019188692324
20
-18.7975933774515
30
0
41
1
10
46.2175303107656
20
-18.7711999805165
30
0
41
1
10
46.0470880877577
20
-18.7220068604386
30
0
41
1
10
45.9610954756323
20
-18.6992084005143
30
0
41
1
10
45.7007601752179
20
-18.6363896323859
30
0
41
1
10
45.5240665294533
20
-18.6019339741287
30
0
41
1
10
45.2540386477692
20
-18.5623150995358
30
0
41
1
10
45.1631965551245
20
-18.5511224322969
30
0
41
1
10
44.979778790131
20
-18.5329579961767
30
0
41
1
10
44.8868145850065
20
-18.5259713951573
30
0
41
1
10
44.608475166407
20
-18.5118159945352
30
0
41
1
10
44.424002962393
20
-18.5113674100313
30
0
41
1
10
44.0571574585928
20
-18.5278251348504
30
0
41
1
10
43.8747843164934
20
-18.5447324090975
30
0
41
1
10
43.6027829211177
20
-18.5828485994605
30
0
41
1
10
43.5120537861446
20
-18.5977460217252
30
0
41
1
10
43.332851718721
20
-18.6314376999454
30
0
41
1
10
43.244503781113
20
-18.6501883408144
30
0
41
1
10
42.9830202175526
20
-18.7117839649844
30
0
41
1
10
42.8134340552627
20
-18.7599583881751
30
0
41
1
10
42.5655887637772
20
-18.8417052355908
30
0
41
1
10
42.4840655179615
20
-18.8705388576403
30
0
41
1
10
42.3231387768821
20
-18.931219402675
30
0
41
1
10
42.2435701014432
20
-18.9631447530159
30
0
41
1
10
41.8551305775565
20
-19.1280999845422
30
0
41
1
10
41.5710590950293
20
-19.2778394167542
30
0
41
1
10
41.1778005684433
20
-19.5212426358982
30
0
41
1
10
41.0522635261472
20
-19.6055645510394
30
0
41
1
10
40.8118137871054
20
-19.7797828412785
30
0
41
1
10
40.6976930837027
20
-19.8691423200298
30
0
41
1
10
40.3755315049595
20
-20.1402681586995
30
0
41
1
10
40.1860464007238
20
-20.3260531958247
30
0
41
1
10
39.9374470330604
20
-20.6093595802517
30
0
41
1
10
39.8603297299339
20
-20.7049459293276
30
0
41
1
10
39.7200657255511
20
-20.8948559766251
30
0
41
1
10
39.6567402440346
20
-20.9893220680515
30
0
41
1
10
39.4867450710225
20
-21.2709109354574
30
0
41
1
10
39.3998701284201
20
-21.4562065181058
30
0
41
1
10
39.3109578972466
20
-21.7295520920078
30
0
41
1
10
39.2882314483476
20
-21.8201431478343
30
0
41
1
10
39.2577535242362
20
-21.9985261025432
30
0
41
1
10
39.25
20
-22.0861808742344
30
0
41
1
10
39.25
20
-22.1719981057188
30
0
0
SPLINE
5
110
100
AcDbEntity
8
SK1
62
256
6
ByLayer
370
18
48
1
60
0
100
AcDbSpline
70
4
71
3
72
8
73
4
40
0
40
0
40
0
40
0
40
1
40
1
40
1
40
1
41
1
10
-38.3800599072243
20
25.6267055539514
30
0
41
1
10
-38.5061842390927
20
25.4485169758836
30
0
41
1
10
-38.5990971936446
20
25.2489120068907
30
0
41
1
10
-38.6109569339037
20
25.0504903307917
30
0
0
SPLINE
5
111
100
AcDbEntity
8
SK1
62
256
6
ByLayer
370
18
48
1
60
0
100
AcDbSpline
70
4
71
3
72
46
73
42
40
0
40
0
40
0
40
0
40
0.124999999999989
40
0.124999999999989
40
0.249999999999978
40
0.249999999999978
40
0.312499999999973
40
0.312499999999973
40
0.374999999999968
40
0.374999999999968
40
0.406249999999965
40
0.406249999999965
40
0.437499999999962
40
0.437499999999962
40
0.46874999999996
40
0.46874999999996
40
0.484374999999958
40
0.484374999999958
40
0.499999999999957
40
0.499999999999957
40
0.507812499999958
40
0.507812499999958
40
0.515624999999959
40
0.515624999999959
40
0.53124999999996
40
0.53124999999996
40
0.546874999999961
40
0.546874999999961
40
0.562499999999962
40
0.562499999999962
40
0.593749999999965
40
0.593749999999965
40
0.624999999999968
40
0.624999999999968
40
0.687499999999973
40
0.687499999999973
40
0.749999999999978
40
0.749999999999978
40
0.874999999999989
40
0.874999999999989
40
1
40
1
40
1
40
1
41
1
10
-38.6109569339037
20
25.0504903307917
30
0
41
1
10
-38.6210804308168
20
24.8811172094923
30
0
41
1
10
-38.6393890119739
20
24.7050297139086
30
0
41
1
10
-38.6946356987762
20
24.3375725831299
30
0
41
1
10
-38.7314059744702
20
24.1463406219127
30
0
41
1
10
-38.8056557677983
20
23.843829211173
30
0
41
1
10
-38.8336713249643
20
23.7401906535564
30
0
41
1
10
-38.8981988940706
20
23.5265105323375
30
0
41
1
10
-38.9345184255903
20
23.4168160582851
30
0
41
1
10
-38.9985876048014
20
23.2456516142208
30
0
41
1
10
-39.0215107960835
20
23.1876206041821
30
0
41
1
10
-39.0717855734557
20
23.0687994678448
30
0
41
1
10
-39.0991827162573
20
23.0078417248952
30
0
41
1
10
-39.160468860148
20
22.8829645792133
30
0
41
1
10
-39.1940657909859
20
22.8191233018278
30
0
41
1
10
-39.2550561033613
20
22.7183301579458
30
0
41
1
10
-39.2772683790403
20
22.6837885496481
30
0
41
1
10
-39.3268470510929
20
22.6143137600984
30
0
41
1
10
-39.354500023565
20
22.5789266138536
30
0
41
1
10
-39.4006672036387
20
22.5298170555372
30
0
41
1
10
-39.4165199157329
20
22.5145161270257
30
0
41
1
10
-39.4483541495696
20
22.4875253616879
30
0
41
1
10
-39.4637560363872
20
22.47632700634
30
0
41
1
10
-39.5076289762448
20
22.44955300972
30
0
41
1
10
-39.531947365244
20
22.441688757606
30
0
41
1
10
-39.5728015282814
20
22.4360462995639
30
0
41
1
10
-39.589883423841
20
22.4381893427963
30
0
41
1
10
-39.619575275358
20
22.4472807480308
30
0
41
1
10
-39.6322770717183
20
22.4542874474217
30
0
41
1
10
-39.6666218396684
20
22.4796239252299
30
0
41
1
10
-39.6846085857386
20
22.5022876334833
30
0
41
1
10
-39.7155267078269
20
22.55276746497
30
0
41
1
10
-39.7282927395798
20
22.580609101851
30
0
41
1
10
-39.761870928008
20
22.6686938891387
30
0
41
1
10
-39.7780440118191
20
22.7334188229294
30
0
41
1
10
-39.804566649698
20
22.8684947713256
30
0
41
1
10
-39.8147437852631
20
22.9390123585206
30
0
41
1
10
-39.8399277495818
20
23.1557312554721
30
0
41
1
10
-39.8497259111169
20
23.3069883836034
30
0
41
1
10
-39.863507108253
20
23.6145242002261
30
0
41
1
10
-39.867309671203
20
23.7710908955912
30
0
41
1
10
-39.8694062536472
20
23.9292037765398
30
0
0
SPLINE
5
112
100
AcDbEntity
8
SK1
62
256
6
ByLayer
370
18
48
1
60
0
100
AcDbSpline
70
4
71
3
72
12
73
8
40
0
40
0
40
0
40
0
40
0.249999999999999
40
0.249999999999999
40
0.499999999999998
40
0.499999999999998
40
1
40
1
40
1
40
1
41
1
10
-39.8694062536462
20
23.9292037765407
30
0
41
1
10
-39.8699642039183
20
23.9712813610367
30
0
41
1
10
-39.8718799934452
20
24.006964701742
30
0
41
1
10
-39.8776173001003
20
24.0659183058494
30
0
41
1
10
-39.8813730802149
20
24.0887102711574
30
0
41
1
10
-39.8925827484672
20
24.1392528631653
30
0
41
1
10
-39.9
20
24.1498896765053
30
0
41
1
10
-39.9
20
24.1438732591267
30
0
0
SPLINE
5
113
100
AcDbEntity
8
SK1
62
256
6
ByLayer
370
18
48
1
60
0
100
AcDbSpline
70
4
71
3
72
40
73
36
40
0
40
0
40
0
40
0
40
0.0293064806932714
40
0.0293064806932714
40
0.11759657198671
40
0.11759657198671
40
0.16174161763343
40
0.16174161763343
40
0.205886663280149
40
0.205886663280149
40
0.250031708926869
40
0.250031708926869
40
0.294176754573588
40
0.294176754573588
40
0.382466845867026
40
0.382466845867026
40
0.426611891513745
40
0.426611891513745
40
0.470756937160464
40
0.470756937160464
40
0.559047028453902
40
0.559047028453902
40
0.603192074100621
40
0.603192074100621
40
0.64733711974734
40
0.64733711974734
40
0.735627211040778
40
0.735627211040778
40
0.823917302334216
40
0.823917302334216
40
0.868062347980935
40
0.868062347980935
40
0.912207393627654
40
0.912207393627654
40
1
40
1
40
1
40
1
41
1
10
-16.7477130056058
20
29.5677338976446
30
0
41
1
10
-16.7478086415641
20
29.5677426800112
30
0
41
1
10
-16.7440405630262
20
29.5673841838369
30
0
41
1
10
-16.7134317714092
20
29.5644805688472
30
0
41
1
10
-16.6562155643481
20
29.5590272971662
30
0
41
1
10
-16.5203717815125
20
29.5468073482853
30
0
41
1
10
-16.466284247257
20
29.5420293315658
30
0
41
1
10
-16.3431538738558
20
29.531523864692
30
0
41
1
10
-16.2742081567177
20
29.5258036407386
30
0
41
1
10
-16.1221499584638
20
29.5137372470336
30
0
41
1
10
-16.0390356413529
20
29.5073905636326
30
0
41
1
10
-15.858775456466
20
29.4943882951457
30
0
41
1
10
-15.7610688933913
20
29.4876975572334
30
0
41
1
10
-15.4509707029429
20
29.4679555922095
30
0
41
1
10
-15.2229326070611
20
29.455293144922
30
0
41
1
10
-14.8507635266873
20
29.4390270682881
30
0
41
1
10
-14.7214658161801
20
29.4340533574781
30
0
41
1
10
-14.4533643772467
20
29.4253844717401
30
0
41
1
10
-14.3162360101025
20
29.4217429009452
30
0
41
1
10
-13.8960481617732
20
29.4132401697362
30
0
41
1
10
-13.6042616154479
20
29.410797748578
30
0
41
1
10
-13.1492762251884
20
29.4133274065123
30
0
41
1
10
-12.9944227643063
20
29.4152202505391
30
0
41
1
10
-12.6848950868185
20
29.4211484929933
30
0
41
1
10
-12.5294984079962
20
29.4251829737036
30
0
41
1
10
-12.0614633204919
20
29.4405662845614
30
0
41
1
10
-11.7469971616829
20
29.4551947004995
30
0
41
1
10
-11.1130429173111
20
29.4935468565979
30
0
41
1
10
-10.8021957909957
20
29.5167525078933
30
0
41
1
10
-10.3462798937457
20
29.5566511034071
30
0
41
1
10
-10.1959550772552
20
29.570804520561
30
0
41
1
10
-9.89865141322377
20
29.6006709140513
30
0
41
1
10
-9.75105534386609
20
29.6164548463649
30
0
41
1
10
-9.31958581915964
20
29.665213884862
30
0
41
1
10
-9.04809034920095
20
29.6993875635877
30
0
41
1
10
-8.79203600906379
20
29.7341897000844
30
0
0
SPLINE
5
114
100
AcDbEntity
8
SK1
62
256
6
ByLayer
370
18
48
1
60
0
100
AcDbSpline
70
4
71
3
72
26
73
22
40
0
40
0
40
0
40
0
40
0.0012051413566121
40
0.0012051413566121
40
0.108145106401262
40
0.108145106401262
40
0.215085071445911
40
0.215085071445911
40
0.428965001535208
40
0.428965001535208
40
0.535904966579858
40
0.535904966579858
40
0.589374949102182
40
0.589374949102182
40
0.642844931624506
40
0.642844931624506
40
0.856724861713803
40
0.856724861713803
40
0.963664826758452
40
0.963664826758452
40
1
40
1
40
1
40
1
41
1
10
-8.7920360090742
20
29.7341897000831
30
0
41
1
10
-8.79058505347822
20
29.7343869096077
30
0
41
1
10
-8.78913459370111
20
29.7345841393123
30
0
41
1
10
-8.65901997355252
20
29.7522846256326
30
0
41
1
10
-8.53428609712734
20
29.769944770779
30
0
41
1
10
-8.29298637165292
20
29.8052743003031
30
0
41
1
10
-8.17580498726576
20
29.8230428171303
30
0
41
1
10
-7.84378569690449
20
29.8748354972092
30
0
41
1
10
-7.64713221781787
20
29.9074975212143
30
0
41
1
10
-7.39007538791952
20
29.9517082404566
30
0
41
1
10
-7.31075546215772
20
29.9656456776335
30
0
41
1
10
-7.20190467466938
20
29.9850601911932
30
0
41
1
10
-7.16722329511359
20
29.9912990575169
30
0
41
1
10
-7.10215166894102
20
30.0030848428063
30
0
41
1
10
-7.07167958532594
20
30.0086460539239
30
0
41
1
10
-6.92953480735952
20
30.034737046408
30
0
41
1
10
-6.8481908957578
20
30.0501420942996
30
0
41
1
10
-6.77656452499943
20
30.063749433471
30
0
41
1
10
-6.76115739438615
20
30.0666962285527
30
0
41
1
10
-6.75267941677433
20
30.0683170304586
30
0
41
1
10
-6.75155647376747
20
30.0685315419711
30
0
41
1
10
-6.75145164539819
20
30.0685514446259
30
0
0
SPLINE
5
115
100
AcDbEntity
8
SK1
62
256
6
ByLayer
370
18
48
1
60
0
100
AcDbSpline
70
4
71
3
72
8
73
4
40
0
40
0
40
0
40
0
40
1
40
1
40
1
40
1
41
1
10
-38.25
20
-25.7893983409631
30
0
41
1
10
-38.2972640933894
20
-25.736279667993
30
0
41
1
10
-38.3408570522639
20
-25.6820913853605
30
0
41
1
10
-38.3800599072148
20
-25.6267055539649
30
0
0
SPLINE
5
116
100
AcDbEntity
8
SK1
62
256
6
ByLayer
370
18
48
1
60
0
100
AcDbSpline
70
4
71
3
72
16
73
12
40
0
40
0
40
0
40
0
40
0.250000000000002
40
0.250000000000002
40
0.500000000000003
40
0.500000000000003
40
0.750000000000004
40
0.750000000000004
40
0.875000000000002
40
0.875000000000002
40
1
40
1
40
1
40
1
41
1
10
-29.7
20
-24.5252491519468
30
0
41
1
10
-29.9021922156092
20
-24.5780425428812
30
0
41
1
10
-30.1008701178387
20
-24.6334801917809
30
0
41
1
10
-30.4882602680304
20
-24.7518538990363
30
0
41
1
10
-30.6775078497006
20
-24.8149006947708
30
0
41
1
10
-31.0386066836075
20
-24.9518985527703
30
0
41
1
10
-31.2082458211893
20
-25.0248671545262
30
0
41
1
10
-31.4361213852233
20
-25.1452105158767
30
0
41
1
10
-31.5075892719144
20
-25.1871646720808
30
0
41
1
10
-31.638249103426
20
-25.2761021355368
30
0
41
1
10
-31.6975317441256
20
-25.3233459800575
30
0
41
1
10
-31.7461682088013
20
-25.3721053138509
30
0
0
SPLINE
5
117
100
AcDbEntity
8
SK1
62
256
6
ByLayer
370
18
48
1
60
0
100
AcDbSpline
70
4
71
3
72
26
73
22
40
0
40
0
40
0
40
0
40
0.0312499999999994
40
0.0312499999999994
40
0.0624999999999988
40
0.0624999999999988
40
0.0937499999999982
40
0.0937499999999982
40
0.124999999999998
40
0.124999999999998
40
0.187499999999998
40
0.187499999999998
40
0.249999999999999
40
0.249999999999999
40
0.375
40
0.375
40
0.500000000000002
40
0.500000000000002
40
0.750000000000001
40
0.750000000000001
40
1
40
1
40
1
40
1
41
1
10
-29.7
20
-24.5252491519468
30
0
41
1
10
-29.6798640265292
20
-24.5199915493428
30
0
41
1
10
-29.6582933389364
20
-24.5163495497681
30
0
41
1
10
-29.6127961564515
20
-24.5139000223037
30
0
41
1
10
-29.589508896259
20
-24.5152103008412
30
0
41
1
10
-29.5445242350815
20
-24.5226215095924
30
0
41
1
10
-29.5231151989177
20
-24.5286315679207
30
0
41
1
10
-29.4841131064784
20
-24.5431205361863
30
0
41
1
10
-29.4663421628306
20
-24.5515786441308
30
0
41
1
10
-29.4165688618883
20
-24.5792195529232
30
0
41
1
10
-29.389369610214
20
-24.5997177983197
30
0
41
1
10
-29.340379439356
20
-24.6424825212285
30
0
41
1
10
-29.3189218459378
20
-24.6647437710625
30
0
41
1
10
-29.2610135383815
20
-24.7316840810588
30
0
41
1
10
-29.2302067491433
20
-24.7771488728324
30
0
41
1
10
-29.1762287927426
20
-24.8685083063735
30
0
41
1
10
-29.1532648491546
20
-24.9145322951189
30
0
41
1
10
-29.0926450551432
20
-25.0520131156776
30
0
41
1
10
-29.0631752746249
20
-25.1425114668431
30
0
41
1
10
-29.0168376045534
20
-25.3208721101933
30
0
41
1
10
-29.0002318858954
20
-25.4087423929408
30
0
41
1
10
-28.9886513676476
20
-25.4952313188527
30
0
0
SPLINE
5
118
100
AcDbEntity
8
SK1
62
256
6
ByLayer
370
18
48
1
60
0
100
AcDbSpline
70
4
71
3
72
18
73
14
40
0
40
0
40
0
40
0
40
0.125
40
0.125
40
0.25
40
0.25
40
0.375
40
0.375
40
0.5
40
0.5
40
0.75
40
0.75
40
1
40
1
40
1
40
1
41
1
10
-28.9886513676476
20
-25.4952313188527
30
0
41
1
10
-28.9767747268168
20
-25.5839318318107
30
0
41
1
10
-28.9335882207783
20
-25.6700702549142
30
0
41
1
10
-28.8193452604146
20
-25.8386496385537
30
0
41
1
10
-28.7497369872098
20
-25.9201611327245
30
0
41
1
10
-28.6066550347956
20
-26.0797949619966
30
0
41
1
10
-28.5327203400012
20
-26.1579416482102
30
0
41
1
10
-28.3890361124598
20
-26.3118918589117
30
0
41
1
10
-28.3191443604828
20
-26.3876763767765
30
0
41
1
10
-28.1228008433067
20
-26.6120708826405
30
0
41
1
10
-28.009491244651
20
-26.7578416704196
30
0
41
1
10
-27.847358776545
20
-27.0421050119516
30
0
41
1
10
-27.8
20
-27.1771802036173
30
0
41
1
10
-27.8
20
-27.3046064516707
30
0
0
SPLINE
5
119
100
AcDbEntity
8
SK1
62
256
6
ByLayer
370
18
48
1
60
0
100
AcDbSpline
70
4
71
3
72
30
73
26
40
0
40
0
40
0
40
0
40
0.124999999999999
40
0.124999999999999
40
0.249999999999999
40
0.249999999999999
40
0.374999999999998
40
0.374999999999998
40
0.499999999999998
40
0.499999999999998
40
0.624999999999997
40
0.624999999999997
40
0.749999999999996
40
0.749999999999996
40
0.812499999999997
40
0.812499999999997
40
0.874999999999997
40
0.874999999999997
40
0.906249999999998
40
0.906249999999998
40
0.937499999999999
40
0.937499999999999
40
0.968749999999999
40
0.968749999999999
40
1
40
1
40
1
40
1
41
1
10
-31.7999999999998
20
27.1896899761286
30
0
41
1
10
-31.7999999999993
20
27.1291667968038
30
0
41
1
10
-31.8126648211161
20
27.0656607575642
30
0
41
1
10
-31.8595769424422
20
26.9367129962247
30
0
41
1
10
-31.8936756650761
20
26.871085752668
30
0
41
1
10
-31.980269829663
20
26.7376605935672
30
0
41
1
10
-32.0327795570729
20
26.6698623549576
30
0
41
1
10
-32.1545085666121
20
26.5322333045863
30
0
41
1
10
-32.2240846513658
20
26.46209480607
30
0
41
1
10
-32.3767435521391
20
26.3221774428727
30
0
41
1
10
-32.4598426439865
20
26.2522416299606
30
0
41
1
10
-32.6397435001088
20
26.1128227719079
30
0
41
1
10
-32.736303872783
20
26.0432828724282
30
0
41
1
10
-32.8952829475699
20
25.9404157461809
30
0
41
1
10
-32.9506577032002
20
25.906372508717
30
0
41
1
10
-33.0689015541221
20
25.839437233731
30
0
41
1
10
-33.1318697498238
20
25.8063782229574
30
0
41
1
10
-33.2347069043414
20
25.7604221360684
30
0
41
1
10
-33.2706794506681
20
25.7456206906999
30
0
41
1
10
-33.3459719754475
20
25.7185288535096
30
0
41
1
10
-33.3853293628051
20
25.7061796619513
30
0
41
1
10
-33.4696949605515
20
25.6855276792925
30
0
41
1
10
-33.5149793639421
20
25.6773438686249
30
0
41
1
10
-33.6069458062291
20
25.6683722194738
30
0
41
1
10
-33.6543263499344
20
25.6675861181836
30
0
41
1
10
-33.7000000000009
20
25.6703368607612
30
0
0
SPLINE
5
11A
100
AcDbEntity
8
SK1
62
256
6
ByLayer
370
18
48
1
60
0
100
AcDbSpline
70
4
71
3
72
12
73
8
40
0
40
0
40
0
40
0
40
0.5
40
0.5
40
0.75
40
0.75
40
1
40
1
40
1
40
1
41
1
10
-38.25
20
25.7893983409631
30
0
41
1
10
-37.4868614640478
20
25.7839328345777
30
0
41
1
10
-36.7251308889452
20
25.7742934203229
30
0
41
1
10
-35.5864532768289
20
25.7480977135346
30
0
41
1
10
-35.2075564838507
20
25.737381312167
30
0
41
1
10
-34.4518325673089
20
25.7097217032582
30
0
41
1
10
-34.0749590361552
20
25.6929191545837
30
0
41
1
10
-33.7
20
25.6703368607646
30
0
0
SPLINE
5
11B
100
AcDbEntity
8
SK1
62
256
6
ByLayer
370
18
48
1
60
0
100
AcDbSpline
70
4
71
3
72
8
73
4
40
0
40
0
40
0
40
0
40
1
40
1
40
1
40
1
41
1
10
-38.3800599072243
20
25.6267055539514
30
0
41
1
10
-38.3408570522709
20
25.6820913853517
30
0
41
1
10
-38.2972640933933
20
25.7362796679887
30
0
41
1
10
-38.25
20
25.7893983409631
30
0
0
SPLINE
5
11C
100
AcDbEntity
8
SK1
62
256
6
ByLayer
370
18
48
1
60
0
100
AcDbSpline
70
4
71
3
72
22
73
18
40
0
40
0
40
0
40
0
40
0.143954259476508
40
0.143954259476508
40
0.250985937834195
40
0.250985937834195
40
0.358017616191883
40
0.358017616191883
40
0.465049294549571
40
0.465049294549571
40
0.572080972907258
40
0.572080972907258
40
0.786144329622633
40
0.786144329622633
40
0.89317600798032
40
0.89317600798032
40
1
40
1
40
1
40
1
41
1
10
-6.75141380505392
20
-30.068552086105
30
0
41
1
10
-6.75072297503743
20
-30.0686793014159
30
0
41
1
10
-6.76599495587905
20
-30.0657604860992
30
0
41
1
10
-6.81980819860729
20
-30.0555321481387
30
0
41
1
10
-6.85156145440814
20
-30.0495146158348
30
0
41
1
10
-6.93244899311458
20
-30.0343433644734
30
0
41
1
10
-6.98101201226331
20
-30.0252976782718
30
0
41
1
10
-7.09355796950805
20
-30.0046217845145
30
0
41
1
10
-7.15754368467546
20
-29.992990866564
30
0
41
1
10
-7.30063834148487
20
-29.9674338727725
30
0
41
1
10
-7.38001472645419
20
-29.9534613737627
30
0
41
1
10
-7.63932388696816
20
-29.9087983215218
30
0
41
1
10
-7.83666618129112
20
-29.8759981014989
30
0
41
1
10
-8.16664738779949
20
-29.8244468084668
30
0
41
1
10
-8.28235136241932
20
-29.8068656934281
30
0
41
1
10
-8.525031643196
20
-29.7712681930035
30
0
41
1
10
-8.65026614405235
20
-29.7535069722763
30
0
41
1
10
-8.77919654322503
20
-29.7359370920081
30
0
0
SPLINE
5
11D
100
AcDbEntity
8
SK1
62
256
6
ByLayer
370
18
48
1
60
0
100
AcDbSpline
70
4
71
3
72
46
73
42
40
0
40
0
40
0
40
0
40
8.56322113151E-05
40
8.56322113151E-05
40
0.0883471859418607
40
0.0883471859418607
40
0.132477962807133
40
0.132477962807133
40
0.176608739672406
40
0.176608739672406
40
0.264870293402951
40
0.264870293402951
40
0.309001070268224
40
0.309001070268224
40
0.353131847133496
40
0.397262623998769
40
0.397262623998769
40
0.441393400864042
40
0.441393400864042
40
0.529654954594587
40
0.529654954594587
40
0.573785731459859
40
0.573785731459859
40
0.617916508325132
40
0.617916508325132
40
0.706178062055677
40
0.706178062055677
40
0.75030883892095
40
0.75030883892095
40
0.772374227353585
40
0.772374227353585
40
0.794439615786221
40
0.794439615786221
40
0.882701169516765
40
0.882701169516765
40
0.9047665579494
40
0.9047665579494
40
0.926831946382036
40
0.926831946382036
40
0.970962723247308
40
1
40
1
40
1
40
1
41
1
10
-8.77919654323668
20
-29.7359370920066
30
0
41
1
10
-8.7794472086681
20
-29.7359029327885
30
0
41
1
10
-8.77969788806959
20
-29.7358687742937
30
0
41
1
10
-9.0383395062812
20
-29.7006280297491
30
0
41
1
10
-9.31163707054543
20
-29.666170032099
30
0
41
1
10
-9.74371570171473
20
-29.6172563771997
30
0
41
1
10
-9.89178585746035
20
-29.6013889571503
30
0
41
1
10
-10.1897995100031
20
-29.571395759473
30
0
41
1
10
-10.3403957558118
20
-29.557191500048
30
0
41
1
10
-10.7968606562844
20
-29.5171698909476
30
0
41
1
10
-11.1073652014126
20
-29.4939436008698
30
0
41
1
10
-11.5827800171563
20
-29.4651033829815
30
0
41
1
10
-11.741207462229
20
-29.4565958659342
30
0
41
1
10
-12.055931550043
20
-29.4418661305739
30
0
41
1
10
-12.3691913504245
20
-29.4293806706122
30
0
41
1
10
-12.6795364775529
20
-29.4212775040772
30
0
41
1
10
-12.9883901922766
20
-29.415310364895
30
0
41
1
10
-13.1425635875412
20
-29.4133925823278
30
0
41
1
10
-13.5994381083847
20
-29.4107704939326
30
0
41
1
10
-13.891287294969
20
-29.4131904979752
30
0
41
1
10
-14.3101888849244
20
-29.4215978976909
30
0
41
1
10
-14.4466564305713
20
-29.4251980594034
30
0
41
1
10
-14.7130287077548
20
-29.4337517496437
30
0
41
1
10
-14.8436424356439
20
-29.4387394792556
30
0
41
1
10
-15.2182730528142
20
-29.4550439464626
30
0
41
1
10
-15.4458569690507
20
-29.4676707942791
30
0
41
1
10
-15.7535573336388
20
-29.4871999481787
30
0
41
1
10
-15.8504723792137
20
-29.4938099257165
30
0
41
1
10
-15.9869151200854
20
-29.5036220281923
30
0
41
1
10
-16.0310208642295
20
-29.5068845954693
30
0
41
1
10
-16.1152098303171
20
-29.513260460987
30
0
41
1
10
-16.1553779650442
20
-29.5163793371896
30
0
41
1
10
-16.3466891801617
20
-29.5315354861328
30
0
41
1
10
-16.4695408186893
20
-29.5422470080378
30
0
41
1
10
-16.5840316029438
20
-29.5525312406238
30
0
41
1
10
-16.6049571230259
20
-29.5544333845086
30
0
41
1
10
-16.6427487266815
20
-29.5578962140324
30
0
41
1
10
-16.6596135662047
20
-29.5594568491958
30
0
41
1
10
-16.7033992127018
20
-29.5635324164422
30
0
41
1
10
-16.7372270682002
20
-29.5667359679333
30
0
41
1
10
-16.7474208336252
20
-29.5677057940904
30
0
41
1
10
-16.7477216552645
20
-29.5677347276414
30
0
0
SPLINE
5
11E
100
AcDbEntity
8
SK1
62
256
6
ByLayer
370
18
48
1
60
0
100
AcDbSpline
70
4
71
3
72
26
73
22
40
0
40
0
40
0
40
0
40
0.249999999999998
40
0.249999999999998
40
0.499999999999996
40
0.499999999999996
40
0.624999999999995
40
0.624999999999995
40
0.749999999999994
40
0.749999999999994
40
0.812499999999995
40
0.812499999999995
40
0.874999999999996
40
0.874999999999996
40
0.937499999999997
40
0.937499999999997
40
0.968749999999997
40
0.968749999999997
40
0.984374999999999
40
0.984374999999999
40
1
40
1
40
1
40
1
41
1
10
-38.2499999999996
20
-25.7893983409644
30
0
41
1
10
-37.689576284278
20
-25.7853846537341
30
0
41
1
10
-37.1298283158216
20
-25.7790387294287
30
0
41
1
10
-36.0123909294222
20
-25.7591876286451
30
0
41
1
10
-35.4545091629548
20
-25.7458116841377
30
0
41
1
10
-34.621392658658
20
-25.7161777791396
30
0
41
1
10
-34.3442722044522
20
-25.7046800036081
30
0
41
1
10
-33.7920036143219
20
-25.6766813545199
30
0
41
1
10
-33.5170497798877
20
-25.6602863519691
30
0
41
1
10
-33.1079072838668
20
-25.6290050982506
30
0
41
1
10
-32.9720674539057
20
-25.6174422894617
30
0
41
1
10
-32.7027541217386
20
-25.5908848898508
30
0
41
1
10
-32.5689709456544
20
-25.5759184308267
30
0
41
1
10
-32.306312411401
20
-25.5400152888967
30
0
41
1
10
-32.1775882924179
20
-25.5194772545503
30
0
41
1
10
-31.99491402975
20
-25.47832588661
30
0
41
1
10
-31.9351730351101
20
-25.462731203077
30
0
41
1
10
-31.8535304299633
20
-25.4340605229895
30
0
41
1
10
-31.82784176714
20
-25.4236737608429
30
0
41
1
10
-31.7815506908163
20
-25.4001331685052
30
0
41
1
10
-31.7610206780383
20
-25.3869953045196
30
0
41
1
10
-31.7461682088014
20
-25.3721053138508
30
0
0
SPLINE
5
11F
100
AcDbEntity
8
1
62
256
6
ByLayer
370
18
48
1
60
0
100
AcDbSpline
70
4
71
3
72
32
73
28
40
0
40
0
40
0
40
0
40
0.124999999999997
40
0.124999999999997
40
0.187499999999997
40
0.187499999999997
40
0.249999999999996
40
0.312499999999996
40
0.312499999999996
40
0.374999999999995
40
0.374999999999995
40
0.437499999999995
40
0.437499999999995
40
0.499999999999994
40
0.499999999999994
40
0.624999999999996
40
0.624999999999996
40
0.687499999999996
40
0.687499999999996
40
0.749999999999997
40
0.749999999999997
40
0.812499999999998
40
0.812499999999998
40
0.874999999999999
40
0.937499999999999
40
0.937499999999999
40
1
40
1
40
1
40
1
41
1
10
19.525
20
-12.7651965466007
30
0
41
1
10
19.4486152629439
20
-12.8915732735047
30
0
41
1
10
19.3561466369198
20
-13.0055213878913
30
0
41
1
10
19.194010683563
20
-13.1585484890449
30
0
41
1
10
19.135565610543
20
-13.20680145202
30
0
41
1
10
19.0136892882088
20
-13.2946264714193
30
0
41
1
10
18.8864432773341
20
-13.3743154491233
30
0
41
1
10
18.7486361507415
20
-13.4380728150716
30
0
41
1
10
18.6053568909356
20
-13.4936065953334
30
0
41
1
10
18.5319590117329
20
-13.5168387704223
30
0
41
1
10
18.3835875525039
20
-13.5539605935098
30
0
41
1
10
18.308325132024
20
-13.5679629807559
30
0
41
1
10
18.1556327087437
20
-13.5868056572804
30
0
41
1
10
18.0776093737967
20
-13.5916228849402
30
0
41
1
10
17.8455342907627
20
-13.5916535949503
30
0
41
1
10
17.6933115503841
20
-13.5730791202318
30
0
41
1
10
17.4687437859834
20
-13.517074405564
30
0
41
1
10
17.3950577931132
20
-13.4937139867555
30
0
41
1
10
17.2531603380318
20
-13.4388216299475
30
0
41
1
10
17.1844596799115
20
-13.4071752190434
30
0
41
1
10
17.0515566935968
20
-13.3354471808985
30
0
41
1
10
16.9869282282892
20
-13.2950447693647
30
0
41
1
10
16.8646208932639
20
-13.2069623624236
30
0
41
1
10
16.7497076105926
20
-13.1121233871461
30
0
41
1
10
16.6491736162309
20
-13.0040715257288
30
0
41
1
10
16.5560072992309
20
-12.889212004888
30
0
41
1
10
16.5131922742747
20
-12.8283847541127
30
0
41
1
10
16.475
20
-12.7651965466007
30
0
0
SPLINE
5
120
100
AcDbEntity
8
1
62
256
6
ByLayer
370
18
48
1
60
0
100
AcDbSpline
70
4
71
3
72
32
73
28
40
0
40
0
40
0
40
0
40
0.124999999999999
40
0.124999999999999
40
0.187499999999998
40
0.187499999999998
40
0.249999999999997
40
0.312499999999996
40
0.312499999999996
40
0.374999999999995
40
0.374999999999995
40
0.437499999999995
40
0.437499999999995
40
0.499999999999994
40
0.499999999999994
40
0.624999999999995
40
0.624999999999995
40
0.687499999999996
40
0.687499999999996
40
0.749999999999997
40
0.749999999999997
40
0.812499999999998
40
0.812499999999998
40
0.874999999999998
40
0.937499999999999
40
0.937499999999999
40
1
40
1
40
1
40
1
41
1
10
16.475
20
12.7651965466007
30
0
41
1
10
16.5513847370561
20
12.8915732735046
30
0
41
1
10
16.6438533630802
20
13.0055213878913
30
0
41
1
10
16.805989316437
20
13.1585484890449
30
0
41
1
10
16.864434389457
20
13.20680145202
30
0
41
1
10
16.9863107117912
20
13.2946264714193
30
0
41
1
10
17.1135571557736
20
13.3743148886291
30
0
41
1
10
17.2513638492584
20
13.4380728150716
30
0
41
1
10
17.3946431090644
20
13.4936065953335
30
0
41
1
10
17.4680409882671
20
13.5168387704223
30
0
41
1
10
17.6164124474961
20
13.5539605935098
30
0
41
1
10
17.691674867976
20
13.5679629807559
30
0
41
1
10
17.8443672912563
20
13.5868056572804
30
0
41
1
10
17.9223906262033
20
13.5916228849402
30
0
41
1
10
18.1544657092373
20
13.5916535949503
30
0
41
1
10
18.3066884496159
20
13.5730791202318
30
0
41
1
10
18.5312562140166
20
13.517074405564
30
0
41
1
10
18.6049422068869
20
13.4937139867555
30
0
41
1
10
18.7468396619682
20
13.4388216299475
30
0
41
1
10
18.8155403200885
20
13.4071752190434
30
0
41
1
10
18.9484433064032
20
13.3354471808985
30
0
41
1
10
19.0130717717108
20
13.2950447693648
30
0
41
1
10
19.1353791067361
20
13.2069623624236
30
0
41
1
10
19.2502923894074
20
13.1121233871461
30
0
41
1
10
19.3508263837691
20
13.0040715257289
30
0
41
1
10
19.4439927007691
20
12.889212004888
30
0
41
1
10
19.4868077257253
20
12.8283847541127
30
0
41
1
10
19.525
20
12.7651965466007
30
0
0
SPLINE
5
121
100
AcDbEntity
8
1
62
256
6
ByLayer
370
18
48
1
60
0
100
AcDbSpline
70
4
71
3
72
32
73
28
40
0
40
0
40
0
40
0
40
0.125000000000001
40
0.125000000000001
40
0.1875
40
0.1875
40
0.249999999999999
40
0.312499999999998
40
0.312499999999998
40
0.374999999999997
40
0.374999999999997
40
0.437499999999996
40
0.437499999999996
40
0.499999999999995
40
0.499999999999995
40
0.624999999999996
40
0.624999999999996
40
0.687499999999997
40
0.687499999999997
40
0.749999999999998
40
0.749999999999998
40
0.812499999999998
40
0.812499999999998
40
0.874999999999999
40
0.937499999999999
40
0.937499999999999
40
1
40
1
40
1
40
1
41
1
10
19.525
20
11.1519055009283
30
0
41
1
10
19.4486152629439
20
11.0232498427114
30
0
41
1
10
19.3561466369198
20
10.906707194085
30
0
41
1
10
19.194010683563
20
10.7497200065345
30
0
41
1
10
19.135565610543
20
10.7001269235378
30
0
41
1
10
19.0136892882088
20
10.6097383639167
30
0
41
1
10
18.8864432773341
20
10.5275904368795
30
0
41
1
10
18.7486361507416
20
10.4617060054662
30
0
41
1
10
18.6053568909356
20
10.4042730873068
30
0
41
1
10
18.5319590117329
20
10.3802200343838
30
0
41
1
10
18.3835875525039
20
10.3417682720477
30
0
41
1
10
18.308325132024
20
10.3272528382602
30
0
41
1
10
18.1556327087437
20
10.3077165367689
30
0
41
1
10
18.0776093737967
20
10.3027195996144
30
0
41
1
10
17.8455342907627
20
10.3026877488487
30
0
41
1
10
17.6933115503841
20
10.3219644968248
30
0
41
1
10
17.4687437859834
20
10.3799761060094
30
0
41
1
10
17.3950577931132
20
10.4041617464793
30
0
41
1
10
17.2531603380318
20
10.4609318552655
30
0
41
1
10
17.1844596799115
20
10.4936350219861
30
0
41
1
10
17.0515566935968
20
10.5676577773925
30
0
41
1
10
16.9869282282892
20
10.6093075594832
30
0
41
1
10
16.8646208932639
20
10.6999616110613
30
0
41
1
10
16.7497076105926
20
10.7974349288396
30
0
41
1
10
16.6491736162309
20
10.9081091187077
30
0
41
1
10
16.5560072992309
20
11.0255160778661
30
0
41
1
10
16.5131922742747
20
11.0875778305719
30
0
41
1
10
16.475
20
11.1519055009283
30
0
0
SPLINE
5
122
100
AcDbEntity
8
1
62
256
6
ByLayer
370
18
48
1
60
0
100
AcDbSpline
70
4
71
3
72
32
73
28
40
0
40
0
40
0
40
0
40
0.125000000000001
40
0.125000000000001
40
0.1875
40
0.1875
40
0.249999999999999
40
0.312499999999998
40
0.312499999999998
40
0.374999999999998
40
0.374999999999998
40
0.437499999999997
40
0.437499999999997
40
0.499999999999996
40
0.499999999999996
40
0.624999999999997
40
0.624999999999997
40
0.687499999999998
40
0.687499999999998
40
0.749999999999998
40
0.749999999999998
40
0.812499999999999
40
0.812499999999999
40
0.874999999999999
40
0.9375
40
0.9375
40
1
40
1
40
1
40
1
41
1
10
16.475
20
-11.1519055009283
30
0
41
1
10
16.5513847370561
20
-11.0232498427114
30
0
41
1
10
16.6438533630802
20
-10.906707194085
30
0
41
1
10
16.805989316437
20
-10.7497200065346
30
0
41
1
10
16.864434389457
20
-10.7001269235378
30
0
41
1
10
16.9863107117912
20
-10.6097383639167
30
0
41
1
10
17.1135571557736
20
-10.5275911774669
30
0
41
1
10
17.2513638492584
20
-10.4617060054662
30
0
41
1
10
17.3946431090644
20
-10.4042730873068
30
0
41
1
10
17.4680409882671
20
-10.3802200343838
30
0
41
1
10
17.6164124474961
20
-10.3417682720477
30
0
41
1
10
17.691674867976
20
-10.3272528382602
30
0
41
1
10
17.8443672912563
20
-10.3077165367689
30
0
41
1
10
17.9223906262033
20
-10.3027195996144
30
0
41
1
10
18.1544657092373
20
-10.3026877488487
30
0
41
1
10
18.3066884496159
20
-10.3219644968248
30
0
41
1
10
18.5312562140166
20
-10.3799761060094
30
0
41
1
10
18.6049422068869
20
-10.4041617464793
30
0
41
1
10
18.7468396619682
20
-10.4609318552655
30
0
41
1
10
18.8155403200885
20
-10.4936350219861
30
0
41
1
10
18.9484433064032
20
-10.5676577773925
30
0
41
1
10
19.0130717717108
20
-10.6093075594832
30
0
41
1
10
19.1353791067361
20
-10.6999616110613
30
0
41
1
10
19.2502922845242
20
-10.797435116149
30
0
41
1
10
19.3508263837691
20
-10.9081091187077
30
0
41
1
10
19.4439927007691
20
-11.0255160778661
30
0
41
1
10
19.4868077257253
20
-11.0875778305719
30
0
41
1
10
19.525
20
-11.1519055009283
30
0
0
SPLINE
5
123
100
AcDbEntity
8
1
62
256
6
ByLayer
370
18
48
1
60
0
100
AcDbSpline
70
4
71
3
72
32
73
28
40
0
40
0
40
0
40
0
40
0.124999999999998
40
0.124999999999998
40
0.187499999999998
40
0.187499999999998
40
0.249999999999998
40
0.312499999999999
40
0.312499999999999
40
0.374999999999999
40
0.374999999999999
40
0.437499999999999
40
0.437499999999999
40
0.499999999999999
40
0.499999999999999
40
0.624999999999999
40
0.624999999999999
40
0.687499999999999
40
0.687499999999999
40
0.75
40
0.75
40
0.8125
40
0.8125
40
0.875
40
0.9375
40
0.9375
40
1
40
1
40
1
40
1
41
1
10
19.525
20
-6.91688846914531
30
0
41
1
10
19.4486152629439
20
-7.04994825866055
30
0
41
1
10
19.3561466369198
20
-7.17006799118849
30
0
41
1
10
19.194010683563
20
-7.33151181500855
30
0
41
1
10
19.135565610543
20
-7.3824434594296
30
0
41
1
10
19.0136892882088
20
-7.47517754058103
30
0
41
1
10
18.8864432773341
20
-7.55935670935426
30
0
41
1
10
18.7486361507416
20
-7.62674972342742
30
0
41
1
10
18.6053568909356
20
-7.68546275886663
30
0
41
1
10
18.5319590117329
20
-7.71003208178732
30
0
41
1
10
18.3835875525039
20
-7.74929542417476
30
0
41
1
10
18.308325132024
20
-7.76410867213539
30
0
41
1
10
18.1556327087437
20
-7.78404337719417
30
0
41
1
10
18.0776093737967
20
-7.78914043073308
30
0
41
1
10
17.8455342907627
20
-7.78917292332025
30
0
41
1
10
17.6933115503841
20
-7.76951696025216
30
0
41
1
10
17.4687437859834
20
-7.71028127030021
30
0
41
1
10
17.3950577931132
20
-7.68557637313316
30
0
41
1
10
17.2531603380318
20
-7.62754133359832
30
0
41
1
10
17.1844596799115
20
-7.59409008090924
30
0
41
1
10
17.0515566935968
20
-7.51829842761583
30
0
41
1
10
16.9869282282892
20
-7.47561929983908
30
0
41
1
10
16.8646208932639
20
-7.38261328443937
30
0
41
1
10
16.7497077154758
20
-7.28250933665851
30
0
41
1
10
16.6491736162309
20
-7.16856147064789
30
0
41
1
10
16.5560072992309
20
-7.04749929746504
30
0
41
1
10
16.5131922742747
20
-6.98341819971654
30
0
41
1
10
16.475
20
-6.91688846914531
30
0
0
SPLINE
5
124
100
AcDbEntity
8
1
62
256
6
ByLayer
370
18
48
1
60
0
100
AcDbSpline
70
4
71
3
72
32
73
28
40
0
40
0
40
0
40
0
40
0.124999999999998
40
0.124999999999998
40
0.187499999999997
40
0.187499999999997
40
0.249999999999996
40
0.312499999999996
40
0.312499999999996
40
0.374999999999995
40
0.374999999999995
40
0.437499999999995
40
0.437499999999995
40
0.499999999999994
40
0.499999999999994
40
0.624999999999996
40
0.624999999999996
40
0.687499999999996
40
0.687499999999996
40
0.749999999999997
40
0.749999999999997
40
0.812499999999998
40
0.812499999999998
40
0.874999999999999
40
0.937499999999999
40
0.937499999999999
40
1
40
1
40
1
40
1
41
1
10
19.525
20
5.22614247997862
30
0
41
1
10
19.4486152629439
20
5.0919256467125
30
0
41
1
10
19.3561466369198
20
4.97048863462831
30
0
41
1
10
19.194010683563
20
4.80703422225187
30
0
41
1
10
19.135565610543
20
4.75542218106429
30
0
41
1
10
19.0136892882088
20
4.66138655643192
30
0
41
1
10
18.8864432773341
20
4.57595894636361
30
0
41
1
10
18.7486361507416
20
4.50748599285126
30
0
41
1
10
18.6053568909356
20
4.44780873983163
30
0
41
1
10
18.5319590117329
20
4.42282264631194
30
0
41
1
10
18.3835875525039
20
4.38288407607195
30
0
41
1
10
18.308325132024
20
4.36781034755566
30
0
41
1
10
18.1556327087437
20
4.34752347987188
30
0
41
1
10
18.0776093737966
20
4.34233518543132
30
0
41
1
10
17.8455342907627
20
4.34230211366733
30
0
41
1
10
17.6933115503841
20
4.36231463021275
30
0
41
1
10
17.4687437859834
20
4.42256924721454
30
0
41
1
10
17.3950577931132
20
4.44769312039938
30
0
41
1
10
17.2531603380318
20
4.50668151959886
30
0
41
1
10
17.1844596799115
20
4.54066930127709
30
0
41
1
10
17.0515566935968
20
4.61762601305753
30
0
41
1
10
16.9869282282892
20
4.66093844746348
30
0
41
1
10
16.8646208932639
20
4.75525012106354
30
0
41
1
10
16.7497076105926
20
4.85669151964569
30
0
41
1
10
16.6491736162309
20
4.97197081664211
30
0
41
1
10
16.5560072992309
20
5.09432635815486
30
0
41
1
10
16.5131922742747
20
5.15903422895965
30
0
41
1
10
16.475
20
5.22614247997865
30
0
0
SPLINE
5
125
100
AcDbEntity
8
1
62
256
6
ByLayer
370
18
48
1
60
0
100
AcDbSpline
70
4
71
3
72
32
73
28
40
0
40
0
40
0
40
0
40
0.124999999999999
40
0.124999999999999
40
0.187499999999998
40
0.187499999999998
40
0.249999999999997
40
0.312499999999997
40
0.312499999999997
40
0.374999999999996
40
0.374999999999996
40
0.437499999999995
40
0.437499999999995
40
0.499999999999994
40
0.499999999999994
40
0.624999999999996
40
0.624999999999996
40
0.687499999999996
40
0.687499999999996
40
0.749999999999997
40
0.749999999999997
40
0.812499999999998
40
0.812499999999998
40
0.874999999999999
40
0.937499999999999
40
0.937499999999999
40
1
40
1
40
1
40
1
41
1
10
16.475
20
-5.22614247997862
30
0
41
1
10
16.5513847370561
20
-5.0919256467125
30
0
41
1
10
16.6438533630802
20
-4.97048863462831
30
0
41
1
10
16.805989316437
20
-4.80703422225187
30
0
41
1
10
16.864434389457
20
-4.75542218106429
30
0
41
1
10
16.9863107117912
20
-4.66138655643192
30
0
41
1
10
17.1135571557736
20
-4.57595967385507
30
0
41
1
10
17.2513638492585
20
-4.50748599285126
30
0
41
1
10
17.3946431090644
20
-4.44780873983163
30
0
41
1
10
17.4680409882671
20
-4.42282264631194
30
0
41
1
10
17.6164124474961
20
-4.38288407607195
30
0
41
1
10
17.691674867976
20
-4.36781034755563
30
0
41
1
10
17.8443672912563
20
-4.34752347987188
30
0
41
1
10
17.9223906262033
20
-4.34233518543132
30
0
41
1
10
18.1544657092373
20
-4.34230211366733
30
0
41
1
10
18.3066884496159
20
-4.36231463021272
30
0
41
1
10
18.5312562140166
20
-4.42256924721451
30
0
41
1
10
18.6049422068869
20
-4.44769312039935
30
0
41
1
10
18.7468396619682
20
-4.50668151959886
30
0
41
1
10
18.8155403200885
20
-4.54066930127706
30
0
41
1
10
18.9484433064032
20
-4.6176260130575
30
0
41
1
10
19.0130717717108
20
-4.66093844746345
30
0
41
1
10
19.1353791067361
20
-4.75525012106351
30
0
41
1
10
19.2502923894074
20
-4.85669151964569
30
0
41
1
10
19.3508263837691
20
-4.97197081664208
30
0
41
1
10
19.4439927007691
20
-5.09432635815483
30
0
41
1
10
19.4868077257253
20
-5.15903422895965
30
0
41
1
10
19.525
20
-5.22614247997862
30
0
0
SPLINE
5
126
100
AcDbEntity
8
1
62
256
6
ByLayer
370
18
48
1
60
0
100
AcDbSpline
70
4
71
3
72
18
73
14
40
0
40
0
40
0
40
0
40
0.25
40
0.25
40
0.375
40
0.375
40
0.500000000000001
40
0.500000000000001
40
0.625000000000001
40
0.625000000000001
40
0.750000000000002
40
0.750000000000002
40
1
40
1
40
1
40
1
41
1
10
16.475
20
-6.91688846914531
30
0
41
1
10
16.4005887823592
20
-6.78726648786406
30
0
41
1
10
16.3452130666226
20
-6.65562432452847
30
0
41
1
10
16.2883057630722
20
-6.44703156068954
30
0
41
1
10
16.2739494436361
20
-6.37596065274545
30
0
41
1
10
16.254886703211
20
-6.23283256063829
30
0
41
1
10
16.2500603770318
20
-6.16035216735955
30
0
41
1
10
16.2499407438748
20
-6.01315736425926
30
0
41
1
10
16.2547569006293
20
-5.9377977212591
30
0
41
1
10
16.2739548487808
20
-5.78887401455819
30
0
41
1
10
16.2882168132767
20
-5.7153371456491
30
0
41
1
10
16.3447112181807
20
-5.49779656087068
30
0
41
1
10
16.4013255989025
20
-5.35559693893455
30
0
41
1
10
16.475
20
-5.22614247997862
30
0
0
SPLINE
5
127
100
AcDbEntity
8
1
62
256
6
ByLayer
370
18
48
1
60
0
100
AcDbSpline
70
4
71
3
72
18
73
14
40
0
40
0
40
0
40
0
40
0.249999999999998
40
0.249999999999998
40
0.374999999999998
40
0.374999999999998
40
0.499999999999997
40
0.499999999999997
40
0.624999999999997
40
0.624999999999997
40
0.749999999999997
40
0.749999999999997
40
1
40
1
40
1
40
1
41
1
10
16.475
20
-12.7651965466007
30
0
41
1
10
16.4005887823591
20
-12.6420849605322
30
0
41
1
10
16.3452130666226
20
-12.5203489655629
30
0
41
1
10
16.2883057630722
20
-12.3264322353108
30
0
41
1
10
16.2739494436361
20
-12.2602218734838
30
0
41
1
10
16.254886703211
20
-12.1258985341121
30
0
41
1
10
16.2500603770318
20
-12.0573841225598
30
0
41
1
10
16.2499407438748
20
-11.9169478808943
30
0
41
1
10
16.2547569006292
20
-11.8443953059784
30
0
41
1
10
16.2739548487808
20
-11.7000292563012
30
0
41
1
10
16.2882168132767
20
-11.6282681045996
30
0
41
1
10
16.3447112181807
20
-11.4156026694027
30
0
41
1
10
16.4013255989025
20
-11.2759961102862
30
0
41
1
10
16.475
20
-11.1519055009283
30
0
0
SPLINE
5
128
100
AcDbEntity
8
1
62
256
6
ByLayer
370
18
48
1
60
0
100
AcDbSpline
70
4
71
3
72
32
73
28
40
0
40
0
40
0
40
0
40
0.125000000000001
40
0.125000000000001
40
0.187500000000001
40
0.187500000000001
40
0.250000000000001
40
0.312500000000001
40
0.312500000000001
40
0.375000000000001
40
0.375000000000001
40
0.437500000000001
40
0.437500000000001
40
0.500000000000001
40
0.500000000000001
40
0.625000000000001
40
0.625000000000001
40
0.687500000000001
40
0.687500000000001
40
0.750000000000001
40
0.750000000000001
40
0.8125
40
0.8125
40
0.875
40
0.9375
40
0.9375
40
1
40
1
40
1
40
1
41
1
10
16.475
20
6.91688846914531
30
0
41
1
10
16.5513847370561
20
7.04994825866055
30
0
41
1
10
16.6438533630802
20
7.17006799118849
30
0
41
1
10
16.805989316437
20
7.33151181500855
30
0
41
1
10
16.864434389457
20
7.3824434594296
30
0
41
1
10
16.9863107117912
20
7.47517754058103
30
0
41
1
10
17.1135571557736
20
7.55935607329849
30
0
41
1
10
17.2513638492584
20
7.62674972342742
30
0
41
1
10
17.3946431090644
20
7.68546275886663
30
0
41
1
10
17.4680409882671
20
7.71003208178732
30
0
41
1
10
17.6164124474961
20
7.74929542417476
30
0
41
1
10
17.691674867976
20
7.76410867213539
30
0
41
1
10
17.8443672912563
20
7.78404337719417
30
0
41
1
10
17.9223906262033
20
7.78914043073308
30
0
41
1
10
18.1544657092373
20
7.78917292332025
30
0
41
1
10
18.3066884496159
20
7.76951696025219
30
0
41
1
10
18.5312562140166
20
7.71028127030021
30
0
41
1
10
18.6049422068869
20
7.68557637313316
30
0
41
1
10
18.7468396619682
20
7.62754133359832
30
0
41
1
10
18.8155403200885
20
7.59409008090927
30
0
41
1
10
18.9484433064032
20
7.51829842761586
30
0
41
1
10
19.0130717717108
20
7.47561929983908
30
0
41
1
10
19.1353791067361
20
7.3826132844394
30
0
41
1
10
19.2502922845242
20
7.28250933665851
30
0
41
1
10
19.3508263837691
20
7.16856147064792
30
0
41
1
10
19.4439927007691
20
7.04749929746507
30
0
41
1
10
19.4868077257253
20
6.98341819971657
30
0
41
1
10
19.525
20
6.91688846914533
30
0
0
SPLINE
5
129
100
AcDbEntity
8
1
62
256
6
ByLayer
370
18
48
1
60
0
100
AcDbSpline
70
4
71
3
72
18
73
14
40
0
40
0
40
0
40
0
40
0.25
40
0.25
40
0.375000000000001
40
0.375000000000001
40
0.500000000000001
40
0.500000000000001
40
0.625000000000001
40
0.625000000000001
40
0.750000000000001
40
0.750000000000001
40
1
40
1
40
1
40
1
41
1
10
16.475
20
5.22614247997865
30
0
41
1
10
16.4005887823592
20
5.35689161097182
30
0
41
1
10
16.3452130666226
20
5.49616700991592
30
0
41
1
10
16.2883057630722
20
5.71484453682996
30
0
41
1
10
16.2739494436361
20
5.78907610495571
30
0
41
1
10
16.254886703211
20
5.93663168897612
30
0
41
1
10
16.2500603770318
20
6.0103836163066
30
0
41
1
10
16.2499407438748
20
6.15760876079699
30
0
41
1
10
16.2547569006293
20
6.23169752810497
30
0
41
1
10
16.2739548487808
20
6.37616064131257
30
0
41
1
10
16.2882168132767
20
6.44655973923921
30
0
41
1
10
16.3447112181807
20
6.65407374973398
30
0
41
1
10
16.4013255989025
20
6.78854999891536
30
0
41
1
10
16.475
20
6.91688846914531
30
0
0
SPLINE
5
12A
100
AcDbEntity
8
1
62
256
6
ByLayer
370
18
48
1
60
0
100
AcDbSpline
70
4
71
3
72
18
73
14
40
0
40
0
40
0
40
0
40
0.250000000000001
40
0.250000000000001
40
0.375000000000002
40
0.375000000000002
40
0.500000000000002
40
0.500000000000002
40
0.625000000000003
40
0.625000000000003
40
0.750000000000003
40
0.750000000000003
40
1
40
1
40
1
40
1
41
1
10
16.475
20
11.1519055009283
30
0
41
1
10
16.4005887823592
20
11.2772371385468
30
0
41
1
10
16.3452130666226
20
11.4140076727319
30
0
41
1
10
16.2883057630722
20
11.6277875087115
30
0
41
1
10
16.2739494436361
20
11.7002231558413
30
0
41
1
10
16.254886703211
20
11.8432669519381
30
0
41
1
10
16.2500603770318
20
11.9142857966752
30
0
41
1
10
16.2499407438748
20
12.0547817992133
30
0
41
1
10
16.2547569006293
20
12.1248312376599
30
0
41
1
10
16.2739548487808
20
12.2604116332263
30
0
41
1
10
16.2882168132767
20
12.3259925825465
30
0
41
1
10
16.3447112181808
20
12.518909521562
30
0
41
1
10
16.4013255989025
20
12.643304005942
30
0
41
1
10
16.475
20
12.7651965466007
30
0
0
SPLINE
5
12B
100
AcDbEntity
8
SK1
62
256
6
ByLayer
370
18
48
1
60
0
100
AcDbSpline
70
4
71
3
72
10
73
6
40
0
40
0
40
0
40
0
40
0.5
40
0.5
40
1
40
1
40
1
40
1
41
1
10
-38.6109569339037
20
-25.0504903307917
30
0
41
1
10
-38.6050481602684
20
-25.1493482098669
30
0
41
1
10
-38.5790960992915
20
-25.2485800782286
30
0
41
1
10
-38.4979689965003
20
-25.4428130442182
30
0
41
1
10
-38.4429938137822
20
-25.5377924698902
30
0
41
1
10
-38.3800599072148
20
-25.6267055539649
30
0
0
SPLINE
5
12C
100
AcDbEntity
8
1
62
256
6
ByLayer
370
18
48
1
60
0
100
AcDbSpline
70
4
71
3
72
14
73
10
40
0
40
0
40
0
40
0
40
0.125000000000001
40
0.125000000000001
40
0.250000000000002
40
0.250000000000002
40
0.500000000000005
40
0.500000000000005
40
1
40
1
40
1
40
1
41
1
10
19.525
20
33.9
30
0
41
1
10
19.5472472564248
20
33.9
30
0
41
1
10
19.5684731716935
20
33.9
30
0
41
1
10
19.6053503635552
20
33.9
30
0
41
1
10
19.621464261558
20
33.9
30
0
41
1
10
19.6640946124198
20
33.9
30
0
41
1
10
19.6863142561493
20
33.9
30
0
41
1
10
19.7439072065274
20
33.9
30
0
41
1
10
19.7713466702396
20
33.9
30
0
41
1
10
19.7948590565638
20
33.9
30
0
0
SPLINE
5
12D
100
AcDbEntity
8
1
62
256
6
ByLayer
370
18
48
1
60
0
100
AcDbSpline
70
4
71
3
72
18
73
14
40
0
40
0
40
0
40
0
40
0.250000000000006
40
0.250000000000006
40
0.375000000000006
40
0.375000000000006
40
0.500000000000005
40
0.500000000000005
40
0.750000000000004
40
0.750000000000004
40
0.875000000000002
40
0.875000000000002
40
1
40
1
40
1
40
1
41
1
10
19.525
20
12.7651965466007
30
0
41
1
10
19.5987562616183
20
12.6431685696614
30
0
41
1
10
19.6554509933758
20
12.5184545992944
30
0
41
1
10
19.7118259139486
20
12.3257970158667
30
0
41
1
10
19.7260396123307
20
12.2603731615459
30
0
41
1
10
19.7451852412381
20
12.1253171772815
30
0
41
1
10
19.7500766001911
20
12.0549349523478
30
0
41
1
10
19.7498440170057
20
11.8426001860712
30
0
41
1
10
19.7306388693806
20
11.6988007695966
30
0
41
1
10
19.6735882971139
20
11.4847152392153
30
0
41
1
10
19.6498765822692
20
11.414254803255
30
0
41
1
10
19.5940050251319
20
11.2790060424848
30
0
41
1
10
19.5617484149621
20
11.2138012630608
30
0
41
1
10
19.525
20
11.1519055009283
30
0
0
SPLINE
5
12E
100
AcDbEntity
8
1
62
256
6
ByLayer
370
18
48
1
60
0
100
AcDbSpline
70
4
71
3
72
18
73
14
40
0
40
0
40
0
40
0
40
0.250000000000002
40
0.250000000000002
40
0.375000000000002
40
0.375000000000002
40
0.500000000000003
40
0.500000000000003
40
0.750000000000001
40
0.750000000000001
40
0.875000000000001
40
0.875000000000001
40
1
40
1
40
1
40
1
41
1
10
19.525
20
6.91688846914533
30
0
41
1
10
19.5987562616183
20
6.78840740048426
30
0
41
1
10
19.6554509933758
20
6.65358359934586
30
0
41
1
10
19.7118259139486
20
6.44634977952387
30
0
41
1
10
19.7260396123307
20
6.37612077731049
30
0
41
1
10
19.7451852412381
20
6.23221418019693
30
0
41
1
10
19.7500766001911
20
6.15776692636072
30
0
41
1
10
19.7498440170056
20
5.93526924403076
30
0
41
1
10
19.7306388693806
20
5.78748366078852
30
0
41
1
10
19.6735882971139
20
5.56849501206645
30
0
41
1
10
19.6498765822692
20
5.49654809215932
30
0
41
1
10
19.5940050251319
20
5.35786422787117
30
0
41
1
10
19.5617484149621
20
5.29071370289373
30
0
41
1
10
19.525
20
5.22614247997862
30
0
0
SPLINE
5
12F
100
AcDbEntity
8
1
62
256
6
ByLayer
370
18
48
1
60
0
100
AcDbSpline
70
4
71
3
72
18
73
14
40
0
40
0
40
0
40
0
40
0.250000000000001
40
0.250000000000001
40
0.375000000000001
40
0.375000000000001
40
0.500000000000001
40
0.500000000000001
40
0.749999999999999
40
0.749999999999999
40
0.875
40
0.875
40
1
40
1
40
1
40
1
41
1
10
19.525
20
-5.22614247997862
30
0
41
1
10
19.5987562616183
20
-5.35574077735427
30
0
41
1
10
19.6554509933758
20
-5.49831187071226
30
0
41
1
10
19.7118259139486
20
-5.7155565093897
30
0
41
1
10
19.7260396123307
20
-5.78891302395908
30
0
41
1
10
19.7451852412381
20
-5.93726719506407
30
0
41
1
10
19.7500766001911
20
-6.01300359745784
30
0
41
1
10
19.7498440170057
20
-6.2354422921162
30
0
41
1
10
19.7306388693806
20
-6.37774435897521
30
0
41
1
10
19.6735882971139
20
-6.58663086192291
30
0
41
1
10
19.6498765822692
20
-6.65501379405148
30
0
41
1
10
19.5940050251319
20
-6.78795000974333
30
0
41
1
10
19.5617484149621
20
-6.85287389570664
30
0
41
1
10
19.525
20
-6.91688846914531
30
0
0
SPLINE
5
130
100
AcDbEntity
8
1
62
256
6
ByLayer
370
18
48
1
60
0
100
AcDbSpline
70
4
71
3
72
8
73
4
40
0
40
0
40
0
40
0
40
1
40
1
40
1
40
1
41
1
10
25.25
20
24.85
30
0
41
1
10
25.4841565050522
20
24.85
30
0
41
1
10
25.717508145078
20
24.85
30
0
41
1
10
25.95
20
24.85
30
0
0
SPLINE
5
131
100
AcDbEntity
8
1
62
256
6
ByLayer
370
18
48
1
60
0
100
AcDbSpline
70
4
71
3
72
14
73
10
40
0
40
0
40
0
40
0
40
0.499999999999996
40
0.499999999999996
40
0.749999999999994
40
0.749999999999994
40
0.874999999999997
40
0.874999999999997
40
1
40
1
40
1
40
1
41
1
10
16.2051409434368
20
33.9
30
0
41
1
10
16.2286761646575
20
33.9
30
0
41
1
10
16.2561403916067
20
33.9
30
0
41
1
10
16.3142340927599
20
33.9
30
0
41
1
10
16.3364937007828
20
33.9
30
0
41
1
10
16.3790112660069
20
33.9
30
0
41
1
10
16.394950996215
20
33.9
30
0
41
1
10
16.4318074190834
20
33.9
30
0
41
1
10
16.4529211485337
20
33.9
30
0
41
1
10
16.475
20
33.9
30
0
0
SPLINE
5
132
100
AcDbEntity
8
1
62
256
6
ByLayer
370
18
48
1
60
0
100
AcDbSpline
70
4
71
3
72
12
73
8
40
0
40
0
40
0
40
0
40
0.249999999999986
40
0.249999999999986
40
0.499999999999972
40
0.499999999999972
40
1
40
1
40
1
40
1
41
1
10
16.075
20
34.2054408537589
30
0
41
1
10
16.075
20
34.1767646355053
30
0
41
1
10
16.0778521699004
20
34.1485713332541
30
0
41
1
10
16.0890520900269
20
34.0931152145837
30
0
41
1
10
16.0975468806962
20
34.0655505071535
30
0
41
1
10
16.1308036433805
20
33.9870380878759
30
0
41
1
10
16.1634556427743
20
33.9394255682273
30
0
41
1
10
16.2051409434368
20
33.9
30
0
0
SPLINE
5
133
100
AcDbEntity
8
1
62
256
6
ByLayer
370
18
48
1
60
0
100
AcDbSpline
70
4
71
3
72
10
73
6
40
0
40
0
40
0
40
0
40
0.5
40
0.5
40
1
40
1
40
1
40
1
41
1
10
16.1490061093711
20
24.85
30
0
41
1
10
16.1235362000259
20
24.900658413958
30
0
41
1
10
16.1054369119387
20
24.9537086106145
30
0
41
1
10
16.0810445802223
20
25.0636401560432
30
0
41
1
10
16.0749999999999
20
25.120133671696
30
0
41
1
10
16.0749999999999
20
25.1767377751765
30
0
0
SPLINE
5
134
100
AcDbEntity
8
1
62
256
6
ByLayer
370
18
48
1
60
0
100
AcDbSpline
70
4
71
3
72
20
73
16
40
0
40
0
40
0
40
0
40
0.0624999999999994
40
0.0624999999999994
40
0.124999999999999
40
0.124999999999999
40
0.249999999999998
40
0.249999999999998
40
0.374999999999997
40
0.374999999999997
40
0.499999999999995
40
0.499999999999995
40
0.749999999999998
40
0.749999999999998
40
1
40
1
40
1
40
1
41
1
10
16.475
20
-33.9
30
0
41
1
10
16.4421279177076
20
-33.9
30
0
41
1
10
16.4123225016751
20
-33.9
30
0
41
1
10
16.3640097553335
20
-33.9
30
0
41
1
10
16.344712217264
20
-33.9
30
0
41
1
10
16.2931266856626
20
-33.9
30
0
41
1
10
16.2681772497995
20
-33.9
30
0
41
1
10
16.2244383417212
20
-33.9
30
0
41
1
10
16.2062323729168
20
-33.9
30
0
41
1
10
16.174602716546
20
-33.9
30
0
41
1
10
16.1611680674722
20
-33.9
30
0
41
1
10
16.1259218985946
20
-33.9
30
0
41
1
10
16.1090863060527
20
-33.9
30
0
41
1
10
16.0850925396126
20
-33.9
30
0
41
1
10
16.0780326971146
20
-33.9
30
0
41
1
10
16.0757749965766
20
-33.9
30
0
0
SPLINE
5
135
100
AcDbEntity
8
1
62
256
6
ByLayer
370
18
48
1
60
0
100
AcDbSpline
70
4
71
3
72
18
73
14
40
0
40
0
40
0
40
0
40
0.249999999999999
40
0.249999999999999
40
0.374999999999998
40
0.374999999999998
40
0.499999999999997
40
0.499999999999997
40
0.75
40
0.75
40
0.875
40
0.875
40
1
40
1
40
1
40
1
41
1
10
19.525
20
-11.1519055009283
30
0
41
1
10
19.5987562616183
20
-11.2761339888676
30
0
41
1
10
19.6554509933758
20
-11.4161071461199
30
0
41
1
10
19.7118259139486
20
-11.6284821935934
30
0
41
1
10
19.7260396123306
20
-11.7000660447458
30
0
41
1
10
19.7451852412381
20
-11.843882039708
30
0
41
1
10
19.7500766001911
20
-11.9168033916301
30
0
41
1
10
19.7498440170057
20
-12.1290219748741
30
0
41
1
10
19.7306388693806
20
-12.2620209724528
30
0
41
1
10
19.6735882971139
20
-12.4562091598728
30
0
41
1
10
19.6498765822692
20
-12.5196499102411
30
0
41
1
10
19.5940050251319
20
-12.6435780132128
30
0
41
1
10
19.5617484149621
20
-12.7043971699084
30
0
41
1
10
19.525
20
-12.7651965466007
30
0
0
SPLINE
5
136
100
AcDbEntity
8
1
62
256
6
ByLayer
370
18
48
1
60
0
100
AcDbSpline
70
4
71
3
72
22
73
18
40
0
40
0
40
0
40
0
40
0.249999999999997
40
0.249999999999997
40
0.499999999999994
40
0.499999999999994
40
0.624999999999993
40
0.624999999999993
40
0.749999999999992
40
0.749999999999992
40
0.874999999999991
40
0.874999999999991
40
0.937499999999992
40
0.937499999999992
40
0.968749999999996
40
0.968749999999996
40
1
40
1
40
1
40
1
41
1
10
19.9242250034234
20
-33.9
30
0
41
1
10
19.9219673910389
20
-33.9
30
0
41
1
10
19.9149058509051
20
-33.9
30
0
41
1
10
19.8908307448418
20
-33.9
30
0
41
1
10
19.8739223696707
20
-33.9
30
0
41
1
10
19.8383855819128
20
-33.9
30
0
41
1
10
19.8248263435752
20
-33.9
30
0
41
1
10
19.7930617588296
20
-33.9
30
0
41
1
10
19.7749052319843
20
-33.9
30
0
41
1
10
19.7309815335334
20
-33.9
30
0
41
1
10
19.7057789975433
20
-33.9
30
0
41
1
10
19.6543236612128
20
-33.9
30
0
41
1
10
19.6348957495973
20
-33.9
30
0
41
1
10
19.5991417779139
20
-33.9
30
0
41
1
10
19.5860083337867
20
-33.9
30
0
41
1
10
19.5570489926887
20
-33.9
30
0
41
1
10
19.5411993447294
20
-33.9
30
0
41
1
10
19.525
20
-33.9
30
0
0
SPLINE
5
137
100
AcDbEntity
8
1
62
256
6
ByLayer
370
18
48
1
60
0
100
AcDbSpline
70
4
71
3
72
10
73
6
40
0
40
0
40
0
40
0
40
0.5
40
0.5
40
1
40
1
40
1
40
1
41
1
10
19.925
20
25.1767377751765
30
0
41
1
10
19.925
20
25.1200053447722
30
0
41
1
10
19.9190252426787
20
25.0642857197955
30
0
41
1
10
19.8949018737209
20
24.9549101094283
30
0
41
1
10
19.8765191546407
20
24.9007685116994
30
0
41
1
10
19.850993890631
20
24.8499999999992
30
0
0
SPLINE
5
138
100
AcDbEntity
8
1
62
256
6
ByLayer
370
18
48
1
60
0
100
AcDbSpline
70
4
71
3
72
12
73
8
40
0
40
0
40
0
40
0
40
0.249999999999983
40
0.249999999999983
40
0.499999999999966
40
0.499999999999966
40
1
40
1
40
1
40
1
41
1
10
19.7948590565632
20
33.9
30
0
41
1
10
19.8156968000889
20
33.9197081433028
30
0
41
1
10
19.834090349342
20
33.9412453042132
30
0
41
1
10
19.8662870727029
20
33.9877546545252
30
0
41
1
10
19.8801968342756
20
34.0130433935067
30
0
41
1
10
19.9134697566116
20
34.0914880643519
30
0
41
1
10
19.925
20
34.1481067924398
30
0
41
1
10
19.925
20
34.2054408537589
30
0
0
SPLINE
5
139
100
AcDbEntity
8
1
62
256
6
ByLayer
370
18
48
1
60
0
100
AcDbSpline
70
4
71
3
72
8
73
4
40
0
40
0
40
0
40
0
40
1
40
1
40
1
40
1
41
1
10
25.95
20
-37.969888846295
30
0
41
1
10
25.7167401195295
20
-38.2111356812056
30
0
41
1
10
25.4834054366272
20
-38.4523102102509
30
0
41
1
10
25.25
20
-38.6934162229183
30
0
0
SPLINE
5
13A
100
AcDbEntity
8
1
62
256
6
ByLayer
370
18
48
1
60
0
100
AcDbSpline
70
4
71
3
72
8
73
4
40
0
40
0
40
0
40
0
40
1
40
1
40
1
40
1
41
1
10
21.5189498907108
20
24.85
30
0
41
1
10
20.9768366614045
20
24.85
30
0
41
1
10
20.4446185708609
20
24.85
30
0
41
1
10
19.925
20
24.85
30
0
0
SPLINE
5
13B
100
AcDbEntity
8
1
62
256
6
ByLayer
370
18
48
1
60
0
100
AcDbSpline
70
4
71
3
72
8
73
4
40
0
40
0
40
0
40
0
40
1
40
1
40
1
40
1
41
1
10
14.4810501092892
20
-38.6934162229183
30
0
41
1
10
15.0133819693916
20
-37.7409706662833
30
0
41
1
10
15.5447752597817
20
-36.7880064017881
30
0
41
1
10
16.075
20
-35.834396328941
30
0
0
SPLINE
5
13C
100
AcDbEntity
8
1
62
256
6
ByLayer
370
18
48
1
60
0
100
AcDbSpline
70
4
71
3
72
38
73
34
40
0
40
0
40
0
40
0
40
0.125
40
0.125
40
0.1875
40
0.1875
40
0.21875
40
0.21875
40
0.25
40
0.25
40
0.375
40
0.375
40
0.40625
40
0.40625
40
0.4375
40
0.4375
40
0.5
40
0.5
40
0.625000000000001
40
0.625000000000001
40
0.656250000000001
40
0.656250000000001
40
0.687500000000001
40
0.687500000000001
40
0.75
40
0.75
40
0.8125
40
0.8125
40
0.84375
40
0.84375
40
0.875
40
0.875
40
1
40
1
40
1
40
1
41
1
10
12.95
20
-38.6934162229183
30
0
41
1
10
12.3527991796981
20
-38.6934162229183
30
0
41
1
10
11.7660716512157
20
-38.7087912210351
30
0
41
1
10
10.9009340714399
20
-38.7526613762077
30
0
41
1
10
10.6150651082531
20
-38.7707561866833
30
0
41
1
10
10.1900916152326
20
-38.8028405586682
30
0
41
1
10
10.0486869575037
20
-38.8143941169154
30
0
41
1
10
9.76928291662651
20
-38.8389155673118
30
0
41
1
10
9.6314159333117
20
-38.8518656659784
30
0
41
1
10
8.95103775366738
20
-38.9197728895235
30
0
41
1
10
8.43513825084625
20
-38.9841737329008
30
0
41
1
10
7.82497353851531
20
-39.0730031894838
30
0
41
1
10
7.7046921054183
20
-39.0911867522613
30
0
41
1
10
7.46767764387448
20
-39.128285084105
30
0
41
1
10
7.35079615209293
20
-39.1472279142541
30
0
41
1
10
7.00916971332481
20
-39.2043762962057
30
0
41
1
10
6.79221433957562
20
-39.2430807510518
30
0
41
1
10
6.17271465669228
20
-39.3595528670799
30
0
41
1
10
5.80122018739698
20
-39.4376861227916
30
0
41
1
10
5.39017707390903
20
-39.5313318808281
30
0
41
1
10
5.31075895074653
20
-39.5498395110782
30
0
41
1
10
5.15903727600434
20
-39.5859403301453
30
0
41
1
10
5.08650644245256
20
-39.6035848389685
30
0
41
1
10
4.87875251649956
20
-39.6551709396186
30
0
41
1
10
4.75334401071578
20
-39.6877647850212
30
0
41
1
10
4.52850788340717
20
-39.748687415371
30
0
41
1
10
4.42907948698979
20
-39.7770174073434
30
0
41
1
10
4.29985237680529
20
-39.8158090584376
30
0
41
1
10
4.2601020563755
20
-39.8281222460715
30
0
41
1
10
4.18740289620575
20
-39.8514261757063
30
0
41
1
10
4.15452724983646
20
-39.8623956649857
30
0
41
1
10
4.00880496708024
20
-39.9132708553807
30
0
41
1
10
3.94999999999999
20
-39.9417044061278
30
0
41
1
10
3.94999999999999
20
-39.9569575793753
30
0
0
SPLINE
5
13D
100
AcDbEntity
8
1
62
256
6
ByLayer
370
18
48
1
60
0
100
AcDbSpline
70
4
71
3
72
8
73
4
40
0
40
0
40
0
40
0
40
1
40
1
40
1
40
1
41
1
10
16.075
20
24.85
30
0
41
1
10
15.5553814291391
20
24.85
30
0
41
1
10
15.0231633385955
20
24.85
30
0
41
1
10
14.4810501092892
20
24.85
30
0
0
SPLINE
5
13E
100
AcDbEntity
8
1
62
256
6
ByLayer
370
18
48
1
60
0
100
AcDbSpline
70
4
71
3
72
34
73
30
40
0
40
0
40
0
40
0
40
0.124999999999997
40
0.124999999999997
40
0.156249999999997
40
0.156249999999997
40
0.187499999999997
40
0.187499999999997
40
0.249999999999996
40
0.249999999999996
40
0.312499999999996
40
0.312499999999996
40
0.343749999999996
40
0.343749999999996
40
0.374999999999996
40
0.374999999999996
40
0.499999999999998
40
0.499999999999998
40
0.562499999999998
40
0.562499999999998
40
0.624999999999998
40
0.624999999999998
40
0.749999999999999
40
0.749999999999999
40
0.812499999999999
40
0.812499999999999
40
0.874999999999999
40
0.874999999999999
40
1
40
1
40
1
40
1
41
1
10
12.5830238727838
20
31.3062038580215
30
0
41
1
10
12.0066530437993
20
31.3062038580215
30
0
41
1
10
11.4427592805036
20
31.2628878835413
30
0
41
1
10
10.7525441971235
20
31.1568780086619
30
0
41
1
10
10.6152416976837
20
31.1330477089288
30
0
41
1
10
10.3421243721113
20
31.080051624463
30
0
41
1
10
10.2060267884168
20
31.0508181140049
30
0
41
1
10
9.80189781946095
20
30.9553722232108
30
0
41
1
10
9.54080356272721
20
30.8821504945474
30
0
41
1
10
9.03412454285163
20
30.7172391262087
30
0
41
1
10
8.78854520220892
20
30.6255436251123
30
0
41
1
10
8.43132935752305
20
30.4741960813204
30
0
41
1
10
8.3141195876392
20
30.4214417460986
30
0
41
1
10
8.08337885191312
20
30.3112828200422
30
0
41
1
10
7.96956653454922
20
30.2537233371579
30
0
41
1
10
7.41352837251151
20
29.9562492610302
30
0
41
1
10
7.01111927349805
20
29.68845273837
30
0
41
1
10
6.46193620791502
20
29.244088968479
30
0
41
1
10
6.2877168142349
20
29.0885187843134
30
0
41
1
10
5.95791316333276
20
28.7642878499157
30
0
41
1
10
5.80378469134382
20
28.5971314387226
30
0
41
1
10
5.37031258005854
20
28.081141232862
30
0
41
1
10
5.11972691208882
20
27.7178291113859
30
0
41
1
10
4.79200027477023
20
27.1451385073708
30
0
41
1
10
4.6908294728307
20
26.9496085732968
30
0
41
1
10
4.50348187457203
20
26.5493744573653
30
0
41
1
10
4.41717860309754
20
26.3442700492754
30
0
41
1
10
4.1810230538166
20
25.720119069351
30
0
41
1
10
4.05320351728491
20
25.2912443446558
30
0
41
1
10
3.94999999999999
20
24.85
30
0
0
SPLINE
5
13F
100
AcDbEntity
8
SK1
62
256
6
ByLayer
370
18
48
1
60
0
100
AcDbSpline
70
4
71
3
72
50
73
46
40
0
40
0
40
0
40
0
40
0.124999999999999
40
0.124999999999999
40
0.249999999999998
40
0.249999999999998
40
0.312499999999997
40
0.312499999999997
40
0.374999999999996
40
0.374999999999996
40
0.406249999999996
40
0.406249999999996
40
0.437499999999996
40
0.437499999999996
40
0.453124999999997
40
0.453124999999997
40
0.468749999999998
40
0.468749999999998
40
0.476562499999999
40
0.476562499999999
40
0.484375
40
0.484375
40
0.4921875
40
0.4921875
40
0.500000000000001
40
0.500000000000001
40
0.515625000000002
40
0.515625000000002
40
0.531250000000003
40
0.531250000000003
40
0.562500000000004
40
0.562500000000004
40
0.593750000000004
40
0.593750000000004
40
0.625000000000004
40
0.625000000000004
40
0.687500000000004
40
0.687500000000004
40
0.750000000000003
40
0.750000000000003
40
0.812500000000002
40
0.812500000000002
40
0.875000000000002
40
0.875000000000002
40
1
40
1
40
1
40
1
41
1
10
-39.8694062536462
20
-23.9292037765407
30
0
41
1
10
-39.8672944662402
20
-23.7699442198131
30
0
41
1
10
-39.8634536835544
20
-23.6122904313555
30
0
41
1
10
-39.8494912918719
20
-23.3028160407517
30
0
41
1
10
-39.8395742853121
20
-23.1508054183636
30
0
41
1
10
-39.8139071539082
20
-22.9328119780126
30
0
41
1
10
-39.803517705085
20
-22.8618505441101
30
0
41
1
10
-39.776287795422
20
-22.7259189190377
30
0
41
1
10
-39.7596512994307
20
-22.6607521725098
30
0
41
1
10
-39.7246523222281
20
-22.5723518742005
30
0
41
1
10
-39.7113376377329
20
-22.5446206738489
30
0
41
1
10
-39.6790980998411
20
-22.4950652499736
30
0
41
1
10
-39.6602524331926
20
-22.4729597028291
30
0
41
1
10
-39.6236660287714
20
-22.4494905447477
30
0
41
1
10
-39.6099933281413
20
-22.4432778941975
30
0
41
1
10
-39.5780662068032
20
-22.436734282623
30
0
41
1
10
-39.560059063375
20
-22.4362191721425
30
0
41
1
10
-39.5263840472488
20
-22.4444363293993
30
0
41
1
10
-39.5142777875094
20
-22.4486731167883
30
0
41
1
10
-39.4875164738474
20
-22.4615325273153
30
0
41
1
10
-39.4730021787174
20
-22.4701545115869
30
0
41
1
10
-39.4426050800625
20
-22.4920607884345
30
0
41
1
10
-39.4263789625223
20
-22.5056710745195
30
0
41
1
10
-39.3949308971644
20
-22.535562073795
30
0
41
1
10
-39.3792868413823
20
-22.5521873274475
30
0
41
1
10
-39.3354403807845
20
-22.602677335865
30
0
41
1
10
-39.3091604528443
20
-22.6381475503204
30
0
41
1
10
-39.2622109782647
20
-22.706860949675
30
0
41
1
10
-39.2409070097023
20
-22.7410881639234
30
0
41
1
10
-39.1824142253607
20
-22.8406016611469
30
0
41
1
10
-39.1497988417823
20
-22.903787585178
30
0
41
1
10
-39.0902335584997
20
-23.0273564364775
30
0
41
1
10
-39.0634576392757
20
-23.0878169203272
30
0
41
1
10
-39.0144132144106
20
-23.2053079089602
30
0
41
1
10
-38.9920992746819
20
-23.2624777508333
30
0
41
1
10
-38.9298070581504
20
-23.4306696799576
30
0
41
1
10
-38.8944059317512
20
-23.5384258670307
30
0
41
1
10
-38.8314178636024
20
-23.7483626439628
30
0
41
1
10
-38.8039296064699
20
-23.8504728201191
30
0
41
1
10
-38.7550733572939
20
-24.0503262250776
30
0
41
1
10
-38.7337067300907
20
-24.1481827936383
30
0
41
1
10
-38.6963010984126
20
-24.3394614833753
30
0
41
1
10
-38.6802660119434
20
-24.4328561136969
30
0
41
1
10
-38.6391602267018
20
-24.7071504186871
30
0
41
1
10
-38.6210143163468
20
-24.8822233504069
30
0
41
1
10
-38.6109569339037
20
-25.0504903307917
30
0
0
SPLINE
5
140
100
AcDbEntity
8
1
62
256
6
ByLayer
370
18
48
1
60
0
100
AcDbSpline
70
4
71
3
72
38
73
34
40
0
40
0
40
0
40
0
40
0.125
40
0.125
40
0.1875
40
0.1875
40
0.21875
40
0.21875
40
0.25
40
0.25
40
0.375
40
0.375
40
0.40625
40
0.40625
40
0.4375
40
0.4375
40
0.5
40
0.5
40
0.625
40
0.625
40
0.65625
40
0.65625
40
0.6875
40
0.6875
40
0.75
40
0.75
40
0.8125
40
0.8125
40
0.84375
40
0.84375
40
0.875
40
0.875
40
1
40
1
40
1
40
1
41
1
10
3.94999999999999
20
39.9699987490618
30
0
41
1
10
3.95000000000002
20
39.969849374978
30
0
41
1
10
4.00874872042309
20
39.9563418712541
30
0
41
1
10
4.1811216597755
20
39.9179762153334
30
0
41
1
10
4.25272687637425
20
39.9021671608199
30
0
41
1
10
4.38181565753411
20
39.8741535140475
30
0
41
1
10
4.42859984782902
20
39.8640703265743
30
0
41
1
10
4.5288843557322
20
39.8426559222752
30
0
41
1
10
4.58227159179961
20
39.8313485413195
30
0
41
1
10
4.86509590432073
20
39.7720679792813
30
0
41
1
10
5.14172817614516
20
39.7158722731452
30
0
41
1
10
5.5499734289991
20
39.6385797700405
30
0
41
1
10
5.63477440784496
20
39.6227687787706
30
0
41
1
10
5.81078687169506
20
39.5905421103063
30
0
41
1
10
5.90221397544366
20
39.5740895885797
30
0
41
1
10
6.18341383664793
20
39.524491034226
30
0
41
1
10
6.38072049999388
20
39.490983854078
30
0
41
1
10
7.00143875619355
20
39.3905649601716
30
0
41
1
10
7.45335768896464
20
39.3237324579097
30
0
41
1
10
8.06788994601544
20
39.2451141221429
30
0
41
1
10
8.19339598307621
20
39.2296311303769
30
0
41
1
10
8.4466646008002
20
39.1996185072152
30
0
41
1
10
8.57476318059784
20
39.1850445173508
30
0
41
1
10
8.96339583302333
20
39.142758775594
30
0
41
1
10
9.2282566045142
20
39.1164832570423
30
0
41
1
10
9.76948009135072
20
39.0684934931923
30
0
41
1
10
10.0458424612113
20
39.0467781707763
30
0
41
1
10
10.4692297744753
20
39.0181823453272
30
0
41
1
10
10.6118354542849
20
39.0093134578668
30
0
41
1
10
10.9000699000936
20
38.9929986071918
30
0
41
1
10
11.0456679114792
20
38.9855597281512
30
0
41
1
10
11.774119234276
20
38.9524506443494
30
0
41
1
10
12.3639601472046
20
38.9387013008909
30
0
41
1
10
12.961
20
38.9387013008909
30
0
0
SPLINE
5
141
100
AcDbEntity
8
1
62
256
6
ByLayer
370
18
48
1
60
0
100
AcDbSpline
70
4
71
3
72
8
73
4
40
0
40
0
40
0
40
0
40
1
40
1
40
1
40
1
41
1
10
19.925
20
-35.834396328941
30
0
41
1
10
20.4552247402183
20
-36.7880064017881
30
0
41
1
10
20.9866180306084
20
-37.7409706662833
30
0
41
1
10
21.5189498907108
20
-38.6934162229183
30
0
0
SPLINE
5
142
100
AcDbEntity
8
SK1
62
256
6
ByLayer
370
18
48
1
60
0
100
AcDbSpline
70
4
71
3
72
12
73
8
40
0
40
0
40
0
40
0
40
0.466921578302783
40
0.466921578302783
40
0.733460789151392
40
0.733460789151392
40
1
40
1
40
1
40
1
41
1
10
-39.8996738482523
20
-24.1453354067238
30
0
41
1
10
-39.8981715323884
20
-24.1469341808514
30
0
41
1
10
-39.891709569362
20
-24.1353084583231
30
0
41
1
10
-39.8813484922087
20
-24.0886036174032
30
0
41
1
10
-39.8775735549019
20
-24.0655282460266
30
0
41
1
10
-39.8718905171557
20
-24.0070130464471
30
0
41
1
10
-39.8699667378913
20
-23.9714724595431
30
0
41
1
10
-39.8694062536462
20
-23.9292037765407
30
0
0
INSERT
5
159
100
AcDbEntity
8
SK6
62
256
6
ByLayer
370
18
48
1
60
0
100
AcDbBlockReference
2
LABLE3D_1
10
-42.4
20
49.97
30
0
41
1
42
1
43
1
50
0
210
0
220
0
230
1
0
LINE
5
83
100
AcDbEntity
8
1
62
256
6
ByLayer
370
13
48
1
60
0
100
AcDbLine
10
48.58
20
-25.22
30
0
11
48.58
21
-21.296938
31
0
39
0
210
0
220
0
230
1
0
LINE
5
84
100
AcDbEntity
8
1
62
256
6
ByLayer
370
13
48
1
60
0
100
AcDbLine
10
40.42
20
-25.22
30
0
11
40.42
21
-21.265062
31
0
39
0
210
0
220
0
230
1
0
LINE
5
85
100
AcDbEntity
8
1
62
256
6
ByLayer
370
18
48
1
60
0
100
AcDbLine
10
49.5
20
-24.315
30
0
11
39.5
21
-24.315
31
0
39
0
210
0
220
0
230
1
0
LINE
5
86
100
AcDbEntity
8
1
62
256
6
ByLayer
370
18
48
1
60
0
100
AcDbLine
10
48.595
20
-25.22
30
0
11
40.405
21
-25.22
31
0
39
0
210
0
220
0
230
1
0
LINE
5
87
100
AcDbEntity
8
SK1
62
256
6
ByLayer
370
13
48
1
60
0
100
AcDbLine
10
-33.7
20
25.795
30
0
11
-33.7
21
25.670337
31
0
39
0
210
0
220
0
230
1
0
LINE
5
89
100
AcDbEntity
8
1
62
256
6
ByLayer
370
18
48
1
60
0
100
AcDbLine
10
16.075
20
25.176738
30
0
11
16.075
21
27.694799
31
0
39
0
210
0
220
0
230
1
0
LINE
5
8A
100
AcDbEntity
8
1
62
256
6
ByLayer
370
18
48
1
60
0
100
AcDbLine
10
16.075
20
36.099113
30
0
11
16.075
21
27.694799
31
0
39
0
210
0
220
0
230
1
0
LINE
5
8B
100
AcDbEntity
8
SK1
62
256
6
ByLayer
370
13
48
1
60
0
100
AcDbLine
10
-29.7
20
-25.372105
30
0
11
-29.7
21
-25.795
31
0
39
0
210
0
220
0
230
1
0
LINE
5
8C
100
AcDbEntity
8
SK1
62
256
6
ByLayer
370
13
48
1
60
0
100
AcDbLine
10
-31.746168
20
-25.372105
30
0
11
-29.7
21
-25.372105
31
0
39
0
210
0
220
0
230
1
0
LINE
5
8D
100
AcDbEntity
8
SK1
62
256
6
ByLayer
370
13
48
1
60
0
100
AcDbLine
10
-29.7
20
-25.372105
30
0
11
-29.7
21
-24.525249
31
0
39
0
210
0
220
0
230
1
0
LINE
5
8E
100
AcDbEntity
8
SK1
62
256
6
ByLayer
370
13
48
1
60
0
100
AcDbLine
10
-39.869406
20
23.929204
30
0
11
-38.610957
21
25.05049
31
0
39
0
210
0
220
0
230
1
0
LINE
5
8F
100
AcDbEntity
8
SK1
62
256
6
ByLayer
370
13
48
1
60
0
100
AcDbLine
10
-39.869406
20
-23.929204
30
0
11
-38.610957
21
-25.05049
31
0
39
0
210
0
220
0
230
1
0
LINE
5
90
100
AcDbEntity
8
1
62
256
6
ByLayer
370
18
48
1
60
0
100
AcDbLine
10
19.925
20
36.099113
30
0
11
19.925
21
27.694799
31
0
39
0
210
0
220
0
230
1
0
LINE
5
91
100
AcDbEntity
8
1
62
256
6
ByLayer
370
18
48
1
60
0
100
AcDbLine
10
25.95
20
30.407407
30
0
11
25.95
21
24.85
31
0
39
0
210
0
220
0
230
1
0
LINE
5
92
100
AcDbEntity
8
1
62
256
6
ByLayer
370
13
48
1
60
0
100
AcDbLine
10
109.028971
20
-22.681243
30
0
11
109.028971
21
22.681243
31
0
39
0
210
0
220
0
230
1
0
LINE
5
93
100
AcDbEntity
8
1
62
256
6
ByLayer
370
18
48
1
60
0
100
AcDbLine
10
25.95
20
38.219818
30
0
11
25.95
21
30.407407
31
0
39
0
210
0
220
0
230
1
0
LINE
5
94
100
AcDbEntity
8
1
62
256
6
ByLayer
370
18
48
1
60
0
100
AcDbLine
10
19.925
20
27.694799
30
0
11
19.925
21
25.176738
31
0
39
0
210
0
220
0
230
1
0
LINE
5
95
100
AcDbEntity
8
1
62
256
6
ByLayer
370
18
48
1
60
0
100
AcDbLine
10
21.51895
20
31.306204
30
0
11
25.25
21
31.306204
31
0
39
0
210
0
220
0
230
1
0
LINE
5
96
100
AcDbEntity
8
1
62
256
6
ByLayer
370
18
48
1
60
0
100
AcDbLine
10
21.51895
20
31.306204
30
0
11
21.51895
21
38.938701
31
0
39
0
210
0
220
0
230
1
0
LINE
5
97
100
AcDbEntity
8
1
62
256
6
ByLayer
370
18
48
1
60
0
100
AcDbLine
10
25.25
20
31.306204
30
0
11
25.25
21
38.938701
31
0
39
0
210
0
220
0
230
1
0
LINE
5
98
100
AcDbEntity
8
1
62
256
6
ByLayer
370
18
48
1
60
0
100
AcDbLine
10
21.51895
20
38.938701
30
0
11
25.25
21
38.938701
31
0
39
0
210
0
220
0
230
1
0
LINE
5
99
100
AcDbEntity
8
1
62
256
6
ByLayer
370
13
48
1
60
0
100
AcDbLine
10
98.990399
20
-24.632544
30
0
11
98.990399
21
0
31
0
39
0
210
0
220
0
230
1
0
LINE
5
9A
100
AcDbEntity
8
1
62
256
6
ByLayer
370
13
48
1
60
0
100
AcDbLine
10
98.990399
20
0
30
0
11
98.990399
21
24.632544
31
0
39
0
210
0
220
0
230
1
0
LINE
5
9B
100
AcDbEntity
8
1
62
256
6
ByLayer
370
13
48
1
60
0
100
AcDbLine
10
95.174219
20
-25
30
0
11
95.174219
21
25
31
0
39
0
210
0
220
0
230
1
0
LINE
5
9C
100
AcDbEntity
8
1
62
256
6
ByLayer
370
13
48
1
60
0
100
AcDbLine
10
26.95
20
0
30
0
11
26.95
21
-25
31
0
39
0
210
0
220
0
230
1
0
LINE
5
9D
100
AcDbEntity
8
1
62
256
6
ByLayer
370
13
48
1
60
0
100
AcDbLine
10
26.95
20
25
30
0
11
26.95
21
0
31
0
39
0
210
0
220
0
230
1
0
LINE
5
9E
100
AcDbEntity
8
1
62
256
6
ByLayer
370
18
48
1
60
0
100
AcDbLine
10
110
20
-21.50329
30
0
11
110
21
21.50329
31
0
39
0
210
0
220
0
230
1
0
LINE
5
9F
100
AcDbEntity
8
SK1
62
256
6
ByLayer
370
18
48
1
60
0
100
AcDbLine
10
-27.8
20
-27.304606
30
0
11
-27.8
21
-29.014016
31
0
39
0
210
0
220
0
230
1
0
LINE
5
A0
100
AcDbEntity
8
SK1
62
256
6
ByLayer
370
18
48
1
60
0
100
AcDbLine
10
-31.8
20
28.813615
30
0
11
-31.8
21
27.18969
31
0
39
0
210
0
220
0
230
1
0
LINE
5
A1
100
AcDbEntity
8
SK1
62
256
6
ByLayer
370
18
48
1
60
0
100
AcDbLine
10
-2.066987
20
30.031551
30
0
11
-2.066987
21
-30.031551
31
0
39
0
210
0
220
0
230
1
0
LINE
5
A2
100
AcDbEntity
8
SK1
62
256
6
ByLayer
370
18
48
1
60
0
100
AcDbLine
10
-2.5
20
30.281551
30
0
11
-2.5
21
-30.281551
31
0
39
0
210
0
220
0
230
1
0
LINE
5
A3
100
AcDbEntity
8
SK1
62
256
6
ByLayer
370
13
48
1
60
0
100
AcDbLine
10
-38.38006
20
25.626706
30
0
11
-38.38006
21
-25.626706
31
0
39
0
210
0
220
0
230
1
0
LINE
5
A4
100
AcDbEntity
8
SK1
62
256
6
ByLayer
370
13
48
1
60
0
100
AcDbLine
10
-0.8
20
-30.031551
30
0
11
-0.8
21
30.031551
31
0
39
0
210
0
220
0
230
1
0
LINE
5
A5
100
AcDbEntity
8
1
62
256
6
ByLayer
370
13
48
1
60
0
100
AcDbLine
10
12.583024
20
24.85
30
0
11
12.583024
21
31.306204
31
0
39
0
210
0
220
0
230
1
0
LINE
5
A6
100
AcDbEntity
8
1
62
256
6
ByLayer
370
18
48
1
60
0
100
AcDbLine
10
16.475
20
33.9
30
0
11
19.525
21
33.9
31
0
39
0
210
0
220
0
230
1
0
LINE
5
A7
100
AcDbEntity
8
1
62
256
6
ByLayer
370
18
48
1
60
0
100
AcDbLine
10
19.525
20
-33.9
30
0
11
16.475
21
-33.9
31
0
39
0
210
0
220
0
230
1
0
LINE
5
A8
100
AcDbEntity
8
1
62
256
6
ByLayer
370
13
48
1
60
0
100
AcDbLine
10
19.525
20
-11.151906
30
0
11
19.525
21
-6.916888
31
0
39
0
210
0
220
0
230
1
0
LINE
5
A9
100
AcDbEntity
8
1
62
256
6
ByLayer
370
18
48
1
60
0
100
AcDbLine
10
0
20
39.27
30
0
11
0
21
-39.27
31
0
39
0
210
0
220
0
230
1
0
LINE
5
AA
100
AcDbEntity
8
1
62
256
6
ByLayer
370
13
48
1
60
0
100
AcDbLine
10
19.525
20
-33.9
30
0
11
19.525
21
-12.765197
31
0
39
0
210
0
220
0
230
1
0
LINE
5
AB
100
AcDbEntity
8
1
62
256
6
ByLayer
370
13
48
1
60
0
100
AcDbLine
10
19.525
20
12.765197
30
0
11
19.525
21
33.9
31
0
39
0
210
0
220
0
230
1
0
LINE
5
AC
100
AcDbEntity
8
1
62
256
6
ByLayer
370
13
48
1
60
0
100
AcDbLine
10
19.525
20
6.916888
30
0
11
19.525
21
11.151906
31
0
39
0
210
0
220
0
230
1
0
LINE
5
AD
100
AcDbEntity
8
1
62
256
6
ByLayer
370
13
48
1
60
0
100
AcDbLine
10
19.525
20
-5.226142
30
0
11
19.525
21
5.226142
31
0
39
0
210
0
220
0
230
1
0
LINE
5
AE
100
AcDbEntity
8
1
62
256
6
ByLayer
370
13
48
1
60
0
100
AcDbLine
10
16.475
20
-12.765197
30
0
11
16.475
21
-33.9
31
0
39
0
210
0
220
0
230
1
0
LINE
5
AF
100
AcDbEntity
8
1
62
256
6
ByLayer
370
13
48
1
60
0
100
AcDbLine
10
16.475
20
-6.916888
30
0
11
16.475
21
-11.151906
31
0
39
0
210
0
220
0
230
1
0
LINE
5
B0
100
AcDbEntity
8
1
62
256
6
ByLayer
370
13
48
1
60
0
100
AcDbLine
10
16.475
20
5.226142
30
0
11
16.475
21
-5.226142
31
0
39
0
210
0
220
0
230
1
0
LINE
5
B1
100
AcDbEntity
8
1
62
256
6
ByLayer
370
13
48
1
60
0
100
AcDbLine
10
16.475
20
11.151906
30
0
11
16.475
21
6.916888
31
0
39
0
210
0
220
0
230
1
0
LINE
5
B2
100
AcDbEntity
8
1
62
256
6
ByLayer
370
13
48
1
60
0
100
AcDbLine
10
16.475
20
33.9
30
0
11
16.475
21
12.765197
31
0
39
0
210
0
220
0
230
1
0
LINE
5
B3
100
AcDbEntity
8
1
62
256
6
ByLayer
370
18
48
1
60
0
100
AcDbLine
10
25.95
20
24.85
30
0
11
25.95
21
-37.969889
31
0
39
0
210
0
220
0
230
1
0
LINE
5
B4
100
AcDbEntity
8
1
62
256
6
ByLayer
370
18
48
1
60
0
100
AcDbLine
10
0.7
20
0
30
0
11
0.7
21
-39.97
31
0
39
0
210
0
220
0
230
1
0
LINE
5
B5
100
AcDbEntity
8
1
62
256
6
ByLayer
370
18
48
1
60
0
100
AcDbLine
10
0.7
20
39.97
30
0
11
0.7
21
0
31
0
39
0
210
0
220
0
230
1
0
LINE
5
B6
100
AcDbEntity
8
1
62
256
6
ByLayer
370
18
48
1
60
0
100
AcDbLine
10
25.25
20
-38.693416
30
0
11
25.25
21
24.85
31
0
39
0
210
0
220
0
230
1
0
LINE
5
B7
100
AcDbEntity
8
1
62
256
6
ByLayer
370
18
48
1
60
0
100
AcDbLine
10
25.25
20
24.85
30
0
11
21.51895
21
24.85
31
0
39
0
210
0
220
0
230
1
0
LINE
5
B8
100
AcDbEntity
8
1
62
256
6
ByLayer
370
18
48
1
60
0
100
AcDbLine
10
3.95
20
-39.956958
30
0
11
3.95
21
-39.97
31
0
39
0
210
0
220
0
230
1
0
LINE
5
B9
100
AcDbEntity
8
1
62
256
6
ByLayer
370
18
48
1
60
0
100
AcDbLine
10
16.075
20
24.85
30
0
11
16.075
21
-35.834396
31
0
39
0
210
0
220
0
230
1
0
LINE
5
BA
100
AcDbEntity
8
1
62
256
6
ByLayer
370
18
48
1
60
0
100
AcDbLine
10
25.25
20
-38.693416
30
0
11
21.51895
21
-38.693416
31
0
39
0
210
0
220
0
230
1
0
LINE
5
BB
100
AcDbEntity
8
1
62
256
6
ByLayer
370
18
48
1
60
0
100
AcDbLine
10
14.48105
20
24.85
30
0
11
14.48105
21
-38.693416
31
0
39
0
210
0
220
0
230
1
0
LINE
5
BC
100
AcDbEntity
8
1
62
256
6
ByLayer
370
18
48
1
60
0
100
AcDbLine
10
14.48105
20
24.85
30
0
11
3.95
21
24.85
31
0
39
0
210
0
220
0
230
1
0
LINE
5
BD
100
AcDbEntity
8
1
62
256
6
ByLayer
370
18
48
1
60
0
100
AcDbLine
10
12.583024
20
31.306204
30
0
11
14.48105
21
31.306204
31
0
39
0
210
0
220
0
230
1
0
LINE
5
BE
100
AcDbEntity
8
1
62
256
6
ByLayer
370
18
48
1
60
0
100
AcDbLine
10
12.961
20
38.938701
30
0
11
14.48105
21
38.938701
31
0
39
0
210
0
220
0
230
1
0
LINE
5
BF
100
AcDbEntity
8
1
62
256
6
ByLayer
370
18
48
1
60
0
100
AcDbLine
10
21.51895
20
-38.693416
30
0
11
21.51895
21
24.85
31
0
39
0
210
0
220
0
230
1
0
LINE
5
C0
100
AcDbEntity
8
1
62
256
6
ByLayer
370
18
48
1
60
0
100
AcDbLine
10
19.925
20
24.85
30
0
11
19.925
21
-35.834396
31
0
39
0
210
0
220
0
230
1
0
LINE
5
C1
100
AcDbEntity
8
1
62
256
6
ByLayer
370
18
48
1
60
0
100
AcDbLine
10
14.48105
20
38.938701
30
0
11
14.48105
21
31.306204
31
0
39
0
210
0
220
0
230
1
0
LINE
5
C2
100
AcDbEntity
8
1
62
256
6
ByLayer
370
18
48
1
60
0
100
AcDbLine
10
14.48105
20
-38.693416
30
0
11
12.95
21
-38.693416
31
0
39
0
210
0
220
0
230
1
0
LINE
5
C3
100
AcDbEntity
8
SK1
62
256
6
ByLayer
370
18
48
1
60
0
100
AcDbLine
10
-38.25
20
25.795
30
0
11
-38.25
21
25.789398
31
0
39
0
210
0
220
0
230
1
0
LINE
5
C4
100
AcDbEntity
8
SK1
62
256
6
ByLayer
370
18
48
1
60
0
100
AcDbLine
10
-39.9
20
-24.143873
30
0
11
-39.9
21
24.143873
31
0
39
0
210
0
220
0
230
1
0
LINE
5
C5
100
AcDbEntity
8
SK1
62
256
6
ByLayer
370
18
48
1
60
0
100
AcDbLine
10
-38.25
20
-25.795
30
0
11
-38.25
21
-25.789398
31
0
39
0
210
0
220
0
230
1
0
LINE
5
C6
100
AcDbEntity
8
SK4
62
256
6
ByLayer
370
18
48
0.05
60
0
100
AcDbLine
10
-49.9
20
0
30
0
11
120
21
0
31
0
39
0
210
0
220
0
230
1
0
LINE
5
C8
100
AcDbEntity
8
SK1
62
256
6
ByLayer
370
18
48
1
60
0
100
AcDbLine
10
-39.901927
20
24.143073
30
0
11
-39.902624
21
24.142376
31
0
39
0
210
0
220
0
230
1
0
LINE
5
C9
100
AcDbEntity
8
SK1
62
256
6
ByLayer
370
18
48
1
60
0
100
AcDbLine
10
-33.7
20
25.795
30
0
11
-38.25
21
25.795
31
0
39
0
210
0
220
0
230
1
0
LINE
5
CA
100
AcDbEntity
8
SK1
62
256
6
ByLayer
370
18
48
1
60
0
100
AcDbLine
10
-39.902624
20
-24.142376
30
0
11
-38.25
21
-25.795
31
0
39
0
210
0
220
0
230
1
0
LINE
5
CB
100
AcDbEntity
8
SK1
62
256
6
ByLayer
370
18
48
1
60
0
100
AcDbLine
10
-38.25
20
25.795
30
0
11
-39.901949
21
24.143051
31
0
39
0
210
0
220
0
230
1
0
LINE
5
CC
100
AcDbEntity
8
SK1
62
256
6
ByLayer
370
18
48
1
60
0
100
AcDbLine
10
-38.25
20
-25.795
30
0
11
-29.7
21
-25.795
31
0
39
0
210
0
220
0
230
1
0
LINE
5
CD
100
AcDbEntity
8
1
62
256
6
ByLayer
370
18
48
1
60
0
100
AcDbLine
10
109.028971
20
22.681243
30
0
11
98.990399
21
24.632544
31
0
39
0
210
0
220
0
230
1
0
LINE
5
CE
100
AcDbEntity
8
1
62
256
6
ByLayer
370
18
48
1
60
0
100
AcDbLine
10
98.990399
20
-24.632544
30
0
11
109.028971
21
-22.681243
31
0
39
0
210
0
220
0
230
1
0
LINE
5
CF
100
AcDbEntity
8
1
62
256
6
ByLayer
370
18
48
1
60
0
100
AcDbLine
10
26.95
20
-25
30
0
11
40.185498
21
-25
31
0
39
0
210
0
220
0
230
1
0
LINE
5
D0
100
AcDbEntity
8
1
62
256
6
ByLayer
370
18
48
1
60
0
100
AcDbLine
10
48.815862
20
-25
30
0
11
95.174219
21
-25
31
0
39
0
210
0
220
0
230
1
0
LINE
5
D1
100
AcDbEntity
8
1
62
256
6
ByLayer
370
18
48
1
60
0
100
AcDbLine
10
95.174219
20
25
30
0
11
26.95
21
25
31
0
39
0
210
0
220
0
230
1
0
LINE
5
D2
100
AcDbEntity
8
SK1
62
256
6
ByLayer
370
18
48
1
60
0
100
AcDbLine
10
-2.066987
20
-30.031551
30
0
11
-0.8
21
-30.031551
31
0
39
0
210
0
220
0
230
1
0
LINE
5
D3
100
AcDbEntity
8
SK1
62
256
6
ByLayer
370
18
48
1
60
0
100
AcDbLine
10
-0.8
20
30.031551
30
0
11
-2.066987
21
30.031551
31
0
39
0
210
0
220
0
230
1
0
LINE
5
D4
100
AcDbEntity
8
SK1
62
256
6
ByLayer
370
18
48
1
60
0
100
AcDbLine
10
-2.066987
20
30.031551
30
0
11
-2.5
21
30.281551
31
0
39
0
210
0
220
0
230
1
0
LINE
5
D5
100
AcDbEntity
8
SK1
62
256
6
ByLayer
370
18
48
1
60
0
100
AcDbLine
10
-2.5
20
-30.281551
30
0
11
-2.066987
21
-30.031551
31
0
39
0
210
0
220
0
230
1
0
LINE
5
D6
100
AcDbEntity
8
SK1
62
256
6
ByLayer
370
18
48
1
60
0
100
AcDbLine
10
-27.8
20
-29.014016
30
0
11
-16.734605
21
-29.568395
31
0
39
0
210
0
220
0
230
1
0
LINE
5
D7
100
AcDbEntity
8
SK1
62
256
6
ByLayer
370
18
48
1
60
0
100
AcDbLine
10
-6.766383
20
-30.067804
30
0
11
-2.5
21
-30.281551
31
0
39
0
210
0
220
0
230
1
0
LINE
5
D8
100
AcDbEntity
8
SK1
62
256
6
ByLayer
370
18
48
1
60
0
100
AcDbLine
10
-2.5
20
30.281551
30
0
11
-6.76648
21
30.0678
31
0
39
0
210
0
220
0
230
1
0
LINE
5
D9
100
AcDbEntity
8
SK1
62
256
6
ByLayer
370
18
48
1
60
0
100
AcDbLine
10
-16.739012
20
29.568174
30
0
11
-31.8
21
28.813615
31
0
39
0
210
0
220
0
230
1
0
LINE
5
DA
100
AcDbEntity
8
1
62
256
6
ByLayer
370
18
48
1
60
0
100
AcDbLine
10
0
20
-39.27
30
0
11
0.7
21
-39.97
31
0
39
0
210
0
220
0
230
1
0
LINE
5
DB
100
AcDbEntity
8
1
62
256
6
ByLayer
370
18
48
1
60
0
100
AcDbLine
10
0.7
20
39.97
30
0
11
0
21
39.27
31
0
39
0
210
0
220
0
230
1
0
LINE
5
DC
100
AcDbEntity
8
1
62
256
6
ByLayer
370
18
48
1
60
0
100
AcDbLine
10
0.7
20
-39.97
30
0
11
3.95
21
-39.97
31
0
39
0
210
0
220
0
230
1
0
LINE
5
DD
100
AcDbEntity
8
1
62
256
6
ByLayer
370
18
48
1
60
0
100
AcDbLine
10
3.949416
20
39.97
30
0
11
3.949179
21
39.97
31
0
39
0
210
0
220
0
230
1
0
LINE
5
DE
100
AcDbEntity
8
1
62
256
6
ByLayer
370
18
48
1
60
0
100
AcDbLine
10
3.949179
20
39.97
30
0
11
0.7
21
39.97
31
0
39
0
210
0
220
0
230
1
0
LINE
5
DF
100
AcDbEntity
8
1
62
256
6
ByLayer
370
18
48
1
60
0
100
AcDbLine
10
48.595
20
-25.22
30
0
11
49.5
21
-24.315
31
0
39
0
210
0
220
0
230
1
0
LINE
5
E0
100
AcDbEntity
8
1
62
256
6
ByLayer
370
18
48
1
60
0
100
AcDbLine
10
39.5
20
-24.315
30
0
11
40.405
21
-25.22
31
0
39
0
210
0
220
0
230
1
0
LINE
5
E1
100
AcDbEntity
8
1
62
256
6
ByLayer
370
18
48
1
60
0
100
AcDbLine
10
39.5
20
-21.265192
30
0
11
39.5
21
-24.315
31
0
39
0
210
0
220
0
230
1
0
LINE
5
E2
100
AcDbEntity
8
1
62
256
6
ByLayer
370
18
48
1
60
0
100
AcDbLine
10
49.5
20
-24.315
30
0
11
49.5
21
-21.297047
31
0
39
0
210
0
220
0
230
1
0
LINE
5
E3
100
AcDbEntity
8
SK3
62
256
6
ByLayer
370
18
48
0.05
60
0
100
AcDbLine
10
54.5
20
-12.5
30
0
11
54.5
21
12.5
31
0
39
0
210
0
220
0
230
1
0
LINE
5
E5
100
AcDbEntity
8
SK3
62
256
6
ByLayer
370
18
48
0.05
60
0
100
AcDbLine
10
53
20
-11
30
0
11
54.5
21
-12.5
31
0
39
0
210
0
220
0
230
1
0
LINE
5
E6
100
AcDbEntity
8
SK3
62
256
6
ByLayer
370
18
48
0.05
60
0
100
AcDbLine
10
54.5
20
12.5
30
0
11
53
21
11
31
0
39
0
210
0
220
0
230
1
0
LINE
5
E7
100
AcDbEntity
8
SK3
62
256
6
ByLayer
370
18
48
0.05
60
0
100
AcDbLine
10
110
20
12.5
30
0
11
54.5
21
12.5
31
0
39
0
210
0
220
0
230
1
0
LINE
5
E8
100
AcDbEntity
8
81
62
256
6
ByLayer
370
18
48
1
60
0
100
AcDbLine
10
110
20
0
30
0
11
114.742527
21
0
31
0
39
0
210
0
220
0
230
1
0
LINE
5
E9
100
AcDbEntity
8
80
62
256
6
ByLayer
370
18
48
1
60
0
100
AcDbLine
10
0
20
0
30
0
11
-10.875929
21
0
31
0
39
0
210
0
220
0
230
1
0
LINE
5
EA
100
AcDbEntity
8
4
62
256
6
ByLayer
370
18
48
0.05
60
0
100
AcDbLine
10
110
20
0
30
0
11
0
21
0
31
0
39
0
210
0
220
0
230
1
0
LINE
5
EC
100
AcDbEntity
8
SK3
62
256
6
ByLayer
370
18
48
0.05
60
0
100
AcDbLine
10
54.5
20
-12.5
30
0
11
110
21
-12.5
31
0
39
0
210
0
220
0
230
1
0
LINE
5
ED
100
AcDbEntity
8
SK3
62
256
6
ByLayer
370
18
48
0.05
60
0
100
AcDbLine
10
53
20
11
30
0
11
53
21
-11
31
0
39
0
210
0
220
0
230
1
0
LINE
5
EE
100
AcDbEntity
8
SK2
62
256
6
ByLayer
370
13
48
1
60
0
100
AcDbLine
10
-76
20
-39.97
30
0
11
-76
21
39.97
31
0
39
0
210
0
220
0
230
1
0
LINE
5
F0
100
AcDbEntity
8
SK2
62
256
6
ByLayer
370
13
48
1
60
0
100
AcDbLine
10
-1.5875
20
39.97
30
0
11
-78
21
39.97
31
0
39
0
210
0
220
0
230
1
0
LINE
5
F1
100
AcDbEntity
8
SK2
62
256
6
ByLayer
370
13
48
1
60
0
100
AcDbLine
10
-1.5875
20
-39.97
30
0
11
-78
21
-39.97
31
0
39
0
210
0
220
0
230
1
0
LINE
5
F2
100
AcDbEntity
8
1
62
256
6
ByLayer
370
18
48
1
60
1
100
AcDbLine
10
-76
20
39.97
30
0
11
-75.002374
21
35.470004
31
0
39
0
210
0
220
0
230
1
0
LINE
5
F3
100
AcDbEntity
8
1
62
256
6
ByLayer
370
18
48
1
60
1
100
AcDbLine
10
-75.002374
20
35.470004
30
0
11
-76.997626
21
35.469996
31
0
39
0
210
0
220
0
230
1
0
LINE
5
F4
100
AcDbEntity
8
1
62
256
6
ByLayer
370
18
48
1
60
1
100
AcDbLine
10
-76.997626
20
35.469996
30
0
11
-76
21
39.97
31
0
39
0
210
0
220
0
230
1
0
LINE
5
F5
100
AcDbEntity
8
1
62
256
6
ByLayer
370
18
48
1
60
1
100
AcDbLine
10
-76
20
-39.97
30
0
11
-76.997626
21
-35.470004
31
0
39
0
210
0
220
0
230
1
0
LINE
5
F6
100
AcDbEntity
8
1
62
256
6
ByLayer
370
18
48
1
60
1
100
AcDbLine
10
-76.997626
20
-35.470004
30
0
11
-75.002374
21
-35.469996
31
0
39
0
210
0
220
0
230
1
0
LINE
5
F7
100
AcDbEntity
8
1
62
256
6
ByLayer
370
18
48
1
60
1
100
AcDbLine
10
-75.002374
20
-35.469996
30
0
11
-76
21
-39.97
31
0
39
0
210
0
220
0
230
1
0
LINE
5
147
100
AcDbEntity
8
1
62
256
6
ByLayer
370
18
48
1
60
1
100
AcDbLine
10
-76
20
39.97
30
0
11
-75.002374
21
35.470004
31
0
39
0
210
0
220
0
230
1
0
LINE
5
148
100
AcDbEntity
8
1
62
256
6
ByLayer
370
18
48
1
60
1
100
AcDbLine
10
-75.002374
20
35.470004
30
0
11
-76.997626
21
35.469996
31
0
39
0
210
0
220
0
230
1
0
LINE
5
149
100
AcDbEntity
8
1
62
256
6
ByLayer
370
18
48
1
60
1
100
AcDbLine
10
-76.997626
20
35.469996
30
0
11
-76
21
39.97
31
0
39
0
210
0
220
0
230
1
0
LINE
5
14B
100
AcDbEntity
8
1
62
256
6
ByLayer
370
18
48
1
60
1
100
AcDbLine
10
-76
20
-39.97
30
0
11
-76.997626
21
-35.470004
31
0
39
0
210
0
220
0
230
1
0
LINE
5
14C
100
AcDbEntity
8
1
62
256
6
ByLayer
370
18
48
1
60
1
100
AcDbLine
10
-76.997626
20
-35.470004
30
0
11
-75.002374
21
-35.469996
31
0
39
0
210
0
220
0
230
1
0
LINE
5
14D
100
AcDbEntity
8
1
62
256
6
ByLayer
370
18
48
1
60
1
100
AcDbLine
10
-75.002374
20
-35.469996
30
0
11
-76
21
-39.97
31
0
39
0
210
0
220
0
230
1
0
LINE
5
154
100
AcDbEntity
8
SK6
62
256
6
ByLayer
370
13
48
1
60
0
100
AcDbLine
10
-43.9
20
49.97
30
0
11
-43.9
21
49.97
31
0
39
0
210
0
220
0
230
1
0
MTEXT
5
143
100
AcDbEntity
8
SK2
62
256
6
ByLayer
370
18
48
1
60
0
100
AcDbMText
10
-78.011672
20
-4.699399
30
0
210
0
220
0
230
1
1
%%c
40
4.5
41
0
44
1.084337
50
90
71
7
72
5
7
iso_b_vert
0
MTEXT
5
146
100
AcDbEntity
8
SK2
62
256
6
ByLayer
370
18
48
1
60
0
100
AcDbMText
10
-78.011672
20
2.015444
30
0
210
0
220
0
230
1
1
\W0.6740;80
40
4.5
41
0
44
1.084337
50
90
71
7
72
5
7
iso_b_vert
0
MTEXT
5
14F
100
AcDbEntity
8
SK6
62
256
6
ByLayer
370
18
48
1
60
0
100
AcDbMText
10
-7.8145
20
-54.187366
30
0
210
0
220
0
230
1
1
\W0.7329;930-HA08-S-25-110A
40
3.5
41
0
44
1.084337
50
0
71
7
72
5
7
iso_b_vert
0
MTEXT
5
151
100
AcDbEntity
8
SK6
62
256
6
ByLayer
370
18
48
1
60
0
100
AcDbMText
10
-85.618094
20
47.502634
30
0
210
0
220
0
230
1
1
\W0.7830;DIN69893-HSK-A80
40
3.5
41
0
44
1.084337
50
0
71
7
72
5
7
iso_b_vert
0
MTEXT
5
152
100
AcDbEntity
8
SK6
62
256
6
ByLayer
370
18
48
1
60
0
100
AcDbMText
10
-44.773633
20
47.502634
30
0
210
0
220
0
230
1
1
\W0.2969; 
40
3.5
41
0
44
1.084337
50
0
71
7
72
5
7
iso_b_vert
0
HATCH
5
14A
100
AcDbEntity
8
SK2
62
256
6
ByLayer
370
13
48
1
60
0
100
AcDbHatch
10
0
20
0
30
0
210
0
220
0
230
1
2
ANSI31
70
0
71
0
91
1
92
5
93
3
72
1
10
-76
20
39.97
11
-75.0023740181135
21
35.4700036644848
72
1
10
-75.0023740181135
20
35.4700036644848
11
-76.9976259818865
21
35.4699963355152
72
1
10
-76.9976259818865
20
35.4699963355152
11
-76
21
39.97
97
0
75
0
76
1
52
0
41
0.0062
77
0
78
1
53
45
43
0
44
0
45
-0.0139193969876572
46
0.0139193969876572
79
0
47
0
98
1
10
0
20
0
0
HATCH
5
14E
100
AcDbEntity
8
SK2
62
256
6
ByLayer
370
13
48
1
60
0
100
AcDbHatch
10
0
20
0
30
0
210
0
220
0
230
1
2
ANSI31
70
0
71
0
91
1
92
5
93
3
72
1
10
-76
20
-39.97
11
-76.9976259818865
21
-35.4700036644848
72
1
10
-76.9976259818865
20
-35.4700036644848
11
-75.0023740181135
21
-35.4699963355152
72
1
10
-75.0023740181135
20
-35.4699963355152
11
-76
21
-39.97
97
0
75
0
76
1
52
0
41
0.0062
77
0
78
1
53
45
43
0
44
0
45
-0.0139193969876572
46
0.0139193969876572
79
0
47
0
98
1
10
0
20
0
0
DIMENSION
5
15D
100
AcDbEntity
8
SK2
62
256
6
ByLayer
370
18
48
1
60
0
100
AcDbDimension
2
_U0
10
184.25
20
25
30
0
11
184.25
21
0
31
0
70
32
71
1
72
1
41
1
210
0
220
0
230
1
3
Standard
100
AcDbAlignedDimension
13
110
23
-25
33
0
14
110
24
25
34
0
50
90
100
AcDbRotatedDimension
1001
ACAD
1000
DSTYLE
1002
{
1070
   371
1070
    13
1070
   372
1070
    13
1070
   170
1070
     0
1070
   144
1040
1.0
1070
   277
1070
     2
1070
   284
1070
     8
1070
   278
1070
    44
1070
   146
1040
0.777778
1070
   345
1005
16
1070
   347
1005
16
1070
   346
1005
16
1070
   344
1005
0
1070
   343
1005
0
1070
   172
1070
     1
1070
    76
1070
     0
1070
    75
1070
     0
1070
   282
1070
     0
1070
   281
1070
     0
1070
    71
1070
     0
1070
    74
1070
     0
1070
   279
1070
     0
1070
   173
1070
     1
1070
   340
1005
144
1070
   271
1070
     1
1070
   272
1070
     2
1070
    77
1070
     1
1070
    73
1070
     0
1070
   171
1070
     3
1070
   274
1070
     4
1070
   177
1070
     2
1070
   176
1070
     2
1070
   178
1070
     2
1070
    78
1070
     8
1070
    48
1040
-0.1
1070
    41
1040
4.5
1070
   147
1040
2.25
1070
    42
1040
1.5875
1070
    44
1040
2.0
1070
   140
1040
4.5
1002
}
1001
ACAD_DSTYLE_DIM_LINETYPE
1070
   380
1005
16
1001
ACAD_DSTYLE_DIM_EXT1_LINETYPE
1070
   381
1005
16
1001
ACAD_DSTYLE_DIM_EXT2_LINETYPE
1070
   382
1005
16
0
DIMENSION
5
177
100
AcDbEntity
8
SK2
62
256
6
ByLayer
370
18
48
1
60
0
100
AcDbDimension
2
_U1
10
162.25
20
-12.5
30
0
11
162.25
21
0
31
0
70
32
71
1
72
1
41
1
210
0
220
0
230
1
3
Standard
100
AcDbAlignedDimension
13
110
23
12.5
33
0
14
110
24
-12.5
34
0
50
90
100
AcDbRotatedDimension
1001
ACAD
1000
DSTYLE
1002
{
1070
   371
1070
    13
1070
   372
1070
    13
1070
   170
1070
     0
1070
   144
1040
1.0
1070
   277
1070
     2
1070
   284
1070
     8
1070
   278
1070
    44
1070
   146
1040
0.777778
1070
   345
1005
16
1070
   347
1005
16
1070
   346
1005
16
1070
   344
1005
0
1070
   343
1005
0
1070
   172
1070
     1
1070
    76
1070
     0
1070
    75
1070
     0
1070
   282
1070
     0
1070
   281
1070
     0
1070
    71
1070
     0
1070
    74
1070
     0
1070
   279
1070
     0
1070
   173
1070
     1
1070
   340
1005
144
1070
   271
1070
     1
1070
   272
1070
     2
1070
    77
1070
     1
1070
    73
1070
     0
1070
   171
1070
     3
1070
   274
1070
     4
1070
   177
1070
     2
1070
   176
1070
     2
1070
   178
1070
     2
1070
    78
1070
     8
1070
    48
1040
-0.1
1070
    41
1040
4.5
1070
   147
1040
2.25
1070
    42
1040
1.5875
1070
    44
1040
2.0
1070
   140
1040
4.5
1002
}
1001
ACAD_DSTYLE_DIM_LINETYPE
1070
   380
1005
16
1001
ACAD_DSTYLE_DIM_EXT1_LINETYPE
1070
   381
1005
16
1001
ACAD_DSTYLE_DIM_EXT2_LINETYPE
1070
   382
1005
16
0
DIMENSION
5
190
100
AcDbEntity
8
SK2
62
256
6
ByLayer
370
18
48
1
60
0
100
AcDbDimension
2
_U2
10
110
20
-58.57
30
0
11
81.5
21
-58.57
31
0
70
32
71
1
72
1
41
1
210
0
220
0
230
1
3
Standard
100
AcDbAlignedDimension
13
53
23
-12.5
33
0
14
110
24
-12.5
34
0
50
0
100
AcDbRotatedDimension
1001
ACAD
1000
DSTYLE
1002
{
1070
   371
1070
    13
1070
   372
1070
    13
1070
     3
1000

1070
   170
1070
     0
1070
   144
1040
1.0
1070
   277
1070
     2
1070
   284
1070
     8
1070
   278
1070
    44
1070
   146
1040
0.777778
1070
   345
1005
16
1070
   347
1005
16
1070
   346
1005
16
1070
   344
1005
0
1070
   343
1005
0
1070
   172
1070
     1
1070
    76
1070
     0
1070
    75
1070
     0
1070
   282
1070
     0
1070
   281
1070
     0
1070
    71
1070
     0
1070
    74
1070
     0
1070
   279
1070
     0
1070
   173
1070
     1
1070
   340
1005
144
1070
   271
1070
     0
1070
   272
1070
     2
1070
    77
1070
     1
1070
    73
1070
     1
1070
   171
1070
     3
1070
   274
1070
     4
1070
   177
1070
     2
1070
   176
1070
     2
1070
   178
1070
     2
1070
    78
1070
     8
1070
    48
1040
-0.1
1070
    41
1040
4.5
1070
   147
1040
2.25
1070
    42
1040
1.5875
1070
    44
1040
2.0
1070
   140
1040
4.5
1002
}
1001
ACAD_DSTYLE_DIM_LINETYPE
1070
   380
1005
16
1001
ACAD_DSTYLE_DIM_EXT1_LINETYPE
1070
   381
1005
16
1001
ACAD_DSTYLE_DIM_EXT2_LINETYPE
1070
   382
1005
16
0
DIMENSION
5
1A8
100
AcDbEntity
8
SK2
62
256
6
ByLayer
370
18
48
1
60
0
100
AcDbDimension
2
_U3
10
110
20
-48.57
30
0
11
103.55
21
-48.57
31
0
70
32
71
1
72
1
41
1
210
0
220
0
230
1
3
Standard
100
AcDbAlignedDimension
13
97.1
23
-25
33
0
14
110
24
-25
34
0
50
0
100
AcDbRotatedDimension
1001
ACAD
1000
DSTYLE
1002
{
1070
   371
1070
    13
1070
   372
1070
    13
1070
   170
1070
     0
1070
   144
1040
1.0
1070
   277
1070
     2
1070
   284
1070
     8
1070
   278
1070
    44
1070
   146
1040
0.777778
1070
   345
1005
16
1070
   347
1005
16
1070
   346
1005
16
1070
   344
1005
0
1070
   343
1005
0
1070
   172
1070
     1
1070
    76
1070
     0
1070
    75
1070
     0
1070
   282
1070
     0
1070
   281
1070
     0
1070
    71
1070
     0
1070
    74
1070
     0
1070
   279
1070
     0
1070
   173
1070
     1
1070
   340
1005
144
1070
   271
1070
     1
1070
   272
1070
     2
1070
    77
1070
     1
1070
    73
1070
     1
1070
   171
1070
     3
1070
   274
1070
     4
1070
   177
1070
     2
1070
   176
1070
     2
1070
   178
1070
     2
1070
    78
1070
     8
1070
    48
1040
-0.1
1070
    41
1040
4.5
1070
   147
1040
2.25
1070
    42
1040
1.5875
1070
    44
1040
2.0
1070
   140
1040
4.5
1002
}
1001
ACAD_DSTYLE_DIM_LINETYPE
1070
   380
1005
16
1001
ACAD_DSTYLE_DIM_EXT1_LINETYPE
1070
   381
1005
16
1001
ACAD_DSTYLE_DIM_EXT2_LINETYPE
1070
   382
1005
16
0
DIMENSION
5
1C1
100
AcDbEntity
8
2
62
256
6
ByLayer
370
18
48
1
60
0
100
AcDbDimension
2
_U4
10
110
20
79.07
30
0
11
55
21
79.07
31
0
70
32
71
1
72
1
41
1
210
0
220
0
230
1
3
Standard
100
AcDbAlignedDimension
13
0
23
39.97
33
0
14
110
24
25
34
0
50
0
100
AcDbRotatedDimension
1001
ACAD
1000
DSTYLE
1002
{
1070
   371
1070
    13
1070
   372
1070
    13
1070
   170
1070
     0
1070
   144
1040
1.0
1070
   277
1070
     2
1070
   284
1070
     8
1070
   278
1070
    44
1070
   146
1040
0.777778
1070
   345
1005
16
1070
   347
1005
16
1070
   346
1005
16
1070
   344
1005
0
1070
   343
1005
0
1070
   172
1070
     1
1070
    76
1070
     0
1070
    75
1070
     0
1070
   282
1070
     0
1070
   281
1070
     0
1070
    71
1070
     0
1070
    74
1070
     0
1070
   279
1070
     0
1070
   173
1070
     1
1070
   340
1005
144
1070
   271
1070
     1
1070
   272
1070
     2
1070
    77
1070
     1
1070
    73
1070
     1
1070
   171
1070
     3
1070
   274
1070
     4
1070
   177
1070
     2
1070
   176
1070
     2
1070
   178
1070
     2
1070
    78
1070
     8
1070
    48
1040
-0.1
1070
    41
1040
4.5
1070
   147
1040
2.25
1070
    42
1040
1.5875
1070
    44
1040
2.0
1070
   140
1040
4.5
1002
}
1001
ACAD_DSTYLE_DIM_LINETYPE
1070
   380
1005
16
1001
ACAD_DSTYLE_DIM_EXT1_LINETYPE
1070
   381
1005
16
1001
ACAD_DSTYLE_DIM_EXT2_LINETYPE
1070
   382
1005
16
0
DIMENSION
5
1DA
100
AcDbEntity
8
SK2
62
256
6
ByLayer
370
18
48
1
60
0
100
AcDbDimension
2
_U5
10
-39.9
20
79.07
30
0
11
-19.95
21
79.07
31
0
70
32
71
1
72
1
41
1
210
0
220
0
230
1
3
Standard
100
AcDbAlignedDimension
13
0
23
22.055
33
0
14
-39.9
24
29.2
34
0
50
0
100
AcDbRotatedDimension
1001
ACAD
1000
DSTYLE
1002
{
1070
   371
1070
    13
1070
   372
1070
    13
1070
   170
1070
     0
1070
   144
1040
1.0
1070
   277
1070
     2
1070
   284
1070
     8
1070
   278
1070
    44
1070
   146
1040
0.777778
1070
   345
1005
16
1070
   347
1005
16
1070
   346
1005
16
1070
   344
1005
0
1070
   343
1005
0
1070
   172
1070
     1
1070
    76
1070
     0
1070
    75
1070
     0
1070
   282
1070
     0
1070
   281
1070
     0
1070
    71
1070
     0
1070
    74
1070
     0
1070
   279
1070
     0
1070
   173
1070
     1
1070
   340
1005
144
1070
   271
1070
     1
1070
   272
1070
     2
1070
    77
1070
     1
1070
    73
1070
     1
1070
   171
1070
     3
1070
   274
1070
     4
1070
   177
1070
     2
1070
   176
1070
     2
1070
   178
1070
     2
1070
    78
1070
     8
1070
    48
1040
-0.1
1070
    41
1040
4.5
1070
   147
1040
2.25
1070
    42
1040
1.5875
1070
    44
1040
2.0
1070
   140
1040
4.5
1002
}
1001
ACAD_DSTYLE_DIM_LINETYPE
1070
   380
1005
16
1001
ACAD_DSTYLE_DIM_EXT1_LINETYPE
1070
   381
1005
16
1001
ACAD_DSTYLE_DIM_EXT2_LINETYPE
1070
   382
1005
16
0
DIMENSION
5
1F2
100
AcDbEntity
8
SK2
62
256
6
ByLayer
370
18
48
1
60
0
100
AcDbDimension
2
_U6
10
26
20
59.07
30
0
11
13
21
59.07
31
0
70
32
71
1
72
1
41
1
210
0
220
0
230
1
3
Standard
100
AcDbAlignedDimension
13
0
23
22.055
33
0
14
26
24
39.97
34
0
50
0
100
AcDbRotatedDimension
1001
ACAD
1000
DSTYLE
1002
{
1070
   371
1070
    13
1070
   372
1070
    13
1070
   170
1070
     0
1070
   144
1040
1.0
1070
   277
1070
     2
1070
   284
1070
     8
1070
   278
1070
    44
1070
   146
1040
0.777778
1070
   345
1005
16
1070
   347
1005
16
1070
   346
1005
16
1070
   344
1005
0
1070
   343
1005
0
1070
   172
1070
     1
1070
    76
1070
     0
1070
    75
1070
     0
1070
   282
1070
     0
1070
   281
1070
     0
1070
    71
1070
     0
1070
    74
1070
     0
1070
   279
1070
     0
1070
   173
1070
     1
1070
   340
1005
144
1070
   271
1070
     2
1070
   272
1070
     2
1070
    77
1070
     1
1070
    73
1070
     1
1070
   171
1070
     3
1070
   274
1070
     4
1070
   177
1070
     2
1070
   176
1070
     2
1070
   178
1070
     2
1070
    78
1070
     8
1070
    48
1040
-0.1
1070
    41
1040
4.5
1070
   147
1040
2.25
1070
    42
1040
1.5875
1070
    44
1040
2.0
1070
   140
1040
4.5
1002
}
1001
ACAD_DSTYLE_DIM_LINETYPE
1070
   380
1005
16
1001
ACAD_DSTYLE_DIM_EXT1_LINETYPE
1070
   381
1005
16
1001
ACAD_DSTYLE_DIM_EXT2_LINETYPE
1070
   382
1005
16
0
ENDSEC
0
SECTION
2
OBJECTS
0
DICTIONARY
5
27b
330
0
100
AcDbDictionary
280
0
281
1
3
ACAD_GROUP
350
27c
3
ACAD_MLINESTYLE
350
27d
0
DICTIONARY
5
27c
330
0
100
AcDbDictionary
280
0
281
1
0
DICTIONARY
5
27d
330
0
100
AcDbDictionary
280
0
281
1
3
Standard
350
18
0
MLINESTYLE
5
18
330
27d
100
AcDbMlineStyle
2
Standard
70
0
3

62
256
51
90
52
90
71
2
49
-0.5
62
256
6
ByLayer
49
0.5
62
256
6
ByLayer
0
RASTERVARIABLES
5
268
330

100
AcDbRasterVariables
90
0
70
1
71
1
72
1
0
ENDSEC
0
EOF
