0
SECTION
2
HEADER
9
$ACADVER
1
AC1015
9
$DWGCODEPAGE
3
ANSI_1252
9
$HANDSEED
5
2e6
9
$ANGBASE
50
0
9
$ANGDIR
70
0
9
$ATTMODE
70
1
9
$AUNITS
70
0
9
$AUPREC
70
0
9
$CECOLOR
62
256
9
$CELTSCALE
40
1
9
$CELTYPE
6
ByLayer
9
$CELWEIGHT
370
18
9
$CLAYER
8
0
9
$CMLJUST
70
0
9
$CMLSCALE
40
1
9
$CMLSTYLE
2
Standard
9
$DIMSTYLE
2
Standard
9
$TEXTSIZE
40
0.2
9
$TEXTSTYLE
7
Standard
9
$LUNITS
70
2
9
$LUPREC
70
4
9
$EXTNAMES
290
1
9
$INSUNITS
70
4
9
$LTSCALE
40
1
9
$LWDISPLAY
290
1
9
$PDMODE
70
0
9
$PDSIZE
40
0
9
$PLINEGEN
70
0
0
ENDSEC
0
SECTION
2
CLASSES
0
CLASS
1
RASTERVARIABLES
2
AcDbRasterVariables
3
ISM
90
0
280
0
281
0
0
ENDSEC
0
SECTION
2
TABLES
0
TABLE
2
VPORT
5
2dc
100
AcDbSymbolTable
0
VPORT
5
1
100
AcDbSymbolTableRecord
100
AcDbViewportTableRecord
2
*Active
70
0
10
0
20
0
11
1
21
1
12
-1
22
1
13
0
23
0
14
0.5
24
0.5
15
10
25
10
16
0
26
0
36
1
17
0
27
0
37
0
0
ENDTAB
0
TABLE
2
LTYPE
5
2dd
100
AcDbSymbolTable
0
LTYPE
5
14
100
AcDbSymbolTableRecord
100
AcDbLinetypeTableRecord
70
0
2
ByBlock
3

72
65
73
0
40
0
0
LTYPE
5
15
100
AcDbSymbolTableRecord
100
AcDbLinetypeTableRecord
70
0
2
ByLayer
3

72
65
73
0
40
0
0
LTYPE
5
16
100
AcDbSymbolTableRecord
100
AcDbLinetypeTableRecord
70
0
2
Continuous
3
Solid line
72
65
73
0
40
0
0
LTYPE
5
6E
100
AcDbSymbolTableRecord
100
AcDbLinetypeTableRecord
70
0
2
CENTER
3
____ _ ____ _ ____ _ ____
72
65
73
4
40
47.5
49
22
74
0
49
-8.5
74
0
49
8.5
74
0
49
-8.5
74
0
0
LTYPE
5
6F
100
AcDbSymbolTableRecord
100
AcDbLinetypeTableRecord
70
0
2
DASHED
3
__ __ __ __ __ __ __ __ __
72
65
73
2
40
25.72
49
12.86
74
0
49
-12.86
74
0
0
ENDTAB
0
TABLE
2
LAYER
5
2de
100
AcDbSymbolTable
0
LAYER
5
10
100
AcDbSymbolTableRecord
100
AcDbLayerTableRecord
2
0
70
0
62
7
6
Continuous
290
1
370
-3
390
0
0
LAYER
5
71
100
AcDbSymbolTableRecord
100
AcDbLayerTableRecord
2
80
70
0
62
-6
6
Continuous
290
1
370
-3
390
0
0
LAYER
5
73
100
AcDbSymbolTableRecord
100
AcDbLayerTableRecord
2
81
70
0
62
-3
6
Continuous
290
1
370
-3
390
0
0
LAYER
5
75
100
AcDbSymbolTableRecord
100
AcDbLayerTableRecord
2
1
70
0
62
4
6
Continuous
290
1
370
-3
390
0
0
LAYER
5
101
100
AcDbSymbolTableRecord
100
AcDbLayerTableRecord
2
4
70
0
62
-2
6
CENTER
290
1
370
-3
390
0
0
LAYER
5
188
100
AcDbSymbolTableRecord
100
AcDbLayerTableRecord
2
Defpoints
70
0
62
7
6
Continuous
290
0
370
-3
390
0
0
LAYER
5
22C
100
AcDbSymbolTableRecord
100
AcDbLayerTableRecord
2
2
70
0
62
7
6
Continuous
290
1
370
-3
390
0
0
LAYER
5
2c7
100
AcDbSymbolTableRecord
100
AcDbLayerTableRecord
2
SK1
70
0
62
4
6
Continuous
290
1
370
-3
390
0
0
LAYER
5
2c8
100
AcDbSymbolTableRecord
100
AcDbLayerTableRecord
2
SK4
70
0
62
2
6
CENTER
290
1
370
-3
390
0
0
LAYER
5
2c9
100
AcDbSymbolTableRecord
100
AcDbLayerTableRecord
2
SK3
70
0
62
1
6
DASHED
290
1
370
-3
390
0
0
LAYER
5
2ca
100
AcDbSymbolTableRecord
100
AcDbLayerTableRecord
2
SK2
70
0
62
7
6
Continuous
290
1
370
-3
390
0
0
LAYER
5
2cb
100
AcDbSymbolTableRecord
100
AcDbLayerTableRecord
2
SK6
70
0
62
5
6
Continuous
290
1
370
-3
390
0
0
ENDTAB
0
TABLE
2
STYLE
5
2df
100
AcDbSymbolTable
0
STYLE
5
11
100
AcDbSymbolTableRecord
100
AcDbTextStyleTableRecord
2
Standard
3
txt
70
0
71
0
40
0
41
1
42
0
50
0
0
STYLE
5
16C
100
AcDbSymbolTableRecord
100
AcDbTextStyleTableRecord
2
iso_b_vert
3
simplex.shx
70
0
71
0
40
0
41
1
42
0
50
0
0
STYLE
5
16D
100
AcDbSymbolTableRecord
100
AcDbTextStyleTableRecord
2
DWGDirectTextStyle
3
simplex
70
0
71
0
40
0
41
1
42
0
50
0
0
ENDTAB
0
TABLE
2
DIMSTYLE
5
2e0
100
AcDbSymbolTable
100
AcDbDimStyleTable
0
DIMSTYLE
105
27
100
AcDbSymbolTableRecord
100
AcDbDimStyleTableRecord
2
Standard
70
0
3
<>
41
0.18
42
0.0625
44
0.18
140
0.18
147
0.09
73
0
74
0
77
1
271
2
275
0
278
52
280
0
340
11
0
ENDTAB
0
TABLE
2
VIEW
5
2e1
100
AcDbSymbolTable
0
ENDTAB
0
TABLE
2
UCS
5
2e2
100
AcDbSymbolTable
0
ENDTAB
0
TABLE
2
APPID
5
2e3
100
AcDbSymbolTable
0
APPID
5
12
100
AcDbSymbolTableRecord
100
AcDbRegAppTableRecord
2
ACAD
70
0
0
APPID
5
184
100
AcDbSymbolTableRecord
100
AcDbRegAppTableRecord
2
ACAD_DSTYLE_DIMBREAK
70
0
0
APPID
5
286
100
AcDbSymbolTableRecord
100
AcDbRegAppTableRecord
2
ACAD_DSTYLE_DIM_LINETYPE
70
0
0
APPID
5
287
100
AcDbSymbolTableRecord
100
AcDbRegAppTableRecord
2
ACAD_DSTYLE_DIM_EXT1_LINETYPE
70
0
0
APPID
5
288
100
AcDbSymbolTableRecord
100
AcDbRegAppTableRecord
2
ACAD_DSTYLE_DIM_EXT2_LINETYPE
70
0
0
APPID
5
2C3
100
AcDbSymbolTableRecord
100
AcDbRegAppTableRecord
2
ACAD_MLEADERVER
70
0
0
ENDTAB
0
TABLE
2
BLOCK_RECORD
5
2e4
100
AcDbSymbolTable
0
BLOCK_RECORD
5
1F
100
AcDbSymbolTableRecord
100
AcDbBlockTableRecord
2
*Model_Space
340
0
70
0
0
BLOCK_RECORD
5
1B
100
AcDbSymbolTableRecord
100
AcDbBlockTableRecord
2
*Paper_Space
340
0
70
0
0
BLOCK_RECORD
5
23
100
AcDbSymbolTableRecord
100
AcDbBlockTableRecord
2
*Paper_Space0
340
0
70
0
0
BLOCK_RECORD
5
17B
100
AcDbSymbolTableRecord
100
AcDbBlockTableRecord
2
LABLE3D_1
340
0
70
0
0
BLOCK_RECORD
5
189
100
AcDbSymbolTableRecord
100
AcDbBlockTableRecord
2
*D2
340
0
70
0
0
BLOCK_RECORD
5
195
100
AcDbSymbolTableRecord
100
AcDbBlockTableRecord
2
_U0
340
0
70
0
0
BLOCK_RECORD
5
1A2
100
AcDbSymbolTableRecord
100
AcDbBlockTableRecord
2
*D4
340
0
70
0
0
BLOCK_RECORD
5
1B0
100
AcDbSymbolTableRecord
100
AcDbBlockTableRecord
2
_U1
340
0
70
0
0
BLOCK_RECORD
5
1BD
100
AcDbSymbolTableRecord
100
AcDbBlockTableRecord
2
*D6
340
0
70
0
0
BLOCK_RECORD
5
1C9
100
AcDbSymbolTableRecord
100
AcDbBlockTableRecord
2
_U2
340
0
70
0
0
BLOCK_RECORD
5
1D6
100
AcDbSymbolTableRecord
100
AcDbBlockTableRecord
2
*D8
340
0
70
0
0
BLOCK_RECORD
5
1E3
100
AcDbSymbolTableRecord
100
AcDbBlockTableRecord
2
_U3
340
0
70
0
0
BLOCK_RECORD
5
1EF
100
AcDbSymbolTableRecord
100
AcDbBlockTableRecord
2
*D10
340
0
70
0
0
BLOCK_RECORD
5
1FC
100
AcDbSymbolTableRecord
100
AcDbBlockTableRecord
2
_U4
340
0
70
0
0
BLOCK_RECORD
5
208
100
AcDbSymbolTableRecord
100
AcDbBlockTableRecord
2
*D12
340
0
70
0
0
BLOCK_RECORD
5
214
100
AcDbSymbolTableRecord
100
AcDbBlockTableRecord
2
_U5
340
0
70
0
0
BLOCK_RECORD
5
220
100
AcDbSymbolTableRecord
100
AcDbBlockTableRecord
2
*D14
340
0
70
0
0
BLOCK_RECORD
5
22D
100
AcDbSymbolTableRecord
100
AcDbBlockTableRecord
2
_U6
340
0
70
0
0
BLOCK_RECORD
5
239
100
AcDbSymbolTableRecord
100
AcDbBlockTableRecord
2
*D16
340
0
70
0
0
BLOCK_RECORD
5
246
100
AcDbSymbolTableRecord
100
AcDbBlockTableRecord
2
_U7
340
0
70
0
0
BLOCK_RECORD
5
252
100
AcDbSymbolTableRecord
100
AcDbBlockTableRecord
2
*D18
340
0
70
0
0
BLOCK_RECORD
5
25F
100
AcDbSymbolTableRecord
100
AcDbBlockTableRecord
2
_U8
340
0
70
0
0
ENDTAB
0
ENDSEC
0
SECTION
2
BLOCKS
0
BLOCK
5
20
100
AcDbEntity
8
0
100
AcDbBlockBegin
2
*Model_Space
70
0
10
0
20
0
30
0
3
*Model_Space
0
ENDBLK
5
21
100
AcDbEntity
8
0
100
AcDbBlockEnd
0
BLOCK
5
1C
100
AcDbEntity
8
0
100
AcDbBlockBegin
2
*Paper_Space
70
0
10
0
20
0
30
0
3
*Paper_Space
0
ENDBLK
5
1D
100
AcDbEntity
8
0
100
AcDbBlockEnd
0
BLOCK
5
24
100
AcDbEntity
8
0
100
AcDbBlockBegin
2
*Paper_Space0
70
0
10
0
20
0
30
0
3
*Paper_Space0
0
ENDBLK
5
25
100
AcDbEntity
8
0
100
AcDbBlockEnd
0
BLOCK
5
182
100
AcDbEntity
8
0
100
AcDbBlockBegin
2
LABLE3D_1
70
0
10
-22.4
20
29.975
30
0
3
LABLE3D_1
0
MTEXT
5
180
100
AcDbEntity
8
SK6
62
256
6
ByLayer
370
18
48
1
60
0
100
AcDbMText
10
-23.7145
20
27.507634
30
0
210
0
220
0
230
1
1
\W1.0000;
40
3.5
41
0
44
1.084337
50
0
71
7
72
5
7
iso_b_vert
0
ENDBLK
5
183
100
AcDbEntity
8
0
100
AcDbBlockEnd
0
BLOCK
5
18A
100
AcDbEntity
8
0
100
AcDbBlockBegin
2
*D2
70
1
10
0
20
0
30
0
3
*D2
0
LINE
5
18C
100
AcDbEntity
8
0
62
256
6
ByLayer
370
-2
48
1
60
0
100
AcDbLine
10
71.5875
20
-13
30
0
11
101.25
21
-13
31
0
39
0
210
0
220
0
230
1
0
LINE
5
18D
100
AcDbEntity
8
0
62
256
6
ByLayer
370
-2
48
1
60
0
100
AcDbLine
10
71.5875
20
13
30
0
11
101.25
21
13
31
0
39
0
210
0
220
0
230
1
0
LINE
5
18E
100
AcDbEntity
8
0
62
256
6
ByLayer
370
-2
48
1
60
0
100
AcDbLine
10
99.25
20
-8.5
30
0
11
99.25
21
8.5
31
0
39
0
210
0
220
0
230
1
0
SOLID
5
18F
100
AcDbEntity
8
0
62
256
6
ByLayer
370
-1
48
1
60
0
100
AcDbTrace
10
98.5
20
-8.5
30
0
11
100
21
-8.5
31
0
12
99.25
22
-13
32
0
13
99.25
23
-13
33
0
39
0
210
0
220
0
230
1
0
SOLID
5
190
100
AcDbEntity
8
0
62
256
6
ByLayer
370
-1
48
1
60
0
100
AcDbTrace
10
100
20
8.5
30
0
11
98.5
21
8.5
31
0
12
99.25
22
13
32
0
13
99.25
23
13
33
0
39
0
210
0
220
0
230
1
0
MTEXT
5
191
100
AcDbEntity
8
0
62
256
6
ByLayer
370
18
48
1
60
0
100
AcDbMText
10
90.25
20
0
30
0
210
0
220
0
230
1
1
\A1;26
40
4.5
41
0
44
1
50
90
71
5
72
5
7
iso_b_vert
0
POINT
5
192
100
AcDbEntity
8
Defpoints
62
0
6
ByLayer
370
-1
48
1
60
0
100
AcDbPoint
10
70
20
-13
30
0
39
0
210
0
220
0
230
1
50
360
0
POINT
5
193
100
AcDbEntity
8
Defpoints
62
0
6
ByLayer
370
-1
48
1
60
0
100
AcDbPoint
10
70
20
13
30
0
39
0
210
0
220
0
230
1
50
360
0
POINT
5
194
100
AcDbEntity
8
Defpoints
62
0
6
ByLayer
370
-1
48
1
60
0
100
AcDbPoint
10
99.25
20
13
30
0
39
0
210
0
220
0
230
1
50
360
0
ENDBLK
5
18B
100
AcDbEntity
8
0
100
AcDbBlockEnd
0
BLOCK
5
19D
100
AcDbEntity
8
0
100
AcDbBlockBegin
2
_U0
70
0
10
0
20
0
30
0
3
_U0
0
MTEXT
5
196
100
AcDbEntity
8
SK2
62
256
6
ByLayer
370
18
48
1
60
0
100
AcDbMText
10
97.185366
20
-7.780242
30
0
210
0
220
0
230
1
1
%%c
40
3.5
41
0
44
1.084337
50
90
71
7
72
5
7
iso_b_vert
0
MTEXT
5
197
100
AcDbEntity
8
SK2
62
256
6
ByLayer
370
18
48
1
60
0
100
AcDbMText
10
97.488328
20
2.764758
30
0
210
0
220
0
230
1
1
\W0.6740;26
40
4.5
41
0
44
1.084337
50
90
71
7
72
5
7
iso_b_vert
0
LINE
5
198
100
AcDbEntity
8
SK2
62
256
6
ByLayer
370
13
48
1
60
0
100
AcDbLine
10
71.5875
20
-13
30
0
11
101.25
21
-13
31
0
39
0
210
0
220
0
230
1
0
LINE
5
199
100
AcDbEntity
8
SK2
62
256
6
ByLayer
370
13
48
1
60
0
100
AcDbLine
10
71.5875
20
13
30
0
11
101.25
21
13
31
0
39
0
210
0
220
0
230
1
0
LINE
5
19A
100
AcDbEntity
8
SK2
62
256
6
ByLayer
370
13
48
1
60
0
100
AcDbLine
10
99.25
20
-24.25
30
0
11
99.25
21
24.25
31
0
39
0
210
0
220
0
230
1
0
SOLID
5
19B
100
AcDbEntity
8
SK2
62
256
6
ByLayer
370
18
48
1
60
0
100
AcDbTrace
10
99.25
20
-13
30
0
11
100.247626
21
-17.499996
31
0
12
98.252374
22
-17.500004
32
0
13
98.252374
23
-17.500004
33
0
39
0
210
0
220
0
230
1
0
SOLID
5
19C
100
AcDbEntity
8
SK2
62
256
6
ByLayer
370
18
48
1
60
0
100
AcDbTrace
10
99.25
20
13
30
0
11
98.252374
21
17.499996
31
0
12
100.247626
22
17.500004
32
0
13
100.247626
23
17.500004
33
0
39
0
210
0
220
0
230
1
0
ENDBLK
5
19E
100
AcDbEntity
8
0
100
AcDbBlockEnd
0
BLOCK
5
1A3
100
AcDbEntity
8
0
100
AcDbBlockBegin
2
*D4
70
1
10
0
20
0
30
0
3
*D4
0
LINE
5
1A5
100
AcDbEntity
8
0
62
256
6
ByLayer
370
-2
48
1
60
0
100
AcDbLine
10
71.5875
20
3
30
0
11
89.25
21
3
31
0
39
0
210
0
220
0
230
1
0
LINE
5
1A6
100
AcDbEntity
8
0
62
256
6
ByLayer
370
-2
48
1
60
0
100
AcDbLine
10
71.5875
20
-3
30
0
11
89.25
21
-3
31
0
39
0
210
0
220
0
230
1
0
LINE
5
1A7
100
AcDbEntity
8
0
62
256
6
ByLayer
370
-2
48
1
60
0
100
AcDbLine
10
87.25
20
3
30
0
11
87.25
21
28.399228
31
0
39
0
210
0
220
0
230
1
0
LINE
5
1A8
100
AcDbEntity
8
0
62
256
6
ByLayer
370
-2
48
1
60
0
100
AcDbLine
10
87.25
20
7.5
30
0
11
87.25
21
12
31
0
39
0
210
0
220
0
230
1
0
LINE
5
1A9
100
AcDbEntity
8
0
62
256
6
ByLayer
370
-2
48
1
60
0
100
AcDbLine
10
87.25
20
-7.5
30
0
11
87.25
21
-12
31
0
39
0
210
0
220
0
230
1
0
SOLID
5
1AA
100
AcDbEntity
8
0
62
256
6
ByLayer
370
-1
48
1
60
0
100
AcDbTrace
10
86.5
20
7.5
30
0
11
88
21
7.5
31
0
12
87.25
22
3
32
0
13
87.25
23
3
33
0
39
0
210
0
220
0
230
1
0
SOLID
5
1AB
100
AcDbEntity
8
0
62
256
6
ByLayer
370
-1
48
1
60
0
100
AcDbTrace
10
88
20
-7.5
30
0
11
86.5
21
-7.5
31
0
12
87.25
22
-3
32
0
13
87.25
23
-3
33
0
39
0
210
0
220
0
230
1
0
MTEXT
5
1AC
100
AcDbEntity
8
0
62
256
6
ByLayer
370
18
48
1
60
0
100
AcDbMText
10
78.25
20
20.256371
30
0
210
0
220
0
230
1
1
\A1;6
40
4.5
41
0
44
1
50
90
71
5
72
5
7
iso_b_vert
0
POINT
5
1AD
100
AcDbEntity
8
Defpoints
62
0
6
ByLayer
370
-1
48
1
60
0
100
AcDbPoint
10
70
20
3
30
0
39
0
210
0
220
0
230
1
50
360
0
POINT
5
1AE
100
AcDbEntity
8
Defpoints
62
0
6
ByLayer
370
-1
48
1
60
0
100
AcDbPoint
10
70
20
-3
30
0
39
0
210
0
220
0
230
1
50
360
0
POINT
5
1AF
100
AcDbEntity
8
Defpoints
62
0
6
ByLayer
370
-1
48
1
60
0
100
AcDbPoint
10
87.25
20
-3
30
0
39
0
210
0
220
0
230
1
50
360
0
ENDBLK
5
1A4
100
AcDbEntity
8
0
100
AcDbBlockEnd
0
BLOCK
5
1B8
100
AcDbEntity
8
0
100
AcDbBlockBegin
2
_U1
70
0
10
0
20
0
30
0
3
_U1
0
MTEXT
5
1B1
100
AcDbEntity
8
SK2
62
256
6
ByLayer
370
18
48
1
60
0
100
AcDbMText
10
85.185366
20
14.1575
30
0
210
0
220
0
230
1
1
%%c
40
3.5
41
0
44
1.084337
50
90
71
7
72
5
7
iso_b_vert
0
MTEXT
5
1B2
100
AcDbEntity
8
SK2
62
256
6
ByLayer
370
18
48
1
60
0
100
AcDbMText
10
85.488328
20
24.7025
30
0
210
0
220
0
230
1
1
\W0.5404;6
40
4.5
41
0
44
1.084337
50
90
71
7
72
5
7
iso_b_vert
0
LINE
5
1B3
100
AcDbEntity
8
SK2
62
256
6
ByLayer
370
13
48
1
60
0
100
AcDbLine
10
71.5875
20
3
30
0
11
89.25
21
3
31
0
39
0
210
0
220
0
230
1
0
LINE
5
1B4
100
AcDbEntity
8
SK2
62
256
6
ByLayer
370
13
48
1
60
0
100
AcDbLine
10
71.5875
20
-3
30
0
11
89.25
21
-3
31
0
39
0
210
0
220
0
230
1
0
LINE
5
1B5
100
AcDbEntity
8
SK2
62
256
6
ByLayer
370
13
48
1
60
0
100
AcDbLine
10
87.25
20
-14.25
30
0
11
87.25
21
26.512742
31
0
39
0
210
0
220
0
230
1
0
SOLID
5
1B6
100
AcDbEntity
8
SK2
62
256
6
ByLayer
370
18
48
1
60
0
100
AcDbTrace
10
87.25
20
3
30
0
11
86.252374
21
7.499996
31
0
12
88.247626
22
7.500004
32
0
13
88.247626
23
7.500004
33
0
39
0
210
0
220
0
230
1
0
SOLID
5
1B7
100
AcDbEntity
8
SK2
62
256
6
ByLayer
370
18
48
1
60
0
100
AcDbTrace
10
87.25
20
-3
30
0
11
88.247626
21
-7.499996
31
0
12
86.252374
22
-7.500004
32
0
13
86.252374
23
-7.500004
33
0
39
0
210
0
220
0
230
1
0
ENDBLK
5
1B9
100
AcDbEntity
8
0
100
AcDbBlockEnd
0
BLOCK
5
1BE
100
AcDbEntity
8
0
100
AcDbBlockBegin
2
*D6
70
1
10
0
20
0
30
0
3
*D6
0
LINE
5
1C0
100
AcDbEntity
8
0
62
256
6
ByLayer
370
-2
48
1
60
0
100
AcDbLine
10
36.5875
20
16
30
0
11
121.25
21
16
31
0
39
0
210
0
220
0
230
1
0
LINE
5
1C1
100
AcDbEntity
8
0
62
256
6
ByLayer
370
-2
48
1
60
0
100
AcDbLine
10
36.5875
20
-16
30
0
11
121.25
21
-16
31
0
39
0
210
0
220
0
230
1
0
LINE
5
1C2
100
AcDbEntity
8
0
62
256
6
ByLayer
370
-2
48
1
60
0
100
AcDbLine
10
119.25
20
11.5
30
0
11
119.25
21
-11.5
31
0
39
0
210
0
220
0
230
1
0
SOLID
5
1C3
100
AcDbEntity
8
0
62
256
6
ByLayer
370
-1
48
1
60
0
100
AcDbTrace
10
120
20
11.5
30
0
11
118.5
21
11.5
31
0
12
119.25
22
16
32
0
13
119.25
23
16
33
0
39
0
210
0
220
0
230
1
0
SOLID
5
1C4
100
AcDbEntity
8
0
62
256
6
ByLayer
370
-1
48
1
60
0
100
AcDbTrace
10
118.5
20
-11.5
30
0
11
120
21
-11.5
31
0
12
119.25
22
-16
32
0
13
119.25
23
-16
33
0
39
0
210
0
220
0
230
1
0
MTEXT
5
1C5
100
AcDbEntity
8
0
62
256
6
ByLayer
370
18
48
1
60
0
100
AcDbMText
10
110.25
20
0
30
0
210
0
220
0
230
1
1
\A1;32
40
4.5
41
0
44
1
50
90
71
5
72
5
7
iso_b_vert
0
POINT
5
1C6
100
AcDbEntity
8
Defpoints
62
0
6
ByLayer
370
-1
48
1
60
0
100
AcDbPoint
10
35
20
16
30
0
39
0
210
0
220
0
230
1
50
360
0
POINT
5
1C7
100
AcDbEntity
8
Defpoints
62
0
6
ByLayer
370
-1
48
1
60
0
100
AcDbPoint
10
35
20
-16
30
0
39
0
210
0
220
0
230
1
50
360
0
POINT
5
1C8
100
AcDbEntity
8
Defpoints
62
0
6
ByLayer
370
-1
48
1
60
0
100
AcDbPoint
10
119.25
20
-16
30
0
39
0
210
0
220
0
230
1
50
360
0
ENDBLK
5
1BF
100
AcDbEntity
8
0
100
AcDbBlockEnd
0
BLOCK
5
1D1
100
AcDbEntity
8
0
100
AcDbBlockBegin
2
_U2
70
0
10
0
20
0
30
0
3
_U2
0
MTEXT
5
1CA
100
AcDbEntity
8
SK2
62
256
6
ByLayer
370
18
48
1
60
0
100
AcDbMText
10
117.185366
20
-7.780242
30
0
210
0
220
0
230
1
1
%%c
40
3.5
41
0
44
1.084337
50
90
71
7
72
5
7
iso_b_vert
0
MTEXT
5
1CB
100
AcDbEntity
8
SK2
62
256
6
ByLayer
370
18
48
1
60
0
100
AcDbMText
10
117.488328
20
2.764758
30
0
210
0
220
0
230
1
1
\W0.6740;32
40
4.5
41
0
44
1.084337
50
90
71
7
72
5
7
iso_b_vert
0
LINE
5
1CC
100
AcDbEntity
8
SK2
62
256
6
ByLayer
370
13
48
1
60
0
100
AcDbLine
10
36.5875
20
16
30
0
11
121.25
21
16
31
0
39
0
210
0
220
0
230
1
0
LINE
5
1CD
100
AcDbEntity
8
SK2
62
256
6
ByLayer
370
13
48
1
60
0
100
AcDbLine
10
36.5875
20
-16
30
0
11
121.25
21
-16
31
0
39
0
210
0
220
0
230
1
0
LINE
5
1CE
100
AcDbEntity
8
SK2
62
256
6
ByLayer
370
13
48
1
60
0
100
AcDbLine
10
119.25
20
16
30
0
11
119.25
21
-16
31
0
39
0
210
0
220
0
230
1
0
SOLID
5
1CF
100
AcDbEntity
8
SK2
62
256
6
ByLayer
370
18
48
1
60
0
100
AcDbTrace
10
119.25
20
16
30
0
11
120.247626
21
11.500004
31
0
12
118.252374
22
11.499996
32
0
13
118.252374
23
11.499996
33
0
39
0
210
0
220
0
230
1
0
SOLID
5
1D0
100
AcDbEntity
8
SK2
62
256
6
ByLayer
370
18
48
1
60
0
100
AcDbTrace
10
119.25
20
-16
30
0
11
118.252374
21
-11.500004
31
0
12
120.247626
22
-11.499996
32
0
13
120.247626
23
-11.499996
33
0
39
0
210
0
220
0
230
1
0
ENDBLK
5
1D2
100
AcDbEntity
8
0
100
AcDbBlockEnd
0
BLOCK
5
1D7
100
AcDbEntity
8
0
100
AcDbBlockBegin
2
*D8
70
1
10
0
20
0
30
0
3
*D8
0
LINE
5
1D9
100
AcDbEntity
8
0
62
256
6
ByLayer
370
-2
48
1
60
0
100
AcDbLine
10
33
20
-4.5875
30
0
11
33
21
-40.575
31
0
39
0
210
0
220
0
230
1
0
LINE
5
1DA
100
AcDbEntity
8
0
62
256
6
ByLayer
370
-2
48
1
60
0
100
AcDbLine
10
70
20
-4.5875
30
0
11
70
21
-40.575
31
0
39
0
210
0
220
0
230
1
0
LINE
5
1DB
100
AcDbEntity
8
0
62
256
6
ByLayer
370
-2
48
1
60
0
100
AcDbLine
10
70
20
-38.575
30
0
11
112.280054
21
-38.575
31
0
39
0
210
0
220
0
230
1
0
LINE
5
1DC
100
AcDbEntity
8
0
62
256
6
ByLayer
370
-2
48
1
60
0
100
AcDbLine
10
37.5
20
-38.575
30
0
11
65.5
21
-38.575
31
0
39
0
210
0
220
0
230
1
0
SOLID
5
1DD
100
AcDbEntity
8
0
62
256
6
ByLayer
370
-1
48
1
60
0
100
AcDbTrace
10
37.5
20
-37.825
30
0
11
37.5
21
-39.325
31
0
12
33
22
-38.575
32
0
13
33
23
-38.575
33
0
39
0
210
0
220
0
230
1
0
SOLID
5
1DE
100
AcDbEntity
8
0
62
256
6
ByLayer
370
-1
48
1
60
0
100
AcDbTrace
10
65.5
20
-39.325
30
0
11
65.5
21
-37.825
31
0
12
70
22
-38.575
32
0
13
70
23
-38.575
33
0
39
0
210
0
220
0
230
1
0
MTEXT
5
1DF
100
AcDbEntity
8
0
62
256
6
ByLayer
370
18
48
1
60
0
100
AcDbMText
10
101.887197
20
-29.575
30
0
210
0
220
0
230
1
1
\A1;37
40
4.5
41
0
44
1
50
0
71
5
72
5
7
iso_b_vert
0
POINT
5
1E0
100
AcDbEntity
8
Defpoints
62
0
6
ByLayer
370
-1
48
1
60
0
100
AcDbPoint
10
33
20
-3
30
0
39
0
210
0
220
0
230
1
50
360
0
POINT
5
1E1
100
AcDbEntity
8
Defpoints
62
0
6
ByLayer
370
-1
48
1
60
0
100
AcDbPoint
10
70
20
-3
30
0
39
0
210
0
220
0
230
1
50
360
0
POINT
5
1E2
100
AcDbEntity
8
Defpoints
62
0
6
ByLayer
370
-1
48
1
60
0
100
AcDbPoint
10
70
20
-38.575
30
0
39
0
210
0
220
0
230
1
50
360
0
ENDBLK
5
1D8
100
AcDbEntity
8
0
100
AcDbBlockEnd
0
BLOCK
5
1EA
100
AcDbEntity
8
0
100
AcDbBlockBegin
2
_U3
70
0
10
0
20
0
30
0
3
_U3
0
MTEXT
5
1E4
100
AcDbEntity
8
SK2
62
256
6
ByLayer
370
18
48
1
60
0
100
AcDbMText
10
81.2385
20
-37.247328
30
0
210
0
220
0
230
1
1
\W0.7273;min 27-max 37
40
4.5
41
0
44
1.084337
50
0
71
7
72
5
7
iso_b_vert
0
LINE
5
1E5
100
AcDbEntity
8
SK2
62
256
6
ByLayer
370
13
48
1
60
0
100
AcDbLine
10
33
20
-4.5875
30
0
11
33
21
-40.575
31
0
39
0
210
0
220
0
230
1
0
LINE
5
1E6
100
AcDbEntity
8
SK2
62
256
6
ByLayer
370
13
48
1
60
0
100
AcDbLine
10
70
20
-4.5875
30
0
11
70
21
-40.575
31
0
39
0
210
0
220
0
230
1
0
LINE
5
1E7
100
AcDbEntity
8
SK2
62
256
6
ByLayer
370
13
48
1
60
0
100
AcDbLine
10
33
20
-38.575
30
0
11
122.774393
21
-38.575
31
0
39
0
210
0
220
0
230
1
0
SOLID
5
1E8
100
AcDbEntity
8
SK2
62
256
6
ByLayer
370
18
48
1
60
0
100
AcDbTrace
10
33
20
-38.575
30
0
11
37.499996
21
-37.577374
31
0
12
37.500004
22
-39.572626
32
0
13
37.500004
23
-39.572626
33
0
39
0
210
0
220
0
230
1
0
SOLID
5
1E9
100
AcDbEntity
8
SK2
62
256
6
ByLayer
370
18
48
1
60
0
100
AcDbTrace
10
70
20
-38.575
30
0
11
65.500004
21
-39.572626
31
0
12
65.499996
22
-37.577374
32
0
13
65.499996
23
-37.577374
33
0
39
0
210
0
220
0
230
1
0
ENDBLK
5
1EB
100
AcDbEntity
8
0
100
AcDbBlockEnd
0
BLOCK
5
1F0
100
AcDbEntity
8
0
100
AcDbBlockBegin
2
*D10
70
1
10
0
20
0
30
0
3
*D10
0
LINE
5
1F2
100
AcDbEntity
8
0
62
256
6
ByLayer
370
-2
48
1
60
0
100
AcDbLine
10
58.7
20
-14.5875
30
0
11
58.7
21
-30.575
31
0
39
0
210
0
220
0
230
1
0
LINE
5
1F3
100
AcDbEntity
8
0
62
256
6
ByLayer
370
-2
48
1
60
0
100
AcDbLine
10
70
20
-14.5875
30
0
11
70
21
-30.575
31
0
39
0
210
0
220
0
230
1
0
LINE
5
1F4
100
AcDbEntity
8
0
62
256
6
ByLayer
370
-2
48
1
60
0
100
AcDbLine
10
54.2
20
-28.575
30
0
11
49.7
21
-28.575
31
0
39
0
210
0
220
0
230
1
0
LINE
5
1F5
100
AcDbEntity
8
0
62
256
6
ByLayer
370
-2
48
1
60
0
100
AcDbLine
10
74.5
20
-28.575
30
0
11
79
21
-28.575
31
0
39
0
210
0
220
0
230
1
0
SOLID
5
1F6
100
AcDbEntity
8
0
62
256
6
ByLayer
370
-1
48
1
60
0
100
AcDbTrace
10
54.2
20
-29.325
30
0
11
54.2
21
-27.825
31
0
12
58.7
22
-28.575
32
0
13
58.7
23
-28.575
33
0
39
0
210
0
220
0
230
1
0
SOLID
5
1F7
100
AcDbEntity
8
0
62
256
6
ByLayer
370
-1
48
1
60
0
100
AcDbTrace
10
74.5
20
-27.825
30
0
11
74.5
21
-29.325
31
0
12
70
22
-28.575
32
0
13
70
23
-28.575
33
0
39
0
210
0
220
0
230
1
0
MTEXT
5
1F8
100
AcDbEntity
8
0
62
256
6
ByLayer
370
18
48
1
60
0
100
AcDbMText
10
64.35
20
-19.575
30
0
210
0
220
0
230
1
1
\A1;11.3
40
4.5
41
0
44
1
50
0
71
5
72
5
7
iso_b_vert
0
POINT
5
1F9
100
AcDbEntity
8
Defpoints
62
0
6
ByLayer
370
-1
48
1
60
0
100
AcDbPoint
10
58.7
20
-13
30
0
39
0
210
0
220
0
230
1
50
360
0
POINT
5
1FA
100
AcDbEntity
8
Defpoints
62
0
6
ByLayer
370
-1
48
1
60
0
100
AcDbPoint
10
70
20
-13
30
0
39
0
210
0
220
0
230
1
50
360
0
POINT
5
1FB
100
AcDbEntity
8
Defpoints
62
0
6
ByLayer
370
-1
48
1
60
0
100
AcDbPoint
10
70
20
-28.575
30
0
39
0
210
0
220
0
230
1
50
360
0
ENDBLK
5
1F1
100
AcDbEntity
8
0
100
AcDbBlockEnd
0
BLOCK
5
203
100
AcDbEntity
8
0
100
AcDbBlockBegin
2
_U4
70
0
10
0
20
0
30
0
3
_U4
0
MTEXT
5
1FD
100
AcDbEntity
8
SK2
62
256
6
ByLayer
370
18
48
1
60
0
100
AcDbMText
10
60.551101
20
-27.247328
30
0
210
0
220
0
230
1
1
\W0.5583;11,3
40
4.5
41
0
44
1.084337
50
0
71
7
72
5
7
iso_b_vert
0
LINE
5
1FE
100
AcDbEntity
8
SK2
62
256
6
ByLayer
370
13
48
1
60
0
100
AcDbLine
10
58.7
20
-14.5875
30
0
11
58.7
21
-30.575
31
0
39
0
210
0
220
0
230
1
0
LINE
5
1FF
100
AcDbEntity
8
SK2
62
256
6
ByLayer
370
13
48
1
60
0
100
AcDbLine
10
70
20
-14.5875
30
0
11
70
21
-30.575
31
0
39
0
210
0
220
0
230
1
0
LINE
5
200
100
AcDbEntity
8
SK2
62
256
6
ByLayer
370
13
48
1
60
0
100
AcDbLine
10
47.45
20
-28.575
30
0
11
81.25
21
-28.575
31
0
39
0
210
0
220
0
230
1
0
SOLID
5
201
100
AcDbEntity
8
SK2
62
256
6
ByLayer
370
18
48
1
60
0
100
AcDbTrace
10
58.7
20
-28.575
30
0
11
54.200004
21
-29.572626
31
0
12
54.199996
22
-27.577374
32
0
13
54.199996
23
-27.577374
33
0
39
0
210
0
220
0
230
1
0
SOLID
5
202
100
AcDbEntity
8
SK2
62
256
6
ByLayer
370
18
48
1
60
0
100
AcDbTrace
10
70
20
-28.575
30
0
11
74.499996
21
-27.577374
31
0
12
74.500004
22
-29.572626
32
0
13
74.500004
23
-29.572626
33
0
39
0
210
0
220
0
230
1
0
ENDBLK
5
204
100
AcDbEntity
8
0
100
AcDbBlockEnd
0
BLOCK
5
209
100
AcDbEntity
8
0
100
AcDbBlockBegin
2
*D12
70
1
10
0
20
0
30
0
3
*D12
0
LINE
5
20B
100
AcDbEntity
8
0
62
256
6
ByLayer
370
-2
48
1
60
0
100
AcDbLine
10
70
20
14.5875
30
0
11
70
21
41.075
31
0
39
0
210
0
220
0
230
1
0
LINE
5
20C
100
AcDbEntity
8
0
62
256
6
ByLayer
370
-2
48
1
60
0
100
AcDbLine
10
35
20
14.5875
30
0
11
35
21
41.075
31
0
39
0
210
0
220
0
230
1
0
LINE
5
20D
100
AcDbEntity
8
0
62
256
6
ByLayer
370
-2
48
1
60
0
100
AcDbLine
10
65.5
20
39.075
30
0
11
39.5
21
39.075
31
0
39
0
210
0
220
0
230
1
0
SOLID
5
20E
100
AcDbEntity
8
0
62
256
6
ByLayer
370
-1
48
1
60
0
100
AcDbTrace
10
65.5
20
38.325
30
0
11
65.5
21
39.825
31
0
12
70
22
39.075
32
0
13
70
23
39.075
33
0
39
0
210
0
220
0
230
1
0
SOLID
5
20F
100
AcDbEntity
8
0
62
256
6
ByLayer
370
-1
48
1
60
0
100
AcDbTrace
10
39.5
20
39.825
30
0
11
39.5
21
38.325
31
0
12
35
22
39.075
32
0
13
35
23
39.075
33
0
39
0
210
0
220
0
230
1
0
MTEXT
5
210
100
AcDbEntity
8
0
62
256
6
ByLayer
370
18
48
1
60
0
100
AcDbMText
10
52.5
20
48.075
30
0
210
0
220
0
230
1
1
\A1;35
40
4.5
41
0
44
1
50
0
71
5
72
5
7
iso_b_vert
0
POINT
5
211
100
AcDbEntity
8
Defpoints
62
0
6
ByLayer
370
-1
48
1
60
0
100
AcDbPoint
10
70
20
13
30
0
39
0
210
0
220
0
230
1
50
360
0
POINT
5
212
100
AcDbEntity
8
Defpoints
62
0
6
ByLayer
370
-1
48
1
60
0
100
AcDbPoint
10
35
20
13
30
0
39
0
210
0
220
0
230
1
50
360
0
POINT
5
213
100
AcDbEntity
8
Defpoints
62
0
6
ByLayer
370
-1
48
1
60
0
100
AcDbPoint
10
35
20
39.075
30
0
39
0
210
0
220
0
230
1
50
360
0
ENDBLK
5
20A
100
AcDbEntity
8
0
100
AcDbBlockEnd
0
BLOCK
5
21B
100
AcDbEntity
8
0
100
AcDbBlockBegin
2
_U5
70
0
10
0
20
0
30
0
3
_U5
0
MTEXT
5
215
100
AcDbEntity
8
SK2
62
256
6
ByLayer
370
18
48
1
60
0
100
AcDbMText
10
50.050758
20
40.402672
30
0
210
0
220
0
230
1
1
\W0.6740;35
40
4.5
41
0
44
1.084337
50
0
71
7
72
5
7
iso_b_vert
0
LINE
5
216
100
AcDbEntity
8
SK2
62
256
6
ByLayer
370
13
48
1
60
0
100
AcDbLine
10
70
20
14.5875
30
0
11
70
21
41.075
31
0
39
0
210
0
220
0
230
1
0
LINE
5
217
100
AcDbEntity
8
SK2
62
256
6
ByLayer
370
13
48
1
60
0
100
AcDbLine
10
35
20
14.5875
30
0
11
35
21
41.075
31
0
39
0
210
0
220
0
230
1
0
LINE
5
218
100
AcDbEntity
8
SK2
62
256
6
ByLayer
370
13
48
1
60
0
100
AcDbLine
10
70
20
39.075
30
0
11
35
21
39.075
31
0
39
0
210
0
220
0
230
1
0
SOLID
5
219
100
AcDbEntity
8
SK2
62
256
6
ByLayer
370
18
48
1
60
0
100
AcDbTrace
10
70
20
39.075
30
0
11
65.500004
21
38.077374
31
0
12
65.499996
22
40.072626
32
0
13
65.499996
23
40.072626
33
0
39
0
210
0
220
0
230
1
0
SOLID
5
21A
100
AcDbEntity
8
SK2
62
256
6
ByLayer
370
18
48
1
60
0
100
AcDbTrace
10
35
20
39.075
30
0
11
39.499996
21
40.072626
31
0
12
39.500004
22
38.077374
32
0
13
39.500004
23
38.077374
33
0
39
0
210
0
220
0
230
1
0
ENDBLK
5
21C
100
AcDbEntity
8
0
100
AcDbBlockEnd
0
BLOCK
5
221
100
AcDbEntity
8
0
100
AcDbBlockBegin
2
*D14
70
1
10
0
20
0
30
0
3
*D14
0
LINE
5
223
100
AcDbEntity
8
0
62
256
6
ByLayer
370
-2
48
1
60
0
100
AcDbLine
10
0
20
21.5625
30
0
11
0
21
61.075
31
0
39
0
210
0
220
0
230
1
0
LINE
5
224
100
AcDbEntity
8
0
62
256
6
ByLayer
370
-2
48
1
60
0
100
AcDbLine
10
70
20
14.5875
30
0
11
70
21
61.075
31
0
39
0
210
0
220
0
230
1
0
LINE
5
225
100
AcDbEntity
8
0
62
256
6
ByLayer
370
-2
48
1
60
0
100
AcDbLine
10
4.5
20
59.075
30
0
11
65.5
21
59.075
31
0
39
0
210
0
220
0
230
1
0
SOLID
5
226
100
AcDbEntity
8
0
62
256
6
ByLayer
370
-1
48
1
60
0
100
AcDbTrace
10
4.5
20
59.825
30
0
11
4.5
21
58.325
31
0
12
0
22
59.075
32
0
13
0
23
59.075
33
0
39
0
210
0
220
0
230
1
0
SOLID
5
227
100
AcDbEntity
8
0
62
256
6
ByLayer
370
-1
48
1
60
0
100
AcDbTrace
10
65.5
20
58.325
30
0
11
65.5
21
59.825
31
0
12
70
22
59.075
32
0
13
70
23
59.075
33
0
39
0
210
0
220
0
230
1
0
MTEXT
5
228
100
AcDbEntity
8
0
62
256
6
ByLayer
370
18
48
1
60
0
100
AcDbMText
10
35
20
68.075
30
0
210
0
220
0
230
1
1
\A1;70
40
4.5
41
0
44
1
50
0
71
5
72
5
7
iso_b_vert
0
POINT
5
229
100
AcDbEntity
8
Defpoints
62
0
6
ByLayer
370
-1
48
1
60
0
100
AcDbPoint
10
0
20
19.975
30
0
39
0
210
0
220
0
230
1
50
360
0
POINT
5
22A
100
AcDbEntity
8
Defpoints
62
0
6
ByLayer
370
-1
48
1
60
0
100
AcDbPoint
10
70
20
13
30
0
39
0
210
0
220
0
230
1
50
360
0
POINT
5
22B
100
AcDbEntity
8
Defpoints
62
0
6
ByLayer
370
-1
48
1
60
0
100
AcDbPoint
10
70
20
59.075
30
0
39
0
210
0
220
0
230
1
50
360
0
ENDBLK
5
222
100
AcDbEntity
8
0
100
AcDbBlockEnd
0
BLOCK
5
234
100
AcDbEntity
8
0
100
AcDbBlockBegin
2
_U6
70
0
10
0
20
0
30
0
3
_U6
0
MTEXT
5
22E
100
AcDbEntity
8
2
62
256
6
ByLayer
370
18
48
1
60
0
100
AcDbMText
10
32.550758
20
60.402672
30
0
210
0
220
0
230
1
1
\W0.6740;70
40
4.5
41
0
44
1.084337
50
0
71
7
72
5
7
iso_b_vert
0
LINE
5
22F
100
AcDbEntity
8
2
62
256
6
ByLayer
370
13
48
1
60
0
100
AcDbLine
10
0
20
21.5625
30
0
11
0
21
61.075
31
0
39
0
210
0
220
0
230
1
0
LINE
5
230
100
AcDbEntity
8
2
62
256
6
ByLayer
370
13
48
1
60
0
100
AcDbLine
10
70
20
14.5875
30
0
11
70
21
61.075
31
0
39
0
210
0
220
0
230
1
0
LINE
5
231
100
AcDbEntity
8
2
62
256
6
ByLayer
370
13
48
1
60
0
100
AcDbLine
10
0
20
59.075
30
0
11
70
21
59.075
31
0
39
0
210
0
220
0
230
1
0
SOLID
5
232
100
AcDbEntity
8
2
62
256
6
ByLayer
370
18
48
1
60
0
100
AcDbTrace
10
0
20
59.075
30
0
11
4.499996
21
60.072626
31
0
12
4.500004
22
58.077374
32
0
13
4.500004
23
58.077374
33
0
39
0
210
0
220
0
230
1
0
SOLID
5
233
100
AcDbEntity
8
2
62
256
6
ByLayer
370
18
48
1
60
0
100
AcDbTrace
10
70
20
59.075
30
0
11
65.500004
21
58.077374
31
0
12
65.499996
22
60.072626
32
0
13
65.499996
23
60.072626
33
0
39
0
210
0
220
0
230
1
0
ENDBLK
5
235
100
AcDbEntity
8
0
100
AcDbBlockEnd
0
BLOCK
5
23A
100
AcDbEntity
8
0
100
AcDbBlockBegin
2
*D16
70
1
10
0
20
0
30
0
3
*D16
0
LINE
5
23C
100
AcDbEntity
8
0
62
256
6
ByLayer
370
-2
48
1
60
0
100
AcDbLine
10
0
20
23.6425
30
0
11
0
21
61.075
31
0
39
0
210
0
220
0
230
1
0
LINE
5
23D
100
AcDbEntity
8
0
62
256
6
ByLayer
370
-2
48
1
60
0
100
AcDbLine
10
-19.9
20
16.3875
30
0
11
-19.9
21
61.075
31
0
39
0
210
0
220
0
230
1
0
LINE
5
23E
100
AcDbEntity
8
0
62
256
6
ByLayer
370
-2
48
1
60
0
100
AcDbLine
10
4.5
20
59.075
30
0
11
9
21
59.075
31
0
39
0
210
0
220
0
230
1
0
LINE
5
23F
100
AcDbEntity
8
0
62
256
6
ByLayer
370
-2
48
1
60
0
100
AcDbLine
10
-24.4
20
59.075
30
0
11
-28.9
21
59.075
31
0
39
0
210
0
220
0
230
1
0
SOLID
5
240
100
AcDbEntity
8
0
62
256
6
ByLayer
370
-1
48
1
60
0
100
AcDbTrace
10
4.5
20
59.825
30
0
11
4.5
21
58.325
31
0
12
0
22
59.075
32
0
13
0
23
59.075
33
0
39
0
210
0
220
0
230
1
0
SOLID
5
241
100
AcDbEntity
8
0
62
256
6
ByLayer
370
-1
48
1
60
0
100
AcDbTrace
10
-24.4
20
58.325
30
0
11
-24.4
21
59.825
31
0
12
-19.9
22
59.075
32
0
13
-19.9
23
59.075
33
0
39
0
210
0
220
0
230
1
0
MTEXT
5
242
100
AcDbEntity
8
0
62
256
6
ByLayer
370
18
48
1
60
0
100
AcDbMText
10
-9.95
20
68.075
30
0
210
0
220
0
230
1
1
\A1;19.9
40
4.5
41
0
44
1
50
0
71
5
72
5
7
iso_b_vert
0
POINT
5
243
100
AcDbEntity
8
Defpoints
62
0
6
ByLayer
370
-1
48
1
60
0
100
AcDbPoint
10
0
20
22.055
30
0
39
0
210
0
220
0
230
1
50
360
0
POINT
5
244
100
AcDbEntity
8
Defpoints
62
0
6
ByLayer
370
-1
48
1
60
0
100
AcDbPoint
10
-19.9
20
14.8
30
0
39
0
210
0
220
0
230
1
50
360
0
POINT
5
245
100
AcDbEntity
8
Defpoints
62
0
6
ByLayer
370
-1
48
1
60
0
100
AcDbPoint
10
-19.9
20
59.075
30
0
39
0
210
0
220
0
230
1
50
360
0
ENDBLK
5
23B
100
AcDbEntity
8
0
100
AcDbBlockEnd
0
BLOCK
5
24D
100
AcDbEntity
8
0
100
AcDbBlockBegin
2
_U7
70
0
10
0
20
0
30
0
3
_U7
0
MTEXT
5
247
100
AcDbEntity
8
SK2
62
256
6
ByLayer
370
18
48
1
60
0
100
AcDbMText
10
-14.311313
20
60.402672
30
0
210
0
220
0
230
1
1
\W0.6463;19,9
40
4.5
41
0
44
1.084337
50
0
71
7
72
5
7
iso_b_vert
0
LINE
5
248
100
AcDbEntity
8
SK2
62
256
6
ByLayer
370
13
48
1
60
0
100
AcDbLine
10
0
20
23.6425
30
0
11
0
21
61.075
31
0
39
0
210
0
220
0
230
1
0
LINE
5
249
100
AcDbEntity
8
SK2
62
256
6
ByLayer
370
13
48
1
60
0
100
AcDbLine
10
-19.9
20
16.3875
30
0
11
-19.9
21
61.075
31
0
39
0
210
0
220
0
230
1
0
LINE
5
24A
100
AcDbEntity
8
SK2
62
256
6
ByLayer
370
13
48
1
60
0
100
AcDbLine
10
11.25
20
59.075
30
0
11
-31.15
21
59.075
31
0
39
0
210
0
220
0
230
1
0
SOLID
5
24B
100
AcDbEntity
8
SK2
62
256
6
ByLayer
370
18
48
1
60
0
100
AcDbTrace
10
0
20
59.075
30
0
11
4.499996
21
60.072626
31
0
12
4.500004
22
58.077374
32
0
13
4.500004
23
58.077374
33
0
39
0
210
0
220
0
230
1
0
SOLID
5
24C
100
AcDbEntity
8
SK2
62
256
6
ByLayer
370
18
48
1
60
0
100
AcDbTrace
10
-19.9
20
59.075
30
0
11
-24.399996
21
58.077374
31
0
12
-24.400004
22
60.072626
32
0
13
-24.400004
23
60.072626
33
0
39
0
210
0
220
0
230
1
0
ENDBLK
5
24E
100
AcDbEntity
8
0
100
AcDbBlockEnd
0
BLOCK
5
253
100
AcDbEntity
8
0
100
AcDbBlockBegin
2
*D18
70
1
10
0
20
0
30
0
3
*D18
0
LINE
5
255
100
AcDbEntity
8
0
62
256
6
ByLayer
370
-2
48
1
60
0
100
AcDbLine
10
0
20
23.6425
30
0
11
0
21
41.075
31
0
39
0
210
0
220
0
230
1
0
LINE
5
256
100
AcDbEntity
8
0
62
256
6
ByLayer
370
-2
48
1
60
0
100
AcDbLine
10
20
20
21.5625
30
0
11
20
21
41.075
31
0
39
0
210
0
220
0
230
1
0
LINE
5
257
100
AcDbEntity
8
0
62
256
6
ByLayer
370
-2
48
1
60
0
100
AcDbLine
10
-4.5
20
39.075
30
0
11
-9
21
39.075
31
0
39
0
210
0
220
0
230
1
0
LINE
5
258
100
AcDbEntity
8
0
62
256
6
ByLayer
370
-2
48
1
60
0
100
AcDbLine
10
24.5
20
39.075
30
0
11
29
21
39.075
31
0
39
0
210
0
220
0
230
1
0
SOLID
5
259
100
AcDbEntity
8
0
62
256
6
ByLayer
370
-1
48
1
60
0
100
AcDbTrace
10
-4.5
20
38.325
30
0
11
-4.5
21
39.825
31
0
12
0
22
39.075
32
0
13
0
23
39.075
33
0
39
0
210
0
220
0
230
1
0
SOLID
5
25A
100
AcDbEntity
8
0
62
256
6
ByLayer
370
-1
48
1
60
0
100
AcDbTrace
10
24.5
20
39.825
30
0
11
24.5
21
38.325
31
0
12
20
22
39.075
32
0
13
20
23
39.075
33
0
39
0
210
0
220
0
230
1
0
MTEXT
5
25B
100
AcDbEntity
8
0
62
256
6
ByLayer
370
18
48
1
60
0
100
AcDbMText
10
10
20
48.075
30
0
210
0
220
0
230
1
1
\A1;20
40
4.5
41
0
44
1
50
0
71
5
72
5
7
iso_b_vert
0
POINT
5
25C
100
AcDbEntity
8
Defpoints
62
0
6
ByLayer
370
-1
48
1
60
0
100
AcDbPoint
10
0
20
22.055
30
0
39
0
210
0
220
0
230
1
50
360
0
POINT
5
25D
100
AcDbEntity
8
Defpoints
62
0
6
ByLayer
370
-1
48
1
60
0
100
AcDbPoint
10
20
20
19.975
30
0
39
0
210
0
220
0
230
1
50
360
0
POINT
5
25E
100
AcDbEntity
8
Defpoints
62
0
6
ByLayer
370
-1
48
1
60
0
100
AcDbPoint
10
20
20
39.075
30
0
39
0
210
0
220
0
230
1
50
360
0
ENDBLK
5
254
100
AcDbEntity
8
0
100
AcDbBlockEnd
0
BLOCK
5
266
100
AcDbEntity
8
0
100
AcDbBlockBegin
2
_U8
70
0
10
0
20
0
30
0
3
_U8
0
MTEXT
5
260
100
AcDbEntity
8
SK2
62
256
6
ByLayer
370
18
48
1
60
0
100
AcDbMText
10
7.550758
20
40.402672
30
0
210
0
220
0
230
1
1
\W0.6740;20
40
4.5
41
0
44
1.084337
50
0
71
7
72
5
7
iso_b_vert
0
LINE
5
261
100
AcDbEntity
8
SK2
62
256
6
ByLayer
370
13
48
1
60
0
100
AcDbLine
10
0
20
23.6425
30
0
11
0
21
41.075
31
0
39
0
210
0
220
0
230
1
0
LINE
5
262
100
AcDbEntity
8
SK2
62
256
6
ByLayer
370
13
48
1
60
0
100
AcDbLine
10
20
20
21.5625
30
0
11
20
21
41.075
31
0
39
0
210
0
220
0
230
1
0
LINE
5
263
100
AcDbEntity
8
SK2
62
256
6
ByLayer
370
13
48
1
60
0
100
AcDbLine
10
0
20
39.075
30
0
11
20
21
39.075
31
0
39
0
210
0
220
0
230
1
0
SOLID
5
264
100
AcDbEntity
8
SK2
62
256
6
ByLayer
370
18
48
1
60
0
100
AcDbTrace
10
0
20
39.075
30
0
11
4.499996
21
40.072626
31
0
12
4.500004
22
38.077374
32
0
13
4.500004
23
38.077374
33
0
39
0
210
0
220
0
230
1
0
SOLID
5
265
100
AcDbEntity
8
SK2
62
256
6
ByLayer
370
18
48
1
60
0
100
AcDbTrace
10
20
20
39.075
30
0
11
15.500004
21
38.077374
31
0
12
15.499996
22
40.072626
32
0
13
15.499996
23
40.072626
33
0
39
0
210
0
220
0
230
1
0
ENDBLK
5
267
100
AcDbEntity
8
0
100
AcDbBlockEnd
0
ENDSEC
0
SECTION
2
ENTITIES
0
ARC
5
10E
100
AcDbEntity
8
SK1
62
256
6
ByLayer
370
18
48
1
60
0
100
AcDbCircle
39
0
10
-14.7
20
-13.755
30
0
40
0.9
210
0
220
0
230
1
100
AcDbArc
50
34.403688
51
90
0
ARC
5
10F
100
AcDbEntity
8
1
62
256
6
ByLayer
370
18
48
1
60
0
100
AcDbCircle
39
0
10
56.950227
20
-7
30
0
40
20
210
0
220
0
230
1
100
AcDbArc
50
80
51
90
0
ARC
5
110
100
AcDbEntity
8
1
62
256
6
ByLayer
370
18
48
1
60
0
100
AcDbCircle
39
0
10
36.750519
20
-15.5
30
0
40
2.5
210
0
220
0
230
1
100
AcDbArc
50
90
51
160
0
ARC
5
111
100
AcDbEntity
8
1
62
256
6
ByLayer
370
18
48
1
60
0
100
AcDbCircle
39
0
10
56.950227
20
7
30
0
40
20
210
0
220
0
230
1
100
AcDbArc
50
270
51
280
0
ARC
5
112
100
AcDbEntity
8
1
62
256
6
ByLayer
370
18
48
1
60
0
100
AcDbCircle
39
0
10
36.750519
20
15.5
30
0
40
2.5
210
0
220
0
230
1
100
AcDbArc
50
200
51
270
0
ARC
5
113
100
AcDbEntity
8
SK1
62
256
6
ByLayer
370
18
48
1
60
0
100
AcDbCircle
39
0
10
-0.25
20
15.2537
30
0
40
0.4
210
0
220
0
230
1
100
AcDbArc
50
270
51
308.682187
0
ARC
5
114
100
AcDbEntity
8
SK1
62
256
6
ByLayer
370
18
48
1
60
0
100
AcDbCircle
39
0
10
-0.25
20
-15.2537
30
0
40
0.4
210
0
220
0
230
1
100
AcDbArc
50
51.317813
51
90
0
ARC
5
115
100
AcDbEntity
8
1
62
256
6
ByLayer
370
18
48
1
60
0
100
AcDbCircle
39
0
10
33.207882
20
-15
30
0
40
1
210
0
220
0
230
1
100
AcDbArc
50
270
51
340
0
ARC
5
116
100
AcDbEntity
8
1
62
256
6
ByLayer
370
18
48
1
60
0
100
AcDbCircle
39
0
10
33.207882
20
15
30
0
40
1
210
0
220
0
230
1
100
AcDbArc
50
20
51
23.110472
0
ARC
5
117
100
AcDbEntity
8
1
62
256
6
ByLayer
370
18
48
1
60
0
100
AcDbCircle
39
0
10
68.8
20
-10.000586
30
0
40
1.2
210
0
220
0
230
1
100
AcDbArc
50
280
51
0
0
ARC
5
118
100
AcDbEntity
8
1
62
256
6
ByLayer
370
18
48
1
60
0
100
AcDbCircle
39
0
10
68.8
20
10.000586
30
0
40
1.2
210
0
220
0
230
1
100
AcDbArc
50
0
51
80
0
ARC
5
119
100
AcDbEntity
8
SK1
62
256
6
ByLayer
370
18
48
1
60
0
100
AcDbCircle
39
0
10
-17.2
20
13.755
30
0
40
0.9
210
0
220
0
230
1
100
AcDbArc
50
270
51
313.127043
0
ELLIPSE
5
11A
100
AcDbEntity
8
SK1
62
256
6
ByLayer
370
13
48
1
60
0
100
AcDbEllipse
10
-17.2
20
13.451998
30
0
11
0.9
21
0
31
0
210
0
220
0
230
1
40
0.891007
41
-1.5674908755608
42
-1.47396619612205
0
ELLIPSE
5
11B
100
AcDbEntity
8
SK1
62
256
6
ByLayer
370
13
48
1
60
0
100
AcDbEllipse
10
-14.7
20
-13.451998
30
0
11
-0.9
21
1.10214571844014E-16
31
0
210
0
220
0
230
1
40
0.891007
41
-2.15661009637807
42
-1.5707963267949
0
ELLIPSE
5
11C
100
AcDbEntity
8
SK1
62
256
6
ByLayer
370
18
48
1
60
0
100
AcDbEllipse
10
-32.609743
20
0.605766
30
0
11
13.1962146084857
21
13.192384174511
31
0
210
0
220
0
230
1
40
0.23981
41
-0.357038163970671
42
-0.255875468828392
0
ELLIPSE
5
11D
100
AcDbEntity
8
1
62
256
6
ByLayer
370
18
48
1
60
0
100
AcDbEllipse
10
37.03
20
0
30
0
11
15.7759365931282
21
-15.7759365931282
31
0
210
0
220
0
230
1
40
0.169137
41
2.8771318644199
42
2.97405118201231
0
ELLIPSE
5
11E
100
AcDbEntity
8
1
62
256
6
ByLayer
370
18
48
1
60
0
100
AcDbEllipse
10
16
20
3.298649
30
0
11
-1
21
1.22460635382238E-16
31
0
210
0
220
0
230
1
40
0.965926
41
-2.46821166527201
42
-0.671809452001771
0
ELLIPSE
5
11F
100
AcDbEntity
8
1
62
256
6
ByLayer
370
18
48
1
60
0
100
AcDbEllipse
10
16
20
-3.298649
30
0
11
1
21
0
31
0
210
0
220
0
230
1
40
0.965926
41
-2.46830969276215
42
-0.677896031060158
0
ELLIPSE
5
120
100
AcDbEntity
8
1
62
256
6
ByLayer
370
13
48
1
60
0
100
AcDbEllipse
10
20.95
20
-16.9
30
0
11
-1
21
1.22460635382238E-16
31
0
210
0
220
0
230
1
40
0.994118
41
-1.5707963267949
42
0
0
ELLIPSE
5
121
100
AcDbEntity
8
1
62
256
6
ByLayer
370
13
48
1
60
0
100
AcDbEllipse
10
20.95
20
16.9
30
0
11
-1
21
1.22460635382238E-16
31
0
210
0
220
0
230
1
40
0.994118
41
0
42
1.57079632679489
0
ELLIPSE
5
122
100
AcDbEntity
8
1
62
256
6
ByLayer
370
18
48
1
60
0
100
AcDbEllipse
10
7
20
5.801137
30
0
11
-2.3
21
2.81659461379147E-16
31
0
210
0
220
0
230
1
40
0.902585
41
-2.40793282115291
42
-0.738569058395133
0
ELLIPSE
5
123
100
AcDbEntity
8
1
62
256
6
ByLayer
370
18
48
1
60
0
100
AcDbEllipse
10
7
20
-5.801137
30
0
11
2.3
21
0
31
0
210
0
220
0
230
1
40
0.902585
41
-2.40312180828756
42
-0.745440756995688
0
ELLIPSE
5
124
100
AcDbEntity
8
SK1
62
256
6
ByLayer
370
18
48
1
60
0
100
AcDbEllipse
10
-32.609743
20
-0.605766
30
0
11
13.1962146239686
21
-13.1923841878003
31
0
210
0
220
0
230
1
40
0.23981
41
0.25587546867283
42
0.357038163757356
0
POINT
5
70
100
AcDbEntity
8
80
62
256
6
ByLayer
370
18
48
1
60
0
100
AcDbPoint
10
0
20
0
30
0
39
0
210
0
220
0
230
1
50
360
0
POINT
5
72
100
AcDbEntity
8
81
62
256
6
ByLayer
370
18
48
1
60
0
100
AcDbPoint
10
70
20
0
30
0
39
0
210
0
220
0
230
1
50
360
0
POINT
5
74
100
AcDbEntity
8
1
62
256
6
ByLayer
370
18
48
1
60
1
100
AcDbPoint
10
70
20
-13
30
0
39
0
210
0
220
0
230
1
50
360
0
POINT
5
76
100
AcDbEntity
8
1
62
256
6
ByLayer
370
18
48
1
60
1
100
AcDbPoint
10
70
20
13
30
0
39
0
210
0
220
0
230
1
50
360
0
POINT
5
77
100
AcDbEntity
8
1
62
256
6
ByLayer
370
18
48
1
60
1
100
AcDbPoint
10
70
20
3
30
0
39
0
210
0
220
0
230
1
50
360
0
POINT
5
78
100
AcDbEntity
8
1
62
256
6
ByLayer
370
18
48
1
60
1
100
AcDbPoint
10
70
20
-3
30
0
39
0
210
0
220
0
230
1
50
360
0
POINT
5
79
100
AcDbEntity
8
1
62
256
6
ByLayer
370
18
48
1
60
1
100
AcDbPoint
10
35
20
16
30
0
39
0
210
0
220
0
230
1
50
360
0
POINT
5
7A
100
AcDbEntity
8
1
62
256
6
ByLayer
370
18
48
1
60
1
100
AcDbPoint
10
35
20
-16
30
0
39
0
210
0
220
0
230
1
50
360
0
POINT
5
7B
100
AcDbEntity
8
1
62
256
6
ByLayer
370
18
48
1
60
1
100
AcDbPoint
10
33
20
-3
30
0
39
0
210
0
220
0
230
1
50
360
0
POINT
5
7C
100
AcDbEntity
8
1
62
256
6
ByLayer
370
18
48
1
60
1
100
AcDbPoint
10
58.7
20
-13
30
0
39
0
210
0
220
0
230
1
50
360
0
POINT
5
7D
100
AcDbEntity
8
1
62
256
6
ByLayer
370
18
48
1
60
1
100
AcDbPoint
10
70
20
-13
30
0
39
0
210
0
220
0
230
1
50
360
0
POINT
5
7E
100
AcDbEntity
8
1
62
256
6
ByLayer
370
18
48
1
60
1
100
AcDbPoint
10
70
20
13
30
0
39
0
210
0
220
0
230
1
50
360
0
POINT
5
7F
100
AcDbEntity
8
1
62
256
6
ByLayer
370
18
48
1
60
1
100
AcDbPoint
10
35
20
13
30
0
39
0
210
0
220
0
230
1
50
360
0
POINT
5
80
100
AcDbEntity
8
1
62
256
6
ByLayer
370
18
48
1
60
1
100
AcDbPoint
10
0
20
19.975
30
0
39
0
210
0
220
0
230
1
50
360
0
POINT
5
81
100
AcDbEntity
8
1
62
256
6
ByLayer
370
18
48
1
60
1
100
AcDbPoint
10
70
20
13
30
0
39
0
210
0
220
0
230
1
50
360
0
POINT
5
82
100
AcDbEntity
8
1
62
256
6
ByLayer
370
18
48
1
60
1
100
AcDbPoint
10
0
20
22.055
30
0
39
0
210
0
220
0
230
1
50
360
0
POINT
5
83
100
AcDbEntity
8
1
62
256
6
ByLayer
370
18
48
1
60
1
100
AcDbPoint
10
-19.9
20
14.8
30
0
39
0
210
0
220
0
230
1
50
360
0
POINT
5
84
100
AcDbEntity
8
1
62
256
6
ByLayer
370
18
48
1
60
1
100
AcDbPoint
10
0
20
22.055
30
0
39
0
210
0
220
0
230
1
50
360
0
POINT
5
85
100
AcDbEntity
8
1
62
256
6
ByLayer
370
18
48
1
60
1
100
AcDbPoint
10
20
20
19.975
30
0
39
0
210
0
220
0
230
1
50
360
0
POINT
5
86
100
AcDbEntity
8
1
62
256
6
ByLayer
370
18
48
1
60
1
100
AcDbPoint
10
-9.95
20
14.8
30
0
39
0
210
0
220
0
230
1
50
360
0
SPLINE
5
125
100
AcDbEntity
8
SK1
62
256
6
ByLayer
370
18
48
1
60
0
100
AcDbSpline
70
4
71
3
72
38
73
34
40
0
40
0
40
0
40
0
40
0.125000000000001
40
0.125000000000001
40
0.250000000000002
40
0.250000000000002
40
0.375000000000004
40
0.375000000000004
40
0.437500000000004
40
0.437500000000004
40
0.468750000000004
40
0.468750000000004
40
0.500000000000004
40
0.500000000000004
40
0.515625000000005
40
0.515625000000005
40
0.531250000000005
40
0.531250000000005
40
0.546875000000006
40
0.546875000000006
40
0.562500000000007
40
0.562500000000007
40
0.593750000000006
40
0.593750000000006
40
0.625000000000006
40
0.625000000000006
40
0.687500000000005
40
0.687500000000005
40
0.750000000000004
40
0.750000000000004
40
0.875000000000002
40
0.875000000000002
40
1
40
1
40
1
40
1
41
1
10
-19.9
20
-11.3718394802015
30
0
41
1
10
-19.9
20
-11.2957740730903
30
0
41
1
10
-19.8996074986555
20
-11.2200588725624
30
0
41
1
10
-19.8962834768542
20
-11.0708938935766
30
0
41
1
10
-19.8934244104005
20
-10.9973731439594
30
0
41
1
10
-19.8814318176005
20
-10.8562103946813
30
0
41
1
10
-19.8727396462044
20
-10.7879565853405
30
0
41
1
10
-19.8463476890565
20
-10.6986113970268
30
0
41
1
10
-19.8354023936391
20
-10.6710528199992
30
0
41
1
10
-19.8111699766677
20
-10.6378029234986
30
0
41
1
10
-19.801704095714
20
-10.6280251084672
30
0
41
1
10
-19.7779820707441
20
-10.6141191502065
30
0
41
1
10
-19.7637659573782
20
-10.6096975495497
30
0
41
1
10
-19.7349847437055
20
-10.6133872301534
30
0
41
1
10
-19.7239650238386
20
-10.6164831404636
30
0
41
1
10
-19.6989961965967
20
-10.6283656578635
30
0
41
1
10
-19.6847345229009
20
-10.6374362171618
30
0
41
1
10
-19.6551025973943
20
-10.6613732778521
30
0
41
1
10
-19.6398448140486
20
-10.6761219105836
30
0
41
1
10
-19.6112414405414
20
-10.7072636845286
30
0
41
1
10
-19.5979732204738
20
-10.7234205556283
30
0
41
1
10
-19.5602057839637
20
-10.7727166756189
30
0
41
1
10
-19.5389315939069
20
-10.8049026603638
30
0
41
1
10
-19.4995729820996
20
-10.8687206055696
30
0
41
1
10
-19.482136780476
20
-10.8995282876854
30
0
41
1
10
-19.4335695583149
20
-10.9899988373898
30
0
41
1
10
-19.4061142515116
20
-11.0478150597253
30
0
41
1
10
-19.3561440594492
20
-11.1609411080443
30
0
41
1
10
-19.3339544789878
20
-11.2157984173541
30
0
41
1
10
-19.2733194180453
20
-11.3757847700148
30
0
41
1
10
-19.2404269311104
20
-11.4770906997793
30
0
41
1
10
-19.1837251241659
20
-11.6732478313002
30
0
41
1
10
-19.1600818296416
20
-11.7679810511502
30
0
41
1
10
-19.1400299536121
20
-11.8601621182392
30
0
0
SPLINE
5
126
100
AcDbEntity
8
SK1
62
256
6
ByLayer
370
18
48
1
60
0
100
AcDbSpline
70
4
71
3
72
38
73
34
40
0
40
0
40
0
40
0
40
0.124999999999993
40
0.124999999999993
40
0.249999999999985
40
0.249999999999985
40
0.312499999999982
40
0.312499999999982
40
0.374999999999978
40
0.374999999999978
40
0.406249999999976
40
0.406249999999976
40
0.437499999999975
40
0.437499999999975
40
0.453124999999975
40
0.453124999999975
40
0.468749999999975
40
0.468749999999975
40
0.484374999999975
40
0.484374999999975
40
0.499999999999975
40
0.499999999999975
40
0.531249999999976
40
0.531249999999976
40
0.562499999999977
40
0.562499999999977
40
0.624999999999981
40
0.624999999999981
40
0.749999999999987
40
0.749999999999987
40
0.874999999999994
40
0.874999999999994
40
1
40
1
40
1
40
1
41
1
10
-19.1400299536121
20
11.8601621182392
30
0
41
1
10
-19.1602273133703
20
11.7673122436363
30
0
41
1
10
-19.1840825038271
20
11.6717953059965
30
0
41
1
10
-19.241469379579
20
11.4737059314778
30
0
41
1
10
-19.274891824514
20
11.3710720540185
30
0
41
1
10
-19.3365948269899
20
11.2091379712127
30
0
41
1
10
-19.3590223215404
20
11.154048720484
30
0
41
1
10
-19.4095395800605
20
11.040487084718
30
0
41
1
10
-19.4376711111306
20
10.9816811195179
30
0
41
1
10
-19.4873972153694
20
10.8901485416112
30
0
41
1
10
-19.5051782791228
20
10.8591734963385
30
0
41
1
10
-19.5450777662585
20
10.7955535470284
30
0
41
1
10
-19.5673766272127
20
10.7624875089825
30
0
41
1
10
-19.605987017903
20
10.7136248111026
30
0
41
1
10
-19.6199204153609
20
10.697282270401
30
0
41
1
10
-19.649108959676
20
10.6670362875831
30
0
41
1
10
-19.6642913621142
20
10.6532880995782
30
0
41
1
10
-19.6936057561636
20
10.6315149075328
30
0
41
1
10
-19.7072767520056
20
10.6238369179469
30
0
41
1
10
-19.7310991772146
20
10.6142304731263
30
0
41
1
10
-19.7413772374293
20
10.6121103965352
30
0
41
1
10
-19.7687314474197
20
10.6106250837136
30
0
41
1
10
-19.782115655443
20
10.6157927469731
30
0
41
1
10
-19.8048949008397
20
10.6309291612783
30
0
41
1
10
-19.8138774579271
20
10.6409626979296
30
0
41
1
10
-19.8371360963538
20
10.6748416350842
30
0
41
1
10
-19.8477303586821
20
10.70245797435
30
0
41
1
10
-19.8732945718824
20
10.7916760887446
30
0
41
1
10
-19.8818399586353
20
10.8597904349054
30
0
41
1
10
-19.8935559524091
20
11.0002029833002
30
0
41
1
10
-19.8963544047406
20
11.0731687110159
30
0
41
1
10
-19.8996124327756
20
11.221209637718
30
0
41
1
10
-19.9
20
11.2963497823351
30
0
41
1
10
-19.9
20
11.3718394802015
30
0
0
SPLINE
5
127
100
AcDbEntity
8
1
62
256
6
ByLayer
370
18
48
1
60
0
100
AcDbSpline
70
4
71
3
72
8
73
4
40
0
40
0
40
0
40
0
40
1
40
1
40
1
40
1
41
1
10
14.95
20
17.7278606313583
30
0
41
1
10
14.6270938384392
20
18.3050004995061
30
0
41
1
10
14.3034603180059
20
18.8817363896067
30
0
41
1
10
13.9792740578363
20
19.4581580513162
30
0
0
SPLINE
5
128
100
AcDbEntity
8
1
62
256
6
ByLayer
370
18
48
1
60
0
100
AcDbSpline
70
4
71
3
72
14
73
10
40
0
40
0
40
0
40
0
40
0.499999999999995
40
0.499999999999995
40
0.749999999999995
40
0.749999999999995
40
0.874999999999997
40
0.874999999999997
40
1
40
1
40
1
40
1
41
1
10
15.0667250838098
20
16.9
30
0
41
1
10
15.0909328435998
20
16.9
30
0
41
1
10
15.1193011339194
20
16.9
30
0
41
1
10
15.1784181689468
20
16.9
30
0
41
1
10
15.200973102185
20
16.9
30
0
41
1
10
15.2454214526203
20
16.9
30
0
41
1
10
15.2621143201841
20
16.9
30
0
41
1
10
15.3013300267819
20
16.9
30
0
41
1
10
15.3250673627553
20
16.9
30
0
41
1
10
15.35
20
16.9
30
0
0
SPLINE
5
129
100
AcDbEntity
8
1
62
256
6
ByLayer
370
18
48
1
60
0
100
AcDbSpline
70
4
71
3
72
12
73
8
40
0
40
0
40
0
40
0
40
0.249999999999993
40
0.249999999999993
40
0.499999999999985
40
0.499999999999985
40
1
40
1
40
1
40
1
41
1
10
16.9332749161902
20
16.9
30
0
41
1
10
16.9520753218619
20
16.9195192407396
30
0
41
1
10
16.9686290823944
20
16.9405621355462
30
0
41
1
10
16.9975154717001
20
16.9855106578894
30
0
41
1
10
17.0099404519955
20
17.0096787625891
30
0
41
1
10
17.0397826775121
20
17.0846778964121
30
0
41
1
10
17.05
20
17.1379699185962
30
0
41
1
10
17.05
20
17.1921468918224
30
0
0
SPLINE
5
12A
100
AcDbEntity
8
1
62
256
6
ByLayer
370
18
48
1
60
0
100
AcDbSpline
70
4
71
3
72
8
73
4
40
0
40
0
40
0
40
0
40
1
40
1
40
1
40
1
41
1
10
18.0207259421637
20
16.0803645792003
30
0
41
1
10
17.6901744533641
20
15.3691663904583
30
0
41
1
10
17.3658833571663
20
14.6549950651674
30
0
41
1
10
17.05
20
13.936830802405
30
0
0
SPLINE
5
12B
100
AcDbEntity
8
1
62
256
6
ByLayer
370
18
48
1
60
0
100
AcDbSpline
70
4
71
3
72
8
73
4
40
0
40
0
40
0
40
0
40
1
40
1
40
1
40
1
41
1
10
19.95
20
15.4548738267253
30
0
41
1
10
19.7840728989319
20
15.6639619324925
30
0
41
1
10
19.6173837045877
20
15.8724408419821
30
0
41
1
10
19.45
20
16.0803645792003
30
0
0
SPLINE
5
12C
100
AcDbEntity
8
1
62
256
6
ByLayer
370
18
48
1
60
0
100
AcDbSpline
70
4
71
3
72
18
73
14
40
0
40
0
40
0
40
0
40
0.125
40
0.125
40
0.25
40
0.25
40
0.375
40
0.375
40
0.5
40
0.5
40
0.75
40
0.75
40
1
40
1
40
1
40
1
41
1
10
15.35
20
12.7070108601512
30
0
41
1
10
15.3186235167956
20
12.7070108601512
30
0
41
1
10
15.2881738153941
20
12.711987190772
30
0
41
1
10
15.2289595496065
20
12.7309881510884
30
0
41
1
10
15.200817064428
20
12.7449342593193
30
0
41
1
10
15.1491467011858
20
12.7792441791384
30
0
41
1
10
15.1253039026769
20
12.7998289587925
30
0
41
1
10
15.08299549563
20
12.8447165448426
30
0
41
1
10
15.0641474141896
20
12.8693024305208
30
0
41
1
10
15.0139269791925
20
12.9481921209857
30
0
41
1
10
14.9901753091717
20
13.0049246562059
30
0
41
1
10
14.9579011121026
20
13.1248695398274
30
0
41
1
10
14.95
20
13.1864468299497
30
0
41
1
10
14.95
20
13.2487027666863
30
0
0
SPLINE
5
12D
100
AcDbEntity
8
1
62
256
6
ByLayer
370
18
48
1
60
0
100
AcDbSpline
70
4
71
3
72
10
73
6
40
0
40
0
40
0
40
0
40
0.5
40
0.5
40
1
40
1
40
1
40
1
41
1
10
14.95
20
17.1921468918224
30
0
41
1
10
14.95
20
17.1379514877071
30
0
41
1
10
14.9601729015188
20
17.0848284380249
30
0
41
1
10
14.9999681151001
20
16.9847378450282
30
0
41
1
10
15.0291139479897
20
16.9390492007131
30
0
41
1
10
15.0667250838098
20
16.9
30
0
0
SPLINE
5
12E
100
AcDbEntity
8
1
62
256
6
ByLayer
370
18
48
1
60
0
100
AcDbSpline
70
4
71
3
72
8
73
4
40
0
40
0
40
0
40
0
40
1
40
1
40
1
40
1
41
1
10
18.0207259421637
20
19.4581580513162
30
0
41
1
10
17.6965396819942
20
18.8817363896067
30
0
41
1
10
17.3729061615608
20
18.3050004995061
30
0
41
1
10
17.05
20
17.7278606313583
30
0
0
SPLINE
5
12F
100
AcDbEntity
8
1
62
256
6
ByLayer
370
18
48
1
60
0
100
AcDbSpline
70
4
71
3
72
14
73
10
40
0
40
0
40
0
40
0
40
0.25
40
0.25
40
0.5
40
0.5
40
0.75
40
0.75
40
1
40
1
40
1
40
1
41
1
10
17.05
20
13.2487027666863
30
0
41
1
10
17.05
20
13.1864487534998
30
0
41
1
10
17.042172702351
20
13.1253145751501
30
0
41
1
10
17.0100006835349
20
13.0054093311233
30
0
41
1
10
16.9860374544327
20
12.9482068514434
30
0
41
1
10
16.9194989111934
20
12.8435427317671
30
0
41
1
10
16.876925912192
20
12.7965949828298
30
0
41
1
10
16.7734253250903
20
12.7277927384478
30
0
41
1
10
16.712741010955
20
12.7070108601512
30
0
41
1
10
16.65
20
12.7070108601512
30
0
0
SPLINE
5
130
100
AcDbEntity
8
1
62
256
6
ByLayer
370
18
48
1
60
0
100
AcDbSpline
70
4
71
3
72
14
73
10
40
0
40
0
40
0
40
0
40
0.124999999999998
40
0.124999999999998
40
0.249999999999996
40
0.249999999999996
40
0.499999999999996
40
0.499999999999996
40
1
40
1
40
1
40
1
41
1
10
16.65
20
16.9
30
0
41
1
10
16.6748972349567
20
16.9
30
0
41
1
10
16.6981913109911
20
16.9
30
0
41
1
10
16.7376146953749
20
16.9
30
0
41
1
10
16.754260539436
20
16.9
30
0
41
1
10
16.7985019586941
20
16.9
30
0
41
1
10
16.8211557513843
20
16.9
30
0
41
1
10
16.8804528286674
20
16.9
30
0
41
1
10
16.9090417646158
20
16.9
30
0
41
1
10
16.9332749161929
20
16.9
30
0
0
SPLINE
5
131
100
AcDbEntity
8
1
62
256
6
ByLayer
370
18
48
1
60
0
100
AcDbSpline
70
4
71
3
72
8
73
4
40
0
40
0
40
0
40
0
40
1
40
1
40
1
40
1
41
1
10
19.45
20
19.4581580513162
30
0
41
1
10
19.6167258515526
20
19.2870036760674
30
0
41
1
10
19.7833940998604
20
19.1157931659719
30
0
41
1
10
19.95
20
18.9445220248493
30
0
0
SPLINE
5
132
100
AcDbEntity
8
1
62
256
6
ByLayer
370
18
48
1
60
0
100
AcDbSpline
70
4
71
3
72
8
73
4
40
0
40
0
40
0
40
0
40
1
40
1
40
1
40
1
41
1
10
14.95
20
13.936830802405
30
0
41
1
10
14.6341166428337
20
14.6549950651675
30
0
41
1
10
14.3098255466359
20
15.3691663904583
30
0
41
1
10
13.9792740578363
20
16.0803645792004
30
0
0
SPLINE
5
133
100
AcDbEntity
8
1
62
256
6
ByLayer
370
18
48
1
60
0
100
AcDbSpline
70
4
71
3
72
22
73
18
40
0
40
0
40
0
40
0
40
0.125
40
0.125
40
0.25
40
0.25
40
0.375
40
0.375
40
0.5
40
0.5
40
0.625
40
0.625
40
0.75
40
0.75
40
0.875
40
0.875
40
1
40
1
40
1
40
1
41
1
10
16.65
20
-9.33730899889855
30
0
41
1
10
16.6047904508017
20
-9.36995123352787
30
0
41
1
10
16.5568377442852
20
-9.39866086449155
30
0
41
1
10
16.455671147691
20
-9.44861749173378
30
0
41
1
10
16.4021854794603
20
-9.46994653971547
30
0
41
1
10
16.2908458701967
20
-9.50445352763521
30
0
41
1
10
16.2341111064234
20
-9.51733227484354
30
0
41
1
10
16.1185813045867
20
-9.53466970822825
30
0
41
1
10
16.059300394331
20
-9.53912079395826
30
0
41
1
10
15.9408683394043
20
-9.53912915905073
30
0
41
1
10
15.8823656513388
20
-9.53476549392732
30
0
41
1
10
15.7667510510086
20
-9.51750726155916
30
0
41
1
10
15.7090932228133
20
-9.50442410512278
30
0
41
1
10
15.5982477982348
20
-9.47009133404831
30
0
41
1
10
15.5452096877451
20
-9.44900051252444
30
0
41
1
10
15.4438216048227
20
-9.39903761209305
30
0
41
1
10
15.3952096133838
20
-9.36995127987109
30
0
41
1
10
15.35
20
-9.33730899889855
30
0
0
SPLINE
5
134
100
AcDbEntity
8
SK1
62
256
6
ByLayer
370
18
48
1
60
0
100
AcDbSpline
70
4
71
3
72
14
73
10
40
0
40
0
40
0
40
0
40
0.125
40
0.125
40
0.25
40
0.25
40
0.5
40
0.5
40
1
40
1
40
1
40
1
41
1
10
-14.2024101159421
20
-12.78380008841
30
0
41
1
10
-14.1997297141496
20
-12.8241713404432
30
0
41
1
10
-14.1892110204099
20
-12.8642231955095
30
0
41
1
10
-14.157961403796
20
-12.9416223922474
30
0
41
1
10
-14.1373752215137
20
-12.9793415693136
30
0
41
1
10
-14.0693023608893
20
-13.0902518374311
30
0
41
1
10
-14.0162069681871
20
-13.1612637872456
30
0
41
1
10
-13.873470804569
20
-13.3679767562278
30
0
41
1
10
-13.8
20
-13.4960145720929
30
0
41
1
10
-13.8
20
-13.6133466203323
30
0
0
SPLINE
5
135
100
AcDbEntity
8
SK1
62
256
6
ByLayer
370
18
48
1
60
0
100
AcDbSpline
70
4
71
3
72
22
73
18
40
0
40
0
40
0
40
0
40
0.125
40
0.125
40
0.249999999999999
40
0.249999999999999
40
0.499999999999998
40
0.499999999999998
40
0.749999999999997
40
0.749999999999997
40
0.874999999999996
40
0.874999999999996
40
0.937499999999998
40
0.937499999999998
40
0.968749999999999
40
0.968749999999999
40
1
40
1
40
1
40
1
41
1
10
-16.3
20
13.5460263836998
30
0
41
1
10
-16.3
20
13.5138979616433
30
0
41
1
10
-16.3067553818952
20
13.4806408497997
30
0
41
1
10
-16.3318862442683
20
13.4119591294761
30
0
41
1
10
-16.350404350328
20
13.376420822593
30
0
41
1
10
-16.4195891745085
20
13.2691979351853
30
0
41
1
10
-16.4839434077892
20
13.1961043334117
30
0
41
1
10
-16.6371186902645
20
13.0466807722546
30
0
41
1
10
-16.7263390847954
20
12.9702178298597
30
0
41
1
10
-16.8692383045193
20
12.8539565665565
30
0
41
1
10
-16.9184805990414
20
12.8148840862287
30
0
41
1
10
-16.9932610313827
20
12.7555857735467
30
0
41
1
10
-17.0183736625723
20
12.7357104361316
30
0
41
1
10
-17.0556112188553
20
12.7055657706829
30
0
41
1
10
-17.0679685720804
20
12.6954625822744
30
0
41
1
10
-17.0918820243584
20
12.6750100824784
30
0
41
1
10
-17.1038254873117
20
12.6647047879779
30
0
41
1
10
-17.1129890015395
20
12.653848693532
30
0
0
SPLINE
5
136
100
AcDbEntity
8
SK1
62
256
6
ByLayer
370
18
48
1
60
0
100
AcDbSpline
70
4
71
3
72
18
73
14
40
0
40
0
40
0
40
0
40
0.249999999999976
40
0.249999999999976
40
0.374999999999973
40
0.374999999999973
40
0.499999999999969
40
0.499999999999969
40
0.624999999999965
40
0.624999999999965
40
0.749999999999962
40
0.749999999999962
40
1
40
1
40
1
40
1
41
1
10
-17.1129890015389
20
12.6538486935319
30
0
41
1
10
-17.1172049224481
20
12.6488540556201
30
0
41
1
10
-17.122081276625
20
12.643906255088
30
0
41
1
10
-17.1317691129896
20
12.6371676404881
30
0
41
1
10
-17.1354464288991
20
12.6350070710527
30
0
41
1
10
-17.1442535239649
20
12.6314577053628
30
0
41
1
10
-17.1495925678705
20
12.63009629495
30
0
41
1
10
-17.1606126683166
20
12.6296422011682
30
0
41
1
10
-17.1659281611361
20
12.630559559275
30
0
41
1
10
-17.1747104398094
20
12.6333619569865
30
0
41
1
10
-17.1783591654321
20
12.6351939390991
30
0
41
1
10
-17.1880448164427
20
12.6410931416002
30
0
41
1
10
-17.192821213099
20
12.645515430016
30
0
41
1
10
-17.1970250994388
20
12.6500966462463
30
0
0
SPLINE
5
137
100
AcDbEntity
8
SK1
62
256
6
ByLayer
370
18
48
1
60
0
100
AcDbSpline
70
4
71
3
72
8
73
4
40
0
40
0
40
0
40
0
40
1
40
1
40
1
40
1
41
1
10
-17.1970250993094
20
12.6500966462847
30
0
41
1
10
-17.1979793660523
20
12.6511365655224
30
0
41
1
10
-17.1989738121224
20
12.6521681588906
30
0
41
1
10
-17.1999999999998
20
12.6531930859953
30
0
0
SPLINE
5
138
100
AcDbEntity
8
SK1
62
256
6
ByLayer
370
18
48
1
60
0
100
AcDbSpline
70
4
71
3
72
20
73
16
40
0
40
0
40
0
40
0
40
0.250000000000002
40
0.250000000000002
40
0.500000000000003
40
0.500000000000003
40
0.750000000000004
40
0.750000000000004
40
0.875000000000002
40
0.875000000000002
40
0.937500000000001
40
0.937500000000001
40
0.968750000000001
40
0.968750000000001
40
1
40
1
40
1
40
1
41
1
10
-18.9499999999973
20
12.8297840618036
30
0
41
1
10
-18.7965803114273
20
12.8253508630751
30
0
41
1
10
-18.6434903300565
20
12.820087160952
30
0
41
1
10
-18.338324603433
20
12.8069968961783
30
0
41
1
10
-18.1861498177734
20
12.7992133715932
30
0
41
1
10
-17.8842249872873
20
12.779080628388
30
0
41
1
10
-17.7340004663395
20
12.7670491009583
30
0
41
1
10
-17.5147899891099
20
12.7402705366647
30
0
41
1
10
-17.4425966436919
20
12.7299374704782
30
0
41
1
10
-17.3403801482899
20
12.7090692966715
30
0
41
1
10
-17.3072410610549
20
12.7012405649401
30
0
41
1
10
-17.2609056185144
20
12.6863417902808
30
0
41
1
10
-17.246175628694
20
12.6808644041245
30
0
41
1
10
-17.2199275220345
20
12.6684238655059
30
0
41
1
10
-17.2081668321283
20
12.6613498843674
30
0
41
1
10
-17.1999999999998
20
12.6531930859953
30
0
0
SPLINE
5
139
100
AcDbEntity
8
SK1
62
256
6
ByLayer
370
18
48
1
60
0
100
AcDbSpline
70
4
71
3
72
8
73
4
40
0
40
0
40
0
40
0
40
1
40
1
40
1
40
1
41
1
10
-19.0424698269216
20
12.5677010463964
30
0
41
1
10
-19.0384814845825
20
12.6591312575364
30
0
41
1
10
-19.0052571172978
20
12.7462976285912
30
0
41
1
10
-18.95
20
12.8297840617967
30
0
0
SPLINE
5
13A
100
AcDbEntity
8
SK1
62
256
6
ByLayer
370
18
48
1
60
0
100
AcDbSpline
70
4
71
3
72
18
73
14
40
0
40
0
40
0
40
0
40
0.139968511333502
40
0.139968511333502
40
0.354955748945554
40
0.354955748945554
40
0.569942986557606
40
0.569942986557606
40
0.784930224169658
40
0.784930224169658
40
0.99991746178171
40
0.99991746178171
40
1
40
1
40
1
40
1
41
1
10
-2.90144573912701
20
-15.0585354300709
30
0
41
1
10
-2.90109559256533
20
-15.0586067815659
30
0
41
1
10
-2.90973915106522
20
-15.0567748442708
30
0
41
1
10
-2.95380067335199
20
-15.0474817359646
30
0
41
1
10
-3.00210317743841
20
-15.0373234943847
30
0
41
1
10
-3.13523459457883
20
-15.0101978602108
30
0
41
1
10
-3.22019956152408
20
-14.9932021599949
30
0
41
1
10
-3.42470341258687
20
-14.9541949657305
30
0
41
1
10
-3.54131149083662
20
-14.9327532315844
30
0
41
1
10
-3.80086050033569
20
-14.887974598646
30
0
41
1
10
-3.94510699472323
20
-14.8644581385882
30
0
41
1
10
-4.09720110423584
20
-14.8416801924566
30
0
41
1
10
-4.09725947529506
20
-14.8416714509543
30
0
41
1
10
-4.09731784762741
20
-14.8416627095365
30
0
0
SPLINE
5
13B
100
AcDbEntity
8
SK1
62
256
6
ByLayer
370
18
48
1
60
0
100
AcDbSpline
70
4
71
3
72
38
73
34
40
0
40
0
40
0
40
0
40
0.0881436006024169
40
0.0881436006024169
40
0.1322323275283
40
0.1322323275283
40
0.176321054454184
40
0.176321054454184
40
0.26449850830595
40
0.26449850830595
40
0.352675962157717
40
0.352675962157717
40
0.440853416009484
40
0.440853416009484
40
0.529030869861251
40
0.529030869861251
40
0.573119596787134
40
0.573119596787134
40
0.617208323713017
40
0.617208323713017
40
0.705385777564784
40
0.705385777564784
40
0.749474504490667
40
0.749474504490667
40
0.793563231416551
40
0.793563231416551
40
0.881740685268317
40
0.881740685268317
40
0.925829412194201
40
0.925829412194201
40
0.969918139120084
40
0.969918139120084
40
1
40
1
40
1
40
1
41
1
10
-4.09731784778685
20
-14.8416627095127
30
0
41
1
10
-4.24930184736414
20
-14.8189026863513
30
0
41
1
10
-4.40991667864768
20
-14.7967153437818
30
0
41
1
10
-4.66366140784586
20
-14.7653981460994
30
0
41
1
10
-4.75059378264487
20
-14.7552704337623
30
0
41
1
10
-4.925550227082
20
-14.7361944621055
30
0
41
1
10
-5.01395286882757
20
-14.7271965239591
30
0
41
1
10
-5.28188254293173
20
-14.7019689105326
30
0
41
1
10
-5.46410847843194
20
-14.6875053137507
30
0
41
1
10
-5.83605604966959
20
-14.6640343915702
30
0
41
1
10
-6.02150896346564
20
-14.6553183238244
30
0
41
1
10
-6.38794155104981
20
-14.643876406739
30
0
41
1
10
-6.56971715705103
20
-14.6411155806191
30
0
41
1
10
-6.9288053758909
20
-14.6412085255183
30
0
41
1
10
-7.10092409849816
20
-14.6440466231159
30
0
41
1
10
-7.34812923458156
20
-14.6514927987371
30
0
41
1
10
-7.42868999543336
20
-14.6545072658072
30
0
41
1
10
-7.58600240595587
20
-14.6614363524381
30
0
41
1
10
-7.66313822498572
20
-14.6653740308099
30
0
41
1
10
-7.8855580775863
20
-14.6781078126741
30
0
41
1
10
-8.02079753904638
20
-14.687725744119
30
0
41
1
10
-8.2039024967188
20
-14.7024453624627
30
0
41
1
10
-8.26162187839452
20
-14.7074020518916
30
0
41
1
10
-8.3700825121222
20
-14.7171833451286
30
0
41
1
10
-8.42094039934804
20
-14.722021917066
30
0
41
1
10
-8.55885980348634
20
-14.735633588478
30
0
41
1
10
-8.63279944005978
20
-14.7436171175029
30
0
41
1
10
-8.71584764808389
20
-14.752841935149
30
0
41
1
10
-8.73893595838589
20
-14.7554694248193
30
0
41
1
10
-8.77475178320415
20
-14.7595847235087
30
0
41
1
10
-8.78736234762738
20
-14.7610580400892
30
0
41
1
10
-8.79989859017277
20
-14.7625249227435
30
0
41
1
10
-8.80259673090231
20
-14.7628385807361
30
0
41
1
10
-8.80287784914003
20
-14.7628698083352
30
0
0
SPLINE
5
13C
100
AcDbEntity
8
1
62
256
6
ByLayer
370
18
48
1
60
0
100
AcDbSpline
70
4
71
3
72
22
73
18
40
0
40
0
40
0
40
0
40
0.125000000000003
40
0.125000000000003
40
0.250000000000005
40
0.250000000000005
40
0.375000000000004
40
0.375000000000004
40
0.500000000000003
40
0.500000000000003
40
0.625000000000003
40
0.625000000000003
40
0.750000000000002
40
0.750000000000002
40
0.875000000000001
40
0.875000000000001
40
1
40
1
40
1
40
1
41
1
10
15.35
20
9.33730899889855
30
0
41
1
10
15.3952095491983
20
9.36995123352787
30
0
41
1
10
15.4431622557148
20
9.39866086449155
30
0
41
1
10
15.544328852309
20
9.44861749173378
30
0
41
1
10
15.5978145205397
20
9.46994653971547
30
0
41
1
10
15.7091541298033
20
9.50445352763521
30
0
41
1
10
15.7658888935766
20
9.51733227484354
30
0
41
1
10
15.8814186954133
20
9.53466970822828
30
0
41
1
10
15.940699605669
20
9.53912079395829
30
0
41
1
10
16.0591316605957
20
9.53912915905076
30
0
41
1
10
16.1176343486612
20
9.53476549392732
30
0
41
1
10
16.2332489489914
20
9.51750726155916
30
0
41
1
10
16.2909067771867
20
9.50442410512278
30
0
41
1
10
16.4017522017652
20
9.47009133404831
30
0
41
1
10
16.4547903122549
20
9.44900051252444
30
0
41
1
10
16.5561783951773
20
9.39903761209305
30
0
41
1
10
16.6047903866163
20
9.36995127987109
30
0
41
1
10
16.65
20
9.33730899889855
30
0
0
SPLINE
5
13D
100
AcDbEntity
8
1
62
256
6
ByLayer
370
18
48
1
60
0
100
AcDbSpline
70
4
71
3
72
22
73
18
40
0
40
0
40
0
40
0
40
0.125
40
0.125
40
0.25
40
0.25
40
0.375000000000001
40
0.375000000000001
40
0.5
40
0.5
40
0.625
40
0.625
40
0.75
40
0.75
40
0.875
40
0.875
40
1
40
1
40
1
40
1
41
1
10
16.65
20
8.02106434078974
30
0
41
1
10
16.6047904508017
20
7.98672919367351
30
0
41
1
10
16.5568377442852
20
7.95639997610974
30
0
41
1
10
16.455671147691
20
7.90349202562317
30
0
41
1
10
16.4021854794603
20
7.88082520879712
30
0
41
1
10
16.2908458701967
20
7.84409449314464
30
0
41
1
10
16.2341111064234
20
7.83035046871632
30
0
41
1
10
16.1185813045867
20
7.81183858845355
30
0
41
1
10
16.059300394331
20
7.80707864565557
30
0
41
1
10
15.9408683394043
20
7.80706970454403
30
0
41
1
10
15.8823656513388
20
7.81173621384758
30
0
41
1
10
15.7667510510086
20
7.83016372707957
30
0
41
1
10
15.7090932228133
20
7.84412572764282
30
0
41
1
10
15.5982477982348
20
7.8806711673106
30
0
41
1
10
15.5452096877451
20
7.90308557309538
30
0
41
1
10
15.4438216048227
20
7.95600176273703
30
0
41
1
10
15.3952096133838
20
7.98672914492681
30
0
41
1
10
15.35
20
8.02106434078974
30
0
0
SPLINE
5
13E
100
AcDbEntity
8
1
62
256
6
ByLayer
370
18
48
1
60
0
100
AcDbSpline
70
4
71
3
72
20
73
16
40
0
40
0
40
0
40
0
40
0.198309264214402
40
0.198309264214402
40
0.465539509476269
40
0.465539509476269
40
0.599154632107204
40
0.599154632107204
40
0.732769754738139
40
0.732769754738139
40
0.866384877369074
40
0.866384877369074
40
0.933192438684537
40
0.933192438684537
40
1
40
1
40
1
40
1
41
1
10
34.1301411737751
20
15.3866179213541
30
0
41
1
10
34.1120563612632
20
15.4297997598583
30
0
41
1
10
34.0898882473324
20
15.4726856371812
30
0
41
1
10
34.0250699543769
20
15.5724359367265
30
0
41
1
10
33.9782709779787
20
15.6290998138058
30
0
41
1
10
33.8824218654115
20
15.7119259622582
30
0
41
1
10
33.8463979036914
20
15.7389235744809
30
0
41
1
10
33.762425114236
20
15.7911301705917
30
0
41
1
10
33.71475569552
20
15.816203088606
30
0
41
1
10
33.6030259023492
20
15.8620362942266
30
0
41
1
10
33.5380463193062
20
15.8831681601377
30
0
41
1
10
33.4240176677002
20
15.9069343619125
30
0
41
1
10
33.3831611637365
20
15.9134761870394
30
0
41
1
10
33.2983962061066
20
15.9224268456039
30
0
41
1
10
33.2533540801079
20
15.9249276655293
30
0
41
1
10
33.2078817589917
20
15.9249276655293
30
0
0
SPLINE
5
13F
100
AcDbEntity
8
SK1
62
256
6
ByLayer
370
18
48
1
60
0
100
AcDbSpline
70
4
71
3
72
8
73
4
40
0
40
0
40
0
40
0
40
1
40
1
40
1
40
1
41
1
10
-18.95
20
-12.8297840617967
30
0
41
1
10
-19.0052571172978
20
-12.7462976285912
30
0
41
1
10
-19.0384814845825
20
-12.6591312575364
30
0
41
1
10
-19.0424698269216
20
-12.5677010463964
30
0
0
SPLINE
5
140
100
AcDbEntity
8
1
62
256
6
ByLayer
370
13
48
1
60
0
100
AcDbSpline
70
4
71
3
72
11
73
7
40
0
40
0
40
0
40
0
40
0.498905879662103
40
0.997811759324205
40
0.997811759324205
40
1
40
1
40
1
40
1
41
1
10
20.95
20
-15.9058823529412
30
0
41
1
10
20.95
20
-15.9372571883838
30
0
41
1
10
20.9468767133879
20
-15.9842689051029
30
0
41
1
10
20.944988731811
20
-15.9999878756254
30
0
41
1
10
20.944987316669
20
-16.0000010322405
30
0
41
1
10
20.944987454723
20
-15.9999998652375
30
0
41
1
10
20.9449875765999
20
-15.999998872591
30
0
0
SPLINE
5
141
100
AcDbEntity
8
1
62
256
6
ByLayer
370
13
48
1
60
0
100
AcDbSpline
70
4
71
3
72
12
73
8
40
0
40
0
40
0
40
0
40
0.0014367990965291
40
0.0014367990965291
40
0.500718399548264
40
0.500718399548264
40
1
40
1
40
1
40
1
41
1
10
20.9449875740929
20
15.9999988255033
30
0
41
1
10
20.9449874576613
20
15.9999998188027
30
0
41
1
10
20.9449873502596
20
16.0000008130965
30
0
41
1
10
20.9449861453936
20
16.0000120963616
30
0
41
1
10
20.9459300477289
20
15.9921570448599
30
0
41
1
10
20.948437548172
20
15.9607775194412
30
0
41
1
10
20.95
20
15.9372574954172
30
0
41
1
10
20.95
20
15.9058823529412
30
0
0
SPLINE
5
142
100
AcDbEntity
8
1
62
256
6
ByLayer
370
18
48
1
60
0
100
AcDbSpline
70
4
71
3
72
22
73
18
40
0
40
0
40
0
40
0
40
0.125000000000002
40
0.125000000000002
40
0.250000000000005
40
0.250000000000005
40
0.375000000000004
40
0.375000000000004
40
0.500000000000003
40
0.500000000000003
40
0.625000000000003
40
0.625000000000003
40
0.750000000000002
40
0.750000000000002
40
0.875000000000001
40
0.875000000000001
40
1
40
1
40
1
40
1
41
1
10
15.35
20
-8.02106434078971
30
0
41
1
10
15.3952095491983
20
-7.98672919367348
30
0
41
1
10
15.4431622557148
20
-7.95639997610974
30
0
41
1
10
15.544328852309
20
-7.90349202562314
30
0
41
1
10
15.5978145205397
20
-7.88082520879712
30
0
41
1
10
15.7091541298033
20
-7.84409449314464
30
0
41
1
10
15.7658888935766
20
-7.83035046871632
30
0
41
1
10
15.8814186954133
20
-7.81183858845355
30
0
41
1
10
15.940699605669
20
-7.80707864565557
30
0
41
1
10
16.0591316605957
20
-7.80706970454403
30
0
41
1
10
16.1176343486612
20
-7.81173621384758
30
0
41
1
10
16.2332489489914
20
-7.83016372707957
30
0
41
1
10
16.2909067771867
20
-7.84412572764282
30
0
41
1
10
16.4017522017652
20
-7.8806711673106
30
0
41
1
10
16.4547903122549
20
-7.90308557309538
30
0
41
1
10
16.5561783951773
20
-7.956001762737
30
0
41
1
10
16.6047903866162
20
-7.98672914492678
30
0
41
1
10
16.65
20
-8.02106434078974
30
0
0
SPLINE
5
143
100
AcDbEntity
8
1
62
256
6
ByLayer
370
18
48
1
60
0
100
AcDbSpline
70
4
71
3
72
8
73
4
40
0
40
0
40
0
40
0
40
1
40
1
40
1
40
1
41
1
10
19.9796164262932
20
11.85
30
0
41
1
10
19.9598631347024
20
11.9622163641751
30
0
41
1
10
19.95
20
12.0752961691141
30
0
41
1
10
19.95
20
12.189237055698
30
0
0
SPLINE
5
144
100
AcDbEntity
8
SK1
62
256
6
ByLayer
370
18
48
1
60
0
100
AcDbSpline
70
4
71
3
72
44
73
40
40
0
40
0
40
0
40
0
40
0.0364401261240384
40
0.0364401261240384
40
0.0750088395223555
40
0.113577552920673
40
0.113577552920673
40
0.15214626631899
40
0.15214626631899
40
0.229283693115624
40
0.229283693115624
40
0.267852406513941
40
0.267852406513941
40
0.306421119912259
40
0.344989833310576
40
0.344989833310576
40
0.383558546708893
40
0.383558546708893
40
0.460695973505527
40
0.460695973505527
40
0.499264686903844
40
0.499264686903844
40
0.537833400302161
40
0.537833400302161
40
0.614970827098795
40
0.614970827098795
40
0.653539540497112
40
0.653539540497112
40
0.692108253895429
40
0.692108253895429
40
0.769245680692062
40
0.769245680692062
40
0.807814394090378
40
0.807814394090378
40
0.846383107488695
40
0.846383107488695
40
0.923520534285328
40
0.923520534285328
40
1
40
1
40
1
40
1
41
1
10
-8.8028744261334
20
14.7628749143454
30
0
41
1
10
-8.80291435957935
20
14.7628794088297
30
0
41
1
10
-8.79821124424694
20
14.7623254201368
30
0
41
1
10
-8.77915762823645
20
14.7601019347994
30
0
41
1
10
-8.74937122912061
20
14.7566384892343
30
0
41
1
10
-8.69950205705447
20
14.7510047224596
30
0
41
1
10
-8.63942349373681
20
14.7443939869484
30
0
41
1
10
-8.60449703281316
20
14.740625818745
30
0
41
1
10
-8.48708987461256
20
14.7283901311513
30
0
41
1
10
-8.39161166918896
20
14.7189308817887
30
0
41
1
10
-8.22319001396659
20
14.7040896810947
30
0
41
1
10
-8.16320134526745
20
14.6990727448422
30
0
41
1
10
-8.03735621720475
20
14.6892602397506
30
0
41
1
10
-7.90521039862369
20
14.6796312768355
30
0
41
1
10
-7.76082888726035
20
14.6708204830611
30
0
41
1
10
-7.61032921147174
20
14.6626503245111
30
0
41
1
10
-7.5319894891808
20
14.6588914083648
30
0
41
1
10
-7.29256073646269
20
14.6491056700358
30
0
41
1
10
-7.12561274538095
20
14.6444813701207
30
0
41
1
10
-6.86457457823366
20
14.6413576520096
30
0
41
1
10
-6.77537616753386
20
14.640954180422
30
0
41
1
10
-6.59538361621782
20
14.6415730283959
30
0
41
1
10
-6.50489671298348
20
14.6425873946454
30
0
41
1
10
-6.23202186082537
20
14.6478103827528
30
0
41
1
10
-6.0482320988595
20
14.6541992445945
30
0
41
1
10
-5.76973040630241
20
14.6683820836449
30
0
41
1
10
-5.67621444216695
20
14.6738973503557
30
0
41
1
10
-5.49175862872127
20
14.6862337043013
30
0
41
1
10
-5.40039323543485
20
14.6930726259408
30
0
41
1
10
-5.12882908318491
20
14.7154709043326
30
0
41
1
10
-4.95114043462678
20
14.7329144499657
30
0
41
1
10
-4.68980155686006
20
14.7623001806235
30
0
41
1
10
-4.60390878273117
20
14.7725982640076
30
0
41
1
10
-4.43723630406717
20
14.7937069604818
30
0
41
1
10
-4.35605583784746
20
14.8045619410129
30
0
41
1
10
-4.11895705767242
20
14.8377555648831
30
0
41
1
10
-3.96940933566103
20
14.8607326388899
30
0
41
1
10
-3.68997209677701
20
14.906600833965
30
0
41
1
10
-3.56401318778145
20
14.9288126777855
30
0
41
1
10
-3.45232199251731
20
14.9493640713996
30
0
0
SPLINE
5
145
100
AcDbEntity
8
SK1
62
256
6
ByLayer
370
18
48
1
60
0
100
AcDbSpline
70
4
71
3
72
20
73
16
40
0
40
0
40
0
40
0
40
0.0028046103367837
40
0.0028046103367837
40
0.1672067537483
40
0.1672067537483
40
0.331608897159817
40
0.331608897159817
40
0.660413183982851
40
0.660413183982851
40
0.824815327394368
40
0.824815327394368
40
0.989217470805884
40
0.989217470805884
40
1
40
1
40
1
40
1
41
1
10
-3.45232199252047
20
14.9493640713991
30
0
41
1
10
-3.45136110113509
20
14.9495408772523
30
0
41
1
10
-3.45040126575265
20
14.9497175602099
30
0
41
1
10
-3.39324028773228
20
14.9602437727331
30
0
41
1
10
-3.34060221690504
20
14.9701832477751
30
0
41
1
10
-3.24279535632064
20
14.9889943087261
30
0
41
1
10
-3.19739736806213
20
14.9979119490805
30
0
41
1
10
-3.07498768885566
20
15.0223042690121
30
0
41
1
10
-3.01255876423411
20
15.0352263226593
30
0
41
1
10
-2.9480357203195
20
15.0486969855377
30
0
41
1
10
-2.93141714280313
20
15.0521998547851
30
0
41
1
10
-2.9084978398277
20
15.0570420682859
30
0
41
1
10
-2.90236173501538
20
15.0583462271772
30
0
41
1
10
-2.90150269190991
20
15.0585285140983
30
0
41
1
10
-2.9014722701661
20
15.058534933857
30
0
41
1
10
-2.90146430694477
20
15.0585365587986
30
0
0
SPLINE
5
146
100
AcDbEntity
8
1
62
256
6
ByLayer
370
18
48
1
60
0
100
AcDbSpline
70
4
71
3
72
22
73
18
40
0
40
0
40
0
40
0
40
0.125000000000003
40
0.125000000000003
40
0.250000000000005
40
0.250000000000005
40
0.375000000000004
40
0.375000000000004
40
0.500000000000003
40
0.500000000000003
40
0.625000000000003
40
0.625000000000003
40
0.750000000000002
40
0.750000000000002
40
0.875000000000001
40
0.875000000000001
40
1
40
1
40
1
40
1
41
1
10
15.35
20
5.22671768978839
30
0
41
1
10
15.3952095491983
20
5.26363131300297
30
0
41
1
10
15.4431622557148
20
5.29613677271041
30
0
41
1
10
15.544328852309
20
5.35273817827803
30
0
41
1
10
15.5978145205397
20
5.37692744369562
30
0
41
1
10
15.7091541298033
20
5.41607956759327
30
0
41
1
10
15.7658888935766
20
5.43070253905259
30
0
41
1
10
15.8814186954133
20
5.45039092672906
30
0
41
1
10
15.940699605669
20
5.45544777232959
30
0
41
1
10
16.0591316605957
20
5.45545727452608
30
0
41
1
10
16.1176343486612
20
5.45049973094507
30
0
41
1
10
16.2332489489914
20
5.43090122443135
30
0
41
1
10
16.2909067771867
20
5.41604620951748
30
0
41
1
10
16.4017522017652
20
5.3770917043795
30
0
41
1
10
16.4547903122549
20
5.35317238523302
30
0
41
1
10
16.5561783951773
20
5.29656339528646
30
0
41
1
10
16.6047903866163
20
5.26363136541042
30
0
41
1
10
16.65
20
5.22671768978839
30
0
0
SPLINE
5
147
100
AcDbEntity
8
1
62
256
6
ByLayer
370
18
48
1
60
0
100
AcDbSpline
70
4
71
3
72
22
73
18
40
0
40
0
40
0
40
0
40
0.125
40
0.125
40
0.25
40
0.25
40
0.375
40
0.375
40
0.5
40
0.5
40
0.625
40
0.625
40
0.75
40
0.75
40
0.875
40
0.875
40
1
40
1
40
1
40
1
41
1
10
16.65
20
-5.22671768978836
30
0
41
1
10
16.6047904508017
20
-5.26363131300295
30
0
41
1
10
16.5568377442852
20
-5.29613677271038
30
0
41
1
10
16.455671147691
20
-5.352738178278
30
0
41
1
10
16.4021854794603
20
-5.37692744369562
30
0
41
1
10
16.2908458701967
20
-5.41607956759324
30
0
41
1
10
16.2341111064234
20
-5.43070253905259
30
0
41
1
10
16.1185813045867
20
-5.45039092672906
30
0
41
1
10
16.059300394331
20
-5.45544777232956
30
0
41
1
10
15.9408683394043
20
-5.45545727452605
30
0
41
1
10
15.8823656513388
20
-5.45049973094507
30
0
41
1
10
15.7667510510086
20
-5.43090122443135
30
0
41
1
10
15.7090932228133
20
-5.41604620951748
30
0
41
1
10
15.5982477982348
20
-5.3770917043795
30
0
41
1
10
15.5452096877451
20
-5.35317238523302
30
0
41
1
10
15.4438216048227
20
-5.29656339528646
30
0
41
1
10
15.3952096133838
20
-5.26363136541042
30
0
41
1
10
15.35
20
-5.22671768978836
30
0
0
SPLINE
5
148
100
AcDbEntity
8
1
62
256
6
ByLayer
370
18
48
1
60
0
100
AcDbSpline
70
4
71
3
72
22
73
18
40
0
40
0
40
0
40
0
40
0.125000000000003
40
0.125000000000003
40
0.250000000000005
40
0.250000000000005
40
0.375000000000004
40
0.375000000000004
40
0.500000000000003
40
0.500000000000003
40
0.625000000000003
40
0.625000000000003
40
0.750000000000002
40
0.750000000000002
40
0.875000000000001
40
0.875000000000001
40
1
40
1
40
1
40
1
41
1
10
15.35
20
-3.75863753483392
30
0
41
1
10
15.3952095491983
20
-3.72084759563276
30
0
41
1
10
15.4431622557148
20
-3.68750377621072
30
0
41
1
10
15.544328852309
20
-3.62937465331532
30
0
41
1
10
15.5978145205397
20
-3.604492907788
30
0
41
1
10
15.7091541298033
20
-3.56418969771363
30
0
41
1
10
15.7658888935766
20
-3.54911882580663
30
0
41
1
10
15.8814186954133
20
-3.52882249969119
30
0
41
1
10
15.940699605669
20
-3.52360577790787
30
0
41
1
10
16.0591316605957
20
-3.52359597754196
30
0
41
1
10
16.1176343486612
20
-3.52871028480598
30
0
41
1
10
16.2332489489914
20
-3.54891405563299
30
0
41
1
10
16.2909067771867
20
-3.56422399374227
30
0
41
1
10
16.4017522017652
20
-3.60432386042515
30
0
41
1
10
16.4547903122549
20
-3.62892831720066
30
0
41
1
10
16.5561783951773
20
-3.68706604213384
30
0
41
1
10
16.6047903866163
20
-3.72084754198116
30
0
41
1
10
16.65
20
-3.75863753483395
30
0
0
SPLINE
5
149
100
AcDbEntity
8
1
62
256
6
ByLayer
370
18
48
1
60
0
100
AcDbSpline
70
4
71
3
72
22
73
18
40
0
40
0
40
0
40
0
40
0.125
40
0.125
40
0.25
40
0.25
40
0.375
40
0.375
40
0.5
40
0.5
40
0.625
40
0.625
40
0.75
40
0.75
40
0.875
40
0.875
40
1
40
1
40
1
40
1
41
1
10
16.65
20
3.75863753483395
30
0
41
1
10
16.6047904508017
20
3.72084759563276
30
0
41
1
10
16.5568377442852
20
3.68750377621072
30
0
41
1
10
16.455671147691
20
3.62937465331532
30
0
41
1
10
16.4021854794603
20
3.604492907788
30
0
41
1
10
16.2908458701967
20
3.56418969771366
30
0
41
1
10
16.2341111064234
20
3.54911882580666
30
0
41
1
10
16.1185813045867
20
3.52882249969119
30
0
41
1
10
16.059300394331
20
3.52360577790787
30
0
41
1
10
15.9408683394043
20
3.52359597754196
30
0
41
1
10
15.8823656513388
20
3.52871028480598
30
0
41
1
10
15.7667510510086
20
3.54891405563299
30
0
41
1
10
15.7090932228133
20
3.56422399374227
30
0
41
1
10
15.5982477982348
20
3.60432386042515
30
0
41
1
10
15.5452096877451
20
3.62892831720069
30
0
41
1
10
15.4438216048227
20
3.68706604213384
30
0
41
1
10
15.3952096133838
20
3.72084754198119
30
0
41
1
10
15.35
20
3.75863753483395
30
0
0
SPLINE
5
14A
100
AcDbEntity
8
1
62
256
6
ByLayer
370
18
48
1
60
0
100
AcDbSpline
70
4
71
3
72
30
73
26
40
0
40
0
40
0
40
0
40
0.125
40
0.125
40
0.25
40
0.25
40
0.375
40
0.375
40
0.4375
40
0.4375
40
0.499999999999999
40
0.499999999999999
40
0.562499999999998
40
0.562499999999998
40
0.624999999999998
40
0.624999999999998
40
0.749999999999998
40
0.749999999999998
40
0.812499999999999
40
0.812499999999999
40
0.874999999999999
40
0.874999999999999
40
0.9375
40
0.9375
40
1
40
1
40
1
40
1
41
1
10
16.65
20
-8.02106434078974
30
0
41
1
10
16.7063998412538
20
-8.06389814207995
30
0
41
1
10
16.7574894743751
20
-8.11853349198864
30
0
41
1
10
16.8433924242559
20
-8.23729886680383
30
0
41
1
10
16.8795613785545
20
-8.30291239003259
30
0
41
1
10
16.9377651231809
20
-8.43880268991222
30
0
41
1
10
16.9599352058088
20
-8.50893290237622
30
0
41
1
10
16.9832934169706
20
-8.61564706491453
30
0
41
1
10
16.9894440654625
20
-8.65184359277879
30
0
41
1
10
16.9977509447124
20
-8.72231535333373
30
0
41
1
10
16.9999130069315
20
-8.75632391884764
30
0
41
1
10
17.0000818716675
20
-8.82110242283329
30
0
41
1
10
16.9980081584131
20
-8.85198270582052
30
0
41
1
10
16.9899617032229
20
-8.90822186305016
30
0
41
1
10
16.9840208682211
20
-8.93410280921773
30
0
41
1
10
16.9607199304
20
-9.0079677432029
30
0
41
1
10
16.9383954087177
20
-9.05117080171607
30
0
41
1
10
16.8949902575659
20
-9.1137589976297
30
0
41
1
10
16.8788241714524
20
-9.13420636025779
30
0
41
1
10
16.8427403874226
20
-9.17497353611211
30
0
41
1
10
16.8227407284052
20
-9.1953436938193
30
0
41
1
10
16.7795057200759
20
-9.2356407238351
30
0
41
1
10
16.756186052689
20
-9.25567186099468
30
0
41
1
10
16.7057406408841
20
-9.29618808757735
30
0
41
1
10
16.6784486307416
20
-9.31676849592921
30
0
41
1
10
16.65
20
-9.33730899889855
30
0
0
SPLINE
5
14B
100
AcDbEntity
8
1
62
256
6
ByLayer
370
18
48
1
60
0
100
AcDbSpline
70
4
71
3
72
22
73
18
40
0
40
0
40
0
40
0
40
0.249999999999999
40
0.249999999999999
40
0.499999999999999
40
0.499999999999999
40
0.624999999999999
40
0.624999999999999
40
0.749999999999999
40
0.749999999999999
40
0.875
40
0.875
40
0.937499999999998
40
0.937499999999998
40
0.968749999999999
40
0.968749999999999
40
1
40
1
40
1
40
1
41
1
10
17.0500050005
20
-16.9
30
0
41
1
10
17.0499949995
20
-16.9
30
0
41
1
10
17.0438229182428
20
-16.9
30
0
41
1
10
17.0202146924719
20
-16.9
30
0
41
1
10
17.0028632627402
20
-16.9
30
0
41
1
10
16.9663841409975
20
-16.9
30
0
41
1
10
16.9524869660865
20
-16.9
30
0
41
1
10
16.9200780330729
20
-16.9
30
0
41
1
10
16.9016342594568
20
-16.9
30
0
41
1
10
16.8573485591572
20
-16.9
30
0
41
1
10
16.8318495584129
20
-16.9
30
0
41
1
10
16.7809289010795
20
-16.9
30
0
41
1
10
16.7616750859487
20
-16.9
30
0
41
1
10
16.7257723041703
20
-16.9
30
0
41
1
10
16.7124437549547
20
-16.9
30
0
41
1
10
16.6832588750702
20
-16.9
30
0
41
1
10
16.6668272796145
20
-16.9
30
0
41
1
10
16.6500000000002
20
-16.9
30
0
0
SPLINE
5
14C
100
AcDbEntity
8
SK1
62
256
6
ByLayer
370
18
48
1
60
0
100
AcDbSpline
70
4
71
3
72
20
73
16
40
0
40
0
40
0
40
0
40
0.249999999999999
40
0.249999999999999
40
0.499999999999998
40
0.499999999999998
40
0.749999999999998
40
0.749999999999998
40
0.875
40
0.875
40
0.937500000000001
40
0.937500000000001
40
0.96875
40
0.96875
40
1
40
1
40
1
40
1
41
1
10
-18.9499999999975
20
-12.8297840618031
30
0
41
1
10
-18.795949549866
20
-12.8253326366567
30
0
41
1
10
-18.6422299069312
20
-12.8200440825919
30
0
41
1
10
-18.3358104868256
20
-12.8068779272733
30
0
41
1
10
-18.1830234344085
20
-12.7990453479895
30
0
41
1
10
-17.8798930917004
20
-12.7787503177147
30
0
41
1
10
-17.7291113842468
20
-12.7666261733584
30
0
41
1
10
-17.5090992175677
20
-12.7394832893737
30
0
41
1
10
-17.4368313867153
20
-12.7290447216054
30
0
41
1
10
-17.3341014038289
20
-12.7076255896503
30
0
41
1
10
-17.3005979315731
20
-12.6994794968254
30
0
41
1
10
-17.2551148152835
20
-12.6842309515801
30
0
41
1
10
-17.2406253291664
20
-12.6785708286766
30
0
41
1
10
-17.2153448618944
20
-12.6657522679452
30
0
41
1
10
-17.2042898765482
20
-12.6584763409968
30
0
41
1
10
-17.197123218073
20
-12.6500922654741
30
0
0
SPLINE
5
14D
100
AcDbEntity
8
1
62
256
6
ByLayer
370
18
48
1
60
0
100
AcDbSpline
70
4
71
3
72
18
73
14
40
0
40
0
40
0
40
0
40
0.125137064168629
40
0.125137064168629
40
0.250274128337259
40
0.250274128337259
40
0.375411192505888
40
0.375411192505888
40
0.500548256674518
40
0.500548256674518
40
0.750822385011776
40
0.750822385011776
40
1
40
1
40
1
40
1
41
1
10
16.65
20
11.85
30
0
41
1
10
16.6813764832044
20
11.85
30
0
41
1
10
16.7118261846059
20
11.85
30
0
41
1
10
16.7710404503935
20
11.85
30
0
41
1
10
16.799182935572
20
11.85
30
0
41
1
10
16.8508532988142
20
11.85
30
0
41
1
10
16.8746960973231
20
11.85
30
0
41
1
10
16.91700450437
20
11.85
30
0
41
1
10
16.9358525858104
20
11.85
30
0
41
1
10
16.9860730208076
20
11.85
30
0
41
1
10
17.0098246908283
20
11.85
30
0
41
1
10
17.0420281872457
20
11.85
30
0
41
1
10
17.0499415133378
20
11.85
30
0
41
1
10
17.0499950000005
20
11.85
30
0
0
SPLINE
5
14E
100
AcDbEntity
8
1
62
256
6
ByLayer
370
18
48
1
60
0
100
AcDbSpline
70
4
71
3
72
28
73
24
40
0
40
0
40
0
40
0
40
0.125000000000003
40
0.125000000000003
40
0.250000000000006
40
0.250000000000006
40
0.375000000000009
40
0.375000000000009
40
0.437500000000009
40
0.437500000000009
40
0.500000000000009
40
0.500000000000009
40
0.562500000000009
40
0.562500000000009
40
0.625000000000009
40
0.625000000000009
40
0.750000000000006
40
0.750000000000006
40
0.875000000000004
40
0.875000000000004
40
0.937500000000002
40
0.937500000000002
40
1
40
1
40
1
40
1
41
1
10
15.35
20
8.02106434078945
30
0
41
1
10
15.29333267344
20
8.06410128826232
30
0
41
1
10
15.2423943767584
20
8.11865025013896
30
0
41
1
10
15.1563606662446
20
8.23768424135355
30
0
41
1
10
15.1205635091252
20
8.30259942200138
30
0
41
1
10
15.0620108203998
20
8.43934722688974
30
0
41
1
10
15.0398053937747
20
8.50980479535326
30
0
41
1
10
15.0164915902859
20
8.61678937135153
30
0
41
1
10
15.0103797733119
20
8.65302242644384
30
0
41
1
10
15.002172786687
20
8.72328782972892
30
0
41
1
10
15.0000446280807
20
8.75725146728638
30
0
41
1
10
14.9999567541856
20
8.82206170816127
30
0
41
1
10
15.002071747017
20
8.85281243979077
30
0
41
1
10
15.0101700733307
20
8.90886442359223
30
0
41
1
10
15.0161348442112
20
8.9347114193626
30
0
41
1
10
15.039540976314
20
9.00856055854146
30
0
41
1
10
15.0618027534028
20
9.05151509965791
30
0
41
1
10
15.1197228105706
20
9.13491554589805
30
0
41
1
10
15.1559590553521
20
9.17551438811151
30
0
41
1
10
15.2206719786895
20
9.23579451437615
30
0
41
1
10
15.2439573661917
20
9.25579178394347
30
0
41
1
10
15.2943918834742
20
9.2962897679059
30
0
41
1
10
15.3216311255579
20
9.31682608163592
30
0
41
1
10
15.35
20
9.33730899889855
30
0
0
SPLINE
5
14F
100
AcDbEntity
8
SK1
62
256
6
ByLayer
370
18
48
1
60
0
100
AcDbSpline
70
4
71
3
72
22
73
18
40
0
40
0
40
0
40
0
40
0.249999999999999
40
0.249999999999999
40
0.499999999999998
40
0.499999999999998
40
0.624999999999998
40
0.624999999999998
40
0.749999999999997
40
0.749999999999997
40
0.812499999999998
40
0.812499999999998
40
0.874999999999999
40
0.874999999999999
40
0.937499999999999
40
0.937499999999999
40
1
40
1
40
1
40
1
41
1
10
-14.7
20
-11.9055404509107
30
0
41
1
10
-14.9376959768368
20
-11.946302421494
30
0
41
1
10
-15.1734317057039
20
-11.9894605034968
30
0
41
1
10
-15.6388746319457
20
-12.0831456500882
30
0
41
1
10
-15.8684442495704
20
-12.1335379115303
30
0
41
1
10
-16.2019954168598
20
-12.2180447795376
30
0
41
1
10
-16.3115861656735
20
-12.2477961921664
30
0
41
1
10
-16.5238141523281
20
-12.3111843438501
30
0
41
1
10
-16.6266747046133
20
-12.344827547729
30
0
41
1
10
-16.7733141923125
20
-12.399876251808
30
0
41
1
10
-16.8209028435621
20
-12.4189993611943
30
0
41
1
10
-16.9126493488105
20
-12.4593009616455
30
0
41
1
10
-16.956831490666
20
-12.4805084030554
30
0
41
1
10
-17.0388781516065
20
-12.5248880183356
30
0
41
1
10
-17.0769511117619
20
-12.5481305606063
30
0
41
1
10
-17.1449285709137
20
-12.5975302697624
30
0
41
1
10
-17.1742320228818
20
-12.6233124893832
30
0
41
1
10
-17.1971232180729
20
-12.6500922654741
30
0
0
SPLINE
5
150
100
AcDbEntity
8
1
62
256
6
ByLayer
370
18
48
1
60
0
100
AcDbSpline
70
4
71
3
72
30
73
26
40
0
40
0
40
0
40
0
40
0.125000000000004
40
0.125000000000004
40
0.250000000000007
40
0.250000000000007
40
0.375000000000011
40
0.375000000000011
40
0.437500000000011
40
0.437500000000011
40
0.50000000000001
40
0.50000000000001
40
0.56250000000001
40
0.56250000000001
40
0.62500000000001
40
0.62500000000001
40
0.750000000000009
40
0.750000000000009
40
0.812500000000007
40
0.812500000000007
40
0.875000000000006
40
0.875000000000006
40
0.937500000000003
40
0.937500000000003
40
1
40
1
40
1
40
1
41
1
10
16.65
20
5.22671768978839
30
0
41
1
10
16.7063998412538
20
5.18066718660214
30
0
41
1
10
16.7574894743751
20
5.13127247258319
30
0
41
1
10
16.8433924242559
20
5.03052142989887
30
0
41
1
10
16.8795613785545
20
4.97794766350938
30
0
41
1
10
16.9377651231809
20
4.86915424237947
30
0
41
1
10
16.9599352058088
20
4.81329236027079
30
0
41
1
10
16.9832934169706
20
4.72203496289461
30
0
41
1
10
16.9894440654625
20
4.68995691295729
30
0
41
1
10
16.9977509447124
20
4.62311919948823
30
0
41
1
10
16.9999130069315
20
4.58857013674344
30
0
41
1
10
17.0000818716675
20
4.51657613693706
30
0
41
1
10
16.998008158413
20
4.47888332676018
30
0
41
1
10
16.9899617032229
20
4.40471440088106
30
0
41
1
10
16.9840208682211
20
4.36777233568148
30
0
41
1
10
16.9607199304
20
4.25750520923671
30
0
41
1
10
16.9383954087177
20
4.1867182356016
30
0
41
1
10
16.8949902575659
20
4.08485195717986
30
0
41
1
10
16.8788241714524
20
4.05156757252894
30
0
41
1
10
16.8427403874226
20
3.98636732334882
30
0
41
1
10
16.8227407284052
20
3.95437605481911
30
0
41
1
10
16.7795057200759
20
3.89339146972236
30
0
41
1
10
16.756186052689
20
3.86421317002802
30
0
41
1
10
16.7057406408841
20
3.80877021000742
30
0
41
1
10
16.6784486307416
20
3.78241729033132
30
0
41
1
10
16.65
20
3.75863753483395
30
0
0
SPLINE
5
151
100
AcDbEntity
8
1
62
256
6
ByLayer
370
18
48
1
60
0
100
AcDbSpline
70
4
71
3
72
30
73
26
40
0
40
0
40
0
40
0
40
0.124999999999999
40
0.124999999999999
40
0.249999999999999
40
0.249999999999999
40
0.374999999999998
40
0.374999999999998
40
0.437499999999997
40
0.437499999999997
40
0.499999999999996
40
0.499999999999996
40
0.562499999999996
40
0.562499999999996
40
0.624999999999995
40
0.624999999999995
40
0.749999999999995
40
0.749999999999995
40
0.812499999999996
40
0.812499999999996
40
0.874999999999998
40
0.874999999999998
40
0.937499999999999
40
0.937499999999999
40
1
40
1
40
1
40
1
41
1
10
16.65
20
-3.75863753483395
30
0
41
1
10
16.7063998412538
20
-3.80578126021345
30
0
41
1
10
16.7574894743751
20
-3.86249400676999
30
0
41
1
10
16.8433924242559
20
-3.98335124975222
30
0
41
1
10
16.8795613785545
20
-4.04899035103597
30
0
41
1
10
16.9377651231809
20
-4.18490045947652
30
0
41
1
10
16.9599352058088
20
-4.25493687623086
30
0
41
1
10
16.9832934169706
20
-4.36379770993324
30
0
41
1
10
16.9894440654625
20
-4.40113390142238
30
0
41
1
10
16.9977509447124
20
-4.4754292622535
30
0
41
1
10
16.9999130069315
20
-4.51212278418836
30
0
41
1
10
17.0000818716675
20
-4.58427973648088
30
0
41
1
10
16.9980081584131
20
-4.6199119200509
30
0
41
1
10
16.9899617032229
20
-4.68682672053936
30
0
41
1
10
16.9840208682211
20
-4.71864904740929
30
0
41
1
10
16.9607199304
20
-4.81124001260318
30
0
41
1
10
16.9383954087177
20
-4.86769901885333
30
0
41
1
10
16.8949902575659
20
-4.94924120229743
30
0
41
1
10
16.8788241714524
20
-4.97588260140068
30
0
41
1
10
16.8427403874226
20
-5.0285742954301
30
0
41
1
10
16.8227407284052
20
-5.05468778905987
30
0
41
1
10
16.7795057200759
20
-5.10550399963037
30
0
41
1
10
16.756186052689
20
-5.13034815147816
30
0
41
1
10
16.7057406408841
20
-5.17929098187139
30
0
41
1
10
16.6784486307416
20
-5.20348936624194
30
0
41
1
10
16.65
20
-5.22671768978836
30
0
0
SPLINE
5
152
100
AcDbEntity
8
1
62
256
6
ByLayer
370
18
48
1
60
0
100
AcDbSpline
70
4
71
3
72
28
73
24
40
0
40
0
40
0
40
0
40
0.125000000000001
40
0.125000000000001
40
0.250000000000003
40
0.250000000000003
40
0.375000000000005
40
0.375000000000005
40
0.437500000000004
40
0.437500000000004
40
0.500000000000003
40
0.500000000000003
40
0.562500000000003
40
0.562500000000003
40
0.625000000000002
40
0.625000000000002
40
0.750000000000001
40
0.750000000000001
40
0.874999999999999
40
0.874999999999999
40
0.9375
40
0.9375
40
1
40
1
40
1
40
1
41
1
10
15.35
20
-9.33730899889821
30
0
41
1
10
15.29333267344
20
-9.29639401075551
30
0
41
1
10
15.2423943767583
20
-9.25599996369172
30
0
41
1
10
15.1563606662445
20
-9.17591728044496
30
0
41
1
10
15.1205635091249
20
-9.13598504607219
30
0
41
1
10
15.0620108203996
20
-9.051953233809
30
0
41
1
10
15.0398053937745
20
-9.00900108777606
30
0
41
1
10
15.0164915902856
20
-8.93602771495165
30
0
41
1
10
15.0103797733117
20
-8.90991237504704
30
0
41
1
10
15.0021727866869
20
-8.85390016459957
30
0
41
1
10
15.0000446280806
20
-8.8240161672289
30
0
41
1
10
14.9999567541856
20
-8.75936974573867
30
0
41
1
10
15.0020717470171
20
-8.72456306528983
30
0
41
1
10
15.0101700733308
20
-8.65442298597824
30
0
41
1
10
15.0161348442114
20
-8.618659530109
30
0
41
1
10
15.0395409763143
20
-8.51056626583821
30
0
41
1
10
15.061802753403
20
-8.4400600520375
30
0
41
1
10
15.1197228105709
20
-8.30434001944721
30
0
41
1
10
15.1559590553525
20
-8.23830729362197
30
0
41
1
10
15.2206719786897
20
-8.14867141772476
30
0
41
1
10
15.2439573661918
20
-8.12032123007577
30
0
41
1
10
15.2943918834744
20
-8.06728759997176
30
0
41
1
10
15.321631125558
20
-8.04260955623118
30
0
41
1
10
15.35
20
-8.02106434078974
30
0
0
SPLINE
5
153
100
AcDbEntity
8
1
62
256
6
ByLayer
370
18
48
1
60
0
100
AcDbSpline
70
4
71
3
72
28
73
24
40
0
40
0
40
0
40
0
40
0.125000000000001
40
0.125000000000001
40
0.250000000000002
40
0.250000000000002
40
0.375000000000003
40
0.375000000000003
40
0.437500000000003
40
0.437500000000003
40
0.500000000000003
40
0.500000000000003
40
0.562500000000003
40
0.562500000000003
40
0.625000000000003
40
0.625000000000003
40
0.750000000000002
40
0.750000000000002
40
0.875000000000001
40
0.875000000000001
40
0.937500000000001
40
0.937500000000001
40
1
40
1
40
1
40
1
41
1
10
15.35
20
-5.22671768978819
30
0
41
1
10
15.29333267344
20
-5.18044878469391
30
0
41
1
10
15.2423943767583
20
-5.13116476295951
30
0
41
1
10
15.1563606662445
20
-5.03020320693793
30
0
41
1
10
15.1205635091249
20
-4.97819822119021
30
0
41
1
10
15.0620108203996
20
-4.86871829120963
30
0
41
1
10
15.0398053937745
20
-4.81259116825922
30
0
41
1
10
15.0164915902856
20
-4.72103540993572
30
0
41
1
10
15.0103797733117
20
-4.68888376803466
30
0
41
1
10
15.0021727866869
20
-4.6221505773384
30
0
41
1
10
15.0000446280806
20
-4.58760007420096
30
0
41
1
10
14.9999567541856
20
-4.51544740131356
30
0
41
1
10
15.002071747017
20
-4.47783774849032
30
0
41
1
10
15.0101700733308
20
-4.40381700226558
30
0
41
1
10
15.0161348442114
20
-4.36689166868055
30
0
41
1
10
15.0395409763143
20
-4.25656344570587
30
0
41
1
10
15.061802753403
20
-4.18615803387587
30
0
41
1
10
15.1197228105709
20
-4.05041815981355
30
0
41
1
10
15.1559590553525
20
-3.98436935623889
30
0
41
1
10
15.2206719786897
20
-3.8931667424844
30
0
41
1
10
15.2439573661918
20
-3.86404255739888
30
0
41
1
10
15.2943918834744
20
-3.80863761338043
30
0
41
1
10
15.321631125558
20
-3.78235062331595
30
0
41
1
10
15.35
20
-3.75863753483392
30
0
0
SPLINE
5
154
100
AcDbEntity
8
1
62
256
6
ByLayer
370
18
48
1
60
0
100
AcDbSpline
70
4
71
3
72
28
73
24
40
0
40
0
40
0
40
0
40
0.124999999999999
40
0.124999999999999
40
0.249999999999998
40
0.249999999999998
40
0.374999999999997
40
0.374999999999997
40
0.437499999999996
40
0.437499999999996
40
0.499999999999995
40
0.499999999999995
40
0.562499999999995
40
0.562499999999995
40
0.624999999999994
40
0.624999999999994
40
0.749999999999995
40
0.749999999999995
40
0.874999999999995
40
0.874999999999995
40
0.937499999999998
40
0.937499999999998
40
1
40
1
40
1
40
1
41
1
10
15.35
20
3.75863753483381
30
0
41
1
10
15.29333267344
20
3.80600484690325
30
0
41
1
10
15.2423943767583
20
3.86261599170845
30
0
41
1
10
15.1563606662445
20
3.98374022839749
30
0
41
1
10
15.1205635091249
20
4.04867733874298
30
0
41
1
10
15.0620108203996
20
4.18544507446921
30
0
41
1
10
15.0398053937745
20
4.25581005175692
30
0
41
1
10
15.0164915902856
20
4.36497130433716
30
0
41
1
10
15.0103797733117
20
4.4023602610053
30
0
41
1
10
15.0021727866869
20
4.47647144722109
30
0
41
1
10
15.0000446280806
20
4.51313372751358
30
0
41
1
10
14.9999567541856
20
4.5853711995546
30
0
41
1
10
15.002071747017
20
4.62088133877688
30
0
41
1
10
15.0101700733308
20
4.68760955014699
30
0
41
1
10
15.0161348442114
20
4.71940174626485
30
0
41
1
10
15.0395409763143
20
4.81200390572633
30
0
41
1
10
15.061802753403
20
4.86814752232581
30
0
41
1
10
15.1197228105709
20
4.97680478562958
30
0
41
1
10
15.1559590553525
20
5.02968804226498
30
0
41
1
10
15.2206719786897
20
5.10569500184298
30
0
41
1
10
15.2439573661918
20
5.13049539836501
30
0
41
1
10
15.2943918834744
20
5.17941141445533
30
0
41
1
10
15.321631125558
20
5.20355448730692
30
0
41
1
10
15.35
20
5.22671768978839
30
0
0
SPLINE
5
155
100
AcDbEntity
8
1
62
256
6
ByLayer
370
18
48
1
60
0
100
AcDbSpline
70
4
71
3
72
8
73
4
40
0
40
0
40
0
40
0
40
1
40
1
40
1
40
1
41
1
10
19.95
20
-18.6770666527161
30
0
41
1
10
19.7834279294845
20
-18.8507551196263
30
0
41
1
10
19.6167587522376
20
-19.024350502839
30
0
41
1
10
19.45
20
-19.1978597439923
30
0
0
SPLINE
5
156
100
AcDbEntity
8
1
62
256
6
ByLayer
370
18
48
1
60
0
100
AcDbSpline
70
4
71
3
72
14
73
10
40
0
40
0
40
0
40
0
40
0.25
40
0.25
40
0.5
40
0.5
40
0.75
40
0.75
40
1
40
1
40
1
40
1
41
1
10
14.9499949995
20
11.85
30
0
41
1
10
14.9500050005
20
11.85
30
0
41
1
10
14.957827297649
20
11.85
30
0
41
1
10
14.9899993164651
20
11.85
30
0
41
1
10
15.0139625455674
20
11.85
30
0
41
1
10
15.0805010888066
20
11.85
30
0
41
1
10
15.1230740878081
20
11.85
30
0
41
1
10
15.2265746749097
20
11.85
30
0
41
1
10
15.287258989045
20
11.85
30
0
41
1
10
15.35
20
11.85
30
0
0
SPLINE
5
157
100
AcDbEntity
8
1
62
256
6
ByLayer
370
18
48
1
60
0
100
AcDbSpline
70
4
71
3
72
18
73
14
40
0
40
0
40
0
40
0
40
0.0760286093210694
40
0.0760286093210694
40
0.152057218642139
40
0.152057218642139
40
0.304114437284278
40
0.304114437284278
40
0.60822887456856
40
0.60822887456856
40
0.912343311852842
40
0.912343311852842
40
1
40
1
40
1
40
1
41
1
10
15.35
20
-16.9
30
0
41
1
10
15.3329629469457
20
-16.9
30
0
41
1
10
15.3165677705491
20
-16.9
30
0
41
1
10
15.2868031897335
20
-16.9
30
0
41
1
10
15.2734716648511
20
-16.9
30
0
41
1
10
15.2373142908661
20
-16.9
30
0
41
1
10
15.2180362594824
20
-16.9
30
0
41
1
10
15.1668078428707
20
-16.9
30
0
41
1
10
15.1417544487044
20
-16.9
30
0
41
1
10
15.0976245374772
20
-16.9
30
0
41
1
10
15.0791290178336
20
-16.9
30
0
41
1
10
15.0583588087956
20
-16.9
30
0
41
1
10
15.0539067520045
20
-16.9
30
0
41
1
10
15.0496349999989
20
-16.9
30
0
0
SPLINE
5
158
100
AcDbEntity
8
1
62
256
6
ByLayer
370
18
48
1
60
0
100
AcDbSpline
70
4
71
3
72
30
73
26
40
0
40
0
40
0
40
0
40
0.124999999999999
40
0.124999999999999
40
0.249999999999998
40
0.249999999999998
40
0.374999999999997
40
0.374999999999997
40
0.437499999999997
40
0.437499999999997
40
0.499999999999996
40
0.499999999999996
40
0.562499999999996
40
0.562499999999996
40
0.624999999999996
40
0.624999999999996
40
0.749999999999996
40
0.749999999999996
40
0.812499999999997
40
0.812499999999997
40
0.874999999999998
40
0.874999999999998
40
0.937499999999999
40
0.937499999999999
40
1
40
1
40
1
40
1
41
1
10
16.65
20
9.33730899889855
30
0
41
1
10
16.7063998412538
20
9.29658714070908
30
0
41
1
10
16.7574894743751
20
9.25608914405177
30
0
41
1
10
16.8433924242559
20
9.17616596550911
30
0
41
1
10
16.8795613785545
20
9.13579273108738
30
0
41
1
10
16.9377651231809
20
9.05228784840119
30
0
41
1
10
16.9599352058088
20
9.00954073411694
30
0
41
1
10
16.9832934169706
20
8.93683379913651
30
0
41
1
10
16.9894440654625
20
8.91079522071865
30
0
41
1
10
16.9977509447124
20
8.85473052854442
30
0
41
1
10
16.9999130069315
20
8.82486474006069
30
0
41
1
10
17.0000818716675
20
8.76040103610475
30
0
41
1
10
16.998008158413
20
8.72553992820164
30
0
41
1
10
16.9899617032229
20
8.65528687684807
30
0
41
1
10
16.9840208682211
20
8.6195153557276
30
0
41
1
10
16.9607199304
20
8.51150270041867
30
0
41
1
10
16.9383954087177
20
8.44062013443474
30
0
41
1
10
16.8949902575659
20
8.33876880205142
30
0
41
1
10
16.8788241714524
20
8.30548817681506
30
0
41
1
10
16.8427403874226
20
8.24055632802146
30
0
41
1
10
16.8227407284052
20
8.20883118116032
30
0
41
1
10
16.7795057200759
20
8.14889036001199
30
0
41
1
10
16.756186052689
20
8.1204862921725
30
0
41
1
10
16.7057406408841
20
8.06741277942723
30
0
41
1
10
16.6784486307416
20
8.04267012848479
30
0
41
1
10
16.65
20
8.02106434078974
30
0
0
SPLINE
5
159
100
AcDbEntity
8
SK1
62
256
6
ByLayer
370
18
48
1
60
0
100
AcDbSpline
70
4
71
3
72
26
73
22
40
0
40
0
40
0
40
0
40
0.0312500000000011
40
0.0312500000000011
40
0.0625000000000021
40
0.0625000000000021
40
0.0937500000000032
40
0.0937500000000032
40
0.125000000000004
40
0.125000000000004
40
0.187500000000005
40
0.187500000000005
40
0.250000000000005
40
0.250000000000005
40
0.375000000000003
40
0.375000000000003
40
0.500000000000002
40
0.500000000000002
40
0.750000000000001
40
0.750000000000001
40
1
40
1
40
1
40
1
41
1
10
-14.7
20
-11.9055404509107
30
0
41
1
10
-14.6816380173544
20
-11.9023915940962
30
0
41
1
10
-14.6620017382858
20
-11.9015851270509
30
0
41
1
10
-14.6234739377276
20
-11.90549260596
30
0
41
1
10
-14.6047576959257
20
-11.9101622269398
30
0
41
1
10
-14.5712362319456
20
-11.9224731513551
30
0
41
1
10
-14.5559528909893
20
-11.9301773106226
30
0
41
1
10
-14.5285240252356
20
-11.9466929335339
30
0
41
1
10
-14.5161972726636
20
-11.9555769573848
30
0
41
1
10
-14.4818577955848
20
-11.9833830978034
30
0
41
1
10
-14.4628620508398
20
-12.0030727875975
30
0
41
1
10
-14.4292194617682
20
-12.0427788909797
30
0
41
1
10
-14.4145336186763
20
-12.0629745716261
30
0
41
1
10
-14.3744655695881
20
-12.124048947119
30
0
41
1
10
-14.353042533812
20
-12.1654132714629
30
0
41
1
10
-14.3164547375383
20
-12.2468137659158
30
0
41
1
10
-14.301256832997
20
-12.2871377632699
30
0
41
1
10
-14.2616972349745
20
-12.4068252202602
30
0
41
1
10
-14.2432692640289
20
-12.4848998922304
30
0
41
1
10
-14.2159421802512
20
-12.6372622434783
30
0
41
1
10
-14.2072005446175
20
-12.7116483669945
30
0
41
1
10
-14.202410115942
20
-12.7838000884099
30
0
0
SPLINE
5
15A
100
AcDbEntity
8
1
62
256
6
ByLayer
370
18
48
1
60
0
100
AcDbSpline
70
4
71
3
72
8
73
4
40
0
40
0
40
0
40
0
40
1
40
1
40
1
40
1
41
1
10
14.95
20
11.85
30
0
41
1
10
14.6341166428337
20
11.85
30
0
41
1
10
14.3098255466359
20
11.85
30
0
41
1
10
13.9792740578363
20
11.85
30
0
0
SPLINE
5
15B
100
AcDbEntity
8
1
62
256
6
ByLayer
370
18
48
1
60
0
100
AcDbSpline
70
2053
71
3
72
95
73
91
40
0
40
0
40
0
40
0
40
0.0312499999999991
40
0.0312499999999991
40
0.0468749999999987
40
0.0468749999999987
40
0.0624999999999983
40
0.0624999999999983
40
0.0937499999999976
40
0.0937499999999976
40
0.109374999999997
40
0.109374999999997
40
0.124999999999997
40
0.124999999999997
40
0.156249999999997
40
0.156249999999997
40
0.171874999999997
40
0.171874999999997
40
0.187499999999997
40
0.203124999999997
40
0.203124999999997
40
0.218749999999997
40
0.218749999999997
40
0.249999999999996
40
0.249999999999996
40
0.265624999999996
40
0.265624999999996
40
0.281249999999996
40
0.281249999999996
40
0.312499999999996
40
0.312499999999996
40
0.328124999999996
40
0.328124999999996
40
0.343749999999996
40
0.343749999999996
40
0.374999999999996
40
0.374999999999996
40
0.406249999999996
40
0.406249999999996
40
0.421874999999996
40
0.421874999999996
40
0.437499999999996
40
0.437499999999996
40
0.468749999999996
40
0.468749999999996
40
0.499999999999996
40
0.499999999999996
40
0.531249999999996
40
0.531249999999996
40
0.546874999999996
40
0.546874999999996
40
0.562499999999996
40
0.578124999999996
40
0.578124999999996
40
0.593749999999996
40
0.593749999999996
40
0.624999999999996
40
0.624999999999996
40
0.656249999999996
40
0.656249999999996
40
0.687499999999997
40
0.687499999999997
40
0.703124999999997
40
0.703124999999997
40
0.718749999999997
40
0.718749999999997
40
0.749999999999997
40
0.749999999999997
40
0.781249999999997
40
0.781249999999997
40
0.796874999999997
40
0.796874999999997
40
0.812499999999997
40
0.812499999999997
40
0.843749999999998
40
0.843749999999998
40
0.859374999999998
40
0.859374999999998
40
0.874999999999998
40
0.874999999999998
40
0.906249999999998
40
0.906249999999998
40
0.921874999999999
40
0.921874999999999
40
0.937499999999999
40
0.953124999999999
40
0.953124999999999
40
0.968749999999999
40
0.968749999999999
40
1
40
1
40
1
40
1
41
1
10
7
20
2.30000000000001
30
0
41
1
10
7.15208416494113
20
2.30000000000001
30
0
41
1
10
7.30160147578306
20
2.28506422086878
30
0
41
1
10
7.5221905116332
20
2.24119110195505
30
0
41
1
10
7.59510116637423
20
2.2229617716921
30
0
41
1
10
7.73965769557674
20
2.17913077395519
30
0
41
1
10
7.81147277302091
20
2.15341406111497
30
0
41
1
10
8.02032535273446
20
2.06679870679628
30
0
41
1
10
8.15238021128573
20
1.9961459669355
30
0
41
1
10
8.33981937868631
20
1.87097000260977
30
0
41
1
10
8.40074796246236
20
1.82582555005305
30
0
41
1
10
8.51780615201773
20
1.72973936720712
30
0
41
1
10
8.57352245321354
20
1.6791796870545
30
0
41
1
10
8.73249655553164
20
1.52017269209961
30
0
41
1
10
8.82765809369499
20
1.40446793662048
30
0
41
1
10
8.95376524752118
20
1.2159430211525
30
0
41
1
10
8.99288060549526
20
1.15068917885708
30
0
41
1
10
9.06381055026387
20
1.01801017024269
30
0
41
1
10
9.12791609480422
20
0.882479127538659
30
0
41
1
10
9.17855914092087
20
0.741313682903893
30
0
41
1
10
9.22236750729789
20
0.597284328822525
30
0
41
1
10
9.24092784505274
20
0.523423265016561
30
0
41
1
10
9.2852764525361
20
0.300715180623342
30
0
41
1
10
9.29991684181226
20
0.151402261139793
30
0
41
1
10
9.30004105430947
20
-0.0737982348936441
30
0
41
1
10
9.296416925041
20
-0.149071707426742
30
0
41
1
10
9.28160603949212
20
-0.300044910176666
30
0
41
1
10
9.27044492844439
20
-0.375149459481293
30
0
41
1
10
9.22640318689446
20
-0.596454532699426
30
0
41
1
10
9.18295585065141
20
-0.739885960717515
30
0
41
1
10
9.09651412891193
20
-0.948846867235517
30
0
41
1
10
9.06392649323573
20
-1.01779330118026
30
0
41
1
10
8.99276453112606
20
-1.15090629370667
30
0
41
1
10
8.95414053970487
20
-1.21529555254904
30
0
41
1
10
8.82934401423154
20
-1.40211789570253
30
0
41
1
10
8.73428442696689
20
-1.5183196495872
30
0
41
1
10
8.51972259641076
20
-1.73305518143564
30
0
41
1
10
8.40368962528862
20
-1.82813676071706
30
0
41
1
10
8.21699869665295
20
-1.95307995672272
30
0
41
1
10
8.15264577705693
20
-1.99175904438982
30
0
41
1
10
8.01958777722541
20
-2.06304075161117
30
0
41
1
10
7.95067219138005
20
-2.09568655314879
30
0
41
1
10
7.74182625483996
20
-2.18229530212534
30
0
41
1
10
7.59846845397774
20
-2.22585961004398
30
0
41
1
10
7.30353854602041
20
-2.28483694059588
30
0
41
1
10
7.15101328893903
20
-2.2999439574582
30
0
41
1
10
6.85069866883703
20
-2.30005572397664
30
0
41
1
10
6.70137410232269
20
-2.28554857786997
30
0
41
1
10
6.47866565565033
20
-2.24141427084402
30
0
41
1
10
6.40476702751982
20
-2.22291844313818
30
0
41
1
10
6.26066220409177
20
-2.17923110991509
30
0
41
1
10
6.11941483085843
20
-2.12870269519354
30
0
41
1
10
5.98378946334194
20
-2.06469808846089
30
0
41
1
10
5.85100997257729
20
-1.99386157197336
30
0
41
1
10
5.78569962516576
20
-1.95478584719677
30
0
41
1
10
5.59711664675291
20
-1.82887143672701
30
0
41
1
10
5.48133028291409
20
-1.73381661498871
30
0
41
1
10
5.2690998282782
20
-1.52199289076466
30
0
41
1
10
5.17192398508885
20
-1.40381726385794
30
0
41
1
10
5.00486195268414
20
-1.15411827762657
30
0
41
1
10
4.93410301612624
20
-1.02214916375098
30
0
41
1
10
4.84730569221264
20
-0.813380004950801
30
0
41
1
10
4.82152434345164
20
-0.741584530539654
30
0
41
1
10
4.77756770191758
20
-0.597074938805548
30
0
41
1
10
4.75927513026653
20
-0.524186377809002
30
0
41
1
10
4.71520944992167
20
-0.303659915634597
30
0
41
1
10
4.7001416512453
20
-0.154179402724253
30
0
41
1
10
4.6998603172301
20
0.149923821683757
30
0
41
1
10
4.71466405545786
20
0.299537476456607
30
0
41
1
10
4.75833938139712
20
0.520171549404154
30
0
41
1
10
4.77650283975584
20
0.593096963204403
30
0
41
1
10
4.82020007962953
20
0.737682815666091
30
0
41
1
10
4.84585285881593
20
0.809525506692125
30
0
41
1
10
4.93228978289238
20
1.01847938884157
30
0
41
1
10
5.00283022226733
20
1.1506052762727
30
0
41
1
10
5.12784178435714
20
1.33815863085053
30
0
41
1
10
5.17292985672779
20
1.39912436005574
30
0
41
1
10
5.26891620352978
20
1.51627278975002
30
0
41
1
10
5.31942804935701
20
1.57203544466171
30
0
41
1
10
5.47829700778954
20
1.73115281986904
30
0
41
1
10
5.59391696933955
20
1.82641542089337
30
0
41
1
10
5.78232380870227
20
1.95268542982319
30
0
41
1
10
5.84754502657282
20
1.99186002777012
30
0
41
1
10
5.98016279880642
20
2.06290838751957
30
0
41
1
10
6.11563743763671
20
2.12713397796989
30
0
41
1
10
6.25675582874169
20
2.1779012233724
30
0
41
1
10
6.40074283404351
20
2.22183628693165
30
0
41
1
10
6.47451548941581
20
2.24044948615054
30
0
41
1
10
6.69754132737032
20
2.28506241375933
30
0
41
1
10
6.84791583505887
20
2.30000000000001
30
0
41
1
10
7
20
2.30000000000001
30
0
0
SPLINE
5
15C
100
AcDbEntity
8
1
62
256
6
ByLayer
370
18
48
1
60
0
100
AcDbSpline
70
4
71
3
72
8
73
4
40
0
40
0
40
0
40
0
40
1
40
1
40
1
40
1
41
1
10
18.0207259421637
20
11.85
30
0
41
1
10
17.6901744533641
20
11.85
30
0
41
1
10
17.3658833571663
20
11.85
30
0
41
1
10
17.05
20
11.85
30
0
0
SPLINE
5
15D
100
AcDbEntity
8
1
62
256
6
ByLayer
370
18
48
1
60
0
100
AcDbSpline
70
4
71
3
72
8
73
4
40
0
40
0
40
0
40
0
40
1
40
1
40
1
40
1
41
1
10
19.45
20
11.85
30
0
41
1
10
19.6173837045877
20
11.85
30
0
41
1
10
19.7840728989319
20
11.85
30
0
41
1
10
19.95
20
11.85
30
0
0
SPLINE
5
15E
100
AcDbEntity
8
1
62
256
6
ByLayer
370
18
48
1
60
0
100
AcDbSpline
70
4
71
3
72
29
73
25
40
0
40
0
40
0
40
0
40
0.125000000000001
40
0.125000000000001
40
0.187500000000002
40
0.187500000000002
40
0.250000000000002
40
0.250000000000002
40
0.375000000000002
40
0.375000000000002
40
0.437500000000002
40
0.437500000000002
40
0.500000000000002
40
0.500000000000002
40
0.625000000000002
40
0.625000000000002
40
0.687500000000001
40
0.687500000000001
40
0.750000000000001
40
0.812500000000001
40
0.812500000000001
40
0.875000000000001
40
0.875000000000001
40
1
40
1
40
1
40
1
41
1
10
12.45
20
-19.1978597439923
30
0
41
1
10
12.1508495939419
20
-19.1978597439923
30
0
41
1
10
11.8570046223626
20
-19.20641603986
30
0
41
1
10
11.4238020050987
20
-19.2308703426612
30
0
41
1
10
11.2806710117944
20
-19.2409614647414
30
0
41
1
10
10.9969903382026
20
-19.2648472595059
30
0
41
1
10
10.8564490258581
20
-19.2786692041076
30
0
41
1
10
10.4480974224373
20
-19.3242436807205
30
0
41
1
10
10.190142670284
20
-19.3603408280317
30
0
41
1
10
9.82410276046383
20
-19.4204391528165
30
0
41
1
10
9.70499374532986
20
-19.4415877047054
30
0
41
1
10
9.47762055592224
20
-19.4847611977185
30
0
41
1
10
9.36931352533458
20
-19.506770909592
30
0
41
1
10
9.06002078527567
20
-19.5733276511118
30
0
41
1
10
8.87450420560813
20
-19.6184018432104
30
0
41
1
10
8.62812446336358
20
-19.6843136175067
30
0
41
1
10
8.55230009100347
20
-19.705751946663
30
0
41
1
10
8.41407152479388
20
-19.746860250119
30
0
41
1
10
8.28885265937811
20
-19.7863110892758
30
0
41
1
10
8.18948920377952
20
-19.8217772258758
30
0
41
1
10
8.10336488888845
20
-19.8549165358547
30
0
41
1
10
8.06682055797819
20
-19.8703811296605
30
0
41
1
10
7.9794465183758
20
-19.9120838808933
30
0
41
1
10
7.94999999999999
20
-19.9338331145207
30
0
41
1
10
7.94999999999999
20
-19.9490681173332
30
0
0
SPLINE
5
15F
100
AcDbEntity
8
1
62
256
6
ByLayer
370
18
48
1
60
0
100
AcDbSpline
70
4
71
3
72
30
73
26
40
0
40
0
40
0
40
0
40
0.124999999999999
40
0.124999999999999
40
0.187499999999999
40
0.187499999999999
40
0.249999999999999
40
0.249999999999999
40
0.312499999999999
40
0.312499999999999
40
0.374999999999999
40
0.374999999999999
40
0.437499999999999
40
0.437499999999999
40
0.499999999999999
40
0.499999999999999
40
0.624999999999999
40
0.624999999999999
40
0.687499999999999
40
0.687499999999999
40
0.749999999999998
40
0.749999999999998
40
0.874999999999999
40
0.874999999999999
40
1
40
1
40
1
40
1
41
1
10
12.4436704747047
20
16.0803645792003
30
0
41
1
10
12.0930481057918
20
16.0803645792003
30
0
41
1
10
11.7513024317849
20
16.0507940598654
30
0
41
1
10
11.2512828414858
20
15.9631926171001
30
0
41
1
10
11.086029556718
20
15.9263660280563
30
0
41
1
10
10.7694273004864
20
15.8399773761836
30
0
41
1
10
10.6168830082487
20
15.7902750128471
30
0
41
1
10
10.322680836748
20
15.6779607525893
30
0
41
1
10
10.1806178350675
20
15.6151343036109
30
0
41
1
10
9.90893971356789
20
15.4770251240057
30
0
41
1
10
9.78096662640951
20
15.4026393872005
30
0
41
1
10
9.53927369456406
20
15.2435205790492
30
0
41
1
10
9.42556156431269
20
15.1587835046882
30
0
41
1
10
9.21144932634044
20
14.9789546117012
30
0
41
1
10
9.11080916549844
20
14.8834925443198
30
0
41
1
10
8.83321466788016
20
14.5874871481675
30
0
41
1
10
8.67816955908788
20
14.375798899707
30
0
41
1
10
8.48204530208508
20
14.0376464846038
30
0
41
1
10
8.42279843918547
20
13.9214781967906
30
0
41
1
10
8.31560667142764
20
13.6822639685601
30
0
41
1
10
8.26788401134107
20
13.5596064845741
30
0
41
1
10
8.14187992758315
20
13.186831100425
30
0
41
1
10
8.07990442601502
20
12.9303102600378
30
0
41
1
10
7.99099809060209
20
12.4017505621181
30
0
41
1
10
7.96412876922724
20
12.1297069558133
30
0
41
1
10
7.95175587847183
20
11.85
30
0
0
SPLINE
5
160
100
AcDbEntity
8
1
62
256
6
ByLayer
370
18
48
1
60
0
100
AcDbSpline
70
4
71
3
72
8
73
4
40
0
40
0
40
0
40
0
40
1
40
1
40
1
40
1
41
1
10
17.05
20
-17.441758700454
30
0
41
1
10
17.3725359619985
20
-18.0276930291469
30
0
41
1
10
17.6962027094097
20
-18.6130152650312
30
0
41
1
10
18.0207259421637
20
-19.1978597439923
30
0
0
SPLINE
5
161
100
AcDbEntity
8
1
62
256
6
ByLayer
370
18
48
1
60
0
100
AcDbSpline
70
4
71
3
72
29
73
25
40
0
40
0
40
0
40
0
40
0.125
40
0.125
40
0.1875
40
0.1875
40
0.249999999999999
40
0.249999999999999
40
0.374999999999999
40
0.374999999999999
40
0.437499999999999
40
0.437499999999999
40
0.499999999999999
40
0.499999999999999
40
0.624999999999999
40
0.624999999999999
40
0.687499999999999
40
0.687499999999999
40
0.749999999999999
40
0.812499999999999
40
0.812499999999999
40
0.874999999999999
40
0.874999999999999
40
1
40
1
40
1
40
1
41
1
10
7.94999999999999
20
19.9749974968709
30
0
41
1
10
7.95000000000002
20
19.9748480789653
30
0
41
1
10
7.97936868090886
20
19.9680203212253
30
0
41
1
10
8.06553700174143
20
19.948727574609
30
0
41
1
10
8.10133194944279
20
19.9407865907656
30
0
41
1
10
8.18737230524366
20
19.9220382964306
30
0
41
1
10
8.2377918824109
20
19.9111966762515
30
0
41
1
10
8.40744844002469
20
19.8755228769226
30
0
41
1
10
8.54573292029841
20
19.8473577952052
30
0
41
1
10
8.79062284701448
20
19.8008860055205
30
0
41
1
10
8.87903102888703
20
19.7846051244391
30
0
41
1
10
9.06645373425877
20
19.7514787404412
30
0
41
1
10
9.16508394112171
20
19.7346960752273
30
0
41
1
10
9.47537033787327
20
19.6844031240876
30
0
41
1
10
9.7012768576146
20
19.6509361171729
30
0
41
1
10
10.0699105858339
20
19.6036968998241
30
0
41
1
10
10.19709376237
20
19.5885501432124
30
0
41
1
10
10.4561243575813
20
19.5603206103424
30
0
41
1
10
10.7209263954158
20
19.5340100563092
30
0
41
1
10
10.9972278881989
20
19.512266215233
30
0
41
1
10
11.279424289923
20
19.4931775094634
30
0
41
1
10
11.4242022429498
20
19.4849324669046
30
0
41
1
10
11.8611823554728
20
19.46504139444
30
0
41
1
10
12.1560417433564
20
19.4581580513162
30
0
41
1
10
12.4545
20
19.4581580513162
30
0
0
SPLINE
5
162
100
AcDbEntity
8
1
62
256
6
ByLayer
370
18
48
1
60
0
100
AcDbSpline
70
2053
71
3
72
95
73
91
40
0
40
0
40
0
40
0
40
0.0312500000000003
40
0.0312500000000003
40
0.0468750000000005
40
0.0468750000000005
40
0.0625000000000007
40
0.0625000000000007
40
0.0937500000000012
40
0.0937500000000012
40
0.109375000000001
40
0.109375000000001
40
0.125000000000001
40
0.125000000000001
40
0.156250000000002
40
0.156250000000002
40
0.171875000000002
40
0.171875000000002
40
0.187500000000003
40
0.203125000000003
40
0.203125000000003
40
0.218750000000003
40
0.218750000000003
40
0.250000000000004
40
0.250000000000004
40
0.265625000000004
40
0.265625000000004
40
0.281250000000004
40
0.281250000000004
40
0.312500000000005
40
0.312500000000005
40
0.328125000000005
40
0.328125000000005
40
0.343750000000005
40
0.343750000000005
40
0.375000000000005
40
0.375000000000005
40
0.406250000000006
40
0.406250000000006
40
0.421875000000005
40
0.421875000000005
40
0.437500000000005
40
0.437500000000005
40
0.468750000000005
40
0.468750000000005
40
0.500000000000004
40
0.500000000000004
40
0.531250000000004
40
0.531250000000004
40
0.546875000000003
40
0.546875000000003
40
0.562500000000003
40
0.578125000000003
40
0.578125000000003
40
0.593750000000002
40
0.593750000000002
40
0.625000000000002
40
0.625000000000002
40
0.656250000000001
40
0.656250000000001
40
0.687500000000001
40
0.687500000000001
40
0.703125000000001
40
0.703125000000001
40
0.718750000000001
40
0.718750000000001
40
0.75
40
0.75
40
0.781249999999999
40
0.781249999999999
40
0.796874999999999
40
0.796874999999999
40
0.812499999999999
40
0.812499999999999
40
0.843749999999998
40
0.843749999999998
40
0.859374999999999
40
0.859374999999999
40
0.874999999999999
40
0.874999999999999
40
0.906249999999999
40
0.906249999999999
40
0.921875
40
0.921875
40
0.9375
40
0.953125
40
0.953125
40
0.96875
40
0.96875
40
1
40
1
40
1
40
1
41
1
10
7
20
10.6182087499017
30
0
41
1
10
7.15208416494113
20
10.6182087499017
30
0
41
1
10
7.30160147578306
20
10.6054802178454
30
0
41
1
10
7.5221905116332
20
10.5680277630141
30
0
41
1
10
7.59510116637423
20
10.5524596425686
30
0
41
1
10
7.73965769557674
20
10.5149904247619
30
0
41
1
10
7.81147277302091
20
10.492990566889
30
0
41
1
10
8.02032535273446
20
10.4188014944237
30
0
41
1
10
8.15238021128573
20
10.358180491328
30
0
41
1
10
8.33981937868631
20
10.2503825020065
30
0
41
1
10
8.40074796246236
20
10.2114481386319
30
0
41
1
10
8.51780615201773
20
10.1284184366766
30
0
41
1
10
8.57352245321354
20
10.0846535588111
30
0
41
1
10
8.73249655553164
20
9.94672765090479
30
0
41
1
10
8.82765809369496
20
9.8459997879124
30
0
41
1
10
8.95376524752118
20
9.6810465893023
30
0
41
1
10
8.99288060549526
20
9.62382139146894
30
0
41
1
10
9.06381055026387
20
9.50717261669732
30
0
41
1
10
9.12791609480422
20
9.3877305898429
30
0
41
1
10
9.1785591409209
20
9.26268988396714
30
0
41
1
10
9.22236750729789
20
9.13476990834872
30
0
41
1
10
9.24092784505274
20
9.0689998370525
30
0
41
1
10
9.28527645253607
20
8.87014340327164
30
0
41
1
10
9.29991684181229
20
8.73610848945552
30
0
41
1
10
9.30004105430947
20
8.53285199301186
30
0
41
1
10
9.296416925041
20
8.46473116692616
30
0
41
1
10
9.28160603949212
20
8.32773425072781
30
0
41
1
10
9.27044492844436
20
8.25939670704034
30
0
41
1
10
9.22640318689446
20
8.05750827085831
30
0
41
1
10
9.18295585065141
20
7.92595737574513
30
0
41
1
10
9.09651412891193
20
7.7333889353983
30
0
41
1
10
9.06392649323573
20
7.66969143754989
30
0
41
1
10
8.99276453112606
20
7.54643010566673
30
0
41
1
10
8.95414053970487
20
7.48666265470811
30
0
41
1
10
8.82934401423154
20
7.31288488457261
30
0
41
1
10
8.73428442696687
20
7.20429319103556
30
0
41
1
10
8.51972259641079
20
7.00292719562381
30
0
41
1
10
8.40368962528862
20
6.9133947367275
30
0
41
1
10
8.21699869665295
20
6.79545194099796
30
0
41
1
10
8.15264577705693
20
6.75888336499861
30
0
41
1
10
8.01958777722541
20
6.69141468504529
30
0
41
1
10
7.95067219138005
20
6.66047326435475
30
0
41
1
10
7.74182625483996
20
6.57831308815324
30
0
41
1
10
7.59846845397774
20
6.53688341342254
30
0
41
1
10
7.30353854602041
20
6.48076610003827
30
0
41
1
10
7.15101328893903
20
6.46636982173712
30
0
41
1
10
6.85069866883703
20
6.46626336547712
30
0
41
1
10
6.70137410232269
20
6.4800884633259
30
0
41
1
10
6.47866565565033
20
6.5220832972135
30
0
41
1
10
6.40476702751982
20
6.53967563901529
30
0
41
1
10
6.26066219131724
20
6.58119233387444
30
0
41
1
10
6.11941483085843
20
6.62917945704714
30
0
41
1
10
5.98378946334194
20
6.68984450685093
30
0
41
1
10
5.85100997257729
20
6.75689472544641
30
0
41
1
10
5.78569962516576
20
6.79384034074928
30
0
41
1
10
5.59711664675291
20
6.91270373809056
30
0
41
1
10
5.48133028291409
20
7.00220800355683
30
0
41
1
10
5.2690998282782
20
7.2008537063046
30
0
41
1
10
5.17192398508885
20
7.31130036563076
30
0
41
1
10
5.00486195268414
20
7.5435720877727
30
0
41
1
10
4.93410301612624
20
7.66582550721262
30
0
41
1
10
4.84730569221264
20
7.85823428400326
30
0
41
1
10
4.82152434345164
20
7.92424382119086
30
0
41
1
10
4.77756770191758
20
8.05676187924564
30
0
41
1
10
4.75927513026653
20
8.12343301318774
30
0
41
1
10
4.71520944992167
20
8.32461952152684
30
0
41
1
10
4.7001416512453
20
8.46029207694289
30
0
41
1
10
4.6998603172301
20
8.73478511814619
30
0
41
1
10
4.71466405545786
20
8.86908363559442
30
0
41
1
10
4.75833938139712
20
9.06610036530611
30
0
41
1
10
4.77650283975584
20
9.13104462478478
30
0
41
1
10
4.82020007962953
20
9.2594710575743
30
0
41
1
10
4.84585285881593
20
9.32311247442408
30
0
41
1
10
4.93228978289238
20
9.50774797988532
30
0
41
1
10
5.00283022226733
20
9.62386954604526
30
0
41
1
10
5.12784178435714
20
9.78798544671699
30
0
41
1
10
5.17292985672782
20
9.84120450903688
30
0
41
1
10
5.26891620352978
20
9.94325066114871
30
0
41
1
10
5.31942804935701
20
9.99171317292627
30
0
41
1
10
5.47829700778954
20
10.1297386466659
30
0
41
1
10
5.59391696933955
20
10.2120094492689
30
0
41
1
10
5.78232380870227
20
10.3207553929165
30
0
41
1
10
5.84754502657284
20
10.354434870348
30
0
41
1
10
5.98016279880645
20
10.4154414285233
30
0
41
1
10
6.11563743763671
20
10.4705076433239
30
0
41
1
10
6.25675582874169
20
10.513938752304
30
0
41
1
10
6.40074283404351
20
10.5514980670783
30
0
41
1
10
6.47451548941581
20
10.5673945154314
30
0
41
1
10
6.69754132737032
20
10.6054789959846
30
0
41
1
10
6.84791583505887
20
10.6182087499017
30
0
41
1
10
7
20
10.6182087499017
30
0
0
SPLINE
5
163
100
AcDbEntity
8
1
62
256
6
ByLayer
370
18
48
1
60
0
100
AcDbSpline
70
2053
71
3
72
95
73
91
40
0
40
0
40
0
40
0
40
0.0312499999999985
40
0.0312499999999985
40
0.0468749999999978
40
0.0468749999999978
40
0.0624999999999971
40
0.0624999999999971
40
0.0937499999999957
40
0.0937499999999957
40
0.109374999999995
40
0.109374999999995
40
0.124999999999995
40
0.124999999999995
40
0.156249999999994
40
0.156249999999994
40
0.171874999999994
40
0.171874999999994
40
0.187499999999994
40
0.203124999999994
40
0.203124999999994
40
0.218749999999993
40
0.218749999999993
40
0.249999999999993
40
0.249999999999993
40
0.265624999999993
40
0.265624999999993
40
0.281249999999993
40
0.281249999999993
40
0.312499999999993
40
0.312499999999993
40
0.328124999999994
40
0.328124999999994
40
0.343749999999994
40
0.343749999999994
40
0.374999999999994
40
0.374999999999994
40
0.406249999999994
40
0.406249999999994
40
0.421874999999994
40
0.421874999999994
40
0.437499999999994
40
0.437499999999994
40
0.468749999999995
40
0.468749999999995
40
0.499999999999995
40
0.499999999999995
40
0.531249999999995
40
0.531249999999995
40
0.546874999999995
40
0.546874999999995
40
0.562499999999996
40
0.578124999999996
40
0.578124999999996
40
0.593749999999996
40
0.593749999999996
40
0.624999999999996
40
0.624999999999996
40
0.656249999999996
40
0.656249999999996
40
0.687499999999997
40
0.687499999999997
40
0.703124999999997
40
0.703124999999997
40
0.718749999999997
40
0.718749999999997
40
0.749999999999998
40
0.749999999999998
40
0.781249999999999
40
0.781249999999999
40
0.796874999999999
40
0.796874999999999
40
0.812499999999999
40
0.812499999999999
40
0.843749999999999
40
0.843749999999999
40
0.859374999999999
40
0.859374999999999
40
0.874999999999999
40
0.874999999999999
40
0.906249999999999
40
0.906249999999999
40
0.921874999999999
40
0.921874999999999
40
0.9375
40
0.953125
40
0.953125
40
0.96875
40
0.96875
40
1
40
1
40
1
40
1
41
1
10
7
20
-6.46631644189236
30
0
41
1
10
7.15208416494113
20
-6.46631644189236
30
0
41
1
10
7.30160147578306
20
-6.48054953874427
30
0
41
1
10
7.5221905116332
20
-6.52229554693309
30
0
41
1
10
7.59510116637423
20
-6.53963447696546
30
0
41
1
10
7.73965769557674
20
-6.58128768627014
30
0
41
1
10
7.81147277302091
20
-6.60571088154009
30
0
41
1
10
8.02032535273446
20
-6.6878772974884
30
0
41
1
10
8.15238021128573
20
-6.75479654098734
30
0
41
1
10
8.33981937868631
20
-6.87296251837526
30
0
41
1
10
8.40074796246236
20
-6.91552159209618
30
0
41
1
10
8.51780615201773
20
-7.00594383947305
30
0
41
1
10
8.57352245321354
20
-7.05344780818192
30
0
41
1
10
8.73249655553164
20
-7.20255664778551
30
0
41
1
10
8.82765809369496
20
-7.31069560404268
30
0
41
1
10
8.95376524752118
20
-7.48606203430199
30
0
41
1
10
8.99288060549526
20
-7.5466311520749
30
0
41
1
10
9.06381056887548
20
-7.66949066814709
30
0
41
1
10
9.12791609480425
20
-7.79470524131833
30
0
41
1
10
9.17855914092087
20
-7.92449224141464
30
0
41
1
10
9.22236750729789
20
-8.0565698168127
30
0
41
1
10
9.24092784505274
20
-8.12413156407192
30
0
41
1
10
9.2852764525361
20
-8.32730120964914
30
0
41
1
10
9.29991684181229
20
-8.46280158361137
30
0
41
1
10
9.30004105430947
20
-8.66607039466385
30
0
41
1
10
9.29641692504097
20
-8.73383102579876
30
0
41
1
10
9.28160603949212
20
-8.86936649186688
30
0
41
1
10
9.27044492844436
20
-8.93660547015958
30
0
41
1
10
9.22640318689446
20
-9.13421043885484
30
0
41
1
10
9.18295585065141
20
-9.26157773622649
30
0
41
1
10
9.09651412891193
20
-9.44621937433479
30
0
41
1
10
9.06392649323573
20
-9.50698194986023
30
0
41
1
10
8.99276453112606
20
-9.6240122743973
30
0
41
1
10
8.95414053970487
20
-9.68047841844128
30
0
41
1
10
8.82934401423154
20
-9.84394684374197
30
0
41
1
10
8.73428442696689
20
-9.94511913634886
30
0
41
1
10
8.51972259641076
20
-10.131387403084
30
0
41
1
10
8.40368962528862
20
-10.213493412732
30
0
41
1
10
8.21699869665295
20
-10.3210943971912
30
0
41
1
10
8.15264577705696
20
-10.3543481718726
30
0
41
1
10
8.01958777722541
20
-10.4155551318819
30
0
41
1
10
7.95067219138005
20
-10.4435449513187
30
0
41
1
10
7.74182625483996
20
-10.5177283397616
30
0
41
1
10
7.59846845397774
20
-10.5549396715314
30
0
41
1
10
7.30353854602041
20
-10.6052864994799
30
0
41
1
10
7.15101328893903
20
-10.6181609633994
30
0
41
1
10
6.85069866883703
20
-10.6182562647691
30
0
41
1
10
6.70137410232269
20
-10.6058934894303
30
0
41
1
10
6.47866565565033
20
-10.5682183712047
30
0
41
1
10
6.40476702751982
20
-10.5524225891881
30
0
41
1
10
6.26066220409177
20
-10.5150762705255
30
0
41
1
10
6.11941483085843
20
-10.4718509119223
30
0
41
1
10
5.98378946334194
20
-10.4169767293911
30
0
41
1
10
5.85100997257729
20
-10.3561549532341
30
0
41
1
10
5.78569962516576
20
-10.3225622202197
30
0
41
1
10
5.59711664675291
20
-10.2141286296058
30
0
41
1
10
5.48133028291409
20
-10.132042728457
30
0
41
1
10
5.2690998282782
20
-9.94831047848319
30
0
41
1
10
5.17192398508885
20
-9.84542997417969
30
0
41
1
10
5.00486195268414
20
-9.62695243534259
30
0
41
1
10
4.93410301612624
20
-9.51097909443692
30
0
41
1
10
4.84730569221264
20
-9.32652393010929
30
0
41
1
10
4.82152434345164
20
-9.26293038992401
30
0
41
1
10
4.77756770191758
20
-9.1345839860856
30
0
41
1
10
4.75927513026653
20
-9.06967883492189
30
0
41
1
10
4.71520944992167
20
-8.87277746412425
30
0
41
1
10
4.7001416512453
20
-8.7386121970404
30
0
41
1
10
4.6998603172301
20
-8.46414704769572
30
0
41
1
10
4.71466405545786
20
-8.32836739887236
30
0
41
1
10
4.75833938139712
20
-8.12710199364682
30
0
41
1
10
4.77650283975584
20
-8.06040344242297
30
0
41
1
10
4.82020007962953
20
-7.92782774969831
30
0
41
1
10
4.84585285881593
20
-7.86178085513171
30
0
41
1
10
4.93228978289238
20
-7.66921896232125
30
0
41
1
10
5.00283022226733
20
-7.54683076512717
30
0
41
1
10
5.12784178435714
20
-7.37238087005409
30
0
41
1
10
5.17292985672782
20
-7.31554639231342
30
0
41
1
10
5.26891620352978
20
-7.20611964697176
30
0
41
1
10
5.31942804935701
20
-7.15392105527019
30
0
41
1
10
5.47829700778954
20
-7.00471252631678
30
0
41
1
10
5.59391696933955
20
-6.91501808525294
30
0
41
1
10
5.78232380870227
20
-6.79582512507096
30
0
41
1
10
5.84754502657284
20
-6.75878777124802
30
0
41
1
10
5.98016279880645
20
-6.69153992144911
30
0
41
1
10
6.11563743763671
20
-6.63066799061153
30
0
41
1
10
6.25675582874169
20
-6.58245556233706
30
0
41
1
10
6.40074283404351
20
-6.54070459344027
30
0
41
1
10
6.47451548941581
20
-6.52300104237406
30
0
41
1
10
6.69754132737032
20
-6.48055157902428
30
0
41
1
10
6.84791583505887
20
-6.46631644189236
30
0
41
1
10
7
20
-6.46631644189236
30
0
0
SPLINE
5
164
100
AcDbEntity
8
1
62
256
6
ByLayer
370
18
48
1
60
0
100
AcDbSpline
70
4
71
3
72
8
73
4
40
0
40
0
40
0
40
0
40
1
40
1
40
1
40
1
41
1
10
13.9792740578363
20
-19.1978597439923
30
0
41
1
10
14.3037972905903
20
-18.6130152650312
30
0
41
1
10
14.6274640380016
20
-18.0276930291469
30
0
41
1
10
14.95
20
-17.441758700454
30
0
0
SPLINE
5
165
100
AcDbEntity
8
1
62
256
6
ByLayer
370
18
48
1
60
0
100
AcDbSpline
70
4
71
3
72
65
73
61
40
0
40
0
40
0
40
0
40
0.013026540975753
40
0.013026540975753
40
0.0417563921204503
40
0.0704862432651476
40
0.0704862432651476
40
0.0992160944098449
40
0.0992160944098449
40
0.15667579669924
40
0.15667579669924
40
0.185405647843937
40
0.185405647843937
40
0.214135498988635
40
0.214135498988635
40
0.27159520127803
40
0.27159520127803
40
0.329054903567425
40
0.329054903567425
40
0.357784754712123
40
0.357784754712123
40
0.372149680284471
40
0.372149680284471
40
0.38651460585682
40
0.38651460585682
40
0.443974308146214
40
0.443974308146214
40
0.472704159290912
40
0.472704159290912
40
0.501434010435609
40
0.501434010435609
40
0.558893712725003
40
0.558893712725003
40
0.5876235638697
40
0.5876235638697
40
0.616353415014397
40
0.616353415014397
40
0.645083266159094
40
0.645083266159094
40
0.659448191731442
40
0.659448191731442
40
0.67381311730379
40
0.67381311730379
40
0.731272819593182
40
0.731272819593182
40
0.760002670737878
40
0.760002670737878
40
0.788732521882574
40
0.788732521882574
40
0.846192224171965
40
0.846192224171965
40
0.903651926461357
40
0.903651926461357
40
0.932381777606052
40
0.932381777606052
40
0.9467467031784
40
0.9467467031784
40
0.961111628750747
40
0.961111628750747
40
1
40
1
40
1
40
1
41
1
10
21.6235035669113
20
-15.9336882035578
30
0
41
1
10
21.5940508771338
20
-15.9269435981666
30
0
41
1
10
21.5663849957387
20
-15.9196453450451
30
0
41
1
10
21.4833230508408
20
-15.8944206254554
30
0
41
1
10
21.3860510377235
20
-15.8541523234146
30
0
41
1
10
21.3221522481268
20
-15.8019926642407
30
0
41
1
10
21.2750682761718
20
-15.7434544848976
30
0
41
1
10
21.2600068073784
20
-15.7108542663295
30
0
41
1
10
21.2408407356538
20
-15.6053548712529
30
0
41
1
10
21.2617909946712
20
-15.5242216052781
30
0
41
1
10
21.3414415887963
20
-15.3868889889909
30
0
41
1
10
21.3763330462061
20
-15.3382369625533
30
0
41
1
10
21.4612332102131
20
-15.2373628947193
30
0
41
1
10
21.5111274044767
20
-15.1851797328573
30
0
41
1
10
21.6822494317589
20
-15.024046780975
30
0
41
1
10
21.8246951386395
20
-14.9104913858745
30
0
41
1
10
22.1670754226593
20
-14.6748347085779
30
0
41
1
10
22.3626688739538
20
-14.5557798547926
30
0
41
1
10
22.6908599632965
20
-14.3800370272361
30
0
41
1
10
22.8061645895373
20
-14.3218960200032
30
0
41
1
10
22.9883512187826
20
-14.2359467629024
30
0
41
1
10
23.0506216941376
20
-14.2075083969334
30
0
41
1
10
23.1783511418765
20
-14.1511698947166
30
0
41
1
10
23.2438906405365
20
-14.1232423048839
30
0
41
1
10
23.5762246740561
20
-13.9867262035118
30
0
41
1
10
23.8593260363439
20
-13.8862289026256
30
0
41
1
10
24.3115343034401
20
-13.7541084945133
30
0
41
1
10
24.466897541277
20
-13.7131903762387
30
0
41
1
10
24.7876455758125
20
-13.6388210922379
30
0
41
1
10
24.9539933066559
20
-13.6052613710216
30
0
41
1
10
25.4555995547447
20
-13.5201301860694
30
0
41
1
10
25.7967366856418
20
-13.4830758997342
30
0
41
1
10
26.3189977027481
20
-13.4603682316057
30
0
41
1
10
26.4954851363185
20
-13.4583027592357
30
0
41
1
10
26.8494850661571
20
-13.4657774440253
30
0
41
1
10
27.0243623061641
20
-13.4752184792242
30
0
41
1
10
27.3700864978367
20
-13.5047625555244
30
0
41
1
10
27.5409329797245
20
-13.5248663782928
30
0
41
1
10
27.7942612336902
20
-13.5625383101255
30
0
41
1
10
27.8782129613383
20
-13.5763490507715
30
0
41
1
10
28.0451387143883
20
-13.6064055825084
30
0
41
1
10
28.1283500126627
20
-13.6227044517843
30
0
41
1
10
28.5381644439878
20
-13.7092897633948
30
0
41
1
10
28.8470267820715
20
-13.7946980216917
30
0
41
1
10
29.2851276676233
20
-13.9402772701859
30
0
41
1
10
29.427543246165
20
-13.9919946211882
30
0
41
1
10
29.7006385056511
20
-14.0990866731889
30
0
41
1
10
29.8311498894079
20
-14.154342974774
30
0
41
1
10
30.2056558203026
20
-14.3237758380148
30
0
41
1
10
30.4328056067534
20
-14.4415706325105
30
0
41
1
10
30.8429212023005
20
-14.6807454875371
30
0
41
1
10
31.0202959971674
20
-14.7988536710359
30
0
41
1
10
31.2462964920962
20
-14.9700556064104
30
0
41
1
10
31.3149203008907
20
-15.0261535015368
30
0
41
1
10
31.4075282772349
20
-15.1084635740217
30
0
41
1
10
31.4366728695684
20
-15.1355943181662
30
0
41
1
10
31.4914244724206
20
-15.1891810342337
30
0
41
1
10
31.5170614977297
20
-15.215677962325
30
0
41
1
10
31.6044389630608
20
-15.3115108821776
30
0
41
1
10
31.6537644958566
20
-15.3772457176746
30
0
41
1
10
31.6885110721228
20
-15.4385192728848
30
0
0
SPLINE
5
166
100
AcDbEntity
8
1
62
256
6
ByLayer
370
18
48
1
60
0
100
AcDbSpline
70
4
71
3
72
16
73
12
40
0
40
0
40
0
40
0
40
0.118195720170733
40
0.118195720170733
40
0.301044512142392
40
0.301044512142392
40
0.48389330411405
40
0.48389330411405
40
0.849590888057366
40
0.849590888057366
40
1
40
1
40
1
40
1
41
1
10
31.6885110721162
20
-15.4385192728732
30
0
41
1
10
31.7051044687986
20
-15.467780757513
30
0
41
1
10
31.7183730082922
20
-15.4960248085798
30
0
41
1
10
31.743672703292
20
-15.5653116842793
30
0
41
1
10
31.751001148118
20
-15.6049043731916
30
0
41
1
10
31.7487798841803
20
-15.6789193303965
30
0
41
1
10
31.739063238003
20
-15.7134436059891
30
0
41
1
10
31.6844294269011
20
-15.8068221912499
30
0
41
1
10
31.6145240205183
20
-15.8563801618438
30
0
41
1
10
31.4678629508192
20
-15.910443929166
30
0
41
1
10
31.4192041756481
20
-15.9243171555344
30
0
41
1
10
31.3647048884506
20
-15.9363365624519
30
0
0
SPLINE
5
167
100
AcDbEntity
8
1
62
256
6
ByLayer
370
18
48
1
60
0
100
AcDbSpline
70
4
71
3
72
19
73
15
40
0
40
0
40
0
40
0
40
0.056406330386396
40
0.150195845300954
40
0.233163250648419
40
0.306944169617776
40
0.371762130099185
40
0.427220807355962
40
0.473671835411076
40
0.521369424920225
40
0.593838658619686
40
0.702926621729662
40
0.878247302845799
40
1
40
1
40
1
40
1
41
1
10
20.9458913167655
20
16.0106018253043
30
0
41
1
10
20.8952309915669
20
16.0058302291699
30
0
41
1
10
20.7626326211592
20
16.0054737618578
30
0
41
1
10
20.5615759891214
20
16.0679995301765
30
0
41
1
10
20.3670792522513
20
16.1753685408633
30
0
41
1
10
20.2196025207981
20
16.304599499612
30
0
41
1
10
20.1150640755101
20
16.4364481084378
30
0
41
1
10
20.048455037037
20
16.5543755384795
30
0
41
1
10
20.0109105591607
20
16.6433897731943
30
0
41
1
10
19.987672909752
20
16.7133188638263
30
0
41
1
10
19.9719993860006
20
16.7748527650147
30
0
41
1
10
19.9610733422712
20
16.8344978067041
30
0
41
1
10
19.9567258210952
20
16.8793995344294
30
0
41
1
10
19.9562420724687
20
16.8960861879899
30
0
41
1
10
19.9567137725202
20
16.9001241195904
30
0
0
SPLINE
5
168
100
AcDbEntity
8
1
62
256
6
ByLayer
370
18
48
1
60
0
100
AcDbSpline
70
4
71
3
72
9
73
5
40
0
40
0
40
0
40
0
40
0.584625575464551
40
1
40
1
40
1
40
1
41
1
10
19.959013624642
20
-16.8592088451731
30
0
41
1
10
19.9599414617667
20
-16.8407127921741
30
0
41
1
10
19.9603133475836
20
-16.8200013312538
30
0
41
1
10
19.9644235799023
20
-16.802303582786
30
0
41
1
10
19.9643286146732
20
-16.8020671033776
30
0
0
SPLINE
5
169
100
AcDbEntity
8
1
62
256
6
ByLayer
370
18
48
1
60
0
100
AcDbSpline
70
4
71
3
72
10
73
6
40
0
40
0
40
0
40
0
40
2.60047896548E-05
40
0.632834484924144
40
1
40
1
40
1
40
1
41
1
10
19.9637965567807
20
-16.803603380973
30
0
41
1
10
19.9637962653208
20
-16.8036043376606
30
0
41
1
10
19.9630229854283
20
-16.8061425569383
30
0
41
1
10
19.9603377979396
20
-16.815433397949
30
0
41
1
10
19.9534340630879
20
-16.8740297196399
30
0
41
1
10
19.9504300733181
20
-16.9000517219015
30
0
0
SPLINE
5
16A
100
AcDbEntity
8
1
62
256
6
ByLayer
370
18
48
1
60
0
100
AcDbSpline
70
4
71
3
72
17
73
13
40
0
40
0
40
0
40
0
40
0.19596961491109
40
0.370832165311564
40
0.484298412428998
40
0.552311559795953
40
0.608988194731647
40
0.682425915326338
40
0.770302498812167
40
0.86229914697098
40
0.966183386282523
40
1
40
1
40
1
40
1
41
1
10
19.9566298937519
20
-16.9003895747401
30
0
41
1
10
19.9555479982434
20
-16.8924611109369
30
0
41
1
10
19.957868382579
20
-16.8625698506696
30
0
41
1
10
19.9667869927108
20
-16.7990662615864
30
0
41
1
10
19.9854757395564
20
-16.7163362995765
30
0
41
1
10
20.0268592648093
20
-16.5995426364806
30
0
41
1
10
20.0968832389216
20
-16.4634353888275
30
0
41
1
10
20.2083005542516
20
-16.3139891421601
30
0
41
1
10
20.375047481835
20
-16.1670094595795
30
0
41
1
10
20.5960801726473
20
-16.0537551853351
30
0
41
1
10
20.7948514902637
20
-15.9978721496395
30
0
41
1
10
20.9148384250669
20
-16.00521311793
30
0
41
1
10
20.9445501735204
20
-16.0088111087312
30
0
0
INSERT
5
181
100
AcDbEntity
8
SK6
62
256
6
ByLayer
370
18
48
1
60
0
100
AcDbBlockReference
2
LABLE3D_1
10
-22.4
20
29.975
30
0
41
1
42
1
43
1
50
0
210
0
220
0
230
1
0
LINE
5
87
100
AcDbEntity
8
1
62
256
6
ByLayer
370
13
48
1
60
0
100
AcDbLine
10
30.58
20
-16.7
30
0
11
30.58
21
-15.198375
31
0
39
0
210
0
220
0
230
1
0
LINE
5
88
100
AcDbEntity
8
1
62
256
6
ByLayer
370
13
48
1
60
0
100
AcDbLine
10
22.42
20
-16.7
30
0
11
22.42
21
-15.21075
31
0
39
0
210
0
220
0
230
1
0
LINE
5
89
100
AcDbEntity
8
1
62
256
6
ByLayer
370
18
48
1
60
0
100
AcDbLine
10
30.595
20
-16.7
30
0
11
22.405
21
-16.7
31
0
39
0
210
0
220
0
230
1
0
LINE
5
8A
100
AcDbEntity
8
1
62
256
6
ByLayer
370
18
48
1
60
0
100
AcDbLine
10
31.5
20
-15.795
30
0
11
21.5
21
-15.795
31
0
39
0
210
0
220
0
230
1
0
LINE
5
8B
100
AcDbEntity
8
SK1
62
256
6
ByLayer
370
18
48
1
60
0
100
AcDbLine
10
-19.9
20
11.803636
30
0
11
-19.9
21
11.371839
31
0
39
0
210
0
220
0
230
1
0
LINE
5
8D
100
AcDbEntity
8
SK1
62
256
6
ByLayer
370
18
48
1
60
0
100
AcDbLine
10
-19.9
20
-11.371839
30
0
11
-19.9
21
-11.803636
31
0
39
0
210
0
220
0
230
1
0
LINE
5
8E
100
AcDbEntity
8
SK1
62
256
6
ByLayer
370
18
48
1
60
0
100
AcDbLine
10
-19.9
20
-11.371839
30
0
11
-19.9
21
11.371839
31
0
39
0
210
0
220
0
230
1
0
LINE
5
8F
100
AcDbEntity
8
SK1
62
256
6
ByLayer
370
13
48
1
60
0
100
AcDbLine
10
-17.2
20
12.855
30
0
11
-17.2
21
12.653193
31
0
39
0
210
0
220
0
230
1
0
LINE
5
90
100
AcDbEntity
8
1
62
256
6
ByLayer
370
18
48
1
60
0
100
AcDbLine
10
14.95
20
17.727861
30
0
11
14.95
21
13.936831
31
0
39
0
210
0
220
0
230
1
0
LINE
5
91
100
AcDbEntity
8
SK1
62
256
6
ByLayer
370
13
48
1
60
0
100
AcDbLine
10
-14.7
20
-12.650092
30
0
11
-14.7
21
-12.855
31
0
39
0
210
0
220
0
230
1
0
LINE
5
92
100
AcDbEntity
8
SK1
62
256
6
ByLayer
370
13
48
1
60
0
100
AcDbLine
10
-17.197123
20
-12.650092
30
0
11
-14.7
21
-12.650092
31
0
39
0
210
0
220
0
230
1
0
LINE
5
93
100
AcDbEntity
8
SK1
62
256
6
ByLayer
370
13
48
1
60
0
100
AcDbLine
10
-14.7
20
-12.650092
30
0
11
-14.7
21
-11.90554
31
0
39
0
210
0
220
0
230
1
0
LINE
5
94
100
AcDbEntity
8
SK1
62
256
6
ByLayer
370
13
48
1
60
0
100
AcDbLine
10
-19.9
20
11.803636
30
0
11
-19.04247
21
12.567701
31
0
39
0
210
0
220
0
230
1
0
LINE
5
95
100
AcDbEntity
8
1
62
256
6
ByLayer
370
18
48
1
60
0
100
AcDbLine
10
15.35
20
16.9
30
0
11
16.65
21
16.9
31
0
39
0
210
0
220
0
230
1
0
LINE
5
96
100
AcDbEntity
8
SK1
62
256
6
ByLayer
370
13
48
1
60
0
100
AcDbLine
10
-19.9
20
-11.803636
30
0
11
-19.04247
21
-12.567701
31
0
39
0
210
0
220
0
230
1
0
LINE
5
97
100
AcDbEntity
8
1
62
256
6
ByLayer
370
18
48
1
60
0
100
AcDbLine
10
19.95
20
18.944522
30
0
11
19.95
21
15.454874
31
0
39
0
210
0
220
0
230
1
0
LINE
5
98
100
AcDbEntity
8
1
62
256
6
ByLayer
370
18
48
1
60
0
100
AcDbLine
10
17.05
20
13.936831
30
0
11
17.05
21
13.248703
31
0
39
0
210
0
220
0
230
1
0
LINE
5
99
100
AcDbEntity
8
1
62
256
6
ByLayer
370
18
48
1
60
0
100
AcDbLine
10
14.95
20
13.248703
30
0
11
14.95
21
13.936831
31
0
39
0
210
0
220
0
230
1
0
LINE
5
9A
100
AcDbEntity
8
1
62
256
6
ByLayer
370
18
48
1
60
0
100
AcDbLine
10
19.95
20
15.454874
30
0
11
19.95
21
12.189237
31
0
39
0
210
0
220
0
230
1
0
LINE
5
9B
100
AcDbEntity
8
1
62
256
6
ByLayer
370
18
48
1
60
0
100
AcDbLine
10
19.45
20
16.080365
30
0
11
19.45
21
19.458158
31
0
39
0
210
0
220
0
230
1
0
LINE
5
9C
100
AcDbEntity
8
1
62
256
6
ByLayer
370
18
48
1
60
0
100
AcDbLine
10
17.05
20
17.727861
30
0
11
17.05
21
13.936831
31
0
39
0
210
0
220
0
230
1
0
LINE
5
9D
100
AcDbEntity
8
1
62
256
6
ByLayer
370
18
48
1
60
0
100
AcDbLine
10
15.35
20
12.707011
30
0
11
16.65
21
12.707011
31
0
39
0
210
0
220
0
230
1
0
LINE
5
9E
100
AcDbEntity
8
1
62
256
6
ByLayer
370
18
48
1
60
0
100
AcDbLine
10
18.020726
20
16.080365
30
0
11
18.020726
21
19.458158
31
0
39
0
210
0
220
0
230
1
0
LINE
5
9F
100
AcDbEntity
8
1
62
256
6
ByLayer
370
13
48
1
60
0
100
AcDbLine
10
15.35
20
16.9
30
0
11
15.35
21
12.707011
31
0
39
0
210
0
220
0
230
1
0
LINE
5
A0
100
AcDbEntity
8
1
62
256
6
ByLayer
370
18
48
1
60
0
100
AcDbLine
10
18.020726
20
19.458158
30
0
11
19.45
21
19.458158
31
0
39
0
210
0
220
0
230
1
0
LINE
5
A1
100
AcDbEntity
8
1
62
256
6
ByLayer
370
13
48
1
60
0
100
AcDbLine
10
16.65
20
12.707011
30
0
11
16.65
21
16.9
31
0
39
0
210
0
220
0
230
1
0
LINE
5
A2
100
AcDbEntity
8
1
62
256
6
ByLayer
370
18
48
1
60
0
100
AcDbLine
10
18.020726
20
16.080365
30
0
11
19.45
21
16.080365
31
0
39
0
210
0
220
0
230
1
0
LINE
5
A3
100
AcDbEntity
8
1
62
256
6
ByLayer
370
18
48
1
60
0
100
AcDbLine
10
15.35
20
11.85
30
0
11
16.65
21
11.85
31
0
39
0
210
0
220
0
230
1
0
LINE
5
A4
100
AcDbEntity
8
1
62
256
6
ByLayer
370
13
48
1
60
0
100
AcDbLine
10
69.008378
20
-11.182355
30
0
11
69.008378
21
11.182355
31
0
39
0
210
0
220
0
230
1
0
LINE
5
A5
100
AcDbEntity
8
1
62
256
6
ByLayer
370
13
48
1
60
0
100
AcDbLine
10
60.42319
20
-12.696155
30
0
11
60.42319
21
0
31
0
39
0
210
0
220
0
230
1
0
LINE
5
A6
100
AcDbEntity
8
1
62
256
6
ByLayer
370
13
48
1
60
0
100
AcDbLine
10
60.42319
20
0
30
0
11
60.42319
21
12.696155
31
0
39
0
210
0
220
0
230
1
0
LINE
5
A7
100
AcDbEntity
8
1
62
256
6
ByLayer
370
13
48
1
60
0
100
AcDbLine
10
56.950227
20
13
30
0
11
56.950227
21
-13
31
0
39
0
210
0
220
0
230
1
0
LINE
5
A8
100
AcDbEntity
8
1
62
256
6
ByLayer
370
18
48
1
60
0
100
AcDbLine
10
16.65
20
-16.9
30
0
11
15.35
21
-16.9
31
0
39
0
210
0
220
0
230
1
0
LINE
5
A9
100
AcDbEntity
8
1
62
256
6
ByLayer
370
13
48
1
60
0
100
AcDbLine
10
36.750519
20
-13
30
0
11
36.750519
21
0
31
0
39
0
210
0
220
0
230
1
0
LINE
5
AA
100
AcDbEntity
8
1
62
256
6
ByLayer
370
13
48
1
60
0
100
AcDbLine
10
36.750519
20
0
30
0
11
36.750519
21
13
31
0
39
0
210
0
220
0
230
1
0
LINE
5
AB
100
AcDbEntity
8
SK1
62
256
6
ByLayer
370
18
48
1
60
0
100
AcDbLine
10
-1.566987
20
14.8537
30
0
11
-1.566987
21
-14.8537
31
0
39
0
210
0
220
0
230
1
0
LINE
5
AC
100
AcDbEntity
8
SK1
62
256
6
ByLayer
370
18
48
1
60
0
100
AcDbLine
10
-13.8
20
-13.613347
30
0
11
-13.8
21
-14.512518
31
0
39
0
210
0
220
0
230
1
0
LINE
5
AD
100
AcDbEntity
8
SK1
62
256
6
ByLayer
370
18
48
1
60
0
100
AcDbLine
10
-16.3
20
14.387268
30
0
11
-16.3
21
13.546026
31
0
39
0
210
0
220
0
230
1
0
LINE
5
AE
100
AcDbEntity
8
SK1
62
256
6
ByLayer
370
13
48
1
60
0
100
AcDbLine
10
-19.14003
20
11.860162
30
0
11
-19.14003
21
-11.860162
31
0
39
0
210
0
220
0
230
1
0
LINE
5
AF
100
AcDbEntity
8
SK1
62
256
6
ByLayer
370
18
48
1
60
0
100
AcDbLine
10
-2
20
15.1037
30
0
11
-2
21
-15.1037
31
0
39
0
210
0
220
0
230
1
0
LINE
5
B0
100
AcDbEntity
8
SK1
62
256
6
ByLayer
370
13
48
1
60
0
100
AcDbLine
10
-0.25
20
-14.8537
30
0
11
-0.25
21
14.8537
31
0
39
0
210
0
220
0
230
1
0
LINE
5
B1
100
AcDbEntity
8
1
62
256
6
ByLayer
370
13
48
1
60
0
100
AcDbLine
10
34.401287
20
-14.64495
30
0
11
34.401287
21
14.64495
31
0
39
0
210
0
220
0
230
1
0
LINE
5
B2
100
AcDbEntity
8
1
62
256
6
ByLayer
370
13
48
1
60
0
100
AcDbLine
10
34.147574
20
15.34202
30
0
11
34.147574
21
-15.34202
31
0
39
0
210
0
220
0
230
1
0
LINE
5
B3
100
AcDbEntity
8
1
62
256
6
ByLayer
370
13
48
1
60
0
100
AcDbLine
10
33.207882
20
-16
30
0
11
33.207882
21
15.924928
31
0
39
0
210
0
220
0
230
1
0
LINE
5
B4
100
AcDbEntity
8
1
62
256
6
ByLayer
370
13
48
1
60
0
100
AcDbLine
10
12.44367
20
11.85
30
0
11
12.44367
21
16.080365
31
0
39
0
210
0
220
0
230
1
0
LINE
5
B5
100
AcDbEntity
8
1
62
256
6
ByLayer
370
13
48
1
60
0
100
AcDbLine
10
20.95
20
15.905882
30
0
11
20.95
21
-15.905882
31
0
39
0
210
0
220
0
230
1
0
LINE
5
B6
100
AcDbEntity
8
1
62
256
6
ByLayer
370
13
48
1
60
0
100
AcDbLine
10
16.65
20
-8.021064
30
0
11
16.65
21
-5.226718
31
0
39
0
210
0
220
0
230
1
0
LINE
5
B7
100
AcDbEntity
8
1
62
256
6
ByLayer
370
13
48
1
60
0
100
AcDbLine
10
16.65
20
-16.9
30
0
11
16.65
21
-9.337309
31
0
39
0
210
0
220
0
230
1
0
LINE
5
B8
100
AcDbEntity
8
1
62
256
6
ByLayer
370
13
48
1
60
0
100
AcDbLine
10
16.65
20
9.337309
30
0
11
16.65
21
11.85
31
0
39
0
210
0
220
0
230
1
0
LINE
5
B9
100
AcDbEntity
8
1
62
256
6
ByLayer
370
13
48
1
60
0
100
AcDbLine
10
16.65
20
5.226718
30
0
11
16.65
21
8.021064
31
0
39
0
210
0
220
0
230
1
0
LINE
5
BA
100
AcDbEntity
8
1
62
256
6
ByLayer
370
13
48
1
60
0
100
AcDbLine
10
16.65
20
-3.758638
30
0
11
16.65
21
3.758638
31
0
39
0
210
0
220
0
230
1
0
LINE
5
BB
100
AcDbEntity
8
1
62
256
6
ByLayer
370
13
48
1
60
0
100
AcDbLine
10
15.35
20
-9.337309
30
0
11
15.35
21
-16.9
31
0
39
0
210
0
220
0
230
1
0
LINE
5
BC
100
AcDbEntity
8
1
62
256
6
ByLayer
370
13
48
1
60
0
100
AcDbLine
10
15.35
20
-5.226718
30
0
11
15.35
21
-8.021064
31
0
39
0
210
0
220
0
230
1
0
LINE
5
BD
100
AcDbEntity
8
1
62
256
6
ByLayer
370
13
48
1
60
0
100
AcDbLine
10
15.35
20
3.758638
30
0
11
15.35
21
-3.758638
31
0
39
0
210
0
220
0
230
1
0
LINE
5
BE
100
AcDbEntity
8
1
62
256
6
ByLayer
370
18
48
1
60
0
100
AcDbLine
10
19.95
20
11.85
30
0
11
19.95
21
-18.677067
31
0
39
0
210
0
220
0
230
1
0
LINE
5
BF
100
AcDbEntity
8
1
62
256
6
ByLayer
370
13
48
1
60
0
100
AcDbLine
10
15.35
20
8.021064
30
0
11
15.35
21
5.226718
31
0
39
0
210
0
220
0
230
1
0
LINE
5
C0
100
AcDbEntity
8
1
62
256
6
ByLayer
370
18
48
1
60
0
100
AcDbLine
10
7.95
20
-19.949068
30
0
11
7.95
21
-19.975
31
0
39
0
210
0
220
0
230
1
0
LINE
5
C1
100
AcDbEntity
8
1
62
256
6
ByLayer
370
13
48
1
60
0
100
AcDbLine
10
15.35
20
11.85
30
0
11
15.35
21
9.337309
31
0
39
0
210
0
220
0
230
1
0
LINE
5
C2
100
AcDbEntity
8
1
62
256
6
ByLayer
370
18
48
1
60
0
100
AcDbLine
10
19.45
20
-19.19786
30
0
11
19.45
21
11.85
31
0
39
0
210
0
220
0
230
1
0
LINE
5
C3
100
AcDbEntity
8
1
62
256
6
ByLayer
370
18
48
1
60
0
100
AcDbLine
10
19.45
20
11.85
30
0
11
18.020726
21
11.85
31
0
39
0
210
0
220
0
230
1
0
LINE
5
C4
100
AcDbEntity
8
1
62
256
6
ByLayer
370
18
48
1
60
0
100
AcDbLine
10
18.020726
20
-19.19786
30
0
11
18.020726
21
11.85
31
0
39
0
210
0
220
0
230
1
0
LINE
5
C5
100
AcDbEntity
8
1
62
256
6
ByLayer
370
18
48
1
60
0
100
AcDbLine
10
13.979274
20
11.85
30
0
11
13.979274
21
-19.19786
31
0
39
0
210
0
220
0
230
1
0
LINE
5
C6
100
AcDbEntity
8
1
62
256
6
ByLayer
370
18
48
1
60
0
100
AcDbLine
10
17.05
20
11.85
30
0
11
17.05
21
-17.441759
31
0
39
0
210
0
220
0
230
1
0
LINE
5
C7
100
AcDbEntity
8
1
62
256
6
ByLayer
370
18
48
1
60
0
100
AcDbLine
10
13.979274
20
-19.19786
30
0
11
12.45
21
-19.19786
31
0
39
0
210
0
220
0
230
1
0
LINE
5
C8
100
AcDbEntity
8
1
62
256
6
ByLayer
370
18
48
1
60
0
100
AcDbLine
10
13.979274
20
11.85
30
0
11
7.951756
21
11.85
31
0
39
0
210
0
220
0
230
1
0
LINE
5
C9
100
AcDbEntity
8
1
62
256
6
ByLayer
370
18
48
1
60
0
100
AcDbLine
10
14.95
20
11.85
30
0
11
14.95
21
-17.441759
31
0
39
0
210
0
220
0
230
1
0
LINE
5
CA
100
AcDbEntity
8
1
62
256
6
ByLayer
370
18
48
1
60
0
100
AcDbLine
10
12.44367
20
16.080365
30
0
11
13.979274
21
16.080365
31
0
39
0
210
0
220
0
230
1
0
LINE
5
CB
100
AcDbEntity
8
1
62
256
6
ByLayer
370
18
48
1
60
0
100
AcDbLine
10
13.979274
20
19.458158
30
0
11
13.979274
21
16.080365
31
0
39
0
210
0
220
0
230
1
0
LINE
5
CC
100
AcDbEntity
8
1
62
256
6
ByLayer
370
18
48
1
60
0
100
AcDbLine
10
22.5
20
15.924928
30
0
11
33.207882
21
15.924928
31
0
39
0
210
0
220
0
230
1
0
LINE
5
CD
100
AcDbEntity
8
1
62
256
6
ByLayer
370
18
48
1
60
0
100
AcDbLine
10
12.4545
20
19.458158
30
0
11
13.979274
21
19.458158
31
0
39
0
210
0
220
0
230
1
0
LINE
5
CE
100
AcDbEntity
8
1
62
256
6
ByLayer
370
18
48
1
60
0
100
AcDbLine
10
7.95
20
19.975
30
0
11
7.95
21
19.974997
31
0
39
0
210
0
220
0
230
1
0
LINE
5
CF
100
AcDbEntity
8
1
62
256
6
ByLayer
370
18
48
1
60
0
100
AcDbLine
10
0.5
20
0
30
0
11
0.5
21
-19.975
31
0
39
0
210
0
220
0
230
1
0
LINE
5
D0
100
AcDbEntity
8
1
62
256
6
ByLayer
370
18
48
1
60
0
100
AcDbLine
10
0.5
20
19.975
30
0
11
0.5
21
0
31
0
39
0
210
0
220
0
230
1
0
LINE
5
D1
100
AcDbEntity
8
1
62
256
6
ByLayer
370
18
48
1
60
0
100
AcDbLine
10
0
20
19.475
30
0
11
0
21
-19.475
31
0
39
0
210
0
220
0
230
1
0
LINE
5
D2
100
AcDbEntity
8
1
62
256
6
ByLayer
370
18
48
1
60
0
100
AcDbLine
10
19.45
20
-19.19786
30
0
11
18.020726
21
-19.19786
31
0
39
0
210
0
220
0
230
1
0
LINE
5
D3
100
AcDbEntity
8
SK1
62
256
6
ByLayer
370
18
48
1
60
0
100
AcDbLine
10
-19.9
20
11.905
30
0
11
-19.9
21
11.803636
31
0
39
0
210
0
220
0
230
1
0
LINE
5
D4
100
AcDbEntity
8
SK1
62
256
6
ByLayer
370
18
48
1
60
0
100
AcDbLine
10
-19.9
20
-11.905
30
0
11
-19.9
21
-11.803636
31
0
39
0
210
0
220
0
230
1
0
LINE
5
D5
100
AcDbEntity
8
SK1
62
256
6
ByLayer
370
18
48
1
60
0
100
AcDbLine
10
-18.95
20
12.855
30
0
11
-18.95
21
12.829784
31
0
39
0
210
0
220
0
230
1
0
LINE
5
D6
100
AcDbEntity
8
SK1
62
256
6
ByLayer
370
18
48
1
60
0
100
AcDbLine
10
-18.95
20
-12.855
30
0
11
-18.95
21
-12.829784
31
0
39
0
210
0
220
0
230
1
0
LINE
5
D7
100
AcDbEntity
8
1
62
256
6
ByLayer
370
18
48
1
60
0
100
AcDbLine
10
70
20
-10.000586
30
0
11
70
21
10.000586
31
0
39
0
210
0
220
0
230
1
0
LINE
5
D8
100
AcDbEntity
8
SK4
62
256
6
ByLayer
370
18
48
0.05
60
0
100
AcDbLine
10
-29.9
20
0
30
0
11
80
21
0
31
0
39
0
210
0
220
0
230
1
0
LINE
5
DA
100
AcDbEntity
8
SK1
62
256
6
ByLayer
370
18
48
1
60
0
100
AcDbLine
10
-18.95
20
12.855
30
0
11
-19.9
21
11.905
31
0
39
0
210
0
220
0
230
1
0
LINE
5
DB
100
AcDbEntity
8
SK1
62
256
6
ByLayer
370
18
48
1
60
0
100
AcDbLine
10
-19.9
20
-11.905
30
0
11
-18.95
21
-12.855
31
0
39
0
210
0
220
0
230
1
0
LINE
5
DC
100
AcDbEntity
8
SK1
62
256
6
ByLayer
370
18
48
1
60
0
100
AcDbLine
10
-18.95
20
-12.855
30
0
11
-14.7
21
-12.855
31
0
39
0
210
0
220
0
230
1
0
LINE
5
DD
100
AcDbEntity
8
SK1
62
256
6
ByLayer
370
18
48
1
60
0
100
AcDbLine
10
-17.2
20
12.855
30
0
11
-18.95
21
12.855
31
0
39
0
210
0
220
0
230
1
0
LINE
5
DE
100
AcDbEntity
8
1
62
256
6
ByLayer
370
18
48
1
60
0
100
AcDbLine
10
69.008378
20
11.182355
30
0
11
60.42319
21
12.696155
31
0
39
0
210
0
220
0
230
1
0
LINE
5
DF
100
AcDbEntity
8
1
62
256
6
ByLayer
370
18
48
1
60
0
100
AcDbLine
10
60.42319
20
-12.696155
30
0
11
69.008378
21
-11.182355
31
0
39
0
210
0
220
0
230
1
0
LINE
5
E0
100
AcDbEntity
8
1
62
256
6
ByLayer
370
18
48
1
60
0
100
AcDbLine
10
56.950227
20
13
30
0
11
36.750519
21
13
31
0
39
0
210
0
220
0
230
1
0
LINE
5
E1
100
AcDbEntity
8
1
62
256
6
ByLayer
370
18
48
1
60
0
100
AcDbLine
10
36.750519
20
-13
30
0
11
56.950227
21
-13
31
0
39
0
210
0
220
0
230
1
0
LINE
5
E2
100
AcDbEntity
8
SK1
62
256
6
ByLayer
370
18
48
1
60
0
100
AcDbLine
10
-1.566987
20
-14.8537
30
0
11
-0.25
21
-14.8537
31
0
39
0
210
0
220
0
230
1
0
LINE
5
E3
100
AcDbEntity
8
SK1
62
256
6
ByLayer
370
18
48
1
60
0
100
AcDbLine
10
-0.25
20
14.8537
30
0
11
-1.566987
21
14.8537
31
0
39
0
210
0
220
0
230
1
0
LINE
5
E4
100
AcDbEntity
8
SK1
62
256
6
ByLayer
370
18
48
1
60
0
100
AcDbLine
10
-1.566987
20
14.8537
30
0
11
-2
21
15.1037
31
0
39
0
210
0
220
0
230
1
0
LINE
5
E5
100
AcDbEntity
8
SK1
62
256
6
ByLayer
370
18
48
1
60
0
100
AcDbLine
10
-2
20
-15.1037
30
0
11
-1.566987
21
-14.8537
31
0
39
0
210
0
220
0
230
1
0
LINE
5
E6
100
AcDbEntity
8
SK1
62
256
6
ByLayer
370
18
48
1
60
0
100
AcDbLine
10
-13.8
20
-14.512518
30
0
11
-8.766678
21
-14.764688
31
0
39
0
210
0
220
0
230
1
0
LINE
5
E7
100
AcDbEntity
8
SK1
62
256
6
ByLayer
370
18
48
1
60
0
100
AcDbLine
10
-2.926926
20
-15.057261
30
0
11
-2
21
-15.1037
31
0
39
0
210
0
220
0
230
1
0
LINE
5
E8
100
AcDbEntity
8
SK1
62
256
6
ByLayer
370
18
48
1
60
0
100
AcDbLine
10
-2
20
15.1037
30
0
11
-2.9318
21
15.057017
31
0
39
0
210
0
220
0
230
1
0
LINE
5
E9
100
AcDbEntity
8
SK1
62
256
6
ByLayer
370
18
48
1
60
0
100
AcDbLine
10
-8.799173
20
14.76306
30
0
11
-16.3
21
14.387268
31
0
39
0
210
0
220
0
230
1
0
LINE
5
EA
100
AcDbEntity
8
1
62
256
6
ByLayer
370
18
48
1
60
0
100
AcDbLine
10
34.401287
20
14.64495
30
0
11
34.147574
21
15.34202
31
0
39
0
210
0
220
0
230
1
0
LINE
5
EB
100
AcDbEntity
8
1
62
256
6
ByLayer
370
18
48
1
60
0
100
AcDbLine
10
34.147574
20
-15.34202
30
0
11
34.401287
21
-14.64495
31
0
39
0
210
0
220
0
230
1
0
LINE
5
EC
100
AcDbEntity
8
1
62
256
6
ByLayer
370
18
48
1
60
0
100
AcDbLine
10
21.919978
20
16
30
0
11
20.945855
21
16
31
0
39
0
210
0
220
0
230
1
0
LINE
5
ED
100
AcDbEntity
8
1
62
256
6
ByLayer
370
18
48
1
60
0
100
AcDbLine
10
20.945855
20
-16
30
0
11
21.705018
21
-16
31
0
39
0
210
0
220
0
230
1
0
LINE
5
EE
100
AcDbEntity
8
1
62
256
6
ByLayer
370
18
48
1
60
0
100
AcDbLine
10
31.295026
20
-16
30
0
11
33.207882
21
-16
31
0
39
0
210
0
220
0
230
1
0
LINE
5
EF
100
AcDbEntity
8
1
62
256
6
ByLayer
370
18
48
1
60
0
100
AcDbLine
10
0
20
-19.475
30
0
11
0.5
21
-19.975
31
0
39
0
210
0
220
0
230
1
0
LINE
5
F0
100
AcDbEntity
8
1
62
256
6
ByLayer
370
18
48
1
60
0
100
AcDbLine
10
0.5
20
19.975
30
0
11
0
21
19.475
31
0
39
0
210
0
220
0
230
1
0
LINE
5
F1
100
AcDbEntity
8
1
62
256
6
ByLayer
370
18
48
1
60
0
100
AcDbLine
10
0.5
20
-19.975
30
0
11
7.95
21
-19.975
31
0
39
0
210
0
220
0
230
1
0
LINE
5
F2
100
AcDbEntity
8
1
62
256
6
ByLayer
370
18
48
1
60
0
100
AcDbLine
10
7.95
20
19.975
30
0
11
7.949179
21
19.975
31
0
39
0
210
0
220
0
230
1
0
LINE
5
F3
100
AcDbEntity
8
1
62
256
6
ByLayer
370
18
48
1
60
0
100
AcDbLine
10
7.949179
20
19.975
30
0
11
7.948836
21
19.975
31
0
39
0
210
0
220
0
230
1
0
LINE
5
F4
100
AcDbEntity
8
1
62
256
6
ByLayer
370
18
48
1
60
0
100
AcDbLine
10
7.948836
20
19.975
30
0
11
0.5
21
19.975
31
0
39
0
210
0
220
0
230
1
0
LINE
5
F5
100
AcDbEntity
8
1
62
256
6
ByLayer
370
18
48
1
60
0
100
AcDbLine
10
30.595
20
-16.7
30
0
11
31.5
21
-15.795
31
0
39
0
210
0
220
0
230
1
0
LINE
5
F6
100
AcDbEntity
8
1
62
256
6
ByLayer
370
18
48
1
60
0
100
AcDbLine
10
21.5
20
-15.795
30
0
11
22.405
21
-16.7
31
0
39
0
210
0
220
0
230
1
0
LINE
5
F7
100
AcDbEntity
8
1
62
256
6
ByLayer
370
18
48
1
60
0
100
AcDbLine
10
21.5
20
-15.2108
30
0
11
21.5
21
-15.795
31
0
39
0
210
0
220
0
230
1
0
LINE
5
F8
100
AcDbEntity
8
1
62
256
6
ByLayer
370
18
48
1
60
0
100
AcDbLine
10
31.5
20
-15.795
30
0
11
31.5
21
-15.198407
31
0
39
0
210
0
220
0
230
1
0
LINE
5
F9
100
AcDbEntity
8
SK3
62
256
6
ByLayer
370
18
48
0.05
60
0
100
AcDbLine
10
34.5
20
-3
30
0
11
34.5
21
3
31
0
39
0
210
0
220
0
230
1
0
LINE
5
FB
100
AcDbEntity
8
SK3
62
256
6
ByLayer
370
18
48
0.05
60
0
100
AcDbLine
10
33
20
-1.5
30
0
11
34.5
21
-3
31
0
39
0
210
0
220
0
230
1
0
LINE
5
FC
100
AcDbEntity
8
SK3
62
256
6
ByLayer
370
18
48
0.05
60
0
100
AcDbLine
10
34.5
20
3
30
0
11
33
21
1.5
31
0
39
0
210
0
220
0
230
1
0
LINE
5
FD
100
AcDbEntity
8
SK3
62
256
6
ByLayer
370
18
48
0.05
60
0
100
AcDbLine
10
70
20
3
30
0
11
34.5
21
3
31
0
39
0
210
0
220
0
230
1
0
LINE
5
FE
100
AcDbEntity
8
81
62
256
6
ByLayer
370
18
48
1
60
0
100
AcDbLine
10
70
20
0
30
0
11
74.742527
21
0
31
0
39
0
210
0
220
0
230
1
0
LINE
5
FF
100
AcDbEntity
8
80
62
256
6
ByLayer
370
18
48
1
60
0
100
AcDbLine
10
0
20
0
30
0
11
-10.875929
21
0
31
0
39
0
210
0
220
0
230
1
0
LINE
5
100
100
AcDbEntity
8
4
62
256
6
ByLayer
370
18
48
0.05
60
0
100
AcDbLine
10
70
20
0
30
0
11
0
21
0
31
0
39
0
210
0
220
0
230
1
0
LINE
5
102
100
AcDbEntity
8
SK3
62
256
6
ByLayer
370
18
48
0.05
60
0
100
AcDbLine
10
34.5
20
-3
30
0
11
70
21
-3
31
0
39
0
210
0
220
0
230
1
0
LINE
5
103
100
AcDbEntity
8
SK3
62
256
6
ByLayer
370
18
48
0.05
60
0
100
AcDbLine
10
33
20
1.5
30
0
11
33
21
-1.5
31
0
39
0
210
0
220
0
230
1
0
LINE
5
104
100
AcDbEntity
8
SK2
62
256
6
ByLayer
370
13
48
1
60
0
100
AcDbLine
10
-56
20
-19.975
30
0
11
-56
21
19.975
31
0
39
0
210
0
220
0
230
1
0
LINE
5
106
100
AcDbEntity
8
SK2
62
256
6
ByLayer
370
13
48
1
60
0
100
AcDbLine
10
-1.5875
20
19.975
30
0
11
-58
21
19.975
31
0
39
0
210
0
220
0
230
1
0
LINE
5
107
100
AcDbEntity
8
SK2
62
256
6
ByLayer
370
13
48
1
60
0
100
AcDbLine
10
-1.5875
20
-19.975
30
0
11
-58
21
-19.975
31
0
39
0
210
0
220
0
230
1
0
LINE
5
108
100
AcDbEntity
8
1
62
256
6
ByLayer
370
18
48
1
60
1
100
AcDbLine
10
-56
20
19.975
30
0
11
-55.002374
21
15.475004
31
0
39
0
210
0
220
0
230
1
0
LINE
5
109
100
AcDbEntity
8
1
62
256
6
ByLayer
370
18
48
1
60
1
100
AcDbLine
10
-55.002374
20
15.475004
30
0
11
-56.997626
21
15.474996
31
0
39
0
210
0
220
0
230
1
0
LINE
5
10A
100
AcDbEntity
8
1
62
256
6
ByLayer
370
18
48
1
60
1
100
AcDbLine
10
-56.997626
20
15.474996
30
0
11
-56
21
19.975
31
0
39
0
210
0
220
0
230
1
0
LINE
5
10B
100
AcDbEntity
8
1
62
256
6
ByLayer
370
18
48
1
60
1
100
AcDbLine
10
-56
20
-19.975
30
0
11
-56.997626
21
-15.475004
31
0
39
0
210
0
220
0
230
1
0
LINE
5
10C
100
AcDbEntity
8
1
62
256
6
ByLayer
370
18
48
1
60
1
100
AcDbLine
10
-56.997626
20
-15.475004
30
0
11
-55.002374
21
-15.474996
31
0
39
0
210
0
220
0
230
1
0
LINE
5
10D
100
AcDbEntity
8
1
62
256
6
ByLayer
370
18
48
1
60
1
100
AcDbLine
10
-55.002374
20
-15.474996
30
0
11
-56
21
-19.975
31
0
39
0
210
0
220
0
230
1
0
LINE
5
16F
100
AcDbEntity
8
1
62
256
6
ByLayer
370
18
48
1
60
1
100
AcDbLine
10
-56
20
19.975
30
0
11
-55.002374
21
15.475004
31
0
39
0
210
0
220
0
230
1
0
LINE
5
170
100
AcDbEntity
8
1
62
256
6
ByLayer
370
18
48
1
60
1
100
AcDbLine
10
-55.002374
20
15.475004
30
0
11
-56.997626
21
15.474996
31
0
39
0
210
0
220
0
230
1
0
LINE
5
171
100
AcDbEntity
8
1
62
256
6
ByLayer
370
18
48
1
60
1
100
AcDbLine
10
-56.997626
20
15.474996
30
0
11
-56
21
19.975
31
0
39
0
210
0
220
0
230
1
0
LINE
5
173
100
AcDbEntity
8
1
62
256
6
ByLayer
370
18
48
1
60
1
100
AcDbLine
10
-56
20
-19.975
30
0
11
-56.997626
21
-15.475004
31
0
39
0
210
0
220
0
230
1
0
LINE
5
174
100
AcDbEntity
8
1
62
256
6
ByLayer
370
18
48
1
60
1
100
AcDbLine
10
-56.997626
20
-15.475004
30
0
11
-55.002374
21
-15.474996
31
0
39
0
210
0
220
0
230
1
0
LINE
5
175
100
AcDbEntity
8
1
62
256
6
ByLayer
370
18
48
1
60
1
100
AcDbLine
10
-55.002374
20
-15.474996
30
0
11
-56
21
-19.975
31
0
39
0
210
0
220
0
230
1
0
LINE
5
17C
100
AcDbEntity
8
SK6
62
256
6
ByLayer
370
13
48
1
60
0
100
AcDbLine
10
-23.9
20
29.975
30
0
11
-23.9
21
29.975
31
0
39
0
210
0
220
0
230
1
0
MTEXT
5
16B
100
AcDbEntity
8
SK2
62
256
6
ByLayer
370
18
48
1
60
0
100
AcDbMText
10
-58.011672
20
-4.936314
30
0
210
0
220
0
230
1
1
%%c
40
4.5
41
0
44
1.084337
50
90
71
7
72
5
7
iso_b_vert
0
MTEXT
5
16E
100
AcDbEntity
8
SK2
62
256
6
ByLayer
370
18
48
1
60
0
100
AcDbMText
10
-58.011672
20
1.77853
30
0
210
0
220
0
230
1
1
\W0.7361;40
40
4.5
41
0
44
1.084337
50
90
71
7
72
5
7
iso_b_vert
0
MTEXT
5
177
100
AcDbEntity
8
SK6
62
256
6
ByLayer
370
18
48
1
60
0
100
AcDbMText
10
-7.8145
20
-34.192366
30
0
210
0
220
0
230
1
1
\W0.7665;930-HA04-S-06-070A
40
3.5
41
0
44
1.084337
50
0
71
7
72
5
7
iso_b_vert
0
MTEXT
5
179
100
AcDbEntity
8
SK6
62
256
6
ByLayer
370
18
48
1
60
0
100
AcDbMText
10
-65.986627
20
27.507634
30
0
210
0
220
0
230
1
1
\W0.7891;DIN69893-HSK-A40
40
3.5
41
0
44
1.084337
50
0
71
7
72
5
7
iso_b_vert
0
MTEXT
5
17A
100
AcDbEntity
8
SK6
62
256
6
ByLayer
370
18
48
1
60
0
100
AcDbMText
10
-24.773633
20
27.507634
30
0
210
0
220
0
230
1
1
\W0.2969; 
40
3.5
41
0
44
1.084337
50
0
71
7
72
5
7
iso_b_vert
0
HATCH
5
172
100
AcDbEntity
8
SK2
62
256
6
ByLayer
370
13
48
1
60
0
100
AcDbHatch
10
0
20
0
30
0
210
0
220
0
230
1
2
ANSI31
70
0
71
0
91
1
92
5
93
3
72
1
10
-56
20
19.975
11
-55.0023740181135
21
15.4750036644848
72
1
10
-55.0023740181135
20
15.4750036644848
11
-56.9976259818865
21
15.4749963355152
72
1
10
-56.9976259818865
20
15.4749963355152
11
-56
21
19.975
97
0
75
0
76
1
52
0
41
0.0062
77
0
78
1
53
45
43
0
44
0
45
-0.0139193969876572
46
0.0139193969876572
79
0
47
0
98
1
10
0
20
0
0
HATCH
5
176
100
AcDbEntity
8
SK2
62
256
6
ByLayer
370
13
48
1
60
0
100
AcDbHatch
10
0
20
0
30
0
210
0
220
0
230
1
2
ANSI31
70
0
71
0
91
1
92
5
93
3
72
1
10
-56
20
-19.975
11
-56.9976259818865
21
-15.4750036644848
72
1
10
-56.9976259818865
20
-15.4750036644848
11
-55.0023740181135
21
-15.4749963355152
72
1
10
-55.0023740181135
20
-15.4749963355152
11
-56
21
-19.975
97
0
75
0
76
1
52
0
41
0.0062
77
0
78
1
53
45
43
0
44
0
45
-0.0139193969876572
46
0.0139193969876572
79
0
47
0
98
1
10
0
20
0
0
DIMENSION
5
185
100
AcDbEntity
8
SK2
62
256
6
ByLayer
370
18
48
1
60
0
100
AcDbDimension
2
_U0
10
99.25
20
13
30
0
11
99.25
21
0
31
0
70
32
71
1
72
1
41
1
210
0
220
0
230
1
3
Standard
100
AcDbAlignedDimension
13
70
23
-13
33
0
14
70
24
13
34
0
50
90
100
AcDbRotatedDimension
1001
ACAD
1000
DSTYLE
1002
{
1070
   371
1070
    13
1070
   372
1070
    13
1070
   170
1070
     0
1070
   144
1040
1.0
1070
   277
1070
     2
1070
   284
1070
     8
1070
   278
1070
    44
1070
   146
1040
0.777778
1070
   345
1005
16
1070
   347
1005
16
1070
   346
1005
16
1070
   344
1005
0
1070
   343
1005
0
1070
   172
1070
     1
1070
    76
1070
     0
1070
    75
1070
     0
1070
   282
1070
     0
1070
   281
1070
     0
1070
    71
1070
     0
1070
    74
1070
     0
1070
   279
1070
     0
1070
   173
1070
     1
1070
   340
1005
16C
1070
   271
1070
     1
1070
   272
1070
     2
1070
    77
1070
     1
1070
    73
1070
     0
1070
   171
1070
     3
1070
   274
1070
     4
1070
   177
1070
     2
1070
   176
1070
     2
1070
   178
1070
     2
1070
    78
1070
     8
1070
    48
1040
-0.1
1070
    41
1040
4.5
1070
   147
1040
2.25
1070
    42
1040
1.5875
1070
    44
1040
2.0
1070
   140
1040
4.5
1002
}
1001
ACAD_DSTYLE_DIM_LINETYPE
1070
   380
1005
16
1001
ACAD_DSTYLE_DIM_EXT1_LINETYPE
1070
   381
1005
16
1001
ACAD_DSTYLE_DIM_EXT2_LINETYPE
1070
   382
1005
16
0
DIMENSION
5
19F
100
AcDbEntity
8
SK2
62
256
6
ByLayer
370
18
48
1
60
0
100
AcDbDimension
2
_U1
10
87.25
20
-3
30
0
11
87.25
21
20.256371
31
0
70
32
71
1
72
1
41
1
210
0
220
0
230
1
3
Standard
100
AcDbAlignedDimension
13
70
23
3
33
0
14
70
24
-3
34
0
50
90
100
AcDbRotatedDimension
1001
ACAD
1000
DSTYLE
1002
{
1070
   371
1070
    13
1070
   372
1070
    13
1070
   170
1070
     0
1070
   144
1040
1.0
1070
   277
1070
     2
1070
   284
1070
     8
1070
   278
1070
    44
1070
   146
1040
0.777778
1070
   345
1005
16
1070
   347
1005
16
1070
   346
1005
16
1070
   344
1005
0
1070
   343
1005
0
1070
   172
1070
     1
1070
    76
1070
     0
1070
    75
1070
     0
1070
   282
1070
     0
1070
   281
1070
     0
1070
    71
1070
     0
1070
    74
1070
     0
1070
   279
1070
     0
1070
   173
1070
     1
1070
   340
1005
16C
1070
   271
1070
     1
1070
   272
1070
     2
1070
    77
1070
     1
1070
    73
1070
     0
1070
   171
1070
     3
1070
   274
1070
     4
1070
   177
1070
     2
1070
   176
1070
     2
1070
   178
1070
     2
1070
    78
1070
     8
1070
    48
1040
-0.1
1070
    41
1040
4.5
1070
   147
1040
2.25
1070
    42
1040
1.5875
1070
    44
1040
2.0
1070
   140
1040
4.5
1002
}
1001
ACAD_DSTYLE_DIM_LINETYPE
1070
   380
1005
16
1001
ACAD_DSTYLE_DIM_EXT1_LINETYPE
1070
   381
1005
16
1001
ACAD_DSTYLE_DIM_EXT2_LINETYPE
1070
   382
1005
16
0
DIMENSION
5
1BA
100
AcDbEntity
8
SK2
62
256
6
ByLayer
370
18
48
1
60
0
100
AcDbDimension
2
_U2
10
119.25
20
-16
30
0
11
119.25
21
0
31
0
70
32
71
1
72
1
41
1
210
0
220
0
230
1
3
Standard
100
AcDbAlignedDimension
13
35
23
16
33
0
14
35
24
-16
34
0
50
90
100
AcDbRotatedDimension
1001
ACAD
1000
DSTYLE
1002
{
1070
   371
1070
    13
1070
   372
1070
    13
1070
   170
1070
     0
1070
   144
1040
1.0
1070
   277
1070
     2
1070
   284
1070
     8
1070
   278
1070
    44
1070
   146
1040
0.777778
1070
   345
1005
16
1070
   347
1005
16
1070
   346
1005
16
1070
   344
1005
0
1070
   343
1005
0
1070
   172
1070
     1
1070
    76
1070
     0
1070
    75
1070
     0
1070
   282
1070
     0
1070
   281
1070
     0
1070
    71
1070
     0
1070
    74
1070
     0
1070
   279
1070
     0
1070
   173
1070
     1
1070
   340
1005
16C
1070
   271
1070
     1
1070
   272
1070
     2
1070
    77
1070
     1
1070
    73
1070
     0
1070
   171
1070
     3
1070
   274
1070
     4
1070
   177
1070
     2
1070
   176
1070
     2
1070
   178
1070
     2
1070
    78
1070
     8
1070
    48
1040
-0.1
1070
    41
1040
4.5
1070
   147
1040
2.25
1070
    42
1040
1.5875
1070
    44
1040
2.0
1070
   140
1040
4.5
1002
}
1001
ACAD_DSTYLE_DIM_LINETYPE
1070
   380
1005
16
1001
ACAD_DSTYLE_DIM_EXT1_LINETYPE
1070
   381
1005
16
1001
ACAD_DSTYLE_DIM_EXT2_LINETYPE
1070
   382
1005
16
0
DIMENSION
5
1D3
100
AcDbEntity
8
SK2
62
256
6
ByLayer
370
18
48
1
60
0
100
AcDbDimension
2
_U3
10
70
20
-38.575
30
0
11
101.887197
21
-38.575
31
0
70
32
71
1
72
1
41
1
210
0
220
0
230
1
3
Standard
100
AcDbAlignedDimension
13
33
23
-3
33
0
14
70
24
-3
34
0
50
0
100
AcDbRotatedDimension
1001
ACAD
1000
DSTYLE
1002
{
1070
   371
1070
    13
1070
   372
1070
    13
1070
     3
1000

1070
   170
1070
     0
1070
   144
1040
1.0
1070
   277
1070
     2
1070
   284
1070
     8
1070
   278
1070
    44
1070
   146
1040
0.777778
1070
   345
1005
16
1070
   347
1005
16
1070
   346
1005
16
1070
   344
1005
0
1070
   343
1005
0
1070
   172
1070
     1
1070
    76
1070
     0
1070
    75
1070
     0
1070
   282
1070
     0
1070
   281
1070
     0
1070
    71
1070
     0
1070
    74
1070
     0
1070
   279
1070
     0
1070
   173
1070
     1
1070
   340
1005
16C
1070
   271
1070
     0
1070
   272
1070
     2
1070
    77
1070
     1
1070
    73
1070
     1
1070
   171
1070
     3
1070
   274
1070
     4
1070
   177
1070
     2
1070
   176
1070
     2
1070
   178
1070
     2
1070
    78
1070
     8
1070
    48
1040
-0.1
1070
    41
1040
4.5
1070
   147
1040
2.25
1070
    42
1040
1.5875
1070
    44
1040
2.0
1070
   140
1040
4.5
1002
}
1001
ACAD_DSTYLE_DIM_LINETYPE
1070
   380
1005
16
1001
ACAD_DSTYLE_DIM_EXT1_LINETYPE
1070
   381
1005
16
1001
ACAD_DSTYLE_DIM_EXT2_LINETYPE
1070
   382
1005
16
0
DIMENSION
5
1EC
100
AcDbEntity
8
SK2
62
256
6
ByLayer
370
18
48
1
60
0
100
AcDbDimension
2
_U4
10
70
20
-28.575
30
0
11
64.35
21
-28.575
31
0
70
32
71
1
72
1
41
1
210
0
220
0
230
1
3
Standard
100
AcDbAlignedDimension
13
58.7
23
-13
33
0
14
70
24
-13
34
0
50
0
100
AcDbRotatedDimension
1001
ACAD
1000
DSTYLE
1002
{
1070
   371
1070
    13
1070
   372
1070
    13
1070
   170
1070
     0
1070
   144
1040
1.0
1070
   277
1070
     2
1070
   284
1070
     8
1070
   278
1070
    44
1070
   146
1040
0.777778
1070
   345
1005
16
1070
   347
1005
16
1070
   346
1005
16
1070
   344
1005
0
1070
   343
1005
0
1070
   172
1070
     1
1070
    76
1070
     0
1070
    75
1070
     0
1070
   282
1070
     0
1070
   281
1070
     0
1070
    71
1070
     0
1070
    74
1070
     0
1070
   279
1070
     0
1070
   173
1070
     1
1070
   340
1005
16C
1070
   271
1070
     1
1070
   272
1070
     2
1070
    77
1070
     1
1070
    73
1070
     1
1070
   171
1070
     3
1070
   274
1070
     4
1070
   177
1070
     2
1070
   176
1070
     2
1070
   178
1070
     2
1070
    78
1070
     8
1070
    48
1040
-0.1
1070
    41
1040
4.5
1070
   147
1040
2.25
1070
    42
1040
1.5875
1070
    44
1040
2.0
1070
   140
1040
4.5
1002
}
1001
ACAD_DSTYLE_DIM_LINETYPE
1070
   380
1005
16
1001
ACAD_DSTYLE_DIM_EXT1_LINETYPE
1070
   381
1005
16
1001
ACAD_DSTYLE_DIM_EXT2_LINETYPE
1070
   382
1005
16
0
DIMENSION
5
205
100
AcDbEntity
8
SK2
62
256
6
ByLayer
370
18
48
1
60
0
100
AcDbDimension
2
_U5
10
35
20
39.075
30
0
11
52.5
21
39.075
31
0
70
32
71
1
72
1
41
1
210
0
220
0
230
1
3
Standard
100
AcDbAlignedDimension
13
70
23
13
33
0
14
35
24
13
34
0
50
0
100
AcDbRotatedDimension
1001
ACAD
1000
DSTYLE
1002
{
1070
   371
1070
    13
1070
   372
1070
    13
1070
   170
1070
     0
1070
   144
1040
1.0
1070
   277
1070
     2
1070
   284
1070
     8
1070
   278
1070
    44
1070
   146
1040
0.777778
1070
   345
1005
16
1070
   347
1005
16
1070
   346
1005
16
1070
   344
1005
0
1070
   343
1005
0
1070
   172
1070
     1
1070
    76
1070
     0
1070
    75
1070
     0
1070
   282
1070
     0
1070
   281
1070
     0
1070
    71
1070
     0
1070
    74
1070
     0
1070
   279
1070
     0
1070
   173
1070
     1
1070
   340
1005
16C
1070
   271
1070
     1
1070
   272
1070
     2
1070
    77
1070
     1
1070
    73
1070
     1
1070
   171
1070
     3
1070
   274
1070
     4
1070
   177
1070
     2
1070
   176
1070
     2
1070
   178
1070
     2
1070
    78
1070
     8
1070
    48
1040
-0.1
1070
    41
1040
4.5
1070
   147
1040
2.25
1070
    42
1040
1.5875
1070
    44
1040
2.0
1070
   140
1040
4.5
1002
}
1001
ACAD_DSTYLE_DIM_LINETYPE
1070
   380
1005
16
1001
ACAD_DSTYLE_DIM_EXT1_LINETYPE
1070
   381
1005
16
1001
ACAD_DSTYLE_DIM_EXT2_LINETYPE
1070
   382
1005
16
0
DIMENSION
5
21D
100
AcDbEntity
8
2
62
256
6
ByLayer
370
18
48
1
60
0
100
AcDbDimension
2
_U6
10
70
20
59.075
30
0
11
35
21
59.075
31
0
70
32
71
1
72
1
41
1
210
0
220
0
230
1
3
Standard
100
AcDbAlignedDimension
13
0
23
19.975
33
0
14
70
24
13
34
0
50
0
100
AcDbRotatedDimension
1001
ACAD
1000
DSTYLE
1002
{
1070
   371
1070
    13
1070
   372
1070
    13
1070
   170
1070
     0
1070
   144
1040
1.0
1070
   277
1070
     2
1070
   284
1070
     8
1070
   278
1070
    44
1070
   146
1040
0.777778
1070
   345
1005
16
1070
   347
1005
16
1070
   346
1005
16
1070
   344
1005
0
1070
   343
1005
0
1070
   172
1070
     1
1070
    76
1070
     0
1070
    75
1070
     0
1070
   282
1070
     0
1070
   281
1070
     0
1070
    71
1070
     0
1070
    74
1070
     0
1070
   279
1070
     0
1070
   173
1070
     1
1070
   340
1005
16C
1070
   271
1070
     1
1070
   272
1070
     2
1070
    77
1070
     1
1070
    73
1070
     1
1070
   171
1070
     3
1070
   274
1070
     4
1070
   177
1070
     2
1070
   176
1070
     2
1070
   178
1070
     2
1070
    78
1070
     8
1070
    48
1040
-0.1
1070
    41
1040
4.5
1070
   147
1040
2.25
1070
    42
1040
1.5875
1070
    44
1040
2.0
1070
   140
1040
4.5
1002
}
1001
ACAD_DSTYLE_DIM_LINETYPE
1070
   380
1005
16
1001
ACAD_DSTYLE_DIM_EXT1_LINETYPE
1070
   381
1005
16
1001
ACAD_DSTYLE_DIM_EXT2_LINETYPE
1070
   382
1005
16
0
DIMENSION
5
236
100
AcDbEntity
8
SK2
62
256
6
ByLayer
370
18
48
1
60
0
100
AcDbDimension
2
_U7
10
-19.9
20
59.075
30
0
11
-9.95
21
59.075
31
0
70
32
71
1
72
1
41
1
210
0
220
0
230
1
3
Standard
100
AcDbAlignedDimension
13
0
23
22.055
33
0
14
-19.9
24
14.8
34
0
50
0
100
AcDbRotatedDimension
1001
ACAD
1000
DSTYLE
1002
{
1070
   371
1070
    13
1070
   372
1070
    13
1070
   170
1070
     0
1070
   144
1040
1.0
1070
   277
1070
     2
1070
   284
1070
     8
1070
   278
1070
    44
1070
   146
1040
0.777778
1070
   345
1005
16
1070
   347
1005
16
1070
   346
1005
16
1070
   344
1005
0
1070
   343
1005
0
1070
   172
1070
     1
1070
    76
1070
     0
1070
    75
1070
     0
1070
   282
1070
     0
1070
   281
1070
     0
1070
    71
1070
     0
1070
    74
1070
     0
1070
   279
1070
     0
1070
   173
1070
     1
1070
   340
1005
16C
1070
   271
1070
     1
1070
   272
1070
     2
1070
    77
1070
     1
1070
    73
1070
     1
1070
   171
1070
     3
1070
   274
1070
     4
1070
   177
1070
     2
1070
   176
1070
     2
1070
   178
1070
     2
1070
    78
1070
     8
1070
    48
1040
-0.1
1070
    41
1040
4.5
1070
   147
1040
2.25
1070
    42
1040
1.5875
1070
    44
1040
2.0
1070
   140
1040
4.5
1002
}
1001
ACAD_DSTYLE_DIM_LINETYPE
1070
   380
1005
16
1001
ACAD_DSTYLE_DIM_EXT1_LINETYPE
1070
   381
1005
16
1001
ACAD_DSTYLE_DIM_EXT2_LINETYPE
1070
   382
1005
16
0
DIMENSION
5
24F
100
AcDbEntity
8
SK2
62
256
6
ByLayer
370
18
48
1
60
0
100
AcDbDimension
2
_U8
10
20
20
39.075
30
0
11
10
21
39.075
31
0
70
32
71
1
72
1
41
1
210
0
220
0
230
1
3
Standard
100
AcDbAlignedDimension
13
0
23
22.055
33
0
14
20
24
19.975
34
0
50
0
100
AcDbRotatedDimension
1001
ACAD
1000
DSTYLE
1002
{
1070
   371
1070
    13
1070
   372
1070
    13
1070
   170
1070
     0
1070
   144
1040
1.0
1070
   277
1070
     2
1070
   284
1070
     8
1070
   278
1070
    44
1070
   146
1040
0.777778
1070
   345
1005
16
1070
   347
1005
16
1070
   346
1005
16
1070
   344
1005
0
1070
   343
1005
0
1070
   172
1070
     1
1070
    76
1070
     0
1070
    75
1070
     0
1070
   282
1070
     0
1070
   281
1070
     0
1070
    71
1070
     0
1070
    74
1070
     0
1070
   279
1070
     0
1070
   173
1070
     1
1070
   340
1005
16C
1070
   271
1070
     2
1070
   272
1070
     2
1070
    77
1070
     1
1070
    73
1070
     1
1070
   171
1070
     3
1070
   274
1070
     4
1070
   177
1070
     2
1070
   176
1070
     2
1070
   178
1070
     2
1070
    78
1070
     8
1070
    48
1040
-0.1
1070
    41
1040
4.5
1070
   147
1040
2.25
1070
    42
1040
1.5875
1070
    44
1040
2.0
1070
   140
1040
4.5
1002
}
1001
ACAD_DSTYLE_DIM_LINETYPE
1070
   380
1005
16
1001
ACAD_DSTYLE_DIM_EXT1_LINETYPE
1070
   381
1005
16
1001
ACAD_DSTYLE_DIM_EXT2_LINETYPE
1070
   382
1005
16
0
ENDSEC
0
SECTION
2
OBJECTS
0
DICTIONARY
5
2d9
330
0
100
AcDbDictionary
280
0
281
1
3
ACAD_GROUP
350
2da
3
ACAD_MLINESTYLE
350
2db
0
DICTIONARY
5
2da
330
0
100
AcDbDictionary
280
0
281
1
0
DICTIONARY
5
2db
330
0
100
AcDbDictionary
280
0
281
1
3
Standard
350
18
0
MLINESTYLE
5
18
330
2db
100
AcDbMlineStyle
2
Standard
70
0
3

62
256
51
90
52
90
71
2
49
-0.5
62
256
6
ByLayer
49
0.5
62
256
6
ByLayer
0
RASTERVARIABLES
5
2c6
330

100
AcDbRasterVariables
90
0
70
1
71
1
72
1
0
ENDSEC
0
EOF
