0
SECTION
2
HEADER
9
$ACADVER
1
AC1015
9
$DWGCODEPAGE
3
ANSI_1252
9
$HANDSEED
5
2e2
9
$ANGBASE
50
0
9
$ANGDIR
70
0
9
$ATTMODE
70
1
9
$AUNITS
70
0
9
$AUPREC
70
0
9
$CECOLOR
62
256
9
$CELTSCALE
40
1
9
$CELTYPE
6
ByLayer
9
$CELWEIGHT
370
18
9
$CLAYER
8
0
9
$CMLJUST
70
0
9
$CMLSCALE
40
1
9
$CMLSTYLE
2
Standard
9
$DIMSTYLE
2
Standard
9
$TEXTSIZE
40
0.2
9
$TEXTSTYLE
7
Standard
9
$LUNITS
70
2
9
$LUPREC
70
4
9
$EXTNAMES
290
1
9
$INSUNITS
70
4
9
$LTSCALE
40
1
9
$LWDISPLAY
290
1
9
$PDMODE
70
0
9
$PDSIZE
40
0
9
$PLINEGEN
70
0
0
ENDSEC
0
SECTION
2
CLASSES
0
CLASS
1
RASTERVARIABLES
2
AcDbRasterVariables
3
ISM
90
0
280
0
281
0
0
ENDSEC
0
SECTION
2
TABLES
0
TABLE
2
VPORT
5
2d8
100
AcDbSymbolTable
0
VPORT
5
1
100
AcDbSymbolTableRecord
100
AcDbViewportTableRecord
2
*Active
70
0
10
0
20
0
11
1
21
1
12
-1
22
1
13
0
23
0
14
0.5
24
0.5
15
10
25
10
16
0
26
0
36
1
17
0
27
0
37
0
0
ENDTAB
0
TABLE
2
LTYPE
5
2d9
100
AcDbSymbolTable
0
LTYPE
5
14
100
AcDbSymbolTableRecord
100
AcDbLinetypeTableRecord
70
0
2
ByBlock
3

72
65
73
0
40
0
0
LTYPE
5
15
100
AcDbSymbolTableRecord
100
AcDbLinetypeTableRecord
70
0
2
ByLayer
3

72
65
73
0
40
0
0
LTYPE
5
16
100
AcDbSymbolTableRecord
100
AcDbLinetypeTableRecord
70
0
2
Continuous
3
Solid line
72
65
73
0
40
0
0
LTYPE
5
6E
100
AcDbSymbolTableRecord
100
AcDbLinetypeTableRecord
70
0
2
CENTER
3
____ _ ____ _ ____ _ ____
72
65
73
4
40
47.5
49
22
74
0
49
-8.5
74
0
49
8.5
74
0
49
-8.5
74
0
0
LTYPE
5
6F
100
AcDbSymbolTableRecord
100
AcDbLinetypeTableRecord
70
0
2
DASHED
3
__ __ __ __ __ __ __ __ __
72
65
73
2
40
25.72
49
12.86
74
0
49
-12.86
74
0
0
ENDTAB
0
TABLE
2
LAYER
5
2da
100
AcDbSymbolTable
0
LAYER
5
10
100
AcDbSymbolTableRecord
100
AcDbLayerTableRecord
2
0
70
0
62
7
6
Continuous
290
1
370
-3
390
0
0
LAYER
5
71
100
AcDbSymbolTableRecord
100
AcDbLayerTableRecord
2
80
70
0
62
-6
6
Continuous
290
1
370
-3
390
0
0
LAYER
5
73
100
AcDbSymbolTableRecord
100
AcDbLayerTableRecord
2
81
70
0
62
-3
6
Continuous
290
1
370
-3
390
0
0
LAYER
5
75
100
AcDbSymbolTableRecord
100
AcDbLayerTableRecord
2
1
70
0
62
4
6
Continuous
290
1
370
-3
390
0
0
LAYER
5
12C
100
AcDbSymbolTableRecord
100
AcDbLayerTableRecord
2
4
70
0
62
-2
6
CENTER
290
1
370
-3
390
0
0
LAYER
5
1F4
100
AcDbSymbolTableRecord
100
AcDbLayerTableRecord
2
Defpoints
70
0
62
7
6
Continuous
290
0
370
-3
390
0
0
LAYER
5
201
100
AcDbSymbolTableRecord
100
AcDbLayerTableRecord
2
2
70
0
62
7
6
Continuous
290
1
370
-3
390
0
0
LAYER
5
2c4
100
AcDbSymbolTableRecord
100
AcDbLayerTableRecord
2
SK1
70
0
62
4
6
Continuous
290
1
370
-3
390
0
0
LAYER
5
2c5
100
AcDbSymbolTableRecord
100
AcDbLayerTableRecord
2
SK4
70
0
62
2
6
CENTER
290
1
370
-3
390
0
0
LAYER
5
2c6
100
AcDbSymbolTableRecord
100
AcDbLayerTableRecord
2
SK6
70
0
62
5
6
Continuous
290
1
370
-3
390
0
0
LAYER
5
2c7
100
AcDbSymbolTableRecord
100
AcDbLayerTableRecord
2
SK2
70
0
62
7
6
Continuous
290
1
370
-3
390
0
0
ENDTAB
0
TABLE
2
STYLE
5
2db
100
AcDbSymbolTable
0
STYLE
5
11
100
AcDbSymbolTableRecord
100
AcDbTextStyleTableRecord
2
Standard
3
txt
70
0
71
0
40
0
41
1
42
0
50
0
0
STYLE
5
1E6
100
AcDbSymbolTableRecord
100
AcDbTextStyleTableRecord
2
iso_b_vert
3
simplex.shx
70
0
71
0
40
0
41
1
42
0
50
0
0
STYLE
5
1E7
100
AcDbSymbolTableRecord
100
AcDbTextStyleTableRecord
2
DWGDirectTextStyle
3
simplex
70
0
71
0
40
0
41
1
42
0
50
0
0
ENDTAB
0
TABLE
2
DIMSTYLE
5
2dc
100
AcDbSymbolTable
100
AcDbDimStyleTable
0
DIMSTYLE
105
27
100
AcDbSymbolTableRecord
100
AcDbDimStyleTableRecord
2
Standard
70
0
3
<>
41
0.18
42
0.0625
44
0.18
140
0.18
147
0.09
73
0
74
0
77
1
271
2
275
0
278
52
280
0
340
11
0
ENDTAB
0
TABLE
2
VIEW
5
2dd
100
AcDbSymbolTable
0
ENDTAB
0
TABLE
2
UCS
5
2de
100
AcDbSymbolTable
0
ENDTAB
0
TABLE
2
APPID
5
2df
100
AcDbSymbolTable
0
APPID
5
12
100
AcDbSymbolTableRecord
100
AcDbRegAppTableRecord
2
ACAD
70
0
0
APPID
5
1E9
100
AcDbSymbolTableRecord
100
AcDbRegAppTableRecord
2
ACAD_DSTYLE_DIMBREAK
70
0
0
APPID
5
283
100
AcDbSymbolTableRecord
100
AcDbRegAppTableRecord
2
ACAD_DSTYLE_DIM_LINETYPE
70
0
0
APPID
5
284
100
AcDbSymbolTableRecord
100
AcDbRegAppTableRecord
2
ACAD_DSTYLE_DIM_EXT1_LINETYPE
70
0
0
APPID
5
285
100
AcDbSymbolTableRecord
100
AcDbRegAppTableRecord
2
ACAD_DSTYLE_DIM_EXT2_LINETYPE
70
0
0
APPID
5
2C0
100
AcDbSymbolTableRecord
100
AcDbRegAppTableRecord
2
ACAD_MLEADERVER
70
0
0
ENDTAB
0
TABLE
2
BLOCK_RECORD
5
2e0
100
AcDbSymbolTable
0
BLOCK_RECORD
5
1F
100
AcDbSymbolTableRecord
100
AcDbBlockTableRecord
2
*Model_Space
340
0
70
0
0
BLOCK_RECORD
5
1B
100
AcDbSymbolTableRecord
100
AcDbBlockTableRecord
2
*Paper_Space
340
0
70
0
0
BLOCK_RECORD
5
23
100
AcDbSymbolTableRecord
100
AcDbBlockTableRecord
2
*Paper_Space0
340
0
70
0
0
BLOCK_RECORD
5
1EB
100
AcDbSymbolTableRecord
100
AcDbBlockTableRecord
2
_Closed
340
0
70
0
0
BLOCK_RECORD
5
1F5
100
AcDbSymbolTableRecord
100
AcDbBlockTableRecord
2
*D2
340
0
70
0
0
BLOCK_RECORD
5
202
100
AcDbSymbolTableRecord
100
AcDbBlockTableRecord
2
_U0
340
0
70
0
0
BLOCK_RECORD
5
212
100
AcDbSymbolTableRecord
100
AcDbBlockTableRecord
2
*D4
340
0
70
0
0
BLOCK_RECORD
5
21F
100
AcDbSymbolTableRecord
100
AcDbBlockTableRecord
2
_U1
340
0
70
0
0
BLOCK_RECORD
5
22F
100
AcDbSymbolTableRecord
100
AcDbBlockTableRecord
2
*D6
340
0
70
0
0
BLOCK_RECORD
5
23C
100
AcDbSymbolTableRecord
100
AcDbBlockTableRecord
2
_U2
340
0
70
0
0
BLOCK_RECORD
5
24C
100
AcDbSymbolTableRecord
100
AcDbBlockTableRecord
2
*D8
340
0
70
0
0
BLOCK_RECORD
5
258
100
AcDbSymbolTableRecord
100
AcDbBlockTableRecord
2
_U3
340
0
70
0
0
ENDTAB
0
ENDSEC
0
SECTION
2
BLOCKS
0
BLOCK
5
20
100
AcDbEntity
8
0
100
AcDbBlockBegin
2
*Model_Space
70
0
10
0
20
0
30
0
3
*Model_Space
0
ENDBLK
5
21
100
AcDbEntity
8
0
100
AcDbBlockEnd
0
BLOCK
5
1C
100
AcDbEntity
8
0
100
AcDbBlockBegin
2
*Paper_Space
70
0
10
0
20
0
30
0
3
*Paper_Space
0
ENDBLK
5
1D
100
AcDbEntity
8
0
100
AcDbBlockEnd
0
BLOCK
5
24
100
AcDbEntity
8
0
100
AcDbBlockBegin
2
*Paper_Space0
70
0
10
0
20
0
30
0
3
*Paper_Space0
0
ENDBLK
5
25
100
AcDbEntity
8
0
100
AcDbBlockEnd
0
BLOCK
5
1EC
100
AcDbEntity
8
0
100
AcDbBlockBegin
2
_Closed
70
0
10
0
20
0
30
0
3
_Closed
0
LINE
5
1EE
100
AcDbEntity
8
0
62
256
6
ByLayer
370
-2
48
1
60
0
100
AcDbLine
10
-1
20
0.166667
30
0
11
0
21
0
31
0
39
0
210
0
220
0
230
1
0
LINE
5
1EF
100
AcDbEntity
8
0
62
256
6
ByLayer
370
-2
48
1
60
0
100
AcDbLine
10
0
20
0
30
0
11
-1
21
-0.166667
31
0
39
0
210
0
220
0
230
1
0
LINE
5
1F0
100
AcDbEntity
8
0
62
256
6
ByLayer
370
-2
48
1
60
0
100
AcDbLine
10
-1
20
0.166667
30
0
11
-1
21
-0.166667
31
0
39
0
210
0
220
0
230
1
0
LINE
5
1F1
100
AcDbEntity
8
0
62
256
6
ByLayer
370
-2
48
1
60
0
100
AcDbLine
10
0
20
0
30
0
11
-1
21
0
31
0
39
0
210
0
220
0
230
1
0
ENDBLK
5
1ED
100
AcDbEntity
8
0
100
AcDbBlockEnd
0
BLOCK
5
1F6
100
AcDbEntity
8
0
100
AcDbBlockBegin
2
*D2
70
1
10
0
20
0
30
0
3
*D2
0
LINE
5
1F8
100
AcDbEntity
8
0
62
256
6
ByLayer
370
-2
48
1
60
0
100
AcDbLine
10
-1.5875
20
0
30
0
11
-22.477446
21
0
31
0
39
0
210
0
220
0
230
1
0
LINE
5
1F9
100
AcDbEntity
8
0
62
256
6
ByLayer
370
-2
48
1
60
0
100
AcDbLine
10
12.4125
20
-55
30
0
11
-22.477446
21
-55
31
0
39
0
210
0
220
0
230
1
0
LINE
5
1FA
100
AcDbEntity
8
0
62
256
6
ByLayer
370
-2
48
1
60
0
100
AcDbLine
10
-19.302446
20
-3.175
30
0
11
-19.302446
21
-51.825
31
0
39
0
210
0
220
0
230
1
0
SOLID
5
1FB
100
AcDbEntity
8
0
62
256
6
ByLayer
370
-1
48
1
60
0
100
AcDbTrace
10
-18.77328
20
-3.175
30
0
11
-19.831613
21
-3.175
31
0
12
-19.302446
22
0
32
0
13
-19.302446
23
0
33
0
39
0
210
0
220
0
230
1
0
SOLID
5
1FC
100
AcDbEntity
8
0
62
256
6
ByLayer
370
-1
48
1
60
0
100
AcDbTrace
10
-19.831613
20
-51.825
30
0
11
-18.77328
21
-51.825
31
0
12
-19.302446
22
-55
32
0
13
-19.302446
23
-55
33
0
39
0
210
0
220
0
230
1
0
MTEXT
5
1FD
100
AcDbEntity
8
0
62
256
6
ByLayer
370
18
48
1
60
0
100
AcDbMText
10
-26.608947
20
-28.865952
30
0
210
0
220
0
230
1
1
\A1;55
40
3.50012
41
0
44
1
50
90
71
5
72
5
7
iso_b_vert
0
POINT
5
1FE
100
AcDbEntity
8
Defpoints
62
0
6
ByLayer
370
-1
48
1
60
0
100
AcDbPoint
10
0
20
0
30
0
39
0
210
0
220
0
230
1
50
360
0
POINT
5
1FF
100
AcDbEntity
8
Defpoints
62
0
6
ByLayer
370
-1
48
1
60
0
100
AcDbPoint
10
14
20
-55
30
0
39
0
210
0
220
0
230
1
50
360
0
POINT
5
200
100
AcDbEntity
8
Defpoints
62
0
6
ByLayer
370
-1
48
1
60
0
100
AcDbPoint
10
-19.302446
20
-55
30
0
39
0
210
0
220
0
230
1
50
360
0
ENDBLK
5
1F7
100
AcDbEntity
8
0
100
AcDbBlockEnd
0
BLOCK
5
20D
100
AcDbEntity
8
0
100
AcDbBlockBegin
2
_U0
70
0
10
0
20
0
30
0
3
_U0
0
MTEXT
5
203
100
AcDbEntity
8
2
62
256
6
ByLayer
370
18
48
1
60
0
100
AcDbMText
10
-19.992103
20
-30.798451
30
0
210
0
220
0
230
1
1
\W0.6337;55
40
3.50012
41
0
44
1.084337
50
90
71
7
72
5
7
iso_b_vert
0
LINE
5
204
100
AcDbEntity
8
2
62
256
6
ByLayer
370
13
48
1
60
0
100
AcDbLine
10
-1.5875
20
0
30
0
11
-22.477446
21
0
31
0
39
0
210
0
220
0
230
1
0
LINE
5
205
100
AcDbEntity
8
2
62
256
6
ByLayer
370
13
48
1
60
0
100
AcDbLine
10
12.4125
20
-55
30
0
11
-22.477446
21
-55
31
0
39
0
210
0
220
0
230
1
0
LINE
5
206
100
AcDbEntity
8
2
62
256
6
ByLayer
370
13
48
1
60
0
100
AcDbLine
10
-19.302446
20
0
30
0
11
-19.302446
21
-55
31
0
39
0
210
0
220
0
230
1
0
LINE
5
207
100
AcDbEntity
8
2
62
256
6
ByLayer
370
13
48
1
60
0
100
AcDbLine
10
-19.302446
20
0
30
0
11
-18.884449
21
-3.174998
31
0
39
0
210
0
220
0
230
1
0
LINE
5
208
100
AcDbEntity
8
2
62
256
6
ByLayer
370
13
48
1
60
0
100
AcDbLine
10
-19.302446
20
0
30
0
11
-19.720443
21
-3.175002
31
0
39
0
210
0
220
0
230
1
0
LINE
5
209
100
AcDbEntity
8
2
62
256
6
ByLayer
370
13
48
1
60
0
100
AcDbLine
10
-18.884449
20
-3.174998
30
0
11
-19.720443
21
-3.175002
31
0
39
0
210
0
220
0
230
1
0
LINE
5
20A
100
AcDbEntity
8
2
62
256
6
ByLayer
370
13
48
1
60
0
100
AcDbLine
10
-19.302446
20
-55
30
0
11
-19.720443
21
-51.825002
31
0
39
0
210
0
220
0
230
1
0
LINE
5
20B
100
AcDbEntity
8
2
62
256
6
ByLayer
370
13
48
1
60
0
100
AcDbLine
10
-19.302446
20
-55
30
0
11
-18.884449
21
-51.824998
31
0
39
0
210
0
220
0
230
1
0
LINE
5
20C
100
AcDbEntity
8
2
62
256
6
ByLayer
370
13
48
1
60
0
100
AcDbLine
10
-19.720443
20
-51.825002
30
0
11
-18.884449
21
-51.824998
31
0
39
0
210
0
220
0
230
1
0
ENDBLK
5
20E
100
AcDbEntity
8
0
100
AcDbBlockEnd
0
BLOCK
5
213
100
AcDbEntity
8
0
100
AcDbBlockBegin
2
*D4
70
1
10
0
20
0
30
0
3
*D4
0
LINE
5
215
100
AcDbEntity
8
0
62
256
6
ByLayer
370
-2
48
1
60
0
100
AcDbLine
10
5.6825
20
-24.65
30
0
11
-7.243455
21
-24.65
31
0
39
0
210
0
220
0
230
1
0
LINE
5
216
100
AcDbEntity
8
0
62
256
6
ByLayer
370
-2
48
1
60
0
100
AcDbLine
10
12.4125
20
-55
30
0
11
-7.243455
21
-55
31
0
39
0
210
0
220
0
230
1
0
LINE
5
217
100
AcDbEntity
8
0
62
256
6
ByLayer
370
-2
48
1
60
0
100
AcDbLine
10
-4.068455
20
-27.825
30
0
11
-4.068455
21
-51.825
31
0
39
0
210
0
220
0
230
1
0
SOLID
5
218
100
AcDbEntity
8
0
62
256
6
ByLayer
370
-1
48
1
60
0
100
AcDbTrace
10
-3.539289
20
-27.825
30
0
11
-4.597622
21
-27.825
31
0
12
-4.068455
22
-24.65
32
0
13
-4.068455
23
-24.65
33
0
39
0
210
0
220
0
230
1
0
SOLID
5
219
100
AcDbEntity
8
0
62
256
6
ByLayer
370
-1
48
1
60
0
100
AcDbTrace
10
-4.597622
20
-51.825
30
0
11
-3.539289
21
-51.825
31
0
12
-4.068455
22
-55
32
0
13
-4.068455
23
-55
33
0
39
0
210
0
220
0
230
1
0
MTEXT
5
21A
100
AcDbEntity
8
0
62
256
6
ByLayer
370
18
48
1
60
0
100
AcDbMText
10
-11.374956
20
-38.170546
30
0
210
0
220
0
230
1
1
\A1;30.35
40
3.50012
41
0
44
1
50
90
71
5
72
5
7
iso_b_vert
0
POINT
5
21B
100
AcDbEntity
8
Defpoints
62
0
6
ByLayer
370
-1
48
1
60
0
100
AcDbPoint
10
7.27
20
-24.65
30
0
39
0
210
0
220
0
230
1
50
360
0
POINT
5
21C
100
AcDbEntity
8
Defpoints
62
0
6
ByLayer
370
-1
48
1
60
0
100
AcDbPoint
10
14
20
-55
30
0
39
0
210
0
220
0
230
1
50
360
0
POINT
5
21D
100
AcDbEntity
8
Defpoints
62
0
6
ByLayer
370
-1
48
1
60
0
100
AcDbPoint
10
-4.068455
20
-55
30
0
39
0
210
0
220
0
230
1
50
360
0
ENDBLK
5
214
100
AcDbEntity
8
0
100
AcDbBlockEnd
0
BLOCK
5
22A
100
AcDbEntity
8
0
100
AcDbBlockBegin
2
_U1
70
0
10
0
20
0
30
0
3
_U1
0
MTEXT
5
220
100
AcDbEntity
8
SK2
62
256
6
ByLayer
370
18
48
1
60
0
100
AcDbMText
10
-4.758113
20
-43.426823
30
0
210
0
220
0
230
1
1
\W0.7305;30.35
40
3.50012
41
0
44
1.084337
50
90
71
7
72
5
7
iso_b_vert
0
LINE
5
221
100
AcDbEntity
8
SK2
62
256
6
ByLayer
370
13
48
1
60
0
100
AcDbLine
10
5.6825
20
-24.65
30
0
11
-7.243455
21
-24.65
31
0
39
0
210
0
220
0
230
1
0
LINE
5
222
100
AcDbEntity
8
SK2
62
256
6
ByLayer
370
13
48
1
60
0
100
AcDbLine
10
12.4125
20
-55
30
0
11
-7.243455
21
-55
31
0
39
0
210
0
220
0
230
1
0
LINE
5
223
100
AcDbEntity
8
SK2
62
256
6
ByLayer
370
13
48
1
60
0
100
AcDbLine
10
-4.068455
20
-24.65
30
0
11
-4.068455
21
-55
31
0
39
0
210
0
220
0
230
1
0
LINE
5
224
100
AcDbEntity
8
SK2
62
256
6
ByLayer
370
13
48
1
60
0
100
AcDbLine
10
-4.068455
20
-24.65
30
0
11
-3.650459
21
-27.824998
31
0
39
0
210
0
220
0
230
1
0
LINE
5
225
100
AcDbEntity
8
SK2
62
256
6
ByLayer
370
13
48
1
60
0
100
AcDbLine
10
-4.068455
20
-24.65
30
0
11
-4.486452
21
-27.825002
31
0
39
0
210
0
220
0
230
1
0
LINE
5
226
100
AcDbEntity
8
SK2
62
256
6
ByLayer
370
13
48
1
60
0
100
AcDbLine
10
-3.650459
20
-27.824998
30
0
11
-4.486452
21
-27.825002
31
0
39
0
210
0
220
0
230
1
0
LINE
5
227
100
AcDbEntity
8
SK2
62
256
6
ByLayer
370
13
48
1
60
0
100
AcDbLine
10
-4.068455
20
-55
30
0
11
-4.486452
21
-51.825002
31
0
39
0
210
0
220
0
230
1
0
LINE
5
228
100
AcDbEntity
8
SK2
62
256
6
ByLayer
370
13
48
1
60
0
100
AcDbLine
10
-4.068455
20
-55
30
0
11
-3.650459
21
-51.824998
31
0
39
0
210
0
220
0
230
1
0
LINE
5
229
100
AcDbEntity
8
SK2
62
256
6
ByLayer
370
13
48
1
60
0
100
AcDbLine
10
-4.486452
20
-51.825002
30
0
11
-3.650459
21
-51.824998
31
0
39
0
210
0
220
0
230
1
0
ENDBLK
5
22B
100
AcDbEntity
8
0
100
AcDbBlockEnd
0
BLOCK
5
230
100
AcDbEntity
8
0
100
AcDbBlockBegin
2
*D6
70
1
10
0
20
0
30
0
3
*D6
0
LINE
5
232
100
AcDbEntity
8
0
62
256
6
ByLayer
370
-2
48
1
60
0
100
AcDbLine
10
14
20
-56.5875
30
0
11
14
21
-67.391073
31
0
39
0
210
0
220
0
230
1
0
LINE
5
233
100
AcDbEntity
8
0
62
256
6
ByLayer
370
-2
48
1
60
0
100
AcDbLine
10
0
20
-1.5875
30
0
11
0
21
-67.391073
31
0
39
0
210
0
220
0
230
1
0
LINE
5
234
100
AcDbEntity
8
0
62
256
6
ByLayer
370
-2
48
1
60
0
100
AcDbLine
10
17.175
20
-64.216073
30
0
11
20.35
21
-64.216073
31
0
39
0
210
0
220
0
230
1
0
LINE
5
235
100
AcDbEntity
8
0
62
256
6
ByLayer
370
-2
48
1
60
0
100
AcDbLine
10
-3.175
20
-64.216073
30
0
11
-6.35
21
-64.216073
31
0
39
0
210
0
220
0
230
1
0
SOLID
5
236
100
AcDbEntity
8
0
62
256
6
ByLayer
370
-1
48
1
60
0
100
AcDbTrace
10
17.175
20
-63.686906
30
0
11
17.175
21
-64.745239
31
0
12
14
22
-64.216073
32
0
13
14
23
-64.216073
33
0
39
0
210
0
220
0
230
1
0
SOLID
5
237
100
AcDbEntity
8
0
62
256
6
ByLayer
370
-1
48
1
60
0
100
AcDbTrace
10
-3.175
20
-64.745239
30
0
11
-3.175
21
-63.686906
31
0
12
0
22
-64.216073
32
0
13
0
23
-64.216073
33
0
39
0
210
0
220
0
230
1
0
MTEXT
5
238
100
AcDbEntity
8
0
62
256
6
ByLayer
370
18
48
1
60
0
100
AcDbMText
10
7.047354
20
-56.909572
30
0
210
0
220
0
230
1
1
\A1;14
40
3.50012
41
0
44
1
50
0
71
5
72
5
7
iso_b_vert
0
POINT
5
239
100
AcDbEntity
8
Defpoints
62
0
6
ByLayer
370
-1
48
1
60
0
100
AcDbPoint
10
14
20
-55
30
0
39
0
210
0
220
0
230
1
50
360
0
POINT
5
23A
100
AcDbEntity
8
Defpoints
62
0
6
ByLayer
370
-1
48
1
60
0
100
AcDbPoint
10
0
20
0
30
0
39
0
210
0
220
0
230
1
50
360
0
POINT
5
23B
100
AcDbEntity
8
Defpoints
62
0
6
ByLayer
370
-1
48
1
60
0
100
AcDbPoint
10
0
20
-64.216073
30
0
39
0
210
0
220
0
230
1
50
360
0
ENDBLK
5
231
100
AcDbEntity
8
0
100
AcDbBlockEnd
0
BLOCK
5
247
100
AcDbEntity
8
0
100
AcDbBlockBegin
2
_U2
70
0
10
0
20
0
30
0
3
_U2
0
MTEXT
5
23D
100
AcDbEntity
8
2
62
256
6
ByLayer
370
18
48
1
60
0
100
AcDbMText
10
5.396032
20
-63.183404
30
0
210
0
220
0
230
1
1
\W0.6209;14
40
3.50012
41
0
44
1.084337
50
0
71
7
72
5
7
iso_b_vert
0
LINE
5
23E
100
AcDbEntity
8
2
62
256
6
ByLayer
370
13
48
1
60
0
100
AcDbLine
10
14
20
-56.5875
30
0
11
14
21
-67.391073
31
0
39
0
210
0
220
0
230
1
0
LINE
5
23F
100
AcDbEntity
8
2
62
256
6
ByLayer
370
13
48
1
60
0
100
AcDbLine
10
0
20
-1.5875
30
0
11
0
21
-67.391073
31
0
39
0
210
0
220
0
230
1
0
LINE
5
240
100
AcDbEntity
8
2
62
256
6
ByLayer
370
13
48
1
60
0
100
AcDbLine
10
14
20
-64.216073
30
0
11
0
21
-64.216073
31
0
39
0
210
0
220
0
230
1
0
LINE
5
241
100
AcDbEntity
8
2
62
256
6
ByLayer
370
13
48
1
60
0
100
AcDbLine
10
14
20
-64.216073
30
0
11
10.825002
21
-64.634069
31
0
39
0
210
0
220
0
230
1
0
LINE
5
242
100
AcDbEntity
8
2
62
256
6
ByLayer
370
13
48
1
60
0
100
AcDbLine
10
14
20
-64.216073
30
0
11
10.824998
21
-63.798076
31
0
39
0
210
0
220
0
230
1
0
LINE
5
243
100
AcDbEntity
8
2
62
256
6
ByLayer
370
13
48
1
60
0
100
AcDbLine
10
10.825002
20
-64.634069
30
0
11
10.824998
21
-63.798076
31
0
39
0
210
0
220
0
230
1
0
LINE
5
244
100
AcDbEntity
8
2
62
256
6
ByLayer
370
13
48
1
60
0
100
AcDbLine
10
0
20
-64.216073
30
0
11
3.174998
21
-63.798076
31
0
39
0
210
0
220
0
230
1
0
LINE
5
245
100
AcDbEntity
8
2
62
256
6
ByLayer
370
13
48
1
60
0
100
AcDbLine
10
0
20
-64.216073
30
0
11
3.175002
21
-64.634069
31
0
39
0
210
0
220
0
230
1
0
LINE
5
246
100
AcDbEntity
8
2
62
256
6
ByLayer
370
13
48
1
60
0
100
AcDbLine
10
3.174998
20
-63.798076
30
0
11
3.175002
21
-64.634069
31
0
39
0
210
0
220
0
230
1
0
ENDBLK
5
248
100
AcDbEntity
8
0
100
AcDbBlockEnd
0
BLOCK
5
24D
100
AcDbEntity
8
0
100
AcDbBlockBegin
2
*D8
70
1
10
0
20
0
30
0
3
*D8
0
LINE
5
24F
100
AcDbEntity
8
0
62
256
6
ByLayer
370
-2
48
1
60
0
100
AcDbLine
10
3.1625
20
20
30
0
11
-16.00072
21
20
31
0
39
0
210
0
220
0
230
1
0
LINE
5
250
100
AcDbEntity
8
0
62
256
6
ByLayer
370
-2
48
1
60
0
100
AcDbLine
10
-0.5875
20
-20
30
0
11
-16.00072
21
-20
31
0
39
0
210
0
220
0
230
1
0
LINE
5
251
100
AcDbEntity
8
0
62
256
6
ByLayer
370
-2
48
1
60
0
100
AcDbLine
10
-12.82572
20
16.825
30
0
11
-12.82572
21
-16.825
31
0
39
0
210
0
220
0
230
1
0
SOLID
5
252
100
AcDbEntity
8
0
62
256
6
ByLayer
370
-1
48
1
60
0
100
AcDbTrace
10
-12.296553
20
16.825
30
0
11
-13.354886
21
16.825
31
0
12
-12.82572
22
20
32
0
13
-12.82572
23
20
33
0
39
0
210
0
220
0
230
1
0
SOLID
5
253
100
AcDbEntity
8
0
62
256
6
ByLayer
370
-1
48
1
60
0
100
AcDbTrace
10
-13.354886
20
-16.825
30
0
11
-12.296553
21
-16.825
31
0
12
-12.82572
22
-20
32
0
13
-12.82572
23
-20
33
0
39
0
210
0
220
0
230
1
0
MTEXT
5
254
100
AcDbEntity
8
0
62
256
6
ByLayer
370
18
48
1
60
0
100
AcDbMText
10
-20.13222
20
5.798218
30
0
210
0
220
0
230
1
1
\A1;40
40
3.50012
41
0
44
1
50
90
71
5
72
5
7
iso_b_vert
0
POINT
5
255
100
AcDbEntity
8
Defpoints
62
0
6
ByLayer
370
-1
48
1
60
0
100
AcDbPoint
10
4.75
20
20
30
0
39
0
210
0
220
0
230
1
50
360
0
POINT
5
256
100
AcDbEntity
8
Defpoints
62
0
6
ByLayer
370
-1
48
1
60
0
100
AcDbPoint
10
1
20
-20
30
0
39
0
210
0
220
0
230
1
50
360
0
POINT
5
257
100
AcDbEntity
8
Defpoints
62
0
6
ByLayer
370
-1
48
1
60
0
100
AcDbPoint
10
-12.82572
20
-20
30
0
39
0
210
0
220
0
230
1
50
360
0
ENDBLK
5
24E
100
AcDbEntity
8
0
100
AcDbBlockEnd
0
BLOCK
5
263
100
AcDbEntity
8
0
100
AcDbBlockBegin
2
_U3
70
0
10
0
20
0
30
0
3
_U3
0
MTEXT
5
259
100
AcDbEntity
8
SK2
62
256
6
ByLayer
370
18
48
1
60
0
100
AcDbMText
10
-13.515377
20
3.681447
30
0
210
0
220
0
230
1
1
\W0.6920;40
40
3.50012
41
0
44
1.084337
50
90
71
7
72
5
7
iso_b_vert
0
LINE
5
25A
100
AcDbEntity
8
SK2
62
256
6
ByLayer
370
13
48
1
60
0
100
AcDbLine
10
-1.0875
20
20
30
0
11
-16.00072
21
20
31
0
39
0
210
0
220
0
230
1
0
LINE
5
25B
100
AcDbEntity
8
SK2
62
256
6
ByLayer
370
13
48
1
60
0
100
AcDbLine
10
-1.0875
20
-20
30
0
11
-16.00072
21
-20
31
0
39
0
210
0
220
0
230
1
0
LINE
5
25C
100
AcDbEntity
8
SK2
62
256
6
ByLayer
370
13
48
1
60
0
100
AcDbLine
10
-12.82572
20
20
30
0
11
-12.82572
21
-20
31
0
39
0
210
0
220
0
230
1
0
LINE
5
25D
100
AcDbEntity
8
SK2
62
256
6
ByLayer
370
13
48
1
60
0
100
AcDbLine
10
-12.82572
20
20
30
0
11
-12.407723
21
16.825002
31
0
39
0
210
0
220
0
230
1
0
LINE
5
25E
100
AcDbEntity
8
SK2
62
256
6
ByLayer
370
13
48
1
60
0
100
AcDbLine
10
-12.82572
20
20
30
0
11
-13.243716
21
16.824998
31
0
39
0
210
0
220
0
230
1
0
LINE
5
25F
100
AcDbEntity
8
SK2
62
256
6
ByLayer
370
13
48
1
60
0
100
AcDbLine
10
-12.407723
20
16.825002
30
0
11
-13.243716
21
16.824998
31
0
39
0
210
0
220
0
230
1
0
LINE
5
260
100
AcDbEntity
8
SK2
62
256
6
ByLayer
370
13
48
1
60
0
100
AcDbLine
10
-12.82572
20
-20
30
0
11
-13.243716
21
-16.825002
31
0
39
0
210
0
220
0
230
1
0
LINE
5
261
100
AcDbEntity
8
SK2
62
256
6
ByLayer
370
13
48
1
60
0
100
AcDbLine
10
-12.82572
20
-20
30
0
11
-12.407723
21
-16.824998
31
0
39
0
210
0
220
0
230
1
0
LINE
5
262
100
AcDbEntity
8
SK2
62
256
6
ByLayer
370
13
48
1
60
0
100
AcDbLine
10
-13.243716
20
-16.825002
30
0
11
-12.407723
21
-16.824998
31
0
39
0
210
0
220
0
230
1
0
ENDBLK
5
264
100
AcDbEntity
8
0
100
AcDbBlockEnd
0
ENDSEC
0
SECTION
2
ENTITIES
0
ARC
5
12F
100
AcDbEntity
8
1
62
256
6
ByLayer
370
18
48
1
60
0
100
AcDbCircle
39
0
10
16.616874
20
-30.4
30
0
40
0.4
210
0
220
0
230
1
100
AcDbArc
50
356.667001
51
70.559076
0
ARC
5
130
100
AcDbEntity
8
1
62
256
6
ByLayer
370
18
48
1
60
0
100
AcDbCircle
39
0
10
-11.383126
20
-30.4
30
0
40
0.4
210
0
220
0
230
-1
100
AcDbArc
50
356.667001
51
70.559076
0
ARC
5
131
100
AcDbEntity
8
1
62
256
6
ByLayer
370
18
48
1
60
0
100
AcDbCircle
39
0
10
-16.616874
20
-54.6
30
0
40
0.4
210
0
220
0
230
-1
100
AcDbArc
50
176.667001
51
270
0
ARC
5
132
100
AcDbEntity
8
1
62
256
6
ByLayer
370
18
48
1
60
0
100
AcDbCircle
39
0
10
11.383126
20
-54.6
30
0
40
0.4
210
0
220
0
230
1
100
AcDbArc
50
176.667001
51
270
0
ARC
5
133
100
AcDbEntity
8
SK1
62
256
6
ByLayer
370
18
48
1
60
0
100
AcDbCircle
39
0
10
0.240519
20
5.25
30
0
40
0.204499999999988
210
0
220
0
230
1
100
AcDbArc
50
300
51
60
0
ARC
5
134
100
AcDbEntity
8
SK1
62
256
6
ByLayer
370
18
48
1
60
0
100
AcDbCircle
39
0
10
-0.174981
20
4.60077
30
0
40
0.149999999999843
210
0
220
0
230
1
100
AcDbArc
50
120
51
180
0
ARC
5
135
100
AcDbEntity
8
SK1
62
256
6
ByLayer
370
18
48
1
60
0
100
AcDbCircle
39
0
10
-0.174981
20
4.39923
30
0
40
0.150000000000217
210
0
220
0
230
1
100
AcDbArc
50
180
51
240
0
ARC
5
136
100
AcDbEntity
8
SK1
62
256
6
ByLayer
370
18
48
1
60
0
100
AcDbCircle
39
0
10
0.240519
20
3.75
30
0
40
0.204500000000003
210
0
220
0
230
1
100
AcDbArc
50
300
51
60
0
ARC
5
137
100
AcDbEntity
8
SK1
62
256
6
ByLayer
370
18
48
1
60
0
100
AcDbCircle
39
0
10
-0.174981
20
3.10077
30
0
40
0.14999999999964
210
0
220
0
230
1
100
AcDbArc
50
120
51
180
0
ARC
5
138
100
AcDbEntity
8
SK1
62
256
6
ByLayer
370
18
48
1
60
0
100
AcDbCircle
39
0
10
-0.174981
20
2.89923
30
0
40
0.150000000000768
210
0
220
0
230
1
100
AcDbArc
50
180
51
240
0
ARC
5
139
100
AcDbEntity
8
SK1
62
256
6
ByLayer
370
18
48
1
60
0
100
AcDbCircle
39
0
10
0.240519
20
2.25
30
0
40
0.204499999999997
210
0
220
0
230
1
100
AcDbArc
50
300
51
60
0
ARC
5
13A
100
AcDbEntity
8
SK1
62
256
6
ByLayer
370
18
48
1
60
0
100
AcDbCircle
39
0
10
-0.174981
20
1.60077
30
0
40
0.150000000000713
210
0
220
0
230
1
100
AcDbArc
50
120
51
180
0
ARC
5
13B
100
AcDbEntity
8
SK1
62
256
6
ByLayer
370
18
48
1
60
0
100
AcDbCircle
39
0
10
-0.174981
20
1.39923
30
0
40
0.150000000000799
210
0
220
0
230
1
100
AcDbArc
50
180
51
240
0
ARC
5
13C
100
AcDbEntity
8
SK1
62
256
6
ByLayer
370
18
48
1
60
0
100
AcDbCircle
39
0
10
0.240519
20
0.75
30
0
40
0.204500000000015
210
0
220
0
230
1
100
AcDbArc
50
300
51
60
0
ARC
5
13D
100
AcDbEntity
8
SK1
62
256
6
ByLayer
370
18
48
1
60
0
100
AcDbCircle
39
0
10
-0.174981
20
0.10077
30
0
40
0.150000000000333
210
0
220
0
230
1
100
AcDbArc
50
120
51
180
0
ARC
5
13E
100
AcDbEntity
8
SK1
62
256
6
ByLayer
370
18
48
1
60
0
100
AcDbCircle
39
0
10
-0.174981
20
-0.10077
30
0
40
0.150000000000783
210
0
220
0
230
1
100
AcDbArc
50
180
51
240
0
ARC
5
13F
100
AcDbEntity
8
SK1
62
256
6
ByLayer
370
18
48
1
60
0
100
AcDbCircle
39
0
10
0.240519
20
-0.75
30
0
40
0.204499999999974
210
0
220
0
230
1
100
AcDbArc
50
300
51
60
0
ARC
5
140
100
AcDbEntity
8
SK1
62
256
6
ByLayer
370
18
48
1
60
0
100
AcDbCircle
39
0
10
-0.174981
20
-1.39923
30
0
40
0.150000000000321
210
0
220
0
230
1
100
AcDbArc
50
120
51
180
0
ARC
5
141
100
AcDbEntity
8
SK1
62
256
6
ByLayer
370
18
48
1
60
0
100
AcDbCircle
39
0
10
-0.174981
20
-1.60077
30
0
40
0.150000000000789
210
0
220
0
230
1
100
AcDbArc
50
180
51
240
0
ARC
5
142
100
AcDbEntity
8
SK1
62
256
6
ByLayer
370
18
48
1
60
0
100
AcDbCircle
39
0
10
0.240519
20
-2.25
30
0
40
0.204499999999988
210
0
220
0
230
1
100
AcDbArc
50
300
51
60
0
ARC
5
143
100
AcDbEntity
8
SK1
62
256
6
ByLayer
370
18
48
1
60
0
100
AcDbCircle
39
0
10
-0.174981
20
-2.89923
30
0
40
0.149999999999603
210
0
220
0
230
1
100
AcDbArc
50
120
51
180
0
ARC
5
144
100
AcDbEntity
8
SK1
62
256
6
ByLayer
370
18
48
1
60
0
100
AcDbCircle
39
0
10
-0.174981
20
-3.10077
30
0
40
0.150000000000321
210
0
220
0
230
1
100
AcDbArc
50
180
51
240
0
ARC
5
145
100
AcDbEntity
8
SK1
62
256
6
ByLayer
370
18
48
1
60
0
100
AcDbCircle
39
0
10
0.240519
20
-3.75
30
0
40
0.204499999999996
210
0
220
0
230
1
100
AcDbArc
50
300
51
60
0
ARC
5
146
100
AcDbEntity
8
SK1
62
256
6
ByLayer
370
18
48
1
60
0
100
AcDbCircle
39
0
10
-0.174981
20
-4.39923
30
0
40
0.150000000000425
210
0
220
0
230
1
100
AcDbArc
50
120
51
180
0
ARC
5
147
100
AcDbEntity
8
SK1
62
256
6
ByLayer
370
18
48
1
60
0
100
AcDbCircle
39
0
10
-0.174981
20
-4.60077
30
0
40
0.149999999999661
210
0
220
0
230
1
100
AcDbArc
50
180
51
240
0
ARC
5
148
100
AcDbEntity
8
SK1
62
256
6
ByLayer
370
18
48
1
60
0
100
AcDbCircle
39
0
10
0.240519
20
-5.25
30
0
40
0.20449999999999
210
0
220
0
230
1
100
AcDbArc
50
300
51
60
0
ARC
5
149
100
AcDbEntity
8
SK1
62
256
6
ByLayer
370
18
48
1
60
0
100
AcDbCircle
39
0
10
-0.174981
20
-16.39923
30
0
40
0.150000000000178
210
0
220
0
230
1
100
AcDbArc
50
120
51
180
0
ARC
5
14A
100
AcDbEntity
8
SK1
62
256
6
ByLayer
370
18
48
1
60
0
100
AcDbCircle
39
0
10
-0.174981
20
-16.60077
30
0
40
0.150000000000012
210
0
220
0
230
1
100
AcDbArc
50
180
51
240
0
ARC
5
14B
100
AcDbEntity
8
SK1
62
256
6
ByLayer
370
18
48
1
60
0
100
AcDbCircle
39
0
10
0.240519
20
-17.25
30
0
40
0.204499999999996
210
0
220
0
230
1
100
AcDbArc
50
300
51
60
0
ARC
5
14C
100
AcDbEntity
8
SK1
62
256
6
ByLayer
370
18
48
1
60
0
100
AcDbCircle
39
0
10
-0.174981
20
-17.89923
30
0
40
0.149999999999864
210
0
220
0
230
1
100
AcDbArc
50
120
51
180
0
ARC
5
14D
100
AcDbEntity
8
SK1
62
256
6
ByLayer
370
18
48
1
60
0
100
AcDbCircle
39
0
10
-0.174981
20
-18.10077
30
0
40
0.149999999999901
210
0
220
0
230
1
100
AcDbArc
50
180
51
240
0
ARC
5
14E
100
AcDbEntity
8
SK1
62
256
6
ByLayer
370
18
48
1
60
0
100
AcDbCircle
39
0
10
0.240519
20
-18.75
30
0
40
0.2045
210
0
220
0
230
1
100
AcDbArc
50
300
51
60
0
ELLIPSE
5
14F
100
AcDbEntity
8
1
62
256
6
ByLayer
370
18
48
1
60
0
100
AcDbEllipse
10
16.358749
20
-48.044631
30
0
11
3.99749950935644E-11
21
-0.433147589086941
31
0
210
0
220
0
230
1
40
0.230868
41
3.14159265358979
42
-2.96704007764629
0
ELLIPSE
5
150
100
AcDbEntity
8
1
62
256
6
ByLayer
370
18
48
1
60
0
100
AcDbEllipse
10
14.667299
20
-49.336487
30
0
11
-5.0808257092742E-15
21
-0.433147587430961
31
0
210
0
220
0
230
1
40
0.230868
41
-2.967059728398
42
-2.4775091824732
0
ELLIPSE
5
151
100
AcDbEntity
8
1
62
256
6
ByLayer
370
18
48
1
60
0
100
AcDbEllipse
10
13.332701
20
-49.336487
30
0
11
-5.0808257092742E-15
21
-0.433147587430961
31
0
210
0
220
0
230
1
40
0.230868
41
2.4775091824732
42
2.967059728398
0
ELLIPSE
5
152
100
AcDbEntity
8
1
62
256
6
ByLayer
370
18
48
1
60
0
100
AcDbEllipse
10
11.641251
20
-48.044631
30
0
11
3.90068763959863E-11
21
0.433147589087041
31
0
210
0
220
0
230
1
40
0.230868
41
-0.174552575943966
42
0
0
ELLIPSE
5
153
100
AcDbEntity
8
1
62
256
6
ByLayer
370
18
48
1
60
0
100
AcDbEllipse
10
14
20
-34.441631
30
0
11
1.2
21
1.46952762458685E-16
31
0
210
0
220
0
230
-1
40
0.469472
41
0
42
6.28318530717959
0
ELLIPSE
5
154
100
AcDbEntity
8
1
62
256
6
ByLayer
370
18
48
1
60
0
100
AcDbEllipse
10
14
20
-34.441631
30
0
11
0.866025403784439
21
1.06054021204601E-16
31
0
210
0
220
0
230
-1
40
0.469472
41
0.738776862593359
42
1.78597441378994
0
ELLIPSE
5
155
100
AcDbEntity
8
1
62
256
6
ByLayer
370
18
48
1
60
0
100
AcDbEllipse
10
14
20
-34.441631
30
0
11
0.866025403784439
21
1.06054021204601E-16
31
0
210
0
220
0
230
-1
40
0.469472
41
1.78597441378994
42
2.83317196498654
0
ELLIPSE
5
156
100
AcDbEntity
8
1
62
256
6
ByLayer
370
18
48
1
60
0
100
AcDbEllipse
10
14
20
-34.441631
30
0
11
0.866025403784439
21
1.06054021204601E-16
31
0
210
0
220
0
230
-1
40
0.469472
41
2.83317196498654
42
-2.40281579099644
0
ELLIPSE
5
157
100
AcDbEntity
8
1
62
256
6
ByLayer
370
18
48
1
60
0
100
AcDbEllipse
10
14
20
-34.441631
30
0
11
0.866025403784439
21
1.06054021204601E-16
31
0
210
0
220
0
230
-1
40
0.469472
41
-2.40281579099644
42
-1.35561823979985
0
ELLIPSE
5
158
100
AcDbEntity
8
1
62
256
6
ByLayer
370
18
48
1
60
0
100
AcDbEllipse
10
14
20
-34.441631
30
0
11
0.866025403784439
21
1.06054021204601E-16
31
0
210
0
220
0
230
-1
40
0.469472
41
-1.35561823979985
42
-0.308420688603257
0
ELLIPSE
5
159
100
AcDbEntity
8
1
62
256
6
ByLayer
370
18
48
1
60
0
100
AcDbEllipse
10
14
20
-34.441631
30
0
11
0.866025403784439
21
1.06054021204601E-16
31
0
210
0
220
0
230
-1
40
0.469472
41
-0.308420688603257
42
0.738776862593359
0
ELLIPSE
5
15A
100
AcDbEntity
8
1
62
256
6
ByLayer
370
18
48
1
60
0
100
AcDbEllipse
10
-143.1
20
6.222895
30
0
11
-2.23668512683408E-12
21
-190.680574766122
31
0
210
0
220
0
230
1
40
0.8391
41
1.43763178728485
42
1.50230677641371
0
ELLIPSE
5
15B
100
AcDbEntity
8
1
62
256
6
ByLayer
370
18
48
1
60
0
100
AcDbEllipse
10
171.099993
20
-41.744929
30
0
11
159.999993045982
21
-2.02870697527769E-12
31
0
210
0
220
0
230
1
40
0.32492
41
3.05792363060868
42
3.09259222493577
0
ELLIPSE
5
15C
100
AcDbEntity
8
1
62
256
6
ByLayer
370
18
48
1
60
0
100
AcDbEllipse
10
171.099998
20
-44.510003
30
0
11
159.999998269613
21
-2.02870704151029E-12
31
0
210
0
220
0
230
1
40
0.531709
41
3.00996287034292
42
3.05792363197992
0
ELLIPSE
5
15D
100
AcDbEntity
8
1
62
256
6
ByLayer
370
18
48
1
60
0
100
AcDbEllipse
10
-143.1
20
3.111448
30
0
11
-2.23668512698623E-12
21
-190.680574779093
31
0
210
0
220
0
230
1
40
0.8391
41
1.4391665442297
42
1.51410244742894
0
ELLIPSE
5
15E
100
AcDbEntity
8
1
62
256
6
ByLayer
370
18
48
1
60
0
100
AcDbEllipse
10
-143.099995
20
-41.744929
30
0
11
159.99999498855
21
-2.02870699990832E-12
31
0
210
0
220
0
230
1
40
0.32492
41
0.0490004283595248
42
0.0836690224746479
0
ELLIPSE
5
15F
100
AcDbEntity
8
1
62
256
6
ByLayer
370
18
48
1
60
0
100
AcDbEllipse
10
-143.099998
20
-44.510003
30
0
11
159.999998198857
21
-2.02870704061315E-12
31
0
210
0
220
0
230
1
40
0.531709
41
0.0836690216279803
42
0.131629783275773
0
ELLIPSE
5
160
100
AcDbEntity
8
1
62
256
6
ByLayer
370
18
48
1
60
0
100
AcDbEllipse
10
14
20
-34.441631
30
0
11
1.25
21
1.53075794227797E-16
31
0
210
0
220
0
230
-1
40
0.469472
41
0
42
6.28318530717959
0
ELLIPSE
5
161
100
AcDbEntity
8
1
62
256
6
ByLayer
370
18
48
1
60
0
100
AcDbEllipse
10
13.112831
20
-39.587656
30
0
11
1.50617874956197
21
0.045970765941118
31
0
210
0
220
0
230
1
40
0.412991
41
0.59985566253227
42
2.39419843108357
0
ELLIPSE
5
162
100
AcDbEntity
8
1
62
256
6
ByLayer
370
18
48
1
60
0
100
AcDbEllipse
10
14.652089
20
-38.333768
30
0
11
1.50869817014196
21
-0.0826979742707438
31
0
210
0
220
0
230
1
40
0.485115
41
0
42
6.28318530717959
0
ELLIPSE
5
163
100
AcDbEntity
8
1
62
256
6
ByLayer
370
18
48
1
60
0
100
AcDbEllipse
10
13.359925
20
-36.276506
30
0
11
0.668787242548451
21
8.04078430037219
31
0
210
0
220
0
230
1
40
0.185719
41
2.32266899043471
42
-2.29177724438393
0
POINT
5
70
100
AcDbEntity
8
80
62
256
6
ByLayer
370
18
48
1
60
0
100
AcDbPoint
10
0
20
0
30
0
39
0
210
0
220
0
230
1
50
360
0
POINT
5
72
100
AcDbEntity
8
81
62
256
6
ByLayer
370
18
48
1
60
0
100
AcDbPoint
10
14
20
-55
30
0
39
0
210
0
220
0
230
1
50
360
0
SPLINE
5
164
100
AcDbEntity
8
1
62
256
6
ByLayer
370
18
48
1
60
0
100
AcDbSpline
70
4
71
2
72
6
73
3
40
0
40
0
40
0
40
1
40
1
40
1
41
1
10
14.4830853518215
20
-49.4823668306205
30
0
41
1
10
14.4931766319902
20
-49.3769907517285
30
0
41
1
10
14.5138875681555
20
-49.3065261768007
30
0
0
SPLINE
5
165
100
AcDbEntity
8
1
62
256
6
ByLayer
370
18
48
1
60
0
100
AcDbSpline
70
4
71
2
72
6
73
3
40
0
40
0
40
0
40
1
40
1
40
1
41
1
10
14.427734673857
20
-50.1702887043923
30
0
41
1
10
14.4509625305671
20
-49.8195527839452
30
0
41
1
10
14.4830853518295
20
-49.482366830591
30
0
0
SPLINE
5
166
100
AcDbEntity
8
1
62
256
6
ByLayer
370
18
48
1
60
0
100
AcDbSpline
70
4
71
3
72
20
73
16
40
0
40
0
40
0
40
0
40
0.119760301054401
40
0.229755695722288
40
0.329996235928916
40
0.420495232983852
40
0.50127082376895
40
0.638194936766724
40
0.751527594230747
40
0.809708245630584
40
0.860663174703903
40
0.904640927165888
40
0.942029454089467
40
0.973461643046277
40
1
40
1
40
1
40
1
41
1
10
14.4277325237375
20
-50.1703211835002
30
0
41
1
10
14.4253272164382
20
-50.2032384223178
30
0
41
1
10
14.4207127235961
20
-50.2663889241053
30
0
41
1
10
14.4112496745568
20
-50.3568557592622
30
0
41
1
10
14.4006795939477
20
-50.4390901560862
30
0
41
1
10
14.3891781587026
20
-50.5130842502186
30
0
41
1
10
14.3738059064429
20
-50.5966964538531
30
0
41
1
10
14.3535144824554
20
-50.6857936594093
30
0
41
1
10
14.3289484468656
20
-50.7674524892748
30
0
41
1
10
14.3066755651015
20
-50.8248261983129
30
0
41
1
10
14.288561010919
20
-50.8631746632326
30
0
41
1
10
14.2700121064858
20
-50.8949500526216
30
0
41
1
10
14.2509864679414
20
-50.9199071235435
30
0
41
1
10
14.2319230716485
20
-50.9389623673366
30
0
41
1
10
14.2173890993501
20
-50.9465271444835
30
0
41
1
10
14.2107355869715
20
-50.9499902265202
30
0
0
SPLINE
5
167
100
AcDbEntity
8
1
62
256
6
ByLayer
370
18
48
1
60
0
100
AcDbSpline
70
4
71
3
72
13
73
9
40
0
40
0
40
0
40
0
40
0.173254768746515
40
0.342985030730123
40
0.509834375982733
40
0.674480181908037
40
0.837627275076529
40
1
40
1
40
1
40
1
41
1
10
14.2107355870575
20
-50.9499902266702
30
0
41
1
10
14.200207057162
20
-50.9540586583592
30
0
41
1
10
14.1793641783431
20
-50.9621127579835
30
0
41
1
10
14.1474976132408
20
-50.9717000120856
30
0
41
1
10
14.1156548906234
20
-50.9792735390137
30
0
41
1
10
14.0837772256574
20
-50.9846204008346
30
0
41
1
10
14.0518915044875
20
-50.9879790358225
30
0
41
1
10
14.0306136295514
20
-50.9883962127304
30
0
41
1
10
14.0200000006971
20
-50.9886043049802
30
0
0
SPLINE
5
168
100
AcDbEntity
8
1
62
256
6
ByLayer
370
18
48
1
60
0
100
AcDbSpline
70
4
71
2
72
6
73
3
40
0
40
0
40
0
40
1
40
1
40
1
41
1
10
13.7892644129415
20
-50.949990226671
30
0
41
1
10
13.8844087349081
20
-50.9884919085575
30
0
41
1
10
13.9799999993019
20
-50.9886043049809
30
0
0
SPLINE
5
169
100
AcDbEntity
8
1
62
256
6
ByLayer
370
18
48
1
60
0
100
AcDbSpline
70
4
71
2
72
10
73
7
40
0
40
0
40
0
40
0.5
40
0.5
40
0.75
40
0.75
40
1
40
1
40
1
41
1
10
13.5722674762615
20
-50.1703211835006
30
0
41
1
10
13.587534373681
20
-50.4005090492971
30
0
41
1
10
13.6237416432625
20
-50.5813994958525
30
0
41
1
10
13.6470238717697
20
-50.6977168199745
30
0
41
1
10
13.6769810514913
20
-50.7815407125728
30
0
41
1
10
13.7281228301931
20
-50.9246417322626
30
0
41
1
10
13.7892644130275
20
-50.9499902265209
30
0
0
SPLINE
5
16A
100
AcDbEntity
8
1
62
256
6
ByLayer
370
18
48
1
60
0
100
AcDbSpline
70
4
71
3
72
10
73
6
40
0
40
0
40
0
40
0
40
0.349345455437204
40
0.682677789436989
40
1
40
1
40
1
40
1
41
1
10
13.5722653261446
20
-50.1702887043919
30
0
41
1
10
13.5667261918129
20
-50.0901143749183
30
0
41
1
10
13.5559018232055
20
-49.9334407065974
30
0
41
1
10
13.5373916006496
20
-49.7041244704151
30
0
41
1
10
13.5236274042271
20
-49.555063436274
30
0
41
1
10
13.5169146481695
20
-49.4823668305902
30
0
0
SPLINE
5
16B
100
AcDbEntity
8
1
62
256
6
ByLayer
370
18
48
1
60
0
100
AcDbSpline
70
4
71
3
72
9
73
5
40
0
40
0
40
0
40
0
40
0.572743649990616
40
1
40
1
40
1
40
1
41
1
10
13.5169146481776
20
-49.4823668306202
30
0
41
1
10
13.5132484323117
20
-49.4484188310258
30
0
41
1
10
13.5068472860643
20
-49.3891462409326
30
0
41
1
10
13.4923195144972
20
-49.3312589075661
30
0
41
1
10
13.4861124318436
20
-49.3065261768002
30
0
0
SPLINE
5
16C
100
AcDbEntity
8
1
62
256
6
ByLayer
370
18
48
1
60
0
100
AcDbSpline
70
4
71
3
72
10
73
6
40
0
40
0
40
0
40
0
40
0.406154267944024
40
0.406154267944024
40
1
40
1
40
1
40
1
41
1
10
13.7066586576974
20
-34.0584511068456
30
0
41
1
10
13.6587890429889
20
-34.0679708216387
30
0
41
1
10
13.6111278686128
20
-34.0799674642449
30
0
41
1
10
13.4952171223459
20
-34.114656815978
30
0
41
1
10
13.4272035026606
20
-34.1397187097039
30
0
41
1
10
13.3597536951602
20
-34.1678503469509
30
0
0
SPLINE
5
16D
100
AcDbEntity
8
1
62
256
6
ByLayer
370
18
48
1
60
0
100
AcDbSpline
70
4
71
3
72
14
73
10
40
0
40
0
40
0
40
0
40
0.0689918220300213
40
0.0689918220300213
40
0.379327881353348
40
0.379327881353348
40
0.689663940676674
40
0.689663940676674
40
1
40
1
40
1
40
1
41
1
10
14.3081736781125
20
-34.0613831311379
30
0
41
1
10
14.3200345375895
20
-34.0637161057042
30
0
41
1
10
14.3319138833426
20
-34.0662719840552
30
0
41
1
10
14.3972611792639
20
-34.0816336361129
30
0
41
1
10
14.4510225121489
20
-34.0990725573772
30
0
41
1
10
14.5592465674367
20
-34.1453640628221
30
0
41
1
10
14.614093582379
20
-34.174527736154
30
0
41
1
10
14.7209891772359
20
-34.2409686101341
30
0
41
1
10
14.7734145103118
20
-34.2782451942815
30
0
41
1
10
14.8251612716289
20
-34.3182136932164
30
0
0
SPLINE
5
16E
100
AcDbEntity
8
1
62
256
6
ByLayer
370
18
48
1
60
0
100
AcDbSpline
70
4
71
3
72
12
73
8
40
0
40
0
40
0
40
0
40
0.499999999999999
40
0.499999999999999
40
0.75
40
0.75
40
1
40
1
40
1
40
1
41
1
10
13.3597536951607
20
-34.1678503469485
30
0
41
1
10
13.3295608385158
20
-34.1966628656648
30
0
41
1
10
13.2989152871686
20
-34.2394679130931
30
0
41
1
10
13.251750605631
20
-34.3406541032464
30
0
41
1
10
13.2360458625458
20
-34.380032784357
30
0
41
1
10
13.2051954792269
20
-34.4669093736108
30
0
41
1
10
13.1899539298985
20
-34.5145375420303
30
0
41
1
10
13.1748387283703
20
-34.5650483864292
30
0
0
SPLINE
5
16F
100
AcDbEntity
8
1
62
256
6
ByLayer
370
18
48
1
60
0
100
AcDbSpline
70
4
71
3
72
12
73
8
40
0
40
0
40
0
40
0
40
0.500000000000006
40
0.500000000000006
40
0.750000000000003
40
0.750000000000003
40
1
40
1
40
1
40
1
41
1
10
14.6402463048386
20
-34.7154117326908
30
0
41
1
10
14.6704391614835
20
-34.6145155136691
30
0
41
1
10
14.7010847128308
20
-34.5256670435359
30
0
41
1
10
14.7482493943683
20
-34.4242334094045
30
0
41
1
10
14.7639541374535
20
-34.3961443968801
30
0
41
1
10
14.7948045207725
20
-34.3504875088916
30
0
41
1
10
14.8100460701008
20
-34.3326378675165
30
0
41
1
10
14.825161271629
20
-34.3182136932141
30
0
0
SPLINE
5
170
100
AcDbEntity
8
1
62
256
6
ByLayer
370
18
48
1
60
0
100
AcDbSpline
70
4
71
3
72
14
73
10
40
0
40
0
40
0
40
0
40
0.25
40
0.25
40
0.5
40
0.5
40
0.75
40
0.75
40
1
40
1
40
1
40
1
41
1
10
13.1748387283704
20
-34.5650483864311
30
0
41
1
10
13.2269196325479
20
-34.5693632395834
30
0
41
1
10
13.2802609666229
20
-34.5771136456621
30
0
41
1
10
13.3871849408445
20
-34.6022490221984
30
0
41
1
10
13.4409462737295
20
-34.6196879434627
30
0
41
1
10
13.5491703290173
20
-34.6659794489076
30
0
41
1
10
13.6040173439595
20
-34.6951431222395
30
0
41
1
10
13.7109129388165
20
-34.7615839962196
30
0
41
1
10
13.7633382718924
20
-34.798860580367
30
0
41
1
10
13.8150850332095
20
-34.8388290793019
30
0
0
SPLINE
5
171
100
AcDbEntity
8
1
62
256
6
ByLayer
370
18
48
1
60
0
100
AcDbSpline
70
4
71
3
72
12
73
8
40
0
40
0
40
0
40
0
40
0.500000000000004
40
0.500000000000004
40
0.750000000000002
40
0.750000000000002
40
1
40
1
40
1
40
1
41
1
10
13.8150850332089
20
-34.8388290792979
30
0
41
1
10
13.9498171017683
20
-34.7826356842578
30
0
41
1
10
14.0865692671468
20
-34.7391602870938
30
0
41
1
10
14.2970361064139
20
-34.7075575564015
30
0
41
1
10
14.3671166737134
20
-34.7027206122082
30
0
41
1
10
14.5047828776534
20
-34.7027400665244
30
0
41
1
10
14.5727964973387
20
-34.7074566998429
30
0
41
1
10
14.6402463048391
20
-34.7154117326924
30
0
0
SPLINE
5
172
100
AcDbEntity
8
SK1
62
256
6
ByLayer
370
18
48
1
60
0
100
AcDbSpline
70
4
71
3
72
8
73
4
40
0
40
0
40
0
40
0
40
1
40
1
40
1
40
1
41
1
10
0.342769052838179
20
-9.92710219507401
30
0
41
1
10
0.200228104509961
20
-10.0093982499619
30
0
41
1
10
0.0693189021617968
20
-10.084978713177
30
0
41
1
10
-0.0469703231318022
20
-10.1521183287041
30
0
0
SPLINE
5
173
100
AcDbEntity
8
SK1
62
256
6
ByLayer
370
18
48
1
60
0
100
AcDbSpline
70
4
71
3
72
8
73
4
40
0
40
0
40
0
40
0
40
1
40
1
40
1
40
1
41
1
10
0.126148905032551
20
-5.55216789572151
30
0
41
1
10
0.0001260536854204
20
-5.62492722287081
30
0
41
1
10
-0.125290129204416
20
-5.697336289823
30
0
41
1
10
-0.249980947161674
20
-5.76932656713609
30
0
0
SPLINE
5
174
100
AcDbEntity
8
SK1
62
256
6
ByLayer
370
18
48
1
60
0
100
AcDbSpline
70
4
71
3
72
10
73
6
40
0
40
0
40
0
40
0
40
0.5
40
0.5
40
1
40
1
40
1
40
1
41
1
10
-0.32498094716172
20
-5.89923037770382
30
0
41
1
10
-0.32498094716172
20
-5.86925980150144
30
0
41
1
10
-0.315419205835127
20
-5.84050503820623
30
0
41
1
10
-0.287575493106942
20
-5.79678996467402
30
0
41
1
10
-0.269423016056493
20
-5.78055145084608
30
0
41
1
10
-0.249980947161703
20
-5.76932656713606
30
0
0
SPLINE
5
175
100
AcDbEntity
8
SK1
62
256
6
ByLayer
370
18
48
1
60
0
100
AcDbSpline
70
4
71
3
72
10
73
6
40
0
40
0
40
0
40
0
40
0.5
40
0.5
40
1
40
1
40
1
40
1
41
1
10
-0.24998094716176
20
-6.23067343286397
30
0
41
1
10
-0.269221301634303
20
-6.21956500902994
30
0
41
1
10
-0.287683543961634
20
-6.20323581555749
30
0
41
1
10
-0.315955426925711
20
-6.15845317404336
30
0
41
1
10
-0.324980948528662
20
-6.1297133937862
30
0
41
1
10
-0.32498094716172
20
-6.10076961521227
30
0
0
SPLINE
5
176
100
AcDbEntity
8
SK1
62
256
6
ByLayer
370
18
48
1
60
0
100
AcDbSpline
70
4
71
3
72
8
73
4
40
0
40
0
40
0
40
0
40
1
40
1
40
1
40
1
41
1
10
-0.249980947161674
20
-6.23067343286402
30
0
41
1
10
-0.0532711848777581
20
-6.34424386707087
30
0
41
1
10
0.144388484030202
20
-6.45836273012281
30
0
41
1
10
0.342769052838349
20
-6.57289780492618
30
0
0
SPLINE
5
177
100
AcDbEntity
8
SK1
62
256
6
ByLayer
370
18
48
1
60
0
100
AcDbSpline
70
4
71
3
72
18
73
14
40
0
40
0
40
0
40
0
40
0.249999999999983
40
0.249999999999983
40
0.374999999999982
40
0.374999999999982
40
0.49999999999998
40
0.49999999999998
40
0.624999999999979
40
0.624999999999979
40
0.749999999999977
40
0.749999999999977
40
1
40
1
40
1
40
1
41
1
10
0.342769052839515
20
-6.57289780491917
30
0
41
1
10
0.370516593263858
20
-6.5889178548521
30
0
41
1
10
0.397303986572126
20
-6.61292698995098
30
0
41
1
10
0.427069711749169
20
-6.66393798432316
30
0
41
1
10
0.434841942706072
20
-6.683025676819
30
0
41
1
10
0.444310147221216
20
-6.72323929480859
30
0
41
1
10
0.44590256767404
20
-6.74420182497156
30
0
41
1
10
0.443169313479842
20
-6.78389511560468
30
0
41
1
10
0.43890091878913
20
-6.80280522841383
30
0
41
1
10
0.426637846290475
20
-6.83662304318071
30
0
41
1
10
0.418504222063206
20
-6.85201367673579
30
0
41
1
10
0.390918604963105
20
-6.89234207927848
30
0
41
1
10
0.36778268519231
20
-6.9126605677032
30
0
41
1
10
0.342769052829652
20
-6.9271021950795
30
0
0
SPLINE
5
178
100
AcDbEntity
8
SK1
62
256
6
ByLayer
370
18
48
1
60
0
100
AcDbSpline
70
4
71
3
72
8
73
4
40
0
40
0
40
0
40
0
40
1
40
1
40
1
40
1
41
1
10
0.342769052829738
20
-6.9271021950789
30
0
41
1
10
0.141559860419449
20
-7.04327037648039
30
0
41
1
10
-0.0563906484607912
20
-7.15755715606863
30
0
41
1
10
-0.249980947161674
20
-7.26932656713609
30
0
0
SPLINE
5
179
100
AcDbEntity
8
SK1
62
256
6
ByLayer
370
18
48
1
60
0
100
AcDbSpline
70
4
71
3
72
12
73
8
40
0
40
0
40
0
40
0
40
0.250000000000002
40
0.250000000000002
40
0.500000000000004
40
0.500000000000004
40
1
40
1
40
1
40
1
41
1
10
-0.324980947162828
20
-7.39923037770154
30
0
41
1
10
-0.324980947162572
20
-7.38337657086751
30
0
41
1
10
-0.322450175693035
20
-7.36837825477244
30
0
41
1
10
-0.314111654910107
20
-7.34142317214582
30
0
41
1
10
-0.308330050423848
20
-7.32935310050175
30
0
41
1
10
-0.287609551001083
20
-7.29688749110633
30
0
41
1
10
-0.269931169711498
20
-7.28084483349562
30
0
41
1
10
-0.249980947161674
20
-7.26932656713609
30
0
0
SPLINE
5
17A
100
AcDbEntity
8
SK1
62
256
6
ByLayer
370
18
48
1
60
0
100
AcDbSpline
70
4
71
3
72
12
73
8
40
0
40
0
40
0
40
0
40
0.500000000000018
40
0.500000000000018
40
0.750000000000009
40
0.750000000000009
40
1
40
1
40
1
40
1
41
1
10
-0.249980947162015
20
-7.73067343286525
30
0
41
1
10
-0.269423441542301
20
-7.71944830350114
30
0
41
1
10
-0.289029564075918
20
-7.7019604148874
30
0
41
1
10
-0.310297262082173
20
-7.66692217929651
30
0
41
1
10
-0.31598186619928
20
-7.65376622660906
30
0
41
1
10
-0.323277724085727
20
-7.62718865316555
30
0
41
1
10
-0.324980946025619
20
-7.61364114856787
30
0
41
1
10
-0.32498094716172
20
-7.60076963553601
30
0
0
SPLINE
5
17B
100
AcDbEntity
8
SK1
62
256
6
ByLayer
370
18
48
1
60
0
100
AcDbSpline
70
4
71
3
72
8
73
4
40
0
40
0
40
0
40
0
40
1
40
1
40
1
40
1
41
1
10
-0.249980947161674
20
-7.73067343286402
30
0
41
1
10
-0.052543083876742
20
-7.8446642363798
30
0
41
1
10
0.145053884699962
20
-7.95874689937861
30
0
41
1
10
0.342769052838349
20
-8.07289780492619
30
0
0
SPLINE
5
17C
100
AcDbEntity
8
SK1
62
256
6
ByLayer
370
18
48
1
60
0
100
AcDbSpline
70
4
71
3
72
20
73
16
40
0
40
0
40
0
40
0
40
0.124999999999996
40
0.124999999999996
40
0.249999999999991
40
0.249999999999991
40
0.374999999999987
40
0.374999999999987
40
0.499999999999983
40
0.499999999999983
40
0.624999999999978
40
0.624999999999978
40
0.749999999999974
40
0.749999999999974
40
1
40
1
40
1
40
1
41
1
10
0.342769052838406
20
-8.07289780491905
30
0
41
1
10
0.358292509144491
20
-8.08186027659576
30
0
41
1
10
0.373840112708166
20
-8.09359617355815
30
0
41
1
10
0.402117274927292
20
-8.12302489792029
30
0
41
1
10
0.414983786794892
20
-8.14098160453824
30
0
41
1
10
0.434460540703185
20
-8.18137308670546
30
0
41
1
10
0.440646639176094
20
-8.20301629896775
30
0
41
1
10
0.446015310825317
20
-8.24454042772558
30
0
41
1
10
0.445321800639619
20
-8.26441983775581
30
0
41
1
10
0.439548347043882
20
-8.30039282960806
30
0
41
1
10
0.434428159406849
20
-8.31691561693788
30
0
41
1
10
0.42159742372462
20
-8.34637979558786
30
0
41
1
10
0.413807258684983
20
-8.35960033832487
30
0
41
1
10
0.387312012958972
20
-8.39544835043756
30
0
41
1
10
0.366333953146125
20
-8.41349699353793
30
0
41
1
10
0.342769052838378
20
-8.42710219507407
30
0
0
SPLINE
5
17D
100
AcDbEntity
8
SK1
62
256
6
ByLayer
370
18
48
1
60
0
100
AcDbSpline
70
4
71
3
72
8
73
4
40
0
40
0
40
0
40
0
40
1
40
1
40
1
40
1
41
1
10
0.342769052838293
20
-8.42710219507393
30
0
41
1
10
0.136066482638768
20
-8.54644197962082
30
0
41
1
10
-0.0625363391943097
20
-8.66110537226797
30
0
41
1
10
-0.249980947161731
20
-8.76932656713612
30
0
0
SPLINE
5
17E
100
AcDbEntity
8
SK1
62
256
6
ByLayer
370
18
48
1
60
0
100
AcDbSpline
70
4
71
3
72
10
73
6
40
0
40
0
40
0
40
0
40
0.5
40
0.5
40
1
40
1
40
1
40
1
41
1
10
-0.324980947161777
20
-8.89923037769219
30
0
41
1
10
-0.324980947159247
20
-8.86655406122381
30
0
41
1
10
-0.315260525494381
20
-8.84047279882154
30
0
41
1
10
-0.288469123361153
20
-8.79798193556161
30
0
41
1
10
-0.270641110941853
20
-8.78125471825561
30
0
41
1
10
-0.24998094716193
20
-8.76932656713578
30
0
0
SPLINE
5
17F
100
AcDbEntity
8
SK1
62
256
6
ByLayer
370
18
48
1
60
0
100
AcDbSpline
70
4
71
3
72
14
73
10
40
0
40
0
40
0
40
0
40
0.25
40
0.25
40
0.5
40
0.5
40
0.75
40
0.75
40
1
40
1
40
1
40
1
41
1
10
-0.249980947161191
20
-9.23067343286618
30
0
41
1
10
-0.26024416492254
20
-9.22474796132906
30
0
41
1
10
-0.270778577522662
20
-9.21705150636521
30
0
41
1
10
-0.290763328836505
20
-9.19717036212282
30
0
41
1
10
-0.299849915215816
20
-9.18511528382069
30
0
41
1
10
-0.313591135543135
20
-9.1598768593976
30
0
41
1
10
-0.318241784057108
20
-9.14694235130665
30
0
41
1
10
-0.32390048913976
20
-9.12264559791512
30
0
41
1
10
-0.324980945088271
20
-9.11142868840236
30
0
41
1
10
-0.324980947161777
20
-9.10076965147613
30
0
0
SPLINE
5
180
100
AcDbEntity
8
SK1
62
256
6
ByLayer
370
18
48
1
60
0
100
AcDbSpline
70
4
71
3
72
8
73
4
40
0
40
0
40
0
40
0
40
1
40
1
40
1
40
1
41
1
10
-0.249980947161447
20
-9.23067343286419
30
0
41
1
10
-0.0525671006115829
20
-9.34465037031151
30
0
41
1
10
0.14503595212048
20
-9.45873654599905
30
0
41
1
10
0.342769052838293
20
-9.57289780492619
30
0
0
SPLINE
5
181
100
AcDbEntity
8
SK1
62
256
6
ByLayer
370
18
48
1
60
0
100
AcDbSpline
70
4
71
3
72
18
73
14
40
0
40
0
40
0
40
0
40
0.124999999999994
40
0.124999999999994
40
0.249999999999987
40
0.249999999999987
40
0.374999999999981
40
0.374999999999981
40
0.499999999999974
40
0.499999999999974
40
0.749999999999987
40
0.749999999999987
40
1
40
1
40
1
40
1
41
1
10
0.342769052837724
20
-9.57289780492366
30
0
41
1
10
0.361659745428511
20
-9.5838043513759
30
0
41
1
10
0.381427263361843
20
-9.59943461143865
30
0
41
1
10
0.415201412962233
20
-9.64040468492169
30
0
41
1
10
0.428156283128885
20
-9.66518180396042
30
0
41
1
10
0.442739500660593
20
-9.71115740671533
30
0
41
1
10
0.445111268805079
20
-9.73216305181924
30
0
41
1
10
0.444921672841332
20
-9.76989222185938
30
0
41
1
10
0.442344734563392
20
-9.78660417650858
30
0
41
1
10
0.430207127453286
20
-9.83277421407419
30
0
41
1
10
0.416682839154873
20
-9.85712203954077
30
0
41
1
10
0.383930349616577
20
-9.89812835961135
30
0
41
1
10
0.364451801694258
20
-9.91458365418586
30
0
41
1
10
0.342769052838605
20
-9.92710219507444
30
0
0
SPLINE
5
182
100
AcDbEntity
8
SK1
62
256
6
ByLayer
370
18
48
1
60
0
100
AcDbSpline
70
4
71
3
72
8
73
4
40
0
40
0
40
0
40
0
40
1
40
1
40
1
40
1
41
1
10
0.342769052838378
20
9.92710219507387
30
0
41
1
10
0.20022810451016
20
10.0093982499617
30
0
41
1
10
0.0693189021620242
20
10.0849787131768
30
0
41
1
10
-0.0469703231315748
20
10.1521183287039
30
0
0
SPLINE
5
183
100
AcDbEntity
8
SK1
62
256
6
ByLayer
370
18
48
1
60
0
100
AcDbSpline
70
4
71
3
72
18
73
14
40
0
40
0
40
0
40
0
40
0.125000000000006
40
0.125000000000006
40
0.250000000000013
40
0.250000000000013
40
0.375000000000019
40
0.375000000000019
40
0.500000000000026
40
0.500000000000026
40
0.750000000000013
40
0.750000000000013
40
1
40
1
40
1
40
1
41
1
10
0.342769052837895
20
9.57289780492351
30
0
41
1
10
0.361659745428682
20
9.58380435137576
30
0
41
1
10
0.381427263361985
20
9.59943461143848
30
0
41
1
10
0.415201412962375
20
9.64040468492152
30
0
41
1
10
0.428156283129056
20
9.66518180396025
30
0
41
1
10
0.442739500660792
20
9.71115740671516
30
0
41
1
10
0.445111268805277
20
9.73216305181907
30
0
41
1
10
0.444921672841559
20
9.76989222185921
30
0
41
1
10
0.442344734563619
20
9.7866041765084
30
0
41
1
10
0.430207127453514
20
9.83277421407402
30
0
41
1
10
0.416682839155044
20
9.85712203954063
30
0
41
1
10
0.383930349616747
20
9.89812835961121
30
0
41
1
10
0.364451801694457
20
9.91458365418572
30
0
41
1
10
0.342769052838804
20
9.92710219507433
30
0
0
SPLINE
5
184
100
AcDbEntity
8
SK1
62
256
6
ByLayer
370
18
48
1
60
0
100
AcDbSpline
70
4
71
3
72
8
73
4
40
0
40
0
40
0
40
0
40
1
40
1
40
1
40
1
41
1
10
-0.249980947161504
20
9.23067343286391
30
0
41
1
10
-0.0525671006115545
20
9.34465037031129
30
0
41
1
10
0.145035952120565
20
9.45873654599887
30
0
41
1
10
0.342769052838463
20
9.57289780492604
30
0
0
SPLINE
5
185
100
AcDbEntity
8
SK1
62
256
6
ByLayer
370
18
48
1
60
0
100
AcDbSpline
70
4
71
3
72
14
73
10
40
0
40
0
40
0
40
0
40
0.25
40
0.25
40
0.5
40
0.5
40
0.75
40
0.75
40
1
40
1
40
1
40
1
41
1
10
-0.324980947166409
20
9.10076962228254
30
0
41
1
10
-0.324980947167376
20
9.11136059578067
30
0
41
1
10
-0.323881994656517
20
9.12274977248734
30
0
41
1
10
-0.318229425941269
20
9.1469705127077
30
0
41
1
10
-0.313571777695728
20
9.15991639605667
30
0
41
1
10
-0.299850214227519
20
9.18511074688456
30
0
41
1
10
-0.290682009752487
20
9.1972589844824
30
0
41
1
10
-0.270776707340332
20
9.21704560963468
30
0
41
1
10
-0.260190127137776
20
9.22477916006085
30
0
41
1
10
-0.249980947161447
20
9.23067343286817
30
0
0
SPLINE
5
186
100
AcDbEntity
8
SK1
62
256
6
ByLayer
370
18
48
1
60
0
100
AcDbSpline
70
4
71
3
72
12
73
8
40
0
40
0
40
0
40
0
40
0.500000000000033
40
0.500000000000033
40
0.750000000000016
40
0.750000000000016
40
1
40
1
40
1
40
1
41
1
10
-0.249980947162072
20
8.76932656713521
30
0
41
1
10
-0.270604914733042
20
8.78123382036407
30
0
41
1
10
-0.288263389710011
20
8.79770683350699
30
0
41
1
10
-0.308536328215951
20
8.8297829468986
30
0
41
1
10
-0.314161023967984
20
8.84158814262511
30
0
41
1
10
-0.322390682705503
20
8.86818056431352
30
0
41
1
10
-0.324980951347243
20
8.88288598383085
30
0
41
1
10
-0.324980947161578
20
8.89923041611746
30
0
0
SPLINE
5
187
100
AcDbEntity
8
SK1
62
256
6
ByLayer
370
18
48
1
60
0
100
AcDbSpline
70
4
71
3
72
8
73
4
40
0
40
0
40
0
40
0
40
1
40
1
40
1
40
1
41
1
10
0.342769052838492
20
8.42710219507381
30
0
41
1
10
0.136066482638967
20
8.54644197962071
30
0
41
1
10
-0.0625363391941107
20
8.66110537226785
30
0
41
1
10
-0.249980947161532
20
8.76932656713598
30
0
0
SPLINE
5
188
100
AcDbEntity
8
SK1
62
256
6
ByLayer
370
18
48
1
60
0
100
AcDbSpline
70
4
71
3
72
20
73
16
40
0
40
0
40
0
40
0
40
0.125000000000004
40
0.125000000000004
40
0.250000000000007
40
0.250000000000007
40
0.375000000000011
40
0.375000000000011
40
0.500000000000015
40
0.500000000000015
40
0.625000000000018
40
0.625000000000018
40
0.750000000000022
40
0.750000000000022
40
1
40
1
40
1
40
1
41
1
10
0.342769052838577
20
8.07289780491894
30
0
41
1
10
0.358292509144633
20
8.08186027659565
30
0
41
1
10
0.373840112708308
20
8.09359617355807
30
0
41
1
10
0.402117274927434
20
8.12302489792017
30
0
41
1
10
0.414983786795062
20
8.14098160453815
30
0
41
1
10
0.434460540703384
20
8.18137308670535
30
0
41
1
10
0.440646639176322
20
8.20301629896764
30
0
41
1
10
0.446015310825544
20
8.2445404277255
30
0
41
1
10
0.445321800639846
20
8.26441983775572
30
0
41
1
10
0.439548347044109
20
8.30039282960797
30
0
41
1
10
0.434428159407077
20
8.31691561693776
30
0
41
1
10
0.421597423724819
20
8.34637979558778
30
0
41
1
10
0.413807258685182
20
8.35960033832478
30
0
41
1
10
0.387312012959171
20
8.39544835043745
30
0
41
1
10
0.366333953146324
20
8.41349699353785
30
0
41
1
10
0.342769052838577
20
8.42710219507396
30
0
0
SPLINE
5
189
100
AcDbEntity
8
SK1
62
256
6
ByLayer
370
18
48
1
60
0
100
AcDbSpline
70
4
71
3
72
8
73
4
40
0
40
0
40
0
40
0
40
1
40
1
40
1
40
1
41
1
10
-0.249980947161504
20
7.73067343286391
30
0
41
1
10
-0.0525430838765999
20
7.84466423637968
30
0
41
1
10
0.145053884700104
20
7.9587468993785
30
0
41
1
10
0.342769052838492
20
8.07289780492607
30
0
0
SPLINE
5
18A
100
AcDbEntity
8
SK1
62
256
6
ByLayer
370
18
48
1
60
0
100
AcDbSpline
70
4
71
3
72
12
73
8
40
0
40
0
40
0
40
0
40
0.25
40
0.25
40
0.5
40
0.5
40
1
40
1
40
1
40
1
41
1
10
-0.324980947161635
20
7.60076962228351
30
0
41
1
10
-0.324980947162714
20
7.61355284176673
30
0
41
1
10
-0.323278187877293
20
7.62715829572264
30
0
41
1
10
-0.316025131018733
20
7.65363711598724
30
0
41
1
10
-0.310349374008951
20
7.66682045254657
30
0
41
1
10
-0.289065322062669
20
7.7019330942563
30
0
41
1
10
-0.269481467385532
20
7.71941480226337
30
0
41
1
10
-0.249980947161561
20
7.73067343286402
30
0
0
SPLINE
5
18B
100
AcDbEntity
8
SK1
62
256
6
ByLayer
370
18
48
1
60
0
100
AcDbSpline
70
4
71
3
72
10
73
6
40
0
40
0
40
0
40
0
40
0.5
40
0.5
40
1
40
1
40
1
40
1
41
1
10
-0.249980947159827
20
7.26932656713424
30
0
41
1
10
-0.269739875690078
20
7.28073438983967
30
0
41
1
10
-0.287604165308778
20
7.29692770850377
30
0
41
1
10
-0.315076899640388
20
7.33987593818725
30
0
41
1
10
-0.324980951061122
20
7.36726670859449
30
0
41
1
10
-0.324980947161578
20
7.39923039600359
30
0
0
SPLINE
5
18C
100
AcDbEntity
8
SK1
62
256
6
ByLayer
370
18
48
1
60
0
100
AcDbSpline
70
4
71
3
72
8
73
4
40
0
40
0
40
0
40
0
40
1
40
1
40
1
40
1
41
1
10
0.342769052838435
20
6.92710219507382
30
0
41
1
10
0.141559860425844
20
7.0432703764767
30
0
41
1
10
-0.0563906484566985
20
7.15755715606625
30
0
41
1
10
-0.24998094715977
20
7.26932656713498
30
0
0
SPLINE
5
18D
100
AcDbEntity
8
SK1
62
256
6
ByLayer
370
18
48
1
60
0
100
AcDbSpline
70
4
71
3
72
18
73
14
40
0
40
0
40
0
40
0
40
0.25
40
0.25
40
0.375000000000005
40
0.375000000000005
40
0.50000000000001
40
0.50000000000001
40
0.625000000000015
40
0.625000000000015
40
0.75000000000002
40
0.75000000000002
40
1
40
1
40
1
40
1
41
1
10
0.3427690528396
20
6.57289780491908
30
0
41
1
10
0.370516593263119
20
6.5889178548515
30
0
41
1
10
0.397303986570648
20
6.6129269899495
30
0
41
1
10
0.427069711747436
20
6.6639379843192
30
0
41
1
10
0.434841942704509
20
6.6830256768142
30
0
41
1
10
0.444310147220477
20
6.72323929480245
30
0
41
1
10
0.445902567673898
20
6.74420182496473
30
0
41
1
10
0.44316931348115
20
6.78389511559718
30
0
41
1
10
0.438900918791205
20
6.80280522840624
30
0
41
1
10
0.426637846294028
20
6.83662304317306
30
0
41
1
10
0.418504222067526
20
6.85201367672832
30
0
41
1
10
0.390918604969471
20
6.89234207927166
30
0
41
1
10
0.367782685199984
20
6.91266056769703
30
0
41
1
10
0.342769052838634
20
6.92710219507427
30
0
0
SPLINE
5
18E
100
AcDbEntity
8
SK1
62
256
6
ByLayer
370
18
48
1
60
0
100
AcDbSpline
70
4
71
3
72
8
73
4
40
0
40
0
40
0
40
0
40
1
40
1
40
1
40
1
41
1
10
-0.249980947161561
20
6.23067343286391
30
0
41
1
10
-0.0532711848776728
20
6.34424386707076
30
0
41
1
10
0.144388484030316
20
6.4583627301227
30
0
41
1
10
0.342769052838463
20
6.57289780492607
30
0
0
SPLINE
5
18F
100
AcDbEntity
8
SK1
62
256
6
ByLayer
370
18
48
1
60
0
100
AcDbSpline
70
4
71
3
72
10
73
6
40
0
40
0
40
0
40
0
40
0.5
40
0.5
40
1
40
1
40
1
40
1
41
1
10
-0.324980947161635
20
6.10076962229388
30
0
41
1
10
-0.324980947162061
20
6.12931852219353
30
0
41
1
10
-0.315985583490658
20
6.15835355448564
30
0
41
1
10
-0.287820516916639
20
6.20307039555908
30
0
41
1
10
-0.2693917122252
20
6.21946662242925
30
0
41
1
10
-0.249980947161561
20
6.23067343286391
30
0
0
SPLINE
5
190
100
AcDbEntity
8
SK1
62
256
6
ByLayer
370
18
48
1
60
0
100
AcDbSpline
70
4
71
3
72
10
73
6
40
0
40
0
40
0
40
0
40
0.5
40
0.5
40
1
40
1
40
1
40
1
41
1
10
-0.249980947161589
20
5.76932656713598
30
0
41
1
10
-0.269347069078037
20
5.78050760283759
30
0
41
1
10
-0.287503923385941
20
5.79667268399606
30
0
41
1
10
-0.315507104250003
20
5.84064795806287
30
0
41
1
10
-0.324980950420382
20
5.8688566349698
30
0
41
1
10
-0.324980947161635
20
5.89923039379701
30
0
0
SPLINE
5
191
100
AcDbEntity
8
SK1
62
256
6
ByLayer
370
18
48
1
60
0
100
AcDbSpline
70
4
71
3
72
8
73
4
40
0
40
0
40
0
40
0
40
1
40
1
40
1
40
1
41
1
10
0.126148905032551
20
5.55216789572145
30
0
41
1
10
0.0001260536854488
20
5.62492722287075
30
0
41
1
10
-0.12529012920433
20
5.69733628982289
30
0
41
1
10
-0.249980947161561
20
5.76932656713598
30
0
0
SPLINE
5
192
100
AcDbEntity
8
1
62
256
6
ByLayer
370
18
48
1
60
0
100
AcDbSpline
70
4
71
3
72
22
73
18
40
0
40
0
40
0
40
0
40
0.249999999999996
40
0.249999999999996
40
0.312499999999995
40
0.312499999999995
40
0.374999999999995
40
0.374999999999995
40
0.499999999999997
40
0.499999999999997
40
0.624999999999999
40
0.624999999999999
40
0.6875
40
0.6875
40
0.75
40
0.75
40
1
40
1
40
1
40
1
41
1
10
13.6218185035566
20
10.6135198841348
30
0
41
1
10
13.5347064664203
20
10.3437825312532
30
0
41
1
10
13.4543238485072
20
10.0267758613739
30
0
41
1
10
13.3631840106264
20
9.57247326418639
30
0
41
1
10
13.3454298380337
20
9.47866755015738
30
0
41
1
10
13.3109217249156
20
9.28501466601281
30
0
41
1
10
13.2941503060708
20
9.18500766037369
30
0
41
1
10
13.2461023591685
20
8.88009498615938
30
0
41
1
10
13.2168370152579
20
8.66901224501652
30
0
41
1
10
13.1639432451283
20
8.23151012329768
30
0
41
1
10
13.1403141285808
20
8.00509130765505
30
0
41
1
10
13.1093563289934
20
7.65361899034099
30
0
41
1
10
13.099761102067
20
7.53411966759228
30
0
41
1
10
13.0822617954212
20
7.29275843604353
30
0
41
1
10
13.0743869570055
20
7.17138398211455
30
0
41
1
10
13.0393347666918
20
6.56111454362977
30
0
41
1
10
13.02494995996
20
6.06218934235991
30
0
41
1
10
13.02494995996
20
5.55216789572134
30
0
0
SPLINE
5
193
100
AcDbEntity
8
1
62
256
6
ByLayer
370
18
48
1
60
0
100
AcDbSpline
70
4
71
3
72
24
73
20
40
0
40
0
40
0
40
0
40
0.0625000000000032
40
0.0625000000000032
40
0.125000000000006
40
0.125000000000006
40
0.18750000000001
40
0.18750000000001
40
0.250000000000013
40
0.250000000000013
40
0.312500000000016
40
0.312500000000016
40
0.375000000000019
40
0.375000000000019
40
0.500000000000019
40
0.500000000000019
40
0.750000000000009
40
0.750000000000009
40
1
40
1
40
1
40
1
41
1
10
2.16999999999996
20
-9.86505004699598
30
0
41
1
10
2.21360594749765
20
-9.865050046996
30
0
41
1
10
2.25588130501515
20
-9.87059109464482
30
0
41
1
10
2.33809751967624
20
-9.89130514093935
30
0
41
1
10
2.37633974755764
20
-9.90605240637137
30
0
41
1
10
2.44757051369837
20
-9.94143301002026
30
0
41
1
10
2.48067532306732
20
-9.96219851853925
30
0
41
1
10
2.5407670081855
20
-10.0064005261325
30
0
41
1
10
2.56817738443641
20
-10.0300605608639
30
0
41
1
10
2.61902143993788
20
-10.0795349585368
30
0
41
1
10
2.64240637985679
20
-10.1053563222148
30
0
41
1
10
2.68510808657956
20
-10.1574274787175
30
0
41
1
10
2.70458095960123
20
-10.1838352704318
30
0
41
1
10
2.75853852616177
20
-10.2637135016592
30
0
41
1
10
2.78862266924151
20
-10.3178169173337
30
0
41
1
10
2.8661764778561
20
-10.480579216777
30
0
41
1
10
2.89969658780555
20
-10.5859644616192
30
0
41
1
10
2.94428106913691
20
-10.7880471044001
30
0
41
1
10
2.95500838898968
20
-10.8848823437253
30
0
41
1
10
2.95533674511225
20
-10.9770849420984
30
0
0
SPLINE
5
194
100
AcDbEntity
8
1
62
256
6
ByLayer
370
18
48
1
60
0
100
AcDbSpline
70
4
71
3
72
16
73
12
40
0
40
0
40
0
40
0
40
0.250000000000001
40
0.250000000000001
40
0.500000000000001
40
0.500000000000001
40
0.625000000000002
40
0.625000000000002
40
0.750000000000002
40
0.750000000000002
40
1
40
1
40
1
40
1
41
1
10
13.5644046853479
20
-10.9770849420985
30
0
41
1
10
13.5067603981783
20
-10.7995081613728
30
0
41
1
10
13.4518023335858
20
-10.6029654458179
30
0
41
1
10
13.3475194352401
20
-10.1731873945623
30
0
41
1
10
13.2981927665002
20
-9.93995245231201
30
0
41
1
10
13.2289362639105
20
-9.56155956372669
30
0
41
1
10
13.2065984460847
20
-9.43029750238065
30
0
41
1
10
13.1642625858527
20
-9.16199869724286
30
0
41
1
10
13.1441818166185
20
-9.02455499909533
30
0
41
1
10
13.0872587790829
20
-8.60241448469549
30
0
41
1
10
13.0537166756719
20
-8.30796814064391
30
0
41
1
10
13.0249499599599
20
-7.99999999999983
30
0
0
SPLINE
5
195
100
AcDbEntity
8
1
62
256
6
ByLayer
370
18
48
1
60
0
100
AcDbSpline
70
4
71
3
72
51
73
47
40
0
40
0
40
0
40
0
40
0.0625000000000007
40
0.0625000000000007
40
0.0937500000000012
40
0.0937500000000012
40
0.125000000000002
40
0.125000000000002
40
0.187500000000002
40
0.187500000000002
40
0.218750000000003
40
0.218750000000003
40
0.250000000000003
40
0.281250000000003
40
0.281250000000003
40
0.312500000000003
40
0.312500000000003
40
0.375000000000002
40
0.375000000000002
40
0.437500000000002
40
0.437500000000002
40
0.500000000000001
40
0.500000000000001
40
0.531250000000001
40
0.531250000000001
40
0.562500000000001
40
0.593750000000002
40
0.593750000000002
40
0.625000000000002
40
0.625000000000002
40
0.687500000000001
40
0.687500000000001
40
0.718750000000001
40
0.718750000000001
40
0.750000000000001
40
0.750000000000001
40
0.8125
40
0.8125
40
0.84375
40
0.84375
40
0.875
40
0.90625
40
0.90625
40
0.9375
40
0.9375
40
1
40
1
40
1
40
1
41
1
10
16.7499999999999
20
-3.88515862922233
30
0
41
1
10
16.7460596487496
20
-3.73704717592881
30
0
41
1
10
16.741450568403
20
-3.60093435065019
30
0
41
1
10
16.733452495697
20
-3.41403476081214
30
0
41
1
10
16.7306043320112
20
-3.35463667167349
30
0
41
1
10
16.7245118030046
20
-3.24180550441756
30
0
41
1
10
16.7212727997979
20
-3.18856605728698
30
0
41
1
10
16.7111535759938
20
-3.04145561358717
30
0
41
1
10
16.7038072235106
20
-2.95875088279934
30
0
41
1
10
16.6917738065213
20
-2.85787557985853
30
0
41
1
10
16.6875701327342
20
-2.82804983245919
30
0
41
1
10
16.6789812686122
20
-2.7775601618701
30
0
41
1
10
16.6701828669532
20
-2.73589150718482
30
0
41
1
10
16.6609543768816
20
-2.71148720097966
30
0
41
1
10
16.6515026240267
20
-2.69580380723986
30
0
41
1
10
16.6466407396026
20
-2.69233264362569
30
0
41
1
10
16.6318800847349
20
-2.69549059231397
30
0
41
1
10
16.6219215527304
20
-2.71532583572133
30
0
41
1
10
16.6018130096329
20
-2.78946594841531
30
0
41
1
10
16.5915625343078
20
-2.84473622739813
30
0
41
1
10
16.5718152283659
20
-2.98615204176562
30
0
41
1
10
16.5622395300029
20
-3.07225397908422
30
0
41
1
10
16.5484437701744
20
-3.22494292206073
30
0
41
1
10
16.5439399705696
20
-3.27988469999596
30
0
41
1
10
16.5353547344919
20
-3.39517123867802
30
0
41
1
10
16.5271361129875
20
-3.5164358291733
30
0
41
1
10
16.5196819933169
20
-3.6494797893566
30
0
41
1
10
16.5126377088288
20
-3.78851428851806
30
0
41
1
10
16.5093036008173
20
-3.86147837470671
30
0
41
1
10
16.5001471028253
20
-4.08542770659858
30
0
41
1
10
16.495130985449
20
-4.24165483565582
30
0
41
1
10
16.4893094643466
20
-4.48622668968403
30
0
41
1
10
16.4876504075987
20
-4.56973255738228
30
0
41
1
10
16.4849562076028
20
-4.73917401403813
30
0
41
1
10
16.4839339745247
20
-4.82416690601661
30
0
41
1
10
16.4818207099082
20
-5.07993563192764
30
0
41
1
10
16.4816751544337
20
-5.25149317719169
30
0
41
1
10
16.4834132655572
20
-5.51044567318402
30
0
41
1
10
16.4843192655255
20
-5.5963557782396
30
0
41
1
10
16.4867370239366
20
-5.76498741511128
30
0
41
1
10
16.4897651480929
20
-5.93117802737297
30
0
41
1
10
16.4939821037792
20
-6.09253351968502
30
0
41
1
10
16.4987928526596
20
-6.25141724158289
30
0
41
1
10
16.5015060721767
20
-6.32979782590311
30
0
41
1
10
16.5103316495231
20
-6.55582817268711
30
0
41
1
10
16.5171708050859
20
-6.69627386288388
30
0
41
1
10
16.524881188194
20
-6.82652386267893
30
0
0
SPLINE
5
196
100
AcDbEntity
8
1
62
256
6
ByLayer
370
18
48
1
60
0
100
AcDbSpline
70
4
71
3
72
111
73
107
40
0
40
0
40
0
40
0
40
0.0312499999999992
40
0.0312499999999992
40
0.0468749999999988
40
0.0468749999999988
40
0.0624999999999985
40
0.0624999999999985
40
0.0937499999999979
40
0.0937499999999979
40
0.109374999999998
40
0.109374999999998
40
0.124999999999997
40
0.124999999999997
40
0.156249999999997
40
0.156249999999997
40
0.164062499999997
40
0.164062499999997
40
0.171874999999997
40
0.171874999999997
40
0.187499999999996
40
0.187499999999996
40
0.218749999999996
40
0.218749999999996
40
0.234374999999995
40
0.234374999999995
40
0.249999999999995
40
0.249999999999995
40
0.281249999999994
40
0.281249999999994
40
0.296874999999994
40
0.296874999999994
40
0.312499999999994
40
0.312499999999994
40
0.343749999999993
40
0.343749999999993
40
0.359374999999993
40
0.359374999999993
40
0.374999999999993
40
0.390624999999993
40
0.390624999999993
40
0.406249999999993
40
0.406249999999993
40
0.437499999999992
40
0.437499999999992
40
0.453124999999992
40
0.453124999999992
40
0.460937499999992
40
0.460937499999992
40
0.468749999999992
40
0.468749999999992
40
0.499999999999992
40
0.499999999999992
40
0.515624999999992
40
0.515624999999992
40
0.531249999999992
40
0.531249999999992
40
0.562499999999992
40
0.562499999999992
40
0.578124999999992
40
0.578124999999992
40
0.593749999999992
40
0.593749999999992
40
0.624999999999993
40
0.624999999999993
40
0.640624999999993
40
0.640624999999993
40
0.656249999999993
40
0.656249999999993
40
0.687499999999994
40
0.687499999999994
40
0.703124999999994
40
0.703124999999994
40
0.710937499999994
40
0.710937499999994
40
0.718749999999994
40
0.718749999999994
40
0.749999999999994
40
0.749999999999994
40
0.765624999999994
40
0.765624999999994
40
0.781249999999995
40
0.781249999999995
40
0.796874999999995
40
0.796874999999995
40
0.812499999999995
40
0.812499999999995
40
0.843749999999996
40
0.843749999999996
40
0.859374999999996
40
0.859374999999996
40
0.867187499999996
40
0.867187499999996
40
0.874999999999996
40
0.874999999999996
40
0.906249999999997
40
0.906249999999997
40
0.921874999999997
40
0.921874999999997
40
0.937499999999998
40
0.937499999999998
40
0.968749999999999
40
0.968749999999999
40
0.984374999999999
40
0.984374999999999
40
1
40
1
40
1
40
1
41
1
10
14.9970577570046
20
14.0029422429948
30
0
41
1
10
14.9369002788787
20
13.9308688739047
30
0
41
1
10
14.8767567078034
20
13.8258637546992
30
0
41
1
10
14.7868506485392
20
13.6191166970252
30
0
41
1
10
14.7569353327654
20
13.5419486580952
30
0
41
1
10
14.6972855590596
20
13.3705476858271
30
0
41
1
10
14.6679514001328
20
13.2774508063636
30
0
41
1
10
14.5816855157419
20
12.9772084263094
30
0
41
1
10
14.5263876609688
20
12.7490237431261
30
0
41
1
10
14.4473280911096
20
12.3644077435913
30
0
41
1
10
14.4215790678958
20
12.2288323222441
30
0
41
1
10
14.3717391254209
20
11.9440867931351
30
0
41
1
10
14.3479226525006
20
11.7965258830937
30
0
41
1
10
14.2798381705279
20
11.3387032624622
30
0
41
1
10
14.2389104830385
20
11.0134165627213
30
0
41
1
10
14.193869010886
20
10.5813403366944
30
0
41
1
10
14.1851685882825
20
10.4936424659743
30
0
41
1
10
14.1684054070431
20
10.3156336290446
30
0
41
1
10
14.1603237499199
20
10.2250873468184
30
0
41
1
10
14.1372638242613
20
9.95174862255925
30
0
41
1
10
14.1234392065912
20
9.76706071335755
30
0
41
1
10
14.0865950023978
20
9.20579804959868
30
0
41
1
10
14.0681760543577
20
8.82207924109656
30
0
41
1
10
14.0502198227548
20
8.2319160499664
30
0
41
1
10
14.0458467671717
20
8.03170730491991
30
0
41
1
10
14.0405712185442
20
7.63283512173371
30
0
41
1
10
14.0396420317021
20
7.43400352440867
30
0
41
1
10
14.0418633606751
20
6.83927826768272
30
0
41
1
10
14.0499932150077
20
6.44514057593187
30
0
41
1
10
14.0722423419701
20
5.85752678405919
30
0
41
1
10
14.081380313871
20
5.66190719996575
30
0
41
1
10
14.1026249749072
20
5.27968442566831
30
0
41
1
10
14.1147605337889
20
5.09210169969867
30
0
41
1
10
14.1555183117895
20
4.53970959437888
30
0
41
1
10
14.1884650798018
20
4.1851756255387
30
0
41
1
10
14.2462979018991
20
3.6745102941222
30
0
41
1
10
14.2668588529671
20
3.50905713572684
30
0
41
1
10
14.3099254477326
20
3.19115190613849
30
0
41
1
10
14.3550711209449
20
2.88504812740348
30
0
41
1
10
14.4041169233682
20
2.60215261692056
30
0
41
1
10
14.4550288331199
20
2.33093617746044
30
0
41
1
10
14.4814675163517
20
2.20094237670574
30
0
41
1
10
14.5632039396327
20
1.8304330755544
30
0
41
1
10
14.6197077743349
20
1.61447075435174
30
0
41
1
10
14.7068330487186
20
1.33507541846925
30
0
41
1
10
14.7362738247164
20
1.24941368875054
30
0
41
1
10
14.7809850453375
20
1.13227045006289
30
0
41
1
10
14.7959806685925
20
1.09511697042277
30
0
41
1
10
14.826150071252
20
1.02465661356533
30
0
41
1
10
14.8413563431369
20
0.991289407474966
30
0
41
1
10
14.9171510561684
20
0.83559234873934
30
0
41
1
10
14.9773749057925
20
0.745455267451888
30
0
41
1
10
15.066864732948
20
0.660251996961762
30
0
41
1
10
15.0965550314804
20
0.640233631368034
30
0
41
1
10
15.1556328006558
20
0.617275905170573
30
0
41
1
10
15.1851637064444
20
0.614393588318023
30
0
41
1
10
15.2719785840722
20
0.632021190019003
30
0
41
1
10
15.3275208572973
20
0.678150583113791
30
0
41
1
10
15.4075532937402
20
0.797705618465955
30
0
41
1
10
15.4336826270243
20
0.84599890627598
30
0
41
1
10
15.4848673949451
20
0.959853040328568
30
0
41
1
10
15.5100311130781
20
1.02580050252925
30
0
41
1
10
15.5826597157385
20
1.24654128905641
30
0
41
1
10
15.6275702008688
20
1.42432968645386
30
0
41
1
10
15.690235379736
20
1.73611197979324
30
0
41
1
10
15.7103366187999
20
1.84759870593038
30
0
41
1
10
15.7490168823724
20
2.08607683029629
30
0
41
1
10
15.7676395014928
20
2.21352247627564
30
0
41
1
10
15.8202583570261
20
2.61192791822606
30
0
41
1
10
15.8513999750515
20
2.90081589144194
30
0
41
1
10
15.8928673914572
20
3.36858948816715
30
0
41
1
10
15.9058100309296
20
3.53028690811999
30
0
41
1
10
15.9239377930235
20
3.78173740327486
30
0
41
1
10
15.9297785802466
20
3.86725250689324
30
0
41
1
10
15.9409367675188
20
4.03979916805554
30
0
41
1
10
15.9462619191434
20
4.12691461433914
30
0
41
1
10
15.9716653501489
20
4.56663247630155
30
0
41
1
10
15.9881119279828
20
4.9315611162113
30
0
41
1
10
16.007431655972
20
5.49852804322001
30
0
41
1
10
16.0129729969609
20
5.69079791554364
30
0
41
1
10
16.0222524736555
20
6.08210862833886
30
0
41
1
10
16.0259519255876
20
6.27971504870879
30
0
41
1
10
16.0314710131166
20
6.67591820768394
30
0
41
1
10
16.0333015091406
20
6.87496446478951
30
0
41
1
10
16.0351126861936
20
7.27495577567129
30
0
41
1
10
16.035084543701
20
7.47648302966093
30
0
41
1
10
16.0322257960637
20
8.07455467114858
30
0
41
1
10
16.0266836046099
20
8.46729081502033
30
0
41
1
10
16.0128623938612
20
9.0475937438292
30
0
41
1
10
16.0073301194938
20
9.23955262707398
30
0
41
1
10
15.9975690937527
20
9.52521950042794
30
0
41
1
10
15.9940618159507
20
9.62027854173823
30
0
41
1
10
15.9866093607128
20
9.80794805662165
30
0
41
1
10
15.9826610759473
20
9.9006864596804
30
0
41
1
10
15.9618073274667
20
10.3589912535815
30
0
41
1
10
15.9415969349801
20
10.7085202660797
30
0
41
1
10
15.9055626664066
20
11.2074102901911
30
0
41
1
10
15.8925919401313
20
11.3694488979109
30
0
41
1
10
15.864578298301
20
11.6847515126119
30
0
41
1
10
15.8496788292268
20
11.8363234050094
30
0
41
1
10
15.8025273702569
20
12.270349196318
30
0
41
1
10
15.7677222930274
20
12.5336120721277
30
0
41
1
10
15.709894364788
20
12.889492609219
30
0
41
1
10
15.6896155284352
20
13.001881238845
30
0
41
1
10
15.6472890147632
20
13.2118070422613
30
0
41
1
10
15.6254282116759
20
13.3084872903846
30
0
41
1
10
15.6028507402699
20
13.3971492597295
30
0
0
SPLINE
5
197
100
AcDbEntity
8
1
62
256
6
ByLayer
370
18
48
1
60
0
100
AcDbSpline
70
4
71
3
72
8
73
4
40
0
40
0
40
0
40
0
40
1
40
1
40
1
40
1
41
1
10
14.812329090052
20
14.1876709099479
30
0
41
1
10
14.4484718193833
20
13.1273273280447
30
0
41
1
10
14.0488369916735
20
11.9357577791777
30
0
41
1
10
13.6218185035566
20
10.6135198841347
30
0
0
SPLINE
5
198
100
AcDbEntity
8
1
62
256
6
ByLayer
370
18
48
1
60
0
100
AcDbSpline
70
4
71
3
72
8
73
4
40
0
40
0
40
0
40
0
40
1
40
1
40
1
40
1
41
1
10
14.995906541172
20
-15.2310538694223
30
0
41
1
10
14.5689791667871
20
-14.0051298723493
30
0
41
1
10
14.0868528340394
20
-12.5865186760564
30
0
41
1
10
13.5644046853479
20
-10.9770849420985
30
0
0
SPLINE
5
199
100
AcDbEntity
8
1
62
256
6
ByLayer
370
18
48
1
60
0
100
AcDbSpline
70
4
71
3
72
19
73
15
40
0
40
0
40
0
40
0
40
0.125
40
0.125
40
0.25
40
0.375
40
0.375
40
0.5
40
0.5
40
0.75
40
0.75
40
0.875
40
0.875
40
1
40
1
40
1
40
1
41
1
10
15.4834715420326
20
-19.0940172702463
30
0
41
1
10
15.4751795014668
20
-18.8815142489279
30
0
41
1
10
15.4651922682926
20
-18.6702519365174
30
0
41
1
10
15.4422937391652
20
-18.2618078491159
30
0
41
1
10
15.4164091776752
20
-17.8651453527302
30
0
41
1
10
15.3844428027065
20
-17.491577970627
30
0
41
1
10
15.3492557011081
20
-17.1297328266267
30
0
41
1
10
15.3299273046704
20
-16.9538082150073
30
0
41
1
10
15.2680803519655
20
-16.4553051237553
30
0
41
1
10
15.2215599120799
20
-16.158765342161
30
0
41
1
10
15.143077997827
20
-15.7669120669215
30
0
41
1
10
15.1153243653806
20
-15.6447379660564
30
0
41
1
10
15.0574354170038
20
-15.4219724391156
30
0
41
1
10
15.0272990492878
20
-15.3211976065929
30
0
41
1
10
14.995906541172
20
-15.2310538694223
30
0
0
SPLINE
5
19A
100
AcDbEntity
8
1
62
256
6
ByLayer
370
18
48
1
60
0
100
AcDbSpline
70
2053
71
3
72
110
73
106
40
0
40
0
40
0
40
0
40
0.0312500000000006
40
0.0312500000000006
40
0.0468750000000008
40
0.0468750000000008
40
0.0625000000000011
40
0.0625000000000011
40
0.0937500000000015
40
0.0937500000000015
40
0.101562500000002
40
0.101562500000002
40
0.109375000000002
40
0.109375000000002
40
0.125000000000002
40
0.125000000000002
40
0.156250000000002
40
0.156250000000002
40
0.164062500000002
40
0.164062500000002
40
0.171875000000002
40
0.171875000000002
40
0.187500000000002
40
0.203125000000002
40
0.203125000000002
40
0.210937500000002
40
0.210937500000002
40
0.218750000000002
40
0.218750000000002
40
0.250000000000002
40
0.250000000000002
40
0.265625000000002
40
0.265625000000002
40
0.281250000000002
40
0.281250000000002
40
0.312500000000002
40
0.312500000000002
40
0.328125000000002
40
0.328125000000002
40
0.343750000000002
40
0.343750000000002
40
0.375000000000002
40
0.375000000000002
40
0.390625000000002
40
0.390625000000002
40
0.406250000000002
40
0.421875000000002
40
0.421875000000002
40
0.437500000000002
40
0.437500000000002
40
0.468750000000002
40
0.468750000000002
40
0.484375000000002
40
0.484375000000002
40
0.500000000000002
40
0.500000000000002
40
0.531250000000001
40
0.531250000000001
40
0.539062500000001
40
0.539062500000001
40
0.546875000000001
40
0.546875000000001
40
0.562500000000001
40
0.578125000000001
40
0.578125000000001
40
0.585937500000001
40
0.585937500000001
40
0.593750000000001
40
0.593750000000001
40
0.625000000000001
40
0.625000000000001
40
0.640625
40
0.640625
40
0.65625
40
0.65625
40
0.6875
40
0.6875
40
0.703125
40
0.703125
40
0.71875
40
0.71875
40
0.75
40
0.75
40
0.781250000000001
40
0.781250000000001
40
0.796875000000001
40
0.796875000000001
40
0.812500000000001
40
0.812500000000001
40
0.843750000000001
40
0.843750000000001
40
0.859375
40
0.859375
40
0.875
40
0.875
40
0.90625
40
0.90625
40
0.921875
40
0.921875
40
0.9375
40
0.953125
40
0.953125
40
0.96875
40
0.96875
40
1
40
1
40
1
40
1
41
1
10
16.0348685052014
20
-7.36729208785495
30
0
41
1
10
16.0348685052014
20
-6.91883656487872
30
0
41
1
10
16.0302660421166
20
-6.47796290519824
30
0
41
1
10
16.01658458139
20
-5.82755713963888
30
0
41
1
10
16.0108829801494
20
-5.61258639232793
30
0
41
1
10
15.9970786611845
20
-5.18639270113283
30
0
41
1
10
15.9889420566743
20
-4.97477246433252
30
0
41
1
10
15.9613119930952
20
-4.35956765070711
30
0
41
1
10
15.9385116445642
20
-3.9707375755514
30
0
41
1
10
15.9040163694263
20
-3.51111250387012
30
0
41
1
10
15.8968144190004
20
-3.42052008483918
30
0
41
1
10
15.8817784889798
20
-3.24204380435717
30
0
41
1
10
15.8739214943141
20
-3.1539284086771
30
0
41
1
10
15.8495866669067
20
-2.89613297904927
30
0
41
1
10
15.8323271127949
20
-2.73262504390263
30
0
41
1
10
15.7773338688955
20
-2.26639491179316
30
0
41
1
10
15.7364175351316
20
-1.98773739455049
30
0
41
1
10
15.6791521308313
20
-1.68059560253886
30
0
41
1
10
15.6673730147687
20
-1.62118205154559
30
0
41
1
10
15.6434358614301
20
-1.50780829169582
30
0
41
1
10
15.6312489553067
20
-1.45368199087579
30
0
41
1
10
15.5940233692499
20
-1.29884553086143
30
0
41
1
10
15.5426181522495
20
-1.11247486822106
30
0
41
1
10
15.4875178033508
20
-0.965666999629548
30
0
41
1
10
15.4447235319785
20
-0.87059941232593
30
0
41
1
10
15.4302136599228
20
-0.841420992511956
30
0
41
1
10
15.4006860510843
20
-0.788174976192522
30
0
41
1
10
15.3856819885625
20
-0.764152039683836
30
0
41
1
10
15.3101907503692
20
-0.658077040299588
30
0
41
1
10
15.2476628253864
20
-0.616557727060041
30
0
41
1
10
15.1505885184714
20
-0.617673867210925
30
0
41
1
10
15.1176827486467
20
-0.62868659078373
30
0
41
1
10
15.0507540867645
20
-0.672651461109552
30
0
41
1
10
15.0170911683692
20
-0.705424958145159
30
0
41
1
10
14.9163945898556
20
-0.834392422728598
30
0
41
1
10
14.8492901030771
20
-0.961167282129281
30
0
41
1
10
14.7491096082461
20
-1.21314817053397
30
0
41
1
10
14.7156314814564
20
-1.30811133922117
30
0
41
1
10
14.6502132207235
20
-1.51557636761683
30
0
41
1
10
14.6181810931527
20
-1.6281934852214
30
0
41
1
10
14.5242483888486
20
-1.9921588734575
30
0
41
1
10
14.4644816709428
20
-2.26936073670507
30
0
41
1
10
14.380124864041
20
-2.73945640652514
30
0
41
1
10
14.3532434402503
20
-2.9034041015008
30
0
41
1
10
14.3023978887167
20
-3.24316667015489
30
0
41
1
10
14.254342622127
20
-3.59550401893011
30
0
41
1
10
14.2121012565072
20
-3.97288491153492
30
0
41
1
10
14.1729620270448
20
-4.36310297188743
30
0
41
1
10
14.1548719349492
20
-4.56572476841194
30
0
41
1
10
14.1066162787833
20
-5.18091168981516
30
0
41
1
10
14.0820894842261
20
-5.60308170336126
30
0
41
1
10
14.0571206620849
20
-6.25424254219544
30
0
41
1
10
14.0507758998194
20
-6.47444513992542
30
0
41
1
10
14.0422602855829
20
-6.92051863027336
30
0
41
1
10
14.0401556165412
20
-7.14279239089731
30
0
41
1
10
14.0400997099451
20
-7.80740337156027
30
0
41
1
10
14.0483613144154
20
-8.24755105775449
30
0
41
1
10
14.0691096484116
20
-8.79401305951279
30
0
41
1
10
14.0737993879025
20
-8.90342236929425
30
0
41
1
10
14.0841612578563
20
-9.12017210700054
30
0
41
1
10
14.089825513449
20
-9.22742786662459
30
0
41
1
10
14.1082246404404
20
-9.54590764793107
30
0
41
1
10
14.1365013411788
20
-9.96179656976159
30
0
41
1
10
14.1719483193867
20
-10.360525940505
30
0
41
1
10
14.2011674800859
20
-10.6530788140107
30
0
41
1
10
14.2113468396775
20
-10.7495121531783
30
0
41
1
10
14.2325836394169
20
-10.9401762139136
30
0
41
1
10
14.2436587285138
20
-11.0345244529889
30
0
41
1
10
14.3005927417968
20
-11.4956412307565
30
0
41
1
10
14.3514997706915
20
-11.8348210693312
30
0
41
1
10
14.4348515206717
20
-12.3004847027461
30
0
41
1
10
14.4638097740987
20
-12.4484689059256
30
0
41
1
10
14.524002526396
20
-12.7295659713732
30
0
41
1
10
14.5549321915106
20
-12.8611842963588
30
0
41
1
10
14.6491404380483
20
-13.2266128309685
30
0
41
1
10
14.7141581511586
20
-13.4328616817842
30
0
41
1
10
14.8143604900663
20
-13.6858791880302
30
0
41
1
10
14.8483748055265
20
-13.7609962841158
30
0
41
1
10
14.9159128822336
20
-13.8891407074113
30
0
41
1
10
14.9495468507066
20
-13.9425472146237
30
0
41
1
10
15.0499609879884
20
-14.0714637924949
30
0
41
1
10
15.116246798447
20
-14.1159767090749
30
0
41
1
10
15.2472437661349
20
-14.1185505825789
30
0
41
1
10
15.3099223309841
20
-14.0764833465035
30
0
41
1
10
15.3997462659751
20
-13.9508665887937
30
0
41
1
10
15.4290026349334
20
-13.8984992123498
30
0
41
1
10
15.4861776090643
20
-13.7722844248157
30
0
41
1
10
15.5142160116963
20
-13.6979675844564
30
0
41
1
10
15.5947158582122
20
-13.4467673643865
30
0
41
1
10
15.6440470754137
20
-13.2413364936222
30
0
41
1
10
15.7122716358951
20
-12.8768050237785
30
0
41
1
10
15.734045532908
20
-12.7458320271361
30
0
41
1
10
15.7757162085814
20
-12.4642219076264
30
0
41
1
10
15.7952664888704
20
-12.3159260727992
30
0
41
1
10
15.8503590846514
20
-11.849540654017
30
0
41
1
10
15.8823902822459
20
-11.5100532368134
30
0
41
1
10
15.9240612617947
20
-10.9571418581387
30
0
41
1
10
15.9369079328158
20
-10.7647867322664
30
0
41
1
10
15.9599997546328
20
-10.3735968509166
30
0
41
1
10
15.9806456074465
20
-9.97414958936784
30
0
41
1
10
15.996698700484
20
-9.55848908064272
30
0
41
1
10
16.0105176443268
20
-9.1346349312559
30
0
41
1
10
16.0163232850288
20
-8.91797527880738
30
0
41
1
10
16.0302661905395
20
-8.25947982346437
30
0
41
1
10
16.0348685052014
20
-7.81574761083118
30
0
41
1
10
16.0348685052014
20
-7.36729208785495
30
0
0
SPLINE
5
19B
100
AcDbEntity
8
1
62
256
6
ByLayer
370
18
48
1
60
0
100
AcDbSpline
70
4
71
3
72
25
73
21
40
0
40
0
40
0
40
0
40
0.125000000000002
40
0.125000000000002
40
0.250000000000005
40
0.250000000000005
40
0.375000000000007
40
0.375000000000007
40
0.437500000000007
40
0.437500000000007
40
0.500000000000007
40
0.562500000000007
40
0.562500000000007
40
0.625000000000007
40
0.625000000000007
40
0.750000000000005
40
0.750000000000005
40
0.875000000000002
40
0.875000000000002
40
1
40
1
40
1
40
1
41
1
10
2.16999999999984
20
-17.0091721829588
30
0
41
1
10
2.27949121396108
20
-17.0091721829588
30
0
41
1
10
2.38692168587318
20
-17.0183044373395
30
0
41
1
10
2.59786336230906
20
-17.0539373240556
30
0
41
1
10
2.70244915362346
20
-17.0809405205129
30
0
41
1
10
2.89922184648159
20
-17.1502460966473
30
0
41
1
10
2.99212951448104
20
-17.1924670843222
30
0
41
1
10
3.12342989703333
20
-17.2669341274155
30
0
41
1
10
3.16577678413859
20
-17.2936250385446
30
0
41
1
10
3.24599949154222
20
-17.3495386510299
30
0
41
1
10
3.32224368810151
20
-17.4082489217069
30
0
41
1
10
3.39078176361181
20
-17.4723761404333
30
0
41
1
10
3.45547868333654
20
-17.539203464856
30
0
41
1
10
3.48601735213518
20
-17.5741315126775
30
0
41
1
10
3.57026152917655
20
-17.6810727977767
30
0
41
1
10
3.61713639906409
20
-17.755594092033
30
0
41
1
10
3.69309257165756
20
-17.910819090312
30
0
41
1
10
3.72217654128252
20
-17.9921568578368
30
0
41
1
10
3.76042094849245
20
-18.1552245058844
30
0
41
1
10
3.76999999999987
20
-18.237524985854
30
0
41
1
10
3.76999999999981
20
-18.3205950057742
30
0
0
SPLINE
5
19C
100
AcDbEntity
8
1
62
256
6
ByLayer
370
18
48
1
60
0
100
AcDbSpline
70
4
71
3
72
20
73
16
40
0
40
0
40
0
40
0
40
0.125000000000001
40
0.125000000000001
40
0.250000000000001
40
0.250000000000001
40
0.375000000000002
40
0.375000000000002
40
0.500000000000003
40
0.500000000000003
40
0.750000000000002
40
0.750000000000002
40
0.875000000000001
40
0.875000000000001
40
1
40
1
40
1
40
1
41
1
10
2.97307000269208
20
-15.2310538694222
30
0
41
1
10
2.97342016926805
20
-15.3015720493926
30
0
41
1
10
2.9880101689605
20
-15.3776297927986
30
0
41
1
10
3.038664078279
20
-15.5403223785438
30
0
41
1
10
3.07447293759506
20
-15.6269732434401
30
0
41
1
10
3.15750516908091
20
-15.8112084045509
30
0
41
1
10
3.20439360709818
20
-15.9082246372335
30
0
41
1
10
3.30037554776871
20
-16.1106814881536
30
0
41
1
10
3.34965769123099
20
-16.2164164350311
30
0
41
1
10
3.49364273158196
20
-16.5482720289034
30
0
41
1
10
3.58474760695987
20
-16.7887722766033
30
0
41
1
10
3.68858976768453
20
-17.1861311662323
30
0
41
1
10
3.71768887804853
20
-17.3252255950788
30
0
41
1
10
3.75824446671763
20
-17.6100409360178
30
0
41
1
10
3.77000000000362
20
-17.7565014410266
30
0
41
1
10
3.77000000000365
20
-17.9072567459162
30
0
0
SPLINE
5
19D
100
AcDbEntity
8
1
62
256
6
ByLayer
370
18
48
1
60
0
100
AcDbSpline
70
4
71
3
72
12
73
8
40
0
40
0
40
0
40
0
40
0.25
40
0.25
40
0.5
40
0.5
40
1
40
1
40
1
40
1
41
1
10
2.95533674511222
20
-10.9770849420983
30
0
41
1
10
2.95677130511009
20
-11.3799102596006
30
0
41
1
10
2.95821788747216
20
-11.770851232524
30
0
41
1
10
2.96113448901357
20
-12.528985411335
30
0
41
1
10
2.96260484514835
20
-12.8962461680272
30
0
41
1
10
2.96704232727632
20
-13.9604414599916
30
0
41
1
10
2.97003825188156
20
-14.6205057361482
30
0
41
1
10
2.97307000269205
20
-15.2310538694221
30
0
0
SPLINE
5
19E
100
AcDbEntity
8
SK1
62
256
6
ByLayer
370
18
48
1
60
0
100
AcDbSpline
70
4
71
3
72
12
73
8
40
0
40
0
40
0
40
0
40
0.249999999999999
40
0.249999999999999
40
0.499999999999998
40
0.499999999999998
40
1
40
1
40
1
40
1
41
1
10
-0.324980947161748
20
-10.3992303777079
30
0
41
1
10
-0.324980947162231
20
-10.382160386372
30
0
41
1
10
-0.322272682190175
20
-10.36771321376
30
0
41
1
10
-0.314112329532833
20
-10.3415186347891
30
0
41
1
10
-0.308560266702614
20
-10.3298545571438
30
0
41
1
10
-0.288558618446075
20
-10.2981073391071
30
0
41
1
10
-0.271062951513045
20
-10.2814982680234
30
0
41
1
10
-0.24998094716176
20
-10.2693265671361
30
0
0
SPLINE
5
19F
100
AcDbEntity
8
SK1
62
256
6
ByLayer
370
18
48
1
60
0
100
AcDbSpline
70
4
71
3
72
14
73
10
40
0
40
0
40
0
40
0
40
0.25
40
0.25
40
0.5
40
0.5
40
0.75
40
0.75
40
1
40
1
40
1
40
1
41
1
10
-0.249980947161703
20
-10.7306734328641
30
0
41
1
10
-0.261170454548761
20
-10.7242131677621
30
0
41
1
10
-0.273714893758239
20
-10.7149334060329
30
0
41
1
10
-0.296507637462696
20
-10.6902851252669
30
0
41
1
10
-0.305604265762355
20
-10.6757872382091
30
0
41
1
10
-0.317090744544828
20
-10.6507185917273
30
0
41
1
10
-0.320295416587982
20
-10.6394071207653
30
0
41
1
10
-0.324248578481331
20
-10.618889378167
30
0
41
1
10
-0.324980944492893
20
-10.6094813158658
30
0
41
1
10
-0.324980947161748
20
-10.6007696682495
30
0
0
SPLINE
5
1A0
100
AcDbEntity
8
SK1
62
256
6
ByLayer
370
18
48
1
60
0
100
AcDbSpline
70
4
71
3
72
8
73
4
40
0
40
0
40
0
40
0
40
1
40
1
40
1
40
1
41
1
10
-0.249980947161731
20
-10.730673432864
30
0
41
1
10
-0.0526311005797027
20
-10.8446134199127
30
0
41
1
10
0.144956402685068
20
-10.9586906181111
30
0
41
1
10
0.342769052838264
20
-11.0728978049262
30
0
0
SPLINE
5
1A1
100
AcDbEntity
8
SK1
62
256
6
ByLayer
370
18
48
1
60
0
100
AcDbSpline
70
4
71
3
72
22
73
18
40
0
40
0
40
0
40
0
40
0.0625000000000023
40
0.0625000000000023
40
0.125000000000004
40
0.125000000000004
40
0.187500000000007
40
0.187500000000007
40
0.250000000000009
40
0.250000000000009
40
0.375000000000004
40
0.375000000000004
40
0.499999999999998
40
0.499999999999998
40
0.749999999999999
40
0.749999999999999
40
1
40
1
40
1
40
1
41
1
10
0.342769052838236
20
-11.0728978049261
30
0
41
1
10
0.354050595451127
20
-11.0794112065905
30
0
41
1
10
0.366209629257241
20
-11.0878490587059
30
0
41
1
10
0.390520771895638
20
-11.1100338146446
30
0
41
1
10
0.402179577389518
20
-11.1236871566762
30
0
41
1
10
0.420239075386888
20
-11.1510567178539
30
0
41
1
10
0.426716865430137
20
-11.1644252779558
30
0
41
1
10
0.436131893586349
20
-11.188940397959
30
0
41
1
10
0.439120072139161
20
-11.2000710535236
30
0
41
1
10
0.445319628398209
20
-11.2316415550311
30
0
41
1
10
0.445676858959615
20
-11.2496418556063
30
0
41
1
10
0.443105753875699
20
-11.2823802755194
30
0
41
1
10
0.440018994658573
20
-11.2971638179408
30
0
41
1
10
0.427264174779623
20
-11.3381142409964
30
0
41
1
10
0.414383428423435
20
-11.3604758779005
30
0
41
1
10
0.38298164813952
20
-11.3987889432571
30
0
41
1
10
0.364323351058175
20
-11.4146578151945
30
0
41
1
10
0.342769052838264
20
-11.427102195074
30
0
0
SPLINE
5
1A2
100
AcDbEntity
8
SK1
62
256
6
ByLayer
370
18
48
1
60
0
100
AcDbSpline
70
4
71
3
72
8
73
4
40
0
40
0
40
0
40
0
40
1
40
1
40
1
40
1
41
1
10
0.342769052838264
20
-11.427102195074
30
0
41
1
10
0.140428826570798
20
-11.5439233791774
30
0
41
1
10
-0.0572098387456492
20
-11.6580301158001
30
0
41
1
10
-0.24998094716176
20
-11.7693265671361
30
0
0
SPLINE
5
1A3
100
AcDbEntity
8
SK1
62
256
6
ByLayer
370
18
48
1
60
0
100
AcDbSpline
70
4
71
3
72
12
73
8
40
0
40
0
40
0
40
0
40
0.250000000000006
40
0.250000000000006
40
0.500000000000012
40
0.500000000000012
40
1
40
1
40
1
40
1
41
1
10
-0.324980947161748
20
-11.8992303777034
30
0
41
1
10
-0.32498094716172
20
-11.882281072652
30
0
41
1
10
-0.322258331788476
20
-11.8676586519618
30
0
41
1
10
-0.314110184966637
20
-11.8415202652741
30
0
41
1
10
-0.308588305166836
20
-11.8299276392253
30
0
41
1
10
-0.288794763919896
20
-11.7984256267749
30
0
41
1
10
-0.271268222819344
20
-11.7816167814671
30
0
41
1
10
-0.249980947161873
20
-11.769326567136
30
0
0
SPLINE
5
1A4
100
AcDbEntity
8
SK1
62
256
6
ByLayer
370
18
48
1
60
0
100
AcDbSpline
70
4
71
3
72
18
73
14
40
0
40
0
40
0
40
0
40
0.125000000000004
40
0.125000000000004
40
0.250000000000008
40
0.250000000000008
40
0.375000000000013
40
0.375000000000013
40
0.500000000000017
40
0.500000000000017
40
0.750000000000009
40
0.750000000000009
40
1
40
1
40
1
40
1
41
1
10
-0.249980947106081
20
-12.2306734328961
30
0
41
1
10
-0.255633945171581
20
-12.2274096729445
30
0
41
1
10
-0.261545722398807
20
-12.22353075228
30
0
41
1
10
-0.274089073361239
20
-12.2136471429456
30
0
41
1
10
-0.280558475671427
20
-12.2076881627031
30
0
41
1
10
-0.292389202619091
20
-12.1945432345728
30
0
41
1
10
-0.297726742186086
20
-12.1873734755298
30
0
41
1
10
-0.30640727304737
20
-12.1735286661002
30
0
41
1
10
-0.309705607901208
20
-12.1670655127171
30
0
41
1
10
-0.317845872191356
20
-12.1484469794849
30
0
41
1
10
-0.32069413690337
20
-12.137775026115
30
0
41
1
10
-0.324336623178169
20
-12.1179339928977
30
0
41
1
10
-0.324980944532456
20
-12.1090654184485
30
0
41
1
10
-0.324980947161748
20
-12.1007696698377
30
0
0
SPLINE
5
1A5
100
AcDbEntity
8
SK1
62
256
6
ByLayer
370
18
48
1
60
0
100
AcDbSpline
70
4
71
3
72
8
73
4
40
0
40
0
40
0
40
0
40
1
40
1
40
1
40
1
41
1
10
-0.249980947106792
20
-12.2306734328957
30
0
41
1
10
-0.0527632893806071
20
-12.3445371006729
30
0
41
1
10
0.144826582216467
20
-12.4586156662286
30
0
41
1
10
0.342769052838236
20
-12.5728978049261
30
0
0
SPLINE
5
1A6
100
AcDbEntity
8
SK1
62
256
6
ByLayer
370
18
48
1
60
0
100
AcDbSpline
70
4
71
3
72
22
73
18
40
0
40
0
40
0
40
0
40
0.0625000000000027
40
0.0625000000000027
40
0.125000000000005
40
0.125000000000005
40
0.187500000000008
40
0.187500000000008
40
0.250000000000011
40
0.250000000000011
40
0.37500000000001
40
0.37500000000001
40
0.500000000000009
40
0.500000000000009
40
0.750000000000004
40
0.750000000000004
40
1
40
1
40
1
40
1
41
1
10
0.342769052838236
20
-12.5728978049261
30
0
41
1
10
0.354608181839296
20
-12.5797331292418
30
0
41
1
10
0.367641788103924
20
-12.588796950966
30
0
41
1
10
0.393933820837276
20
-12.6135796136968
30
0
41
1
10
0.406050000047742
20
-12.6287545713997
30
0
41
1
10
0.423576796837636
20
-12.65731337312
30
0
41
1
10
0.429373222380605
20
-12.6705238773507
30
0
41
1
10
0.437772772863781
20
-12.6945624553125
30
0
41
1
10
0.44040722038369
20
-12.705598953901
30
0
41
1
10
0.445588571768269
20
-12.736119363009
30
0
41
1
10
0.44562573841182
20
-12.7535773835825
30
0
41
1
10
0.442516530023653
20
-12.7857570881227
30
0
41
1
10
0.439280452881633
20
-12.8000626434378
30
0
41
1
10
0.426421000815026
20
-12.8396056103107
30
0
41
1
10
0.413679423890812
20
-12.8615037472978
30
0
41
1
10
0.382525012517505
20
-12.899170731647
30
0
41
1
10
0.363925974973739
20
-12.9148872403836
30
0
41
1
10
0.342769052839429
20
-12.9271021950733
30
0
0
SPLINE
5
1A7
100
AcDbEntity
8
SK1
62
256
6
ByLayer
370
18
48
1
60
0
100
AcDbSpline
70
4
71
3
72
8
73
4
40
0
40
0
40
0
40
0
40
1
40
1
40
1
40
1
41
1
10
0.342769052839372
20
-12.9271021950733
30
0
41
1
10
0.139093450172936
20
-13.0446943591002
30
0
41
1
10
-0.0585614418591831
20
-13.1588104642216
30
0
41
1
10
-0.249980947161816
20
-13.2693265671361
30
0
0
SPLINE
5
1A8
100
AcDbEntity
8
SK1
62
256
6
ByLayer
370
18
48
1
60
0
100
AcDbSpline
70
4
71
3
72
12
73
8
40
0
40
0
40
0
40
0
40
0.25
40
0.25
40
0.5
40
0.5
40
1
40
1
40
1
40
1
41
1
10
-0.324980947161805
20
-13.3992303777038
30
0
41
1
10
-0.324980947161805
20
-13.382332687634
30
0
41
1
10
-0.322317549925316
20
-13.3679129498828
30
0
41
1
10
-0.314174146943515
20
-13.3416620797113
30
0
41
1
10
-0.30859261146631
20
-13.3299280767301
30
0
41
1
10
-0.288720362393974
20
-13.298320078643
30
0
41
1
10
-0.271353500686615
20
-13.281666016667
30
0
41
1
10
-0.249980947161816
20
-13.2693265671361
30
0
0
SPLINE
5
1A9
100
AcDbEntity
8
SK1
62
256
6
ByLayer
370
18
48
1
60
0
100
AcDbSpline
70
4
71
3
72
18
73
14
40
0
40
0
40
0
40
0
40
0.125000000000004
40
0.125000000000004
40
0.250000000000007
40
0.250000000000007
40
0.375000000000011
40
0.375000000000011
40
0.500000000000014
40
0.500000000000014
40
0.750000000000007
40
0.750000000000007
40
1
40
1
40
1
40
1
41
1
10
-0.249980947185435
20
-13.7306734328504
30
0
41
1
10
-0.255879787461481
20
-13.7272677358277
30
0
41
1
10
-0.262132384433272
20
-13.7231502516311
30
0
41
1
10
-0.275412231696464
20
-13.7125101634691
30
0
41
1
10
-0.282361551213057
20
-13.7059304146115
30
0
41
1
10
-0.294715763793675
20
-13.6916154260129
30
0
41
1
10
-0.299993431988014
20
-13.684047825987
30
0
41
1
10
-0.308106196543889
20
-13.6703472663304
30
0
41
1
10
-0.311189532504159
20
-13.6639225594934
30
0
41
1
10
-0.318524863890048
20
-13.6461505958499
30
0
41
1
10
-0.321129814062289
20
-13.6358528996719
30
0
41
1
10
-0.324389075210263
20
-13.6171262393291
30
0
41
1
10
-0.324980944658989
20
-13.6086863494071
30
0
41
1
10
-0.324980947161805
20
-13.600769669718
30
0
0
SPLINE
5
1AA
100
AcDbEntity
8
SK1
62
256
6
ByLayer
370
18
48
1
60
0
100
AcDbSpline
70
4
71
3
72
8
73
4
40
0
40
0
40
0
40
0
40
1
40
1
40
1
40
1
41
1
10
-0.249980947183474
20
-13.7306734328515
30
0
41
1
10
-0.0530000040879486
20
-13.8444004333729
30
0
41
1
10
0.1445954223218
20
-13.9584822060012
30
0
41
1
10
0.342769052838207
20
-14.0728978049262
30
0
0
SPLINE
5
1AB
100
AcDbEntity
8
SK1
62
256
6
ByLayer
370
18
48
1
60
0
100
AcDbSpline
70
4
71
3
72
24
73
20
40
0
40
0
40
0
40
0
40
0.062500000000001
40
0.062500000000001
40
0.0937500000000025
40
0.0937500000000025
40
0.125000000000004
40
0.125000000000004
40
0.187500000000009
40
0.187500000000009
40
0.250000000000014
40
0.250000000000014
40
0.375000000000015
40
0.375000000000015
40
0.500000000000016
40
0.500000000000016
40
0.750000000000008
40
0.750000000000008
40
1
40
1
40
1
40
1
41
1
10
0.342769052834541
20
-14.0728978049181
30
0
41
1
10
0.355492163966744
20
-14.0802434965546
30
0
41
1
10
0.370101104686512
20
-14.090516817362
30
0
41
1
10
0.391579881066548
20
-14.1117885239883
30
0
41
1
10
0.398484982044067
20
-14.1197537295975
30
0
41
1
10
0.41027464812376
20
-14.1355431801381
30
0
41
1
10
0.415157671610984
20
-14.1432678560082
30
0
41
1
10
0.427372229456466
20
-14.1652254088807
30
0
41
1
10
0.432321891039862
20
-14.1780120112319
30
0
41
1
10
0.439549508736292
20
-14.2014461443952
30
0
41
1
10
0.441681157637021
20
-14.2118967014106
30
0
41
1
10
0.44578820076265
20
-14.2412797940188
30
0
41
1
10
0.445442817617902
20
-14.2583164448054
30
0
41
1
10
0.441818702447563
20
-14.2892602049516
30
0
41
1
10
0.43846398101698
20
-14.3031082300084
30
0
41
1
10
0.425407582488504
20
-14.3414669139582
30
0
41
1
10
0.41275378485966
20
-14.3628334233236
30
0
41
1
10
0.381951448310872
20
-14.3996431149245
30
0
41
1
10
0.363680833357108
20
-14.4150287729628
30
0
41
1
10
0.34276905284014
20
-14.4271021950738
30
0
0
SPLINE
5
1AC
100
AcDbEntity
8
SK1
62
256
6
ByLayer
370
18
48
1
60
0
100
AcDbSpline
70
4
71
3
72
8
73
4
40
0
40
0
40
0
40
0
40
1
40
1
40
1
40
1
41
1
10
0.3427690528396
20
-14.4271021950732
30
0
41
1
10
0.13695146537134
20
-14.5459310346019
30
0
41
1
10
-0.0607307434437132
20
-14.6600629110753
30
0
41
1
10
-0.249980947161816
20
-14.7693265671361
30
0
0
SPLINE
5
1AD
100
AcDbEntity
8
SK1
62
256
6
ByLayer
370
18
48
1
60
0
100
AcDbSpline
70
4
71
3
72
12
73
8
40
0
40
0
40
0
40
0
40
0.249999999999995
40
0.249999999999995
40
0.49999999999999
40
0.49999999999999
40
1
40
1
40
1
40
1
41
1
10
-0.324980947163056
20
-14.8992303777025
30
0
41
1
10
-0.324980947162913
20
-14.8822327202224
30
0
41
1
10
-0.322303765072519
20
-14.8679024610084
30
0
41
1
10
-0.314253239814377
20
-14.8418833678347
30
0
41
1
10
-0.30877923218938
20
-14.8302966226743
30
0
41
1
10
-0.289069242120206
20
-14.7987354246533
30
0
41
1
10
-0.271567465529699
20
-14.7817895493241
30
0
41
1
10
-0.249980947163408
20
-14.7693265671344
30
0
0
SPLINE
5
1AE
100
AcDbEntity
8
SK1
62
256
6
ByLayer
370
18
48
1
60
0
100
AcDbSpline
70
4
71
3
72
18
73
14
40
0
40
0
40
0
40
0
40
0.125000000000008
40
0.125000000000008
40
0.250000000000017
40
0.250000000000017
40
0.375000000000025
40
0.375000000000025
40
0.500000000000034
40
0.500000000000034
40
0.750000000000017
40
0.750000000000017
40
1
40
1
40
1
40
1
41
1
10
-0.24998094716949
20
-15.2306734328595
30
0
41
1
10
-0.256081154466358
20
-15.2271514765341
30
0
41
1
10
-0.262717445722331
20
-15.2227905443194
30
0
41
1
10
-0.277142436186892
20
-15.2109958839184
30
0
41
1
10
-0.285001470129714
20
-15.2032301173288
30
0
41
1
10
-0.297781574311642
20
-15.1875029750969
30
0
41
1
10
-0.302626773519023
20
-15.1799265663384
30
0
41
1
10
-0.310060604036067
20
-15.1664412681964
30
0
41
1
10
-0.31273455391397
20
-15.1604407626018
30
0
41
1
10
-0.319279714210154
20
-15.1434857839012
30
0
41
1
10
-0.321537832798413
20
-15.1339462395638
30
0
41
1
10
-0.324437343072901
20
-15.1163386422425
30
0
41
1
10
-0.324980944828752
20
-15.1083205516147
30
0
41
1
10
-0.324980947162942
20
-15.1007696686657
30
0
0
SPLINE
5
1AF
100
AcDbEntity
8
SK1
62
256
6
ByLayer
370
18
48
1
60
0
100
AcDbSpline
70
4
71
3
72
8
73
4
40
0
40
0
40
0
40
0
40
1
40
1
40
1
40
1
41
1
10
-0.249980947169064
20
-15.2306734328598
30
0
41
1
10
-0.0534841279738032
20
-15.3441209243171
30
0
41
1
10
0.144124364078834
20
-15.4582102403979
30
0
41
1
10
0.342769052838207
20
-15.5728978049262
30
0
0
SPLINE
5
1B0
100
AcDbEntity
8
SK1
62
256
6
ByLayer
370
18
48
1
60
0
100
AcDbSpline
70
4
71
3
72
26
73
22
40
0
40
0
40
0
40
0
40
0.0312499999999991
40
0.0312499999999991
40
0.0624999999999982
40
0.0624999999999982
40
0.0937499999999973
40
0.0937499999999973
40
0.124999999999996
40
0.124999999999996
40
0.1875
40
0.1875
40
0.250000000000004
40
0.250000000000004
40
0.375000000000003
40
0.375000000000003
40
0.500000000000003
40
0.500000000000003
40
0.750000000000001
40
0.750000000000001
40
1
40
1
40
1
40
1
41
1
10
0.342769052838207
20
-15.5728978049261
30
0
41
1
10
0.349594124357623
20
-15.5768382618051
30
0
41
1
10
0.356954877170892
20
-15.5815885538066
30
0
41
1
10
0.372789901199781
20
-15.5937177583002
30
0
41
1
10
0.381285818620142
20
-15.6011915260059
30
0
41
1
10
0.397454220776467
20
-15.6183542733495
30
0
41
1
10
0.40460987167387
20
-15.6275380928635
30
0
41
1
10
0.415901574080948
20
-15.6443416507406
30
0
41
1
10
0.42028878649154
20
-15.652186781863
30
0
41
1
10
0.430951862660038
20
-15.6737574524049
30
0
41
1
10
0.43511912543002
20
-15.6860916729491
30
0
41
1
10
0.441074256373866
20
-15.7083938363465
30
0
41
1
10
0.442799242142314
20
-15.7184741707156
30
0
41
1
10
0.445882914633984
20
-15.7469103630901
30
0
41
1
10
0.445142323119256
20
-15.7632161318621
30
0
41
1
10
0.44102249234453
20
-15.7929385564271
30
0
41
1
10
0.437545776439151
20
-15.8063404779236
30
0
41
1
10
0.424260602356213
20
-15.8435596603406
30
0
41
1
10
0.411612191613557
20
-15.8644703135801
30
0
41
1
10
0.38106912241534
20
-15.9004060928586
30
0
41
1
10
0.36321861494352
20
-15.9152956348877
30
0
41
1
10
0.342769052838207
20
-15.927102195074
30
0
0
SPLINE
5
1B1
100
AcDbEntity
8
SK1
62
256
6
ByLayer
370
18
48
1
60
0
100
AcDbSpline
70
4
71
3
72
8
73
4
40
0
40
0
40
0
40
0
40
1
40
1
40
1
40
1
41
1
10
0.342769052838207
20
-15.927102195074
30
0
41
1
10
0.154967412089974
20
-16.0355295229142
30
0
41
1
10
-0.0231141435527604
20
-16.1383449570022
30
0
41
1
10
-0.19115329629625
20
-16.2353624070731
30
0
0
SPLINE
5
1B2
100
AcDbEntity
8
SK1
62
256
6
ByLayer
370
18
48
1
60
0
100
AcDbSpline
70
4
71
3
72
8
73
4
40
0
40
0
40
0
40
0
40
1
40
1
40
1
40
1
41
1
10
-0.19115329629625
20
-16.2353624070731
30
0
41
1
10
0.0391213082544937
20
-16.4249211661691
30
0
41
1
10
0.269507094643359
20
-16.6144006342371
30
0
41
1
10
0.499999999999858
20
-16.8038037087754
30
0
0
SPLINE
5
1B3
100
AcDbEntity
8
SK1
62
256
6
ByLayer
370
18
48
1
60
0
100
AcDbSpline
70
4
71
3
72
8
73
4
40
0
40
0
40
0
40
0
40
1
40
1
40
1
40
1
41
1
10
-0.0469703231320864
20
-10.1521183287043
30
0
41
1
10
-0.1151124666832
20
-10.1914602136266
30
0
41
1
10
-0.182784534593225
20
-10.2305307002511
30
0
41
1
10
-0.249980947161731
20
-10.2693265671361
30
0
0
SPLINE
5
1B4
100
AcDbEntity
8
SK1
62
256
6
ByLayer
370
18
48
1
60
0
100
AcDbSpline
70
4
71
3
72
9
73
5
40
0
40
0
40
0
40
0
40
0.999292586041592
40
1
40
1
40
1
40
1
41
1
10
0.342769052838492
20
18.9271021950738
30
0
41
1
10
-0.0434394769972926
20
19.1500797937379
30
0
41
1
10
-0.237878022121549
20
19.2623389401062
30
0
41
1
10
-0.237740711891808
20
19.2622596640081
30
0
41
1
10
-0.237739845779784
20
19.2622591639581
30
0
0
SPLINE
5
1B5
100
AcDbEntity
8
SK1
62
256
6
ByLayer
370
18
48
1
60
0
100
AcDbSpline
70
4
71
3
72
30
73
26
40
0
40
0
40
0
40
0
40
0.015624999999996
40
0.015624999999996
40
0.0312499999999921
40
0.0312499999999921
40
0.0390624999999921
40
0.0390624999999921
40
0.0468749999999921
40
0.0468749999999921
40
0.0624999999999934
40
0.0624999999999934
40
0.0937499999999934
40
0.0937499999999934
40
0.124999999999993
40
0.124999999999993
40
0.187499999999993
40
0.187499999999993
40
0.249999999999994
40
0.249999999999994
40
0.499999999999996
40
0.499999999999996
40
0.749999999999998
40
0.749999999999998
40
1
40
1
40
1
40
1
41
1
10
0.342769052844716
20
18.5728978049296
30
0
41
1
10
0.347171951280302
20
18.5754398195268
30
0
41
1
10
0.351960418969185
20
18.578405995617
30
0
41
1
10
0.362777228869646
20
18.5859371497907
30
0
41
1
10
0.36888780044103
20
18.5905116721255
30
0
41
1
10
0.379817395548116
20
18.6002003847112
30
0
41
1
10
0.383684111846094
20
18.603873799216
30
0
41
1
10
0.391157562605486
20
18.6115906793189
30
0
41
1
10
0.394657280741143
20
18.6155242596522
30
0
41
1
10
0.403675823340961
20
18.6263537691197
30
0
41
1
10
0.407992032602038
20
18.6324622716739
30
0
41
1
10
0.418659317700701
20
18.648735187959
30
0
41
1
10
0.422837359930014
20
18.6569874846892
30
0
41
1
10
0.429873212522324
20
18.6723064010642
30
0
41
1
10
0.432448702746569
20
18.6790960893602
30
0
41
1
10
0.438742659264534
20
18.697999306862
30
0
41
1
10
0.441072721492589
20
18.7087665577518
30
0
41
1
10
0.444156752008354
20
18.7287007453874
30
0
41
1
10
0.444833293181432
20
18.7377933366809
30
0
41
1
10
0.445598279075313
20
18.7805244811046
30
0
41
1
10
0.438596852656275
20
18.8064686815959
30
0
41
1
10
0.419591814375877
20
18.8517667571322
30
0
41
1
10
0.40705757121259
20
18.8706572738758
30
0
41
1
10
0.377955530591834
20
18.9029851967484
30
0
41
1
10
0.361336931577483
20
18.9163820252856
30
0
41
1
10
0.34276905283852
20
18.9271021950739
30
0
0
SPLINE
5
1B6
100
AcDbEntity
8
SK1
62
256
6
ByLayer
370
18
48
1
60
0
100
AcDbSpline
70
4
71
3
72
8
73
4
40
0
40
0
40
0
40
0
40
1
40
1
40
1
40
1
41
1
10
-0.249980947163891
20
18.2306734328625
30
0
41
1
10
-0.0602000624353423
20
18.3402434777476
30
0
41
1
10
0.137660453241892
20
18.4544782997358
30
0
41
1
10
0.342769052844744
20
18.5728978049296
30
0
0
SPLINE
5
1B7
100
AcDbEntity
8
SK1
62
256
6
ByLayer
370
18
48
1
60
0
100
AcDbSpline
70
4
71
3
72
22
73
18
40
0
40
0
40
0
40
0
40
0.500000000000006
40
0.500000000000006
40
0.625000000000008
40
0.625000000000008
40
0.75000000000001
40
0.75000000000001
40
0.812500000000011
40
0.812500000000011
40
0.843750000000004
40
0.843750000000004
40
0.874999999999997
40
0.874999999999997
40
0.937499999999998
40
0.937499999999998
40
1
40
1
40
1
40
1
41
1
10
-0.324980947161492
20
18.1007696736902
30
0
41
1
10
-0.324980942713438
20
18.1137518803148
30
0
41
1
10
-0.323786972692631
20
18.1278012981292
30
0
41
1
10
-0.31646124703758
20
18.1508365404435
30
0
41
1
10
-0.31467614057388
20
18.1557309360371
30
0
41
1
10
-0.309877142831198
20
18.1666369849615
30
0
41
1
10
-0.307015946513786
20
18.1725080306411
30
0
41
1
10
-0.299937942812051
20
18.1838699189831
30
0
41
1
10
-0.297061244389056
20
18.1881873513923
30
0
41
1
10
-0.290809955665338
20
18.1961373598804
30
0
41
1
10
-0.288344686570895
20
18.1990897237153
30
0
41
1
10
-0.282576626493921
20
18.2053705283388
30
0
41
1
10
-0.279276769685424
20
18.2086541663266
30
0
41
1
10
-0.270235529332012
20
18.2169304518466
30
0
41
1
10
-0.26530739012378
20
18.2206340696715
30
0
41
1
10
-0.256901453625801
20
18.2265288472598
30
0
41
1
10
-0.253317987424509
20
18.2287467917696
30
0
41
1
10
-0.24998094716392
20
18.2306734328625
30
0
0
SPLINE
5
1B8
100
AcDbEntity
8
SK1
62
256
6
ByLayer
370
18
48
1
60
0
100
AcDbSpline
70
4
71
3
72
12
73
8
40
0
40
0
40
0
40
0
40
0.499999999999999
40
0.499999999999999
40
0.75
40
0.75
40
1
40
1
40
1
40
1
41
1
10
-0.249980947161475
20
17.769326567136
30
0
41
1
10
-0.272414825236467
20
17.7822787726816
30
0
41
1
10
-0.289849679960383
20
17.7996215327343
30
0
41
1
10
-0.309329969157687
20
17.8313737108875
30
0
41
1
10
-0.314672522353902
20
17.8429531170883
30
0
41
1
10
-0.322455514656014
20
17.8686997670905
30
0
41
1
10
-0.324980947161492
20
17.8827821226977
30
0
41
1
10
-0.324980947161492
20
17.8992303777037
30
0
0
SPLINE
5
1B9
100
AcDbEntity
8
SK1
62
256
6
ByLayer
370
18
48
1
60
0
100
AcDbSpline
70
4
71
3
72
8
73
4
40
0
40
0
40
0
40
0
40
1
40
1
40
1
40
1
41
1
10
0.342769052838492
20
17.4271021950738
30
0
41
1
10
0.122384349147581
20
17.5543413630751
30
0
41
1
10
-0.075482209216176
20
17.66857967381
30
0
41
1
10
-0.249980947161504
20
17.769326567136
30
0
0
SPLINE
5
1BA
100
AcDbEntity
8
SK1
62
256
6
ByLayer
370
18
48
1
60
0
100
AcDbSpline
70
4
71
3
72
28
73
24
40
0
40
0
40
0
40
0
40
0.0312500000000019
40
0.0312500000000019
40
0.0468749999999989
40
0.0468749999999989
40
0.0624999999999959
40
0.0624999999999959
40
0.093749999999993
40
0.093749999999993
40
0.12499999999999
40
0.12499999999999
40
0.187499999999991
40
0.187499999999991
40
0.249999999999992
40
0.249999999999992
40
0.374999999999992
40
0.374999999999992
40
0.499999999999991
40
0.499999999999991
40
0.749999999999995
40
0.749999999999995
40
1
40
1
40
1
40
1
41
1
10
0.342769052838435
20
17.072897804926
30
0
41
1
10
0.350219788009412
20
17.0771994888827
30
0
41
1
10
0.358549452454696
20
17.0825539799038
30
0
41
1
10
0.37286421803563
20
17.093979869987
30
0
41
1
10
0.377987963333709
20
17.0984317564578
30
0
41
1
10
0.388166271881772
20
17.1083280814276
30
0
41
1
10
0.393183542585661
20
17.1137579495875
30
0
41
1
10
0.406502037973468
20
17.1297408233558
30
0
41
1
10
0.412744887295446
20
17.1393052009069
30
0
41
1
10
0.42248391189014
20
17.1561710776414
30
0
41
1
10
0.426016499717207
20
17.1635944235194
30
0
41
1
10
0.434672051565514
20
17.1840851392541
30
0
41
1
10
0.437986803453612
20
17.1957274100746
30
0
41
1
10
0.442636637050043
20
17.2170226031547
30
0
41
1
10
0.44387747664868
20
17.2266145363653
30
0
41
1
10
0.445780954070244
20
17.2535938389764
30
0
41
1
10
0.444634637796042
20
17.2691943605649
30
0
41
1
10
0.43986664962992
20
17.2978762065491
30
0
41
1
10
0.436160069705039
20
17.3109072275389
30
0
41
1
10
0.422428671235736
20
17.3468944380383
30
0
41
1
10
0.40984269136672
20
17.36691560185
30
0
41
1
10
0.379945598133247
20
17.4013274297263
30
0
41
1
10
0.36258298364308
20
17.4156626167901
30
0
41
1
10
0.34276905283852
20
17.4271021950739
30
0
0
SPLINE
5
1BB
100
AcDbEntity
8
SK1
62
256
6
ByLayer
370
18
48
1
60
0
100
AcDbSpline
70
4
71
3
72
8
73
4
40
0
40
0
40
0
40
0
40
1
40
1
40
1
40
1
41
1
10
-0.249980947156871
20
16.7306734328666
30
0
41
1
10
-0.0547247618710003
20
16.8434046440023
30
0
41
1
10
0.142923239003267
20
16.9575167705119
30
0
41
1
10
0.342769052838463
20
17.072897804926
30
0
0
SPLINE
5
1BC
100
AcDbEntity
8
SK1
62
256
6
ByLayer
370
18
48
1
60
0
100
AcDbSpline
70
4
71
3
72
20
73
16
40
0
40
0
40
0
40
0
40
0.249999999999999
40
0.249999999999999
40
0.499999999999998
40
0.499999999999998
40
0.624999999999997
40
0.624999999999997
40
0.749999999999997
40
0.749999999999997
40
0.812499999999996
40
0.812499999999996
40
0.874999999999996
40
0.874999999999996
40
1
40
1
40
1
40
1
41
1
10
-0.324980947161549
20
16.6007696742416
30
0
41
1
10
-0.324980944713957
20
16.607837442378
30
0
41
1
10
-0.32450099696058
20
16.6153798571387
30
0
41
1
10
-0.321956071445555
20
16.6318825954064
30
0
41
1
10
-0.319966113323517
20
16.6407981042995
30
0
41
1
10
-0.314369069028771
20
16.6564624937185
30
0
41
1
10
-0.312057921716502
20
16.662085122696
30
0
41
1
10
-0.305703740349884
20
16.6746698177185
30
0
41
1
10
-0.301711034698002
20
16.6816998750711
30
0
41
1
10
-0.292329218117516
20
16.6943481376133
30
0
41
1
10
-0.288588938352149
20
16.6989035673294
30
0
41
1
10
-0.280264486169585
20
16.7077856175684
30
0
41
1
10
-0.275807648856642
20
16.7119602336365
30
0
41
1
10
-0.263376019538384
20
16.7224405493047
30
0
41
1
10
-0.256236858595571
20
16.7270615807137
30
0
41
1
10
-0.249980947156928
20
16.7306734328665
30
0
0
SPLINE
5
1BD
100
AcDbEntity
8
SK1
62
256
6
ByLayer
370
18
48
1
60
0
100
AcDbSpline
70
4
71
3
72
12
73
8
40
0
40
0
40
0
40
0
40
0.499999999999998
40
0.499999999999998
40
0.749999999999999
40
0.749999999999999
40
1
40
1
40
1
40
1
41
1
10
-0.249980947162328
20
16.2693265671352
30
0
41
1
10
-0.27179039097652
20
16.2819182553922
30
0
41
1
10
-0.289240949627782
20
16.2989278931104
30
0
41
1
10
-0.308904019991303
20
16.3305383497191
30
0
41
1
10
-0.314354285966232
20
16.3421324331949
30
0
41
1
10
-0.322353048377323
20
16.3681407231553
30
0
41
1
10
-0.324980947161521
20
16.382518693589
30
0
41
1
10
-0.324980947161549
20
16.3992303777035
30
0
0
SPLINE
5
1BE
100
AcDbEntity
8
SK1
62
256
6
ByLayer
370
18
48
1
60
0
100
AcDbSpline
70
4
71
3
72
8
73
4
40
0
40
0
40
0
40
0
40
1
40
1
40
1
40
1
41
1
10
0.342769052838435
20
15.9271021950738
30
0
41
1
10
0.132896815745482
20
16.0482719876549
30
0
41
1
10
-0.0648365548911727
20
16.1624334024197
30
0
41
1
10
-0.249980947161561
20
16.269326567136
30
0
0
SPLINE
5
1BF
100
AcDbEntity
8
SK1
62
256
6
ByLayer
370
18
48
1
60
0
100
AcDbSpline
70
4
71
3
72
26
73
22
40
0
40
0
40
0
40
0
40
0.0312499999999997
40
0.0312499999999997
40
0.0624999999999993
40
0.0624999999999993
40
0.093749999999999
40
0.093749999999999
40
0.124999999999999
40
0.124999999999999
40
0.187500000000004
40
0.187500000000004
40
0.250000000000009
40
0.250000000000009
40
0.37500000000001
40
0.37500000000001
40
0.500000000000012
40
0.500000000000012
40
0.750000000000006
40
0.750000000000006
40
1
40
1
40
1
40
1
41
1
10
0.342769052838435
20
15.572897804926
30
0
41
1
10
0.349594124357878
20
15.576838261805
30
0
41
1
10
0.356954877171148
20
15.5815885538064
30
0
41
1
10
0.372789901200008
20
15.5937177583001
30
0
41
1
10
0.38128581862037
20
15.6011915260058
30
0
41
1
10
0.397454220776723
20
15.6183542733494
30
0
41
1
10
0.404609871674125
20
15.6275380928634
30
0
41
1
10
0.415901574081175
20
15.6443416507404
30
0
41
1
10
0.420288786491767
20
15.6521867818629
30
0
41
1
10
0.430951862660265
20
15.6737574524047
30
0
41
1
10
0.435119125430276
20
15.686091672949
30
0
41
1
10
0.441074256374094
20
15.7083938363464
30
0
41
1
10
0.442799242142542
20
15.7184741707154
30
0
41
1
10
0.44588291463424
20
15.74691036309
30
0
41
1
10
0.445142323119512
20
15.763216131862
30
0
41
1
10
0.441022492344786
20
15.792938556427
30
0
41
1
10
0.437545776439407
20
15.8063404779235
30
0
41
1
10
0.424260602356469
20
15.8435596603404
30
0
41
1
10
0.411612191613784
20
15.86447031358
30
0
41
1
10
0.381069122415596
20
15.9004060928585
30
0
41
1
10
0.363218614943776
20
15.9152956348875
30
0
41
1
10
0.342769052838463
20
15.9271021950739
30
0
0
SPLINE
5
1C0
100
AcDbEntity
8
SK1
62
256
6
ByLayer
370
18
48
1
60
0
100
AcDbSpline
70
4
71
3
72
8
73
4
40
0
40
0
40
0
40
0
40
1
40
1
40
1
40
1
41
1
10
-0.249980947159514
20
15.2306734328651
30
0
41
1
10
-0.053484127967323
20
15.3441209243206
30
0
41
1
10
0.144124364082216
20
15.4582102403996
30
0
41
1
10
0.342769052838463
20
15.572897804926
30
0
0
SPLINE
5
1C1
100
AcDbEntity
8
SK1
62
256
6
ByLayer
370
18
48
1
60
0
100
AcDbSpline
70
4
71
3
72
18
73
14
40
0
40
0
40
0
40
0
40
0.250000000000006
40
0.250000000000006
40
0.500000000000011
40
0.500000000000011
40
0.625000000000008
40
0.625000000000008
40
0.750000000000006
40
0.750000000000006
40
0.875000000000003
40
0.875000000000003
40
1
40
1
40
1
40
1
41
1
10
-0.32498094717684
20
15.1007696733175
30
0
41
1
10
-0.324980944602544
20
15.1083379719955
30
0
41
1
10
-0.324432712680476
20
15.116420417677
30
0
41
1
10
-0.32149464679398
20
15.1341539514462
30
0
41
1
10
-0.319182438022892
20
15.1438135323921
30
0
41
1
10
-0.312597598822038
20
15.1607560309804
30
0
41
1
10
-0.309874417347004
20
15.1668188717233
30
0
41
1
10
-0.302439168976832
20
15.1802249766799
30
0
41
1
10
-0.297509190612175
20
15.1878765947346
30
0
41
1
10
-0.284807946299281
20
15.203428403464
30
0
41
1
10
-0.27692257905008
20
15.2111916961386
30
0
41
1
10
-0.262620965309054
20
15.2228530278961
30
0
41
1
10
-0.256002024866063
20
15.2271971620467
30
0
41
1
10
-0.249980947146952
20
15.2306734328874
30
0
0
SPLINE
5
1C2
100
AcDbEntity
8
SK1
62
256
6
ByLayer
370
18
48
1
60
0
100
AcDbSpline
70
4
71
3
72
12
73
8
40
0
40
0
40
0
40
0
40
0.499999999999999
40
0.499999999999999
40
0.749999999999999
40
0.749999999999999
40
1
40
1
40
1
40
1
41
1
10
-0.249980947161532
20
14.769326567136
30
0
41
1
10
-0.271516642800805
20
14.7817602068105
30
0
41
1
10
-0.289005300634301
20
14.7986536555467
30
0
41
1
10
-0.308758860239237
20
14.8302537328972
30
0
41
1
10
-0.314253887073761
20
14.8418692188385
30
0
41
1
10
-0.32233426836558
20
14.8680173504828
30
0
41
1
10
-0.324980947161549
20
14.8824182338688
30
0
41
1
10
-0.324980947161549
20
14.8992303777036
30
0
0
SPLINE
5
1C3
100
AcDbEntity
8
SK1
62
256
6
ByLayer
370
18
48
1
60
0
100
AcDbSpline
70
4
71
3
72
8
73
4
40
0
40
0
40
0
40
0
40
1
40
1
40
1
40
1
41
1
10
0.342769052839856
20
14.4271021950731
30
0
41
1
10
0.136951465371595
20
14.5459310346018
30
0
41
1
10
-0.0607307434434574
20
14.6600629110752
30
0
41
1
10
-0.249980947161532
20
14.769326567136
30
0
0
SPLINE
5
1C4
100
AcDbEntity
8
SK1
62
256
6
ByLayer
370
18
48
1
60
0
100
AcDbSpline
70
4
71
3
72
24
73
20
40
0
40
0
40
0
40
0
40
0.0624999999999906
40
0.0624999999999906
40
0.0937499999999886
40
0.0937499999999886
40
0.124999999999987
40
0.124999999999987
40
0.187499999999983
40
0.187499999999983
40
0.249999999999979
40
0.249999999999979
40
0.374999999999983
40
0.374999999999983
40
0.499999999999987
40
0.499999999999987
40
0.749999999999994
40
0.749999999999994
40
1
40
1
40
1
40
1
41
1
10
0.342769052834768
20
14.0728978049179
30
0
41
1
10
0.355492163967
20
14.0802434965545
30
0
41
1
10
0.370101104686768
20
14.0905168173618
30
0
41
1
10
0.391579881066832
20
14.1117885239882
30
0
41
1
10
0.398484982044323
20
14.1197537295974
30
0
41
1
10
0.410274648124045
20
14.135543180138
30
0
41
1
10
0.41515767161124
20
14.1432678560081
30
0
41
1
10
0.427372229456722
20
14.1652254088806
30
0
41
1
10
0.432321891040147
20
14.1780120112318
30
0
41
1
10
0.439549508736548
20
14.2014461443951
30
0
41
1
10
0.441681157637277
20
14.2118967014104
30
0
41
1
10
0.445788200762905
20
14.2412797940188
30
0
41
1
10
0.445442817618158
20
14.2583164448053
30
0
41
1
10
0.441818702447819
20
14.2892602049515
30
0
41
1
10
0.438463981017236
20
14.3031082300083
30
0
41
1
10
0.425407582488759
20
14.3414669139581
30
0
41
1
10
0.412753784859916
20
14.3628334233235
30
0
41
1
10
0.381951448311128
20
14.3996431149243
30
0
41
1
10
0.363680833357364
20
14.4150287729627
30
0
41
1
10
0.342769052840396
20
14.4271021950737
30
0
0
SPLINE
5
1C5
100
AcDbEntity
8
SK1
62
256
6
ByLayer
370
18
48
1
60
0
100
AcDbSpline
70
4
71
3
72
8
73
4
40
0
40
0
40
0
40
0
40
1
40
1
40
1
40
1
41
1
10
-0.249980947161561
20
13.7306734328638
30
0
41
1
10
-0.0530000040731977
20
13.8444004333811
30
0
41
1
10
0.144595422329303
20
13.9584822060053
30
0
41
1
10
0.342769052838463
20
14.072897804926
30
0
0
SPLINE
5
1C6
100
AcDbEntity
8
SK1
62
256
6
ByLayer
370
18
48
1
60
0
100
AcDbSpline
70
4
71
3
72
18
73
14
40
0
40
0
40
0
40
0
40
0.249999999999976
40
0.249999999999976
40
0.499999999999952
40
0.499999999999952
40
0.624999999999964
40
0.624999999999964
40
0.749999999999976
40
0.749999999999976
40
0.874999999999988
40
0.874999999999988
40
1
40
1
40
1
40
1
41
1
10
-0.324980947162118
20
13.600769667036
30
0
41
1
10
-0.324980944779441
20
13.6087580826515
30
0
41
1
10
-0.324375091817473
20
13.6172515822332
30
0
41
1
10
-0.321101652115828
20
13.6359691257659
30
0
41
1
10
-0.318480845447624
20
13.6462848088004
30
0
41
1
10
-0.311140598526663
20
13.6640271324653
30
0
41
1
10
-0.308065534855615
20
13.67042906028
30
0
41
1
10
-0.299905142428656
20
13.684183591263
30
0
41
1
10
-0.294738072321223
20
13.6915917814672
30
0
41
1
10
-0.28230951572229
20
13.7059884988997
30
0
41
1
10
-0.275307003668217
20
13.7125990917556
30
0
41
1
10
-0.262137194402243
20
13.7231417450231
30
0
41
1
10
-0.255819243409292
20
13.727302690991
30
0
41
1
10
-0.249980947137573
20
13.7306734329127
30
0
0
SPLINE
5
1C7
100
AcDbEntity
8
SK1
62
256
6
ByLayer
370
18
48
1
60
0
100
AcDbSpline
70
4
71
3
72
12
73
8
40
0
40
0
40
0
40
0
40
0.50000000000001
40
0.50000000000001
40
0.750000000000005
40
0.750000000000005
40
1
40
1
40
1
40
1
41
1
10
-0.249980947161561
20
13.269326567136
30
0
41
1
10
-0.271365093900641
20
13.2816727100122
30
0
41
1
10
-0.288886118499334
20
13.2985023885229
30
0
41
1
10
-0.308718668188533
20
13.3301698901521
30
0
41
1
10
-0.314220321073179
20
13.3417949276563
30
0
41
1
10
-0.322302273622967
20
13.3678797646459
30
0
41
1
10
-0.324980947161549
20
13.3822418326897
30
0
41
1
10
-0.324980947161549
20
13.3992303777037
30
0
0
SPLINE
5
1C8
100
AcDbEntity
8
SK1
62
256
6
ByLayer
370
18
48
1
60
0
100
AcDbSpline
70
4
71
3
72
8
73
4
40
0
40
0
40
0
40
0
40
1
40
1
40
1
40
1
41
1
10
0.342769052839571
20
12.9271021950732
30
0
41
1
10
0.139093450173135
20
13.0446943591001
30
0
41
1
10
-0.0585614418589842
20
13.1588104642214
30
0
41
1
10
-0.249980947161561
20
13.269326567136
30
0
0
SPLINE
5
1C9
100
AcDbEntity
8
SK1
62
256
6
ByLayer
370
18
48
1
60
0
100
AcDbSpline
70
4
71
3
72
22
73
18
40
0
40
0
40
0
40
0
40
0.0625000000000003
40
0.0625000000000003
40
0.125000000000001
40
0.125000000000001
40
0.187500000000001
40
0.187500000000001
40
0.250000000000001
40
0.250000000000001
40
0.375000000000002
40
0.375000000000002
40
0.500000000000002
40
0.500000000000002
40
0.750000000000001
40
0.750000000000001
40
1
40
1
40
1
40
1
41
1
10
0.342769052838463
20
12.572897804926
30
0
41
1
10
0.354608181839922
20
12.579733129242
30
0
41
1
10
0.367641788105971
20
12.5887969509675
30
0
41
1
10
0.393933820836764
20
12.6135796136961
30
0
41
1
10
0.406050000048083
20
12.6287545713999
30
0
41
1
10
0.423576796837352
20
12.657313373119
30
0
41
1
10
0.429373222380519
20
12.67052387735
30
0
41
1
10
0.437772772863639
20
12.6945624553112
30
0
41
1
10
0.440407220383662
20
12.7055989538998
30
0
41
1
10
0.44558857176844
20
12.7361193630081
30
0
41
1
10
0.445625738412048
20
12.7535773835816
30
0
41
1
10
0.442516530023966
20
12.785757088122
30
0
41
1
10
0.439280452881945
20
12.8000626434372
30
0
41
1
10
0.426421000815395
20
12.8396056103102
30
0
41
1
10
0.413679423891153
20
12.8615037472975
30
0
41
1
10
0.382525012517789
20
12.8991707316468
30
0
41
1
10
0.363925974973995
20
12.9148872403835
30
0
41
1
10
0.342769052839628
20
12.9271021950732
30
0
0
SPLINE
5
1CA
100
AcDbEntity
8
SK1
62
256
6
ByLayer
370
18
48
1
60
0
100
AcDbSpline
70
4
71
3
72
8
73
4
40
0
40
0
40
0
40
0
40
1
40
1
40
1
40
1
41
1
10
-0.249980947161561
20
12.2306734328638
30
0
41
1
10
-0.0527632894171006
20
12.3445371006516
30
0
41
1
10
0.144826582198277
20
12.4586156662178
30
0
41
1
10
0.342769052838463
20
12.572897804926
30
0
0
SPLINE
5
1CB
100
AcDbEntity
8
SK1
62
256
6
ByLayer
370
18
48
1
60
0
100
AcDbSpline
70
4
71
3
72
16
73
12
40
0
40
0
40
0
40
0
40
0.25
40
0.25
40
0.5
40
0.5
40
0.625
40
0.625
40
0.75
40
0.75
40
1
40
1
40
1
40
1
41
1
10
-0.324980947189545
20
12.1007696222697
30
0
41
1
10
-0.324980947191023
20
12.1091375518883
30
0
41
1
10
-0.324309016992942
20
12.1181205982701
30
0
41
1
10
-0.320686052162557
20
12.1377824738948
30
0
41
1
10
-0.31778645628907
20
12.1486027991512
30
0
41
1
10
-0.309681694932749
20
12.1671101461962
30
0
41
1
10
-0.306333788099323
20
12.1736485913715
30
0
41
1
10
-0.297771572635867
20
12.187299242956
30
0
41
1
10
-0.292433481716444
20
12.1944924874515
30
0
41
1
10
-0.274589605548215
20
12.214323171248
30
0
41
1
10
-0.261321720492191
20
12.2241258343667
30
0
41
1
10
-0.249980947142205
20
12.2306734329092
30
0
0
SPLINE
5
1CC
100
AcDbEntity
8
SK1
62
256
6
ByLayer
370
18
48
1
60
0
100
AcDbSpline
70
4
71
3
72
12
73
8
40
0
40
0
40
0
40
0
40
0.500000000000013
40
0.500000000000013
40
0.750000000000007
40
0.750000000000007
40
1
40
1
40
1
40
1
41
1
10
-0.249980947161589
20
11.769326567136
30
0
41
1
10
-0.271180770286691
20
11.781566290724
30
0
41
1
10
-0.288598490316616
20
11.7981560037921
30
0
41
1
10
-0.308577748339019
20
11.8298896356489
30
0
41
1
10
-0.314125680259224
20
11.8415504008792
30
0
41
1
10
-0.322280802532902
20
11.8677503986238
30
0
41
1
10
-0.324980952094194
20
11.882334966346
30
0
41
1
10
-0.324980947161606
20
11.899230421496
30
0
0
SPLINE
5
1CD
100
AcDbEntity
8
SK1
62
256
6
ByLayer
370
18
48
1
60
0
100
AcDbSpline
70
4
71
3
72
8
73
4
40
0
40
0
40
0
40
0
40
1
40
1
40
1
40
1
41
1
10
0.342769052838406
20
11.4271021950739
30
0
41
1
10
0.14042882657094
20
11.5439233791773
30
0
41
1
10
-0.0572098387455071
20
11.6580301158
30
0
41
1
10
-0.249980947161589
20
11.769326567136
30
0
0
SPLINE
5
1CE
100
AcDbEntity
8
SK1
62
256
6
ByLayer
370
18
48
1
60
0
100
AcDbSpline
70
4
71
3
72
22
73
18
40
0
40
0
40
0
40
0
40
0.0625000000000055
40
0.0625000000000055
40
0.125000000000011
40
0.125000000000011
40
0.187500000000016
40
0.187500000000016
40
0.250000000000022
40
0.250000000000022
40
0.375000000000019
40
0.375000000000019
40
0.500000000000016
40
0.500000000000016
40
0.750000000000008
40
0.750000000000008
40
1
40
1
40
1
40
1
41
1
10
0.342769052838406
20
11.072897804926
30
0
41
1
10
0.35405059545127
20
11.0794112065904
30
0
41
1
10
0.366209629257412
20
11.0878490587058
30
0
41
1
10
0.390520771895751
20
11.1100338146445
30
0
41
1
10
0.40217957738966
20
11.1236871566761
30
0
41
1
10
0.42023907538703
20
11.1510567178538
30
0
41
1
10
0.426716865430279
20
11.1644252779557
30
0
41
1
10
0.436131893586492
20
11.1889403979589
30
0
41
1
10
0.439120072139303
20
11.2000710535235
30
0
41
1
10
0.445319628398352
20
11.231641555031
30
0
41
1
10
0.445676858959757
20
11.2496418556062
30
0
41
1
10
0.443105753875841
20
11.2823802755192
30
0
41
1
10
0.440018994658715
20
11.2971638179407
30
0
41
1
10
0.427264174779765
20
11.3381142409963
30
0
41
1
10
0.414383428423577
20
11.3604758779004
30
0
41
1
10
0.382981648139662
20
11.3987889432569
30
0
41
1
10
0.364323351058317
20
11.4146578151944
30
0
41
1
10
0.342769052838406
20
11.4271021950739
30
0
0
SPLINE
5
1CF
100
AcDbEntity
8
SK1
62
256
6
ByLayer
370
18
48
1
60
0
100
AcDbSpline
70
4
71
3
72
8
73
4
40
0
40
0
40
0
40
0
40
1
40
1
40
1
40
1
41
1
10
-0.249980947161618
20
10.7306734328638
30
0
41
1
10
-0.0526311005795606
20
10.8446134199125
30
0
41
1
10
0.14495640268521
20
10.9586906181109
30
0
41
1
10
0.342769052838406
20
11.072897804926
30
0
0
SPLINE
5
1D0
100
AcDbEntity
8
SK1
62
256
6
ByLayer
370
18
48
1
60
0
100
AcDbSpline
70
4
71
3
72
14
73
10
40
0
40
0
40
0
40
0
40
0.25
40
0.25
40
0.5
40
0.5
40
0.75
40
0.75
40
1
40
1
40
1
40
1
41
1
10
-0.324980947161606
20
10.6007696222962
30
0
41
1
10
-0.324980947161606
20
10.6094638429982
30
0
41
1
10
-0.324257414918577
20
10.6188504811584
30
0
41
1
10
-0.320279451864849
20
10.6394830025955
30
0
41
1
10
-0.317087137316094
20
10.6507433672038
30
0
41
1
10
-0.305544085308384
20
10.6759015823237
30
0
41
1
10
-0.296574052598061
20
10.6902248775749
30
0
41
1
10
-0.273553804333659
20
10.7150959876526
30
0
41
1
10
-0.261125044145757
20
10.7242393854776
30
0
41
1
10
-0.249980947157695
20
10.7306734328728
30
0
0
SPLINE
5
1D1
100
AcDbEntity
8
SK1
62
256
6
ByLayer
370
18
48
1
60
0
100
AcDbSpline
70
4
71
3
72
12
73
8
40
0
40
0
40
0
40
0
40
0.5
40
0.5
40
0.75
40
0.75
40
1
40
1
40
1
40
1
41
1
10
-0.249980947163237
20
10.269326567137
30
0
41
1
10
-0.271072889936363
20
10.2815040059751
30
0
41
1
10
-0.288435995715645
20
10.2979819796639
30
0
41
1
10
-0.308444760829474
20
10.329637044846
30
0
41
1
10
-0.314074872656676
20
10.3414150937224
30
0
41
1
10
-0.322278016727125
20
10.3677137080054
30
0
41
1
10
-0.324980951859487
20
10.382197579641
30
0
41
1
10
-0.324980947161606
20
10.3992304190756
30
0
0
SPLINE
5
1D2
100
AcDbEntity
8
SK1
62
256
6
ByLayer
370
18
48
1
60
0
100
AcDbSpline
70
4
71
3
72
8
73
4
40
0
40
0
40
0
40
0
40
1
40
1
40
1
40
1
41
1
10
-0.0469703231315748
20
10.1521183287039
30
0
41
1
10
-0.115112466683399
20
10.1914602136267
30
0
41
1
10
-0.182784534594134
20
10.2305307002516
30
0
41
1
10
-0.249980947163351
20
10.269326567137
30
0
0
SPLINE
5
1D3
100
AcDbEntity
8
1
62
256
6
ByLayer
370
18
48
1
60
0
100
AcDbSpline
70
4
71
3
72
26
73
22
40
0
40
0
40
0
40
0
40
0.0625000000000011
40
0.0625000000000011
40
0.125000000000002
40
0.125000000000002
40
0.250000000000005
40
0.250000000000005
40
0.375000000000008
40
0.375000000000008
40
0.437500000000008
40
0.437500000000008
40
0.500000000000009
40
0.500000000000009
40
0.625000000000007
40
0.625000000000007
40
0.750000000000004
40
0.750000000000004
40
0.875000000000002
40
0.875000000000002
40
1
40
1
40
1
40
1
41
1
10
10.8702898960368
20
-24.6500000000002
30
0
41
1
10
10.9228606751802
20
-24.6500000000002
30
0
41
1
10
10.9759823977601
20
-24.6525777346986
30
0
41
1
10
11.081061848214
20
-24.6628433080557
30
0
41
1
10
11.1329994133295
20
-24.6704920948045
30
0
41
1
10
11.2870507764245
20
-24.70079781344
30
0
41
1
10
11.3874201883288
20
-24.7307432976636
30
0
41
1
10
11.5833275655837
20
-24.8108214549258
30
0
41
1
10
11.6765631210783
20
-24.8601217173011
30
0
41
1
10
11.8075285484109
20
-24.9464644920669
30
0
41
1
10
11.849809527232
20
-24.9773734351434
30
0
41
1
10
11.9315692096398
20
-25.0435309010031
30
0
41
1
10
11.9712164575546
20
-25.0789578525107
30
0
41
1
10
12.0841259604913
20
-25.1903973032179
30
0
41
1
10
12.1518464808391
20
-25.2718878465783
30
0
41
1
10
12.2703251912321
20
-25.4472397550121
30
0
41
1
10
12.3200606974534
20
-25.5394263767108
30
0
41
1
10
12.4010283754609
20
-25.7325815766775
30
0
41
1
10
12.4324025358343
20
-25.8347424929507
30
0
41
1
10
12.4737502404862
20
-26.0407332286745
30
0
41
1
10
12.4841117668218
20
-26.14481887449
30
0
41
1
10
12.4841117668218
20
-26.2500000000002
30
0
0
SPLINE
5
1D4
100
AcDbEntity
8
1
62
256
6
ByLayer
370
18
48
1
60
0
100
AcDbSpline
70
4
71
3
72
8
73
4
40
0
40
0
40
0
40
0
40
1
40
1
40
1
40
1
41
1
10
11.2499999999996
20
-39.5781934928887
30
0
41
1
10
11.262706423869
20
-39.4270079527502
30
0
41
1
10
11.2766631516256
20
-39.3004694540329
30
0
41
1
10
11.292044922115
20
-39.1985552505997
30
0
0
SPLINE
5
1D5
100
AcDbEntity
8
1
62
256
6
ByLayer
370
18
48
1
60
0
100
AcDbSpline
70
4
71
3
72
28
73
24
40
0
40
0
40
0
40
0
40
0.0624999999999979
40
0.0624999999999979
40
0.124999999999996
40
0.124999999999996
40
0.249999999999991
40
0.249999999999991
40
0.312499999999989
40
0.312499999999989
40
0.374999999999986
40
0.374999999999986
40
0.499999999999986
40
0.499999999999986
40
0.562499999999987
40
0.562499999999987
40
0.624999999999988
40
0.624999999999988
40
0.749999999999992
40
0.749999999999992
40
0.874999999999996
40
0.874999999999996
40
1
40
1
40
1
40
1
41
1
10
3.76999999999981
20
-19.001223258084
30
0
41
1
10
3.76999999999981
20
-18.9593135550038
30
0
41
1
10
3.76757746962389
20
-18.9170141504411
30
0
41
1
10
3.75797256330773
20
-18.8334341882513
30
0
41
1
10
3.7508121573477
20
-18.7920443147512
30
0
41
1
10
3.72238375597866
20
-18.6690535222889
30
0
41
1
10
3.69423346054705
20
-18.5886204216589
30
0
41
1
10
3.63757449449562
20
-18.4704199130917
30
0
41
1
10
3.61619216269324
20
-18.4313611210628
30
0
41
1
10
3.56936735729821
20
-18.3557074926522
30
0
41
1
10
3.54384011220065
20
-18.3189078848008
30
0
41
1
10
3.46092804975879
20
-18.2115837831595
30
0
41
1
10
3.3972808955613
20
-18.1441009875149
30
0
41
1
10
3.28819039973757
20
-18.0494920901384
30
0
41
1
10
3.24965900546931
20
-18.0192115074361
30
0
41
1
10
3.1697327489772
20
-17.9623392023906
30
0
41
1
10
3.12814097260988
20
-17.9355706628325
30
0
41
1
10
2.99844300594489
20
-17.8603054541237
30
0
41
1
10
2.90496241734016
20
-17.8166067260285
30
0
41
1
10
2.70569887409928
20
-17.7447958929059
30
0
41
1
10
2.60283814186118
20
-17.7176443644393
30
0
41
1
10
2.39068895318931
20
-17.6807672178766
30
0
41
1
10
2.28045545814294
20
-17.6711067478127
30
0
41
1
10
2.16999999999987
20
-17.6711067478127
30
0
0
SPLINE
5
1D6
100
AcDbEntity
8
1
62
256
6
ByLayer
370
18
48
1
60
0
100
AcDbSpline
70
4
71
3
72
8
73
4
40
0
40
0
40
0
40
0
40
1
40
1
40
1
40
1
41
1
10
16.7499999999996
20
-39.578193492889
30
0
41
1
10
16.7372935761302
20
-39.4270079527504
30
0
41
1
10
16.7233368483736
20
-39.300469454033
30
0
41
1
10
16.7079550778842
20
-39.1985552505998
30
0
0
SPLINE
5
1D7
100
AcDbEntity
8
1
62
256
6
ByLayer
370
18
48
1
60
0
100
AcDbSpline
70
4
71
3
72
18
73
14
40
0
40
0
40
0
40
0
40
0.125
40
0.125
40
0.25
40
0.25
40
0.5
40
0.5
40
0.625
40
0.625
40
0.750000000000001
40
0.750000000000001
40
1
40
1
40
1
40
1
41
1
10
16.642933189815
20
-7.6931836453989
30
0
41
1
10
16.6489588034293
20
-7.69356940680811
30
0
41
1
10
16.6548576873939
20
-7.68721790717009
30
0
41
1
10
16.6664062883349
20
-7.66100780378534
30
0
41
1
10
16.6720912042486
20
-7.6409643259199
30
0
41
1
10
16.6885122268198
20
-7.56088269111973
30
0
41
1
10
16.6985057423511
20
-7.48222240954777
30
0
41
1
10
16.7122454462062
20
-7.32666378397278
30
0
41
1
10
16.7166259370813
20
-7.26816609203479
30
0
41
1
10
16.7247520672563
20
-7.14163090987833
30
0
41
1
10
16.7285310333523
20
-7.07328074173986
30
0
41
1
10
16.7390849004988
20
-6.85315692133088
30
0
41
1
10
16.7451180245943
20
-6.68474725395441
30
0
41
1
10
16.7499999999999
20
-6.501241666167
30
0
0
SPLINE
5
1D8
100
AcDbEntity
8
1
62
256
6
ByLayer
370
18
48
1
60
0
100
AcDbSpline
70
4
71
3
72
28
73
24
40
0
40
0
40
0
40
0
40
0.125
40
0.125
40
0.1875
40
0.1875
40
0.25
40
0.25
40
0.375
40
0.375
40
0.499999999999999
40
0.499999999999999
40
0.624999999999998
40
0.624999999999998
40
0.687499999999998
40
0.687499999999998
40
0.749999999999997
40
0.749999999999997
40
0.874999999999997
40
0.874999999999997
40
0.937499999999999
40
0.937499999999999
40
1
40
1
40
1
40
1
41
1
10
11.2499999999997
20
-26.2500000000002
30
0
41
1
10
11.2499999999997
20
-26.1443388332061
30
0
41
1
10
11.2396362765759
20
-26.0404431375309
30
0
41
1
10
11.209181382907
20
-25.887139409967
30
0
41
1
10
11.1965264021198
20
-25.8364646155964
30
0
41
1
10
11.166095778189
20
-25.7359873367658
30
0
41
1
10
11.1482339685558
20
-25.6860476410799
30
0
41
1
10
11.0880512922791
20
-25.540776740764
30
0
41
1
10
11.0389472658679
20
-25.4489084737144
30
0
41
1
10
10.9229387923989
20
-25.2750389896748
30
0
41
1
10
10.8554150994294
20
-25.192711825276
30
0
41
1
10
10.7079146699412
20
-25.0451346973762
30
0
41
1
10
10.6274342347919
20
-24.9789073401989
30
0
41
1
10
10.4963802465369
20
-24.8911754945699
30
0
41
1
10
10.4509695392022
20
-24.8639310637409
30
0
41
1
10
10.3586735291322
20
-24.8145484585332
30
0
41
1
10
10.3115463745107
20
-24.792238788382
30
0
41
1
10
10.1672722927259
20
-24.7323456262755
30
0
41
1
10
10.0667024828366
20
-24.7016231086485
30
0
41
1
10
9.91164416683665
20
-24.6706582639662
30
0
41
1
10
9.85963904148986
20
-24.6629222559578
30
0
41
1
10
9.75499546291755
20
-24.6525832584709
30
0
41
1
10
9.70207234642885
20
-24.6500000000002
30
0
41
1
10
9.64999999999975
20
-24.6500000000002
30
0
0
SPLINE
5
1D9
100
AcDbEntity
8
1
62
256
6
ByLayer
370
18
48
1
60
0
100
AcDbSpline
70
4
71
3
72
26
73
22
40
0
40
0
40
0
40
0
40
0.124999999999997
40
0.124999999999997
40
0.187499999999995
40
0.187499999999995
40
0.249999999999993
40
0.249999999999993
40
0.374999999999991
40
0.374999999999991
40
0.499999999999989
40
0.499999999999989
40
0.624999999999987
40
0.624999999999987
40
0.687499999999988
40
0.687499999999988
40
0.749999999999989
40
0.749999999999989
40
0.874999999999994
40
0.874999999999994
40
1
40
1
40
1
40
1
41
1
10
2.16999999999979
20
-20.2499996253656
30
0
41
1
10
2.27567277372515
20
-20.2499996253656
30
0
41
1
10
2.3795802322181
20
-20.260365569292
30
0
41
1
10
2.53290175130897
20
-20.2908274380176
30
0
41
1
10
2.58358250054306
20
-20.3034853579026
30
0
41
1
10
2.68407171762456
20
-20.33392324034
30
0
41
1
10
2.7340143547614
20
-20.3517884153201
30
0
41
1
10
2.87928926375807
20
-20.4119796639536
30
0
41
1
10
2.97115953193847
20
-20.461089959911
30
0
41
1
10
3.14503162030985
20
-20.5771121818964
30
0
41
1
10
3.2273511960388
20
-20.6446374158063
30
0
41
1
10
3.37491068937248
20
-20.7921324022702
30
0
41
1
10
3.44113068900938
20
-20.8726092470471
30
0
41
1
10
3.52885316612608
20
-21.003657015826
30
0
41
1
10
3.5560899092014
20
-21.0490576291155
30
0
41
1
10
3.60546096755664
20
-21.1413346304464
30
0
41
1
10
3.62776608441948
20
-21.1884523437169
30
0
41
1
10
3.68764867366147
20
-21.332698498539
30
0
41
1
10
3.71837418111599
20
-21.4332835266742
30
0
41
1
10
3.75964479091849
20
-21.6399060782962
30
0
41
1
10
3.77000000000231
20
-21.7443611349003
30
0
41
1
10
3.77000000000231
20
-21.8499683295262
30
0
0
SPLINE
5
1DA
100
AcDbEntity
8
1
62
256
6
ByLayer
370
18
48
1
60
0
100
AcDbSpline
70
4
71
3
72
22
73
18
40
0
40
0
40
0
40
0
40
0.124999999999997
40
0.124999999999997
40
0.187499999999997
40
0.187499999999997
40
0.249999999999997
40
0.249999999999997
40
0.374999999999999
40
0.374999999999999
40
0.500000000000001
40
0.500000000000001
40
0.750000000000002
40
0.750000000000002
40
0.875000000000001
40
0.875000000000001
40
1
40
1
40
1
40
1
41
1
10
11.9952001538795
20
-39.1985552505997
30
0
41
1
10
11.898657695573
20
-39.2451587634205
30
0
41
1
10
11.8246965820999
20
-39.2999683046967
30
0
41
1
10
11.7378774962693
20
-39.3957082451977
30
0
41
1
10
11.7129762516196
20
-39.4299928020724
30
0
41
1
10
11.6706821148686
20
-39.5028063659757
30
0
41
1
10
11.653447401671
20
-39.5409909718765
30
0
41
1
10
11.6113710869868
20
-39.6608672128578
30
0
41
1
10
11.5960734637657
20
-39.747874115692
30
0
41
1
10
11.583350160846
20
-39.9361871218476
30
0
41
1
10
11.5860906500524
20
-40.0380051418984
30
0
41
1
10
11.6120998074331
20
-40.357895409511
30
0
41
1
10
11.6526877460011
20
-40.5919911502612
30
0
41
1
10
11.7176797008651
20
-40.9753726426746
30
0
41
1
10
11.7401287765494
20
-41.108824054656
30
0
41
1
10
11.7809288319146
20
-41.3861962096269
30
0
41
1
10
11.7991724647922
20
-41.5294948356417
30
0
41
1
10
11.812393048821
20
-41.6777018864085
30
0
0
SPLINE
5
1DB
100
AcDbEntity
8
1
62
256
6
ByLayer
370
18
48
1
60
0
100
AcDbSpline
70
4
71
3
72
22
73
18
40
0
40
0
40
0
40
0
40
0.250000000000003
40
0.250000000000003
40
0.500000000000006
40
0.500000000000006
40
0.625000000000007
40
0.625000000000007
40
0.687500000000006
40
0.687500000000006
40
0.750000000000006
40
0.750000000000006
40
0.875000000000002
40
0.875000000000002
40
0.937500000000001
40
0.937500000000001
40
1
40
1
40
1
40
1
41
1
10
14.0401715963025
20
-41.6777018864086
30
0
41
1
10
14.1132578783219
20
-41.3850948917822
30
0
41
1
10
14.2031983326777
20
-41.1161121706564
30
0
41
1
10
14.3760738204947
20
-40.6150394923892
30
0
41
1
10
14.4597513089135
20
-40.3830775192496
30
0
41
1
10
14.5515872393372
20
-40.0611306925941
30
0
41
1
10
14.5760490096881
20
-39.9597249662772
30
0
41
1
10
14.5988009833066
20
-39.8166907047997
30
0
41
1
10
14.6040532730634
20
-39.7705104129579
30
0
41
1
10
14.608840057081
20
-39.6811590006112
30
0
41
1
10
14.6083541875273
20
-39.6378203453615
30
0
41
1
10
14.5964297470247
20
-39.5139023240891
30
0
41
1
10
14.5748938538531
20
-39.4393531411832
30
0
41
1
10
14.5133708045492
20
-39.3392876917007
30
0
41
1
10
14.4877309782398
20
-39.3077221569931
30
0
41
1
10
14.4252858550074
20
-39.2495394630162
30
0
41
1
10
14.3885752939207
20
-39.2228955268185
30
0
41
1
10
14.3453388673923
20
-39.1985552505998
30
0
0
SPLINE
5
1DC
100
AcDbEntity
8
1
62
256
6
ByLayer
370
18
48
1
60
0
100
AcDbSpline
70
4
71
3
72
10
73
6
40
0
40
0
40
0
40
0
40
0.5
40
0.5
40
1
40
1
40
1
40
1
41
1
10
12.7982616359119
20
-46.5050395804414
30
0
41
1
10
12.9007183972377
20
-46.5333628794683
30
0
41
1
10
13.0041556837239
20
-46.5587580079353
30
0
41
1
10
13.2119105558202
20
-46.6069194022123
30
0
41
1
10
13.3162581128893
20
-46.6295961633899
30
0
41
1
10
13.4208747878788
20
-46.6514692499621
30
0
0
SPLINE
5
1DD
100
AcDbEntity
8
1
62
256
6
ByLayer
370
18
48
1
60
0
100
AcDbSpline
70
4
71
3
72
10
73
6
40
0
40
0
40
0
40
0
40
0.5
40
0.5
40
1
40
1
40
1
40
1
41
1
10
13.4208747878788
20
-46.6514692499621
30
0
41
1
10
13.4503850127163
20
-46.6576392004284
30
0
41
1
10
13.4752781325256
20
-46.6733227627808
30
0
41
1
10
13.5139445941621
20
-46.7123014398029
30
0
41
1
10
13.5274704961213
20
-46.7350266161394
30
0
41
1
10
13.5357814543494
20
-46.7593914652919
30
0
0
SPLINE
5
1DE
100
AcDbEntity
8
1
62
256
6
ByLayer
370
18
48
1
60
0
100
AcDbSpline
70
4
71
3
72
8
73
4
40
0
40
0
40
0
40
0
40
1
40
1
40
1
40
1
41
1
10
13.5357814543466
20
-46.7593914652926
30
0
41
1
10
13.5512502519437
20
-46.8047406187443
30
0
41
1
10
13.5674330623661
20
-46.8499044623434
30
0
41
1
10
13.5840461068819
20
-46.8949566460203
30
0
0
SPLINE
5
1DF
100
AcDbEntity
8
1
62
256
6
ByLayer
370
18
48
1
60
0
100
AcDbSpline
70
4
71
3
72
10
73
6
40
0
40
0
40
0
40
0
40
0.5
40
0.5
40
1
40
1
40
1
40
1
41
1
10
13.5840461068819
20
-46.8949566460203
30
0
41
1
10
13.593682348591
20
-46.9210887454688
30
0
41
1
10
13.6112815911893
20
-46.9449897282021
30
0
41
1
10
13.6603050458051
20
-46.9798716818811
30
0
41
1
10
13.6922319406864
20
-46.9905882925128
30
0
41
1
10
13.7249999999987
20
-46.9905882925129
30
0
0
SPLINE
5
1E0
100
AcDbEntity
8
1
62
256
6
ByLayer
370
18
48
1
60
0
100
AcDbSpline
70
4
71
3
72
10
73
6
40
0
40
0
40
0
40
0
40
0.5
40
0.5
40
1
40
1
40
1
40
1
41
1
10
14.2749999999995
20
-46.9905882925049
30
0
41
1
10
14.3076928409574
20
-46.9905882925049
30
0
41
1
10
14.3392929936162
20
-46.9801232760234
30
0
41
1
10
14.3888988387741
20
-46.9448956076666
30
0
41
1
10
14.4063279015143
20
-46.9210609486577
30
0
41
1
10
14.4159538931174
20
-46.8949566460197
30
0
0
SPLINE
5
1E1
100
AcDbEntity
8
1
62
256
6
ByLayer
370
18
48
1
60
0
100
AcDbSpline
70
4
71
3
72
8
73
4
40
0
40
0
40
0
40
0
40
1
40
1
40
1
40
1
41
1
10
14.4159538931174
20
-46.8949566460197
30
0
41
1
10
14.4325727629132
20
-46.8498886650225
30
0
41
1
10
14.448756144833
20
-46.8047218656095
30
0
41
1
10
14.4642185456524
20
-46.7593914652926
30
0
0
SPLINE
5
1E2
100
AcDbEntity
8
1
62
256
6
ByLayer
370
18
48
1
60
0
100
AcDbSpline
70
4
71
3
72
10
73
6
40
0
40
0
40
0
40
0
40
0.5
40
0.5
40
1
40
1
40
1
40
1
41
1
10
14.4642185456524
20
-46.7593914652926
30
0
41
1
10
14.472539381873
20
-46.7349976572899
30
0
41
1
10
14.4861569991741
20
-46.7122004682845
30
0
41
1
10
14.5246114936502
20
-46.6734325860133
30
0
41
1
10
14.5495324620608
20
-46.6576564546694
30
0
41
1
10
14.5791252121203
20
-46.6514692499621
30
0
0
SPLINE
5
1E3
100
AcDbEntity
8
1
62
256
6
ByLayer
370
18
48
1
60
0
100
AcDbSpline
70
4
71
3
72
10
73
6
40
0
40
0
40
0
40
0
40
0.5
40
0.5
40
1
40
1
40
1
40
1
41
1
10
14.5791252121203
20
-46.6514692499621
30
0
41
1
10
14.6837720320046
20
-46.6295898607437
30
0
41
1
10
14.7882322843409
20
-46.6068879658321
30
0
41
1
10
14.996036001952
20
-46.5587118923844
30
0
41
1
10
15.0994391096104
20
-46.5333193380413
30
0
41
1
10
15.201738364079
20
-46.5050395804437
30
0
0
SPLINE
5
1E4
100
AcDbEntity
8
SK1
62
256
6
ByLayer
370
18
48
1
60
0
100
AcDbSpline
70
4
71
3
72
8
73
4
40
0
40
0
40
0
40
0
40
1
40
1
40
1
40
1
41
1
10
0.499999999999801
20
-19.96672254916
30
0
41
1
10
0.261026764335298
20
-19.7278945839621
30
0
41
1
10
0.0220535304972032
20
-19.4890666169388
30
0
41
1
10
-0.216919701447381
20
-19.2502386480231
30
0
0
LINE
5
74
100
AcDbEntity
8
1
62
256
6
ByLayer
370
18
48
1
60
0
100
AcDbLine
10
11.167091
20
-35.532489
30
0
11
11.250003
21
-35.684728
31
0
39
0
210
0
220
0
230
1
0
LINE
5
76
100
AcDbEntity
8
1
62
256
6
ByLayer
370
18
48
1
60
0
100
AcDbLine
10
16.921078
20
-32.856927
30
0
11
16.749921
21
-32.856927
31
0
39
0
210
0
220
0
230
1
0
LINE
5
77
100
AcDbEntity
8
1
62
256
6
ByLayer
370
18
48
1
60
0
100
AcDbLine
10
11.250079
20
-32.856927
30
0
11
11.078922
21
-32.856927
31
0
39
0
210
0
220
0
230
1
0
LINE
5
78
100
AcDbEntity
8
1
62
256
6
ByLayer
370
18
48
1
60
0
100
AcDbLine
10
11.167091
20
-35.532489
30
0
11
11.078922
21
-32.856927
31
0
39
0
210
0
220
0
230
1
0
LINE
5
79
100
AcDbEntity
8
1
62
256
6
ByLayer
370
18
48
1
60
0
100
AcDbLine
10
16.832909
20
-35.532489
30
0
11
16.749997
21
-35.684728
31
0
39
0
210
0
220
0
230
1
0
LINE
5
7A
100
AcDbEntity
8
1
62
256
6
ByLayer
370
18
48
1
60
0
100
AcDbLine
10
16.832909
20
-35.532489
30
0
11
16.921078
21
-32.856927
31
0
39
0
210
0
220
0
230
1
0
LINE
5
7B
100
AcDbEntity
8
1
62
256
6
ByLayer
370
18
48
1
60
0
100
AcDbLine
10
11.641251
20
-47.611484
30
0
11
11.4
21
-47.611484
31
0
39
0
210
0
220
0
230
1
0
LINE
5
7C
100
AcDbEntity
8
1
62
256
6
ByLayer
370
18
48
1
60
0
100
AcDbLine
10
11.4
20
-49.039855
30
0
11
11.4
21
-47.611484
31
0
39
0
210
0
220
0
230
1
0
LINE
5
7D
100
AcDbEntity
8
1
62
256
6
ByLayer
370
18
48
1
60
0
100
AcDbLine
10
11.167091
20
-49.467511
30
0
11
11.4
21
-49.039855
31
0
39
0
210
0
220
0
230
1
0
LINE
5
7E
100
AcDbEntity
8
1
62
256
6
ByLayer
370
18
48
1
60
0
100
AcDbLine
10
11.167091
20
-49.467511
30
0
11
11.078922
21
-52.143073
31
0
39
0
210
0
220
0
230
1
0
LINE
5
7F
100
AcDbEntity
8
1
62
256
6
ByLayer
370
18
48
1
60
0
100
AcDbLine
10
16.921078
20
-52.143073
30
0
11
11.078922
21
-52.143073
31
0
39
0
210
0
220
0
230
1
0
LINE
5
80
100
AcDbEntity
8
1
62
256
6
ByLayer
370
18
48
1
60
0
100
AcDbLine
10
16.832909
20
-49.467511
30
0
11
16.921078
21
-52.143073
31
0
39
0
210
0
220
0
230
1
0
LINE
5
81
100
AcDbEntity
8
1
62
256
6
ByLayer
370
18
48
1
60
0
100
AcDbLine
10
16.832909
20
-49.467511
30
0
11
16.6
21
-49.039855
31
0
39
0
210
0
220
0
230
1
0
LINE
5
82
100
AcDbEntity
8
1
62
256
6
ByLayer
370
18
48
1
60
0
100
AcDbLine
10
16.6
20
-49.039855
30
0
11
16.6
21
-47.611484
31
0
39
0
210
0
220
0
230
1
0
LINE
5
83
100
AcDbEntity
8
1
62
256
6
ByLayer
370
18
48
1
60
0
100
AcDbLine
10
16.358749
20
-47.611484
30
0
11
16.6
21
-47.611484
31
0
39
0
210
0
220
0
230
1
0
LINE
5
84
100
AcDbEntity
8
1
62
256
6
ByLayer
370
18
48
1
60
0
100
AcDbLine
10
14.649934
20
-48.90992
30
0
11
16.341382
21
-47.618066
31
0
39
0
210
0
220
0
230
1
0
LINE
5
85
100
AcDbEntity
8
1
62
256
6
ByLayer
370
18
48
1
60
0
100
AcDbLine
10
14.513888
20
-49.306526
30
0
11
14.605665
21
-48.995391
31
0
39
0
210
0
220
0
230
1
0
LINE
5
86
100
AcDbEntity
8
1
62
256
6
ByLayer
370
18
48
1
60
0
100
AcDbLine
10
13.98
20
-50.988604
30
0
11
14.02
21
-50.988604
31
0
39
0
210
0
220
0
230
1
0
LINE
5
87
100
AcDbEntity
8
1
62
256
6
ByLayer
370
18
48
1
60
0
100
AcDbLine
10
13.486112
20
-49.306526
30
0
11
13.394335
21
-48.995391
31
0
39
0
210
0
220
0
230
1
0
LINE
5
88
100
AcDbEntity
8
1
62
256
6
ByLayer
370
18
48
1
60
0
100
AcDbLine
10
13.350066
20
-48.90992
30
0
11
11.658618
21
-47.618066
31
0
39
0
210
0
220
0
230
1
0
LINE
5
89
100
AcDbEntity
8
1
62
256
6
ByLayer
370
18
48
1
60
0
100
AcDbLine
10
11.641251
20
-47.611484
30
0
11
11.641251
21
-46.18506
31
0
39
0
210
0
220
0
230
1
0
LINE
5
8A
100
AcDbEntity
8
1
62
256
6
ByLayer
370
18
48
1
60
0
100
AcDbLine
10
11.658616
20
-47.618068
30
0
11
11.658616
21
-46.189967
31
0
39
0
210
0
220
0
230
1
0
LINE
5
8B
100
AcDbEntity
8
1
62
256
6
ByLayer
370
18
48
1
60
0
100
AcDbLine
10
16.341384
20
-47.618068
30
0
11
16.341384
21
-46.189967
31
0
39
0
210
0
220
0
230
1
0
LINE
5
8C
100
AcDbEntity
8
1
62
256
6
ByLayer
370
18
48
1
60
0
100
AcDbLine
10
16.358749
20
-47.611484
30
0
11
16.358749
21
-46.18506
31
0
39
0
210
0
220
0
230
1
0
LINE
5
8D
100
AcDbEntity
8
1
62
256
6
ByLayer
370
18
48
1
60
0
100
AcDbLine
10
11.4
20
-47.611484
30
0
11
11.4
21
-46.118451
31
0
39
0
210
0
220
0
230
1
0
LINE
5
8E
100
AcDbEntity
8
1
62
256
6
ByLayer
370
18
48
1
60
0
100
AcDbLine
10
16.6
20
-47.611484
30
0
11
16.6
21
-46.118451
31
0
39
0
210
0
220
0
230
1
0
LINE
5
8F
100
AcDbEntity
8
1
62
256
6
ByLayer
370
18
48
1
60
0
100
AcDbLine
10
14.649934
20
-48.90992
30
0
11
14.649934
21
-46.636201
31
0
39
0
210
0
220
0
230
1
0
LINE
5
90
100
AcDbEntity
8
1
62
256
6
ByLayer
370
18
48
1
60
0
100
AcDbLine
10
13.350066
20
-48.90992
30
0
11
13.350066
21
-46.634799
31
0
39
0
210
0
220
0
230
1
0
LINE
5
91
100
AcDbEntity
8
1
62
256
6
ByLayer
370
18
48
1
60
0
100
AcDbLine
10
14.605665
20
-48.995391
30
0
11
14.605665
21
-46.645683
31
0
39
0
210
0
220
0
230
1
0
LINE
5
92
100
AcDbEntity
8
1
62
256
6
ByLayer
370
18
48
1
60
0
100
AcDbLine
10
13.394335
20
-48.995391
30
0
11
13.394335
21
-46.645074
31
0
39
0
210
0
220
0
230
1
0
LINE
5
93
100
AcDbEntity
8
1
62
256
6
ByLayer
370
18
48
1
60
0
100
AcDbLine
10
13.486112
20
-46.686333
30
0
11
13.486112
21
-49.306526
31
0
39
0
210
0
220
0
230
1
0
LINE
5
94
100
AcDbEntity
8
1
62
256
6
ByLayer
370
18
48
1
60
0
100
AcDbLine
10
14.513888
20
-46.687396
30
0
11
14.513888
21
-49.306526
31
0
39
0
210
0
220
0
230
1
0
LINE
5
95
100
AcDbEntity
8
1
62
256
6
ByLayer
370
18
48
1
60
0
100
AcDbLine
10
14.483085
20
-49.482367
30
0
11
14.483085
21
-46.726077
31
0
39
0
210
0
220
0
230
1
0
LINE
5
96
100
AcDbEntity
8
1
62
256
6
ByLayer
370
18
48
1
60
0
100
AcDbLine
10
13.516915
20
-49.482367
30
0
11
13.516915
21
-46.725423
31
0
39
0
210
0
220
0
230
1
0
LINE
5
97
100
AcDbEntity
8
1
62
256
6
ByLayer
370
18
48
1
60
0
100
AcDbLine
10
14.427733
20
-50.170287
30
0
11
14.427733
21
-46.861757
31
0
39
0
210
0
220
0
230
1
0
LINE
5
98
100
AcDbEntity
8
1
62
256
6
ByLayer
370
18
48
1
60
0
100
AcDbLine
10
13.572267
20
-50.170287
30
0
11
13.572267
21
-46.861757
31
0
39
0
210
0
220
0
230
1
0
LINE
5
99
100
AcDbEntity
8
1
62
256
6
ByLayer
370
18
48
1
60
0
100
AcDbLine
10
14.210736
20
-46.99051
30
0
11
14.210736
21
-50.94999
31
0
39
0
210
0
220
0
230
1
0
LINE
5
9A
100
AcDbEntity
8
1
62
256
6
ByLayer
370
18
48
1
60
0
100
AcDbLine
10
13.789264
20
-46.99051
30
0
11
13.789264
21
-50.94999
31
0
39
0
210
0
220
0
230
1
0
LINE
5
9B
100
AcDbEntity
8
1
62
256
6
ByLayer
370
18
48
1
60
0
100
AcDbLine
10
13.98
20
-46.990472
30
0
11
13.98
21
-50.988604
31
0
39
0
210
0
220
0
230
1
0
LINE
5
9C
100
AcDbEntity
8
1
62
256
6
ByLayer
370
18
48
1
60
0
100
AcDbLine
10
14.02
20
-46.990472
30
0
11
14.02
21
-50.988604
31
0
39
0
210
0
220
0
230
1
0
LINE
5
9D
100
AcDbEntity
8
1
62
256
6
ByLayer
370
18
48
1
60
0
100
AcDbLine
10
11.100747
20
-32.431318
30
0
11
11.250059
21
-32.431318
31
0
39
0
210
0
220
0
230
1
0
LINE
5
9E
100
AcDbEntity
8
1
62
256
6
ByLayer
370
18
48
1
60
0
100
AcDbLine
10
16.749941
20
-32.431318
30
0
11
16.899253
21
-32.431318
31
0
39
0
210
0
220
0
230
1
0
LINE
5
9F
100
AcDbEntity
8
1
62
256
6
ByLayer
370
18
48
1
60
0
100
AcDbLine
10
11.100747
20
-32.431318
30
0
11
11.078922
21
-32.856927
31
0
39
0
210
0
220
0
230
1
0
LINE
5
A0
100
AcDbEntity
8
1
62
256
6
ByLayer
370
18
48
1
60
0
100
AcDbLine
10
16.899253
20
-32.431318
30
0
11
16.921078
21
-32.856927
31
0
39
0
210
0
220
0
230
1
0
LINE
5
A1
100
AcDbEntity
8
1
62
256
6
ByLayer
370
18
48
1
60
0
100
AcDbLine
10
11.100747
20
-52.568682
30
0
11
16.899253
21
-52.568682
31
0
39
0
210
0
220
0
230
1
0
LINE
5
A2
100
AcDbEntity
8
1
62
256
6
ByLayer
370
18
48
1
60
0
100
AcDbLine
10
16.899253
20
-52.568682
30
0
11
16.921078
21
-52.143073
31
0
39
0
210
0
220
0
230
1
0
LINE
5
A3
100
AcDbEntity
8
1
62
256
6
ByLayer
370
18
48
1
60
0
100
AcDbLine
10
11.100747
20
-52.568682
30
0
11
11.078922
21
-52.143073
31
0
39
0
210
0
220
0
230
1
0
LINE
5
A4
100
AcDbEntity
8
1
62
256
6
ByLayer
370
18
48
1
60
0
100
AcDbLine
10
10.983803
20
-30.423256
30
0
11
11.100747
21
-32.431318
31
0
39
0
210
0
220
0
230
1
0
LINE
5
A5
100
AcDbEntity
8
1
62
256
6
ByLayer
370
18
48
1
60
0
100
AcDbLine
10
17.016197
20
-30.423256
30
0
11
16.899253
21
-32.431318
31
0
39
0
210
0
220
0
230
1
0
LINE
5
A6
100
AcDbEntity
8
1
62
256
6
ByLayer
370
18
48
1
60
0
100
AcDbLine
10
11.383126
20
-55
30
0
11
16.616874
21
-55
31
0
39
0
210
0
220
0
230
1
0
LINE
5
A7
100
AcDbEntity
8
1
62
256
6
ByLayer
370
18
48
1
60
0
100
AcDbLine
10
17.016197
20
-54.576744
30
0
11
16.899253
21
-52.568682
31
0
39
0
210
0
220
0
230
1
0
LINE
5
A8
100
AcDbEntity
8
1
62
256
6
ByLayer
370
18
48
1
60
0
100
AcDbLine
10
10.983803
20
-54.576744
30
0
11
11.100747
21
-52.568682
31
0
39
0
210
0
220
0
230
1
0
LINE
5
A9
100
AcDbEntity
8
1
62
256
6
ByLayer
370
18
48
1
60
0
100
AcDbLine
10
14.640246
20
-34.195907
30
0
11
14.640246
21
-34.715412
31
0
39
0
210
0
220
0
230
1
0
LINE
5
AA
100
AcDbEntity
8
1
62
256
6
ByLayer
370
18
48
1
60
0
100
AcDbLine
10
13.815085
20
-34.044425
30
0
11
13.815085
21
-34.838829
31
0
39
0
210
0
220
0
230
1
0
LINE
5
AB
100
AcDbEntity
8
SK1
62
256
6
ByLayer
370
18
48
1
60
0
100
AcDbLine
10
-6.824981
20
-5.9325
30
0
11
-7.824981
21
-5.664551
31
0
39
0
210
0
220
0
230
1
0
LINE
5
AD
100
AcDbEntity
8
SK1
62
256
6
ByLayer
370
18
48
1
60
0
100
AcDbLine
10
-6.824981
20
5.9325
30
0
11
-6.824981
21
-5.9325
31
0
39
0
210
0
220
0
230
1
0
LINE
5
AE
100
AcDbEntity
8
SK1
62
256
6
ByLayer
370
18
48
1
60
0
100
AcDbLine
10
-7.824981
20
5.664551
30
0
11
-6.824981
21
5.9325
31
0
39
0
210
0
220
0
230
1
0
LINE
5
AF
100
AcDbEntity
8
SK1
62
256
6
ByLayer
370
18
48
1
60
0
100
AcDbLine
10
-7.824981
20
5.664551
30
0
11
-7.824981
21
-5.664551
31
0
39
0
210
0
220
0
230
1
0
LINE
5
B0
100
AcDbEntity
8
SK1
62
256
6
ByLayer
370
18
48
1
60
0
100
AcDbLine
10
-6.824981
20
5.9325
30
0
11
-0.325106
21
5.9325
31
0
39
0
210
0
220
0
230
1
0
LINE
5
B1
100
AcDbEntity
8
SK1
62
256
6
ByLayer
370
18
48
1
60
0
100
AcDbLine
10
-0.325106
20
-5.9325
30
0
11
-6.824981
21
-5.9325
31
0
39
0
210
0
220
0
230
1
0
LINE
5
B2
100
AcDbEntity
8
SK1
62
256
6
ByLayer
370
18
48
1
60
0
100
AcDbLine
10
-0.04697
20
-10.152118
30
0
11
0.5
21
-10.61352
31
0
39
0
210
0
220
0
230
1
0
LINE
5
B3
100
AcDbEntity
8
1
62
256
6
ByLayer
370
18
48
1
60
0
100
AcDbLine
10
0.5
20
-5.552168
30
0
11
0.5
21
-10.61352
31
0
39
0
210
0
220
0
230
1
0
LINE
5
B4
100
AcDbEntity
8
SK1
62
256
6
ByLayer
370
18
48
1
60
0
100
AcDbLine
10
0.126149
20
-5.552168
30
0
11
0.5
21
-5.552168
31
0
39
0
210
0
220
0
230
1
0
LINE
5
B5
100
AcDbEntity
8
SK1
62
256
6
ByLayer
370
18
48
1
60
0
100
AcDbLine
10
-0.324981
20
-6.10077
30
0
11
-0.324981
21
-5.89923
31
0
39
0
210
0
220
0
230
1
0
LINE
5
B6
100
AcDbEntity
8
SK1
62
256
6
ByLayer
370
18
48
1
60
0
100
AcDbLine
10
-0.324981
20
-7.60077
30
0
11
-0.324981
21
-7.39923
31
0
39
0
210
0
220
0
230
1
0
LINE
5
B7
100
AcDbEntity
8
SK1
62
256
6
ByLayer
370
18
48
1
60
0
100
AcDbLine
10
-0.324981
20
-9.10077
30
0
11
-0.324981
21
-8.89923
31
0
39
0
210
0
220
0
230
1
0
LINE
5
B8
100
AcDbEntity
8
1
62
256
6
ByLayer
370
18
48
1
60
0
100
AcDbLine
10
1.5
20
-10.61352
30
0
11
0.5
21
-10.61352
31
0
39
0
210
0
220
0
230
1
0
LINE
5
B9
100
AcDbEntity
8
1
62
256
6
ByLayer
370
18
48
1
60
0
100
AcDbLine
10
1.5
20
-5.552168
30
0
11
0.5
21
-5.552168
31
0
39
0
210
0
220
0
230
1
0
LINE
5
BA
100
AcDbEntity
8
SK1
62
256
6
ByLayer
370
18
48
1
60
0
100
AcDbLine
10
0.126149
20
5.552168
30
0
11
0.5
21
5.552168
31
0
39
0
210
0
220
0
230
1
0
LINE
5
BB
100
AcDbEntity
8
1
62
256
6
ByLayer
370
18
48
1
60
0
100
AcDbLine
10
0.5
20
10.61352
30
0
11
0.5
21
5.552168
31
0
39
0
210
0
220
0
230
1
0
LINE
5
BC
100
AcDbEntity
8
SK1
62
256
6
ByLayer
370
18
48
1
60
0
100
AcDbLine
10
-0.04697
20
10.152118
30
0
11
0.5
21
10.61352
31
0
39
0
210
0
220
0
230
1
0
LINE
5
BD
100
AcDbEntity
8
SK1
62
256
6
ByLayer
370
18
48
1
60
0
100
AcDbLine
10
-0.324981
20
8.89923
30
0
11
-0.324981
21
9.10077
31
0
39
0
210
0
220
0
230
1
0
LINE
5
BE
100
AcDbEntity
8
SK1
62
256
6
ByLayer
370
18
48
1
60
0
100
AcDbLine
10
-0.324981
20
7.39923
30
0
11
-0.324981
21
7.60077
31
0
39
0
210
0
220
0
230
1
0
LINE
5
BF
100
AcDbEntity
8
SK1
62
256
6
ByLayer
370
18
48
1
60
0
100
AcDbLine
10
-0.324981
20
5.89923
30
0
11
-0.324981
21
6.10077
31
0
39
0
210
0
220
0
230
1
0
LINE
5
C0
100
AcDbEntity
8
1
62
256
6
ByLayer
370
18
48
1
60
0
100
AcDbLine
10
13.02495
20
5.552168
30
0
11
0.5
21
5.552168
31
0
39
0
210
0
220
0
230
1
0
LINE
5
C1
100
AcDbEntity
8
1
62
256
6
ByLayer
370
18
48
1
60
0
100
AcDbLine
10
13.621819
20
10.61352
30
0
11
0.5
21
10.61352
31
0
39
0
210
0
220
0
230
1
0
LINE
5
C2
100
AcDbEntity
8
SK1
62
256
6
ByLayer
370
18
48
1
60
0
100
AcDbLine
10
-0.249981
20
4.730673
30
0
11
0.342769
21
5.072898
31
0
39
0
210
0
220
0
230
1
0
LINE
5
C3
100
AcDbEntity
8
SK1
62
256
6
ByLayer
370
18
48
1
60
0
100
AcDbLine
10
-0.324981
20
4.39923
30
0
11
-0.324981
21
4.60077
31
0
39
0
210
0
220
0
230
1
0
LINE
5
C4
100
AcDbEntity
8
SK1
62
256
6
ByLayer
370
18
48
1
60
0
100
AcDbLine
10
0.342769
20
3.927102
30
0
11
-0.249981
21
4.269327
31
0
39
0
210
0
220
0
230
1
0
LINE
5
C5
100
AcDbEntity
8
SK1
62
256
6
ByLayer
370
18
48
1
60
0
100
AcDbLine
10
-0.249981
20
3.230673
30
0
11
0.342769
21
3.572898
31
0
39
0
210
0
220
0
230
1
0
LINE
5
C6
100
AcDbEntity
8
SK1
62
256
6
ByLayer
370
18
48
1
60
0
100
AcDbLine
10
-0.324981
20
2.89923
30
0
11
-0.324981
21
3.10077
31
0
39
0
210
0
220
0
230
1
0
LINE
5
C7
100
AcDbEntity
8
SK1
62
256
6
ByLayer
370
18
48
1
60
0
100
AcDbLine
10
0.342769
20
2.427102
30
0
11
-0.249981
21
2.769327
31
0
39
0
210
0
220
0
230
1
0
LINE
5
C8
100
AcDbEntity
8
SK1
62
256
6
ByLayer
370
18
48
1
60
0
100
AcDbLine
10
-0.249981
20
1.730673
30
0
11
0.342769
21
2.072898
31
0
39
0
210
0
220
0
230
1
0
LINE
5
C9
100
AcDbEntity
8
SK1
62
256
6
ByLayer
370
18
48
1
60
0
100
AcDbLine
10
-0.324981
20
1.39923
30
0
11
-0.324981
21
1.60077
31
0
39
0
210
0
220
0
230
1
0
LINE
5
CA
100
AcDbEntity
8
SK1
62
256
6
ByLayer
370
18
48
1
60
0
100
AcDbLine
10
0.342769
20
0.927102
30
0
11
-0.249981
21
1.269327
31
0
39
0
210
0
220
0
230
1
0
LINE
5
CB
100
AcDbEntity
8
SK1
62
256
6
ByLayer
370
18
48
1
60
0
100
AcDbLine
10
-0.249981
20
0.230673
30
0
11
0.342769
21
0.572898
31
0
39
0
210
0
220
0
230
1
0
LINE
5
CC
100
AcDbEntity
8
SK1
62
256
6
ByLayer
370
18
48
1
60
0
100
AcDbLine
10
-0.324981
20
-0.10077
30
0
11
-0.324981
21
0.10077
31
0
39
0
210
0
220
0
230
1
0
LINE
5
CD
100
AcDbEntity
8
SK1
62
256
6
ByLayer
370
18
48
1
60
0
100
AcDbLine
10
-0.249981
20
-0.230673
30
0
11
0.342769
21
-0.572898
31
0
39
0
210
0
220
0
230
1
0
LINE
5
CE
100
AcDbEntity
8
SK1
62
256
6
ByLayer
370
18
48
1
60
0
100
AcDbLine
10
0.342769
20
-0.927102
30
0
11
-0.249981
21
-1.269327
31
0
39
0
210
0
220
0
230
1
0
LINE
5
CF
100
AcDbEntity
8
SK1
62
256
6
ByLayer
370
18
48
1
60
0
100
AcDbLine
10
-0.324981
20
-1.60077
30
0
11
-0.324981
21
-1.39923
31
0
39
0
210
0
220
0
230
1
0
LINE
5
D0
100
AcDbEntity
8
SK1
62
256
6
ByLayer
370
18
48
1
60
0
100
AcDbLine
10
-0.249981
20
-1.730673
30
0
11
0.342769
21
-2.072898
31
0
39
0
210
0
220
0
230
1
0
LINE
5
D1
100
AcDbEntity
8
SK1
62
256
6
ByLayer
370
18
48
1
60
0
100
AcDbLine
10
0.342769
20
-2.427102
30
0
11
-0.249981
21
-2.769327
31
0
39
0
210
0
220
0
230
1
0
LINE
5
D2
100
AcDbEntity
8
SK1
62
256
6
ByLayer
370
18
48
1
60
0
100
AcDbLine
10
-0.324981
20
-3.10077
30
0
11
-0.324981
21
-2.89923
31
0
39
0
210
0
220
0
230
1
0
LINE
5
D3
100
AcDbEntity
8
SK1
62
256
6
ByLayer
370
18
48
1
60
0
100
AcDbLine
10
-0.249981
20
-3.230673
30
0
11
0.342769
21
-3.572898
31
0
39
0
210
0
220
0
230
1
0
LINE
5
D4
100
AcDbEntity
8
SK1
62
256
6
ByLayer
370
18
48
1
60
0
100
AcDbLine
10
0.342769
20
-3.927102
30
0
11
-0.249981
21
-4.269327
31
0
39
0
210
0
220
0
230
1
0
LINE
5
D5
100
AcDbEntity
8
SK1
62
256
6
ByLayer
370
18
48
1
60
0
100
AcDbLine
10
-0.324981
20
-4.60077
30
0
11
-0.324981
21
-4.39923
31
0
39
0
210
0
220
0
230
1
0
LINE
5
D6
100
AcDbEntity
8
SK1
62
256
6
ByLayer
370
18
48
1
60
0
100
AcDbLine
10
-0.249981
20
-4.730673
30
0
11
0.342769
21
-5.072898
31
0
39
0
210
0
220
0
230
1
0
LINE
5
D7
100
AcDbEntity
8
SK1
62
256
6
ByLayer
370
18
48
1
60
0
100
AcDbLine
10
0.342769
20
-5.427102
30
0
11
0.126149
21
-5.552168
31
0
39
0
210
0
220
0
230
1
0
LINE
5
D8
100
AcDbEntity
8
1
62
256
6
ByLayer
370
18
48
1
60
0
100
AcDbLine
10
0.5
20
5.552168
30
0
11
0.5
21
-5.552168
31
0
39
0
210
0
220
0
230
1
0
LINE
5
D9
100
AcDbEntity
8
SK1
62
256
6
ByLayer
370
18
48
1
60
0
100
AcDbLine
10
0.342769
20
5.427102
30
0
11
0.126149
21
5.552168
31
0
39
0
210
0
220
0
230
1
0
LINE
5
DA
100
AcDbEntity
8
1
62
256
6
ByLayer
370
18
48
1
60
0
100
AcDbLine
10
13.564405
20
-10.977085
30
0
11
2.955337
21
-10.977085
31
0
39
0
210
0
220
0
230
1
0
LINE
5
DB
100
AcDbEntity
8
1
62
256
6
ByLayer
370
18
48
1
60
0
100
AcDbLine
10
13.02495
20
-8
30
0
11
1.5
21
-8
31
0
39
0
210
0
220
0
230
1
0
LINE
5
DC
100
AcDbEntity
8
1
62
256
6
ByLayer
370
18
48
1
60
0
100
AcDbLine
10
2.17
20
-9.86505
30
0
11
1.5
21
-9.86505
31
0
39
0
210
0
220
0
230
1
0
LINE
5
DD
100
AcDbEntity
8
1
62
256
6
ByLayer
370
18
48
1
60
0
100
AcDbLine
10
1.5
20
-8
30
0
11
1.5
21
-9.86505
31
0
39
0
210
0
220
0
230
1
0
LINE
5
DE
100
AcDbEntity
8
1
62
256
6
ByLayer
370
18
48
1
60
0
100
AcDbLine
10
16.75
20
12.25
30
0
11
16.75
21
-3.885159
31
0
39
0
210
0
220
0
230
1
0
LINE
5
DF
100
AcDbEntity
8
1
62
256
6
ByLayer
370
18
48
1
60
0
100
AcDbLine
10
15.602851
20
13.397149
30
0
11
16.75
21
12.25
31
0
39
0
210
0
220
0
230
1
0
LINE
5
E0
100
AcDbEntity
8
1
62
256
6
ByLayer
370
18
48
1
60
0
100
AcDbLine
10
14.812329
20
14.187671
30
0
11
14.997058
21
14.002942
31
0
39
0
210
0
220
0
230
1
0
LINE
5
E1
100
AcDbEntity
8
1
62
256
6
ByLayer
370
18
48
1
60
0
100
AcDbLine
10
13.02495
20
5.552168
30
0
11
13.02495
21
-8
31
0
39
0
210
0
220
0
230
1
0
LINE
5
E2
100
AcDbEntity
8
1
62
256
6
ByLayer
370
18
48
1
60
0
100
AcDbLine
10
1.5
20
-8
30
0
11
1.5
21
-5.552168
31
0
39
0
210
0
220
0
230
1
0
LINE
5
E3
100
AcDbEntity
8
1
62
256
6
ByLayer
370
18
48
1
60
0
100
AcDbLine
10
2.17
20
-17.009172
30
0
11
2.17
21
-9.86505
31
0
39
0
210
0
220
0
230
1
0
LINE
5
E4
100
AcDbEntity
8
1
62
256
6
ByLayer
370
18
48
1
60
0
100
AcDbLine
10
2.17
20
-17.009172
30
0
11
1.5
21
-17.009172
31
0
39
0
210
0
220
0
230
1
0
LINE
5
E5
100
AcDbEntity
8
1
62
256
6
ByLayer
370
18
48
1
60
0
100
AcDbLine
10
1.5
20
-9.86505
30
0
11
1.5
21
-17.009172
31
0
39
0
210
0
220
0
230
1
0
LINE
5
E6
100
AcDbEntity
8
1
62
256
6
ByLayer
370
18
48
1
60
0
100
AcDbLine
10
14.995907
20
-15.231054
30
0
11
2.97307
21
-15.231054
31
0
39
0
210
0
220
0
230
1
0
LINE
5
E7
100
AcDbEntity
8
1
62
256
6
ByLayer
370
18
48
1
60
0
100
AcDbLine
10
0.5
20
-10.61352
30
0
11
0.5
21
-16.803804
31
0
39
0
210
0
220
0
230
1
0
LINE
5
E8
100
AcDbEntity
8
SK1
62
256
6
ByLayer
370
18
48
1
60
0
100
AcDbLine
10
-0.324981
20
-10.60077
30
0
11
-0.324981
21
-10.39923
31
0
39
0
210
0
220
0
230
1
0
LINE
5
E9
100
AcDbEntity
8
SK1
62
256
6
ByLayer
370
18
48
1
60
0
100
AcDbLine
10
-0.324981
20
-12.10077
30
0
11
-0.324981
21
-11.89923
31
0
39
0
210
0
220
0
230
1
0
LINE
5
EA
100
AcDbEntity
8
SK1
62
256
6
ByLayer
370
18
48
1
60
0
100
AcDbLine
10
-0.324981
20
-13.60077
30
0
11
-0.324981
21
-13.39923
31
0
39
0
210
0
220
0
230
1
0
LINE
5
EB
100
AcDbEntity
8
SK1
62
256
6
ByLayer
370
18
48
1
60
0
100
AcDbLine
10
-0.324981
20
-15.10077
30
0
11
-0.324981
21
-14.89923
31
0
39
0
210
0
220
0
230
1
0
LINE
5
EC
100
AcDbEntity
8
1
62
256
6
ByLayer
370
18
48
1
60
0
100
AcDbLine
10
1.5
20
-16.803804
30
0
11
0.5
21
-16.803804
31
0
39
0
210
0
220
0
230
1
0
LINE
5
ED
100
AcDbEntity
8
1
62
256
6
ByLayer
370
18
48
1
60
0
100
AcDbLine
10
0.5
20
20
30
0
11
9
21
20
31
0
39
0
210
0
220
0
230
1
0
LINE
5
EE
100
AcDbEntity
8
1
62
256
6
ByLayer
370
18
48
1
60
0
100
AcDbLine
10
14.812329
20
14.187671
30
0
11
9
21
20
31
0
39
0
210
0
220
0
230
1
0
LINE
5
EF
100
AcDbEntity
8
1
62
256
6
ByLayer
370
18
48
1
60
0
100
AcDbLine
10
0.5
20
20
30
0
11
0.5
21
10.61352
31
0
39
0
210
0
220
0
230
1
0
LINE
5
F0
100
AcDbEntity
8
SK1
62
256
6
ByLayer
370
18
48
1
60
0
100
AcDbLine
10
-0.237406
20
19.262594
30
0
11
0.5
21
20
31
0
39
0
210
0
220
0
230
1
0
LINE
5
F1
100
AcDbEntity
8
SK1
62
256
6
ByLayer
370
18
48
1
60
0
100
AcDbLine
10
-0.324981
20
17.89923
30
0
11
-0.324981
21
18.10077
31
0
39
0
210
0
220
0
230
1
0
LINE
5
F2
100
AcDbEntity
8
SK1
62
256
6
ByLayer
370
18
48
1
60
0
100
AcDbLine
10
-0.324981
20
16.39923
30
0
11
-0.324981
21
16.60077
31
0
39
0
210
0
220
0
230
1
0
LINE
5
F3
100
AcDbEntity
8
SK1
62
256
6
ByLayer
370
18
48
1
60
0
100
AcDbLine
10
-0.324981
20
14.89923
30
0
11
-0.324981
21
15.10077
31
0
39
0
210
0
220
0
230
1
0
LINE
5
F4
100
AcDbEntity
8
SK1
62
256
6
ByLayer
370
18
48
1
60
0
100
AcDbLine
10
-0.324981
20
13.39923
30
0
11
-0.324981
21
13.60077
31
0
39
0
210
0
220
0
230
1
0
LINE
5
F5
100
AcDbEntity
8
SK1
62
256
6
ByLayer
370
18
48
1
60
0
100
AcDbLine
10
-0.324981
20
11.89923
30
0
11
-0.324981
21
12.10077
31
0
39
0
210
0
220
0
230
1
0
LINE
5
F6
100
AcDbEntity
8
SK1
62
256
6
ByLayer
370
18
48
1
60
0
100
AcDbLine
10
-0.324981
20
10.39923
30
0
11
-0.324981
21
10.60077
31
0
39
0
210
0
220
0
230
1
0
LINE
5
F7
100
AcDbEntity
8
1
62
256
6
ByLayer
370
18
48
1
60
0
100
AcDbLine
10
14.997047
20
14.002953
30
0
11
15.602851
21
13.397149
31
0
39
0
210
0
220
0
230
1
0
LINE
5
F8
100
AcDbEntity
8
1
62
256
6
ByLayer
370
18
48
1
60
0
100
AcDbLine
10
3.77
20
-19.094017
30
0
11
3.77
21
-17.907257
31
0
39
0
210
0
220
0
230
1
0
LINE
5
F9
100
AcDbEntity
8
1
62
256
6
ByLayer
370
18
48
1
60
0
100
AcDbLine
10
15.483472
20
-19.094017
30
0
11
3.77
21
-19.094017
31
0
39
0
210
0
220
0
230
1
0
LINE
5
FA
100
AcDbEntity
8
1
62
256
6
ByLayer
370
18
48
1
60
0
100
AcDbLine
10
15.515888
20
-33.344105
30
0
11
15.515888
21
-21.915378
31
0
39
0
210
0
220
0
230
1
0
LINE
5
FB
100
AcDbEntity
8
1
62
256
6
ByLayer
370
18
48
1
60
0
100
AcDbLine
10
3.77
20
-21.915378
30
0
11
15.515888
21
-21.915378
31
0
39
0
210
0
220
0
230
1
0
LINE
5
FC
100
AcDbEntity
8
1
62
256
6
ByLayer
370
18
48
1
60
0
100
AcDbLine
10
3.77
20
-22.199274
30
0
11
3.77
21
-21.915378
31
0
39
0
210
0
220
0
230
1
0
LINE
5
FD
100
AcDbEntity
8
1
62
256
6
ByLayer
370
18
48
1
60
0
100
AcDbLine
10
7.27
20
-24.65
30
0
11
3.77
21
-22.199274
31
0
39
0
210
0
220
0
230
1
0
LINE
5
FE
100
AcDbEntity
8
1
62
256
6
ByLayer
370
18
48
1
60
0
100
AcDbLine
10
10.87029
20
-24.65
30
0
11
7.27
21
-24.65
31
0
39
0
210
0
220
0
230
1
0
LINE
5
FF
100
AcDbEntity
8
1
62
256
6
ByLayer
370
18
48
1
60
0
100
AcDbLine
10
12.484112
20
-33.344105
30
0
11
12.484112
21
-26.25
31
0
39
0
210
0
220
0
230
1
0
LINE
5
100
100
AcDbEntity
8
1
62
256
6
ByLayer
370
18
48
1
60
0
100
AcDbLine
10
12.484112
20
-33.344105
30
0
11
15.515888
21
-33.344105
31
0
39
0
210
0
220
0
230
1
0
LINE
5
101
100
AcDbEntity
8
1
62
256
6
ByLayer
370
18
48
1
60
0
100
AcDbLine
10
12.484112
20
-26.25
30
0
11
11.25
21
-26.25
31
0
39
0
210
0
220
0
230
1
0
LINE
5
102
100
AcDbEntity
8
1
62
256
6
ByLayer
370
18
48
1
60
0
100
AcDbLine
10
11.25
20
-26.25
30
0
11
11.25
21
-39.578193
31
0
39
0
210
0
220
0
230
1
0
LINE
5
103
100
AcDbEntity
8
1
62
256
6
ByLayer
370
18
48
1
60
0
100
AcDbLine
10
16.642933
20
-7.693184
30
0
11
16.473274
21
-7.693184
31
0
39
0
210
0
220
0
230
1
0
LINE
5
104
100
AcDbEntity
8
1
62
256
6
ByLayer
370
18
48
1
60
0
100
AcDbLine
10
0.5
20
-16.803737
30
0
11
0.5
21
-17.462705
31
0
39
0
210
0
220
0
230
1
0
LINE
5
105
100
AcDbEntity
8
1
62
256
6
ByLayer
370
18
48
1
60
0
100
AcDbLine
10
0.5
20
-17.462705
30
0
11
1.5
21
-17.462705
31
0
39
0
210
0
220
0
230
1
0
LINE
5
106
100
AcDbEntity
8
1
62
256
6
ByLayer
370
18
48
1
60
0
100
AcDbLine
10
1.5
20
-17.671107
30
0
11
1.5
21
-17.462705
31
0
39
0
210
0
220
0
230
1
0
LINE
5
107
100
AcDbEntity
8
1
62
256
6
ByLayer
370
18
48
1
60
0
100
AcDbLine
10
1.5
20
-17.671107
30
0
11
2.17
21
-17.671107
31
0
39
0
210
0
220
0
230
1
0
LINE
5
108
100
AcDbEntity
8
1
62
256
6
ByLayer
370
18
48
1
60
0
100
AcDbLine
10
3.77
20
-19.094021
30
0
11
3.77
21
-21.915378
31
0
39
0
210
0
220
0
230
1
0
LINE
5
109
100
AcDbEntity
8
1
62
256
6
ByLayer
370
18
48
1
60
0
100
AcDbLine
10
16.75
20
-6.501242
30
0
11
16.75
21
-39.578193
31
0
39
0
210
0
220
0
230
1
0
LINE
5
10A
100
AcDbEntity
8
1
62
256
6
ByLayer
370
18
48
1
60
0
100
AcDbLine
10
16.340286
20
-37.400288
30
0
11
11.659714
21
-37.400288
31
0
39
0
210
0
220
0
230
1
0
LINE
5
10B
100
AcDbEntity
8
1
62
256
6
ByLayer
370
18
48
1
60
0
100
AcDbLine
10
2.17
20
-20.25
30
0
11
2.17
21
-17.671107
31
0
39
0
210
0
220
0
230
1
0
LINE
5
10C
100
AcDbEntity
8
1
62
256
6
ByLayer
370
18
48
1
60
0
100
AcDbLine
10
1.5
20
-17.671107
30
0
11
1.5
21
-20.25
31
0
39
0
210
0
220
0
230
1
0
LINE
5
10D
100
AcDbEntity
8
1
62
256
6
ByLayer
370
18
48
1
60
0
100
AcDbLine
10
2.17
20
-20.25
30
0
11
1.5
21
-20.25
31
0
39
0
210
0
220
0
230
1
0
LINE
5
10E
100
AcDbEntity
8
1
62
256
6
ByLayer
370
18
48
1
60
0
100
AcDbLine
10
0.5
20
-17.462705
30
0
11
0.5
21
-20
31
0
39
0
210
0
220
0
230
1
0
LINE
5
10F
100
AcDbEntity
8
1
62
256
6
ByLayer
370
18
48
1
60
0
100
AcDbLine
10
1.5
20
-20
30
0
11
0.5
21
-20
31
0
39
0
210
0
220
0
230
1
0
LINE
5
110
100
AcDbEntity
8
1
62
256
6
ByLayer
370
18
48
1
60
0
100
AcDbLine
10
11.9952
20
-39.198555
30
0
11
11.292045
21
-39.198555
31
0
39
0
210
0
220
0
230
1
0
LINE
5
111
100
AcDbEntity
8
1
62
256
6
ByLayer
370
18
48
1
60
0
100
AcDbLine
10
16.707955
20
-39.198555
30
0
11
14.345339
21
-39.198555
31
0
39
0
210
0
220
0
230
1
0
LINE
5
112
100
AcDbEntity
8
1
62
256
6
ByLayer
370
18
48
1
60
0
100
AcDbLine
10
16.75
20
-3.885159
30
0
11
16.75
21
-6.501242
31
0
39
0
210
0
220
0
230
1
0
LINE
5
113
100
AcDbEntity
8
1
62
256
6
ByLayer
370
18
48
1
60
0
100
AcDbLine
10
11.25
20
-41.677702
30
0
11
11.25
21
-39.578193
31
0
39
0
210
0
220
0
230
1
0
LINE
5
114
100
AcDbEntity
8
1
62
256
6
ByLayer
370
18
48
1
60
0
100
AcDbLine
10
11.812393
20
-41.677702
30
0
11
11.25
21
-41.677702
31
0
39
0
210
0
220
0
230
1
0
LINE
5
115
100
AcDbEntity
8
1
62
256
6
ByLayer
370
18
48
1
60
0
100
AcDbLine
10
16.75
20
-39.578193
30
0
11
16.75
21
-41.677702
31
0
39
0
210
0
220
0
230
1
0
LINE
5
116
100
AcDbEntity
8
1
62
256
6
ByLayer
370
18
48
1
60
0
100
AcDbLine
10
16.75
20
-41.677702
30
0
11
14.040172
21
-41.677702
31
0
39
0
210
0
220
0
230
1
0
LINE
5
117
100
AcDbEntity
8
1
62
256
6
ByLayer
370
18
48
1
60
0
100
AcDbLine
10
11.25
20
-46.077036
30
0
11
12.798262
21
-46.50504
31
0
39
0
210
0
220
0
230
1
0
LINE
5
118
100
AcDbEntity
8
1
62
256
6
ByLayer
370
18
48
1
60
0
100
AcDbLine
10
13.725
20
-46.990588
30
0
11
14.275
21
-46.990588
31
0
39
0
210
0
220
0
230
1
0
LINE
5
119
100
AcDbEntity
8
1
62
256
6
ByLayer
370
18
48
1
60
0
100
AcDbLine
10
15.201738
20
-46.50504
30
0
11
16.75
21
-46.077036
31
0
39
0
210
0
220
0
230
1
0
LINE
5
11A
100
AcDbEntity
8
1
62
256
6
ByLayer
370
18
48
1
60
0
100
AcDbLine
10
16.75
20
-41.677702
30
0
11
16.75
21
-46.077036
31
0
39
0
210
0
220
0
230
1
0
LINE
5
11B
100
AcDbEntity
8
1
62
256
6
ByLayer
370
18
48
1
60
0
100
AcDbLine
10
11.25
20
-46.077036
30
0
11
11.25
21
-41.677702
31
0
39
0
210
0
220
0
230
1
0
LINE
5
11C
100
AcDbEntity
8
SK1
62
256
6
ByLayer
370
18
48
1
60
0
100
AcDbLine
10
-0.249981
20
-16.269327
30
0
11
-0.224687
21
-16.254723
31
0
39
0
210
0
220
0
230
1
0
LINE
5
11D
100
AcDbEntity
8
SK1
62
256
6
ByLayer
370
18
48
1
60
0
100
AcDbLine
10
-0.324981
20
-16.39923
30
0
11
-0.324981
21
-16.60077
31
0
39
0
210
0
220
0
230
1
0
LINE
5
11E
100
AcDbEntity
8
SK1
62
256
6
ByLayer
370
18
48
1
60
0
100
AcDbLine
10
0.342769
20
-17.072898
30
0
11
-0.249981
21
-16.730673
31
0
39
0
210
0
220
0
230
1
0
LINE
5
11F
100
AcDbEntity
8
SK1
62
256
6
ByLayer
370
18
48
1
60
0
100
AcDbLine
10
-0.249981
20
-17.769327
30
0
11
0.342769
21
-17.427102
31
0
39
0
210
0
220
0
230
1
0
LINE
5
120
100
AcDbEntity
8
SK1
62
256
6
ByLayer
370
18
48
1
60
0
100
AcDbLine
10
-0.324981
20
-17.89923
30
0
11
-0.324981
21
-18.10077
31
0
39
0
210
0
220
0
230
1
0
LINE
5
121
100
AcDbEntity
8
SK1
62
256
6
ByLayer
370
18
48
1
60
0
100
AcDbLine
10
0.342769
20
-18.572898
30
0
11
-0.249981
21
-18.230673
31
0
39
0
210
0
220
0
230
1
0
LINE
5
122
100
AcDbEntity
8
SK1
62
256
6
ByLayer
370
18
48
1
60
0
100
AcDbLine
10
-0.21692
20
-19.250239
30
0
11
0.342769
21
-18.927102
31
0
39
0
210
0
220
0
230
1
0
LINE
5
123
100
AcDbEntity
8
1
62
256
6
ByLayer
370
18
48
1
60
0
100
AcDbLine
10
16.599972
20
-47.961527
30
0
11
16.75
21
-47.961973
31
0
39
0
210
0
220
0
230
1
0
LINE
5
124
100
AcDbEntity
8
1
62
256
6
ByLayer
370
18
48
1
60
0
100
AcDbLine
10
16.75
20
-46.07706
30
0
11
16.75
21
-47.961973
31
0
39
0
210
0
220
0
230
1
0
LINE
5
125
100
AcDbEntity
8
1
62
256
6
ByLayer
370
18
48
1
60
0
100
AcDbLine
10
16.75
20
-47.961973
30
0
11
16.75
21
-49.315285
31
0
39
0
210
0
220
0
230
1
0
LINE
5
126
100
AcDbEntity
8
1
62
256
6
ByLayer
370
18
48
1
60
0
100
AcDbLine
10
11.25
20
-47.961973
30
0
11
11.400028
21
-47.961527
31
0
39
0
210
0
220
0
230
1
0
LINE
5
127
100
AcDbEntity
8
1
62
256
6
ByLayer
370
18
48
1
60
0
100
AcDbLine
10
11.25
20
-49.315285
30
0
11
11.25
21
-47.961973
31
0
39
0
210
0
220
0
230
1
0
LINE
5
128
100
AcDbEntity
8
1
62
256
6
ByLayer
370
18
48
1
60
0
100
AcDbLine
10
11.25
20
-47.961973
30
0
11
11.25
21
-46.07706
31
0
39
0
210
0
220
0
230
1
0
LINE
5
129
100
AcDbEntity
8
SK4
62
256
6
ByLayer
370
13
48
0.05
60
0
100
AcDbLine
10
-9.324981
20
0
30
0
11
18.675019
21
0
31
0
39
0
210
0
220
0
230
1
0
LINE
5
12B
100
AcDbEntity
8
4
62
256
6
ByLayer
370
13
48
0.05
60
0
100
AcDbLine
10
-1.824981
20
0
30
0
11
20.175019
21
0
31
0
39
0
210
0
220
0
230
1
0
LINE
5
12D
100
AcDbEntity
8
80
62
256
6
ByLayer
370
18
48
1
60
0
100
AcDbLine
10
0
20
0
30
0
11
-9.92945
21
0
31
0
39
0
210
0
220
0
230
1
0
LINE
5
12E
100
AcDbEntity
8
81
62
256
6
ByLayer
370
18
48
1
60
0
100
AcDbLine
10
14
20
-55
30
0
11
14
21
-61.5006
31
0
39
0
210
0
220
0
230
1
0
MTEXT
5
1E5
100
AcDbEntity
8
SK6
62
256
6
ByLayer
370
13
48
1
60
0
100
AcDbMText
10
-20.021972
20
-74.741639
30
0
210
0
220
0
230
1
1
\W0.7774;C2R_SL70_LK30AB
40
3.5
41
0
44
1.084337
50
0
71
7
72
5
7
iso_b_vert
0
DIMENSION
5
1EA
100
AcDbEntity
8
2
62
256
6
ByLayer
370
18
48
1
60
0
100
AcDbDimension
2
_U0
10
-19.302446
20
-55
30
0
11
-19.302446
21
-28.865952
31
0
70
32
71
1
72
1
41
1
210
0
220
0
230
1
3
Standard
100
AcDbAlignedDimension
13
0
23
0
33
0
14
14
24
-55
34
0
50
90
100
AcDbRotatedDimension
1001
ACAD
1000
DSTYLE
1002
{
1070
   371
1070
    13
1070
   372
1070
    13
1070
   170
1070
     0
1070
   144
1040
1.0
1070
   277
1070
     2
1070
   284
1070
     8
1070
   278
1070
    46
1070
   146
1040
0.999966
1070
   345
1005
16
1070
   347
1005
16
1070
   346
1005
16
1070
   344
1005
1EB
1070
   343
1005
1EB
1070
   172
1070
     1
1070
    76
1070
     0
1070
    75
1070
     0
1070
   282
1070
     0
1070
   281
1070
     0
1070
    71
1070
     0
1070
    74
1070
     0
1070
   279
1070
     0
1070
   173
1070
     1
1070
   340
1005
1E6
1070
   271
1070
     1
1070
   272
1070
     2
1070
    77
1070
     1
1070
    73
1070
     0
1070
   171
1070
     3
1070
   274
1070
     4
1070
   177
1070
   150
1070
   176
1070
     9
1070
   178
1070
    43
1070
    78
1070
     8
1070
    48
1040
-0.1
1070
    41
1040
3.175
1070
   147
1040
1.75006
1070
    42
1040
1.5875
1070
    44
1040
3.175
1070
   140
1040
3.50012
1002
}
1001
ACAD_DSTYLE_DIM_LINETYPE
1070
   380
1005
16
1001
ACAD_DSTYLE_DIM_EXT1_LINETYPE
1070
   381
1005
16
1001
ACAD_DSTYLE_DIM_EXT2_LINETYPE
1070
   382
1005
16
0
DIMENSION
5
20F
100
AcDbEntity
8
SK2
62
256
6
ByLayer
370
18
48
1
60
0
100
AcDbDimension
2
_U1
10
-4.068455
20
-55
30
0
11
-4.068455
21
-38.170546
31
0
70
32
71
1
72
1
41
1
210
0
220
0
230
1
3
Standard
100
AcDbAlignedDimension
13
7.27
23
-24.65
33
0
14
14
24
-55
34
0
50
90
100
AcDbRotatedDimension
1001
ACAD
1000
DSTYLE
1002
{
1070
   371
1070
    13
1070
   372
1070
    13
1070
   170
1070
     0
1070
   144
1040
1.0
1070
   277
1070
     2
1070
   284
1070
     8
1070
   278
1070
    46
1070
   146
1040
0.999966
1070
   345
1005
16
1070
   347
1005
16
1070
   346
1005
16
1070
   344
1005
1EB
1070
   343
1005
1EB
1070
   172
1070
     1
1070
    76
1070
     0
1070
    75
1070
     0
1070
   282
1070
     0
1070
   281
1070
     0
1070
    71
1070
     0
1070
    74
1070
     0
1070
   279
1070
     0
1070
   173
1070
     1
1070
   340
1005
1E6
1070
   271
1070
     2
1070
   272
1070
     2
1070
    77
1070
     1
1070
    73
1070
     0
1070
   171
1070
     3
1070
   274
1070
     4
1070
   177
1070
   150
1070
   176
1070
     9
1070
   178
1070
    43
1070
    78
1070
     8
1070
    48
1040
-0.1
1070
    41
1040
3.175
1070
   147
1040
1.75006
1070
    42
1040
1.5875
1070
    44
1040
3.175
1070
   140
1040
3.50012
1002
}
1001
ACAD_DSTYLE_DIM_LINETYPE
1070
   380
1005
16
1001
ACAD_DSTYLE_DIM_EXT1_LINETYPE
1070
   381
1005
16
1001
ACAD_DSTYLE_DIM_EXT2_LINETYPE
1070
   382
1005
16
0
DIMENSION
5
22C
100
AcDbEntity
8
2
62
256
6
ByLayer
370
18
48
1
60
0
100
AcDbDimension
2
_U2
10
0
20
-64.216073
30
0
11
7.047354
21
-64.216073
31
0
70
32
71
1
72
1
41
1
210
0
220
0
230
1
3
Standard
100
AcDbAlignedDimension
13
14
23
-55
33
0
14
0
24
0
34
0
50
0
100
AcDbRotatedDimension
1001
ACAD
1000
DSTYLE
1002
{
1070
   371
1070
    13
1070
   372
1070
    13
1070
   170
1070
     0
1070
   144
1040
1.0
1070
   277
1070
     2
1070
   284
1070
     8
1070
   278
1070
    46
1070
   146
1040
0.999966
1070
   345
1005
16
1070
   347
1005
16
1070
   346
1005
16
1070
   344
1005
1EB
1070
   343
1005
1EB
1070
   172
1070
     1
1070
    76
1070
     0
1070
    75
1070
     0
1070
   282
1070
     0
1070
   281
1070
     0
1070
    71
1070
     0
1070
    74
1070
     0
1070
   279
1070
     0
1070
   173
1070
     1
1070
   340
1005
1E6
1070
   271
1070
     2
1070
   272
1070
     2
1070
    77
1070
     1
1070
    73
1070
     1
1070
   171
1070
     3
1070
   274
1070
     4
1070
   177
1070
   150
1070
   176
1070
     9
1070
   178
1070
    43
1070
    78
1070
     8
1070
    48
1040
-0.1
1070
    41
1040
3.175
1070
   147
1040
1.75006
1070
    42
1040
1.5875
1070
    44
1040
3.175
1070
   140
1040
3.50012
1002
}
1001
ACAD_DSTYLE_DIM_LINETYPE
1070
   380
1005
16
1001
ACAD_DSTYLE_DIM_EXT1_LINETYPE
1070
   381
1005
16
1001
ACAD_DSTYLE_DIM_EXT2_LINETYPE
1070
   382
1005
16
0
DIMENSION
5
249
100
AcDbEntity
8
SK2
62
256
6
ByLayer
370
18
48
1
60
0
100
AcDbDimension
2
_U3
10
-12.82572
20
-20
30
0
11
-12.82572
21
5.798218
31
0
70
32
71
1
72
1
41
1
210
0
220
0
230
1
3
Standard
100
AcDbAlignedDimension
13
4.75
23
20
33
0
14
1
24
-20
34
0
50
90
100
AcDbRotatedDimension
1001
ACAD
1000
DSTYLE
1002
{
1070
   371
1070
    13
1070
   372
1070
    13
1070
   170
1070
     0
1070
   144
1040
1.0
1070
   277
1070
     2
1070
   284
1070
     8
1070
   278
1070
    46
1070
   146
1040
0.999966
1070
   345
1005
16
1070
   347
1005
16
1070
   346
1005
16
1070
   344
1005
1EB
1070
   343
1005
1EB
1070
   172
1070
     1
1070
    76
1070
     0
1070
    75
1070
     0
1070
   282
1070
     0
1070
   281
1070
     0
1070
    71
1070
     0
1070
    74
1070
     0
1070
   279
1070
     0
1070
   173
1070
     1
1070
   340
1005
1E6
1070
   271
1070
     1
1070
   272
1070
     2
1070
    77
1070
     1
1070
    73
1070
     0
1070
   171
1070
     3
1070
   274
1070
     4
1070
   177
1070
   150
1070
   176
1070
     9
1070
   178
1070
    43
1070
    78
1070
     8
1070
    48
1040
-0.1
1070
    41
1040
3.175
1070
   147
1040
1.75006
1070
    42
1040
1.5875
1070
    44
1040
3.175
1070
   140
1040
3.50012
1002
}
1001
ACAD_DSTYLE_DIM_LINETYPE
1070
   380
1005
16
1001
ACAD_DSTYLE_DIM_EXT1_LINETYPE
1070
   381
1005
16
1001
ACAD_DSTYLE_DIM_EXT2_LINETYPE
1070
   382
1005
16
0
ENDSEC
0
SECTION
2
OBJECTS
0
DICTIONARY
5
2d5
330
0
100
AcDbDictionary
280
0
281
1
3
ACAD_GROUP
350
2d6
3
ACAD_MLINESTYLE
350
2d7
0
DICTIONARY
5
2d6
330
0
100
AcDbDictionary
280
0
281
1
0
DICTIONARY
5
2d7
330
0
100
AcDbDictionary
280
0
281
1
3
Standard
350
18
0
MLINESTYLE
5
18
330
2d7
100
AcDbMlineStyle
2
Standard
70
0
3

62
256
51
90
52
90
71
2
49
-0.5
62
256
6
ByLayer
49
0.5
62
256
6
ByLayer
0
RASTERVARIABLES
5
2c3
330

100
AcDbRasterVariables
90
0
70
1
71
1
72
1
0
ENDSEC
0
EOF
