0
SECTION
2
HEADER
9
$ACADVER
1
AC1015
9
$DWGCODEPAGE
3
ANSI_1252
9
$HANDSEED
5
2e1
9
$ANGBASE
50
0
9
$ANGDIR
70
0
9
$ATTMODE
70
1
9
$AUNITS
70
0
9
$AUPREC
70
0
9
$CECOLOR
62
256
9
$CELTSCALE
40
1
9
$CELTYPE
6
ByLayer
9
$CELWEIGHT
370
18
9
$CLAYER
8
0
9
$CMLJUST
70
0
9
$CMLSCALE
40
1
9
$CMLSTYLE
2
Standard
9
$DIMSTYLE
2
Standard
9
$TEXTSIZE
40
0.2
9
$TEXTSTYLE
7
Standard
9
$LUNITS
70
2
9
$LUPREC
70
4
9
$EXTNAMES
290
1
9
$INSUNITS
70
4
9
$LTSCALE
40
1
9
$LWDISPLAY
290
1
9
$PDMODE
70
0
9
$PDSIZE
40
0
9
$PLINEGEN
70
0
0
ENDSEC
0
SECTION
2
CLASSES
0
CLASS
1
RASTERVARIABLES
2
AcDbRasterVariables
3
ISM
90
0
280
0
281
0
0
ENDSEC
0
SECTION
2
TABLES
0
TABLE
2
VPORT
5
2d7
100
AcDbSymbolTable
0
VPORT
5
1
100
AcDbSymbolTableRecord
100
AcDbViewportTableRecord
2
*Active
70
0
10
0
20
0
11
1
21
1
12
-1
22
1
13
0
23
0
14
0.5
24
0.5
15
10
25
10
16
0
26
0
36
1
17
0
27
0
37
0
0
ENDTAB
0
TABLE
2
LTYPE
5
2d8
100
AcDbSymbolTable
0
LTYPE
5
14
100
AcDbSymbolTableRecord
100
AcDbLinetypeTableRecord
70
0
2
ByBlock
3

72
65
73
0
40
0
0
LTYPE
5
15
100
AcDbSymbolTableRecord
100
AcDbLinetypeTableRecord
70
0
2
ByLayer
3

72
65
73
0
40
0
0
LTYPE
5
16
100
AcDbSymbolTableRecord
100
AcDbLinetypeTableRecord
70
0
2
Continuous
3
Solid line
72
65
73
0
40
0
0
LTYPE
5
6E
100
AcDbSymbolTableRecord
100
AcDbLinetypeTableRecord
70
0
2
CENTER
3
____ _ ____ _ ____ _ ____
72
65
73
4
40
47.5
49
22
74
0
49
-8.5
74
0
49
8.5
74
0
49
-8.5
74
0
0
LTYPE
5
6F
100
AcDbSymbolTableRecord
100
AcDbLinetypeTableRecord
70
0
2
DASHED
3
__ __ __ __ __ __ __ __ __
72
65
73
2
40
25.72
49
12.86
74
0
49
-12.86
74
0
0
ENDTAB
0
TABLE
2
LAYER
5
2d9
100
AcDbSymbolTable
0
LAYER
5
10
100
AcDbSymbolTableRecord
100
AcDbLayerTableRecord
2
0
70
0
62
7
6
Continuous
290
1
370
-3
390
0
0
LAYER
5
71
100
AcDbSymbolTableRecord
100
AcDbLayerTableRecord
2
80
70
0
62
-6
6
Continuous
290
1
370
-3
390
0
0
LAYER
5
73
100
AcDbSymbolTableRecord
100
AcDbLayerTableRecord
2
81
70
0
62
-3
6
Continuous
290
1
370
-3
390
0
0
LAYER
5
7C
100
AcDbSymbolTableRecord
100
AcDbLayerTableRecord
2
1
70
0
62
4
6
Continuous
290
1
370
-3
390
0
0
LAYER
5
12B
100
AcDbSymbolTableRecord
100
AcDbLayerTableRecord
2
4
70
0
62
-2
6
CENTER
290
1
370
-3
390
0
0
LAYER
5
1F4
100
AcDbSymbolTableRecord
100
AcDbLayerTableRecord
2
Defpoints
70
0
62
7
6
Continuous
290
0
370
-3
390
0
0
LAYER
5
201
100
AcDbSymbolTableRecord
100
AcDbLayerTableRecord
2
2
70
0
62
7
6
Continuous
290
1
370
-3
390
0
0
LAYER
5
2c3
100
AcDbSymbolTableRecord
100
AcDbLayerTableRecord
2
SK1
70
0
62
4
6
Continuous
290
1
370
-3
390
0
0
LAYER
5
2c4
100
AcDbSymbolTableRecord
100
AcDbLayerTableRecord
2
SK4
70
0
62
2
6
CENTER
290
1
370
-3
390
0
0
LAYER
5
2c5
100
AcDbSymbolTableRecord
100
AcDbLayerTableRecord
2
SK6
70
0
62
5
6
Continuous
290
1
370
-3
390
0
0
LAYER
5
2c6
100
AcDbSymbolTableRecord
100
AcDbLayerTableRecord
2
SK2
70
0
62
7
6
Continuous
290
1
370
-3
390
0
0
ENDTAB
0
TABLE
2
STYLE
5
2da
100
AcDbSymbolTable
0
STYLE
5
11
100
AcDbSymbolTableRecord
100
AcDbTextStyleTableRecord
2
Standard
3
txt
70
0
71
0
40
0
41
1
42
0
50
0
0
STYLE
5
1E6
100
AcDbSymbolTableRecord
100
AcDbTextStyleTableRecord
2
iso_b_vert
3
simplex.shx
70
0
71
0
40
0
41
1
42
0
50
0
0
STYLE
5
1E7
100
AcDbSymbolTableRecord
100
AcDbTextStyleTableRecord
2
DWGDirectTextStyle
3
simplex
70
0
71
0
40
0
41
1
42
0
50
0
0
ENDTAB
0
TABLE
2
DIMSTYLE
5
2db
100
AcDbSymbolTable
100
AcDbDimStyleTable
0
DIMSTYLE
105
27
100
AcDbSymbolTableRecord
100
AcDbDimStyleTableRecord
2
Standard
70
0
3
<>
41
0.18
42
0.0625
44
0.18
140
0.18
147
0.09
73
0
74
0
77
1
271
2
275
0
278
52
280
0
340
11
0
ENDTAB
0
TABLE
2
VIEW
5
2dc
100
AcDbSymbolTable
0
ENDTAB
0
TABLE
2
UCS
5
2dd
100
AcDbSymbolTable
0
ENDTAB
0
TABLE
2
APPID
5
2de
100
AcDbSymbolTable
0
APPID
5
12
100
AcDbSymbolTableRecord
100
AcDbRegAppTableRecord
2
ACAD
70
0
0
APPID
5
1E9
100
AcDbSymbolTableRecord
100
AcDbRegAppTableRecord
2
ACAD_DSTYLE_DIMBREAK
70
0
0
APPID
5
282
100
AcDbSymbolTableRecord
100
AcDbRegAppTableRecord
2
ACAD_DSTYLE_DIM_LINETYPE
70
0
0
APPID
5
283
100
AcDbSymbolTableRecord
100
AcDbRegAppTableRecord
2
ACAD_DSTYLE_DIM_EXT1_LINETYPE
70
0
0
APPID
5
284
100
AcDbSymbolTableRecord
100
AcDbRegAppTableRecord
2
ACAD_DSTYLE_DIM_EXT2_LINETYPE
70
0
0
APPID
5
2BF
100
AcDbSymbolTableRecord
100
AcDbRegAppTableRecord
2
ACAD_MLEADERVER
70
0
0
ENDTAB
0
TABLE
2
BLOCK_RECORD
5
2df
100
AcDbSymbolTable
0
BLOCK_RECORD
5
1F
100
AcDbSymbolTableRecord
100
AcDbBlockTableRecord
2
*Model_Space
340
0
70
0
0
BLOCK_RECORD
5
1B
100
AcDbSymbolTableRecord
100
AcDbBlockTableRecord
2
*Paper_Space
340
0
70
0
0
BLOCK_RECORD
5
23
100
AcDbSymbolTableRecord
100
AcDbBlockTableRecord
2
*Paper_Space0
340
0
70
0
0
BLOCK_RECORD
5
1EB
100
AcDbSymbolTableRecord
100
AcDbBlockTableRecord
2
_Closed
340
0
70
0
0
BLOCK_RECORD
5
1F5
100
AcDbSymbolTableRecord
100
AcDbBlockTableRecord
2
*D2
340
0
70
0
0
BLOCK_RECORD
5
202
100
AcDbSymbolTableRecord
100
AcDbBlockTableRecord
2
_U0
340
0
70
0
0
BLOCK_RECORD
5
212
100
AcDbSymbolTableRecord
100
AcDbBlockTableRecord
2
*D4
340
0
70
0
0
BLOCK_RECORD
5
21F
100
AcDbSymbolTableRecord
100
AcDbBlockTableRecord
2
_U1
340
0
70
0
0
BLOCK_RECORD
5
22F
100
AcDbSymbolTableRecord
100
AcDbBlockTableRecord
2
*D6
340
0
70
0
0
BLOCK_RECORD
5
23B
100
AcDbSymbolTableRecord
100
AcDbBlockTableRecord
2
_U2
340
0
70
0
0
BLOCK_RECORD
5
24B
100
AcDbSymbolTableRecord
100
AcDbBlockTableRecord
2
*D8
340
0
70
0
0
BLOCK_RECORD
5
257
100
AcDbSymbolTableRecord
100
AcDbBlockTableRecord
2
_U3
340
0
70
0
0
ENDTAB
0
ENDSEC
0
SECTION
2
BLOCKS
0
BLOCK
5
20
100
AcDbEntity
8
0
100
AcDbBlockBegin
2
*Model_Space
70
0
10
0
20
0
30
0
3
*Model_Space
0
ENDBLK
5
21
100
AcDbEntity
8
0
100
AcDbBlockEnd
0
BLOCK
5
1C
100
AcDbEntity
8
0
100
AcDbBlockBegin
2
*Paper_Space
70
0
10
0
20
0
30
0
3
*Paper_Space
0
ENDBLK
5
1D
100
AcDbEntity
8
0
100
AcDbBlockEnd
0
BLOCK
5
24
100
AcDbEntity
8
0
100
AcDbBlockBegin
2
*Paper_Space0
70
0
10
0
20
0
30
0
3
*Paper_Space0
0
ENDBLK
5
25
100
AcDbEntity
8
0
100
AcDbBlockEnd
0
BLOCK
5
1EC
100
AcDbEntity
8
0
100
AcDbBlockBegin
2
_Closed
70
0
10
0
20
0
30
0
3
_Closed
0
LINE
5
1EE
100
AcDbEntity
8
0
62
256
6
ByLayer
370
-2
48
1
60
0
100
AcDbLine
10
-1
20
0.166667
30
0
11
0
21
0
31
0
39
0
210
0
220
0
230
1
0
LINE
5
1EF
100
AcDbEntity
8
0
62
256
6
ByLayer
370
-2
48
1
60
0
100
AcDbLine
10
0
20
0
30
0
11
-1
21
-0.166667
31
0
39
0
210
0
220
0
230
1
0
LINE
5
1F0
100
AcDbEntity
8
0
62
256
6
ByLayer
370
-2
48
1
60
0
100
AcDbLine
10
-1
20
0.166667
30
0
11
-1
21
-0.166667
31
0
39
0
210
0
220
0
230
1
0
LINE
5
1F1
100
AcDbEntity
8
0
62
256
6
ByLayer
370
-2
48
1
60
0
100
AcDbLine
10
0
20
0
30
0
11
-1
21
0
31
0
39
0
210
0
220
0
230
1
0
ENDBLK
5
1ED
100
AcDbEntity
8
0
100
AcDbBlockEnd
0
BLOCK
5
1F6
100
AcDbEntity
8
0
100
AcDbBlockBegin
2
*D2
70
1
10
0
20
0
30
0
3
*D2
0
LINE
5
1F8
100
AcDbEntity
8
0
62
256
6
ByLayer
370
-2
48
1
60
0
100
AcDbLine
10
0
20
-1.5875
30
0
11
0
21
-83.821188
31
0
39
0
210
0
220
0
230
1
0
LINE
5
1F9
100
AcDbEntity
8
0
62
256
6
ByLayer
370
-2
48
1
60
0
100
AcDbLine
10
-18.040846
20
-67.5875
30
0
11
-18.040846
21
-83.821188
31
0
39
0
210
0
220
0
230
1
0
LINE
5
1FA
100
AcDbEntity
8
0
62
256
6
ByLayer
370
-2
48
1
60
0
100
AcDbLine
10
-3.175
20
-80.646188
30
0
11
-14.865846
21
-80.646188
31
0
39
0
210
0
220
0
230
1
0
SOLID
5
1FB
100
AcDbEntity
8
0
62
256
6
ByLayer
370
-1
48
1
60
0
100
AcDbTrace
10
-3.175
20
-81.175354
30
0
11
-3.175
21
-80.117021
31
0
12
0
22
-80.646188
32
0
13
0
23
-80.646188
33
0
39
0
210
0
220
0
230
1
0
SOLID
5
1FC
100
AcDbEntity
8
0
62
256
6
ByLayer
370
-1
48
1
60
0
100
AcDbTrace
10
-14.865846
20
-80.117021
30
0
11
-14.865846
21
-81.175354
31
0
12
-18.040846
22
-80.646188
32
0
13
-18.040846
23
-80.646188
33
0
39
0
210
0
220
0
230
1
0
MTEXT
5
1FD
100
AcDbEntity
8
0
62
256
6
ByLayer
370
18
48
1
60
0
100
AcDbMText
10
-9.020423
20
-73.339687
30
0
210
0
220
0
230
1
1
\A1;18
40
3.50012
41
0
44
1
50
0
71
5
72
5
7
iso_b_vert
0
POINT
5
1FE
100
AcDbEntity
8
Defpoints
62
0
6
ByLayer
370
-1
48
1
60
0
100
AcDbPoint
10
0
20
0
30
0
39
0
210
0
220
0
230
1
50
360
0
POINT
5
1FF
100
AcDbEntity
8
Defpoints
62
0
6
ByLayer
370
-1
48
1
60
0
100
AcDbPoint
10
-18.040846
20
-66
30
0
39
0
210
0
220
0
230
1
50
360
0
POINT
5
200
100
AcDbEntity
8
Defpoints
62
0
6
ByLayer
370
-1
48
1
60
0
100
AcDbPoint
10
-18.040846
20
-80.646188
30
0
39
0
210
0
220
0
230
1
50
360
0
ENDBLK
5
1F7
100
AcDbEntity
8
0
100
AcDbBlockEnd
0
BLOCK
5
20D
100
AcDbEntity
8
0
100
AcDbBlockBegin
2
_U0
70
0
10
0
20
0
30
0
3
_U0
0
MTEXT
5
203
100
AcDbEntity
8
2
62
256
6
ByLayer
370
18
48
1
60
0
100
AcDbMText
10
-10.487472
20
-79.613519
30
0
210
0
220
0
230
1
1
\W0.5560;18
40
3.50012
41
0
44
1.084337
50
0
71
7
72
5
7
iso_b_vert
0
LINE
5
204
100
AcDbEntity
8
2
62
256
6
ByLayer
370
13
48
1
60
0
100
AcDbLine
10
0
20
-1.5875
30
0
11
0
21
-83.821188
31
0
39
0
210
0
220
0
230
1
0
LINE
5
205
100
AcDbEntity
8
2
62
256
6
ByLayer
370
13
48
1
60
0
100
AcDbLine
10
-18.040846
20
-67.5875
30
0
11
-18.040846
21
-83.821188
31
0
39
0
210
0
220
0
230
1
0
LINE
5
206
100
AcDbEntity
8
2
62
256
6
ByLayer
370
13
48
1
60
0
100
AcDbLine
10
0
20
-80.646188
30
0
11
-18.040846
21
-80.646188
31
0
39
0
210
0
220
0
230
1
0
LINE
5
207
100
AcDbEntity
8
2
62
256
6
ByLayer
370
13
48
1
60
0
100
AcDbLine
10
0
20
-80.646188
30
0
11
-3.174998
21
-81.064184
31
0
39
0
210
0
220
0
230
1
0
LINE
5
208
100
AcDbEntity
8
2
62
256
6
ByLayer
370
13
48
1
60
0
100
AcDbLine
10
0
20
-80.646188
30
0
11
-3.175002
21
-80.228191
31
0
39
0
210
0
220
0
230
1
0
LINE
5
209
100
AcDbEntity
8
2
62
256
6
ByLayer
370
13
48
1
60
0
100
AcDbLine
10
-3.174998
20
-81.064184
30
0
11
-3.175002
21
-80.228191
31
0
39
0
210
0
220
0
230
1
0
LINE
5
20A
100
AcDbEntity
8
2
62
256
6
ByLayer
370
13
48
1
60
0
100
AcDbLine
10
-18.040846
20
-80.646188
30
0
11
-14.865848
21
-80.228191
31
0
39
0
210
0
220
0
230
1
0
LINE
5
20B
100
AcDbEntity
8
2
62
256
6
ByLayer
370
13
48
1
60
0
100
AcDbLine
10
-18.040846
20
-80.646188
30
0
11
-14.865845
21
-81.064184
31
0
39
0
210
0
220
0
230
1
0
LINE
5
20C
100
AcDbEntity
8
2
62
256
6
ByLayer
370
13
48
1
60
0
100
AcDbLine
10
-14.865848
20
-80.228191
30
0
11
-14.865845
21
-81.064184
31
0
39
0
210
0
220
0
230
1
0
ENDBLK
5
20E
100
AcDbEntity
8
0
100
AcDbBlockEnd
0
BLOCK
5
213
100
AcDbEntity
8
0
100
AcDbBlockBegin
2
*D4
70
1
10
0
20
0
30
0
3
*D4
0
LINE
5
215
100
AcDbEntity
8
0
62
256
6
ByLayer
370
-2
48
1
60
0
100
AcDbLine
10
-16.453346
20
-66
30
0
11
10.742469
21
-66
31
0
39
0
210
0
220
0
230
1
0
LINE
5
216
100
AcDbEntity
8
0
62
256
6
ByLayer
370
-2
48
1
60
0
100
AcDbLine
10
-6.038653
20
-25.25
30
0
11
10.742469
21
-25.25
31
0
39
0
210
0
220
0
230
1
0
LINE
5
217
100
AcDbEntity
8
0
62
256
6
ByLayer
370
-2
48
1
60
0
100
AcDbLine
10
7.567469
20
-62.825
30
0
11
7.567469
21
-28.425
31
0
39
0
210
0
220
0
230
1
0
SOLID
5
218
100
AcDbEntity
8
0
62
256
6
ByLayer
370
-1
48
1
60
0
100
AcDbTrace
10
7.038302
20
-62.825
30
0
11
8.096635
21
-62.825
31
0
12
7.567469
22
-66
32
0
13
7.567469
23
-66
33
0
39
0
210
0
220
0
230
1
0
SOLID
5
219
100
AcDbEntity
8
0
62
256
6
ByLayer
370
-1
48
1
60
0
100
AcDbTrace
10
8.096635
20
-28.425
30
0
11
7.038302
21
-28.425
31
0
12
7.567469
22
-25.25
32
0
13
7.567469
23
-25.25
33
0
39
0
210
0
220
0
230
1
0
MTEXT
5
21A
100
AcDbEntity
8
0
62
256
6
ByLayer
370
18
48
1
60
0
100
AcDbMText
10
0.260968
20
-45.625
30
0
210
0
220
0
230
1
1
\A1;40.75
40
3.50012
41
0
44
1
50
90
71
5
72
5
7
iso_b_vert
0
POINT
5
21B
100
AcDbEntity
8
Defpoints
62
0
6
ByLayer
370
-1
48
1
60
0
100
AcDbPoint
10
-18.040846
20
-66
30
0
39
0
210
0
220
0
230
1
50
360
0
POINT
5
21C
100
AcDbEntity
8
Defpoints
62
0
6
ByLayer
370
-1
48
1
60
0
100
AcDbPoint
10
-7.626153
20
-25.25
30
0
39
0
210
0
220
0
230
1
50
360
0
POINT
5
21D
100
AcDbEntity
8
Defpoints
62
0
6
ByLayer
370
-1
48
1
60
0
100
AcDbPoint
10
7.567469
20
-25.25
30
0
39
0
210
0
220
0
230
1
50
360
0
ENDBLK
5
214
100
AcDbEntity
8
0
100
AcDbBlockEnd
0
BLOCK
5
22A
100
AcDbEntity
8
0
100
AcDbBlockBegin
2
_U1
70
0
10
0
20
0
30
0
3
_U1
0
MTEXT
5
220
100
AcDbEntity
8
SK2
62
256
6
ByLayer
370
18
48
1
60
0
100
AcDbMText
10
6.877812
20
-51.06555
30
0
210
0
220
0
230
1
1
\W0.7564;40.75
40
3.50012
41
0
44
1.084337
50
90
71
7
72
5
7
iso_b_vert
0
LINE
5
221
100
AcDbEntity
8
SK2
62
256
6
ByLayer
370
13
48
1
60
0
100
AcDbLine
10
-16.453346
20
-66
30
0
11
10.742469
21
-66
31
0
39
0
210
0
220
0
230
1
0
LINE
5
222
100
AcDbEntity
8
SK2
62
256
6
ByLayer
370
13
48
1
60
0
100
AcDbLine
10
-4.5825
20
-25.25
30
0
11
10.742469
21
-25.25
31
0
39
0
210
0
220
0
230
1
0
LINE
5
223
100
AcDbEntity
8
SK2
62
256
6
ByLayer
370
13
48
1
60
0
100
AcDbLine
10
7.567469
20
-66
30
0
11
7.567469
21
-25.25
31
0
39
0
210
0
220
0
230
1
0
LINE
5
224
100
AcDbEntity
8
SK2
62
256
6
ByLayer
370
13
48
1
60
0
100
AcDbLine
10
7.567469
20
-66
30
0
11
7.149472
21
-62.825002
31
0
39
0
210
0
220
0
230
1
0
LINE
5
225
100
AcDbEntity
8
SK2
62
256
6
ByLayer
370
13
48
1
60
0
100
AcDbLine
10
7.567469
20
-66
30
0
11
7.985465
21
-62.824998
31
0
39
0
210
0
220
0
230
1
0
LINE
5
226
100
AcDbEntity
8
SK2
62
256
6
ByLayer
370
13
48
1
60
0
100
AcDbLine
10
7.149472
20
-62.825002
30
0
11
7.985465
21
-62.824998
31
0
39
0
210
0
220
0
230
1
0
LINE
5
227
100
AcDbEntity
8
SK2
62
256
6
ByLayer
370
13
48
1
60
0
100
AcDbLine
10
7.567469
20
-25.25
30
0
11
7.985465
21
-28.424998
31
0
39
0
210
0
220
0
230
1
0
LINE
5
228
100
AcDbEntity
8
SK2
62
256
6
ByLayer
370
13
48
1
60
0
100
AcDbLine
10
7.567469
20
-25.25
30
0
11
7.149472
21
-28.425002
31
0
39
0
210
0
220
0
230
1
0
LINE
5
229
100
AcDbEntity
8
SK2
62
256
6
ByLayer
370
13
48
1
60
0
100
AcDbLine
10
7.985465
20
-28.424998
30
0
11
7.149472
21
-28.425002
31
0
39
0
210
0
220
0
230
1
0
ENDBLK
5
22B
100
AcDbEntity
8
0
100
AcDbBlockEnd
0
BLOCK
5
230
100
AcDbEntity
8
0
100
AcDbBlockBegin
2
*D6
70
1
10
0
20
0
30
0
3
*D6
0
LINE
5
232
100
AcDbEntity
8
0
62
256
6
ByLayer
370
-2
48
1
60
0
100
AcDbLine
10
1.5875
20
0
30
0
11
19.309818
21
0
31
0
39
0
210
0
220
0
230
1
0
LINE
5
233
100
AcDbEntity
8
0
62
256
6
ByLayer
370
-2
48
1
60
0
100
AcDbLine
10
-16.453346
20
-66
30
0
11
19.309818
21
-66
31
0
39
0
210
0
220
0
230
1
0
LINE
5
234
100
AcDbEntity
8
0
62
256
6
ByLayer
370
-2
48
1
60
0
100
AcDbLine
10
16.134818
20
-3.175
30
0
11
16.134818
21
-62.825
31
0
39
0
210
0
220
0
230
1
0
SOLID
5
235
100
AcDbEntity
8
0
62
256
6
ByLayer
370
-1
48
1
60
0
100
AcDbTrace
10
16.663985
20
-3.175
30
0
11
15.605652
21
-3.175
31
0
12
16.134818
22
0
32
0
13
16.134818
23
0
33
0
39
0
210
0
220
0
230
1
0
SOLID
5
236
100
AcDbEntity
8
0
62
256
6
ByLayer
370
-1
48
1
60
0
100
AcDbTrace
10
15.605652
20
-62.825
30
0
11
16.663985
21
-62.825
31
0
12
16.134818
22
-66
32
0
13
16.134818
23
-66
33
0
39
0
210
0
220
0
230
1
0
MTEXT
5
237
100
AcDbEntity
8
0
62
256
6
ByLayer
370
18
48
1
60
0
100
AcDbMText
10
8.828318
20
-33
30
0
210
0
220
0
230
1
1
\A1;66
40
3.50012
41
0
44
1
50
90
71
5
72
5
7
iso_b_vert
0
POINT
5
238
100
AcDbEntity
8
Defpoints
62
0
6
ByLayer
370
-1
48
1
60
0
100
AcDbPoint
10
0
20
0
30
0
39
0
210
0
220
0
230
1
50
360
0
POINT
5
239
100
AcDbEntity
8
Defpoints
62
0
6
ByLayer
370
-1
48
1
60
0
100
AcDbPoint
10
-18.040846
20
-66
30
0
39
0
210
0
220
0
230
1
50
360
0
POINT
5
23A
100
AcDbEntity
8
Defpoints
62
0
6
ByLayer
370
-1
48
1
60
0
100
AcDbPoint
10
16.134818
20
-66
30
0
39
0
210
0
220
0
230
1
50
360
0
ENDBLK
5
231
100
AcDbEntity
8
0
100
AcDbBlockEnd
0
BLOCK
5
246
100
AcDbEntity
8
0
100
AcDbBlockBegin
2
_U2
70
0
10
0
20
0
30
0
3
_U2
0
MTEXT
5
23C
100
AcDbEntity
8
2
62
256
6
ByLayer
370
18
48
1
60
0
100
AcDbMText
10
15.445161
20
-34.932498
30
0
210
0
220
0
230
1
1
\W0.6337;66
40
3.50012
41
0
44
1.084337
50
90
71
7
72
5
7
iso_b_vert
0
LINE
5
23D
100
AcDbEntity
8
2
62
256
6
ByLayer
370
13
48
1
60
0
100
AcDbLine
10
1.5875
20
0
30
0
11
19.309818
21
0
31
0
39
0
210
0
220
0
230
1
0
LINE
5
23E
100
AcDbEntity
8
2
62
256
6
ByLayer
370
13
48
1
60
0
100
AcDbLine
10
-16.453346
20
-66
30
0
11
19.309818
21
-66
31
0
39
0
210
0
220
0
230
1
0
LINE
5
23F
100
AcDbEntity
8
2
62
256
6
ByLayer
370
13
48
1
60
0
100
AcDbLine
10
16.134818
20
0
30
0
11
16.134818
21
-66
31
0
39
0
210
0
220
0
230
1
0
LINE
5
240
100
AcDbEntity
8
2
62
256
6
ByLayer
370
13
48
1
60
0
100
AcDbLine
10
16.134818
20
0
30
0
11
16.552815
21
-3.174998
31
0
39
0
210
0
220
0
230
1
0
LINE
5
241
100
AcDbEntity
8
2
62
256
6
ByLayer
370
13
48
1
60
0
100
AcDbLine
10
16.134818
20
0
30
0
11
15.716822
21
-3.175002
31
0
39
0
210
0
220
0
230
1
0
LINE
5
242
100
AcDbEntity
8
2
62
256
6
ByLayer
370
13
48
1
60
0
100
AcDbLine
10
16.552815
20
-3.174998
30
0
11
15.716822
21
-3.175002
31
0
39
0
210
0
220
0
230
1
0
LINE
5
243
100
AcDbEntity
8
2
62
256
6
ByLayer
370
13
48
1
60
0
100
AcDbLine
10
16.134818
20
-66
30
0
11
15.716822
21
-62.825002
31
0
39
0
210
0
220
0
230
1
0
LINE
5
244
100
AcDbEntity
8
2
62
256
6
ByLayer
370
13
48
1
60
0
100
AcDbLine
10
16.134818
20
-66
30
0
11
16.552815
21
-62.824998
31
0
39
0
210
0
220
0
230
1
0
LINE
5
245
100
AcDbEntity
8
2
62
256
6
ByLayer
370
13
48
1
60
0
100
AcDbLine
10
15.716822
20
-62.825002
30
0
11
16.552815
21
-62.824998
31
0
39
0
210
0
220
0
230
1
0
ENDBLK
5
247
100
AcDbEntity
8
0
100
AcDbBlockEnd
0
BLOCK
5
24C
100
AcDbEntity
8
0
100
AcDbBlockBegin
2
*D8
70
1
10
0
20
0
30
0
3
*D8
0
LINE
5
24E
100
AcDbEntity
8
0
62
256
6
ByLayer
370
-2
48
1
60
0
100
AcDbLine
10
-3.6625
20
20
30
0
11
24.475426
21
20
31
0
39
0
210
0
220
0
230
1
0
LINE
5
24F
100
AcDbEntity
8
0
62
256
6
ByLayer
370
-2
48
1
60
0
100
AcDbLine
10
0.5875
20
-20
30
0
11
24.475426
21
-20
31
0
39
0
210
0
220
0
230
1
0
LINE
5
250
100
AcDbEntity
8
0
62
256
6
ByLayer
370
-2
48
1
60
0
100
AcDbLine
10
21.300426
20
16.825
30
0
11
21.300426
21
-16.825
31
0
39
0
210
0
220
0
230
1
0
SOLID
5
251
100
AcDbEntity
8
0
62
256
6
ByLayer
370
-1
48
1
60
0
100
AcDbTrace
10
21.829593
20
16.825
30
0
11
20.771259
21
16.825
31
0
12
21.300426
22
20
32
0
13
21.300426
23
20
33
0
39
0
210
0
220
0
230
1
0
SOLID
5
252
100
AcDbEntity
8
0
62
256
6
ByLayer
370
-1
48
1
60
0
100
AcDbTrace
10
20.771259
20
-16.825
30
0
11
21.829593
21
-16.825
31
0
12
21.300426
22
-20
32
0
13
21.300426
23
-20
33
0
39
0
210
0
220
0
230
1
0
MTEXT
5
253
100
AcDbEntity
8
0
62
256
6
ByLayer
370
18
48
1
60
0
100
AcDbMText
10
13.993925
20
7.393513
30
0
210
0
220
0
230
1
1
\A1;40
40
3.50012
41
0
44
1
50
90
71
5
72
5
7
iso_b_vert
0
POINT
5
254
100
AcDbEntity
8
Defpoints
62
0
6
ByLayer
370
-1
48
1
60
0
100
AcDbPoint
10
-5.25
20
20
30
0
39
0
210
0
220
0
230
1
50
360
0
POINT
5
255
100
AcDbEntity
8
Defpoints
62
0
6
ByLayer
370
-1
48
1
60
0
100
AcDbPoint
10
-1
20
-20
30
0
39
0
210
0
220
0
230
1
50
360
0
POINT
5
256
100
AcDbEntity
8
Defpoints
62
0
6
ByLayer
370
-1
48
1
60
0
100
AcDbPoint
10
21.300426
20
-20
30
0
39
0
210
0
220
0
230
1
50
360
0
ENDBLK
5
24D
100
AcDbEntity
8
0
100
AcDbBlockEnd
0
BLOCK
5
262
100
AcDbEntity
8
0
100
AcDbBlockBegin
2
_U3
70
0
10
0
20
0
30
0
3
_U3
0
MTEXT
5
258
100
AcDbEntity
8
SK2
62
256
6
ByLayer
370
18
48
1
60
0
100
AcDbMText
10
20.610769
20
5.276741
30
0
210
0
220
0
230
1
1
\W0.6920;40
40
3.50012
41
0
44
1.084337
50
90
71
7
72
5
7
iso_b_vert
0
LINE
5
259
100
AcDbEntity
8
SK2
62
256
6
ByLayer
370
13
48
1
60
0
100
AcDbLine
10
1.0875
20
20
30
0
11
24.475426
21
20
31
0
39
0
210
0
220
0
230
1
0
LINE
5
25A
100
AcDbEntity
8
SK2
62
256
6
ByLayer
370
13
48
1
60
0
100
AcDbLine
10
1.0875
20
-20
30
0
11
24.475426
21
-20
31
0
39
0
210
0
220
0
230
1
0
LINE
5
25B
100
AcDbEntity
8
SK2
62
256
6
ByLayer
370
13
48
1
60
0
100
AcDbLine
10
21.300426
20
20
30
0
11
21.300426
21
-20
31
0
39
0
210
0
220
0
230
1
0
LINE
5
25C
100
AcDbEntity
8
SK2
62
256
6
ByLayer
370
13
48
1
60
0
100
AcDbLine
10
21.300426
20
20
30
0
11
21.718423
21
16.825002
31
0
39
0
210
0
220
0
230
1
0
LINE
5
25D
100
AcDbEntity
8
SK2
62
256
6
ByLayer
370
13
48
1
60
0
100
AcDbLine
10
21.300426
20
20
30
0
11
20.882429
21
16.824998
31
0
39
0
210
0
220
0
230
1
0
LINE
5
25E
100
AcDbEntity
8
SK2
62
256
6
ByLayer
370
13
48
1
60
0
100
AcDbLine
10
21.718423
20
16.825002
30
0
11
20.882429
21
16.824998
31
0
39
0
210
0
220
0
230
1
0
LINE
5
25F
100
AcDbEntity
8
SK2
62
256
6
ByLayer
370
13
48
1
60
0
100
AcDbLine
10
21.300426
20
-20
30
0
11
20.882429
21
-16.825002
31
0
39
0
210
0
220
0
230
1
0
LINE
5
260
100
AcDbEntity
8
SK2
62
256
6
ByLayer
370
13
48
1
60
0
100
AcDbLine
10
21.300426
20
-20
30
0
11
21.718423
21
-16.824998
31
0
39
0
210
0
220
0
230
1
0
LINE
5
261
100
AcDbEntity
8
SK2
62
256
6
ByLayer
370
13
48
1
60
0
100
AcDbLine
10
20.882429
20
-16.825002
30
0
11
21.718423
21
-16.824998
31
0
39
0
210
0
220
0
230
1
0
ENDBLK
5
263
100
AcDbEntity
8
0
100
AcDbBlockEnd
0
ENDSEC
0
SECTION
2
ENTITIES
0
ARC
5
12F
100
AcDbEntity
8
SK1
62
256
6
ByLayer
370
18
48
1
60
0
100
AcDbCircle
39
0
10
0.240519
20
5.25
30
0
40
0.204499999999988
210
0
220
0
230
-1
100
AcDbArc
50
300
51
60
0
ARC
5
130
100
AcDbEntity
8
SK1
62
256
6
ByLayer
370
18
48
1
60
0
100
AcDbCircle
39
0
10
-0.174981
20
4.60077
30
0
40
0.149999999999843
210
0
220
0
230
-1
100
AcDbArc
50
120
51
180
0
ARC
5
131
100
AcDbEntity
8
SK1
62
256
6
ByLayer
370
18
48
1
60
0
100
AcDbCircle
39
0
10
-0.174981
20
4.39923
30
0
40
0.150000000000217
210
0
220
0
230
-1
100
AcDbArc
50
180
51
240
0
ARC
5
132
100
AcDbEntity
8
SK1
62
256
6
ByLayer
370
18
48
1
60
0
100
AcDbCircle
39
0
10
0.240519
20
3.75
30
0
40
0.204500000000003
210
0
220
0
230
-1
100
AcDbArc
50
300
51
60
0
ARC
5
133
100
AcDbEntity
8
SK1
62
256
6
ByLayer
370
18
48
1
60
0
100
AcDbCircle
39
0
10
-0.174981
20
3.10077
30
0
40
0.14999999999964
210
0
220
0
230
-1
100
AcDbArc
50
120
51
180
0
ARC
5
134
100
AcDbEntity
8
SK1
62
256
6
ByLayer
370
18
48
1
60
0
100
AcDbCircle
39
0
10
-0.174981
20
2.89923
30
0
40
0.150000000000768
210
0
220
0
230
-1
100
AcDbArc
50
180
51
240
0
ARC
5
135
100
AcDbEntity
8
SK1
62
256
6
ByLayer
370
18
48
1
60
0
100
AcDbCircle
39
0
10
0.240519
20
2.25
30
0
40
0.204499999999997
210
0
220
0
230
-1
100
AcDbArc
50
300
51
60
0
ARC
5
136
100
AcDbEntity
8
SK1
62
256
6
ByLayer
370
18
48
1
60
0
100
AcDbCircle
39
0
10
-0.174981
20
1.60077
30
0
40
0.150000000000713
210
0
220
0
230
-1
100
AcDbArc
50
120
51
180
0
ARC
5
137
100
AcDbEntity
8
SK1
62
256
6
ByLayer
370
18
48
1
60
0
100
AcDbCircle
39
0
10
-0.174981
20
1.39923
30
0
40
0.150000000000799
210
0
220
0
230
-1
100
AcDbArc
50
180
51
240
0
ARC
5
138
100
AcDbEntity
8
SK1
62
256
6
ByLayer
370
18
48
1
60
0
100
AcDbCircle
39
0
10
0.240519
20
0.75
30
0
40
0.204500000000015
210
0
220
0
230
-1
100
AcDbArc
50
300
51
60
0
ARC
5
139
100
AcDbEntity
8
SK1
62
256
6
ByLayer
370
18
48
1
60
0
100
AcDbCircle
39
0
10
-0.174981
20
0.10077
30
0
40
0.150000000000333
210
0
220
0
230
-1
100
AcDbArc
50
120
51
180
0
ARC
5
13A
100
AcDbEntity
8
SK1
62
256
6
ByLayer
370
18
48
1
60
0
100
AcDbCircle
39
0
10
-0.174981
20
-0.10077
30
0
40
0.150000000000783
210
0
220
0
230
-1
100
AcDbArc
50
180
51
240
0
ARC
5
13B
100
AcDbEntity
8
SK1
62
256
6
ByLayer
370
18
48
1
60
0
100
AcDbCircle
39
0
10
0.240519
20
-0.75
30
0
40
0.204499999999974
210
0
220
0
230
-1
100
AcDbArc
50
300
51
60
0
ARC
5
13C
100
AcDbEntity
8
SK1
62
256
6
ByLayer
370
18
48
1
60
0
100
AcDbCircle
39
0
10
-0.174981
20
-1.39923
30
0
40
0.150000000000321
210
0
220
0
230
-1
100
AcDbArc
50
120
51
180
0
ARC
5
13D
100
AcDbEntity
8
SK1
62
256
6
ByLayer
370
18
48
1
60
0
100
AcDbCircle
39
0
10
-0.174981
20
-1.60077
30
0
40
0.150000000000789
210
0
220
0
230
-1
100
AcDbArc
50
180
51
240
0
ARC
5
13E
100
AcDbEntity
8
SK1
62
256
6
ByLayer
370
18
48
1
60
0
100
AcDbCircle
39
0
10
0.240519
20
-2.25
30
0
40
0.204499999999988
210
0
220
0
230
-1
100
AcDbArc
50
300
51
60
0
ARC
5
13F
100
AcDbEntity
8
SK1
62
256
6
ByLayer
370
18
48
1
60
0
100
AcDbCircle
39
0
10
-0.174981
20
-2.89923
30
0
40
0.149999999999603
210
0
220
0
230
-1
100
AcDbArc
50
120
51
180
0
ARC
5
140
100
AcDbEntity
8
SK1
62
256
6
ByLayer
370
18
48
1
60
0
100
AcDbCircle
39
0
10
-0.174981
20
-3.10077
30
0
40
0.150000000000321
210
0
220
0
230
-1
100
AcDbArc
50
180
51
240
0
ARC
5
141
100
AcDbEntity
8
SK1
62
256
6
ByLayer
370
18
48
1
60
0
100
AcDbCircle
39
0
10
0.240519
20
-3.75
30
0
40
0.204499999999996
210
0
220
0
230
-1
100
AcDbArc
50
300
51
60
0
ARC
5
142
100
AcDbEntity
8
SK1
62
256
6
ByLayer
370
18
48
1
60
0
100
AcDbCircle
39
0
10
-0.174981
20
-4.39923
30
0
40
0.150000000000425
210
0
220
0
230
-1
100
AcDbArc
50
120
51
180
0
ARC
5
143
100
AcDbEntity
8
SK1
62
256
6
ByLayer
370
18
48
1
60
0
100
AcDbCircle
39
0
10
-0.174981
20
-4.60077
30
0
40
0.149999999999661
210
0
220
0
230
-1
100
AcDbArc
50
180
51
240
0
ARC
5
144
100
AcDbEntity
8
SK1
62
256
6
ByLayer
370
18
48
1
60
0
100
AcDbCircle
39
0
10
0.240519
20
-5.25
30
0
40
0.20449999999999
210
0
220
0
230
-1
100
AcDbArc
50
300
51
60
0
ARC
5
145
100
AcDbEntity
8
1
62
256
6
ByLayer
370
18
48
1
60
0
100
AcDbCircle
39
0
10
3.07
20
-21.85
30
0
40
1.6
210
0
220
0
230
-1
100
AcDbArc
50
0
51
90
0
ARC
5
146
100
AcDbEntity
8
SK1
62
256
6
ByLayer
370
18
48
1
60
0
100
AcDbCircle
39
0
10
-0.174981
20
-16.60077
30
0
40
0.149999999999715
210
0
220
0
230
-1
100
AcDbArc
50
180
51
240
0
ARC
5
147
100
AcDbEntity
8
SK1
62
256
6
ByLayer
370
18
48
1
60
0
100
AcDbCircle
39
0
10
0.240519
20
-17.25
30
0
40
0.204499999999997
210
0
220
0
230
-1
100
AcDbArc
50
300
51
60
0
ARC
5
148
100
AcDbEntity
8
SK1
62
256
6
ByLayer
370
18
48
1
60
0
100
AcDbCircle
39
0
10
-0.174981
20
-17.89923
30
0
40
0.150000000000329
210
0
220
0
230
-1
100
AcDbArc
50
120
51
180
0
ARC
5
149
100
AcDbEntity
8
SK1
62
256
6
ByLayer
370
18
48
1
60
0
100
AcDbCircle
39
0
10
-0.174981
20
-18.10077
30
0
40
0.149999999999716
210
0
220
0
230
-1
100
AcDbArc
50
180
51
240
0
ARC
5
14A
100
AcDbEntity
8
SK1
62
256
6
ByLayer
370
18
48
1
60
0
100
AcDbCircle
39
0
10
0.240519
20
-18.75
30
0
40
0.204500000000007
210
0
220
0
230
-1
100
AcDbArc
50
300
51
60
0
ARC
5
14B
100
AcDbEntity
8
1
62
256
6
ByLayer
370
18
48
1
60
0
100
AcDbCircle
39
0
10
-17.616874
20
-65.6
30
0
40
0.4
210
0
220
0
230
1
100
AcDbArc
50
176.667001
51
270
0
ARC
5
14C
100
AcDbEntity
8
1
62
256
6
ByLayer
370
18
48
1
60
0
100
AcDbCircle
39
0
10
12.383126
20
-65.6
30
0
40
0.4
210
0
220
0
230
-1
100
AcDbArc
50
176.667001
51
270
0
ARC
5
14D
100
AcDbEntity
8
1
62
256
6
ByLayer
370
18
48
1
60
0
100
AcDbCircle
39
0
10
17.616874
20
-41.4
30
0
40
0.4
210
0
220
0
230
-1
100
AcDbArc
50
356.667001
51
74.699269
0
ELLIPSE
5
14E
100
AcDbEntity
8
1
62
256
6
ByLayer
370
18
48
1
60
0
100
AcDbEllipse
10
132
20
4.822744
30
0
11
3.27769515332482E-14
21
-178.435306610657
31
0
210
0
220
0
230
-1
40
0.8391
41
1.38131930765004
42
1.50667116698712
0
ELLIPSE
5
14F
100
AcDbEntity
8
1
62
256
6
ByLayer
370
18
48
1
60
0
100
AcDbEllipse
10
132
20
1.711296
30
0
11
3.27769515406243E-14
21
-178.435306650812
31
0
210
0
220
0
230
-1
40
0.8391
41
1.38131930769222
42
1.5169217334942
0
ELLIPSE
5
150
100
AcDbEntity
8
1
62
256
6
ByLayer
370
18
48
1
60
0
100
AcDbEllipse
10
131.999979
20
-55.765004
30
0
11
-149.616111564196
21
-9.52542363727955
31
0
210
0
220
0
230
-1
40
0.599306
41
0.203267413361478
42
0.227613819190116
0
ELLIPSE
5
151
100
AcDbEntity
8
1
62
256
6
ByLayer
370
18
48
1
60
0
100
AcDbEllipse
10
132
20
-50.45241
30
0
11
-149.725000033531
21
-1.69653351192806E-13
31
0
210
0
220
0
230
-1
40
0.140541
41
0.0662500302339942
42
0.165130614951542
0
ELLIPSE
5
152
100
AcDbEntity
8
1
62
256
6
ByLayer
370
18
48
1
60
0
100
AcDbEllipse
10
132.000001
20
-60.470389
30
0
11
4.23511032667127E-14
21
-230.556282484962
31
0
210
0
220
0
230
-1
40
0.649408
41
1.58283199408011
42
1.60850836573984
0
ELLIPSE
5
153
100
AcDbEntity
8
1
62
256
6
ByLayer
370
18
48
1
60
0
100
AcDbEllipse
10
141.753358
20
2222.508603
30
0
11
-28.44285373269
21
-13632.5745906721
31
0
210
0
220
0
230
-1
40
0.011511
41
1.40273492910521
42
1.40353835137846
0
ELLIPSE
5
154
100
AcDbEntity
8
1
62
256
6
ByLayer
370
18
48
1
60
0
100
AcDbEllipse
10
132.054958
20
-247.960118
30
0
11
-26.5788923965752
21
1238.7344478217
31
0
210
0
220
0
230
-1
40
0.118995
41
-1.40465092582338
42
-1.40268148540709
0
ELLIPSE
5
155
100
AcDbEntity
8
1
62
256
6
ByLayer
370
18
48
1
60
0
100
AcDbEllipse
10
111.746896
20
499.780351
30
0
11
-21.5485223189973
21
-4187.82223706294
31
0
210
0
220
0
230
-1
40
0.030485
41
1.43681975620596
42
1.43712248810445
0
ELLIPSE
5
156
100
AcDbEntity
8
1
62
256
6
ByLayer
370
18
48
1
60
0
100
AcDbEllipse
10
232.14998
20
-51.684921
30
0
11
-244.297217993124
21
-15.5533643192686
31
0
210
0
220
0
230
-1
40
0.599306
41
0.137319560262446
42
0.153743337874756
0
ELLIPSE
5
157
100
AcDbEntity
8
1
62
256
6
ByLayer
370
18
48
1
60
0
100
AcDbEllipse
10
-13.123817
20
-45.831566
30
0
11
-1.64863242809077
21
-0.0671648497916547
31
0
210
0
220
0
230
1
40
0.514724
41
0
42
6.28318530717959
0
ELLIPSE
5
158
100
AcDbEntity
8
1
62
256
6
ByLayer
370
18
48
1
60
0
100
AcDbEllipse
10
232.149929
20
1.711287
30
0
11
-2.52674148595527E-05
21
291.353916633344
31
0
210
0
220
0
230
-1
40
0.8391
41
-1.6864027970705
42
-1.67565833928476
0
ELLIPSE
5
159
100
AcDbEntity
8
1
62
256
6
ByLayer
370
18
48
1
60
0
100
AcDbEllipse
10
232.149934
20
-60.470389
30
0
11
6.91520089548233E-14
21
-376.458436291131
31
0
210
0
220
0
230
-1
40
0.649408
41
1.57815381166179
42
1.59388907360878
0
ELLIPSE
5
15A
100
AcDbEntity
8
1
62
256
6
ByLayer
370
18
48
1
60
0
100
AcDbEllipse
10
232.15
20
-50.45241
30
0
11
-244.475000133572
21
-2.77014546977684E-13
31
0
210
0
220
0
230
-1
40
0.140541
41
0.0405552670962965
42
0.0991827799273243
0
ELLIPSE
5
15B
100
AcDbEntity
8
1
62
256
6
ByLayer
370
18
48
1
60
0
100
AcDbEllipse
10
-13.64558
20
-48.775869
30
0
11
-1.50140611130713
21
0.00890147769260287
31
0
210
0
220
0
230
-1
40
0.191592
41
-1.42864509384404
42
-1.77481711822134
0
ELLIPSE
5
15C
100
AcDbEntity
8
1
62
256
6
ByLayer
370
18
48
1
60
0
100
AcDbEllipse
10
-15.710393
20
-49.2316
30
0
11
-1.5056051570294
21
-0.0135227138719567
31
0
210
0
220
0
230
-1
40
0.17137
41
0.782031809247795
42
2.46428616398866
0
ELLIPSE
5
15D
100
AcDbEntity
8
1
62
256
6
ByLayer
370
18
48
1
60
0
100
AcDbEllipse
10
-14.057442
20
-48.127335
30
0
11
-1.50299272927036
21
-0.0174999154046062
31
0
210
0
220
0
230
-1
40
0.223308
41
0
42
6.28318530717959
0
ELLIPSE
5
15E
100
AcDbEntity
8
1
62
256
6
ByLayer
370
18
48
1
60
0
100
AcDbEllipse
10
-14.757446
20
-37.210171
30
0
11
-1.23624418759433
21
-14.7272957882673
31
0
210
0
220
0
230
-1
40
0.10139
41
-0.156184923711051
42
0.139163554045483
0
ELLIPSE
5
15F
100
AcDbEntity
8
1
62
256
6
ByLayer
370
18
48
1
60
0
100
AcDbEllipse
10
120.363362
20
-827.238312
30
0
11
-15.5749570176788
21
5378.44600946378
31
0
210
0
220
0
230
-1
40
0.0245
41
-1.42739152436455
42
-1.42684283289691
0
ELLIPSE
5
160
100
AcDbEntity
8
1
62
256
6
ByLayer
370
18
48
1
60
0
100
AcDbEllipse
10
-12.641251
20
-59.044631
30
0
11
7.95652931029965E-17
21
-0.433147587139048
31
0
210
0
220
0
230
-1
40
0.230868
41
2.96704007723139
42
3.14159265358979
0
ELLIPSE
5
161
100
AcDbEntity
8
1
62
256
6
ByLayer
370
18
48
1
60
0
100
AcDbEllipse
10
-17.358749
20
-59.044631
30
0
11
7.95652931028979E-17
21
-0.433147587138511
31
0
210
0
220
0
230
-1
40
0.230868
41
3.14159265358979
42
-2.96704007723131
0
ELLIPSE
5
162
100
AcDbEntity
8
1
62
256
6
ByLayer
370
18
48
1
60
0
100
AcDbEllipse
10
-15.667299
20
-60.336487
30
0
11
7.95652931536691E-17
21
-0.433147587414906
31
0
210
0
220
0
230
-1
40
0.230868
41
-2.96705972839745
42
-2.47750918246123
0
ELLIPSE
5
163
100
AcDbEntity
8
1
62
256
6
ByLayer
370
18
48
1
60
0
100
AcDbEllipse
10
-14.332701
20
-60.336487
30
0
11
7.95652931624957E-17
21
-0.433147587462957
31
0
210
0
220
0
230
-1
40
0.230868
41
2.47750918249681
42
2.96705972839782
0
ELLIPSE
5
164
100
AcDbEntity
8
1
62
256
6
ByLayer
370
18
48
1
60
0
100
AcDbEllipse
10
-13.123817
20
-45.831566
30
0
11
1.49875675280979
21
0.0610589543560479
31
0
210
0
220
0
230
1
40
0.514724
41
0
42
6.28318530717959
0
POINT
5
70
100
AcDbEntity
8
80
62
256
6
ByLayer
370
18
48
1
60
0
100
AcDbPoint
10
0
20
0
30
0
39
0
210
0
220
0
230
1
50
360
0
POINT
5
72
100
AcDbEntity
8
81
62
256
6
ByLayer
370
18
48
1
60
0
100
AcDbPoint
10
-18.040846
20
-66
30
0
39
0
210
0
220
0
230
1
50
360
0
SPLINE
5
165
100
AcDbEntity
8
1
62
256
6
ByLayer
370
18
48
1
60
0
100
AcDbSpline
70
4
71
3
72
24
73
20
40
0
40
0
40
0
40
0
40
0.144258431693114
40
0.144258431693114
40
0.216387647539671
40
0.216387647539671
40
0.288516863386228
40
0.288516863386228
40
0.432775295079342
40
0.432775295079342
40
0.577033726772456
40
0.577033726772456
40
0.721292158465571
40
0.721292158465571
40
0.793421374312125
40
0.793421374312125
40
0.865550590158679
40
0.865550590158679
40
1
40
1
40
1
40
1
41
1
10
-17.7202966432143
20
-41.25
30
4.861E-13
41
1
10
-17.7202966432143
20
-41.1509589859165
30
4.861E-13
41
1
10
-17.7203745261548
20
-41.0535721655644
30
4.861E-13
41
1
10
-17.7205952886052
20
-40.9098717068766
30
4.861E-13
41
1
10
-17.7206861758951
20
-40.8623711287015
30
4.861E-13
41
1
10
-17.7208999746655
20
-40.7681873054184
30
4.861E-13
41
1
10
-17.7210234416386
20
-40.7213742686301
30
4.861E-13
41
1
10
-17.721427528057
20
-40.585195738996
30
4.861E-13
41
1
10
-17.7217437477223
20
-40.4990759677083
30
4.861E-13
41
1
10
-17.7224224682431
20
-40.3360830342228
30
4.861E-13
41
1
10
-17.7227872741291
20
-40.2589000969692
30
4.861E-13
41
1
10
-17.7234778314647
20
-40.1205388356126
30
4.861E-13
41
1
10
-17.7238072230536
20
-40.0584457755883
30
4.861E-13
41
1
10
-17.7242349727251
20
-39.9761879325923
30
4.861E-13
41
1
10
-17.7243661607481
20
-39.950640058879
30
4.861E-13
41
1
10
-17.7245941694003
20
-39.9043326995108
30
4.861E-13
41
1
10
-17.7246918452222
20
-39.8834120633717
30
4.861E-13
41
1
10
-17.7249178085976
20
-39.8297927872176
30
4.861E-13
41
1
10
-17.7249996724903
20
-39.8023898446096
30
4.861E-13
41
1
10
-17.7249999890661
20
-39.7831524635442
30
4.861E-13
0
SPLINE
5
166
100
AcDbEntity
8
SK1
62
256
6
ByLayer
370
18
48
1
60
0
100
AcDbSpline
70
4
71
3
72
8
73
4
40
0
40
0
40
0
40
0
40
1
40
1
40
1
40
1
41
1
10
-0.342769052838264
20
-9.92710219507396
30
4.861E-13
41
1
10
-0.200228104510074
20
-10.0093982499618
30
4.861E-13
41
1
10
-0.0693189021619105
20
-10.0849787131769
30
4.861E-13
41
1
10
0.0469703231316885
20
-10.152118328704
30
4.861E-13
0
SPLINE
5
167
100
AcDbEntity
8
SK1
62
256
6
ByLayer
370
18
48
1
60
0
100
AcDbSpline
70
4
71
3
72
8
73
4
40
0
40
0
40
0
40
0
40
1
40
1
40
1
40
1
41
1
10
-0.126148905032608
20
-5.55216789572145
30
4.861E-13
41
1
10
-0.0001260536854772
20
-5.62492722287075
30
4.861E-13
41
1
10
0.125290129204359
20
-5.69733628982294
30
4.861E-13
41
1
10
0.249980947161618
20
-5.76932656713603
30
4.861E-13
0
SPLINE
5
168
100
AcDbEntity
8
SK1
62
256
6
ByLayer
370
18
48
1
60
0
100
AcDbSpline
70
4
71
3
72
10
73
6
40
0
40
0
40
0
40
0
40
0.5
40
0.5
40
1
40
1
40
1
40
1
41
1
10
0.324980947161663
20
-5.89923037770376
30
4.861E-13
41
1
10
0.324980947161663
20
-5.86925980150139
30
4.861E-13
41
1
10
0.31541920583507
20
-5.84050503820618
30
4.861E-13
41
1
10
0.287575493106886
20
-5.79678996467396
30
4.861E-13
41
1
10
0.269423016056436
20
-5.78055145084602
30
4.861E-13
41
1
10
0.249980947161646
20
-5.76932656713601
30
4.861E-13
0
SPLINE
5
169
100
AcDbEntity
8
SK1
62
256
6
ByLayer
370
18
48
1
60
0
100
AcDbSpline
70
4
71
3
72
10
73
6
40
0
40
0
40
0
40
0
40
0.5
40
0.5
40
1
40
1
40
1
40
1
41
1
10
0.249980947161703
20
-6.23067343286391
30
4.861E-13
41
1
10
0.269221301634246
20
-6.21956500902988
30
4.861E-13
41
1
10
0.287683543961578
20
-6.20323581555743
30
4.861E-13
41
1
10
0.315955426925655
20
-6.1584531740433
30
4.861E-13
41
1
10
0.324980948528605
20
-6.12971339378615
30
4.861E-13
41
1
10
0.324980947161663
20
-6.10076961521222
30
4.861E-13
0
SPLINE
5
16A
100
AcDbEntity
8
SK1
62
256
6
ByLayer
370
18
48
1
60
0
100
AcDbSpline
70
4
71
3
72
8
73
4
40
0
40
0
40
0
40
0
40
1
40
1
40
1
40
1
41
1
10
0.249980947161618
20
-6.23067343286397
30
4.861E-13
41
1
10
0.0532711848777012
20
-6.34424386707082
30
4.861E-13
41
1
10
-0.144388484030259
20
-6.45836273012276
30
4.861E-13
41
1
10
-0.342769052838406
20
-6.57289780492613
30
4.861E-13
0
SPLINE
5
16B
100
AcDbEntity
8
SK1
62
256
6
ByLayer
370
18
48
1
60
0
100
AcDbSpline
70
4
71
3
72
18
73
14
40
0
40
0
40
0
40
0
40
0.249999999999983
40
0.249999999999983
40
0.374999999999982
40
0.374999999999982
40
0.49999999999998
40
0.49999999999998
40
0.624999999999979
40
0.624999999999979
40
0.749999999999977
40
0.749999999999977
40
1
40
1
40
1
40
1
41
1
10
-0.342769052839571
20
-6.57289780491911
30
4.861E-13
41
1
10
-0.370516593263915
20
-6.58891785485204
30
4.861E-13
41
1
10
-0.397303986572183
20
-6.61292698995092
30
4.861E-13
41
1
10
-0.427069711749226
20
-6.6639379843231
30
4.861E-13
41
1
10
-0.434841942706129
20
-6.68302567681894
30
4.861E-13
41
1
10
-0.444310147221273
20
-6.72323929480854
30
4.861E-13
41
1
10
-0.445902567674096
20
-6.7442018249715
30
4.861E-13
41
1
10
-0.443169313479899
20
-6.78389511560462
30
4.861E-13
41
1
10
-0.438900918789187
20
-6.80280522841377
30
4.861E-13
41
1
10
-0.426637846290532
20
-6.83662304318065
30
4.861E-13
41
1
10
-0.418504222063262
20
-6.85201367673574
30
4.861E-13
41
1
10
-0.390918604963161
20
-6.89234207927842
30
4.861E-13
41
1
10
-0.367782685192367
20
-6.91266056770314
30
4.861E-13
41
1
10
-0.342769052829709
20
-6.92710219507944
30
4.861E-13
0
SPLINE
5
16C
100
AcDbEntity
8
SK1
62
256
6
ByLayer
370
18
48
1
60
0
100
AcDbSpline
70
4
71
3
72
8
73
4
40
0
40
0
40
0
40
0
40
1
40
1
40
1
40
1
41
1
10
-0.342769052829794
20
-6.92710219507885
30
4.861E-13
41
1
10
-0.141559860419505
20
-7.04327037648034
30
4.861E-13
41
1
10
0.0563906484607344
20
-7.15755715606858
30
4.861E-13
41
1
10
0.249980947161618
20
-7.26932656713603
30
4.861E-13
0
SPLINE
5
16D
100
AcDbEntity
8
SK1
62
256
6
ByLayer
370
18
48
1
60
0
100
AcDbSpline
70
4
71
3
72
12
73
8
40
0
40
0
40
0
40
0
40
0.250000000000002
40
0.250000000000002
40
0.500000000000004
40
0.500000000000004
40
1
40
1
40
1
40
1
41
1
10
0.324980947162771
20
-7.39923037770149
30
4.861E-13
41
1
10
0.324980947162516
20
-7.38337657086745
30
4.861E-13
41
1
10
0.322450175692978
20
-7.36837825477238
30
4.861E-13
41
1
10
0.31411165491005
20
-7.34142317214577
30
4.861E-13
41
1
10
0.308330050423791
20
-7.32935310050169
30
4.861E-13
41
1
10
0.287609551001026
20
-7.29688749110628
30
4.861E-13
41
1
10
0.269931169711441
20
-7.28084483349556
30
4.861E-13
41
1
10
0.249980947161618
20
-7.26932656713603
30
4.861E-13
0
SPLINE
5
16E
100
AcDbEntity
8
SK1
62
256
6
ByLayer
370
18
48
1
60
0
100
AcDbSpline
70
4
71
3
72
12
73
8
40
0
40
0
40
0
40
0
40
0.500000000000018
40
0.500000000000018
40
0.750000000000009
40
0.750000000000009
40
1
40
1
40
1
40
1
41
1
10
0.249980947161959
20
-7.73067343286519
30
4.861E-13
41
1
10
0.269423441542244
20
-7.71944830350108
30
4.861E-13
41
1
10
0.289029564075861
20
-7.70196041488734
30
4.861E-13
41
1
10
0.310297262082116
20
-7.66692217929645
30
4.861E-13
41
1
10
0.315981866199223
20
-7.65376622660901
30
4.861E-13
41
1
10
0.323277724085671
20
-7.62718865316549
30
4.861E-13
41
1
10
0.324980946025562
20
-7.61364114856781
30
4.861E-13
41
1
10
0.324980947161663
20
-7.60076963553595
30
4.861E-13
0
SPLINE
5
16F
100
AcDbEntity
8
SK1
62
256
6
ByLayer
370
18
48
1
60
0
100
AcDbSpline
70
4
71
3
72
8
73
4
40
0
40
0
40
0
40
0
40
1
40
1
40
1
40
1
41
1
10
0.249980947161618
20
-7.73067343286397
30
4.861E-13
41
1
10
0.0525430838766852
20
-7.84466423637974
30
4.861E-13
41
1
10
-0.145053884700019
20
-7.95874689937855
30
4.861E-13
41
1
10
-0.342769052838406
20
-8.07289780492613
30
4.861E-13
0
SPLINE
5
170
100
AcDbEntity
8
SK1
62
256
6
ByLayer
370
18
48
1
60
0
100
AcDbSpline
70
4
71
3
72
20
73
16
40
0
40
0
40
0
40
0
40
0.124999999999996
40
0.124999999999996
40
0.249999999999991
40
0.249999999999991
40
0.374999999999987
40
0.374999999999987
40
0.499999999999983
40
0.499999999999983
40
0.624999999999978
40
0.624999999999978
40
0.749999999999974
40
0.749999999999974
40
1
40
1
40
1
40
1
41
1
10
-0.342769052838463
20
-8.07289780491899
30
4.861E-13
41
1
10
-0.358292509144548
20
-8.08186027659571
30
4.861E-13
41
1
10
-0.373840112708223
20
-8.0935961735581
30
4.861E-13
41
1
10
-0.402117274927349
20
-8.12302489792023
30
4.861E-13
41
1
10
-0.414983786794949
20
-8.14098160453818
30
4.861E-13
41
1
10
-0.434460540703299
20
-8.18137308670541
30
4.861E-13
41
1
10
-0.440646639176208
20
-8.2030162989677
30
4.861E-13
41
1
10
-0.44601531082543
20
-8.24454042772553
30
4.861E-13
41
1
10
-0.445321800639732
20
-8.26441983775575
30
4.861E-13
41
1
10
-0.439548347043996
20
-8.300392829608
30
4.861E-13
41
1
10
-0.434428159406963
20
-8.31691561693782
30
4.861E-13
41
1
10
-0.421597423724734
20
-8.34637979558781
30
4.861E-13
41
1
10
-0.413807258685097
20
-8.35960033832481
30
4.861E-13
41
1
10
-0.387312012959086
20
-8.3954483504375
30
4.861E-13
41
1
10
-0.366333953146238
20
-8.41349699353788
30
4.861E-13
41
1
10
-0.342769052838492
20
-8.42710219507401
30
4.861E-13
0
SPLINE
5
171
100
AcDbEntity
8
SK1
62
256
6
ByLayer
370
18
48
1
60
0
100
AcDbSpline
70
4
71
3
72
8
73
4
40
0
40
0
40
0
40
0
40
1
40
1
40
1
40
1
41
1
10
-0.342769052838406
20
-8.42710219507387
30
4.861E-13
41
1
10
-0.136066482638881
20
-8.54644197962077
30
4.861E-13
41
1
10
0.062536339194196
20
-8.66110537226791
30
4.861E-13
41
1
10
0.249980947161618
20
-8.76932656713606
30
4.861E-13
0
SPLINE
5
172
100
AcDbEntity
8
SK1
62
256
6
ByLayer
370
18
48
1
60
0
100
AcDbSpline
70
4
71
3
72
10
73
6
40
0
40
0
40
0
40
0
40
0.5
40
0.5
40
1
40
1
40
1
40
1
41
1
10
0.324980947161663
20
-8.89923037769213
30
4.861E-13
41
1
10
0.324980947159133
20
-8.86655406122375
30
4.861E-13
41
1
10
0.315260525494267
20
-8.84047279882148
30
4.861E-13
41
1
10
0.28846912336104
20
-8.79798193556155
30
4.861E-13
41
1
10
0.270641110941739
20
-8.78125471825555
30
4.861E-13
41
1
10
0.249980947161816
20
-8.76932656713572
30
4.861E-13
0
SPLINE
5
173
100
AcDbEntity
8
SK1
62
256
6
ByLayer
370
18
48
1
60
0
100
AcDbSpline
70
4
71
3
72
14
73
10
40
0
40
0
40
0
40
0
40
0.25
40
0.25
40
0.5
40
0.5
40
0.75
40
0.75
40
1
40
1
40
1
40
1
41
1
10
0.249980947161077
20
-9.23067343286613
30
4.861E-13
41
1
10
0.260244164922426
20
-9.224747961329
30
4.861E-13
41
1
10
0.270778577522549
20
-9.21705150636515
30
4.861E-13
41
1
10
0.290763328836391
20
-9.19717036212276
30
4.861E-13
41
1
10
0.299849915215702
20
-9.18511528382064
30
4.861E-13
41
1
10
0.313591135543021
20
-9.15987685939754
30
4.861E-13
41
1
10
0.318241784056994
20
-9.14694235130659
30
4.861E-13
41
1
10
0.323900489139646
20
-9.12264559791507
30
4.861E-13
41
1
10
0.324980945088157
20
-9.1114286884023
30
4.861E-13
41
1
10
0.324980947161663
20
-9.10076965147607
30
4.861E-13
0
SPLINE
5
174
100
AcDbEntity
8
SK1
62
256
6
ByLayer
370
18
48
1
60
0
100
AcDbSpline
70
4
71
3
72
8
73
4
40
0
40
0
40
0
40
0
40
1
40
1
40
1
40
1
41
1
10
0.249980947161333
20
-9.23067343286414
30
4.861E-13
41
1
10
0.0525671006114692
20
-9.34465037031146
30
4.861E-13
41
1
10
-0.145035952120594
20
-9.45873654599899
30
4.861E-13
41
1
10
-0.342769052838406
20
-9.57289780492613
30
4.861E-13
0
SPLINE
5
175
100
AcDbEntity
8
SK1
62
256
6
ByLayer
370
18
48
1
60
0
100
AcDbSpline
70
4
71
3
72
18
73
14
40
0
40
0
40
0
40
0
40
0.124999999999994
40
0.124999999999994
40
0.249999999999987
40
0.249999999999987
40
0.374999999999981
40
0.374999999999981
40
0.499999999999974
40
0.499999999999974
40
0.749999999999987
40
0.749999999999987
40
1
40
1
40
1
40
1
41
1
10
-0.342769052837838
20
-9.5728978049236
30
4.861E-13
41
1
10
-0.361659745428625
20
-9.58380435137585
30
4.861E-13
41
1
10
-0.381427263361957
20
-9.5994346114386
30
4.861E-13
41
1
10
-0.415201412962347
20
-9.64040468492163
30
4.861E-13
41
1
10
-0.428156283128999
20
-9.66518180396037
30
4.861E-13
41
1
10
-0.442739500660707
20
-9.71115740671527
30
4.861E-13
41
1
10
-0.445111268805192
20
-9.73216305181919
30
4.861E-13
41
1
10
-0.444921672841446
20
-9.76989222185932
30
4.861E-13
41
1
10
-0.442344734563505
20
-9.78660417650852
30
4.861E-13
41
1
10
-0.4302071274534
20
-9.83277421407414
30
4.861E-13
41
1
10
-0.416682839154959
20
-9.85712203954071
30
4.861E-13
41
1
10
-0.383930349616662
20
-9.89812835961129
30
4.861E-13
41
1
10
-0.364451801694344
20
-9.9145836541858
30
4.861E-13
41
1
10
-0.34276905283869
20
-9.92710219507438
30
4.861E-13
0
SPLINE
5
176
100
AcDbEntity
8
1
62
256
6
ByLayer
370
18
48
1
60
0
100
AcDbSpline
70
4
71
3
72
126
73
122
40
0
40
0
40
0
40
0
40
0.0156249999999995
40
0.0156249999999995
40
0.0312499999999989
40
0.0312499999999989
40
0.0624999999999978
40
0.0624999999999978
40
0.0703124999999977
40
0.0703124999999977
40
0.0781249999999976
40
0.0781249999999976
40
0.0937499999999976
40
0.0937499999999976
40
0.124999999999997
40
0.124999999999997
40
0.140624999999997
40
0.140624999999997
40
0.156249999999997
40
0.156249999999997
40
0.187499999999997
40
0.187499999999997
40
0.195312499999997
40
0.195312499999997
40
0.203124999999997
40
0.203124999999997
40
0.218749999999997
40
0.234374999999997
40
0.234374999999997
40
0.242187499999997
40
0.242187499999997
40
0.249999999999997
40
0.249999999999997
40
0.281249999999997
40
0.281249999999997
40
0.296874999999997
40
0.296874999999997
40
0.304687499999997
40
0.304687499999997
40
0.312499999999997
40
0.312499999999997
40
0.343749999999997
40
0.343749999999997
40
0.351562499999997
40
0.351562499999997
40
0.359374999999997
40
0.359374999999997
40
0.374999999999998
40
0.374999999999998
40
0.406249999999998
40
0.406249999999998
40
0.414062499999998
40
0.414062499999998
40
0.421874999999998
40
0.421874999999998
40
0.437499999999998
40
0.437499999999998
40
0.468749999999998
40
0.468749999999998
40
0.499999999999998
40
0.499999999999998
40
0.515624999999998
40
0.515624999999998
40
0.523437499999998
40
0.523437499999998
40
0.531249999999998
40
0.531249999999998
40
0.562499999999998
40
0.562499999999998
40
0.578124999999998
40
0.578124999999998
40
0.585937499999998
40
0.585937499999998
40
0.593749999999998
40
0.593749999999998
40
0.624999999999999
40
0.624999999999999
40
0.640624999999999
40
0.640624999999999
40
0.656249999999999
40
0.656249999999999
40
0.687499999999999
40
0.687499999999999
40
0.695312499999999
40
0.695312499999999
40
0.703124999999999
40
0.703124999999999
40
0.718749999999999
40
0.718749999999999
40
0.749999999999999
40
0.749999999999999
40
0.757812499999999
40
0.757812499999999
40
0.765624999999999
40
0.765624999999999
40
0.781249999999999
40
0.781249999999999
40
0.796874999999999
40
0.796874999999999
40
0.812499999999999
40
0.812499999999999
40
0.843749999999999
40
0.843749999999999
40
0.859374999999999
40
0.859374999999999
40
0.874999999999999
40
0.890624999999999
40
0.890624999999999
40
0.898437499999999
40
0.898437499999999
40
0.906249999999999
40
0.906249999999999
40
0.937499999999999
40
0.937499999999999
40
0.953124999999999
40
0.953124999999999
40
0.960937499999999
40
0.960937499999999
40
0.968749999999999
40
0.968749999999999
40
1
40
1
40
1
40
1
41
1
10
-15.8828802407229
20
14.1171197592775
30
4.861E-13
41
1
10
-15.8499477241776
20
14.1156334412208
30
4.861E-13
41
1
10
-15.8164852968628
20
14.1045505399372
30
4.861E-13
41
1
10
-15.7484801982817
20
14.0626121458436
30
4.861E-13
41
1
10
-15.7143058913513
20
14.0319403331517
30
4.861E-13
41
1
10
-15.6120243834471
20
13.9122758621874
30
4.861E-13
41
1
10
-15.5438482470679
20
13.7956875783306
30
4.861E-13
41
1
10
-15.4589630134843
20
13.6037131132925
30
4.861E-13
41
1
10
-15.4420035546973
20
13.56298763294
30
4.861E-13
41
1
10
-15.4081314826226
20
13.4767928551675
30
4.861E-13
41
1
10
-15.3911846325495
20
13.4312171835817
30
4.861E-13
41
1
10
-15.3409242190622
20
13.2886440373129
30
4.861E-13
41
1
10
-15.3080604931513
20
13.1855259121739
30
4.861E-13
41
1
10
-15.2115062902927
20
12.8525646684629
30
4.861E-13
41
1
10
-15.1498284325148
20
12.5993199028915
30
4.861E-13
41
1
10
-15.0621826154715
20
12.1711996340894
30
4.861E-13
41
1
10
-15.0337113421205
20
12.0198404739431
30
4.861E-13
41
1
10
-14.9797237316325
20
11.7069181415016
30
4.861E-13
41
1
10
-14.9540612970769
20
11.5447191997347
30
4.861E-13
41
1
10
-14.8811891669334
20
11.0411666066408
30
4.861E-13
41
1
10
-14.8380577342329
20
10.6830118977046
30
4.861E-13
41
1
10
-14.7918648734373
20
10.2058510585737
30
4.861E-13
41
1
10
-14.7830348606562
20
10.1091011487687
30
4.861E-13
41
1
10
-14.7663535463574
20
9.91470363725827
30
4.861E-13
41
1
10
-14.7584784699591
20
9.81681543042271
30
4.861E-13
41
1
10
-14.7362474490356
20
9.52111039521895
30
4.861E-13
41
1
10
-14.7103193534803
20
9.12140450443724
30
4.861E-13
41
1
10
-14.6919072976337
20
8.71091490311687
30
4.861E-13
41
1
10
-14.6810097426483
20
8.39892791838324
30
4.861E-13
41
1
10
-14.6778630991442
20
8.29424451625155
30
4.861E-13
41
1
10
-14.6725651870211
20
8.08347541867488
30
4.861E-13
41
1
10
-14.6704138380089
20
7.9772162148025
30
4.861E-13
41
1
10
-14.6622819562397
20
7.4480641988126
30
4.861E-13
41
1
10
-14.6639921973554
20
7.02747817708152
30
4.861E-13
41
1
10
-14.6785130114989
20
6.40058942037874
30
4.861E-13
41
1
10
-14.6853560571702
20
6.1922959070219
30
4.861E-13
41
1
10
-14.6986713411999
20
5.88088550348894
30
4.861E-13
41
1
10
-14.7036332605001
20
5.77701597631693
30
4.861E-13
41
1
10
-14.7144771084911
20
5.57165656684654
30
4.861E-13
41
1
10
-14.7203642504054
20
5.46998730673002
30
4.861E-13
41
1
10
-14.7520605875347
20
4.9665966336816
30
4.861E-13
41
1
10
-14.7846040082214
20
4.57961397572865
30
4.861E-13
41
1
10
-14.8337240960966
20
4.11533264823777
30
4.861E-13
41
1
10
-14.8439730743379
20
4.02345669170381
30
4.861E-13
41
1
10
-14.8653190249697
20
3.84169241654968
30
4.861E-13
41
1
10
-14.8764456744122
20
3.75158667398847
30
4.861E-13
41
1
10
-14.9107833483419
20
3.48670068617483
30
4.861E-13
41
1
10
-14.9349898255404
20
3.31689857558649
30
4.861E-13
41
1
10
-15.0112465807732
20
2.82718517933566
30
4.861E-13
41
1
10
-15.0669064694926
20
2.52679953141163
30
4.861E-13
41
1
10
-15.1419611222248
20
2.18432483134305
30
4.861E-13
41
1
10
-15.1572883433121
20
2.11732997640482
30
4.861E-13
41
1
10
-15.1882672964157
20
1.98765362006276
30
4.861E-13
41
1
10
-15.203907917953
20
1.925000105832
30
4.861E-13
41
1
10
-15.2512520522302
20
1.74346337970883
30
4.861E-13
41
1
10
-15.283376549221
20
1.63099011892467
30
4.861E-13
41
1
10
-15.3812375773908
20
1.31871520644947
30
4.861E-13
41
1
10
-15.4484919505205
20
1.14373863598226
30
4.861E-13
41
1
10
-15.58614397167
20
0.863389028297178
30
4.861E-13
41
1
10
-15.654508550457
20
0.762093568557589
30
4.861E-13
41
1
10
-15.7560592568529
20
0.666119708306184
30
4.861E-13
41
1
10
-15.7897453503686
20
0.643519235455784
30
4.861E-13
41
1
10
-15.8400052293874
20
0.623964782273191
30
4.861E-13
41
1
10
-15.8567137393664
20
0.619841492572675
30
4.861E-13
41
1
10
-15.890038474335
20
0.616476608220552
30
4.861E-13
41
1
10
-15.9066483148853
20
0.617252201417955
30
4.861E-13
41
1
10
-15.9886035712038
20
0.633299727540134
30
4.861E-13
41
1
10
-16.0513784641406
20
0.684640176646212
30
4.861E-13
41
1
10
-16.1416271693556
20
0.818244284019272
30
4.861E-13
41
1
10
-16.1710560741366
20
0.872271188494523
30
4.861E-13
41
1
10
-16.2142380296284
20
0.967960556634637
30
4.861E-13
41
1
10
-16.2285086468944
20
1.00240354423414
30
4.861E-13
41
1
10
-16.2565211270951
20
1.07573296872005
30
4.861E-13
41
1
10
-16.2702575469473
20
1.11458544350881
30
4.861E-13
41
1
10
-16.3376404037093
20
1.31960132282657
30
4.861E-13
41
1
10
-16.3874134568458
20
1.51775245205474
30
4.861E-13
41
1
10
-16.4565149278391
20
1.86600523527841
30
4.861E-13
41
1
10
-16.4786176424216
20
1.99064654931485
30
4.861E-13
41
1
10
-16.5210129278315
20
2.25769243215498
30
4.861E-13
41
1
10
-16.5409832589446
20
2.39807728600246
30
4.861E-13
41
1
10
-16.5974232003652
20
2.83856199003455
30
4.861E-13
41
1
10
-16.6304919859878
20
3.15809328522676
30
4.861E-13
41
1
10
-16.666674629281
20
3.5902645826796
30
4.861E-13
41
1
10
-16.6736512148743
20
3.67834996716866
30
4.861E-13
41
1
10
-16.6870889639984
20
3.85788864981106
30
4.861E-13
41
1
10
-16.6935433153909
20
3.94928479853866
30
4.861E-13
41
1
10
-16.7119474362855
20
4.22558573652091
30
4.861E-13
41
1
10
-16.7230143134709
20
4.41355091994248
30
4.861E-13
41
1
10
-16.7528432059431
20
4.98847217772976
30
4.861E-13
41
1
10
-16.7682697300595
20
5.3863565967049
30
4.861E-13
41
1
10
-16.7821909073032
20
5.90254422953186
30
4.861E-13
41
1
10
-16.7847066561778
20
6.00689835824363
30
4.861E-13
41
1
10
-16.7891557593925
20
6.21578955390726
30
4.861E-13
41
1
10
-16.7910948300295
20
6.32050414486241
30
4.861E-13
41
1
10
-16.7960702455999
20
6.63544836686015
30
4.861E-13
41
1
10
-16.7982673772062
20
6.84647667113484
30
4.861E-13
41
1
10
-16.800437030338
20
7.27067252619941
30
4.861E-13
41
1
10
-16.8003982375928
20
7.48448867077411
30
4.861E-13
41
1
10
-16.7980966015375
20
7.90722395637829
30
4.861E-13
41
1
10
-16.7958442317224
20
8.11690073682965
30
4.861E-13
41
1
10
-16.785815066899
20
8.74096294883554
30
4.861E-13
41
1
10
-16.7748079055301
20
9.15042490007099
30
4.861E-13
41
1
10
-16.7512142355812
20
9.75436648613476
30
4.861E-13
41
1
10
-16.7422513092568
20
9.95145455246004
30
4.861E-13
41
1
10
-16.7222082179315
20
10.3352850619408
30
4.861E-13
41
1
10
-16.7000193189078
20
10.7094958226888
30
4.861E-13
41
1
10
-16.6733836479971
20
11.0646659684213
30
4.861E-13
41
1
10
-16.6516275779277
20
11.3237898563661
30
4.861E-13
41
1
10
-16.6440784332154
20
11.4089535783186
30
4.861E-13
41
1
10
-16.6283598551362
20
11.5768155257862
30
4.861E-13
41
1
10
-16.6201963801915
20
11.6594203626767
30
4.861E-13
41
1
10
-16.5782229436226
20
12.0619490723978
30
4.861E-13
41
1
10
-16.5406540729373
20
12.3541621851713
30
4.861E-13
41
1
10
-16.477738610593
20
12.7489602492568
30
4.861E-13
41
1
10
-16.4556669962537
20
12.8732588435631
30
4.861E-13
41
1
10
-16.42077644554
20
13.0484735498806
30
4.861E-13
41
1
10
-16.4088294298671
20
13.1050726918486
30
4.861E-13
41
1
10
-16.3845677677461
20
13.2133554868357
30
4.861E-13
41
1
10
-16.3722264018507
20
13.265183856497
30
4.861E-13
41
1
10
-16.3094522446536
20
13.5129673496793
30
4.861E-13
41
1
10
-16.2558355847511
20
13.6751352068833
30
4.861E-13
41
1
10
-16.1984919280026
20
13.8015080719978
30
4.861E-13
0
SPLINE
5
177
100
AcDbEntity
8
1
62
256
6
ByLayer
370
18
48
1
60
0
100
AcDbSpline
70
4
71
3
72
8
73
4
40
0
40
0
40
0
40
0
40
1
40
1
40
1
40
1
41
1
10
-15.5781574876237
20
14.4218425123763
30
4.861E-13
41
1
10
-15.1658830375435
20
13.303859347653
30
4.861E-13
41
1
10
-14.7083881087164
20
12.0341412862153
30
4.861E-13
41
1
10
-14.2166338692753
20
10.6135198841349
30
4.861E-13
0
SPLINE
5
178
100
AcDbEntity
8
1
62
256
6
ByLayer
370
18
48
1
60
0
100
AcDbSpline
70
4
71
3
72
22
73
18
40
0
40
0
40
0
40
0
40
0.250000000000007
40
0.250000000000007
40
0.312500000000008
40
0.312500000000008
40
0.375000000000008
40
0.375000000000008
40
0.500000000000007
40
0.500000000000007
40
0.625000000000005
40
0.625000000000005
40
0.687500000000004
40
0.687500000000004
40
0.750000000000003
40
0.750000000000003
40
1
40
1
40
1
40
1
41
1
10
-14.2166338692753
20
10.613519884135
30
4.861E-13
41
1
10
-14.1233814655619
20
10.3441244221635
30
4.861E-13
41
1
10
-14.0372836304757
20
10.0274970361951
30
4.861E-13
41
1
10
-13.939615049025
20
9.57359053481738
30
4.861E-13
41
1
10
-13.9205863604896
20
9.47986012649653
30
4.861E-13
41
1
10
-13.8835958503855
20
9.28634648690075
30
4.861E-13
41
1
10
-13.8656139388942
20
9.18639623245025
30
4.861E-13
41
1
10
-13.8140906740577
20
8.8816256829117
30
4.861E-13
41
1
10
-13.7826994407353
20
8.67060881102523
30
4.861E-13
41
1
10
-13.7259497897203
20
8.2331656838542
30
4.861E-13
41
1
10
-13.7005905919324
20
8.00674010718356
30
4.861E-13
41
1
10
-13.6673581740838
20
7.65518885523974
30
4.861E-13
41
1
10
-13.6570570685179
20
7.53566081498013
30
4.861E-13
41
1
10
-13.6382635489404
20
7.29415406106918
30
4.861E-13
41
1
10
-13.6298057944374
20
7.17270195621381
30
4.861E-13
41
1
10
-13.5921571430103
20
6.56201964921109
30
4.861E-13
41
1
10
-13.5767001446316
20
6.0626867584366
30
4.861E-13
41
1
10
-13.5767001446316
20
5.55216789572154
30
4.861E-13
0
SPLINE
5
179
100
AcDbEntity
8
1
62
256
6
ByLayer
370
18
48
1
60
0
100
AcDbSpline
70
4
71
3
72
10
73
6
40
0
40
0
40
0
40
0
40
0.5
40
0.5
40
1
40
1
40
1
40
1
41
1
10
-13.8040403517837
20
-9.20523643832831
30
4.861E-13
41
1
10
-13.7520779295146
20
-8.8844390501597
30
4.861E-13
41
1
10
-13.7070311528912
20
-8.54836950900096
30
4.861E-13
41
1
10
-13.6309833219275
20
-7.84675125708921
30
4.861E-13
41
1
10
-13.5999766348338
20
-7.48120789639054
30
4.861E-13
41
1
10
-13.5767001446316
20
-7.09999999999928
30
4.861E-13
0
SPLINE
5
17A
100
AcDbEntity
8
1
62
256
6
ByLayer
370
18
48
1
60
0
100
AcDbSpline
70
4
71
3
72
8
73
4
40
0
40
0
40
0
40
0
40
1
40
1
40
1
40
1
41
1
10
-14.7449999771314
20
-14.7170423128081
30
4.861E-13
41
1
10
-14.4319405850381
20
-12.9631187112457
30
4.861E-13
41
1
10
-14.1151938244564
20
-11.1261865594761
30
4.861E-13
41
1
10
-13.8040403517837
20
-9.20523643832826
30
4.861E-13
0
SPLINE
5
17B
100
AcDbEntity
8
1
62
256
6
ByLayer
370
18
48
1
60
0
100
AcDbSpline
70
4
71
3
72
18
73
14
40
0
40
0
40
0
40
0
40
0.249999999999998
40
0.249999999999998
40
0.374999999999998
40
0.374999999999998
40
0.499999999999999
40
0.499999999999999
40
0.75
40
0.75
40
0.875
40
0.875
40
1
40
1
40
1
40
1
41
1
10
-15.0453522726917
20
-18.75
30
4.861E-13
41
1
10
-15.0453522726917
20
-18.3784207589299
30
4.861E-13
41
1
10
-15.0389072150509
20
-18.0126974233887
30
4.861E-13
41
1
10
-15.0198914997835
20
-17.4725162050759
30
4.861E-13
41
1
10
-15.0119829475089
20
-17.2938654927065
30
4.861E-13
41
1
10
-14.9929375920127
20
-16.9394260605679
30
4.861E-13
41
1
10
-14.9817289867348
20
-16.7627370560585
30
4.861E-13
41
1
10
-14.9436013331815
20
-16.245125718512
30
4.861E-13
41
1
10
-14.9123195138593
20
-15.91657895007
30
4.861E-13
41
1
10
-14.8564553511953
20
-15.4477564776437
30
4.861E-13
41
1
10
-14.8363338334104
20
-15.2955066933321
30
4.861E-13
41
1
10
-14.7929435156684
20
-14.9992196797209
30
4.861E-13
41
1
10
-14.7696554952262
20
-14.8551755111319
30
4.861E-13
41
1
10
-14.7449999771314
20
-14.7170423128081
30
4.861E-13
0
SPLINE
5
17C
100
AcDbEntity
8
1
62
256
6
ByLayer
370
18
48
1
60
0
100
AcDbSpline
70
4
71
3
72
80
73
76
40
0
40
0
40
0
40
0
40
0.0312499999999993
40
0.0312499999999993
40
0.0624999999999986
40
0.0624999999999986
40
0.0937499999999979
40
0.0937499999999979
40
0.124999999999997
40
0.124999999999997
40
0.156249999999997
40
0.156249999999997
40
0.171874999999996
40
0.171874999999996
40
0.187499999999996
40
0.187499999999996
40
0.218749999999996
40
0.218749999999996
40
0.234374999999996
40
0.234374999999996
40
0.249999999999996
40
0.249999999999996
40
0.281249999999996
40
0.281249999999996
40
0.296874999999996
40
0.296874999999996
40
0.312499999999996
40
0.312499999999996
40
0.343749999999997
40
0.343749999999997
40
0.374999999999997
40
0.374999999999997
40
0.406249999999997
40
0.406249999999997
40
0.437499999999997
40
0.437499999999997
40
0.468749999999997
40
0.468749999999997
40
0.499999999999998
40
0.499999999999998
40
0.531249999999998
40
0.531249999999998
40
0.562499999999998
40
0.562499999999998
40
0.593749999999998
40
0.593749999999998
40
0.624999999999998
40
0.624999999999998
40
0.656249999999999
40
0.656249999999999
40
0.671874999999999
40
0.671874999999999
40
0.687499999999999
40
0.687499999999999
40
0.718749999999999
40
0.718749999999999
40
0.734374999999999
40
0.734374999999999
40
0.749999999999999
40
0.749999999999999
40
0.781249999999999
40
0.781249999999999
40
0.796874999999999
40
0.796874999999999
40
0.8125
40
0.8125
40
0.84375
40
0.84375
40
0.875
40
0.875
40
0.90625
40
0.90625
40
0.9375
40
0.9375
40
1
40
1
40
1
40
1
41
1
10
-17.5077662551531
20
-7.89718373531295
30
4.861E-13
41
1
10
-17.5135904025843
20
-7.91622723073303
30
4.861E-13
41
1
10
-17.5193484805014
20
-7.92634086090607
30
4.861E-13
41
1
10
-17.5307207413345
20
-7.92858682680023
30
4.861E-13
41
1
10
-17.5362360420322
20
-7.92065417294418
30
4.861E-13
41
1
10
-17.5468613196035
20
-7.88749061912776
30
4.861E-13
41
1
10
-17.5519857970902
20
-7.86226247856644
30
4.861E-13
41
1
10
-17.5618726579281
20
-7.79393207221705
30
4.861E-13
41
1
10
-17.5665576931864
20
-7.7512418513418
30
4.861E-13
41
1
10
-17.5752987133535
20
-7.65087676979661
30
4.861E-13
41
1
10
-17.5793832507042
20
-7.59300926486085
30
4.861E-13
41
1
10
-17.5851088816666
20
-7.49435441898757
30
4.861E-13
41
1
10
-17.5869517733663
20
-7.45941733872118
30
4.861E-13
41
1
10
-17.5904422087111
20
-7.38683640481963
30
4.861E-13
41
1
10
-17.5920988751494
20
-7.34904777160296
30
4.861E-13
41
1
10
-17.5968189810188
20
-7.23127086965465
30
4.861E-13
41
1
10
-17.5996341398495
20
-7.14690103484392
30
4.861E-13
41
1
10
-17.6033912828522
20
-7.01136772758841
30
4.861E-13
41
1
10
-17.60456907094
20
-6.96450280486937
30
4.861E-13
41
1
10
-17.6067330115449
20
-6.86934511109615
30
4.861E-13
41
1
10
-17.6077240597913
20
-6.82090659086592
30
4.861E-13
41
1
10
-17.6104390637572
20
-6.67306664123268
30
4.861E-13
41
1
10
-17.6119069198866
20
-6.57115751463925
30
4.861E-13
41
1
10
-17.6136150534371
20
-6.41318179456746
30
4.861E-13
41
1
10
-17.6141031773284
20
-6.35941360812922
30
4.861E-13
41
1
10
-17.6148998866952
20
-6.25173024403375
30
4.861E-13
41
1
10
-17.6152099815235
20
-6.19777052254452
30
4.861E-13
41
1
10
-17.6158849603606
20
-6.03554563484912
30
4.861E-13
41
1
10
-17.6159967792711
20
-5.92693701221498
30
4.861E-13
41
1
10
-17.6155387679814
20
-5.70879093329447
30
4.861E-13
41
1
10
-17.6149594926047
20
-5.59902299239062
30
4.861E-13
41
1
10
-17.6131364895423
20
-5.38652938264136
30
4.861E-13
41
1
10
-17.6118931458663
20
-5.28277565806187
30
4.861E-13
41
1
10
-17.6087048754449
20
-5.0802915737485
30
4.861E-13
41
1
10
-17.6067426698681
20
-4.9811625464688
30
4.861E-13
41
1
10
-17.6021976911329
20
-4.79507831200911
30
4.861E-13
41
1
10
-17.5996046276336
20
-4.70720873750153
30
4.861E-13
41
1
10
-17.5937205842868
20
-4.54184015952708
30
4.861E-13
41
1
10
-17.5903999434372
20
-4.46393587555565
30
4.861E-13
41
1
10
-17.5832158991208
20
-4.32405644410363
30
4.861E-13
41
1
10
-17.579335277571
20
-4.2613926987577
30
4.861E-13
41
1
10
-17.5709437479758
20
-4.15058026323089
30
4.861E-13
41
1
10
-17.5663898817908
20
-4.10218237787743
30
4.861E-13
41
1
10
-17.5568860775745
20
-4.02337970935477
30
4.861E-13
41
1
10
-17.5519182286052
20
-3.99254381595452
30
4.861E-13
41
1
10
-17.5415223629703
20
-3.94787530879304
30
4.861E-13
41
1
10
-17.5360415836756
20
-3.93406641521568
30
4.861E-13
41
1
10
-17.5249199783082
20
-3.92473249352599
30
4.861E-13
41
1
10
-17.5192686868953
20
-3.92896323361953
30
4.861E-13
41
1
10
-17.5106609435379
20
-3.94849319751199
30
4.861E-13
41
1
10
-17.5077699279764
20
-3.95721131726032
30
4.861E-13
41
1
10
-17.5019456373157
20
-3.97917095187034
30
4.861E-13
41
1
10
-17.4990098576987
20
-3.99245028696942
30
4.861E-13
41
1
10
-17.4903057720625
20
-4.03836686355362
30
4.861E-13
41
1
10
-17.4845855974995
20
-4.07721478088163
30
4.861E-13
41
1
10
-17.4761557926074
20
-4.14763422806709
30
4.861E-13
41
1
10
-17.4733711396991
20
-4.17314203811415
30
4.861E-13
41
1
10
-17.4678596022772
20
-4.2283158608848
30
4.861E-13
41
1
10
-17.4651237378213
20
-4.25810529480353
30
4.861E-13
41
1
10
-17.4571561138263
20
-4.35222890722576
30
4.861E-13
41
1
10
-17.4521220841815
20
-4.42162765413005
30
4.861E-13
41
1
10
-17.4450209542985
20
-4.53548533454915
30
4.861E-13
41
1
10
-17.4427292572443
20
-4.57507266092395
30
4.861E-13
41
1
10
-17.4383068142571
20
-4.65758017816353
30
4.861E-13
41
1
10
-17.4361669864088
20
-4.70071180211289
30
4.861E-13
41
1
10
-17.4300993899633
20
-4.83327027962193
30
4.861E-13
41
1
10
-17.4265085423112
20
-4.92593848981665
30
4.861E-13
41
1
10
-17.4202623581062
20
-5.11963783755826
30
4.861E-13
41
1
10
-17.4175951991933
20
-5.22125595785647
30
4.861E-13
41
1
10
-17.4133408813587
20
-5.43070180620879
30
4.861E-13
41
1
10
-17.4117811728221
20
-5.53684853709882
30
4.861E-13
41
1
10
-17.4097851785525
20
-5.75189835261898
30
4.861E-13
41
1
10
-17.4093493232359
20
-5.86114281751441
30
4.861E-13
41
1
10
-17.4098165141569
20
-6.19106154812923
30
4.861E-13
41
1
10
-17.4124301970243
20
-6.40460720736212
30
4.861E-13
41
1
10
-17.4172681681212
20
-6.61160851593988
30
4.861E-13
0
SPLINE
5
17D
100
AcDbEntity
8
1
62
256
6
ByLayer
370
18
48
1
60
0
100
AcDbSpline
70
4
71
3
72
22
73
18
40
0
40
0
40
0
40
0
40
0.250000000000002
40
0.250000000000002
40
0.375000000000002
40
0.375000000000002
40
0.437500000000002
40
0.437500000000002
40
0.500000000000002
40
0.500000000000002
40
0.750000000000001
40
0.750000000000001
40
0.812500000000001
40
0.812500000000001
40
0.875000000000001
40
0.875000000000001
40
1
40
1
40
1
40
1
41
1
10
-17.6185433281539
20
-51.7777018864083
30
4.861E-13
41
1
10
-17.6095300981316
20
-51.4098464958383
30
4.861E-13
41
1
10
-17.5986383010602
20
-51.0741803122626
30
4.861E-13
41
1
10
-17.5787233858267
20
-50.6170597990112
30
4.861E-13
41
1
10
-17.5714845010776
20
-50.4724830823601
30
4.861E-13
41
1
10
-17.5595816759999
20
-50.2676850879249
30
4.861E-13
41
1
10
-17.5554397233717
20
-50.2014782056641
30
4.861E-13
41
1
10
-17.5468886296937
20
-50.074695666058
30
4.861E-13
41
1
10
-17.5424676324723
20
-50.0139069942201
30
4.861E-13
41
1
10
-17.5196040771941
20
-49.7227550585377
30
4.861E-13
41
1
10
-17.4989028532525
20
-49.530334401997
30
4.861E-13
41
1
10
-17.4693574904675
20
-49.3412854994319
30
4.861E-13
41
1
10
-17.463248981111
20
-49.3060071725596
30
4.861E-13
41
1
10
-17.4507372208868
20
-49.241258021018
30
4.861E-13
41
1
10
-17.444331812184
20
-49.2117523818486
30
4.861E-13
41
1
10
-17.4246552567595
20
-49.1317778361926
30
4.861E-13
41
1
10
-17.4109242480705
20
-49.089826665135
30
4.861E-13
41
1
10
-17.3965436697156
20
-49.0593647806764
30
4.861E-13
0
SPLINE
5
17E
100
AcDbEntity
8
1
62
256
6
ByLayer
370
18
48
1
60
0
100
AcDbSpline
70
4
71
3
72
8
73
4
40
0
40
0
40
0
40
0
40
1
40
1
40
1
40
1
41
1
10
-17.7149131580036
20
-57.5081129838473
30
4.861E-13
41
1
10
-17.7149222052126
20
-57.575907537011
30
4.861E-13
41
1
10
-17.7146620536819
20
-57.6424785139498
30
4.861E-13
41
1
10
-17.7141557521853
20
-57.6955568821781
30
4.861E-13
0
SPLINE
5
17F
100
AcDbEntity
8
1
62
256
6
ByLayer
370
18
48
1
60
0
100
AcDbSpline
70
4
71
3
72
8
73
4
40
0
40
0
40
0
40
0
40
1
40
1
40
1
40
1
41
1
10
-17.713757748284
20
-46.2148494830001
30
4.861E-13
41
1
10
-17.7135114384825
20
-46.3788946646171
30
4.861E-13
41
1
10
-17.7133969960591
20
-46.5435892555169
30
4.861E-13
41
1
10
-17.713420634311
20
-46.7089341890546
30
4.861E-13
0
SPLINE
5
180
100
AcDbEntity
8
1
62
256
6
ByLayer
370
18
48
1
60
0
100
AcDbSpline
70
4
71
3
72
12
73
8
40
0
40
0
40
0
40
0
40
0.5
40
0.5
40
0.75
40
0.75
40
1
40
1
40
1
40
1
41
1
10
-17.7202966432143
20
-42.7495599932293
30
4.861E-13
41
1
10
-17.7195505798004
20
-42.913188962245
30
4.861E-13
41
1
10
-17.7188614788835
20
-43.083436617644
30
4.861E-13
41
1
10
-17.7180247178374
20
-43.348327009135
30
4.861E-13
41
1
10
-17.7177782426496
20
-43.4382225166386
30
4.861E-13
41
1
10
-17.7173654792356
20
-43.6212888206925
30
4.861E-13
41
1
10
-17.7171994546222
20
-43.7145536820858
30
4.861E-13
41
1
10
-17.7170814176856
20
-43.8081929885012
30
4.861E-13
0
SPLINE
5
181
100
AcDbEntity
8
1
62
256
6
ByLayer
370
18
48
1
60
0
100
AcDbSpline
70
4
71
3
72
34
73
30
40
0
40
0
40
0
40
0
40
0.0706500017237988
40
0.0706500017237988
40
0.144320271954877
40
0.144320271954877
40
0.181155407070416
40
0.181155407070416
40
0.217990542185955
40
0.217990542185955
40
0.291660812417032
40
0.291660812417032
40
0.32849594753257
40
0.32849594753257
40
0.365331082648108
40
0.365331082648108
40
0.439001352879185
40
0.439001352879185
40
0.512671623110263
40
0.512671623110263
40
0.660012163572417
40
0.660012163572417
40
0.80735270403457
40
0.80735270403457
40
0.881022974265647
40
0.881022974265647
40
0.954693244496725
40
0.954693244496725
40
1
40
1
40
1
40
1
41
1
10
-17.7249996141483
20
-8.35370678267196
30
4.861E-13
41
1
10
-17.7249929352022
20
-8.40067688534307
30
4.861E-13
41
1
10
-17.7248998363243
20
-8.45550518998078
30
4.861E-13
41
1
10
-17.7245827527998
20
-8.579910814888
30
4.861E-13
41
1
10
-17.7243552611557
20
-8.64991128311576
30
4.861E-13
41
1
10
-17.7239584653336
20
-8.76451406206905
30
4.861E-13
41
1
10
-17.7238168812804
20
-8.80432312162509
30
4.861E-13
41
1
10
-17.7235218149589
20
-8.88722981278659
30
4.861E-13
41
1
10
-17.7233678863239
20
-8.93046120264256
30
4.861E-13
41
1
10
-17.7229067869361
20
-9.06283275251931
30
4.861E-13
41
1
10
-17.7225982617464
20
-9.1552740699359
30
4.861E-13
41
1
10
-17.7221707136146
20
-9.30009548970162
30
4.861E-13
41
1
10
-17.7220339969557
20
-9.34940092775463
30
4.861E-13
41
1
10
-17.721777684412
20
-9.45011463996229
30
4.861E-13
41
1
10
-17.7216576424142
20
-9.50176283256343
30
4.861E-13
41
1
10
-17.7213358039637
20
-9.65758072247436
30
4.861E-13
41
1
10
-17.7211714696449
20
-9.76285485898956
30
4.861E-13
41
1
10
-17.7209637314163
20
-9.97611858004913
30
4.861E-13
41
1
10
-17.7209204300925
20
-10.0846697707192
30
4.861E-13
41
1
10
-17.720989532845
20
-10.4109031021905
30
4.861E-13
41
1
10
-17.7213014161811
20
-10.6224843253166
30
4.861E-13
41
1
10
-17.7222875873805
20
-11.0316863693678
30
4.861E-13
41
1
10
-17.7229333736219
20
-11.2188989955281
30
4.861E-13
41
1
10
-17.7238385975413
20
-11.4736814161688
30
4.861E-13
41
1
10
-17.7241215158977
20
-11.5522677266302
30
4.861E-13
41
1
10
-17.7245909719217
20
-11.6959911884035
30
4.861E-13
41
1
10
-17.7247785525141
20
-11.7613527947108
30
4.861E-13
41
1
10
-17.7249580421656
20
-11.8560700205136
30
4.861E-13
41
1
10
-17.7249963265968
20
-11.8892433750516
30
4.861E-13
41
1
10
-17.7249995966658
20
-11.9193554264881
30
4.861E-13
0
SPLINE
5
182
100
AcDbEntity
8
1
62
256
6
ByLayer
370
18
48
1
60
0
100
AcDbSpline
70
2053
71
3
72
110
73
106
40
0
40
0
40
0
40
0
40
0.0312499999999994
40
0.0312499999999994
40
0.0468749999999991
40
0.0468749999999991
40
0.0624999999999988
40
0.0624999999999988
40
0.0937499999999981
40
0.0937499999999981
40
0.101562499999998
40
0.101562499999998
40
0.109374999999998
40
0.109374999999998
40
0.124999999999997
40
0.124999999999997
40
0.156249999999997
40
0.156249999999997
40
0.164062499999997
40
0.164062499999997
40
0.171874999999997
40
0.171874999999997
40
0.187499999999997
40
0.203124999999997
40
0.203124999999997
40
0.210937499999997
40
0.210937499999997
40
0.218749999999997
40
0.218749999999997
40
0.249999999999997
40
0.249999999999997
40
0.265624999999997
40
0.265624999999997
40
0.281249999999997
40
0.281249999999997
40
0.312499999999996
40
0.312499999999996
40
0.328124999999996
40
0.328124999999996
40
0.343749999999996
40
0.343749999999996
40
0.374999999999996
40
0.374999999999996
40
0.390624999999996
40
0.390624999999996
40
0.406249999999996
40
0.421874999999996
40
0.421874999999996
40
0.437499999999996
40
0.437499999999996
40
0.468749999999996
40
0.468749999999996
40
0.484374999999996
40
0.484374999999996
40
0.499999999999996
40
0.499999999999996
40
0.531249999999996
40
0.531249999999996
40
0.539062499999996
40
0.539062499999996
40
0.546874999999996
40
0.546874999999996
40
0.562499999999996
40
0.578124999999996
40
0.578124999999996
40
0.585937499999996
40
0.585937499999996
40
0.593749999999996
40
0.593749999999996
40
0.624999999999996
40
0.624999999999996
40
0.640624999999996
40
0.640624999999996
40
0.656249999999996
40
0.656249999999996
40
0.687499999999996
40
0.687499999999996
40
0.703124999999996
40
0.703124999999996
40
0.718749999999996
40
0.718749999999996
40
0.749999999999996
40
0.749999999999996
40
0.781249999999997
40
0.781249999999997
40
0.796874999999997
40
0.796874999999997
40
0.812499999999997
40
0.812499999999997
40
0.843749999999998
40
0.843749999999998
40
0.859374999999998
40
0.859374999999998
40
0.874999999999998
40
0.874999999999998
40
0.906249999999999
40
0.906249999999999
40
0.921874999999999
40
0.921874999999999
40
0.937499999999999
40
0.953124999999999
40
0.953124999999999
40
0.968749999999999
40
0.968749999999999
40
1
40
1
40
1
40
1
41
1
10
-16.8001411261687
20
-7.36729208785469
30
4.861E-13
41
1
10
-16.8001411261687
20
-6.91847181819352
30
4.861E-13
41
1
10
-16.7952111322306
20
-6.47725229380063
30
4.861E-13
41
1
10
-16.7805560515212
20
-5.82635446674237
30
4.861E-13
41
1
10
-16.7744486814977
20
-5.61122421849461
30
4.861E-13
41
1
10
-16.7596616108065
20
-5.18472105282055
30
4.861E-13
41
1
10
-16.750946643762
20
-4.97297877196027
30
4.861E-13
41
1
10
-16.7213546262148
20
-4.35746689229913
30
4.861E-13
41
1
10
-16.6969358379977
20
-3.96847390935301
30
4.861E-13
41
1
10
-16.6599913236082
20
-3.50869967103949
30
4.861E-13
41
1
10
-16.6522779886065
20
-3.41808017798374
30
4.861E-13
41
1
10
-16.6361743077445
20
-3.23955546973164
30
4.861E-13
41
1
10
-16.6277598122098
20
-3.15142493888189
30
4.861E-13
41
1
10
-16.6017055910889
20
-2.89366062191013
30
4.861E-13
41
1
10
-16.583226802662
20
-2.73018181782814
30
4.861E-13
41
1
10
-16.524349253735
20
-2.2640647975897
30
4.861E-13
41
1
10
-16.4805434835527
20
-1.98551688018841
30
4.861E-13
41
1
10
-16.4192342833744
20
-1.6785582766322
30
4.861E-13
41
1
10
-16.4066279116117
20
-1.61920569582409
30
4.861E-13
41
1
10
-16.3810126034803
20
-1.50596346506859
30
4.861E-13
41
1
10
-16.3679713363319
20
-1.4519021630083
30
4.861E-13
41
1
10
-16.3281361093117
20
-1.29725877356236
30
4.861E-13
41
1
10
-16.2731273452537
20
-1.11114047956079
30
4.861E-13
41
1
10
-16.2141646041336
20
-0.964576834032243
30
4.861E-13
41
1
10
-16.16837063802
20
-0.86968928193113
30
4.861E-13
41
1
10
-16.1528436983565
20
-0.840570343779916
30
4.861E-13
41
1
10
-16.1212463854012
20
-0.787442119761721
30
4.861E-13
41
1
10
-16.1052007440705
20
-0.763492842884403
30
4.861E-13
41
1
10
-16.024458515108
20
-0.657744481283316
30
4.861E-13
41
1
10
-15.9575776288195
20
-0.616420436090323
30
4.861E-13
41
1
10
-15.8537387902031
20
-0.617748613565396
30
4.861E-13
41
1
10
-15.8185389443765
20
-0.628818271360387
30
4.861E-13
41
1
10
-15.7469418078075
20
-0.672870004403023
30
4.861E-13
41
1
10
-15.7109560978171
20
-0.705648596208476
30
4.861E-13
41
1
10
-15.6032656132717
20
-0.834596476603423
30
4.861E-13
41
1
10
-15.5314878255219
20
-0.961286000491128
30
4.861E-13
41
1
10
-15.4243096425599
20
-1.21306828990402
30
4.861E-13
41
1
10
-15.3884921990682
20
-1.30794672367773
30
4.861E-13
41
1
10
-15.3185034128759
20
-1.51519623628931
30
4.861E-13
41
1
10
-15.2842282120997
20
-1.62769844326908
30
4.861E-13
41
1
10
-15.1837031087014
20
-1.99131226272644
30
4.861E-13
41
1
10
-15.11972177142
20
-2.26826986785196
30
4.861E-13
41
1
10
-15.0293875467687
20
-2.73804553743219
30
4.861E-13
41
1
10
-15.0005928052581
20
-2.90191547268634
30
4.861E-13
41
1
10
-14.9461234947434
20
-3.24152950780532
30
4.861E-13
41
1
10
-14.8946344961626
20
-3.59374200799502
30
4.861E-13
41
1
10
-14.8493608406468
20
-3.97106166468279
30
4.861E-13
41
1
10
-14.8074050351028
20
-4.36125746265523
30
4.861E-13
41
1
10
-14.7880070083214
20
-4.56391133646503
30
4.861E-13
41
1
10
-14.7362500627439
20
-5.17934020511922
30
4.861E-13
41
1
10
-14.709938178523
20
-5.60171328267415
30
4.861E-13
41
1
10
-14.6831480204352
20
-6.25324970265257
30
4.861E-13
41
1
10
-14.6763404791091
20
-6.47353778200747
30
4.861E-13
41
1
10
-14.6671986891054
20
-6.92002028439299
30
4.861E-13
41
1
10
-14.6649391239001
20
-7.14248976508185
30
4.861E-13
41
1
10
-14.6648768421225
20
-7.80766295883092
30
4.861E-13
41
1
10
-14.6737419939609
20
-8.24815242038989
30
4.861E-13
41
1
10
-14.6960032913783
20
-8.79500113366217
30
4.861E-13
41
1
10
-14.7010350472376
20
-8.90448765830135
30
4.861E-13
41
1
10
-14.7121511657814
20
-9.12136584795658
30
4.861E-13
41
1
10
-14.7182274478651
20
-9.22868082837471
30
4.861E-13
41
1
10
-14.7379638465702
20
-9.54732431212651
30
4.861E-13
41
1
10
-14.7682932360148
20
-9.9633941726803
30
4.861E-13
41
1
10
-14.8063047421043
20
-10.3622393225374
30
4.861E-13
41
1
10
-14.8376344194163
20
-10.6548566418089
30
4.861E-13
41
1
10
-14.8485484881075
20
-10.7513077486718
30
4.861E-13
41
1
10
-14.8713168227705
20
-10.9420002196992
30
4.861E-13
41
1
10
-14.8831860824839
20
-11.0363270817182
30
4.861E-13
41
1
10
-14.9441920531968
20
-11.4972838942109
30
4.861E-13
41
1
10
-14.9987287462345
20
-11.8363184166435
30
4.861E-13
41
1
10
-15.0880060408477
20
-12.3017579075574
30
4.861E-13
41
1
10
-15.1190203085921
20
-12.4496662734742
30
4.861E-13
41
1
10
-15.1834812274105
20
-12.7306119109654
30
4.861E-13
41
1
10
-15.2165644767008
20
-12.8620086532592
30
4.861E-13
41
1
10
-15.3173776621199
20
-13.2270441188318
30
4.861E-13
41
1
10
-15.3869500220849
20
-13.4331084378908
30
4.861E-13
41
1
10
-15.4941698290624
20
-13.6859415132734
30
4.861E-13
41
1
10
-15.5305559722666
20
-13.7609888660205
30
4.861E-13
41
1
10
-15.6027803457062
20
-13.8890058348691
30
4.861E-13
41
1
10
-15.6387501119491
20
-13.9423785022382
30
4.861E-13
41
1
10
-15.7461439772938
20
-14.0712634352742
30
4.861E-13
41
1
10
-15.8170455660523
20
-14.1158481366055
30
4.861E-13
41
1
10
-15.9571822648089
20
-14.1186677000473
30
4.861E-13
41
1
10
-16.0241916310442
20
-14.0768037935421
30
4.861E-13
41
1
10
-16.1202796268837
20
-13.9515315931217
30
4.861E-13
41
1
10
-16.1515792080292
20
-13.8992858298308
30
4.861E-13
41
1
10
-16.2127525710855
20
-13.7733160979526
30
4.861E-13
41
1
10
-16.2427529170913
20
-13.6991264524194
30
4.861E-13
41
1
10
-16.3288866639049
20
-13.4483135303905
30
4.861E-13
41
1
10
-16.3816801942567
20
-13.2431257034945
30
4.861E-13
41
1
10
-16.4547031236953
20
-12.8788887282288
30
4.861E-13
41
1
10
-16.478010275286
20
-12.7480023182904
30
4.861E-13
41
1
10
-16.5226184936974
20
-12.4665340407205
30
4.861E-13
41
1
10
-16.5435510105171
20
-12.3182749541493
30
4.861E-13
41
1
10
-16.6025367020296
20
-11.8519835929561
30
4.861E-13
41
1
10
-16.6368346939732
20
-11.5124985083002
30
4.861E-13
41
1
10
-16.6814582471271
20
-10.9594826784856
30
4.861E-13
41
1
10
-16.6952170225653
20
-10.7670586891756
30
4.861E-13
41
1
10
-16.7199491194364
20
-10.3756932658965
30
4.861E-13
41
1
10
-16.7420619215727
20
-9.97604568577151
30
4.861E-13
41
1
10
-16.7592558110865
20
-9.56013524730631
30
4.861E-13
41
1
10
-16.7740572917334
20
-9.13600581754494
30
4.861E-13
41
1
10
-16.7802758673739
20
-8.91919734963284
30
4.861E-13
41
1
10
-16.795211216018
20
-8.26019953814523
30
4.861E-13
41
1
10
-16.8001411261687
20
-7.81611235751586
30
4.861E-13
41
1
10
-16.8001411261687
20
-7.36729208785468
30
4.861E-13
0
SPLINE
5
183
100
AcDbEntity
8
SK1
62
256
6
ByLayer
370
18
48
1
60
0
100
AcDbSpline
70
4
71
3
72
8
73
4
40
0
40
0
40
0
40
0
40
1
40
1
40
1
40
1
41
1
10
-0.342769052838293
20
9.92710219507393
30
4.861E-13
41
1
10
-0.200228104510046
20
10.0093982499618
30
4.861E-13
41
1
10
-0.0693189021619105
20
10.0849787131769
30
4.861E-13
41
1
10
0.0469703231316885
20
10.152118328704
30
4.861E-13
0
SPLINE
5
184
100
AcDbEntity
8
SK1
62
256
6
ByLayer
370
18
48
1
60
0
100
AcDbSpline
70
4
71
3
72
18
73
14
40
0
40
0
40
0
40
0
40
0.125000000000006
40
0.125000000000006
40
0.250000000000013
40
0.250000000000013
40
0.375000000000019
40
0.375000000000019
40
0.500000000000026
40
0.500000000000026
40
0.750000000000013
40
0.750000000000013
40
1
40
1
40
1
40
1
41
1
10
-0.342769052837781
20
9.57289780492357
30
4.861E-13
41
1
10
-0.361659745428568
20
9.58380435137582
30
4.861E-13
41
1
10
-0.381427263361871
20
9.59943461143854
30
4.861E-13
41
1
10
-0.415201412962261
20
9.64040468492158
30
4.861E-13
41
1
10
-0.428156283128942
20
9.66518180396031
30
4.861E-13
41
1
10
-0.442739500660679
20
9.71115740671522
30
4.861E-13
41
1
10
-0.445111268805164
20
9.73216305181913
30
4.861E-13
41
1
10
-0.444921672841446
20
9.76989222185927
30
4.861E-13
41
1
10
-0.442344734563505
20
9.78660417650846
30
4.861E-13
41
1
10
-0.4302071274534
20
9.83277421407408
30
4.861E-13
41
1
10
-0.416682839154959
20
9.85712203954068
30
4.861E-13
41
1
10
-0.383930349616662
20
9.89812835961126
30
4.861E-13
41
1
10
-0.364451801694372
20
9.91458365418578
30
4.861E-13
41
1
10
-0.342769052838719
20
9.92710219507438
30
4.861E-13
0
SPLINE
5
185
100
AcDbEntity
8
SK1
62
256
6
ByLayer
370
18
48
1
60
0
100
AcDbSpline
70
4
71
3
72
8
73
4
40
0
40
0
40
0
40
0
40
1
40
1
40
1
40
1
41
1
10
0.249980947161618
20
9.23067343286397
30
4.861E-13
41
1
10
0.0525671006116681
20
9.34465037031134
30
4.861E-13
41
1
10
-0.145035952120452
20
9.45873654599893
30
4.861E-13
41
1
10
-0.342769052838349
20
9.5728978049261
30
4.861E-13
0
SPLINE
5
186
100
AcDbEntity
8
SK1
62
256
6
ByLayer
370
18
48
1
60
0
100
AcDbSpline
70
4
71
3
72
14
73
10
40
0
40
0
40
0
40
0
40
0.25
40
0.25
40
0.5
40
0.5
40
0.75
40
0.75
40
1
40
1
40
1
40
1
41
1
10
0.324980947166523
20
9.1007696222826
30
4.861E-13
41
1
10
0.324980947167489
20
9.11136059578072
30
4.861E-13
41
1
10
0.323881994656631
20
9.1227497724874
30
4.861E-13
41
1
10
0.318229425941382
20
9.14697051270775
30
4.861E-13
41
1
10
0.313571777695841
20
9.15991639605673
30
4.861E-13
41
1
10
0.299850214227632
20
9.18511074688462
30
4.861E-13
41
1
10
0.290682009752601
20
9.19725898448246
30
4.861E-13
41
1
10
0.270776707340446
20
9.21704560963474
30
4.861E-13
41
1
10
0.260190127137889
20
9.2247791600609
30
4.861E-13
41
1
10
0.249980947161561
20
9.23067343286823
30
4.861E-13
0
SPLINE
5
187
100
AcDbEntity
8
SK1
62
256
6
ByLayer
370
18
48
1
60
0
100
AcDbSpline
70
4
71
3
72
12
73
8
40
0
40
0
40
0
40
0
40
0.500000000000033
40
0.500000000000033
40
0.750000000000016
40
0.750000000000016
40
1
40
1
40
1
40
1
41
1
10
0.249980947162186
20
8.76932656713527
30
4.861E-13
41
1
10
0.270604914733156
20
8.78123382036412
30
4.861E-13
41
1
10
0.288263389710124
20
8.79770683350705
30
4.861E-13
41
1
10
0.308536328216064
20
8.82978294689866
30
4.861E-13
41
1
10
0.314161023968097
20
8.84158814262517
30
4.861E-13
41
1
10
0.322390682705617
20
8.86818056431358
30
4.861E-13
41
1
10
0.324980951347356
20
8.8828859838309
30
4.861E-13
41
1
10
0.324980947161691
20
8.89923041611752
30
4.861E-13
0
SPLINE
5
188
100
AcDbEntity
8
SK1
62
256
6
ByLayer
370
18
48
1
60
0
100
AcDbSpline
70
4
71
3
72
8
73
4
40
0
40
0
40
0
40
0
40
1
40
1
40
1
40
1
41
1
10
-0.342769052838378
20
8.42710219507387
30
4.861E-13
41
1
10
-0.136066482638853
20
8.54644197962077
30
4.861E-13
41
1
10
0.0625363391942244
20
8.66110537226791
30
4.861E-13
41
1
10
0.249980947161646
20
8.76932656713603
30
4.861E-13
0
SPLINE
5
189
100
AcDbEntity
8
SK1
62
256
6
ByLayer
370
18
48
1
60
0
100
AcDbSpline
70
4
71
3
72
20
73
16
40
0
40
0
40
0
40
0
40
0.125000000000004
40
0.125000000000004
40
0.250000000000007
40
0.250000000000007
40
0.375000000000011
40
0.375000000000011
40
0.500000000000015
40
0.500000000000015
40
0.625000000000018
40
0.625000000000018
40
0.750000000000022
40
0.750000000000022
40
1
40
1
40
1
40
1
41
1
10
-0.342769052838463
20
8.07289780491899
30
4.861E-13
41
1
10
-0.358292509144519
20
8.08186027659571
30
4.861E-13
41
1
10
-0.373840112708194
20
8.09359617355813
30
4.861E-13
41
1
10
-0.402117274927321
20
8.12302489792023
30
4.861E-13
41
1
10
-0.414983786794949
20
8.14098160453821
30
4.861E-13
41
1
10
-0.43446054070327
20
8.18137308670541
30
4.861E-13
41
1
10
-0.440646639176208
20
8.2030162989677
30
4.861E-13
41
1
10
-0.44601531082543
20
8.24454042772555
30
4.861E-13
41
1
10
-0.445321800639732
20
8.26441983775578
30
4.861E-13
41
1
10
-0.439548347043996
20
8.30039282960803
30
4.861E-13
41
1
10
-0.434428159406963
20
8.31691561693782
30
4.861E-13
41
1
10
-0.421597423724705
20
8.34637979558784
30
4.861E-13
41
1
10
-0.413807258685068
20
8.35960033832484
30
4.861E-13
41
1
10
-0.387312012959057
20
8.3954483504375
30
4.861E-13
41
1
10
-0.36633395314621
20
8.4134969935379
30
4.861E-13
41
1
10
-0.342769052838463
20
8.42710219507401
30
4.861E-13
0
SPLINE
5
18A
100
AcDbEntity
8
SK1
62
256
6
ByLayer
370
18
48
1
60
0
100
AcDbSpline
70
4
71
3
72
8
73
4
40
0
40
0
40
0
40
0
40
1
40
1
40
1
40
1
41
1
10
0.249980947161618
20
7.73067343286397
30
4.861E-13
41
1
10
0.0525430838767136
20
7.84466423637974
30
4.861E-13
41
1
10
-0.145053884699991
20
7.95874689937855
30
4.861E-13
41
1
10
-0.342769052838378
20
8.07289780492613
30
4.861E-13
0
SPLINE
5
18B
100
AcDbEntity
8
SK1
62
256
6
ByLayer
370
18
48
1
60
0
100
AcDbSpline
70
4
71
3
72
12
73
8
40
0
40
0
40
0
40
0
40
0.25
40
0.25
40
0.5
40
0.5
40
1
40
1
40
1
40
1
41
1
10
0.324980947161748
20
7.60076962228356
30
4.861E-13
41
1
10
0.324980947162828
20
7.61355284176679
30
4.861E-13
41
1
10
0.323278187877406
20
7.62715829572269
30
4.861E-13
41
1
10
0.316025131018847
20
7.65363711598729
30
4.861E-13
41
1
10
0.310349374009064
20
7.66682045254663
30
4.861E-13
41
1
10
0.289065322062783
20
7.70193309425636
30
4.861E-13
41
1
10
0.269481467385646
20
7.71941480226343
30
4.861E-13
41
1
10
0.249980947161674
20
7.73067343286408
30
4.861E-13
0
SPLINE
5
18C
100
AcDbEntity
8
SK1
62
256
6
ByLayer
370
18
48
1
60
0
100
AcDbSpline
70
4
71
3
72
10
73
6
40
0
40
0
40
0
40
0
40
0.5
40
0.5
40
1
40
1
40
1
40
1
41
1
10
0.249980947159941
20
7.2693265671343
30
4.861E-13
41
1
10
0.269739875690192
20
7.28073438983972
30
4.861E-13
41
1
10
0.287604165308892
20
7.29692770850383
30
4.861E-13
41
1
10
0.315076899640502
20
7.3398759381873
30
4.861E-13
41
1
10
0.324980951061235
20
7.36726670859454
30
4.861E-13
41
1
10
0.324980947161691
20
7.39923039600365
30
4.861E-13
0
SPLINE
5
18D
100
AcDbEntity
8
SK1
62
256
6
ByLayer
370
18
48
1
60
0
100
AcDbSpline
70
4
71
3
72
8
73
4
40
0
40
0
40
0
40
0
40
1
40
1
40
1
40
1
41
1
10
-0.342769052838378
20
6.92710219507387
30
4.861E-13
41
1
10
-0.14155986042573
20
7.04327037647676
30
4.861E-13
41
1
10
0.0563906484568122
20
7.1575571560663
30
4.861E-13
41
1
10
0.249980947159884
20
7.26932656713504
30
4.861E-13
0
SPLINE
5
18E
100
AcDbEntity
8
SK1
62
256
6
ByLayer
370
18
48
1
60
0
100
AcDbSpline
70
4
71
3
72
18
73
14
40
0
40
0
40
0
40
0
40
0.25
40
0.25
40
0.375000000000005
40
0.375000000000005
40
0.50000000000001
40
0.50000000000001
40
0.625000000000015
40
0.625000000000015
40
0.75000000000002
40
0.75000000000002
40
1
40
1
40
1
40
1
41
1
10
-0.342769052839543
20
6.57289780491914
30
4.861E-13
41
1
10
-0.370516593263062
20
6.58891785485156
30
4.861E-13
41
1
10
-0.397303986570591
20
6.61292698994956
30
4.861E-13
41
1
10
-0.427069711747379
20
6.66393798431926
30
4.861E-13
41
1
10
-0.434841942704452
20
6.68302567681425
30
4.861E-13
41
1
10
-0.444310147220421
20
6.72323929480251
30
4.861E-13
41
1
10
-0.445902567673841
20
6.74420182496479
30
4.861E-13
41
1
10
-0.443169313481093
20
6.78389511559723
30
4.861E-13
41
1
10
-0.438900918791148
20
6.8028052284063
30
4.861E-13
41
1
10
-0.426637846293971
20
6.83662304317312
30
4.861E-13
41
1
10
-0.418504222067469
20
6.85201367672838
30
4.861E-13
41
1
10
-0.390918604969414
20
6.89234207927171
30
4.861E-13
41
1
10
-0.367782685199927
20
6.91266056769709
30
4.861E-13
41
1
10
-0.342769052838577
20
6.92710219507433
30
4.861E-13
0
SPLINE
5
18F
100
AcDbEntity
8
SK1
62
256
6
ByLayer
370
18
48
1
60
0
100
AcDbSpline
70
4
71
3
72
8
73
4
40
0
40
0
40
0
40
0
40
1
40
1
40
1
40
1
41
1
10
0.249980947161618
20
6.23067343286397
30
4.861E-13
41
1
10
0.0532711848777296
20
6.34424386707082
30
4.861E-13
41
1
10
-0.144388484030259
20
6.45836273012276
30
4.861E-13
41
1
10
-0.342769052838406
20
6.57289780492613
30
4.861E-13
0
SPLINE
5
190
100
AcDbEntity
8
SK1
62
256
6
ByLayer
370
18
48
1
60
0
100
AcDbSpline
70
4
71
3
72
10
73
6
40
0
40
0
40
0
40
0
40
0.5
40
0.5
40
1
40
1
40
1
40
1
41
1
10
0.324980947161691
20
6.10076962229394
30
4.861E-13
41
1
10
0.324980947162118
20
6.12931852219359
30
4.861E-13
41
1
10
0.315985583490715
20
6.1583535544857
30
4.861E-13
41
1
10
0.287820516916696
20
6.20307039555914
30
4.861E-13
41
1
10
0.269391712225257
20
6.21946662242931
30
4.861E-13
41
1
10
0.249980947161618
20
6.23067343286397
30
4.861E-13
0
SPLINE
5
191
100
AcDbEntity
8
SK1
62
256
6
ByLayer
370
18
48
1
60
0
100
AcDbSpline
70
4
71
3
72
10
73
6
40
0
40
0
40
0
40
0
40
0.5
40
0.5
40
1
40
1
40
1
40
1
41
1
10
0.249980947161646
20
5.76932656713603
30
4.861E-13
41
1
10
0.269347069078094
20
5.78050760283764
30
4.861E-13
41
1
10
0.287503923385998
20
5.79667268399612
30
4.861E-13
41
1
10
0.31550710425006
20
5.84064795806293
30
4.861E-13
41
1
10
0.324980950420439
20
5.86885663496986
30
4.861E-13
41
1
10
0.324980947161691
20
5.89923039379707
30
4.861E-13
0
SPLINE
5
192
100
AcDbEntity
8
SK1
62
256
6
ByLayer
370
18
48
1
60
0
100
AcDbSpline
70
4
71
3
72
8
73
4
40
0
40
0
40
0
40
0
40
1
40
1
40
1
40
1
41
1
10
-0.126148905032494
20
5.55216789572151
30
4.861E-13
41
1
10
-0.000126053685392
20
5.62492722287081
30
4.861E-13
41
1
10
0.125290129204387
20
5.69733628982294
30
4.861E-13
41
1
10
0.249980947161618
20
5.76932656713603
30
4.861E-13
0
SPLINE
5
193
100
AcDbEntity
8
1
62
256
6
ByLayer
370
18
48
1
60
0
100
AcDbSpline
70
4
71
3
72
28
73
24
40
0
40
0
40
0
40
0
40
0.031250000000001
40
0.031250000000001
40
0.0625000000000021
40
0.0625000000000021
40
0.0937500000000031
40
0.0937500000000031
40
0.125000000000004
40
0.125000000000004
40
0.187500000000006
40
0.187500000000006
40
0.250000000000007
40
0.250000000000007
40
0.375000000000007
40
0.375000000000007
40
0.437500000000007
40
0.437500000000007
40
0.500000000000008
40
0.500000000000008
40
0.750000000000004
40
0.750000000000004
40
1
40
1
40
1
40
1
41
1
10
-3.07000000000002
20
-10.1764559251945
30
4.861E-13
41
1
10
-3.1252337299853
20
-10.1764559251945
30
4.861E-13
41
1
10
-3.17895114706474
20
-10.1830365148135
30
4.861E-13
41
1
10
-3.28375626502114
20
-10.2076004909759
30
4.861E-13
41
1
10
-3.33456347271505
20
-10.2256830280849
30
4.861E-13
41
1
10
-3.42904373131987
20
-10.2690627096978
30
4.861E-13
41
1
10
-3.47364413215979
20
-10.2946285100653
30
4.861E-13
41
1
10
-3.55805502937636
20
-10.3511764058424
30
4.861E-13
41
1
10
-3.59716058695619
20
-10.3816467667258
30
4.861E-13
41
1
10
-3.70778513632538
20
-10.4777623079027
30
4.861E-13
41
1
10
-3.77302532869175
20
-10.5484096809683
30
4.861E-13
41
1
10
-3.89109877037143
20
-10.695564962867
30
4.861E-13
41
1
10
-3.94336221587869
20
-10.771391852326
30
4.861E-13
41
1
10
-4.08678163211553
20
-11.0031268539708
30
4.861E-13
41
1
10
-4.16478466693462
20
-11.1632110634457
30
4.861E-13
41
1
10
-4.26618345205955
20
-11.4078036453406
30
4.861E-13
41
1
10
-4.29732188865424
20
-11.4903237823389
30
4.861E-13
41
1
10
-4.3546060678494
20
-11.6554381856214
30
4.861E-13
41
1
10
-4.38076822142074
20
-11.7380393289008
30
4.861E-13
41
1
10
-4.50112826421844
20
-12.1510856976275
30
4.861E-13
41
1
10
-4.56515851078353
20
-12.4815475418433
30
4.861E-13
41
1
10
-4.64987784983816
20
-13.1404953231294
30
4.861E-13
41
1
10
-4.67000000000101
20
-13.4690330195606
30
4.861E-13
41
1
10
-4.67000000000004
20
-13.7963642924386
30
4.861E-13
0
SPLINE
5
194
100
AcDbEntity
8
1
62
256
6
ByLayer
370
18
48
1
60
0
100
AcDbSpline
70
4
71
3
72
25
73
21
40
0
40
0
40
0
40
0
40
0.124999999999998
40
0.124999999999998
40
0.249999999999997
40
0.249999999999997
40
0.374999999999995
40
0.374999999999995
40
0.437499999999996
40
0.437499999999996
40
0.499999999999996
40
0.562499999999996
40
0.562499999999996
40
0.624999999999997
40
0.624999999999997
40
0.749999999999998
40
0.749999999999998
40
0.874999999999999
40
0.874999999999999
40
1
40
1
40
1
40
1
41
1
10
-3.07000000000002
20
-17.3149584592244
30
4.861E-13
41
1
10
-3.1798484204613
20
-17.3149584592244
30
4.861E-13
41
1
10
-3.28760632326996
20
-17.3242083296078
30
4.861E-13
41
1
10
-3.49914966504605
20
-17.3602849492816
30
4.861E-13
41
1
10
-3.6039900605002
20
-17.387621022321
30
4.861E-13
41
1
10
-3.80103102730641
20
-17.4576809115191
30
4.861E-13
41
1
10
-3.89402476777303
20
-17.5003430667145
30
4.861E-13
41
1
10
-4.02539209097529
20
-17.5755542341263
30
4.861E-13
41
1
10
-4.06767110753771
20
-17.602457525216
30
4.861E-13
41
1
10
-4.1477792639495
20
-17.6588137137509
30
4.861E-13
41
1
10
-4.22390353694402
20
-17.7179766403883
30
4.861E-13
41
1
10
-4.29231230210638
20
-17.7825753209228
30
4.861E-13
41
1
10
-4.35687570933999
20
-17.849883145146
30
4.861E-13
41
1
10
-4.38731339866274
20
-17.8850236587283
30
4.861E-13
41
1
10
-4.4712011013084
20
-17.99249193834
30
4.861E-13
41
1
10
-4.51788377522959
20
-18.0673732095141
30
4.861E-13
41
1
10
-4.59352163733379
20
-18.2233420789746
30
4.861E-13
41
1
10
-4.62243875562859
20
-18.3049709600562
30
4.861E-13
41
1
10
-4.66046473309717
20
-18.4685393114191
30
4.861E-13
41
1
10
-4.67000000000004
20
-18.5511166914247
30
4.861E-13
41
1
10
-4.67000000000004
20
-18.6344920917852
30
4.861E-13
0
SPLINE
5
195
100
AcDbEntity
8
SK1
62
256
6
ByLayer
370
18
48
1
60
0
100
AcDbSpline
70
4
71
3
72
12
73
8
40
0
40
0
40
0
40
0
40
0.249999999999999
40
0.249999999999999
40
0.499999999999998
40
0.499999999999998
40
1
40
1
40
1
40
1
41
1
10
0.324980947161635
20
-10.3992303777079
30
4.861E-13
41
1
10
0.324980947162118
20
-10.382160386372
30
4.861E-13
41
1
10
0.322272682190061
20
-10.36771321376
30
4.861E-13
41
1
10
0.314112329532719
20
-10.3415186347891
30
4.861E-13
41
1
10
0.3085602667025
20
-10.3298545571438
30
4.861E-13
41
1
10
0.288558618445961
20
-10.2981073391071
30
4.861E-13
41
1
10
0.271062951512931
20
-10.2814982680233
30
4.861E-13
41
1
10
0.249980947161646
20
-10.2693265671361
30
4.861E-13
0
SPLINE
5
196
100
AcDbEntity
8
SK1
62
256
6
ByLayer
370
18
48
1
60
0
100
AcDbSpline
70
4
71
3
72
14
73
10
40
0
40
0
40
0
40
0
40
0.25
40
0.25
40
0.5
40
0.5
40
0.75
40
0.75
40
1
40
1
40
1
40
1
41
1
10
0.249980947161589
20
-10.730673432864
30
4.861E-13
41
1
10
0.261170454548648
20
-10.7242131677621
30
4.861E-13
41
1
10
0.273714893758125
20
-10.7149334060329
30
4.861E-13
41
1
10
0.296507637462582
20
-10.6902851252668
30
4.861E-13
41
1
10
0.305604265762241
20
-10.6757872382091
30
4.861E-13
41
1
10
0.317090744544714
20
-10.6507185917273
30
4.861E-13
41
1
10
0.320295416587868
20
-10.6394071207653
30
4.861E-13
41
1
10
0.324248578481218
20
-10.6188893781669
30
4.861E-13
41
1
10
0.324980944492779
20
-10.6094813158657
30
4.861E-13
41
1
10
0.324980947161635
20
-10.6007696682495
30
4.861E-13
0
SPLINE
5
197
100
AcDbEntity
8
SK1
62
256
6
ByLayer
370
18
48
1
60
0
100
AcDbSpline
70
4
71
3
72
8
73
4
40
0
40
0
40
0
40
0
40
1
40
1
40
1
40
1
41
1
10
0.249980947161618
20
-10.7306734328639
30
4.861E-13
41
1
10
0.052631100579589
20
-10.8446134199126
30
4.861E-13
41
1
10
-0.144956402685182
20
-10.958690618111
30
4.861E-13
41
1
10
-0.342769052838378
20
-11.0728978049261
30
4.861E-13
0
SPLINE
5
198
100
AcDbEntity
8
SK1
62
256
6
ByLayer
370
18
48
1
60
0
100
AcDbSpline
70
4
71
3
72
22
73
18
40
0
40
0
40
0
40
0
40
0.0625000000000023
40
0.0625000000000023
40
0.125000000000004
40
0.125000000000004
40
0.187500000000007
40
0.187500000000007
40
0.250000000000009
40
0.250000000000009
40
0.375000000000004
40
0.375000000000004
40
0.499999999999998
40
0.499999999999998
40
0.749999999999999
40
0.749999999999999
40
1
40
1
40
1
40
1
41
1
10
-0.342769052838349
20
-11.0728978049261
30
4.861E-13
41
1
10
-0.354050595451241
20
-11.0794112065905
30
4.861E-13
41
1
10
-0.366209629257355
20
-11.0878490587058
30
4.861E-13
41
1
10
-0.390520771895751
20
-11.1100338146446
30
4.861E-13
41
1
10
-0.402179577389632
20
-11.1236871566761
30
4.861E-13
41
1
10
-0.420239075387002
20
-11.1510567178538
30
4.861E-13
41
1
10
-0.426716865430251
20
-11.1644252779558
30
4.861E-13
41
1
10
-0.436131893586463
20
-11.188940397959
30
4.861E-13
41
1
10
-0.439120072139275
20
-11.2000710535235
30
4.861E-13
41
1
10
-0.445319628398323
20
-11.231641555031
30
4.861E-13
41
1
10
-0.445676858959729
20
-11.2496418556063
30
4.861E-13
41
1
10
-0.443105753875813
20
-11.2823802755193
30
4.861E-13
41
1
10
-0.440018994658686
20
-11.2971638179408
30
4.861E-13
41
1
10
-0.427264174779736
20
-11.3381142409963
30
4.861E-13
41
1
10
-0.414383428423548
20
-11.3604758779005
30
4.861E-13
41
1
10
-0.382981648139633
20
-11.398788943257
30
4.861E-13
41
1
10
-0.364323351058289
20
-11.4146578151945
30
4.861E-13
41
1
10
-0.342769052838378
20
-11.4271021950739
30
4.861E-13
0
SPLINE
5
199
100
AcDbEntity
8
SK1
62
256
6
ByLayer
370
18
48
1
60
0
100
AcDbSpline
70
4
71
3
72
8
73
4
40
0
40
0
40
0
40
0
40
1
40
1
40
1
40
1
41
1
10
-0.342769052838378
20
-11.4271021950739
30
4.861E-13
41
1
10
-0.140428826570911
20
-11.5439233791773
30
4.861E-13
41
1
10
0.0572098387455355
20
-11.6580301158001
30
4.861E-13
41
1
10
0.249980947161646
20
-11.7693265671361
30
4.861E-13
0
SPLINE
5
19A
100
AcDbEntity
8
SK1
62
256
6
ByLayer
370
18
48
1
60
0
100
AcDbSpline
70
4
71
3
72
12
73
8
40
0
40
0
40
0
40
0
40
0.250000000000006
40
0.250000000000006
40
0.500000000000012
40
0.500000000000012
40
1
40
1
40
1
40
1
41
1
10
0.324980947161635
20
-11.8992303777034
30
4.861E-13
41
1
10
0.324980947161606
20
-11.882281072652
30
4.861E-13
41
1
10
0.322258331788362
20
-11.8676586519617
30
4.861E-13
41
1
10
0.314110184966523
20
-11.841520265274
30
4.861E-13
41
1
10
0.308588305166722
20
-11.8299276392252
30
4.861E-13
41
1
10
0.288794763919782
20
-11.7984256267748
30
4.861E-13
41
1
10
0.271268222819231
20
-11.7816167814671
30
4.861E-13
41
1
10
0.24998094716176
20
-11.7693265671359
30
4.861E-13
0
SPLINE
5
19B
100
AcDbEntity
8
SK1
62
256
6
ByLayer
370
18
48
1
60
0
100
AcDbSpline
70
4
71
3
72
18
73
14
40
0
40
0
40
0
40
0
40
0.125000000000004
40
0.125000000000004
40
0.250000000000008
40
0.250000000000008
40
0.375000000000013
40
0.375000000000013
40
0.500000000000017
40
0.500000000000017
40
0.750000000000009
40
0.750000000000009
40
1
40
1
40
1
40
1
41
1
10
0.249980947105968
20
-12.2306734328961
30
4.861E-13
41
1
10
0.255633945171468
20
-12.2274096729445
30
4.861E-13
41
1
10
0.261545722398694
20
-12.2235307522799
30
4.861E-13
41
1
10
0.274089073361125
20
-12.2136471429456
30
4.861E-13
41
1
10
0.280558475671313
20
-12.207688162703
30
4.861E-13
41
1
10
0.292389202618978
20
-12.1945432345727
30
4.861E-13
41
1
10
0.297726742185972
20
-12.1873734755297
30
4.861E-13
41
1
10
0.306407273047256
20
-12.1735286661001
30
4.861E-13
41
1
10
0.309705607901094
20
-12.1670655127171
30
4.861E-13
41
1
10
0.317845872191242
20
-12.1484469794848
30
4.861E-13
41
1
10
0.320694136903256
20
-12.1377750261149
30
4.861E-13
41
1
10
0.324336623178056
20
-12.1179339928977
30
4.861E-13
41
1
10
0.324980944532342
20
-12.1090654184484
30
4.861E-13
41
1
10
0.324980947161635
20
-12.1007696698376
30
4.861E-13
0
SPLINE
5
19C
100
AcDbEntity
8
SK1
62
256
6
ByLayer
370
18
48
1
60
0
100
AcDbSpline
70
4
71
3
72
8
73
4
40
0
40
0
40
0
40
0
40
1
40
1
40
1
40
1
41
1
10
0.249980947106678
20
-12.2306734328957
30
4.861E-13
41
1
10
0.0527632893804935
20
-12.3445371006728
30
4.861E-13
41
1
10
-0.144826582216581
20
-12.4586156662285
30
4.861E-13
41
1
10
-0.342769052838349
20
-12.5728978049261
30
4.861E-13
0
SPLINE
5
19D
100
AcDbEntity
8
SK1
62
256
6
ByLayer
370
18
48
1
60
0
100
AcDbSpline
70
4
71
3
72
22
73
18
40
0
40
0
40
0
40
0
40
0.0625000000000027
40
0.0625000000000027
40
0.125000000000005
40
0.125000000000005
40
0.187500000000008
40
0.187500000000008
40
0.250000000000011
40
0.250000000000011
40
0.37500000000001
40
0.37500000000001
40
0.500000000000009
40
0.500000000000009
40
0.750000000000004
40
0.750000000000004
40
1
40
1
40
1
40
1
41
1
10
-0.342769052838349
20
-12.5728978049261
30
4.861E-13
41
1
10
-0.35460818183941
20
-12.5797331292418
30
4.861E-13
41
1
10
-0.367641788104038
20
-12.5887969509659
30
4.861E-13
41
1
10
-0.39393382083739
20
-12.6135796136967
30
4.861E-13
41
1
10
-0.406050000047856
20
-12.6287545713996
30
4.861E-13
41
1
10
-0.42357679683775
20
-12.6573133731199
30
4.861E-13
41
1
10
-0.429373222380718
20
-12.6705238773507
30
4.861E-13
41
1
10
-0.437772772863894
20
-12.6945624553124
30
4.861E-13
41
1
10
-0.440407220383804
20
-12.705598953901
30
4.861E-13
41
1
10
-0.445588571768383
20
-12.736119363009
30
4.861E-13
41
1
10
-0.445625738411934
20
-12.7535773835824
30
4.861E-13
41
1
10
-0.442516530023767
20
-12.7857570881226
30
4.861E-13
41
1
10
-0.439280452881746
20
-12.8000626434377
30
4.861E-13
41
1
10
-0.42642100081514
20
-12.8396056103106
30
4.861E-13
41
1
10
-0.413679423890926
20
-12.8615037472977
30
4.861E-13
41
1
10
-0.382525012517618
20
-12.8991707316469
30
4.861E-13
41
1
10
-0.363925974973853
20
-12.9148872403836
30
4.861E-13
41
1
10
-0.342769052839543
20
-12.9271021950732
30
4.861E-13
0
SPLINE
5
19E
100
AcDbEntity
8
SK1
62
256
6
ByLayer
370
18
48
1
60
0
100
AcDbSpline
70
4
71
3
72
8
73
4
40
0
40
0
40
0
40
0
40
1
40
1
40
1
40
1
41
1
10
-0.342769052839486
20
-12.9271021950733
30
4.861E-13
41
1
10
-0.13909345017305
20
-13.0446943591001
30
4.861E-13
41
1
10
0.0585614418590694
20
-13.1588104642215
30
4.861E-13
41
1
10
0.249980947161646
20
-13.2693265671361
30
4.861E-13
0
SPLINE
5
19F
100
AcDbEntity
8
SK1
62
256
6
ByLayer
370
18
48
1
60
0
100
AcDbSpline
70
4
71
3
72
12
73
8
40
0
40
0
40
0
40
0
40
0.25
40
0.25
40
0.5
40
0.5
40
1
40
1
40
1
40
1
41
1
10
0.324980947161635
20
-13.3992303777037
30
4.861E-13
41
1
10
0.324980947161635
20
-13.382332687634
30
4.861E-13
41
1
10
0.322317549925145
20
-13.3679129498827
30
4.861E-13
41
1
10
0.314174146943344
20
-13.3416620797113
30
4.861E-13
41
1
10
0.308592611466139
20
-13.32992807673
30
4.861E-13
41
1
10
0.288720362393804
20
-13.2983200786429
30
4.861E-13
41
1
10
0.271353500686445
20
-13.2816660166669
30
4.861E-13
41
1
10
0.249980947161646
20
-13.2693265671361
30
4.861E-13
0
SPLINE
5
1A0
100
AcDbEntity
8
SK1
62
256
6
ByLayer
370
18
48
1
60
0
100
AcDbSpline
70
4
71
3
72
18
73
14
40
0
40
0
40
0
40
0
40
0.125000000000004
40
0.125000000000004
40
0.250000000000007
40
0.250000000000007
40
0.375000000000011
40
0.375000000000011
40
0.500000000000014
40
0.500000000000014
40
0.750000000000007
40
0.750000000000007
40
1
40
1
40
1
40
1
41
1
10
0.249980947185264
20
-13.7306734328503
30
4.861E-13
41
1
10
0.255879787461311
20
-13.7272677358276
30
4.861E-13
41
1
10
0.262132384433102
20
-13.723150251631
30
4.861E-13
41
1
10
0.275412231696293
20
-13.712510163469
30
4.861E-13
41
1
10
0.282361551212887
20
-13.7059304146114
30
4.861E-13
41
1
10
0.294715763793505
20
-13.6916154260128
30
4.861E-13
41
1
10
0.299993431987844
20
-13.6840478259869
30
4.861E-13
41
1
10
0.308106196543719
20
-13.6703472663303
30
4.861E-13
41
1
10
0.311189532503988
20
-13.6639225594934
30
4.861E-13
41
1
10
0.318524863889877
20
-13.6461505958498
30
4.861E-13
41
1
10
0.321129814062118
20
-13.6358528996718
30
4.861E-13
41
1
10
0.324389075210092
20
-13.6171262393291
30
4.861E-13
41
1
10
0.324980944658819
20
-13.6086863494071
30
4.861E-13
41
1
10
0.324980947161635
20
-13.600769669718
30
4.861E-13
0
SPLINE
5
1A1
100
AcDbEntity
8
SK1
62
256
6
ByLayer
370
18
48
1
60
0
100
AcDbSpline
70
4
71
3
72
8
73
4
40
0
40
0
40
0
40
0
40
1
40
1
40
1
40
1
41
1
10
0.249980947183303
20
-13.7306734328514
30
4.861E-13
41
1
10
0.0530000040877781
20
-13.8444004333729
30
4.861E-13
41
1
10
-0.14459542232197
20
-13.9584822060012
30
4.861E-13
41
1
10
-0.342769052838378
20
-14.0728978049261
30
4.861E-13
0
SPLINE
5
1A2
100
AcDbEntity
8
SK1
62
256
6
ByLayer
370
18
48
1
60
0
100
AcDbSpline
70
4
71
3
72
24
73
20
40
0
40
0
40
0
40
0
40
0.062500000000001
40
0.062500000000001
40
0.0937500000000025
40
0.0937500000000025
40
0.125000000000004
40
0.125000000000004
40
0.187500000000009
40
0.187500000000009
40
0.250000000000014
40
0.250000000000014
40
0.375000000000015
40
0.375000000000015
40
0.500000000000016
40
0.500000000000016
40
0.750000000000008
40
0.750000000000008
40
1
40
1
40
1
40
1
41
1
10
-0.342769052834711
20
-14.072897804918
30
4.861E-13
41
1
10
-0.355492163966915
20
-14.0802434965545
30
4.861E-13
41
1
10
-0.370101104686682
20
-14.0905168173619
30
4.861E-13
41
1
10
-0.391579881066718
20
-14.1117885239882
30
4.861E-13
41
1
10
-0.398484982044238
20
-14.1197537295974
30
4.861E-13
41
1
10
-0.410274648123931
20
-14.1355431801381
30
4.861E-13
41
1
10
-0.415157671611155
20
-14.1432678560081
30
4.861E-13
41
1
10
-0.427372229456637
20
-14.1652254088806
30
4.861E-13
41
1
10
-0.432321891040033
20
-14.1780120112318
30
4.861E-13
41
1
10
-0.439549508736462
20
-14.2014461443951
30
4.861E-13
41
1
10
-0.441681157637191
20
-14.2118967014105
30
4.861E-13
41
1
10
-0.44578820076282
20
-14.2412797940188
30
4.861E-13
41
1
10
-0.445442817618073
20
-14.2583164448053
30
4.861E-13
41
1
10
-0.441818702447733
20
-14.2892602049515
30
4.861E-13
41
1
10
-0.438463981017151
20
-14.3031082300083
30
4.861E-13
41
1
10
-0.425407582488674
20
-14.3414669139582
30
4.861E-13
41
1
10
-0.412753784859831
20
-14.3628334233235
30
4.861E-13
41
1
10
-0.381951448311042
20
-14.3996431149244
30
4.861E-13
41
1
10
-0.363680833357279
20
-14.4150287729628
30
4.861E-13
41
1
10
-0.342769052840311
20
-14.4271021950737
30
4.861E-13
0
SPLINE
5
1A3
100
AcDbEntity
8
SK1
62
256
6
ByLayer
370
18
48
1
60
0
100
AcDbSpline
70
4
71
3
72
8
73
4
40
0
40
0
40
0
40
0
40
1
40
1
40
1
40
1
41
1
10
-0.34276905283977
20
-14.4271021950731
30
4.861E-13
41
1
10
-0.13695146537151
20
-14.5459310346019
30
4.861E-13
41
1
10
0.0607307434435427
20
-14.6600629110752
30
4.861E-13
41
1
10
0.249980947161646
20
-14.7693265671361
30
4.861E-13
0
SPLINE
5
1A4
100
AcDbEntity
8
SK1
62
256
6
ByLayer
370
18
48
1
60
0
100
AcDbSpline
70
4
71
3
72
12
73
8
40
0
40
0
40
0
40
0
40
0.249999999999995
40
0.249999999999995
40
0.49999999999999
40
0.49999999999999
40
1
40
1
40
1
40
1
41
1
10
0.324980947162885
20
-14.8992303777025
30
4.861E-13
41
1
10
0.324980947162743
20
-14.8822327202223
30
4.861E-13
41
1
10
0.322303765072348
20
-14.8679024610084
30
4.861E-13
41
1
10
0.314253239814207
20
-14.8418833678346
30
4.861E-13
41
1
10
0.30877923218921
20
-14.8302966226743
30
4.861E-13
41
1
10
0.289069242120036
20
-14.7987354246533
30
4.861E-13
41
1
10
0.271567465529529
20
-14.781789549324
30
4.861E-13
41
1
10
0.249980947163237
20
-14.7693265671343
30
4.861E-13
0
SPLINE
5
1A5
100
AcDbEntity
8
SK1
62
256
6
ByLayer
370
18
48
1
60
0
100
AcDbSpline
70
4
71
3
72
18
73
14
40
0
40
0
40
0
40
0
40
0.125000000000008
40
0.125000000000008
40
0.250000000000017
40
0.250000000000017
40
0.375000000000025
40
0.375000000000025
40
0.500000000000034
40
0.500000000000034
40
0.750000000000017
40
0.750000000000017
40
1
40
1
40
1
40
1
41
1
10
0.24998094716932
20
-15.2306734328595
30
4.861E-13
41
1
10
0.256081154466187
20
-15.227151476534
30
4.861E-13
41
1
10
0.26271744572216
20
-15.2227905443193
30
4.861E-13
41
1
10
0.277142436186722
20
-15.2109958839184
30
4.861E-13
41
1
10
0.285001470129544
20
-15.2032301173287
30
4.861E-13
41
1
10
0.297781574311472
20
-15.1875029750968
30
4.861E-13
41
1
10
0.302626773518853
20
-15.1799265663383
30
4.861E-13
41
1
10
0.310060604035897
20
-15.1664412681964
30
4.861E-13
41
1
10
0.312734553913799
20
-15.1604407626017
30
4.861E-13
41
1
10
0.319279714209984
20
-15.1434857839011
30
4.861E-13
41
1
10
0.321537832798242
20
-15.1339462395638
30
4.861E-13
41
1
10
0.324437343072731
20
-15.1163386422425
30
4.861E-13
41
1
10
0.324980944828582
20
-15.1083205516147
30
4.861E-13
41
1
10
0.324980947162771
20
-15.1007696686656
30
4.861E-13
0
SPLINE
5
1A6
100
AcDbEntity
8
SK1
62
256
6
ByLayer
370
18
48
1
60
0
100
AcDbSpline
70
4
71
3
72
8
73
4
40
0
40
0
40
0
40
0
40
1
40
1
40
1
40
1
41
1
10
0.249980947168893
20
-15.2306734328598
30
4.861E-13
41
1
10
0.0534841279736327
20
-15.344120924317
30
4.861E-13
41
1
10
-0.144124364079005
20
-15.4582102403978
30
4.861E-13
41
1
10
-0.342769052838378
20
-15.5728978049261
30
4.861E-13
0
SPLINE
5
1A7
100
AcDbEntity
8
SK1
62
256
6
ByLayer
370
18
48
1
60
0
100
AcDbSpline
70
4
71
3
72
26
73
22
40
0
40
0
40
0
40
0
40
0.0312499999999991
40
0.0312499999999991
40
0.0624999999999982
40
0.0624999999999982
40
0.0937499999999973
40
0.0937499999999973
40
0.124999999999996
40
0.124999999999996
40
0.1875
40
0.1875
40
0.250000000000004
40
0.250000000000004
40
0.375000000000003
40
0.375000000000003
40
0.500000000000003
40
0.500000000000003
40
0.750000000000001
40
0.750000000000001
40
1
40
1
40
1
40
1
41
1
10
-0.342769052838378
20
-15.5728978049261
30
4.861E-13
41
1
10
-0.349594124357793
20
-15.576838261805
30
4.861E-13
41
1
10
-0.356954877171063
20
-15.5815885538065
30
4.861E-13
41
1
10
-0.372789901199951
20
-15.5937177583002
30
4.861E-13
41
1
10
-0.381285818620313
20
-15.6011915260059
30
4.861E-13
41
1
10
-0.397454220776638
20
-15.6183542733494
30
4.861E-13
41
1
10
-0.40460987167404
20
-15.6275380928634
30
4.861E-13
41
1
10
-0.415901574081119
20
-15.6443416507405
30
4.861E-13
41
1
10
-0.42028878649171
20
-15.652186781863
30
4.861E-13
41
1
10
-0.430951862660209
20
-15.6737574524048
30
4.861E-13
41
1
10
-0.435119125430191
20
-15.6860916729491
30
4.861E-13
41
1
10
-0.441074256374037
20
-15.7083938363465
30
4.861E-13
41
1
10
-0.442799242142485
20
-15.7184741707155
30
4.861E-13
41
1
10
-0.445882914634154
20
-15.7469103630901
30
4.861E-13
41
1
10
-0.445142323119427
20
-15.763216131862
30
4.861E-13
41
1
10
-0.4410224923447
20
-15.7929385564271
30
4.861E-13
41
1
10
-0.437545776439322
20
-15.8063404779236
30
4.861E-13
41
1
10
-0.424260602356384
20
-15.8435596603405
30
4.861E-13
41
1
10
-0.411612191613727
20
-15.8644703135801
30
4.861E-13
41
1
10
-0.381069122415511
20
-15.9004060928585
30
4.861E-13
41
1
10
-0.363218614943691
20
-15.9152956348876
30
4.861E-13
41
1
10
-0.342769052838378
20
-15.9271021950739
30
4.861E-13
0
SPLINE
5
1A8
100
AcDbEntity
8
SK1
62
256
6
ByLayer
370
18
48
1
60
0
100
AcDbSpline
70
4
71
3
72
8
73
4
40
0
40
0
40
0
40
0
40
1
40
1
40
1
40
1
41
1
10
-0.342769052838378
20
-15.9271021950739
30
4.861E-13
41
1
10
-0.132896815745397
20
-16.048271987655
30
4.861E-13
41
1
10
0.0648365548912579
20
-16.1624334024198
30
4.861E-13
41
1
10
0.249980947161646
20
-16.2693265671361
30
4.861E-13
0
SPLINE
5
1A9
100
AcDbEntity
8
SK1
62
256
6
ByLayer
370
18
48
1
60
0
100
AcDbSpline
70
4
71
3
72
12
73
8
40
0
40
0
40
0
40
0
40
0.250000000000001
40
0.250000000000001
40
0.500000000000001
40
0.500000000000001
40
1
40
1
40
1
40
1
41
1
10
0.324980947161635
20
-16.3992303777037
30
4.861E-13
41
1
10
0.324980947161635
20
-16.3824490524555
30
4.861E-13
41
1
10
0.322353063383275
20
-16.3681078840145
30
4.861E-13
41
1
10
0.3142916343526
20
-16.3419618637763
30
4.861E-13
41
1
10
0.308805749579392
20
-16.3303458305286
30
4.861E-13
41
1
10
0.289084674083313
20
-16.2987466783825
30
4.861E-13
41
1
10
0.271705523985588
20
-16.2818692574134
30
4.861E-13
41
1
10
0.249980947161618
20
-16.2693265671361
30
4.861E-13
0
SPLINE
5
1AA
100
AcDbEntity
8
SK1
62
256
6
ByLayer
370
18
48
1
60
0
100
AcDbSpline
70
4
71
3
72
8
73
4
40
0
40
0
40
0
40
0
40
1
40
1
40
1
40
1
41
1
10
0.32498099999998
20
-16.4252096600956
30
4.861E-13
41
1
10
0.05016120303506
20
-16.6530211087934
30
4.861E-13
41
1
10
-0.224835038364716
20
-16.8807075453505
30
4.861E-13
41
1
10
-0.500000000000028
20
-17.1082744424172
30
4.861E-13
0
SPLINE
5
1AB
100
AcDbEntity
8
SK1
62
256
6
ByLayer
370
18
48
1
60
0
100
AcDbSpline
70
4
71
3
72
8
73
4
40
0
40
0
40
0
40
0
40
1
40
1
40
1
40
1
41
1
10
0.0469703231319727
20
-10.1521183287042
30
4.861E-13
41
1
10
0.115112466683087
20
-10.1914602136266
30
4.861E-13
41
1
10
0.182784534593111
20
-10.230530700251
30
4.861E-13
41
1
10
0.249980947161618
20
-10.2693265671361
30
4.861E-13
0
SPLINE
5
1AC
100
AcDbEntity
8
SK1
62
256
6
ByLayer
370
18
48
1
60
0
100
AcDbSpline
70
4
71
3
72
9
73
5
40
0
40
0
40
0
40
0
40
0.999292586041592
40
1
40
1
40
1
40
1
41
1
10
-0.342769052838264
20
18.9271021950739
30
4.861E-13
41
1
10
0.0434394769975199
20
19.1500797937379
30
4.861E-13
41
1
10
0.237878022121748
20
19.2623389401063
30
4.861E-13
41
1
10
0.237740711892035
20
19.2622596640081
30
4.861E-13
41
1
10
0.237739845780011
20
19.2622591639582
30
4.861E-13
0
SPLINE
5
1AD
100
AcDbEntity
8
SK1
62
256
6
ByLayer
370
18
48
1
60
0
100
AcDbSpline
70
4
71
3
72
30
73
26
40
0
40
0
40
0
40
0
40
0.015624999999996
40
0.015624999999996
40
0.0312499999999921
40
0.0312499999999921
40
0.0390624999999921
40
0.0390624999999921
40
0.0468749999999921
40
0.0468749999999921
40
0.0624999999999934
40
0.0624999999999934
40
0.0937499999999934
40
0.0937499999999934
40
0.124999999999993
40
0.124999999999993
40
0.187499999999993
40
0.187499999999993
40
0.249999999999994
40
0.249999999999994
40
0.499999999999996
40
0.499999999999996
40
0.749999999999998
40
0.749999999999998
40
1
40
1
40
1
40
1
41
1
10
-0.342769052844488
20
18.5728978049296
30
4.861E-13
41
1
10
-0.347171951280075
20
18.5754398195269
30
4.861E-13
41
1
10
-0.351960418968957
20
18.5784059956171
30
4.861E-13
41
1
10
-0.362777228869419
20
18.5859371497908
30
4.861E-13
41
1
10
-0.368887800440802
20
18.5905116721255
30
4.861E-13
41
1
10
-0.379817395547889
20
18.6002003847112
30
4.861E-13
41
1
10
-0.383684111845866
20
18.6038737992161
30
4.861E-13
41
1
10
-0.391157562605258
20
18.611590679319
30
4.861E-13
41
1
10
-0.394657280740915
20
18.6155242596522
30
4.861E-13
41
1
10
-0.403675823340734
20
18.6263537691197
30
4.861E-13
41
1
10
-0.407992032601811
20
18.632462271674
30
4.861E-13
41
1
10
-0.418659317700474
20
18.6487351879591
30
4.861E-13
41
1
10
-0.422837359929787
20
18.6569874846892
30
4.861E-13
41
1
10
-0.429873212522096
20
18.6723064010643
30
4.861E-13
41
1
10
-0.432448702746342
20
18.6790960893603
30
4.861E-13
41
1
10
-0.438742659264307
20
18.697999306862
30
4.861E-13
41
1
10
-0.441072721492361
20
18.7087665577519
30
4.861E-13
41
1
10
-0.444156752008126
20
18.7287007453874
30
4.861E-13
41
1
10
-0.444833293181205
20
18.737793336681
30
4.861E-13
41
1
10
-0.445598279075085
20
18.7805244811046
30
4.861E-13
41
1
10
-0.438596852656047
20
18.8064686815959
30
4.861E-13
41
1
10
-0.41959181437565
20
18.8517667571323
30
4.861E-13
41
1
10
-0.407057571212363
20
18.8706572738759
30
4.861E-13
41
1
10
-0.377955530591606
20
18.9029851967484
30
4.861E-13
41
1
10
-0.361336931577256
20
18.9163820252857
30
4.861E-13
41
1
10
-0.342769052838293
20
18.9271021950739
30
4.861E-13
0
SPLINE
5
1AE
100
AcDbEntity
8
SK1
62
256
6
ByLayer
370
18
48
1
60
0
100
AcDbSpline
70
4
71
3
72
8
73
4
40
0
40
0
40
0
40
0
40
1
40
1
40
1
40
1
41
1
10
0.249980947164119
20
18.2306734328626
30
4.861E-13
41
1
10
0.0602000624355696
20
18.3402434777476
30
4.861E-13
41
1
10
-0.137660453241665
20
18.4544782997359
30
4.861E-13
41
1
10
-0.342769052844517
20
18.5728978049297
30
4.861E-13
0
SPLINE
5
1AF
100
AcDbEntity
8
SK1
62
256
6
ByLayer
370
18
48
1
60
0
100
AcDbSpline
70
4
71
3
72
22
73
18
40
0
40
0
40
0
40
0
40
0.500000000000006
40
0.500000000000006
40
0.625000000000008
40
0.625000000000008
40
0.75000000000001
40
0.75000000000001
40
0.812500000000011
40
0.812500000000011
40
0.843750000000004
40
0.843750000000004
40
0.874999999999997
40
0.874999999999997
40
0.937499999999998
40
0.937499999999998
40
1
40
1
40
1
40
1
41
1
10
0.32498094716172
20
18.1007696736903
30
4.861E-13
41
1
10
0.324980942713665
20
18.1137518803149
30
4.861E-13
41
1
10
0.323786972692858
20
18.1278012981292
30
4.861E-13
41
1
10
0.316461247037807
20
18.1508365404435
30
4.861E-13
41
1
10
0.314676140574107
20
18.1557309360371
30
4.861E-13
41
1
10
0.309877142831425
20
18.1666369849616
30
4.861E-13
41
1
10
0.307015946514014
20
18.1725080306412
30
4.861E-13
41
1
10
0.299937942812278
20
18.1838699189831
30
4.861E-13
41
1
10
0.297061244389283
20
18.1881873513923
30
4.861E-13
41
1
10
0.290809955665566
20
18.1961373598805
30
4.861E-13
41
1
10
0.288344686571122
20
18.1990897237154
30
4.861E-13
41
1
10
0.282576626494148
20
18.2053705283389
30
4.861E-13
41
1
10
0.279276769685652
20
18.2086541663267
30
4.861E-13
41
1
10
0.27023552933224
20
18.2169304518466
30
4.861E-13
41
1
10
0.265307390124008
20
18.2206340696716
30
4.861E-13
41
1
10
0.256901453626028
20
18.2265288472598
30
4.861E-13
41
1
10
0.253317987424737
20
18.2287467917697
30
4.861E-13
41
1
10
0.249980947164147
20
18.2306734328625
30
4.861E-13
0
SPLINE
5
1B0
100
AcDbEntity
8
SK1
62
256
6
ByLayer
370
18
48
1
60
0
100
AcDbSpline
70
4
71
3
72
12
73
8
40
0
40
0
40
0
40
0
40
0.499999999999999
40
0.499999999999999
40
0.75
40
0.75
40
1
40
1
40
1
40
1
41
1
10
0.249980947161703
20
17.7693265671361
30
4.861E-13
41
1
10
0.272414825236695
20
17.7822787726816
30
4.861E-13
41
1
10
0.289849679960611
20
17.7996215327343
30
4.861E-13
41
1
10
0.309329969157915
20
17.8313737108875
30
4.861E-13
41
1
10
0.31467252235413
20
17.8429531170883
30
4.861E-13
41
1
10
0.322455514656241
20
17.8686997670906
30
4.861E-13
41
1
10
0.32498094716172
20
17.8827821226977
30
4.861E-13
41
1
10
0.32498094716172
20
17.8992303777037
30
4.861E-13
0
SPLINE
5
1B1
100
AcDbEntity
8
SK1
62
256
6
ByLayer
370
18
48
1
60
0
100
AcDbSpline
70
4
71
3
72
8
73
4
40
0
40
0
40
0
40
0
40
1
40
1
40
1
40
1
41
1
10
-0.342769052838264
20
17.4271021950739
30
4.861E-13
41
1
10
-0.122384349147353
20
17.5543413630751
30
4.861E-13
41
1
10
0.0754822092164034
20
17.6685796738101
30
4.861E-13
41
1
10
0.249980947161731
20
17.7693265671361
30
4.861E-13
0
SPLINE
5
1B2
100
AcDbEntity
8
SK1
62
256
6
ByLayer
370
18
48
1
60
0
100
AcDbSpline
70
4
71
3
72
28
73
24
40
0
40
0
40
0
40
0
40
0.0312500000000019
40
0.0312500000000019
40
0.0468749999999989
40
0.0468749999999989
40
0.0624999999999959
40
0.0624999999999959
40
0.093749999999993
40
0.093749999999993
40
0.12499999999999
40
0.12499999999999
40
0.187499999999991
40
0.187499999999991
40
0.249999999999992
40
0.249999999999992
40
0.374999999999992
40
0.374999999999992
40
0.499999999999991
40
0.499999999999991
40
0.749999999999995
40
0.749999999999995
40
1
40
1
40
1
40
1
41
1
10
-0.342769052838264
20
17.0728978049261
30
4.861E-13
41
1
10
-0.350219788009241
20
17.0771994888827
30
4.861E-13
41
1
10
-0.358549452454525
20
17.0825539799039
30
4.861E-13
41
1
10
-0.37286421803546
20
17.093979869987
30
4.861E-13
41
1
10
-0.377987963333538
20
17.0984317564579
30
4.861E-13
41
1
10
-0.388166271881602
20
17.1083280814276
30
4.861E-13
41
1
10
-0.39318354258549
20
17.1137579495875
30
4.861E-13
41
1
10
-0.406502037973297
20
17.1297408233558
30
4.861E-13
41
1
10
-0.412744887295219
20
17.1393052009069
30
4.861E-13
41
1
10
-0.422483911889913
20
17.1561710776415
30
4.861E-13
41
1
10
-0.42601649971698
20
17.1635944235195
30
4.861E-13
41
1
10
-0.434672051565286
20
17.1840851392542
30
4.861E-13
41
1
10
-0.437986803453384
20
17.1957274100747
30
4.861E-13
41
1
10
-0.442636637049816
20
17.2170226031547
30
4.861E-13
41
1
10
-0.443877476648453
20
17.2266145363653
30
4.861E-13
41
1
10
-0.445780954070017
20
17.2535938389764
30
4.861E-13
41
1
10
-0.444634637795815
20
17.269194360565
30
4.861E-13
41
1
10
-0.439866649629693
20
17.2978762065492
30
4.861E-13
41
1
10
-0.436160069704812
20
17.3109072275389
30
4.861E-13
41
1
10
-0.422428671235508
20
17.3468944380384
30
4.861E-13
41
1
10
-0.409842691366492
20
17.3669156018501
30
4.861E-13
41
1
10
-0.37994559813302
20
17.4013274297263
30
4.861E-13
41
1
10
-0.362582983642852
20
17.4156626167902
30
4.861E-13
41
1
10
-0.342769052838293
20
17.4271021950739
30
4.861E-13
0
SPLINE
5
1B3
100
AcDbEntity
8
SK1
62
256
6
ByLayer
370
18
48
1
60
0
100
AcDbSpline
70
4
71
3
72
8
73
4
40
0
40
0
40
0
40
0
40
1
40
1
40
1
40
1
41
1
10
0.249980947157042
20
16.7306734328667
30
4.861E-13
41
1
10
0.0547247618711708
20
16.8434046440024
30
4.861E-13
41
1
10
-0.142923239003096
20
16.9575167705119
30
4.861E-13
41
1
10
-0.342769052838293
20
17.0728978049261
30
4.861E-13
0
SPLINE
5
1B4
100
AcDbEntity
8
SK1
62
256
6
ByLayer
370
18
48
1
60
0
100
AcDbSpline
70
4
71
3
72
20
73
16
40
0
40
0
40
0
40
0
40
0.249999999999999
40
0.249999999999999
40
0.499999999999998
40
0.499999999999998
40
0.624999999999997
40
0.624999999999997
40
0.749999999999997
40
0.749999999999997
40
0.812499999999996
40
0.812499999999996
40
0.874999999999996
40
0.874999999999996
40
1
40
1
40
1
40
1
41
1
10
0.32498094716172
20
16.6007696742417
30
4.861E-13
41
1
10
0.324980944714127
20
16.6078374423781
30
4.861E-13
41
1
10
0.324500996960751
20
16.6153798571388
30
4.861E-13
41
1
10
0.321956071445726
20
16.6318825954065
30
4.861E-13
41
1
10
0.319966113323687
20
16.6407981042996
30
4.861E-13
41
1
10
0.314369069028942
20
16.6564624937186
30
4.861E-13
41
1
10
0.312057921716672
20
16.662085122696
30
4.861E-13
41
1
10
0.305703740350054
20
16.6746698177185
30
4.861E-13
41
1
10
0.301711034698172
20
16.6816998750711
30
4.861E-13
41
1
10
0.292329218117686
20
16.6943481376134
30
4.861E-13
41
1
10
0.288588938352319
20
16.6989035673295
30
4.861E-13
41
1
10
0.280264486169756
20
16.7077856175684
30
4.861E-13
41
1
10
0.275807648856812
20
16.7119602336366
30
4.861E-13
41
1
10
0.263376019538555
20
16.7224405493047
30
4.861E-13
41
1
10
0.256236858595742
20
16.7270615807138
30
4.861E-13
41
1
10
0.249980947157098
20
16.7306734328666
30
4.861E-13
0
SPLINE
5
1B5
100
AcDbEntity
8
SK1
62
256
6
ByLayer
370
18
48
1
60
0
100
AcDbSpline
70
4
71
3
72
12
73
8
40
0
40
0
40
0
40
0
40
0.499999999999998
40
0.499999999999998
40
0.749999999999999
40
0.749999999999999
40
1
40
1
40
1
40
1
41
1
10
0.249980947162498
20
16.2693265671352
30
4.861E-13
41
1
10
0.27179039097669
20
16.2819182553923
30
4.861E-13
41
1
10
0.289240949627953
20
16.2989278931105
30
4.861E-13
41
1
10
0.308904019991473
20
16.3305383497192
30
4.861E-13
41
1
10
0.314354285966402
20
16.3421324331949
30
4.861E-13
41
1
10
0.322353048377494
20
16.3681407231553
30
4.861E-13
41
1
10
0.324980947161691
20
16.382518693589
30
4.861E-13
41
1
10
0.32498094716172
20
16.3992303777035
30
4.861E-13
0
SPLINE
5
1B6
100
AcDbEntity
8
SK1
62
256
6
ByLayer
370
18
48
1
60
0
100
AcDbSpline
70
4
71
3
72
8
73
4
40
0
40
0
40
0
40
0
40
1
40
1
40
1
40
1
41
1
10
-0.342769052838264
20
15.9271021950739
30
4.861E-13
41
1
10
-0.132896815745312
20
16.048271987655
30
4.861E-13
41
1
10
0.0648365548913432
20
16.1624334024198
30
4.861E-13
41
1
10
0.249980947161731
20
16.2693265671361
30
4.861E-13
0
SPLINE
5
1B7
100
AcDbEntity
8
SK1
62
256
6
ByLayer
370
18
48
1
60
0
100
AcDbSpline
70
4
71
3
72
26
73
22
40
0
40
0
40
0
40
0
40
0.0312499999999997
40
0.0312499999999997
40
0.0624999999999993
40
0.0624999999999993
40
0.093749999999999
40
0.093749999999999
40
0.124999999999999
40
0.124999999999999
40
0.187500000000004
40
0.187500000000004
40
0.250000000000009
40
0.250000000000009
40
0.37500000000001
40
0.37500000000001
40
0.500000000000012
40
0.500000000000012
40
0.750000000000006
40
0.750000000000006
40
1
40
1
40
1
40
1
41
1
10
-0.342769052838264
20
15.5728978049261
30
4.861E-13
41
1
10
-0.349594124357708
20
15.576838261805
30
4.861E-13
41
1
10
-0.356954877170978
20
15.5815885538065
30
4.861E-13
41
1
10
-0.372789901199838
20
15.5937177583002
30
4.861E-13
41
1
10
-0.381285818620199
20
15.6011915260059
30
4.861E-13
41
1
10
-0.397454220776552
20
15.6183542733494
30
4.861E-13
41
1
10
-0.404609871673955
20
15.6275380928634
30
4.861E-13
41
1
10
-0.415901574081005
20
15.6443416507405
30
4.861E-13
41
1
10
-0.420288786491597
20
15.6521867818629
30
4.861E-13
41
1
10
-0.430951862660095
20
15.6737574524048
30
4.861E-13
41
1
10
-0.435119125430106
20
15.686091672949
30
4.861E-13
41
1
10
-0.441074256373923
20
15.7083938363465
30
4.861E-13
41
1
10
-0.442799242142371
20
15.7184741707155
30
4.861E-13
41
1
10
-0.445882914634069
20
15.7469103630901
30
4.861E-13
41
1
10
-0.445142323119342
20
15.763216131862
30
4.861E-13
41
1
10
-0.441022492344615
20
15.7929385564271
30
4.861E-13
41
1
10
-0.437545776439236
20
15.8063404779236
30
4.861E-13
41
1
10
-0.424260602356298
20
15.8435596603405
30
4.861E-13
41
1
10
-0.411612191613614
20
15.8644703135801
30
4.861E-13
41
1
10
-0.381069122415426
20
15.9004060928585
30
4.861E-13
41
1
10
-0.363218614943605
20
15.9152956348876
30
4.861E-13
41
1
10
-0.342769052838293
20
15.9271021950739
30
4.861E-13
0
SPLINE
5
1B8
100
AcDbEntity
8
SK1
62
256
6
ByLayer
370
18
48
1
60
0
100
AcDbSpline
70
4
71
3
72
8
73
4
40
0
40
0
40
0
40
0
40
1
40
1
40
1
40
1
41
1
10
0.249980947159685
20
15.2306734328651
30
4.861E-13
41
1
10
0.0534841279674936
20
15.3441209243206
30
4.861E-13
41
1
10
-0.144124364082046
20
15.4582102403996
30
4.861E-13
41
1
10
-0.342769052838293
20
15.5728978049261
30
4.861E-13
0
SPLINE
5
1B9
100
AcDbEntity
8
SK1
62
256
6
ByLayer
370
18
48
1
60
0
100
AcDbSpline
70
4
71
3
72
18
73
14
40
0
40
0
40
0
40
0
40
0.250000000000006
40
0.250000000000006
40
0.500000000000011
40
0.500000000000011
40
0.625000000000008
40
0.625000000000008
40
0.750000000000006
40
0.750000000000006
40
0.875000000000003
40
0.875000000000003
40
1
40
1
40
1
40
1
41
1
10
0.324980947177011
20
15.1007696733176
30
4.861E-13
41
1
10
0.324980944602714
20
15.1083379719955
30
4.861E-13
41
1
10
0.324432712680647
20
15.116420417677
30
4.861E-13
41
1
10
0.32149464679415
20
15.1341539514463
30
4.861E-13
41
1
10
0.319182438023063
20
15.1438135323922
30
4.861E-13
41
1
10
0.312597598822208
20
15.1607560309805
30
4.861E-13
41
1
10
0.309874417347174
20
15.1668188717233
30
4.861E-13
41
1
10
0.302439168977003
20
15.1802249766799
30
4.861E-13
41
1
10
0.297509190612345
20
15.1878765947346
30
4.861E-13
41
1
10
0.284807946299452
20
15.2034284034641
30
4.861E-13
41
1
10
0.27692257905025
20
15.2111916961387
30
4.861E-13
41
1
10
0.262620965309225
20
15.2228530278961
30
4.861E-13
41
1
10
0.256002024866234
20
15.2271971620468
30
4.861E-13
41
1
10
0.249980947147122
20
15.2306734328874
30
4.861E-13
0
SPLINE
5
1BA
100
AcDbEntity
8
SK1
62
256
6
ByLayer
370
18
48
1
60
0
100
AcDbSpline
70
4
71
3
72
12
73
8
40
0
40
0
40
0
40
0
40
0.499999999999999
40
0.499999999999999
40
0.749999999999999
40
0.749999999999999
40
1
40
1
40
1
40
1
41
1
10
0.249980947161703
20
14.7693265671361
30
4.861E-13
41
1
10
0.271516642800975
20
14.7817602068106
30
4.861E-13
41
1
10
0.289005300634472
20
14.7986536555468
30
4.861E-13
41
1
10
0.308758860239408
20
14.8302537328973
30
4.861E-13
41
1
10
0.314253887073931
20
14.8418692188385
30
4.861E-13
41
1
10
0.322334268365751
20
14.8680173504829
30
4.861E-13
41
1
10
0.32498094716172
20
14.8824182338689
30
4.861E-13
41
1
10
0.32498094716172
20
14.8992303777037
30
4.861E-13
0
SPLINE
5
1BB
100
AcDbEntity
8
SK1
62
256
6
ByLayer
370
18
48
1
60
0
100
AcDbSpline
70
4
71
3
72
8
73
4
40
0
40
0
40
0
40
0
40
1
40
1
40
1
40
1
41
1
10
-0.342769052839685
20
14.4271021950731
30
4.861E-13
41
1
10
-0.136951465371425
20
14.5459310346019
30
4.861E-13
41
1
10
0.0607307434436279
20
14.6600629110752
30
4.861E-13
41
1
10
0.249980947161703
20
14.7693265671361
30
4.861E-13
0
SPLINE
5
1BC
100
AcDbEntity
8
SK1
62
256
6
ByLayer
370
18
48
1
60
0
100
AcDbSpline
70
4
71
3
72
24
73
20
40
0
40
0
40
0
40
0
40
0.0624999999999906
40
0.0624999999999906
40
0.0937499999999886
40
0.0937499999999886
40
0.124999999999987
40
0.124999999999987
40
0.187499999999983
40
0.187499999999983
40
0.249999999999979
40
0.249999999999979
40
0.374999999999983
40
0.374999999999983
40
0.499999999999987
40
0.499999999999987
40
0.749999999999994
40
0.749999999999994
40
1
40
1
40
1
40
1
41
1
10
-0.342769052834598
20
14.072897804918
30
4.861E-13
41
1
10
-0.355492163966829
20
14.0802434965545
30
4.861E-13
41
1
10
-0.370101104686597
20
14.0905168173619
30
4.861E-13
41
1
10
-0.391579881066661
20
14.1117885239882
30
4.861E-13
41
1
10
-0.398484982044153
20
14.1197537295974
30
4.861E-13
41
1
10
-0.410274648123874
20
14.1355431801381
30
4.861E-13
41
1
10
-0.41515767161107
20
14.1432678560082
30
4.861E-13
41
1
10
-0.427372229456552
20
14.1652254088806
30
4.861E-13
41
1
10
-0.432321891039976
20
14.1780120112319
30
4.861E-13
41
1
10
-0.439549508736377
20
14.2014461443951
30
4.861E-13
41
1
10
-0.441681157637106
20
14.2118967014105
30
4.861E-13
41
1
10
-0.445788200762735
20
14.2412797940188
30
4.861E-13
41
1
10
-0.445442817617987
20
14.2583164448053
30
4.861E-13
41
1
10
-0.441818702447648
20
14.2892602049515
30
4.861E-13
41
1
10
-0.438463981017065
20
14.3031082300083
30
4.861E-13
41
1
10
-0.425407582488589
20
14.3414669139582
30
4.861E-13
41
1
10
-0.412753784859746
20
14.3628334233235
30
4.861E-13
41
1
10
-0.381951448310957
20
14.3996431149244
30
4.861E-13
41
1
10
-0.363680833357193
20
14.4150287729628
30
4.861E-13
41
1
10
-0.342769052840225
20
14.4271021950737
30
4.861E-13
0
SPLINE
5
1BD
100
AcDbEntity
8
SK1
62
256
6
ByLayer
370
18
48
1
60
0
100
AcDbSpline
70
4
71
3
72
8
73
4
40
0
40
0
40
0
40
0
40
1
40
1
40
1
40
1
41
1
10
0.249980947161731
20
13.7306734328639
30
4.861E-13
41
1
10
0.0530000040733682
20
13.8444004333812
30
4.861E-13
41
1
10
-0.144595422329132
20
13.9584822060053
30
4.861E-13
41
1
10
-0.342769052838293
20
14.0728978049261
30
4.861E-13
0
SPLINE
5
1BE
100
AcDbEntity
8
SK1
62
256
6
ByLayer
370
18
48
1
60
0
100
AcDbSpline
70
4
71
3
72
18
73
14
40
0
40
0
40
0
40
0
40
0.249999999999976
40
0.249999999999976
40
0.499999999999952
40
0.499999999999952
40
0.624999999999964
40
0.624999999999964
40
0.749999999999976
40
0.749999999999976
40
0.874999999999988
40
0.874999999999988
40
1
40
1
40
1
40
1
41
1
10
0.324980947162288
20
13.6007696670361
30
4.861E-13
41
1
10
0.324980944779611
20
13.6087580826515
30
4.861E-13
41
1
10
0.324375091817643
20
13.6172515822333
30
4.861E-13
41
1
10
0.321101652115999
20
13.6359691257659
30
4.861E-13
41
1
10
0.318480845447794
20
13.6462848088004
30
4.861E-13
41
1
10
0.311140598526833
20
13.6640271324653
30
4.861E-13
41
1
10
0.308065534855785
20
13.67042906028
30
4.861E-13
41
1
10
0.299905142428827
20
13.684183591263
30
4.861E-13
41
1
10
0.294738072321394
20
13.6915917814673
30
4.861E-13
41
1
10
0.28230951572246
20
13.7059884988997
30
4.861E-13
41
1
10
0.275307003668388
20
13.7125990917557
30
4.861E-13
41
1
10
0.262137194402413
20
13.7231417450231
30
4.861E-13
41
1
10
0.255819243409462
20
13.727302690991
30
4.861E-13
41
1
10
0.249980947137743
20
13.7306734329128
30
4.861E-13
0
SPLINE
5
1BF
100
AcDbEntity
8
SK1
62
256
6
ByLayer
370
18
48
1
60
0
100
AcDbSpline
70
4
71
3
72
12
73
8
40
0
40
0
40
0
40
0
40
0.50000000000001
40
0.50000000000001
40
0.750000000000005
40
0.750000000000005
40
1
40
1
40
1
40
1
41
1
10
0.249980947161731
20
13.2693265671361
30
4.861E-13
41
1
10
0.271365093900812
20
13.2816727100123
30
4.861E-13
41
1
10
0.288886118499505
20
13.298502388523
30
4.861E-13
41
1
10
0.308718668188703
20
13.3301698901522
30
4.861E-13
41
1
10
0.31422032107335
20
13.3417949276563
30
4.861E-13
41
1
10
0.322302273623137
20
13.3678797646459
30
4.861E-13
41
1
10
0.32498094716172
20
13.3822418326898
30
4.861E-13
41
1
10
0.32498094716172
20
13.3992303777037
30
4.861E-13
0
SPLINE
5
1C0
100
AcDbEntity
8
SK1
62
256
6
ByLayer
370
18
48
1
60
0
100
AcDbSpline
70
4
71
3
72
8
73
4
40
0
40
0
40
0
40
0
40
1
40
1
40
1
40
1
41
1
10
-0.342769052839401
20
12.9271021950733
30
4.861E-13
41
1
10
-0.139093450172965
20
13.0446943591001
30
4.861E-13
41
1
10
0.0585614418591547
20
13.1588104642215
30
4.861E-13
41
1
10
0.249980947161731
20
13.2693265671361
30
4.861E-13
0
SPLINE
5
1C1
100
AcDbEntity
8
SK1
62
256
6
ByLayer
370
18
48
1
60
0
100
AcDbSpline
70
4
71
3
72
22
73
18
40
0
40
0
40
0
40
0
40
0.0625000000000003
40
0.0625000000000003
40
0.125000000000001
40
0.125000000000001
40
0.187500000000001
40
0.187500000000001
40
0.250000000000001
40
0.250000000000001
40
0.375000000000002
40
0.375000000000002
40
0.500000000000002
40
0.500000000000002
40
0.750000000000001
40
0.750000000000001
40
1
40
1
40
1
40
1
41
1
10
-0.342769052838293
20
12.5728978049261
30
4.861E-13
41
1
10
-0.354608181839751
20
12.579733129242
30
4.861E-13
41
1
10
-0.3676417881058
20
12.5887969509676
30
4.861E-13
41
1
10
-0.393933820836594
20
12.6135796136962
30
4.861E-13
41
1
10
-0.406050000047912
20
12.6287545713999
30
4.861E-13
41
1
10
-0.423576796837182
20
12.6573133731191
30
4.861E-13
41
1
10
-0.429373222380349
20
12.6705238773501
30
4.861E-13
41
1
10
-0.437772772863468
20
12.6945624553113
30
4.861E-13
41
1
10
-0.440407220383491
20
12.7055989538999
30
4.861E-13
41
1
10
-0.445588571768269
20
12.7361193630082
30
4.861E-13
41
1
10
-0.445625738411877
20
12.7535773835817
30
4.861E-13
41
1
10
-0.442516530023795
20
12.7857570881221
30
4.861E-13
41
1
10
-0.439280452881775
20
12.8000626434373
30
4.861E-13
41
1
10
-0.426421000815225
20
12.8396056103103
30
4.861E-13
41
1
10
-0.413679423890983
20
12.8615037472975
30
4.861E-13
41
1
10
-0.382525012517618
20
12.8991707316468
30
4.861E-13
41
1
10
-0.363925974973824
20
12.9148872403836
30
4.861E-13
41
1
10
-0.342769052839458
20
12.9271021950732
30
4.861E-13
0
SPLINE
5
1C2
100
AcDbEntity
8
SK1
62
256
6
ByLayer
370
18
48
1
60
0
100
AcDbSpline
70
4
71
3
72
8
73
4
40
0
40
0
40
0
40
0
40
1
40
1
40
1
40
1
41
1
10
0.249980947161731
20
12.2306734328639
30
4.861E-13
41
1
10
0.0527632894172712
20
12.3445371006516
30
4.861E-13
41
1
10
-0.144826582198107
20
12.4586156662179
30
4.861E-13
41
1
10
-0.342769052838293
20
12.5728978049261
30
4.861E-13
0
SPLINE
5
1C3
100
AcDbEntity
8
SK1
62
256
6
ByLayer
370
18
48
1
60
0
100
AcDbSpline
70
4
71
3
72
16
73
12
40
0
40
0
40
0
40
0
40
0.25
40
0.25
40
0.5
40
0.5
40
0.625
40
0.625
40
0.75
40
0.75
40
1
40
1
40
1
40
1
41
1
10
0.324980947189715
20
12.1007696222698
30
4.861E-13
41
1
10
0.324980947191193
20
12.1091375518884
30
4.861E-13
41
1
10
0.324309016993112
20
12.1181205982701
30
4.861E-13
41
1
10
0.320686052162728
20
12.1377824738949
30
4.861E-13
41
1
10
0.317786456289241
20
12.1486027991513
30
4.861E-13
41
1
10
0.30968169493292
20
12.1671101461963
30
4.861E-13
41
1
10
0.306333788099494
20
12.1736485913715
30
4.861E-13
41
1
10
0.297771572636037
20
12.187299242956
30
4.861E-13
41
1
10
0.292433481716614
20
12.1944924874515
30
4.861E-13
41
1
10
0.274589605548385
20
12.214323171248
30
4.861E-13
41
1
10
0.261321720492362
20
12.2241258343668
30
4.861E-13
41
1
10
0.249980947142376
20
12.2306734329092
30
4.861E-13
0
SPLINE
5
1C4
100
AcDbEntity
8
SK1
62
256
6
ByLayer
370
18
48
1
60
0
100
AcDbSpline
70
4
71
3
72
12
73
8
40
0
40
0
40
0
40
0
40
0.500000000000013
40
0.500000000000013
40
0.750000000000007
40
0.750000000000007
40
1
40
1
40
1
40
1
41
1
10
0.249980947161703
20
11.7693265671361
30
4.861E-13
41
1
10
0.271180770286804
20
11.7815662907241
30
4.861E-13
41
1
10
0.28859849031673
20
11.7981560037921
30
4.861E-13
41
1
10
0.308577748339132
20
11.829889635649
30
4.861E-13
41
1
10
0.314125680259338
20
11.8415504008793
30
4.861E-13
41
1
10
0.322280802533015
20
11.8677503986238
30
4.861E-13
41
1
10
0.324980952094307
20
11.8823349663461
30
4.861E-13
41
1
10
0.32498094716172
20
11.899230421496
30
4.861E-13
0
SPLINE
5
1C5
100
AcDbEntity
8
SK1
62
256
6
ByLayer
370
18
48
1
60
0
100
AcDbSpline
70
4
71
3
72
8
73
4
40
0
40
0
40
0
40
0
40
1
40
1
40
1
40
1
41
1
10
-0.342769052838293
20
11.4271021950739
30
4.861E-13
41
1
10
-0.140428826570826
20
11.5439233791773
30
4.861E-13
41
1
10
0.0572098387456208
20
11.6580301158001
30
4.861E-13
41
1
10
0.249980947161703
20
11.7693265671361
30
4.861E-13
0
SPLINE
5
1C6
100
AcDbEntity
8
SK1
62
256
6
ByLayer
370
18
48
1
60
0
100
AcDbSpline
70
4
71
3
72
22
73
18
40
0
40
0
40
0
40
0
40
0.0625000000000055
40
0.0625000000000055
40
0.125000000000011
40
0.125000000000011
40
0.187500000000016
40
0.187500000000016
40
0.250000000000022
40
0.250000000000022
40
0.375000000000019
40
0.375000000000019
40
0.500000000000016
40
0.500000000000016
40
0.750000000000008
40
0.750000000000008
40
1
40
1
40
1
40
1
41
1
10
-0.342769052838293
20
11.0728978049261
30
4.861E-13
41
1
10
-0.354050595451156
20
11.0794112065905
30
4.861E-13
41
1
10
-0.366209629257298
20
11.0878490587058
30
4.861E-13
41
1
10
-0.390520771895638
20
11.1100338146446
30
4.861E-13
41
1
10
-0.402179577389546
20
11.1236871566761
30
4.861E-13
41
1
10
-0.420239075386917
20
11.1510567178538
30
4.861E-13
41
1
10
-0.426716865430166
20
11.1644252779558
30
4.861E-13
41
1
10
-0.436131893586378
20
11.188940397959
30
4.861E-13
41
1
10
-0.43912007213919
20
11.2000710535235
30
4.861E-13
41
1
10
-0.445319628398238
20
11.231641555031
30
4.861E-13
41
1
10
-0.445676858959644
20
11.2496418556063
30
4.861E-13
41
1
10
-0.443105753875727
20
11.2823802755193
30
4.861E-13
41
1
10
-0.440018994658601
20
11.2971638179407
30
4.861E-13
41
1
10
-0.427264174779651
20
11.3381142409963
30
4.861E-13
41
1
10
-0.414383428423463
20
11.3604758779005
30
4.861E-13
41
1
10
-0.382981648139548
20
11.398788943257
30
4.861E-13
41
1
10
-0.364323351058204
20
11.4146578151945
30
4.861E-13
41
1
10
-0.342769052838293
20
11.4271021950739
30
4.861E-13
0
SPLINE
5
1C7
100
AcDbEntity
8
SK1
62
256
6
ByLayer
370
18
48
1
60
0
100
AcDbSpline
70
4
71
3
72
8
73
4
40
0
40
0
40
0
40
0
40
1
40
1
40
1
40
1
41
1
10
0.249980947161731
20
10.7306734328639
30
4.861E-13
41
1
10
0.0526311005796742
20
10.8446134199126
30
4.861E-13
41
1
10
-0.144956402685096
20
10.958690618111
30
4.861E-13
41
1
10
-0.342769052838293
20
11.0728978049261
30
4.861E-13
0
SPLINE
5
1C8
100
AcDbEntity
8
SK1
62
256
6
ByLayer
370
18
48
1
60
0
100
AcDbSpline
70
4
71
3
72
14
73
10
40
0
40
0
40
0
40
0
40
0.25
40
0.25
40
0.5
40
0.5
40
0.75
40
0.75
40
1
40
1
40
1
40
1
41
1
10
0.32498094716172
20
10.6007696222963
30
4.861E-13
41
1
10
0.32498094716172
20
10.6094638429982
30
4.861E-13
41
1
10
0.324257414918691
20
10.6188504811585
30
4.861E-13
41
1
10
0.320279451864962
20
10.6394830025956
30
4.861E-13
41
1
10
0.317087137316207
20
10.6507433672038
30
4.861E-13
41
1
10
0.305544085308497
20
10.6759015823237
30
4.861E-13
41
1
10
0.296574052598174
20
10.690224877575
30
4.861E-13
41
1
10
0.273553804333773
20
10.7150959876526
30
4.861E-13
41
1
10
0.261125044145871
20
10.7242393854777
30
4.861E-13
41
1
10
0.249980947157809
20
10.7306734328728
30
4.861E-13
0
SPLINE
5
1C9
100
AcDbEntity
8
SK1
62
256
6
ByLayer
370
18
48
1
60
0
100
AcDbSpline
70
4
71
3
72
12
73
8
40
0
40
0
40
0
40
0
40
0.5
40
0.5
40
0.75
40
0.75
40
1
40
1
40
1
40
1
41
1
10
0.249980947163351
20
10.269326567137
30
4.861E-13
41
1
10
0.271072889936477
20
10.2815040059752
30
4.861E-13
41
1
10
0.288435995715759
20
10.2979819796639
30
4.861E-13
41
1
10
0.308444760829587
20
10.3296370448461
30
4.861E-13
41
1
10
0.314074872656789
20
10.3414150937225
30
4.861E-13
41
1
10
0.322278016727239
20
10.3677137080055
30
4.861E-13
41
1
10
0.324980951859601
20
10.3821975796411
30
4.861E-13
41
1
10
0.32498094716172
20
10.3992304190757
30
4.861E-13
0
SPLINE
5
1CA
100
AcDbEntity
8
SK1
62
256
6
ByLayer
370
18
48
1
60
0
100
AcDbSpline
70
4
71
3
72
8
73
4
40
0
40
0
40
0
40
0
40
1
40
1
40
1
40
1
41
1
10
0.0469703231316885
20
10.152118328704
30
4.861E-13
41
1
10
0.115112466683513
20
10.1914602136268
30
4.861E-13
41
1
10
0.182784534594248
20
10.2305307002517
30
4.861E-13
41
1
10
0.249980947163465
20
10.2693265671371
30
4.861E-13
0
SPLINE
5
1CB
100
AcDbEntity
8
1
62
256
6
ByLayer
370
18
48
1
60
0
100
AcDbSpline
70
4
71
3
72
26
73
22
40
0
40
0
40
0
40
0
40
0.125000000000002
40
0.125000000000002
40
0.187500000000002
40
0.187500000000002
40
0.250000000000002
40
0.250000000000002
40
0.375000000000002
40
0.375000000000002
40
0.500000000000003
40
0.500000000000003
40
0.625000000000003
40
0.625000000000003
40
0.750000000000003
40
0.750000000000003
40
0.812500000000003
40
0.812500000000003
40
0.875000000000003
40
0.875000000000003
40
1
40
1
40
1
40
1
41
1
10
-9.08230634597851
20
-25.25
30
4.861E-13
41
1
10
-9.18824565605021
20
-25.25
30
4.861E-13
41
1
10
-9.29246541219368
20
-25.260278919343
30
4.861E-13
41
1
10
-9.44631534007985
20
-25.2905201549897
30
4.861E-13
41
1
10
-9.49718233135064
20
-25.3030891770433
30
4.861E-13
41
1
10
-9.59806396600638
20
-25.3333222722717
30
4.861E-13
41
1
10
-9.64822139412951
20
-25.3510733197133
30
4.861E-13
41
1
10
-9.79418615169567
20
-25.410912350896
30
4.861E-13
41
1
10
-9.88655758205834
20
-25.4597644732757
30
4.861E-13
41
1
10
-10.0614920546972
20
-25.5752634434833
30
4.861E-13
41
1
10
-10.1443987906885
20
-25.6424680722736
30
4.861E-13
41
1
10
-10.2942059830239
20
-25.7907390755459
30
4.861E-13
41
1
10
-10.3622636089751
20
-25.8729510082703
30
4.861E-13
41
1
10
-10.479444555727
20
-26.0468095934872
30
4.861E-13
41
1
10
-10.5291185581804
20
-26.1387751138465
30
4.861E-13
41
1
10
-10.590055689664
20
-26.2843902294412
30
4.861E-13
41
1
10
-10.6081390882415
20
-26.3344485514991
30
4.861E-13
41
1
10
-10.6389330193613
20
-26.4351025224867
30
4.861E-13
41
1
10
-10.6517483302216
20
-26.4858896843876
30
4.861E-13
41
1
10
-10.6826041504268
20
-26.6396040972042
30
4.861E-13
41
1
10
-10.6931296639871
20
-26.7441152905247
30
4.861E-13
41
1
10
-10.6931296639871
20
-26.85
30
4.861E-13
0
SPLINE
5
1CC
100
AcDbEntity
8
1
62
256
6
ByLayer
370
18
48
1
60
0
100
AcDbSpline
70
4
71
3
72
22
73
18
40
0
40
0
40
0
40
0
40
0.249999999999991
40
0.249999999999991
40
0.374999999999988
40
0.374999999999988
40
0.437499999999987
40
0.437499999999987
40
0.499999999999987
40
0.499999999999987
40
0.749999999999992
40
0.749999999999992
40
0.812499999999993
40
0.812499999999993
40
0.874999999999994
40
0.874999999999994
40
1
40
1
40
1
40
1
41
1
10
-12.1239799087436
20
-49.0593647806764
30
4.861E-13
41
1
10
-12.1415831095589
20
-49.1203337306339
30
4.861E-13
41
1
10
-12.1574507983548
20
-49.2263999732547
30
4.861E-13
41
1
10
-12.1790067148128
20
-49.4505482669216
30
4.861E-13
41
1
10
-12.1858161423208
20
-49.5361995025039
30
4.861E-13
41
1
10
-12.1954996195569
20
-49.681609593581
30
4.861E-13
41
1
10
-12.198637435696
20
-49.7329183681979
30
4.861E-13
41
1
10
-12.2046698393675
20
-49.8399522426664
30
4.861E-13
41
1
10
-12.2075745088375
20
-49.8958211044314
30
4.861E-13
41
1
10
-12.2215749351096
20
-50.1867283074513
30
4.861E-13
41
1
10
-12.2311145039575
20
-50.4560636470933
30
4.861E-13
41
1
10
-12.2413776542043
20
-50.8393301720949
30
4.861E-13
41
1
10
-12.2433507231733
20
-50.9185317247134
30
4.861E-13
41
1
10
-12.2471096666864
20
-51.0805581169156
30
4.861E-13
41
1
10
-12.248896719043
20
-51.1633951660556
30
4.861E-13
41
1
10
-12.2540000375336
20
-51.417339250245
30
4.861E-13
41
1
10
-12.2570592748187
20
-51.5938634539138
30
4.861E-13
41
1
10
-12.2598167170024
20
-51.7777018864083
30
4.861E-13
0
SPLINE
5
1CD
100
AcDbEntity
8
1
62
256
6
ByLayer
370
18
48
1
60
0
100
AcDbSpline
70
4
71
3
72
28
73
24
40
0
40
0
40
0
40
0
40
0.0624999999999997
40
0.0624999999999997
40
0.124999999999999
40
0.124999999999999
40
0.249999999999999
40
0.249999999999999
40
0.312499999999999
40
0.312499999999999
40
0.374999999999998
40
0.374999999999998
40
0.499999999999999
40
0.499999999999999
40
0.562499999999999
40
0.562499999999999
40
0.624999999999999
40
0.624999999999999
40
0.749999999999999
40
0.749999999999999
40
0.874999999999999
40
0.874999999999999
40
1
40
1
40
1
40
1
41
1
10
-4.67000000000004
20
-19.2871459442085
30
4.861E-13
41
1
10
-4.67000000000004
20
-19.2450555881702
30
4.861E-13
41
1
10
-4.66758898160595
20
-19.2025959063434
30
4.861E-13
41
1
10
-4.65804676605137
20
-19.1187486532784
30
4.861E-13
41
1
10
-4.65093307350287
20
-19.0772124818654
30
4.861E-13
41
1
10
-4.62267905383675
20
-18.9537473434435
30
4.861E-13
41
1
10
-4.59469049576515
20
-18.8729510492732
30
4.861E-13
41
1
10
-4.53830544793752
20
-18.7541386820178
30
4.861E-13
41
1
10
-4.51703120288232
20
-18.7148858130982
30
4.861E-13
41
1
10
-4.47042981551112
20
-18.6388292442499
30
4.861E-13
41
1
10
-4.44501552799099
20
-18.6018168356867
30
4.861E-13
41
1
10
-4.3624352391254
20
-18.49382562494
30
4.861E-13
41
1
10
-4.29900049723045
20
-18.4258598246391
30
4.861E-13
41
1
10
-4.19016811472596
20
-18.3304863968314
30
4.861E-13
41
1
10
-4.15168484795802
20
-18.2999235971993
30
4.861E-13
41
1
10
-4.0718405737158
20
-18.2425117494597
30
4.861E-13
41
1
10
-4.03027699734574
20
-18.215478140467
30
4.861E-13
41
1
10
-3.90061864366234
20
-18.1394383795524
30
4.861E-13
41
1
10
-3.80721028387742
20
-18.0952841971875
30
4.861E-13
41
1
10
-3.60744917232623
20
-18.0225100932201
30
4.861E-13
41
1
10
-3.5043039698358
20
-17.9949883244004
30
4.861E-13
41
1
10
-3.29151249979796
20
-17.9575986977754
30
4.861E-13
41
1
10
-3.18089102002952
20
-17.9477925210688
30
4.861E-13
41
1
10
-3.07000000000002
20
-17.9477925210688
30
4.861E-13
0
SPLINE
5
1CE
100
AcDbEntity
8
1
62
256
6
ByLayer
370
18
48
1
60
0
100
AcDbSpline
70
4
71
3
72
10
73
6
40
0
40
0
40
0
40
0
40
0.5
40
0.5
40
1
40
1
40
1
40
1
41
1
10
-13.3430530075996
20
-49.0593647806764
30
4.861E-13
41
1
10
-13.428194097437
20
-49.0622343498128
30
4.861E-13
41
1
10
-13.5140367195111
20
-49.0637502821156
30
4.861E-13
41
1
10
-13.6871288664172
20
-49.0637562817372
30
4.861E-13
41
1
10
-13.7747753134955
20
-49.0622066259877
30
4.861E-13
41
1
10
-13.8599772742467
20
-49.0593647806764
30
4.861E-13
0
SPLINE
5
1CF
100
AcDbEntity
8
1
62
256
6
ByLayer
370
18
48
1
60
0
100
AcDbSpline
70
4
71
3
72
34
73
30
40
0
40
0
40
0
40
0
40
0.0625000000000007
40
0.0625000000000007
40
0.0937500000000001
40
0.0937500000000001
40
0.125
40
0.125
40
0.187499999999998
40
0.187499999999998
40
0.249999999999996
40
0.249999999999996
40
0.374999999999993
40
0.374999999999993
40
0.437499999999993
40
0.437499999999993
40
0.499999999999993
40
0.499999999999993
40
0.624999999999993
40
0.624999999999993
40
0.749999999999994
40
0.749999999999994
40
0.812499999999995
40
0.812499999999995
40
0.874999999999997
40
0.874999999999997
40
0.937499999999999
40
0.937499999999999
40
1
40
1
40
1
40
1
41
1
10
-14.5385816194911
20
-49.0593647806764
30
4.861E-13
41
1
10
-14.4715770826783
20
-49.0730147814035
30
4.861E-13
41
1
10
-14.4171689269306
20
-49.0897874863552
30
4.861E-13
41
1
10
-14.3507877017208
20
-49.1204934802987
30
4.861E-13
41
1
10
-14.3312273106635
20
-49.1316532242595
30
4.861E-13
41
1
10
-14.296875800568
20
-49.1559682389186
30
4.861E-13
41
1
10
-14.2820781958712
20
-49.1691666921502
30
4.861E-13
41
1
10
-14.2450352968612
20
-49.2111074436478
30
4.861E-13
41
1
10
-14.2296928478714
20
-49.2424079059986
30
4.861E-13
41
1
10
-14.2138342845408
20
-49.3118350408365
30
4.861E-13
41
1
10
-14.2133695566208
20
-49.3500800119267
30
4.861E-13
41
1
10
-14.2306215060693
20
-49.4745748176399
30
4.861E-13
41
1
10
-14.2660103298662
20
-49.5682444793579
30
4.861E-13
41
1
10
-14.3421270934997
20
-49.7238539845116
30
4.861E-13
41
1
10
-14.3714554207985
20
-49.7782512222155
30
4.861E-13
41
1
10
-14.4368370800666
20
-49.8920525616196
30
4.861E-13
41
1
10
-14.4728166620976
20
-49.951302932352
30
4.861E-13
41
1
10
-14.5876411438278
20
-50.133697512343
30
4.861E-13
41
1
10
-14.6737477657211
20
-50.2622976082829
30
4.861E-13
41
1
10
-14.8594188921035
20
-50.5329661491435
30
4.861E-13
41
1
10
-14.9590312149835
20
-50.6750430504568
30
4.861E-13
41
1
10
-15.1163246497402
20
-50.8982423632184
30
4.861E-13
41
1
10
-15.1701736877522
20
-50.9744550284533
30
4.861E-13
41
1
10
-15.2795779500237
20
-51.1291639612964
30
4.861E-13
41
1
10
-15.3351891762119
20
-51.2077532026827
30
4.861E-13
41
1
10
-15.4482601692122
20
-51.3672729839341
30
4.861E-13
41
1
10
-15.5056846399872
20
-51.4482214520464
30
4.861E-13
41
1
10
-15.6231265738643
20
-51.6120207422991
30
4.861E-13
41
1
10
-15.6827831041791
20
-51.6950519358156
30
4.861E-13
41
1
10
-15.7463743727709
20
-51.7777018864102
30
4.861E-13
0
SPLINE
5
1D0
100
AcDbEntity
8
1
62
256
6
ByLayer
370
18
48
1
60
0
100
AcDbSpline
70
4
71
3
72
30
73
26
40
0
40
0
40
0
40
0
40
0.0625000000000013
40
0.0625000000000013
40
0.125000000000002
40
0.125000000000002
40
0.250000000000002
40
0.250000000000002
40
0.375000000000001
40
0.375000000000001
40
0.5
40
0.5
40
0.625
40
0.625
40
0.6875
40
0.6875
40
0.75
40
0.75
40
0.8125
40
0.8125
40
0.875
40
0.875
40
0.9375
40
0.9375
40
1
40
1
40
1
40
1
41
1
10
-16.1888665165347
20
-51.7777018864083
30
4.861E-13
41
1
10
-16.2407670152173
20
-51.691668206126
30
4.861E-13
41
1
10
-16.2878544562612
20
-51.6058035028931
30
4.861E-13
41
1
10
-16.3798931760366
20
-51.437018077835
30
4.861E-13
41
1
10
-16.4243748195658
20
-51.3539327997868
30
4.861E-13
41
1
10
-16.5546507021535
20
-51.109140900255
30
4.861E-13
41
1
10
-16.6372557778159
20
-50.9518640084315
30
4.861E-13
41
1
10
-16.7930664875431
20
-50.6495988402488
30
4.861E-13
41
1
10
-16.8662128819901
20
-50.5045748250905
30
4.861E-13
41
1
10
-16.9990403581881
20
-50.2271798595452
30
4.861E-13
41
1
10
-17.0574930888934
20
-50.0973553724696
30
4.861E-13
41
1
10
-17.152957109584
20
-49.855876484528
30
4.861E-13
41
1
10
-17.1901192598521
20
-49.7441489761786
30
4.861E-13
41
1
10
-17.2226819983448
20
-49.5907213567142
30
4.861E-13
41
1
10
-17.2295061904093
20
-49.5423680658213
30
4.861E-13
41
1
10
-17.2335947031496
20
-49.4520255630386
30
4.861E-13
41
1
10
-17.2308984181126
20
-49.4099004726271
30
4.861E-13
41
1
10
-17.2141540014681
20
-49.3317094678923
30
4.861E-13
41
1
10
-17.2000761059908
20
-49.2955691504108
30
4.861E-13
41
1
10
-17.1579678072647
20
-49.229678182942
30
4.861E-13
41
1
10
-17.1302907443874
20
-49.2004441810676
30
4.861E-13
41
1
10
-17.0595392552926
20
-49.1488149336636
30
4.861E-13
41
1
10
-17.0164962930716
20
-49.1264212140728
30
4.861E-13
41
1
10
-16.9115237689115
20
-49.0878955236886
30
4.861E-13
41
1
10
-16.8506773040357
20
-49.0721719579729
30
4.861E-13
41
1
10
-16.7802271425995
20
-49.0593647806764
30
4.861E-13
0
SPLINE
5
1D1
100
AcDbEntity
8
1
62
256
6
ByLayer
370
18
48
1
60
0
100
AcDbSpline
70
4
71
3
72
10
73
6
40
0
40
0
40
0
40
0
40
0.5
40
0.5
40
1
40
1
40
1
40
1
41
1
10
-12.3183829999481
20
-57.7006263360704
30
4.861E-13
41
1
10
-12.6684748447588
20
-57.7551127578152
30
4.861E-13
41
1
10
-13.0188859174836
20
-57.808141400302
30
4.861E-13
41
1
10
-13.7197935309144
20
-57.9137793540617
30
4.861E-13
41
1
10
-14.0703215512571
20
-57.9662514137315
30
4.861E-13
41
1
10
-14.4208747878794
20
-58.0186055979964
30
4.861E-13
0
SPLINE
5
1D2
100
AcDbEntity
8
1
62
256
6
ByLayer
370
18
48
1
60
0
100
AcDbSpline
70
4
71
3
72
10
73
6
40
0
40
0
40
0
40
0
40
0.5
40
0.5
40
1
40
1
40
1
40
1
41
1
10
-14.4208747878793
20
-58.0186055979964
30
4.861E-13
41
1
10
-14.4469766837593
20
-58.0225038460335
30
4.861E-13
41
1
10
-14.4713721700561
20
-58.0322563277993
30
4.861E-13
41
1
10
-14.5112668459581
20
-58.0606211287805
30
4.861E-13
41
1
10
-14.5267743267017
20
-58.0792575759209
30
4.861E-13
41
1
10
-14.5357814543475
20
-58.1001689900899
30
4.861E-13
0
SPLINE
5
1D3
100
AcDbEntity
8
1
62
256
6
ByLayer
370
18
48
1
60
0
100
AcDbSpline
70
4
71
3
72
8
73
4
40
0
40
0
40
0
40
0
40
1
40
1
40
1
40
1
41
1
10
-14.5357814543472
20
-58.10016899009
30
4.861E-13
41
1
10
-14.5518538114469
20
-58.1374834069828
30
4.861E-13
41
1
10
-14.5679443656766
20
-58.1747923185326
30
4.861E-13
41
1
10
-14.5840461068822
20
-58.212097845585
30
4.861E-13
0
SPLINE
5
1D4
100
AcDbEntity
8
1
62
256
6
ByLayer
370
18
48
1
60
0
100
AcDbSpline
70
4
71
3
72
10
73
6
40
0
40
0
40
0
40
0
40
0.5
40
0.5
40
1
40
1
40
1
40
1
41
1
10
-14.5840461068822
20
-58.212097845585
30
4.861E-13
41
1
10
-14.5945440029669
20
-58.2364200317001
30
4.861E-13
41
1
10
-14.6137556380548
20
-58.2574982476849
30
4.861E-13
41
1
10
-14.6637432594082
20
-58.2871007496467
30
4.861E-13
41
1
10
-14.6941379560092
20
-58.2952808450919
30
4.861E-13
41
1
10
-14.7249999999982
20
-58.2952808450922
30
4.861E-13
0
SPLINE
5
1D5
100
AcDbEntity
8
1
62
256
6
ByLayer
370
18
48
1
60
0
100
AcDbSpline
70
4
71
3
72
10
73
6
40
0
40
0
40
0
40
0
40
0.5
40
0.5
40
1
40
1
40
1
40
1
41
1
10
-15.2750000000001
20
-58.2952808450776
30
4.861E-13
41
1
10
-15.3058573711104
20
-58.2952808450776
30
4.861E-13
41
1
10
-15.3359921481026
20
-58.2871996571856
30
4.861E-13
41
1
10
-15.3860602235518
20
-58.2576645611758
30
4.861E-13
41
1
10
-15.4054540610705
20
-58.2364245170606
30
4.861E-13
41
1
10
-15.415953893118
20
-58.2120978455849
30
4.861E-13
0
SPLINE
5
1D6
100
AcDbEntity
8
1
62
256
6
ByLayer
370
18
48
1
60
0
100
AcDbSpline
70
4
71
3
72
8
73
4
40
0
40
0
40
0
40
0
40
1
40
1
40
1
40
1
41
1
10
-15.415953893118
20
-58.2120978455849
30
4.861E-13
41
1
10
-15.4320557258476
20
-58.1747921064839
30
4.861E-13
41
1
10
-15.4481462956943
20
-58.1374831582387
30
4.861E-13
41
1
10
-15.464218545653
20
-58.10016899009
30
4.861E-13
0
SPLINE
5
1D7
100
AcDbEntity
8
1
62
256
6
ByLayer
370
18
48
1
60
0
100
AcDbSpline
70
4
71
3
72
10
73
6
40
0
40
0
40
0
40
0
40
0.5
40
0.5
40
1
40
1
40
1
40
1
41
1
10
-15.4642185456529
20
-58.1001689900899
30
4.861E-13
41
1
10
-15.4732327137461
20
-58.0792412304539
30
4.861E-13
41
1
10
-15.4887163469487
20
-58.0606326222111
30
4.861E-13
41
1
10
-15.5286482778275
20
-58.0322422458371
30
4.861E-13
41
1
10
-15.5529879676932
20
-58.0225091252441
30
4.861E-13
41
1
10
-15.5791252121208
20
-58.0186055979964
30
4.861E-13
0
SPLINE
5
1D8
100
AcDbEntity
8
1
62
256
6
ByLayer
370
18
48
1
60
0
100
AcDbSpline
70
4
71
3
72
10
73
6
40
0
40
0
40
0
40
0
40
0.5
40
0.5
40
1
40
1
40
1
40
1
41
1
10
-15.5791252121208
20
-58.0186055979964
30
4.861E-13
41
1
10
-15.9351090709581
20
-57.965440364891
30
4.861E-13
41
1
10
-16.2910672722874
20
-57.9121545393679
30
4.861E-13
41
1
10
-17.0028272836296
20
-57.804856229047
30
4.861E-13
41
1
10
-17.3586688536828
20
-57.7509999391148
30
4.861E-13
41
1
10
-17.7141557521853
20
-57.6955568821781
30
4.861E-13
0
SPLINE
5
1D9
100
AcDbEntity
8
SK1
62
256
6
ByLayer
370
18
48
1
60
0
100
AcDbSpline
70
4
71
3
72
8
73
4
40
0
40
0
40
0
40
0
40
1
40
1
40
1
40
1
41
1
10
-0.500000000000028
20
-19.9458521689815
30
4.861E-13
41
1
10
-0.265553351707069
20
-19.7113677540405
30
4.861E-13
41
1
10
-0.0311071342645164
20
-19.4768829084489
30
4.861E-13
41
1
10
0.203338636804716
20
-19.2423976166959
30
4.861E-13
0
SPLINE
5
1DA
100
AcDbEntity
8
1
62
256
6
ByLayer
370
18
48
1
60
0
100
AcDbSpline
70
4
71
3
72
26
73
22
40
0
40
0
40
0
40
0
40
0.124999999999997
40
0.124999999999997
40
0.249999999999994
40
0.249999999999994
40
0.312499999999994
40
0.312499999999994
40
0.374999999999993
40
0.374999999999993
40
0.499999999999994
40
0.499999999999994
40
0.624999999999994
40
0.624999999999994
40
0.749999999999995
40
0.749999999999995
40
0.812499999999995
40
0.812499999999995
40
0.874999999999995
40
0.874999999999995
40
1
40
1
40
1
40
1
41
1
10
-8.91461876029297
20
-25.25
30
4.861E-13
41
1
10
-9.01938922927187
20
-25.2499999999999
30
4.861E-13
41
1
10
-9.12576236350461
20
-25.2603740377568
30
4.861E-13
41
1
10
-9.3314455337437
20
-25.300915608854
30
4.861E-13
41
1
10
-9.43159601414186
20
-25.3309097173608
30
4.861E-13
41
1
10
-9.57772417237655
20
-25.3907059235207
30
4.861E-13
41
1
10
-9.62594821263625
20
-25.4132523158075
30
4.861E-13
41
1
10
-9.71903651174813
20
-25.4624728734953
30
4.861E-13
41
1
10
-9.76410223545815
20
-25.4892049685481
30
4.861E-13
41
1
10
-9.89495023859553
20
-25.575643119112
30
4.861E-13
41
1
10
-9.97644737388461
20
-25.641549561434
30
4.861E-13
41
1
10
-10.1272886779829
20
-25.7906018193786
30
4.861E-13
41
1
10
-10.1946100304426
20
-25.8717430708875
30
4.861E-13
41
1
10
-10.3130585546521
20
-26.0472522101835
30
4.861E-13
41
1
10
-10.3629959117723
20
-26.1400102314422
30
4.861E-13
41
1
10
-10.4235143545432
20
-26.2846954917645
30
4.861E-13
41
1
10
-10.441332155619
20
-26.3339443166334
30
4.861E-13
41
1
10
-10.4721635313082
20
-26.4345235918997
30
4.861E-13
41
1
10
-10.4852168495486
20
-26.4861314793102
30
4.861E-13
41
1
10
-10.5162814210439
20
-26.6411235093436
30
4.861E-13
41
1
10
-10.5265551470636
20
-26.7451955355903
30
4.861E-13
41
1
10
-10.5265551470636
20
-26.85
30
4.861E-13
0
SPLINE
5
1DB
100
AcDbEntity
8
1
62
256
6
ByLayer
370
18
48
1
60
0
100
AcDbSpline
70
4
71
3
72
8
73
4
40
0
40
0
40
0
40
0
40
1
40
1
40
1
40
1
41
1
10
-12.2790717400375
20
-55.95
30
4.861E-13
41
1
10
-12.2790717400375
20
-55.9803883227792
30
4.861E-13
41
1
10
-12.2790817045893
20
-56.0107809892365
30
4.861E-13
41
1
10
-12.2791016153886
20
-56.0411519334995
30
4.861E-13
0
SPLINE
5
1DC
100
AcDbEntity
8
1
62
256
6
ByLayer
370
18
48
1
60
0
100
AcDbSpline
70
4
71
3
72
30
73
26
40
0
40
0
40
0
40
0
40
0.131819600098242
40
0.131819600098242
40
0.263639200196485
40
0.263639200196485
40
0.329549000245606
40
0.329549000245606
40
0.362503900270167
40
0.362503900270167
40
0.395458800294728
40
0.395458800294728
40
0.52727840039297
40
0.52727840039297
40
0.659098000491212
40
0.659098000491212
40
0.725007800540333
40
0.725007800540333
40
0.757962700564893
40
0.757962700564893
40
0.790917600589454
40
0.790917600589454
40
0.922737200687696
40
0.922737200687696
40
1
40
1
40
1
40
1
41
1
10
-10.5265551470636
20
-44.2132943644359
30
4.861E-13
41
1
10
-10.5718366949936
20
-45.4060023827316
30
4.861E-13
41
1
10
-10.6245572642744
20
-46.5637602331374
30
4.861E-13
41
1
10
-10.7420428100013
20
-48.8122900447584
30
4.861E-13
41
1
10
-10.8068144165009
20
-49.9030525878773
30
4.861E-13
41
1
10
-10.9109625180991
20
-51.488908627634
30
4.861E-13
41
1
10
-10.9468438190121
20
-52.0091239686884
30
4.861E-13
41
1
10
-11.0021522501169
20
-52.7766315979227
30
4.861E-13
41
1
10
-11.0208360733043
20
-53.0303301008096
30
4.861E-13
41
1
10
-11.0586544131985
20
-53.5333987285905
30
4.861E-13
41
1
10
-11.0777782019106
20
-53.7826063335149
30
4.861E-13
41
1
10
-11.1737473284169
20
-55.0094421515439
30
4.861E-13
41
1
10
-11.2521369791152
20
-55.9363985066705
30
4.861E-13
41
1
10
-11.4087589490232
20
-57.6848309938281
30
4.861E-13
41
1
10
-11.4869994589537
20
-58.5062991402263
30
4.861E-13
41
1
10
-11.6017656725929
20
-59.6585420946472
30
4.861E-13
41
1
10
-11.6395884378231
20
-60.0292612254682
30
4.861E-13
41
1
10
-11.6953524932769
20
-60.5648554762753
30
4.861E-13
41
1
10
-11.7138060373846
20
-60.7402241042147
30
4.861E-13
41
1
10
-11.7501139415475
20
-61.0819635494711
30
4.861E-13
41
1
10
-11.7679867485024
20
-61.2485173779755
30
4.861E-13
41
1
10
-11.8558434772226
20
-62.0599798155845
30
4.861E-13
41
1
10
-11.9213013235323
20
-62.6412016802399
30
4.861E-13
41
1
10
-12.0154797470536
20
-63.4577883951576
30
4.861E-13
41
1
10
-12.0481946476571
20
-63.7367353197149
30
4.861E-13
41
1
10
-12.0785700362834
20
-63.9926019508526
30
4.861E-13
0
SPLINE
5
1DD
100
AcDbEntity
8
1
62
256
6
ByLayer
370
18
48
1
60
0
100
AcDbSpline
70
4
71
2
72
6
73
3
40
0
40
0
40
0
40
1
40
1
40
1
41
1
10
-15.4830853518221
20
-60.4823668306203
30
4.861E-13
41
1
10
-15.4931766319908
20
-60.3769907517283
30
4.861E-13
41
1
10
-15.5138875681561
20
-60.3065261768005
30
4.861E-13
0
SPLINE
5
1DE
100
AcDbEntity
8
1
62
256
6
ByLayer
370
18
48
1
60
0
100
AcDbSpline
70
4
71
2
72
6
73
3
40
0
40
0
40
0
40
1
40
1
40
1
41
1
10
-15.4277346738575
20
-61.1702887043921
30
4.861E-13
41
1
10
-15.4509625305677
20
-60.8195527839449
30
4.861E-13
41
1
10
-15.4830853518301
20
-60.4823668305907
30
4.861E-13
0
SPLINE
5
1DF
100
AcDbEntity
8
1
62
256
6
ByLayer
370
18
48
1
60
0
100
AcDbSpline
70
4
71
3
72
20
73
16
40
0
40
0
40
0
40
0
40
0.119760301054393
40
0.229755695722288
40
0.329996235928916
40
0.420495232983861
40
0.50127082376895
40
0.638194936766733
40
0.751527594230748
40
0.809708245630593
40
0.860663174703903
40
0.90464092716589
40
0.942029454089469
40
0.973461643046281
40
1
40
1
40
1
40
1
41
1
10
-15.4277325237381
20
-61.1703211835
30
4.861E-13
41
1
10
-15.4253272164388
20
-61.2032384223176
30
4.861E-13
41
1
10
-15.4207127235967
20
-61.2663889241051
30
4.861E-13
41
1
10
-15.4112496745574
20
-61.356855759262
30
4.861E-13
41
1
10
-15.4006795939483
20
-61.439090156086
30
4.861E-13
41
1
10
-15.3891781587031
20
-61.5130842502184
30
4.861E-13
41
1
10
-15.3738059064435
20
-61.5966964538528
30
4.861E-13
41
1
10
-15.3535144824559
20
-61.685793659409
30
4.861E-13
41
1
10
-15.3289484468662
20
-61.7674524892746
30
4.861E-13
41
1
10
-15.306675565102
20
-61.8248261983127
30
4.861E-13
41
1
10
-15.2885610109196
20
-61.8631746632323
30
4.861E-13
41
1
10
-15.2700121064863
20
-61.8949500526214
30
4.861E-13
41
1
10
-15.250986467942
20
-61.9199071235433
30
4.861E-13
41
1
10
-15.231923071649
20
-61.9389623673364
30
4.861E-13
41
1
10
-15.2173890993507
20
-61.9465271444833
30
4.861E-13
41
1
10
-15.2107355869721
20
-61.94999022652
30
4.861E-13
0
SPLINE
5
1E0
100
AcDbEntity
8
1
62
256
6
ByLayer
370
18
48
1
60
0
100
AcDbSpline
70
4
71
3
72
13
73
9
40
0
40
0
40
0
40
0
40
0.173254768746516
40
0.342985030730132
40
0.509834375982743
40
0.674480181908024
40
0.837627275076537
40
1
40
1
40
1
40
1
41
1
10
-15.2107355870581
20
-61.94999022667
30
4.861E-13
41
1
10
-15.2002070571625
20
-61.954058658359
30
4.861E-13
41
1
10
-15.1793641783437
20
-61.9621127579833
30
4.861E-13
41
1
10
-15.1474976132413
20
-61.9717000120854
30
4.861E-13
41
1
10
-15.115654890624
20
-61.9792735390135
30
4.861E-13
41
1
10
-15.083777225658
20
-61.9846204008344
30
4.861E-13
41
1
10
-15.0518915044881
20
-61.9879790358223
30
4.861E-13
41
1
10
-15.030613629552
20
-61.9883962127302
30
4.861E-13
41
1
10
-15.0200000006977
20
-61.98860430498
30
4.861E-13
0
SPLINE
5
1E1
100
AcDbEntity
8
1
62
256
6
ByLayer
370
18
48
1
60
0
100
AcDbSpline
70
4
71
2
72
6
73
3
40
0
40
0
40
0
40
1
40
1
40
1
41
1
10
-14.7892644129421
20
-61.9499902266708
30
4.861E-13
41
1
10
-14.8844087349087
20
-61.9884919085573
30
4.861E-13
41
1
10
-14.9799999993025
20
-61.9886043049807
30
4.861E-13
0
SPLINE
5
1E2
100
AcDbEntity
8
1
62
256
6
ByLayer
370
18
48
1
60
0
100
AcDbSpline
70
4
71
2
72
10
73
7
40
0
40
0
40
0
40
0.5
40
0.5
40
0.75
40
0.75
40
1
40
1
40
1
41
1
10
-14.5722674762621
20
-61.1703211835004
30
4.861E-13
41
1
10
-14.5875343736816
20
-61.4005090492969
30
4.861E-13
41
1
10
-14.623741643263
20
-61.5813994958523
30
4.861E-13
41
1
10
-14.6470238717702
20
-61.6977168199743
30
4.861E-13
41
1
10
-14.6769810514918
20
-61.7815407125726
30
4.861E-13
41
1
10
-14.7281228301936
20
-61.9246417322623
30
4.861E-13
41
1
10
-14.7892644130281
20
-61.9499902265207
30
4.861E-13
0
SPLINE
5
1E3
100
AcDbEntity
8
1
62
256
6
ByLayer
370
18
48
1
60
0
100
AcDbSpline
70
4
71
3
72
10
73
6
40
0
40
0
40
0
40
0
40
0.349345455437266
40
0.68267778943702
40
1
40
1
40
1
40
1
41
1
10
-14.5722653261452
20
-61.1702887043917
30
4.861E-13
41
1
10
-14.5667261918135
20
-61.0901143749181
30
4.861E-13
41
1
10
-14.5559018232061
20
-60.9334407065972
30
4.861E-13
41
1
10
-14.5373916006501
20
-60.7041244704148
30
4.861E-13
41
1
10
-14.5236274042276
20
-60.5550634362738
30
4.861E-13
41
1
10
-14.5169146481701
20
-60.48236683059
30
4.861E-13
0
SPLINE
5
1E4
100
AcDbEntity
8
1
62
256
6
ByLayer
370
18
48
1
60
0
100
AcDbSpline
70
4
71
3
72
9
73
5
40
0
40
0
40
0
40
0
40
0.572743649990544
40
1
40
1
40
1
40
1
41
1
10
-14.5169146481782
20
-60.48236683062
30
4.861E-13
41
1
10
-14.5132484323123
20
-60.4484188310256
30
4.861E-13
41
1
10
-14.5068472860649
20
-60.3891462409324
30
4.861E-13
41
1
10
-14.4923195144977
20
-60.3312589075659
30
4.861E-13
41
1
10
-14.4861124318442
20
-60.3065261768
30
4.861E-13
0
LINE
5
74
100
AcDbEntity
8
SK1
62
256
6
ByLayer
370
18
48
1
60
0
100
AcDbLine
10
6.824981
20
-5.9325
30
0
11
7.824981
21
-5.664551
31
0
39
0
210
0
220
0
230
1
0
LINE
5
76
100
AcDbEntity
8
SK1
62
256
6
ByLayer
370
18
48
1
60
0
100
AcDbLine
10
6.824981
20
5.9325
30
0
11
0.325106
21
5.9325
31
0
39
0
210
0
220
0
230
1
0
LINE
5
77
100
AcDbEntity
8
SK1
62
256
6
ByLayer
370
18
48
1
60
0
100
AcDbLine
10
6.824981
20
5.9325
30
0
11
6.824981
21
-5.9325
31
0
39
0
210
0
220
0
230
1
0
LINE
5
78
100
AcDbEntity
8
SK1
62
256
6
ByLayer
370
18
48
1
60
0
100
AcDbLine
10
0.325106
20
-5.9325
30
0
11
6.824981
21
-5.9325
31
0
39
0
210
0
220
0
230
1
0
LINE
5
79
100
AcDbEntity
8
SK1
62
256
6
ByLayer
370
18
48
1
60
0
100
AcDbLine
10
7.824981
20
5.664551
30
0
11
6.824981
21
5.9325
31
0
39
0
210
0
220
0
230
1
0
LINE
5
7A
100
AcDbEntity
8
SK1
62
256
6
ByLayer
370
18
48
1
60
0
100
AcDbLine
10
7.824981
20
5.664551
30
0
11
7.824981
21
-5.664551
31
0
39
0
210
0
220
0
230
1
0
LINE
5
7B
100
AcDbEntity
8
1
62
256
6
ByLayer
370
18
48
1
60
0
100
AcDbLine
10
-1.5
20
-10.61352
30
0
11
-0.5
21
-10.61352
31
0
39
0
210
0
220
0
230
1
0
LINE
5
7D
100
AcDbEntity
8
1
62
256
6
ByLayer
370
18
48
1
60
0
100
AcDbLine
10
-1.5
20
-5.552168
30
0
11
-0.5
21
-5.552168
31
0
39
0
210
0
220
0
230
1
0
LINE
5
7E
100
AcDbEntity
8
1
62
256
6
ByLayer
370
18
48
1
60
0
100
AcDbLine
10
-0.5
20
-5.552168
30
0
11
-0.5
21
-10.61352
31
0
39
0
210
0
220
0
230
1
0
LINE
5
7F
100
AcDbEntity
8
SK1
62
256
6
ByLayer
370
18
48
1
60
0
100
AcDbLine
10
0.04697
20
-10.152118
30
0
11
-0.5
21
-10.61352
31
0
39
0
210
0
220
0
230
1
0
LINE
5
80
100
AcDbEntity
8
SK1
62
256
6
ByLayer
370
18
48
1
60
0
100
AcDbLine
10
-0.126149
20
-5.552168
30
0
11
-0.5
21
-5.552168
31
0
39
0
210
0
220
0
230
1
0
LINE
5
81
100
AcDbEntity
8
SK1
62
256
6
ByLayer
370
18
48
1
60
0
100
AcDbLine
10
0.324981
20
-6.10077
30
0
11
0.324981
21
-5.89923
31
0
39
0
210
0
220
0
230
1
0
LINE
5
82
100
AcDbEntity
8
SK1
62
256
6
ByLayer
370
18
48
1
60
0
100
AcDbLine
10
0.324981
20
-7.60077
30
0
11
0.324981
21
-7.39923
31
0
39
0
210
0
220
0
230
1
0
LINE
5
83
100
AcDbEntity
8
SK1
62
256
6
ByLayer
370
18
48
1
60
0
100
AcDbLine
10
0.324981
20
-9.10077
30
0
11
0.324981
21
-8.89923
31
0
39
0
210
0
220
0
230
1
0
LINE
5
84
100
AcDbEntity
8
1
62
256
6
ByLayer
370
18
48
1
60
0
100
AcDbLine
10
-17.725
20
-11.903739
30
0
11
-17.725
21
-39.784807
31
0
39
0
210
0
220
0
230
1
0
LINE
5
85
100
AcDbEntity
8
1
62
256
6
ByLayer
370
18
48
1
60
0
100
AcDbLine
10
-16.198492
20
13.801508
30
0
11
-17.725
21
12.275
31
0
39
0
210
0
220
0
230
1
0
LINE
5
86
100
AcDbEntity
8
1
62
256
6
ByLayer
370
18
48
1
60
0
100
AcDbLine
10
-17.725
20
12.275
30
0
11
-17.725
21
-8.37466
31
0
39
0
210
0
220
0
230
1
0
LINE
5
87
100
AcDbEntity
8
1
62
256
6
ByLayer
370
18
48
1
60
0
100
AcDbLine
10
-15.578157
20
14.421843
30
0
11
-15.88288
21
14.11712
31
0
39
0
210
0
220
0
230
1
0
LINE
5
88
100
AcDbEntity
8
1
62
256
6
ByLayer
370
18
48
1
60
0
100
AcDbLine
10
-13.5767
20
5.552168
30
0
11
-13.5767
21
-7.1
31
0
39
0
210
0
220
0
230
1
0
LINE
5
89
100
AcDbEntity
8
1
62
256
6
ByLayer
370
18
48
1
60
0
100
AcDbLine
10
-15.045352
20
-28.784707
30
0
11
-15.045352
21
-18.75
31
0
39
0
210
0
220
0
230
1
0
LINE
5
8A
100
AcDbEntity
8
1
62
256
6
ByLayer
370
18
48
1
60
0
100
AcDbLine
10
-15.045352
20
-44.811325
30
0
11
-15.045352
21
-31.896155
31
0
39
0
210
0
220
0
230
1
0
LINE
5
8B
100
AcDbEntity
8
1
62
256
6
ByLayer
370
18
48
1
60
0
100
AcDbLine
10
-17.720297
20
-42.74956
30
0
11
-17.720297
21
-41.25
31
0
39
0
210
0
220
0
230
1
0
LINE
5
8C
100
AcDbEntity
8
1
62
256
6
ByLayer
370
18
48
1
60
0
100
AcDbLine
10
-17.653496
20
-60.138145
30
0
11
-17.653496
21
-58.961686
31
0
39
0
210
0
220
0
230
1
0
LINE
5
8D
100
AcDbEntity
8
SK1
62
256
6
ByLayer
370
18
48
1
60
0
100
AcDbLine
10
0.249981
20
4.730673
30
0
11
-0.342769
21
5.072898
31
0
39
0
210
0
220
0
230
1
0
LINE
5
8E
100
AcDbEntity
8
SK1
62
256
6
ByLayer
370
18
48
1
60
0
100
AcDbLine
10
0.324981
20
4.39923
30
0
11
0.324981
21
4.60077
31
0
39
0
210
0
220
0
230
1
0
LINE
5
8F
100
AcDbEntity
8
SK1
62
256
6
ByLayer
370
18
48
1
60
0
100
AcDbLine
10
-0.342769
20
3.927102
30
0
11
0.249981
21
4.269327
31
0
39
0
210
0
220
0
230
1
0
LINE
5
90
100
AcDbEntity
8
SK1
62
256
6
ByLayer
370
18
48
1
60
0
100
AcDbLine
10
0.249981
20
3.230673
30
0
11
-0.342769
21
3.572898
31
0
39
0
210
0
220
0
230
1
0
LINE
5
91
100
AcDbEntity
8
SK1
62
256
6
ByLayer
370
18
48
1
60
0
100
AcDbLine
10
0.324981
20
2.89923
30
0
11
0.324981
21
3.10077
31
0
39
0
210
0
220
0
230
1
0
LINE
5
92
100
AcDbEntity
8
SK1
62
256
6
ByLayer
370
18
48
1
60
0
100
AcDbLine
10
-0.342769
20
2.427102
30
0
11
0.249981
21
2.769327
31
0
39
0
210
0
220
0
230
1
0
LINE
5
93
100
AcDbEntity
8
SK1
62
256
6
ByLayer
370
18
48
1
60
0
100
AcDbLine
10
0.249981
20
1.730673
30
0
11
-0.342769
21
2.072898
31
0
39
0
210
0
220
0
230
1
0
LINE
5
94
100
AcDbEntity
8
SK1
62
256
6
ByLayer
370
18
48
1
60
0
100
AcDbLine
10
0.324981
20
1.39923
30
0
11
0.324981
21
1.60077
31
0
39
0
210
0
220
0
230
1
0
LINE
5
95
100
AcDbEntity
8
SK1
62
256
6
ByLayer
370
18
48
1
60
0
100
AcDbLine
10
-0.342769
20
0.927102
30
0
11
0.249981
21
1.269327
31
0
39
0
210
0
220
0
230
1
0
LINE
5
96
100
AcDbEntity
8
SK1
62
256
6
ByLayer
370
18
48
1
60
0
100
AcDbLine
10
0.249981
20
0.230673
30
0
11
-0.342769
21
0.572898
31
0
39
0
210
0
220
0
230
1
0
LINE
5
97
100
AcDbEntity
8
SK1
62
256
6
ByLayer
370
18
48
1
60
0
100
AcDbLine
10
0.324981
20
-0.10077
30
0
11
0.324981
21
0.10077
31
0
39
0
210
0
220
0
230
1
0
LINE
5
98
100
AcDbEntity
8
SK1
62
256
6
ByLayer
370
18
48
1
60
0
100
AcDbLine
10
0.249981
20
-0.230673
30
0
11
-0.342769
21
-0.572898
31
0
39
0
210
0
220
0
230
1
0
LINE
5
99
100
AcDbEntity
8
SK1
62
256
6
ByLayer
370
18
48
1
60
0
100
AcDbLine
10
-0.342769
20
-0.927102
30
0
11
0.249981
21
-1.269327
31
0
39
0
210
0
220
0
230
1
0
LINE
5
9A
100
AcDbEntity
8
SK1
62
256
6
ByLayer
370
18
48
1
60
0
100
AcDbLine
10
0.324981
20
-1.60077
30
0
11
0.324981
21
-1.39923
31
0
39
0
210
0
220
0
230
1
0
LINE
5
9B
100
AcDbEntity
8
SK1
62
256
6
ByLayer
370
18
48
1
60
0
100
AcDbLine
10
0.249981
20
-1.730673
30
0
11
-0.342769
21
-2.072898
31
0
39
0
210
0
220
0
230
1
0
LINE
5
9C
100
AcDbEntity
8
SK1
62
256
6
ByLayer
370
18
48
1
60
0
100
AcDbLine
10
-0.342769
20
-2.427102
30
0
11
0.249981
21
-2.769327
31
0
39
0
210
0
220
0
230
1
0
LINE
5
9D
100
AcDbEntity
8
SK1
62
256
6
ByLayer
370
18
48
1
60
0
100
AcDbLine
10
0.324981
20
-3.10077
30
0
11
0.324981
21
-2.89923
31
0
39
0
210
0
220
0
230
1
0
LINE
5
9E
100
AcDbEntity
8
SK1
62
256
6
ByLayer
370
18
48
1
60
0
100
AcDbLine
10
0.249981
20
-3.230673
30
0
11
-0.342769
21
-3.572898
31
0
39
0
210
0
220
0
230
1
0
LINE
5
9F
100
AcDbEntity
8
SK1
62
256
6
ByLayer
370
18
48
1
60
0
100
AcDbLine
10
-0.342769
20
-3.927102
30
0
11
0.249981
21
-4.269327
31
0
39
0
210
0
220
0
230
1
0
LINE
5
A0
100
AcDbEntity
8
SK1
62
256
6
ByLayer
370
18
48
1
60
0
100
AcDbLine
10
0.324981
20
-4.60077
30
0
11
0.324981
21
-4.39923
31
0
39
0
210
0
220
0
230
1
0
LINE
5
A1
100
AcDbEntity
8
SK1
62
256
6
ByLayer
370
18
48
1
60
0
100
AcDbLine
10
0.249981
20
-4.730673
30
0
11
-0.342769
21
-5.072898
31
0
39
0
210
0
220
0
230
1
0
LINE
5
A2
100
AcDbEntity
8
SK1
62
256
6
ByLayer
370
18
48
1
60
0
100
AcDbLine
10
-0.342769
20
-5.427102
30
0
11
-0.126149
21
-5.552168
31
0
39
0
210
0
220
0
230
1
0
LINE
5
A3
100
AcDbEntity
8
1
62
256
6
ByLayer
370
18
48
1
60
0
100
AcDbLine
10
-0.5
20
5.552168
30
0
11
-0.5
21
-5.552168
31
0
39
0
210
0
220
0
230
1
0
LINE
5
A4
100
AcDbEntity
8
SK1
62
256
6
ByLayer
370
18
48
1
60
0
100
AcDbLine
10
-0.126149
20
5.552168
30
0
11
-0.5
21
5.552168
31
0
39
0
210
0
220
0
230
1
0
LINE
5
A5
100
AcDbEntity
8
SK1
62
256
6
ByLayer
370
18
48
1
60
0
100
AcDbLine
10
-0.342769
20
5.427102
30
0
11
-0.126149
21
5.552168
31
0
39
0
210
0
220
0
230
1
0
LINE
5
A6
100
AcDbEntity
8
1
62
256
6
ByLayer
370
18
48
1
60
0
100
AcDbLine
10
-0.5
20
10.61352
30
0
11
-0.5
21
5.552168
31
0
39
0
210
0
220
0
230
1
0
LINE
5
A7
100
AcDbEntity
8
SK1
62
256
6
ByLayer
370
18
48
1
60
0
100
AcDbLine
10
0.04697
20
10.152118
30
0
11
-0.5
21
10.61352
31
0
39
0
210
0
220
0
230
1
0
LINE
5
A8
100
AcDbEntity
8
SK1
62
256
6
ByLayer
370
18
48
1
60
0
100
AcDbLine
10
0.324981
20
8.89923
30
0
11
0.324981
21
9.10077
31
0
39
0
210
0
220
0
230
1
0
LINE
5
A9
100
AcDbEntity
8
SK1
62
256
6
ByLayer
370
18
48
1
60
0
100
AcDbLine
10
0.324981
20
7.39923
30
0
11
0.324981
21
7.60077
31
0
39
0
210
0
220
0
230
1
0
LINE
5
AA
100
AcDbEntity
8
SK1
62
256
6
ByLayer
370
18
48
1
60
0
100
AcDbLine
10
0.324981
20
5.89923
30
0
11
0.324981
21
6.10077
31
0
39
0
210
0
220
0
230
1
0
LINE
5
AB
100
AcDbEntity
8
1
62
256
6
ByLayer
370
18
48
1
60
0
100
AcDbLine
10
-13.5767
20
5.552168
30
0
11
-0.5
21
5.552168
31
0
39
0
210
0
220
0
230
1
0
LINE
5
AC
100
AcDbEntity
8
1
62
256
6
ByLayer
370
18
48
1
60
0
100
AcDbLine
10
-14.216634
20
10.61352
30
0
11
-0.5
21
10.61352
31
0
39
0
210
0
220
0
230
1
0
LINE
5
AD
100
AcDbEntity
8
1
62
256
6
ByLayer
370
18
48
1
60
0
100
AcDbLine
10
-13.5767
20
-7.1
30
0
11
-1.5
21
-7.1
31
0
39
0
210
0
220
0
230
1
0
LINE
5
AE
100
AcDbEntity
8
1
62
256
6
ByLayer
370
18
48
1
60
0
100
AcDbLine
10
-13.80404
20
-9.205236
30
0
11
-1.5
21
-9.205236
31
0
39
0
210
0
220
0
230
1
0
LINE
5
AF
100
AcDbEntity
8
1
62
256
6
ByLayer
370
18
48
1
60
0
100
AcDbLine
10
-1.5
20
-7.1
30
0
11
-1.5
21
-9.205236
31
0
39
0
210
0
220
0
230
1
0
LINE
5
B0
100
AcDbEntity
8
1
62
256
6
ByLayer
370
18
48
1
60
0
100
AcDbLine
10
-1.5
20
-7.1
30
0
11
-1.5
21
-5.552168
31
0
39
0
210
0
220
0
230
1
0
LINE
5
B1
100
AcDbEntity
8
1
62
256
6
ByLayer
370
18
48
1
60
0
100
AcDbLine
10
-3.07
20
-10.176456
30
0
11
-1.5
21
-10.176456
31
0
39
0
210
0
220
0
230
1
0
LINE
5
B2
100
AcDbEntity
8
1
62
256
6
ByLayer
370
18
48
1
60
0
100
AcDbLine
10
-4.67
20
-14.717042
30
0
11
-4.67
21
-13.796364
31
0
39
0
210
0
220
0
230
1
0
LINE
5
B3
100
AcDbEntity
8
1
62
256
6
ByLayer
370
18
48
1
60
0
100
AcDbLine
10
-14.745
20
-14.717042
30
0
11
-4.67
21
-14.717042
31
0
39
0
210
0
220
0
230
1
0
LINE
5
B4
100
AcDbEntity
8
1
62
256
6
ByLayer
370
18
48
1
60
0
100
AcDbLine
10
-1.5
20
-9.205236
30
0
11
-1.5
21
-10.176456
31
0
39
0
210
0
220
0
230
1
0
LINE
5
B5
100
AcDbEntity
8
1
62
256
6
ByLayer
370
18
48
1
60
0
100
AcDbLine
10
-3.07
20
-17.314958
30
0
11
-3.07
21
-10.176456
31
0
39
0
210
0
220
0
230
1
0
LINE
5
B6
100
AcDbEntity
8
1
62
256
6
ByLayer
370
18
48
1
60
0
100
AcDbLine
10
-3.07
20
-17.314958
30
0
11
-1.5
21
-17.314958
31
0
39
0
210
0
220
0
230
1
0
LINE
5
B7
100
AcDbEntity
8
1
62
256
6
ByLayer
370
18
48
1
60
0
100
AcDbLine
10
-1.5
20
-10.176456
30
0
11
-1.5
21
-17.314958
31
0
39
0
210
0
220
0
230
1
0
LINE
5
B8
100
AcDbEntity
8
1
62
256
6
ByLayer
370
18
48
1
60
0
100
AcDbLine
10
-0.5
20
-10.61352
30
0
11
-0.5
21
-17.108274
31
0
39
0
210
0
220
0
230
1
0
LINE
5
B9
100
AcDbEntity
8
1
62
256
6
ByLayer
370
18
48
1
60
0
100
AcDbLine
10
-1.5
20
-17.108274
30
0
11
-0.5
21
-17.108274
31
0
39
0
210
0
220
0
230
1
0
LINE
5
BA
100
AcDbEntity
8
SK1
62
256
6
ByLayer
370
18
48
1
60
0
100
AcDbLine
10
0.324981
20
-10.60077
30
0
11
0.324981
21
-10.39923
31
0
39
0
210
0
220
0
230
1
0
LINE
5
BB
100
AcDbEntity
8
SK1
62
256
6
ByLayer
370
18
48
1
60
0
100
AcDbLine
10
0.324981
20
-12.10077
30
0
11
0.324981
21
-11.89923
31
0
39
0
210
0
220
0
230
1
0
LINE
5
BC
100
AcDbEntity
8
SK1
62
256
6
ByLayer
370
18
48
1
60
0
100
AcDbLine
10
0.324981
20
-13.60077
30
0
11
0.324981
21
-13.39923
31
0
39
0
210
0
220
0
230
1
0
LINE
5
BD
100
AcDbEntity
8
SK1
62
256
6
ByLayer
370
18
48
1
60
0
100
AcDbLine
10
0.324981
20
-15.10077
30
0
11
0.324981
21
-14.89923
31
0
39
0
210
0
220
0
230
1
0
LINE
5
BE
100
AcDbEntity
8
SK1
62
256
6
ByLayer
370
18
48
1
60
0
100
AcDbLine
10
0.324981
20
-16.42521
30
0
11
0.324981
21
-16.39923
31
0
39
0
210
0
220
0
230
1
0
LINE
5
BF
100
AcDbEntity
8
1
62
256
6
ByLayer
370
18
48
1
60
0
100
AcDbLine
10
-15.578157
20
14.421843
30
0
11
-10
21
20
31
0
39
0
210
0
220
0
230
1
0
LINE
5
C0
100
AcDbEntity
8
1
62
256
6
ByLayer
370
18
48
1
60
0
100
AcDbLine
10
-0.5
20
20
30
0
11
-10
21
20
31
0
39
0
210
0
220
0
230
1
0
LINE
5
C1
100
AcDbEntity
8
1
62
256
6
ByLayer
370
18
48
1
60
0
100
AcDbLine
10
-0.5
20
20
30
0
11
-0.5
21
10.61352
31
0
39
0
210
0
220
0
230
1
0
LINE
5
C2
100
AcDbEntity
8
SK1
62
256
6
ByLayer
370
18
48
1
60
0
100
AcDbLine
10
0.237406
20
19.262594
30
0
11
-0.5
21
20
31
0
39
0
210
0
220
0
230
1
0
LINE
5
C3
100
AcDbEntity
8
SK1
62
256
6
ByLayer
370
18
48
1
60
0
100
AcDbLine
10
0.324981
20
17.89923
30
0
11
0.324981
21
18.10077
31
0
39
0
210
0
220
0
230
1
0
LINE
5
C4
100
AcDbEntity
8
SK1
62
256
6
ByLayer
370
18
48
1
60
0
100
AcDbLine
10
0.324981
20
16.39923
30
0
11
0.324981
21
16.60077
31
0
39
0
210
0
220
0
230
1
0
LINE
5
C5
100
AcDbEntity
8
SK1
62
256
6
ByLayer
370
18
48
1
60
0
100
AcDbLine
10
0.324981
20
14.89923
30
0
11
0.324981
21
15.10077
31
0
39
0
210
0
220
0
230
1
0
LINE
5
C6
100
AcDbEntity
8
SK1
62
256
6
ByLayer
370
18
48
1
60
0
100
AcDbLine
10
0.324981
20
13.39923
30
0
11
0.324981
21
13.60077
31
0
39
0
210
0
220
0
230
1
0
LINE
5
C7
100
AcDbEntity
8
SK1
62
256
6
ByLayer
370
18
48
1
60
0
100
AcDbLine
10
0.324981
20
11.89923
30
0
11
0.324981
21
12.10077
31
0
39
0
210
0
220
0
230
1
0
LINE
5
C8
100
AcDbEntity
8
SK1
62
256
6
ByLayer
370
18
48
1
60
0
100
AcDbLine
10
0.324981
20
10.39923
30
0
11
0.324981
21
10.60077
31
0
39
0
210
0
220
0
230
1
0
LINE
5
C9
100
AcDbEntity
8
1
62
256
6
ByLayer
370
18
48
1
60
0
100
AcDbLine
10
-15.88288
20
14.11712
30
0
11
-16.198492
21
13.801508
31
0
39
0
210
0
220
0
230
1
0
LINE
5
CA
100
AcDbEntity
8
1
62
256
6
ByLayer
370
18
48
1
60
0
100
AcDbLine
10
-15.045352
20
-18.75
30
0
11
-4.67
21
-18.75
31
0
39
0
210
0
220
0
230
1
0
LINE
5
CB
100
AcDbEntity
8
1
62
256
6
ByLayer
370
18
48
1
60
0
100
AcDbLine
10
-4.67
20
-18.75
30
0
11
-4.67
21
-14.717042
31
0
39
0
210
0
220
0
230
1
0
LINE
5
CC
100
AcDbEntity
8
1
62
256
6
ByLayer
370
18
48
1
60
0
100
AcDbLine
10
-6.17
20
-25.25
30
0
11
-4.67
21
-23.991351
31
0
39
0
210
0
220
0
230
1
0
LINE
5
CD
100
AcDbEntity
8
1
62
256
6
ByLayer
370
18
48
1
60
0
100
AcDbLine
10
-9.082306
20
-25.25
30
0
11
-6.17
21
-25.25
31
0
39
0
210
0
220
0
230
1
0
LINE
5
CE
100
AcDbEntity
8
1
62
256
6
ByLayer
370
18
48
1
60
0
100
AcDbLine
10
-15.045352
20
-28.784707
30
0
11
-10.69313
21
-28.784707
31
0
39
0
210
0
220
0
230
1
0
LINE
5
CF
100
AcDbEntity
8
1
62
256
6
ByLayer
370
18
48
1
60
0
100
AcDbLine
10
-10.69313
20
-26.85
30
0
11
-10.69313
21
-28.784707
31
0
39
0
210
0
220
0
230
1
0
LINE
5
D0
100
AcDbEntity
8
1
62
256
6
ByLayer
370
18
48
1
60
0
100
AcDbLine
10
-4.67
20
-23.991351
30
0
11
-4.67
21
-18.75
31
0
39
0
210
0
220
0
230
1
0
LINE
5
D1
100
AcDbEntity
8
1
62
256
6
ByLayer
370
18
48
1
60
0
100
AcDbLine
10
-10.69313
20
-44.634017
30
0
11
-15.045352
21
-44.811325
31
0
39
0
210
0
220
0
230
1
0
LINE
5
D2
100
AcDbEntity
8
1
62
256
6
ByLayer
370
18
48
1
60
0
100
AcDbLine
10
-15.688275
20
-46.993423
30
0
11
-11.123508
21
-47.050201
31
0
39
0
210
0
220
0
230
1
0
LINE
5
D3
100
AcDbEntity
8
1
62
256
6
ByLayer
370
18
48
1
60
0
100
AcDbLine
10
-10.69313
20
-31.896155
30
0
11
-10.69313
21
-44.634017
31
0
39
0
210
0
220
0
230
1
0
LINE
5
D4
100
AcDbEntity
8
1
62
256
6
ByLayer
370
18
48
1
60
0
100
AcDbLine
10
-10.69313
20
-31.896155
30
0
11
-15.045352
21
-31.896155
31
0
39
0
210
0
220
0
230
1
0
LINE
5
D5
100
AcDbEntity
8
1
62
256
6
ByLayer
370
18
48
1
60
0
100
AcDbLine
10
-17.507766
20
-7.897184
30
0
11
-17.34391
21
-7.897184
31
0
39
0
210
0
220
0
230
1
0
LINE
5
D6
100
AcDbEntity
8
1
62
256
6
ByLayer
370
18
48
1
60
0
100
AcDbLine
10
-0.5
20
-17.108228
30
0
11
-0.5
21
-17.73789
31
0
39
0
210
0
220
0
230
1
0
LINE
5
D7
100
AcDbEntity
8
1
62
256
6
ByLayer
370
18
48
1
60
0
100
AcDbLine
10
-0.5
20
-17.73789
30
0
11
-1.5
21
-17.73789
31
0
39
0
210
0
220
0
230
1
0
LINE
5
D8
100
AcDbEntity
8
1
62
256
6
ByLayer
370
18
48
1
60
0
100
AcDbLine
10
-1.5
20
-17.947793
30
0
11
-1.5
21
-17.73789
31
0
39
0
210
0
220
0
230
1
0
LINE
5
D9
100
AcDbEntity
8
1
62
256
6
ByLayer
370
18
48
1
60
0
100
AcDbLine
10
-1.5
20
-17.947793
30
0
11
-3.07
21
-17.947793
31
0
39
0
210
0
220
0
230
1
0
LINE
5
DA
100
AcDbEntity
8
1
62
256
6
ByLayer
370
18
48
1
60
0
100
AcDbLine
10
-13.343053
20
-49.059365
30
0
11
-12.12398
21
-49.059365
31
0
39
0
210
0
220
0
230
1
0
LINE
5
DB
100
AcDbEntity
8
1
62
256
6
ByLayer
370
18
48
1
60
0
100
AcDbLine
10
-14.538582
20
-49.059365
30
0
11
-13.859977
21
-49.059365
31
0
39
0
210
0
220
0
230
1
0
LINE
5
DC
100
AcDbEntity
8
1
62
256
6
ByLayer
370
18
48
1
60
0
100
AcDbLine
10
-17.396544
20
-49.059365
30
0
11
-16.780227
21
-49.059365
31
0
39
0
210
0
220
0
230
1
0
LINE
5
DD
100
AcDbEntity
8
1
62
256
6
ByLayer
370
18
48
1
60
0
100
AcDbLine
10
-3.07
20
-20.25
30
0
11
-3.07
21
-17.947793
31
0
39
0
210
0
220
0
230
1
0
LINE
5
DE
100
AcDbEntity
8
1
62
256
6
ByLayer
370
18
48
1
60
0
100
AcDbLine
10
-1.5
20
-17.947793
30
0
11
-1.5
21
-20.25
31
0
39
0
210
0
220
0
230
1
0
LINE
5
DF
100
AcDbEntity
8
1
62
256
6
ByLayer
370
18
48
1
60
0
100
AcDbLine
10
-3.07
20
-20.25
30
0
11
-1.5
21
-20.25
31
0
39
0
210
0
220
0
230
1
0
LINE
5
E0
100
AcDbEntity
8
1
62
256
6
ByLayer
370
18
48
1
60
0
100
AcDbLine
10
-0.5
20
-17.73789
30
0
11
-0.5
21
-20
31
0
39
0
210
0
220
0
230
1
0
LINE
5
E1
100
AcDbEntity
8
1
62
256
6
ByLayer
370
18
48
1
60
0
100
AcDbLine
10
-1.5
20
-20
30
0
11
-0.5
21
-20
31
0
39
0
210
0
220
0
230
1
0
LINE
5
E2
100
AcDbEntity
8
1
62
256
6
ByLayer
370
18
48
1
60
0
100
AcDbLine
10
-15.746374
20
-51.777702
30
0
11
-12.259817
21
-51.777702
31
0
39
0
210
0
220
0
230
1
0
LINE
5
E3
100
AcDbEntity
8
1
62
256
6
ByLayer
370
18
48
1
60
0
100
AcDbLine
10
-17.618543
20
-51.777702
30
0
11
-16.188867
21
-51.777702
31
0
39
0
210
0
220
0
230
1
0
LINE
5
E4
100
AcDbEntity
8
1
62
256
6
ByLayer
370
18
48
1
60
0
100
AcDbLine
10
-14.725
20
-58.295281
30
0
11
-15.275
21
-58.295281
31
0
39
0
210
0
220
0
230
1
0
LINE
5
E5
100
AcDbEntity
8
SK1
62
256
6
ByLayer
370
18
48
1
60
0
100
AcDbLine
10
0.324981
20
-16.42521
30
0
11
0.324981
21
-16.60077
31
0
39
0
210
0
220
0
230
1
0
LINE
5
E6
100
AcDbEntity
8
SK1
62
256
6
ByLayer
370
18
48
1
60
0
100
AcDbLine
10
-0.342769
20
-17.072898
30
0
11
0.249981
21
-16.730673
31
0
39
0
210
0
220
0
230
1
0
LINE
5
E7
100
AcDbEntity
8
SK1
62
256
6
ByLayer
370
18
48
1
60
0
100
AcDbLine
10
0.249981
20
-17.769327
30
0
11
-0.342769
21
-17.427102
31
0
39
0
210
0
220
0
230
1
0
LINE
5
E8
100
AcDbEntity
8
SK1
62
256
6
ByLayer
370
18
48
1
60
0
100
AcDbLine
10
0.324981
20
-17.89923
30
0
11
0.324981
21
-18.10077
31
0
39
0
210
0
220
0
230
1
0
LINE
5
E9
100
AcDbEntity
8
SK1
62
256
6
ByLayer
370
18
48
1
60
0
100
AcDbLine
10
-0.342769
20
-18.572898
30
0
11
0.249981
21
-18.230673
31
0
39
0
210
0
220
0
230
1
0
LINE
5
EA
100
AcDbEntity
8
SK1
62
256
6
ByLayer
370
18
48
1
60
0
100
AcDbLine
10
0.203339
20
-19.242398
30
0
11
-0.342769
21
-18.927102
31
0
39
0
210
0
220
0
230
1
0
LINE
5
EB
100
AcDbEntity
8
1
62
256
6
ByLayer
370
18
48
1
60
0
100
AcDbLine
10
-10.526555
20
-26.85
30
0
11
-10.69314
21
-26.85
31
0
39
0
210
0
220
0
230
1
0
LINE
5
EC
100
AcDbEntity
8
1
62
256
6
ByLayer
370
18
48
1
60
0
100
AcDbLine
10
-12.279072
20
-53.173581
30
0
11
-12.279072
21
-55.95
31
0
39
0
210
0
220
0
230
1
0
LINE
5
ED
100
AcDbEntity
8
1
62
256
6
ByLayer
370
18
48
1
60
0
100
AcDbLine
10
-10.526555
20
-26.85
30
0
11
-10.526555
21
-44.213294
31
0
39
0
210
0
220
0
230
1
0
LINE
5
EE
100
AcDbEntity
8
1
62
256
6
ByLayer
370
18
48
1
60
0
100
AcDbLine
10
-12.280996
20
-58.961881
30
0
11
-12.280996
21
-60.258406
31
0
39
0
210
0
220
0
230
1
0
LINE
5
EF
100
AcDbEntity
8
1
62
256
6
ByLayer
370
18
48
1
60
0
100
AcDbLine
10
-17.599984
20
-58.961527
30
0
11
-17.653496
21
-58.961686
31
0
39
0
210
0
220
0
230
1
0
LINE
5
F0
100
AcDbEntity
8
1
62
256
6
ByLayer
370
18
48
1
60
0
100
AcDbLine
10
-12.280996
20
-58.961881
30
0
11
-12.400027
21
-58.961527
31
0
39
0
210
0
220
0
230
1
0
LINE
5
F1
100
AcDbEntity
8
1
62
256
6
ByLayer
370
18
48
1
60
0
100
AcDbLine
10
-12.279102
20
-56.041152
30
0
11
-12.308082
21
-56.04098
31
0
39
0
210
0
220
0
230
1
0
LINE
5
F2
100
AcDbEntity
8
1
62
256
6
ByLayer
370
18
48
1
60
0
100
AcDbLine
10
-12.307384
20
-55.95
30
0
11
-12.279072
21
-55.95
31
0
39
0
210
0
220
0
230
1
0
LINE
5
F3
100
AcDbEntity
8
1
62
256
6
ByLayer
370
18
48
1
60
0
100
AcDbLine
10
-12.641251
20
-58.611484
30
0
11
-12.641251
21
-57.750199
31
0
39
0
210
0
220
0
230
1
0
LINE
5
F4
100
AcDbEntity
8
1
62
256
6
ByLayer
370
18
48
1
60
0
100
AcDbLine
10
-12.658616
20
-58.618068
30
0
11
-12.658616
21
-57.752955
31
0
39
0
210
0
220
0
230
1
0
LINE
5
F5
100
AcDbEntity
8
1
62
256
6
ByLayer
370
18
48
1
60
0
100
AcDbLine
10
-17.832909
20
-46.532489
30
0
11
-17.713427
21
-46.751876
31
0
39
0
210
0
220
0
230
1
0
LINE
5
F6
100
AcDbEntity
8
1
62
256
6
ByLayer
370
18
48
1
60
0
100
AcDbLine
10
-17.832909
20
-46.532489
30
0
11
-17.921078
21
-43.856927
31
0
39
0
210
0
220
0
230
1
0
LINE
5
F7
100
AcDbEntity
8
1
62
256
6
ByLayer
370
18
48
1
60
0
100
AcDbLine
10
-17.921078
20
-43.856927
30
0
11
-17.716968
21
-43.856927
31
0
39
0
210
0
220
0
230
1
0
LINE
5
F8
100
AcDbEntity
8
1
62
256
6
ByLayer
370
18
48
1
60
0
100
AcDbLine
10
-17.341384
20
-58.618068
30
0
11
-17.341384
21
-57.752475
31
0
39
0
210
0
220
0
230
1
0
LINE
5
F9
100
AcDbEntity
8
1
62
256
6
ByLayer
370
18
48
1
60
0
100
AcDbLine
10
-17.358749
20
-58.611484
30
0
11
-17.358749
21
-57.749879
31
0
39
0
210
0
220
0
230
1
0
LINE
5
FA
100
AcDbEntity
8
1
62
256
6
ByLayer
370
18
48
1
60
0
100
AcDbLine
10
-12.641251
20
-58.611484
30
0
11
-12.4
21
-58.611484
31
0
39
0
210
0
220
0
230
1
0
LINE
5
FB
100
AcDbEntity
8
1
62
256
6
ByLayer
370
18
48
1
60
0
100
AcDbLine
10
-12.4
20
-60.039855
30
0
11
-12.4
21
-58.611484
31
0
39
0
210
0
220
0
230
1
0
LINE
5
FC
100
AcDbEntity
8
1
62
256
6
ByLayer
370
18
48
1
60
0
100
AcDbLine
10
-12.167091
20
-60.467511
30
0
11
-12.4
21
-60.039855
31
0
39
0
210
0
220
0
230
1
0
LINE
5
FD
100
AcDbEntity
8
1
62
256
6
ByLayer
370
18
48
1
60
0
100
AcDbLine
10
-12.167091
20
-60.467511
30
0
11
-12.078922
21
-63.143073
31
0
39
0
210
0
220
0
230
1
0
LINE
5
FE
100
AcDbEntity
8
1
62
256
6
ByLayer
370
18
48
1
60
0
100
AcDbLine
10
-17.921078
20
-63.143073
30
0
11
-12.078922
21
-63.143073
31
0
39
0
210
0
220
0
230
1
0
LINE
5
FF
100
AcDbEntity
8
1
62
256
6
ByLayer
370
18
48
1
60
0
100
AcDbLine
10
-17.832909
20
-60.467511
30
0
11
-17.921078
21
-63.143073
31
0
39
0
210
0
220
0
230
1
0
LINE
5
100
100
AcDbEntity
8
1
62
256
6
ByLayer
370
18
48
1
60
0
100
AcDbLine
10
-17.832909
20
-60.467511
30
0
11
-17.6
21
-60.039855
31
0
39
0
210
0
220
0
230
1
0
LINE
5
101
100
AcDbEntity
8
1
62
256
6
ByLayer
370
18
48
1
60
0
100
AcDbLine
10
-17.6
20
-60.039855
30
0
11
-17.6
21
-58.611484
31
0
39
0
210
0
220
0
230
1
0
LINE
5
102
100
AcDbEntity
8
1
62
256
6
ByLayer
370
18
48
1
60
0
100
AcDbLine
10
-17.358749
20
-58.611484
30
0
11
-17.6
21
-58.611484
31
0
39
0
210
0
220
0
230
1
0
LINE
5
103
100
AcDbEntity
8
1
62
256
6
ByLayer
370
18
48
1
60
0
100
AcDbLine
10
-15.649934
20
-59.90992
30
0
11
-17.341382
21
-58.618066
31
0
39
0
210
0
220
0
230
1
0
LINE
5
104
100
AcDbEntity
8
1
62
256
6
ByLayer
370
18
48
1
60
0
100
AcDbLine
10
-15.513888
20
-60.306526
30
0
11
-15.605665
21
-59.995391
31
0
39
0
210
0
220
0
230
1
0
LINE
5
105
100
AcDbEntity
8
1
62
256
6
ByLayer
370
18
48
1
60
0
100
AcDbLine
10
-14.98
20
-61.988604
30
0
11
-15.02
21
-61.988604
31
0
39
0
210
0
220
0
230
1
0
LINE
5
106
100
AcDbEntity
8
1
62
256
6
ByLayer
370
18
48
1
60
0
100
AcDbLine
10
-14.486112
20
-60.306526
30
0
11
-14.394335
21
-59.995391
31
0
39
0
210
0
220
0
230
1
0
LINE
5
107
100
AcDbEntity
8
1
62
256
6
ByLayer
370
18
48
1
60
0
100
AcDbLine
10
-14.350066
20
-59.90992
30
0
11
-12.658618
21
-58.618066
31
0
39
0
210
0
220
0
230
1
0
LINE
5
108
100
AcDbEntity
8
1
62
256
6
ByLayer
370
18
48
1
60
0
100
AcDbLine
10
-12.4
20
-58.611484
30
0
11
-12.4
21
-57.713141
31
0
39
0
210
0
220
0
230
1
0
LINE
5
109
100
AcDbEntity
8
1
62
256
6
ByLayer
370
18
48
1
60
0
100
AcDbLine
10
-17.6
20
-58.611484
30
0
11
-17.6
21
-57.713141
31
0
39
0
210
0
220
0
230
1
0
LINE
5
10A
100
AcDbEntity
8
1
62
256
6
ByLayer
370
18
48
1
60
0
100
AcDbLine
10
-15.649934
20
-59.90992
30
0
11
-15.649934
21
-58.007976
31
0
39
0
210
0
220
0
230
1
0
LINE
5
10B
100
AcDbEntity
8
1
62
256
6
ByLayer
370
18
48
1
60
0
100
AcDbLine
10
-14.350066
20
-59.90992
30
0
11
-14.350066
21
-58.007776
31
0
39
0
210
0
220
0
230
1
0
LINE
5
10C
100
AcDbEntity
8
1
62
256
6
ByLayer
370
18
48
1
60
0
100
AcDbLine
10
-15.605665
20
-59.995391
30
0
11
-15.605665
21
-58.0145
31
0
39
0
210
0
220
0
230
1
0
LINE
5
10D
100
AcDbEntity
8
1
62
256
6
ByLayer
370
18
48
1
60
0
100
AcDbLine
10
-14.394335
20
-59.995391
30
0
11
-14.394335
21
-58.0145
31
0
39
0
210
0
220
0
230
1
0
LINE
5
10E
100
AcDbEntity
8
1
62
256
6
ByLayer
370
18
48
1
60
0
100
AcDbLine
10
-14.486112
20
-58.045058
30
0
11
-14.486112
21
-60.306526
31
0
39
0
210
0
220
0
230
1
0
LINE
5
10F
100
AcDbEntity
8
1
62
256
6
ByLayer
370
18
48
1
60
0
100
AcDbLine
10
-15.513888
20
-58.044952
30
0
11
-15.513888
21
-60.306526
31
0
39
0
210
0
220
0
230
1
0
LINE
5
110
100
AcDbEntity
8
1
62
256
6
ByLayer
370
18
48
1
60
0
100
AcDbLine
10
-14.516915
20
-60.482367
30
0
11
-14.516915
21
-58.072687
31
0
39
0
210
0
220
0
230
1
0
LINE
5
111
100
AcDbEntity
8
1
62
256
6
ByLayer
370
18
48
1
60
0
100
AcDbLine
10
-15.483085
20
-60.482367
30
0
11
-15.483085
21
-58.072032
31
0
39
0
210
0
220
0
230
1
0
LINE
5
112
100
AcDbEntity
8
1
62
256
6
ByLayer
370
18
48
1
60
0
100
AcDbLine
10
-14.572267
20
-61.170287
30
0
11
-14.572267
21
-58.184748
31
0
39
0
210
0
220
0
230
1
0
LINE
5
113
100
AcDbEntity
8
1
62
256
6
ByLayer
370
18
48
1
60
0
100
AcDbLine
10
-15.427733
20
-61.170287
30
0
11
-15.427733
21
-58.184748
31
0
39
0
210
0
220
0
230
1
0
LINE
5
114
100
AcDbEntity
8
1
62
256
6
ByLayer
370
18
48
1
60
0
100
AcDbLine
10
-14.789264
20
-58.295237
30
0
11
-14.789264
21
-61.94999
31
0
39
0
210
0
220
0
230
1
0
LINE
5
115
100
AcDbEntity
8
1
62
256
6
ByLayer
370
18
48
1
60
0
100
AcDbLine
10
-15.210736
20
-58.295237
30
0
11
-15.210736
21
-61.94999
31
0
39
0
210
0
220
0
230
1
0
LINE
5
116
100
AcDbEntity
8
1
62
256
6
ByLayer
370
18
48
1
60
0
100
AcDbLine
10
-15.02
20
-58.295266
30
0
11
-15.02
21
-61.988604
31
0
39
0
210
0
220
0
230
1
0
LINE
5
117
100
AcDbEntity
8
1
62
256
6
ByLayer
370
18
48
1
60
0
100
AcDbLine
10
-14.98
20
-58.295266
30
0
11
-14.98
21
-61.988604
31
0
39
0
210
0
220
0
230
1
0
LINE
5
118
100
AcDbEntity
8
1
62
256
6
ByLayer
370
18
48
1
60
0
100
AcDbLine
10
-17.717868
20
-43.431318
30
0
11
-17.899253
21
-43.431318
31
0
39
0
210
0
220
0
230
1
0
LINE
5
119
100
AcDbEntity
8
1
62
256
6
ByLayer
370
18
48
1
60
0
100
AcDbLine
10
-17.899253
20
-43.431318
30
0
11
-17.921078
21
-43.856927
31
0
39
0
210
0
220
0
230
1
0
LINE
5
11A
100
AcDbEntity
8
1
62
256
6
ByLayer
370
18
48
1
60
0
100
AcDbLine
10
-12.100747
20
-63.568682
30
0
11
-17.899253
21
-63.568682
31
0
39
0
210
0
220
0
230
1
0
LINE
5
11B
100
AcDbEntity
8
1
62
256
6
ByLayer
370
18
48
1
60
0
100
AcDbLine
10
-17.899253
20
-63.568682
30
0
11
-17.921078
21
-63.143073
31
0
39
0
210
0
220
0
230
1
0
LINE
5
11C
100
AcDbEntity
8
1
62
256
6
ByLayer
370
18
48
1
60
0
100
AcDbLine
10
-12.100747
20
-63.568682
30
0
11
-12.078922
21
-63.143073
31
0
39
0
210
0
220
0
230
1
0
LINE
5
11D
100
AcDbEntity
8
1
62
256
6
ByLayer
370
18
48
1
60
0
100
AcDbLine
10
-12.383126
20
-66
30
0
11
-17.616874
21
-66
31
0
39
0
210
0
220
0
230
1
0
LINE
5
11E
100
AcDbEntity
8
1
62
256
6
ByLayer
370
18
48
1
60
0
100
AcDbLine
10
-18.016197
20
-65.576744
30
0
11
-17.899253
21
-63.568682
31
0
39
0
210
0
220
0
230
1
0
LINE
5
11F
100
AcDbEntity
8
1
62
256
6
ByLayer
370
18
48
1
60
0
100
AcDbLine
10
-11.983803
20
-65.576744
30
0
11
-12.100747
21
-63.568682
31
0
39
0
210
0
220
0
230
1
0
LINE
5
120
100
AcDbEntity
8
1
62
256
6
ByLayer
370
18
48
1
60
0
100
AcDbLine
10
-18.016197
20
-41.423256
30
0
11
-17.899253
21
-43.431318
31
0
39
0
210
0
220
0
230
1
0
LINE
5
121
100
AcDbEntity
8
1
62
256
6
ByLayer
370
18
48
1
60
0
100
AcDbLine
10
-12.633745
20
-45.278473
30
0
11
-11.973986
21
-45.746659
31
0
39
0
210
0
220
0
230
1
0
LINE
5
122
100
AcDbEntity
8
1
62
256
6
ByLayer
370
18
48
1
60
0
100
AcDbLine
10
-13.783576
20
-45.36338
30
0
11
-12.633745
21
-45.278473
31
0
39
0
210
0
220
0
230
1
0
LINE
5
123
100
AcDbEntity
8
1
62
256
6
ByLayer
370
18
48
1
60
0
100
AcDbLine
10
-14.273648
20
-45.916472
30
0
11
-13.783576
21
-45.36338
31
0
39
0
210
0
220
0
230
1
0
LINE
5
124
100
AcDbEntity
8
1
62
256
6
ByLayer
370
18
48
1
60
0
100
AcDbLine
10
-13.613888
20
-46.384658
30
0
11
-14.273648
21
-45.916472
31
0
39
0
210
0
220
0
230
1
0
LINE
5
125
100
AcDbEntity
8
1
62
256
6
ByLayer
370
18
48
1
60
0
100
AcDbLine
10
-12.464057
20
-46.299752
30
0
11
-13.613888
21
-46.384658
31
0
39
0
210
0
220
0
230
1
0
LINE
5
126
100
AcDbEntity
8
1
62
256
6
ByLayer
370
18
48
1
60
0
100
AcDbLine
10
-11.973986
20
-45.746659
30
0
11
-12.464057
21
-46.299752
31
0
39
0
210
0
220
0
230
1
0
LINE
5
127
100
AcDbEntity
8
1
62
256
6
ByLayer
370
18
48
1
60
0
100
AcDbLine
10
-12.50185
20
-45.372085
30
0
11
-12.464057
21
-46.299752
31
0
39
0
210
0
220
0
230
1
0
LINE
5
128
100
AcDbEntity
8
1
62
256
6
ByLayer
370
18
48
1
60
0
100
AcDbLine
10
-13.655879
20
-45.353953
30
0
11
-13.613888
21
-46.384658
31
0
39
0
210
0
220
0
230
1
0
LINE
5
129
100
AcDbEntity
8
80
62
256
6
ByLayer
370
18
48
1
60
0
100
AcDbLine
10
0
20
0
30
0
11
9.76008
21
0
31
0
39
0
210
0
220
0
230
1
0
LINE
5
12A
100
AcDbEntity
8
4
62
256
6
ByLayer
370
13
48
0.05
60
0
100
AcDbLine
10
0
20
0
30
0
11
-21.8648
21
0
31
0
39
0
210
0
220
0
230
1
0
LINE
5
12C
100
AcDbEntity
8
SK4
62
256
6
ByLayer
370
13
48
0.05
60
0
100
AcDbLine
10
0
20
0
30
0
11
-32.3457
21
0
31
0
39
0
210
0
220
0
230
1
0
LINE
5
12E
100
AcDbEntity
8
81
62
256
6
ByLayer
370
18
48
1
60
0
100
AcDbLine
10
-18.040846
20
-66
30
0
11
-18.040846
21
-72.74031
31
0
39
0
210
0
220
0
230
1
0
MTEXT
5
1E5
100
AcDbEntity
8
SK6
62
256
6
ByLayer
370
13
48
1
60
0
100
AcDbMText
10
-30.124647
20
-89.94465
30
0
210
0
220
0
230
1
1
\W0.7844;C2A-SL70-RGK40A-288AB
40
3.5
41
0
44
1.084337
50
0
71
7
72
5
7
iso_b_vert
0
DIMENSION
5
1EA
100
AcDbEntity
8
2
62
256
6
ByLayer
370
18
48
1
60
0
100
AcDbDimension
2
_U0
10
-18.040846
20
-80.646188
30
0
11
-9.020423
21
-80.646188
31
0
70
32
71
1
72
1
41
1
210
0
220
0
230
1
3
Standard
100
AcDbAlignedDimension
13
0
23
0
33
0
14
-18.040846
24
-66
34
0
50
0
100
AcDbRotatedDimension
1001
ACAD
1000
DSTYLE
1002
{
1070
   371
1070
    13
1070
   372
1070
    13
1070
   170
1070
     0
1070
   144
1040
1.0
1070
   277
1070
     2
1070
   284
1070
     8
1070
   278
1070
    46
1070
   146
1040
0.999966
1070
   345
1005
16
1070
   347
1005
16
1070
   346
1005
16
1070
   344
1005
1EB
1070
   343
1005
1EB
1070
   172
1070
     1
1070
    76
1070
     0
1070
    75
1070
     0
1070
   282
1070
     0
1070
   281
1070
     0
1070
    71
1070
     0
1070
    74
1070
     0
1070
   279
1070
     0
1070
   173
1070
     1
1070
   340
1005
1E6
1070
   271
1070
     1
1070
   272
1070
     2
1070
    77
1070
     1
1070
    73
1070
     1
1070
   171
1070
     3
1070
   274
1070
     4
1070
   177
1070
   150
1070
   176
1070
     9
1070
   178
1070
    43
1070
    78
1070
     8
1070
    48
1040
-0.1
1070
    41
1040
3.175
1070
   147
1040
1.75006
1070
    42
1040
1.5875
1070
    44
1040
3.175
1070
   140
1040
3.50012
1002
}
1001
ACAD_DSTYLE_DIM_LINETYPE
1070
   380
1005
16
1001
ACAD_DSTYLE_DIM_EXT1_LINETYPE
1070
   381
1005
16
1001
ACAD_DSTYLE_DIM_EXT2_LINETYPE
1070
   382
1005
16
0
DIMENSION
5
20F
100
AcDbEntity
8
SK2
62
256
6
ByLayer
370
18
48
1
60
0
100
AcDbDimension
2
_U1
10
7.567469
20
-25.25
30
0
11
7.567469
21
-45.625
31
0
70
32
71
1
72
1
41
1
210
0
220
0
230
1
3
Standard
100
AcDbAlignedDimension
13
-18.040846
23
-66
33
0
14
-7.626153
24
-25.25
34
0
50
90
100
AcDbRotatedDimension
1001
ACAD
1000
DSTYLE
1002
{
1070
   371
1070
    13
1070
   372
1070
    13
1070
   170
1070
     0
1070
   144
1040
1.0
1070
   277
1070
     2
1070
   284
1070
     8
1070
   278
1070
    46
1070
   146
1040
0.999966
1070
   345
1005
16
1070
   347
1005
16
1070
   346
1005
16
1070
   344
1005
1EB
1070
   343
1005
1EB
1070
   172
1070
     1
1070
    76
1070
     0
1070
    75
1070
     0
1070
   282
1070
     0
1070
   281
1070
     0
1070
    71
1070
     0
1070
    74
1070
     0
1070
   279
1070
     0
1070
   173
1070
     1
1070
   340
1005
1E6
1070
   271
1070
     2
1070
   272
1070
     2
1070
    77
1070
     1
1070
    73
1070
     0
1070
   171
1070
     3
1070
   274
1070
     4
1070
   177
1070
   150
1070
   176
1070
     9
1070
   178
1070
    43
1070
    78
1070
     8
1070
    48
1040
-0.1
1070
    41
1040
3.175
1070
   147
1040
1.75006
1070
    42
1040
1.5875
1070
    44
1040
3.175
1070
   140
1040
3.50012
1002
}
1001
ACAD_DSTYLE_DIM_LINETYPE
1070
   380
1005
16
1001
ACAD_DSTYLE_DIM_EXT1_LINETYPE
1070
   381
1005
16
1001
ACAD_DSTYLE_DIM_EXT2_LINETYPE
1070
   382
1005
16
0
DIMENSION
5
22C
100
AcDbEntity
8
2
62
256
6
ByLayer
370
18
48
1
60
0
100
AcDbDimension
2
_U2
10
16.134818
20
-66
30
0
11
16.134818
21
-33
31
0
70
32
71
1
72
1
41
1
210
0
220
0
230
1
3
Standard
100
AcDbAlignedDimension
13
0
23
0
33
0
14
-18.040846
24
-66
34
0
50
90
100
AcDbRotatedDimension
1001
ACAD
1000
DSTYLE
1002
{
1070
   371
1070
    13
1070
   372
1070
    13
1070
   170
1070
     0
1070
   144
1040
1.0
1070
   277
1070
     2
1070
   284
1070
     8
1070
   278
1070
    46
1070
   146
1040
0.999966
1070
   345
1005
16
1070
   347
1005
16
1070
   346
1005
16
1070
   344
1005
1EB
1070
   343
1005
1EB
1070
   172
1070
     1
1070
    76
1070
     0
1070
    75
1070
     0
1070
   282
1070
     0
1070
   281
1070
     0
1070
    71
1070
     0
1070
    74
1070
     0
1070
   279
1070
     0
1070
   173
1070
     1
1070
   340
1005
1E6
1070
   271
1070
     2
1070
   272
1070
     2
1070
    77
1070
     1
1070
    73
1070
     0
1070
   171
1070
     3
1070
   274
1070
     4
1070
   177
1070
   150
1070
   176
1070
     9
1070
   178
1070
    43
1070
    78
1070
     8
1070
    48
1040
-0.1
1070
    41
1040
3.175
1070
   147
1040
1.75006
1070
    42
1040
1.5875
1070
    44
1040
3.175
1070
   140
1040
3.50012
1002
}
1001
ACAD_DSTYLE_DIM_LINETYPE
1070
   380
1005
16
1001
ACAD_DSTYLE_DIM_EXT1_LINETYPE
1070
   381
1005
16
1001
ACAD_DSTYLE_DIM_EXT2_LINETYPE
1070
   382
1005
16
0
DIMENSION
5
248
100
AcDbEntity
8
SK2
62
256
6
ByLayer
370
18
48
1
60
0
100
AcDbDimension
2
_U3
10
21.300426
20
-20
30
0
11
21.300426
21
7.393513
31
0
70
32
71
1
72
1
41
1
210
0
220
0
230
1
3
Standard
100
AcDbAlignedDimension
13
-5.25
23
20
33
0
14
-1
24
-20
34
0
50
90
100
AcDbRotatedDimension
1001
ACAD
1000
DSTYLE
1002
{
1070
   371
1070
    13
1070
   372
1070
    13
1070
   170
1070
     0
1070
   144
1040
1.0
1070
   277
1070
     2
1070
   284
1070
     8
1070
   278
1070
    46
1070
   146
1040
0.999966
1070
   345
1005
16
1070
   347
1005
16
1070
   346
1005
16
1070
   344
1005
1EB
1070
   343
1005
1EB
1070
   172
1070
     1
1070
    76
1070
     0
1070
    75
1070
     0
1070
   282
1070
     0
1070
   281
1070
     0
1070
    71
1070
     0
1070
    74
1070
     0
1070
   279
1070
     0
1070
   173
1070
     1
1070
   340
1005
1E6
1070
   271
1070
     2
1070
   272
1070
     2
1070
    77
1070
     1
1070
    73
1070
     0
1070
   171
1070
     3
1070
   274
1070
     4
1070
   177
1070
   150
1070
   176
1070
     9
1070
   178
1070
    43
1070
    78
1070
     8
1070
    48
1040
-0.1
1070
    41
1040
3.175
1070
   147
1040
1.75006
1070
    42
1040
1.5875
1070
    44
1040
3.175
1070
   140
1040
3.50012
1002
}
1001
ACAD_DSTYLE_DIM_LINETYPE
1070
   380
1005
16
1001
ACAD_DSTYLE_DIM_EXT1_LINETYPE
1070
   381
1005
16
1001
ACAD_DSTYLE_DIM_EXT2_LINETYPE
1070
   382
1005
16
0
ENDSEC
0
SECTION
2
OBJECTS
0
DICTIONARY
5
2d4
330
0
100
AcDbDictionary
280
0
281
1
3
ACAD_GROUP
350
2d5
3
ACAD_MLINESTYLE
350
2d6
0
DICTIONARY
5
2d5
330
0
100
AcDbDictionary
280
0
281
1
0
DICTIONARY
5
2d6
330
0
100
AcDbDictionary
280
0
281
1
3
Standard
350
18
0
MLINESTYLE
5
18
330
2d6
100
AcDbMlineStyle
2
Standard
70
0
3

62
256
51
90
52
90
71
2
49
-0.5
62
256
6
ByLayer
49
0.5
62
256
6
ByLayer
0
RASTERVARIABLES
5
2c2
330

100
AcDbRasterVariables
90
0
70
1
71
1
72
1
0
ENDSEC
0
EOF
