0
SECTION
2
HEADER
9
$ACADVER
1
AC1015
9
$DWGCODEPAGE
3
ANSI_1252
9
$HANDSEED
5
29e
9
$ANGBASE
50
0
9
$ANGDIR
70
0
9
$ATTMODE
70
1
9
$AUNITS
70
0
9
$AUPREC
70
0
9
$CECOLOR
62
256
9
$CELTSCALE
40
1
9
$CELTYPE
6
ByLayer
9
$CELWEIGHT
370
18
9
$CLAYER
8
0
9
$CMLJUST
70
0
9
$CMLSCALE
40
1
9
$CMLSTYLE
2
Standard
9
$DIMSTYLE
2
Standard
9
$TEXTSIZE
40
0.2
9
$TEXTSTYLE
7
Standard
9
$LUNITS
70
2
9
$LUPREC
70
4
9
$EXTNAMES
290
1
9
$INSUNITS
70
4
9
$LTSCALE
40
1
9
$LWDISPLAY
290
1
9
$PDMODE
70
0
9
$PDSIZE
40
0
9
$PLINEGEN
70
0
0
ENDSEC
0
SECTION
2
CLASSES
0
CLASS
1
RASTERVARIABLES
2
AcDbRasterVariables
3
ISM
90
0
280
0
281
0
0
ENDSEC
0
SECTION
2
TABLES
0
TABLE
2
VPORT
5
294
100
AcDbSymbolTable
0
VPORT
5
1
100
AcDbSymbolTableRecord
100
AcDbViewportTableRecord
2
*Active
70
0
10
0
20
0
11
1
21
1
12
-1
22
1
13
0
23
0
14
0.5
24
0.5
15
10
25
10
16
0
26
0
36
1
17
0
27
0
37
0
0
ENDTAB
0
TABLE
2
LTYPE
5
295
100
AcDbSymbolTable
0
LTYPE
5
14
100
AcDbSymbolTableRecord
100
AcDbLinetypeTableRecord
70
0
2
ByBlock
3

72
65
73
0
40
0
0
LTYPE
5
15
100
AcDbSymbolTableRecord
100
AcDbLinetypeTableRecord
70
0
2
ByLayer
3

72
65
73
0
40
0
0
LTYPE
5
16
100
AcDbSymbolTableRecord
100
AcDbLinetypeTableRecord
70
0
2
Continuous
3
Solid line
72
65
73
0
40
0
0
LTYPE
5
6E
100
AcDbSymbolTableRecord
100
AcDbLinetypeTableRecord
70
0
2
CENTER
3
____ _ ____ _ ____ _ ____
72
65
73
4
40
47.5
49
22
74
0
49
-8.5
74
0
49
8.5
74
0
49
-8.5
74
0
0
LTYPE
5
6F
100
AcDbSymbolTableRecord
100
AcDbLinetypeTableRecord
70
0
2
DASHED
3
__ __ __ __ __ __ __ __ __
72
65
73
2
40
25.72
49
12.86
74
0
49
-12.86
74
0
0
ENDTAB
0
TABLE
2
LAYER
5
296
100
AcDbSymbolTable
0
LAYER
5
10
100
AcDbSymbolTableRecord
100
AcDbLayerTableRecord
2
0
70
0
62
7
6
Continuous
290
1
370
-3
390
0
0
LAYER
5
71
100
AcDbSymbolTableRecord
100
AcDbLayerTableRecord
2
80
70
0
62
-6
6
Continuous
290
1
370
-3
390
0
0
LAYER
5
73
100
AcDbSymbolTableRecord
100
AcDbLayerTableRecord
2
81
70
0
62
-3
6
Continuous
290
1
370
-3
390
0
0
LAYER
5
75
100
AcDbSymbolTableRecord
100
AcDbLayerTableRecord
2
1
70
0
62
4
6
Continuous
290
1
370
-3
390
0
0
LAYER
5
1C2
100
AcDbSymbolTableRecord
100
AcDbLayerTableRecord
2
Defpoints
70
0
62
7
6
Continuous
290
0
370
-3
390
0
0
LAYER
5
1CF
100
AcDbSymbolTableRecord
100
AcDbLayerTableRecord
2
2
70
0
62
7
6
Continuous
290
1
370
-3
390
0
0
LAYER
5
281
100
AcDbSymbolTableRecord
100
AcDbLayerTableRecord
2
SK1
70
0
62
4
6
Continuous
290
1
370
-3
390
0
0
LAYER
5
282
100
AcDbSymbolTableRecord
100
AcDbLayerTableRecord
2
SK2
70
0
62
7
6
Continuous
290
1
370
-3
390
0
0
LAYER
5
283
100
AcDbSymbolTableRecord
100
AcDbLayerTableRecord
2
SK6
70
0
62
5
6
Continuous
290
1
370
-3
390
0
0
ENDTAB
0
TABLE
2
STYLE
5
297
100
AcDbSymbolTable
0
STYLE
5
11
100
AcDbSymbolTableRecord
100
AcDbTextStyleTableRecord
2
Standard
3
txt
70
0
71
0
40
0
41
1
42
0
50
0
0
STYLE
5
1B1
100
AcDbSymbolTableRecord
100
AcDbTextStyleTableRecord
2
iso_b_vert
3
simplex.shx
70
0
71
0
40
0
41
1
42
0
50
0
0
STYLE
5
1B2
100
AcDbSymbolTableRecord
100
AcDbTextStyleTableRecord
2
DWGDirectTextStyle
3
simplex
70
0
71
0
40
0
41
1
42
0
50
0
0
ENDTAB
0
TABLE
2
DIMSTYLE
5
298
100
AcDbSymbolTable
100
AcDbDimStyleTable
0
DIMSTYLE
105
27
100
AcDbSymbolTableRecord
100
AcDbDimStyleTableRecord
2
Standard
70
0
3
<>
41
0.18
42
0.0625
44
0.18
140
0.18
147
0.09
73
0
74
0
77
1
271
2
275
0
278
52
280
0
340
11
0
ENDTAB
0
TABLE
2
VIEW
5
299
100
AcDbSymbolTable
0
ENDTAB
0
TABLE
2
UCS
5
29a
100
AcDbSymbolTable
0
ENDTAB
0
TABLE
2
APPID
5
29b
100
AcDbSymbolTable
0
APPID
5
12
100
AcDbSymbolTableRecord
100
AcDbRegAppTableRecord
2
ACAD
70
0
0
APPID
5
1BE
100
AcDbSymbolTableRecord
100
AcDbRegAppTableRecord
2
ACAD_DSTYLE_DIMBREAK
70
0
0
APPID
5
240
100
AcDbSymbolTableRecord
100
AcDbRegAppTableRecord
2
ACAD_DSTYLE_DIM_LINETYPE
70
0
0
APPID
5
241
100
AcDbSymbolTableRecord
100
AcDbRegAppTableRecord
2
ACAD_DSTYLE_DIM_EXT1_LINETYPE
70
0
0
APPID
5
242
100
AcDbSymbolTableRecord
100
AcDbRegAppTableRecord
2
ACAD_DSTYLE_DIM_EXT2_LINETYPE
70
0
0
APPID
5
27D
100
AcDbSymbolTableRecord
100
AcDbRegAppTableRecord
2
ACAD_MLEADERVER
70
0
0
ENDTAB
0
TABLE
2
BLOCK_RECORD
5
29c
100
AcDbSymbolTable
0
BLOCK_RECORD
5
1F
100
AcDbSymbolTableRecord
100
AcDbBlockTableRecord
2
*Model_Space
340
0
70
0
0
BLOCK_RECORD
5
1B
100
AcDbSymbolTableRecord
100
AcDbBlockTableRecord
2
*Paper_Space
340
0
70
0
0
BLOCK_RECORD
5
23
100
AcDbSymbolTableRecord
100
AcDbBlockTableRecord
2
*Paper_Space0
340
0
70
0
0
BLOCK_RECORD
5
1C3
100
AcDbSymbolTableRecord
100
AcDbBlockTableRecord
2
*D1
340
0
70
0
0
BLOCK_RECORD
5
1D0
100
AcDbSymbolTableRecord
100
AcDbBlockTableRecord
2
_U0
340
0
70
0
0
BLOCK_RECORD
5
1DC
100
AcDbSymbolTableRecord
100
AcDbBlockTableRecord
2
*D3
340
0
70
0
0
BLOCK_RECORD
5
1E9
100
AcDbSymbolTableRecord
100
AcDbBlockTableRecord
2
_U1
340
0
70
0
0
BLOCK_RECORD
5
1F5
100
AcDbSymbolTableRecord
100
AcDbBlockTableRecord
2
*D5
340
0
70
0
0
BLOCK_RECORD
5
201
100
AcDbSymbolTableRecord
100
AcDbBlockTableRecord
2
_U2
340
0
70
0
0
BLOCK_RECORD
5
20D
100
AcDbSymbolTableRecord
100
AcDbBlockTableRecord
2
*D7
340
0
70
0
0
BLOCK_RECORD
5
219
100
AcDbSymbolTableRecord
100
AcDbBlockTableRecord
2
_U3
340
0
70
0
0
ENDTAB
0
ENDSEC
0
SECTION
2
BLOCKS
0
BLOCK
5
20
100
AcDbEntity
8
0
100
AcDbBlockBegin
2
*Model_Space
70
0
10
0
20
0
30
0
3
*Model_Space
0
ENDBLK
5
21
100
AcDbEntity
8
0
100
AcDbBlockEnd
0
BLOCK
5
1C
100
AcDbEntity
8
0
100
AcDbBlockBegin
2
*Paper_Space
70
0
10
0
20
0
30
0
3
*Paper_Space
0
ENDBLK
5
1D
100
AcDbEntity
8
0
100
AcDbBlockEnd
0
BLOCK
5
24
100
AcDbEntity
8
0
100
AcDbBlockBegin
2
*Paper_Space0
70
0
10
0
20
0
30
0
3
*Paper_Space0
0
ENDBLK
5
25
100
AcDbEntity
8
0
100
AcDbBlockEnd
0
BLOCK
5
1C4
100
AcDbEntity
8
0
100
AcDbBlockBegin
2
*D1
70
1
10
0
20
0
30
0
3
*D1
0
LINE
5
1C6
100
AcDbEntity
8
0
62
256
6
ByLayer
370
-2
48
1
60
0
100
AcDbLine
10
91.5875
20
51
30
0
11
123.1
21
51
31
0
39
0
210
0
220
0
230
1
0
LINE
5
1C7
100
AcDbEntity
8
0
62
256
6
ByLayer
370
-2
48
1
60
0
100
AcDbLine
10
1.5875
20
0
30
0
11
123.1
21
0
31
0
39
0
210
0
220
0
230
1
0
LINE
5
1C8
100
AcDbEntity
8
0
62
256
6
ByLayer
370
-2
48
1
60
0
100
AcDbLine
10
121.1
20
47.5
30
0
11
121.1
21
3.5
31
0
39
0
210
0
220
0
230
1
0
SOLID
5
1C9
100
AcDbEntity
8
0
62
256
6
ByLayer
370
-1
48
1
60
0
100
AcDbTrace
10
121.683333
20
47.5
30
0
11
120.516667
21
47.5
31
0
12
121.1
22
51
32
0
13
121.1
23
51
33
0
39
0
210
0
220
0
230
1
0
SOLID
5
1CA
100
AcDbEntity
8
0
62
256
6
ByLayer
370
-1
48
1
60
0
100
AcDbTrace
10
120.516667
20
3.5
30
0
11
121.683333
21
3.5
31
0
12
121.1
22
0
32
0
13
121.1
23
0
33
0
39
0
210
0
220
0
230
1
0
MTEXT
5
1CB
100
AcDbEntity
8
0
62
256
6
ByLayer
370
18
48
1
60
0
100
AcDbMText
10
114.1
20
25.5
30
0
210
0
220
0
230
1
1
\A1;51
40
3.5
41
0
44
1
50
90
71
5
72
5
7
iso_b_vert
0
POINT
5
1CC
100
AcDbEntity
8
Defpoints
62
0
6
ByLayer
370
-1
48
1
60
0
100
AcDbPoint
10
90
20
51
30
0
39
0
210
0
220
0
230
1
50
360
0
POINT
5
1CD
100
AcDbEntity
8
Defpoints
62
0
6
ByLayer
370
-1
48
1
60
0
100
AcDbPoint
10
0
20
0
30
0
39
0
210
0
220
0
230
1
50
360
0
POINT
5
1CE
100
AcDbEntity
8
Defpoints
62
0
6
ByLayer
370
-1
48
1
60
0
100
AcDbPoint
10
121.1
20
0
30
0
39
0
210
0
220
0
230
1
50
360
0
ENDBLK
5
1C5
100
AcDbEntity
8
0
100
AcDbBlockEnd
0
BLOCK
5
1D7
100
AcDbEntity
8
0
100
AcDbBlockBegin
2
_U0
70
0
10
0
20
0
30
0
3
_U0
0
MTEXT
5
1D1
100
AcDbEntity
8
2
62
256
6
ByLayer
370
18
48
1
60
0
100
AcDbMText
10
120.410366
20
24.004467
30
0
210
0
220
0
230
1
1
\W0.6351;51
40
3.5
41
0
44
1.084337
50
90
71
7
72
5
7
iso_b_vert
0
LINE
5
1D2
100
AcDbEntity
8
2
62
256
6
ByLayer
370
13
48
1
60
0
100
AcDbLine
10
91.5875
20
51
30
0
11
123.1
21
51
31
0
39
0
210
0
220
0
230
1
0
LINE
5
1D3
100
AcDbEntity
8
2
62
256
6
ByLayer
370
13
48
1
60
0
100
AcDbLine
10
1.5875
20
0
30
0
11
123.1
21
0
31
0
39
0
210
0
220
0
230
1
0
LINE
5
1D4
100
AcDbEntity
8
2
62
256
6
ByLayer
370
13
48
1
60
0
100
AcDbLine
10
121.1
20
51
30
0
11
121.1
21
0
31
0
39
0
210
0
220
0
230
1
0
SOLID
5
1D5
100
AcDbEntity
8
2
62
256
6
ByLayer
370
18
48
1
60
0
100
AcDbTrace
10
121.1
20
51
30
0
11
121.560784
21
47.500002
31
0
12
120.639216
22
47.499998
32
0
13
120.639216
23
47.499998
33
0
39
0
210
0
220
0
230
1
0
SOLID
5
1D6
100
AcDbEntity
8
2
62
256
6
ByLayer
370
18
48
1
60
0
100
AcDbTrace
10
121.1
20
0
30
0
11
120.639216
21
3.499998
31
0
12
121.560784
22
3.500002
32
0
13
121.560784
23
3.500002
33
0
39
0
210
0
220
0
230
1
0
ENDBLK
5
1D8
100
AcDbEntity
8
0
100
AcDbBlockEnd
0
BLOCK
5
1DD
100
AcDbEntity
8
0
100
AcDbBlockBegin
2
*D3
70
1
10
0
20
0
30
0
3
*D3
0
LINE
5
1DF
100
AcDbEntity
8
0
62
256
6
ByLayer
370
-2
48
1
60
0
100
AcDbLine
10
91.5875
20
43
30
0
11
112.1
21
43
31
0
39
0
210
0
220
0
230
1
0
LINE
5
1E0
100
AcDbEntity
8
0
62
256
6
ByLayer
370
-2
48
1
60
0
100
AcDbLine
10
91.5875
20
51
30
0
11
112.1
21
51
31
0
39
0
210
0
220
0
230
1
0
LINE
5
1E1
100
AcDbEntity
8
0
62
256
6
ByLayer
370
-2
48
1
60
0
100
AcDbLine
10
110.1
20
39.5
30
0
11
110.1
21
36
31
0
39
0
210
0
220
0
230
1
0
LINE
5
1E2
100
AcDbEntity
8
0
62
256
6
ByLayer
370
-2
48
1
60
0
100
AcDbLine
10
110.1
20
54.5
30
0
11
110.1
21
58
31
0
39
0
210
0
220
0
230
1
0
SOLID
5
1E3
100
AcDbEntity
8
0
62
256
6
ByLayer
370
-1
48
1
60
0
100
AcDbTrace
10
110.683333
20
39.5
30
0
11
109.516667
21
39.5
31
0
12
110.1
22
43
32
0
13
110.1
23
43
33
0
39
0
210
0
220
0
230
1
0
SOLID
5
1E4
100
AcDbEntity
8
0
62
256
6
ByLayer
370
-1
48
1
60
0
100
AcDbTrace
10
109.516667
20
54.5
30
0
11
110.683333
21
54.5
31
0
12
110.1
22
51
32
0
13
110.1
23
51
33
0
39
0
210
0
220
0
230
1
0
MTEXT
5
1E5
100
AcDbEntity
8
0
62
256
6
ByLayer
370
18
48
1
60
0
100
AcDbMText
10
103.1
20
47
30
0
210
0
220
0
230
1
1
\A1;8
40
3.5
41
0
44
1
50
90
71
5
72
5
7
iso_b_vert
0
POINT
5
1E6
100
AcDbEntity
8
Defpoints
62
0
6
ByLayer
370
-1
48
1
60
0
100
AcDbPoint
10
90
20
43
30
0
39
0
210
0
220
0
230
1
50
360
0
POINT
5
1E7
100
AcDbEntity
8
Defpoints
62
0
6
ByLayer
370
-1
48
1
60
0
100
AcDbPoint
10
90
20
51
30
0
39
0
210
0
220
0
230
1
50
360
0
POINT
5
1E8
100
AcDbEntity
8
Defpoints
62
0
6
ByLayer
370
-1
48
1
60
0
100
AcDbPoint
10
110.1
20
51
30
0
39
0
210
0
220
0
230
1
50
360
0
ENDBLK
5
1DE
100
AcDbEntity
8
0
100
AcDbBlockEnd
0
BLOCK
5
1F0
100
AcDbEntity
8
0
100
AcDbBlockBegin
2
_U1
70
0
10
0
20
0
30
0
3
_U1
0
MTEXT
5
1EA
100
AcDbEntity
8
2
62
256
6
ByLayer
370
18
48
1
60
0
100
AcDbMText
10
109.410366
20
46.374767
30
0
210
0
220
0
230
1
1
\W0.5404;8
40
3.5
41
0
44
1.084337
50
90
71
7
72
5
7
iso_b_vert
0
LINE
5
1EB
100
AcDbEntity
8
2
62
256
6
ByLayer
370
13
48
1
60
0
100
AcDbLine
10
91.5875
20
43
30
0
11
112.1
21
43
31
0
39
0
210
0
220
0
230
1
0
LINE
5
1EC
100
AcDbEntity
8
2
62
256
6
ByLayer
370
13
48
1
60
0
100
AcDbLine
10
91.5875
20
51
30
0
11
112.1
21
51
31
0
39
0
210
0
220
0
230
1
0
LINE
5
1ED
100
AcDbEntity
8
2
62
256
6
ByLayer
370
13
48
1
60
0
100
AcDbLine
10
110.1
20
43
30
0
11
110.1
21
51
31
0
39
0
210
0
220
0
230
1
0
SOLID
5
1EE
100
AcDbEntity
8
2
62
256
6
ByLayer
370
18
48
1
60
0
100
AcDbTrace
10
110.1
20
43
30
0
11
109.639216
21
46.499998
31
0
12
110.560784
22
46.500002
32
0
13
110.560784
23
46.500002
33
0
39
0
210
0
220
0
230
1
0
SOLID
5
1EF
100
AcDbEntity
8
2
62
256
6
ByLayer
370
18
48
1
60
0
100
AcDbTrace
10
110.1
20
51
30
0
11
110.560784
21
47.500002
31
0
12
109.639216
22
47.499998
32
0
13
109.639216
23
47.499998
33
0
39
0
210
0
220
0
230
1
0
ENDBLK
5
1F1
100
AcDbEntity
8
0
100
AcDbBlockEnd
0
BLOCK
5
1F6
100
AcDbEntity
8
0
100
AcDbBlockBegin
2
*D5
70
1
10
0
20
0
30
0
3
*D5
0
LINE
5
1F8
100
AcDbEntity
8
0
62
256
6
ByLayer
370
-2
48
1
60
0
100
AcDbLine
10
58
20
42.2375
30
0
11
58
21
-39.925
31
0
39
0
210
0
220
0
230
1
0
LINE
5
1F9
100
AcDbEntity
8
0
62
256
6
ByLayer
370
-2
48
1
60
0
100
AcDbLine
10
90
20
41.4125
30
0
11
90
21
-39.925
31
0
39
0
210
0
220
0
230
1
0
LINE
5
1FA
100
AcDbEntity
8
0
62
256
6
ByLayer
370
-2
48
1
60
0
100
AcDbLine
10
61.5
20
-37.925
30
0
11
86.5
21
-37.925
31
0
39
0
210
0
220
0
230
1
0
SOLID
5
1FB
100
AcDbEntity
8
0
62
256
6
ByLayer
370
-1
48
1
60
0
100
AcDbTrace
10
61.5
20
-37.341667
30
0
11
61.5
21
-38.508333
31
0
12
58
22
-37.925
32
0
13
58
23
-37.925
33
0
39
0
210
0
220
0
230
1
0
SOLID
5
1FC
100
AcDbEntity
8
0
62
256
6
ByLayer
370
-1
48
1
60
0
100
AcDbTrace
10
86.5
20
-38.508333
30
0
11
86.5
21
-37.341667
31
0
12
90
22
-37.925
32
0
13
90
23
-37.925
33
0
39
0
210
0
220
0
230
1
0
MTEXT
5
1FD
100
AcDbEntity
8
0
62
256
6
ByLayer
370
18
48
1
60
0
100
AcDbMText
10
74
20
-30.925
30
0
210
0
220
0
230
1
1
\A1;32
40
3.5
41
0
44
1
50
0
71
5
72
5
7
iso_b_vert
0
POINT
5
1FE
100
AcDbEntity
8
Defpoints
62
0
6
ByLayer
370
-1
48
1
60
0
100
AcDbPoint
10
58
20
43.825
30
0
39
0
210
0
220
0
230
1
50
360
0
POINT
5
1FF
100
AcDbEntity
8
Defpoints
62
0
6
ByLayer
370
-1
48
1
60
0
100
AcDbPoint
10
90
20
43
30
0
39
0
210
0
220
0
230
1
50
360
0
POINT
5
200
100
AcDbEntity
8
Defpoints
62
0
6
ByLayer
370
-1
48
1
60
0
100
AcDbPoint
10
90
20
-37.925
30
0
39
0
210
0
220
0
230
1
50
360
0
ENDBLK
5
1F7
100
AcDbEntity
8
0
100
AcDbBlockEnd
0
BLOCK
5
208
100
AcDbEntity
8
0
100
AcDbBlockBegin
2
_U2
70
0
10
0
20
0
30
0
3
_U2
0
MTEXT
5
202
100
AcDbEntity
8
2
62
256
6
ByLayer
370
18
48
1
60
0
100
AcDbMText
10
72.095034
20
-36.892366
30
0
210
0
220
0
230
1
1
\W0.6740;32
40
3.5
41
0
44
1.084337
50
0
71
7
72
5
7
iso_b_vert
0
LINE
5
203
100
AcDbEntity
8
2
62
256
6
ByLayer
370
13
48
1
60
0
100
AcDbLine
10
58
20
42.2375
30
0
11
58
21
-39.925
31
0
39
0
210
0
220
0
230
1
0
LINE
5
204
100
AcDbEntity
8
2
62
256
6
ByLayer
370
13
48
1
60
0
100
AcDbLine
10
90
20
41.4125
30
0
11
90
21
-39.925
31
0
39
0
210
0
220
0
230
1
0
LINE
5
205
100
AcDbEntity
8
2
62
256
6
ByLayer
370
13
48
1
60
0
100
AcDbLine
10
58
20
-37.925
30
0
11
90
21
-37.925
31
0
39
0
210
0
220
0
230
1
0
SOLID
5
206
100
AcDbEntity
8
2
62
256
6
ByLayer
370
18
48
1
60
0
100
AcDbTrace
10
58
20
-37.925
30
0
11
61.499998
21
-37.464216
31
0
12
61.500002
22
-38.385784
32
0
13
61.500002
23
-38.385784
33
0
39
0
210
0
220
0
230
1
0
SOLID
5
207
100
AcDbEntity
8
2
62
256
6
ByLayer
370
18
48
1
60
0
100
AcDbTrace
10
90
20
-37.925
30
0
11
86.500002
21
-38.385784
31
0
12
86.499998
22
-37.464216
32
0
13
86.499998
23
-37.464216
33
0
39
0
210
0
220
0
230
1
0
ENDBLK
5
209
100
AcDbEntity
8
0
100
AcDbBlockEnd
0
BLOCK
5
20E
100
AcDbEntity
8
0
100
AcDbBlockBegin
2
*D7
70
1
10
0
20
0
30
0
3
*D7
0
LINE
5
210
100
AcDbEntity
8
0
62
256
6
ByLayer
370
-2
48
1
60
0
100
AcDbLine
10
0
20
1.5875
30
0
11
0
21
64.25
31
0
39
0
210
0
220
0
230
1
0
LINE
5
211
100
AcDbEntity
8
0
62
256
6
ByLayer
370
-2
48
1
60
0
100
AcDbLine
10
90
20
52.5875
30
0
11
90
21
64.25
31
0
39
0
210
0
220
0
230
1
0
LINE
5
212
100
AcDbEntity
8
0
62
256
6
ByLayer
370
-2
48
1
60
0
100
AcDbLine
10
3.5
20
62.25
30
0
11
86.5
21
62.25
31
0
39
0
210
0
220
0
230
1
0
SOLID
5
213
100
AcDbEntity
8
0
62
256
6
ByLayer
370
-1
48
1
60
0
100
AcDbTrace
10
3.5
20
62.833333
30
0
11
3.5
21
61.666667
31
0
12
0
22
62.25
32
0
13
0
23
62.25
33
0
39
0
210
0
220
0
230
1
0
SOLID
5
214
100
AcDbEntity
8
0
62
256
6
ByLayer
370
-1
48
1
60
0
100
AcDbTrace
10
86.5
20
61.666667
30
0
11
86.5
21
62.833333
31
0
12
90
22
62.25
32
0
13
90
23
62.25
33
0
39
0
210
0
220
0
230
1
0
MTEXT
5
215
100
AcDbEntity
8
0
62
256
6
ByLayer
370
18
48
1
60
0
100
AcDbMText
10
45
20
69.25
30
0
210
0
220
0
230
1
1
\A1;90
40
3.5
41
0
44
1
50
0
71
5
72
5
7
iso_b_vert
0
POINT
5
216
100
AcDbEntity
8
Defpoints
62
0
6
ByLayer
370
-1
48
1
60
0
100
AcDbPoint
10
0
20
0
30
0
39
0
210
0
220
0
230
1
50
360
0
POINT
5
217
100
AcDbEntity
8
Defpoints
62
0
6
ByLayer
370
-1
48
1
60
0
100
AcDbPoint
10
90
20
51
30
0
39
0
210
0
220
0
230
1
50
360
0
POINT
5
218
100
AcDbEntity
8
Defpoints
62
0
6
ByLayer
370
-1
48
1
60
0
100
AcDbPoint
10
90
20
62.25
30
0
39
0
210
0
220
0
230
1
50
360
0
ENDBLK
5
20F
100
AcDbEntity
8
0
100
AcDbBlockEnd
0
BLOCK
5
220
100
AcDbEntity
8
0
100
AcDbBlockBegin
2
_U3
70
0
10
0
20
0
30
0
3
_U3
0
MTEXT
5
21A
100
AcDbEntity
8
2
62
256
6
ByLayer
370
18
48
1
60
0
100
AcDbMText
10
43.095034
20
63.282634
30
0
210
0
220
0
230
1
1
\W0.6740;90
40
3.5
41
0
44
1.084337
50
0
71
7
72
5
7
iso_b_vert
0
LINE
5
21B
100
AcDbEntity
8
2
62
256
6
ByLayer
370
13
48
1
60
0
100
AcDbLine
10
0
20
1.5875
30
0
11
0
21
64.25
31
0
39
0
210
0
220
0
230
1
0
LINE
5
21C
100
AcDbEntity
8
2
62
256
6
ByLayer
370
13
48
1
60
0
100
AcDbLine
10
90
20
52.5875
30
0
11
90
21
64.25
31
0
39
0
210
0
220
0
230
1
0
LINE
5
21D
100
AcDbEntity
8
2
62
256
6
ByLayer
370
13
48
1
60
0
100
AcDbLine
10
0
20
62.25
30
0
11
90
21
62.25
31
0
39
0
210
0
220
0
230
1
0
SOLID
5
21E
100
AcDbEntity
8
2
62
256
6
ByLayer
370
18
48
1
60
0
100
AcDbTrace
10
0
20
62.25
30
0
11
3.499998
21
62.710784
31
0
12
3.500002
22
61.789216
32
0
13
3.500002
23
61.789216
33
0
39
0
210
0
220
0
230
1
0
SOLID
5
21F
100
AcDbEntity
8
2
62
256
6
ByLayer
370
18
48
1
60
0
100
AcDbTrace
10
90
20
62.25
30
0
11
86.500002
21
61.789216
31
0
12
86.499998
22
62.710784
32
0
13
86.499998
23
62.710784
33
0
39
0
210
0
220
0
230
1
0
ENDBLK
5
221
100
AcDbEntity
8
0
100
AcDbBlockEnd
0
ENDSEC
0
SECTION
2
ENTITIES
0
ARC
5
118
100
AcDbEntity
8
1
62
256
6
ByLayer
370
18
48
1
60
0
100
AcDbCircle
39
0
10
30.279208
20
41.2
30
0
40
1.2
210
0
220
0
230
1
100
AcDbArc
50
270
51
299.487427
0
ARC
5
119
100
AcDbEntity
8
SK1
62
256
6
ByLayer
370
18
48
1
60
0
100
AcDbCircle
39
0
10
-0.6
20
29.6
30
0
40
0.999999999999994
210
0
220
0
230
1
100
AcDbArc
50
293.578178
51
306.869898
0
ARC
5
11A
100
AcDbEntity
8
SK1
62
256
6
ByLayer
370
18
48
1
60
0
100
AcDbCircle
39
0
10
-0.6
20
-29.6
30
0
40
0.999999999999994
210
0
220
0
230
1
100
AcDbArc
50
53.130102
51
66.421822
0
ARC
5
11E
100
AcDbEntity
8
1
62
256
6
ByLayer
370
18
48
1
60
0
100
AcDbCircle
39
0
10
35.9
20
41.15
30
0
40
1
210
0
220
0
230
1
100
AcDbArc
50
270
51
0
0
ARC
5
11F
100
AcDbEntity
8
1
62
256
6
ByLayer
370
18
48
1
60
0
100
AcDbCircle
39
0
10
58
20
42.225
30
0
40
1.6
210
0
220
0
230
1
100
AcDbArc
50
90
51
180
0
ARC
5
120
100
AcDbEntity
8
1
62
256
6
ByLayer
370
18
48
1
60
0
100
AcDbCircle
39
0
10
34.152872
20
-22.5
30
0
40
3.99999999995303
210
0
220
0
230
1
100
AcDbArc
50
169.40286
51
179.5
0
CIRCLE
5
11B
100
AcDbEntity
8
1
62
256
6
ByLayer
370
18
48
1
60
0
100
AcDbCircle
10
49.65
20
38.5
30
0
40
2.55
39
0
210
0
220
0
230
1
0
CIRCLE
5
11C
100
AcDbEntity
8
1
62
256
6
ByLayer
370
18
48
1
60
0
100
AcDbCircle
10
49.65
20
38.5
30
0
40
3.3
39
0
210
0
220
0
230
1
0
CIRCLE
5
11D
100
AcDbEntity
8
1
62
256
6
ByLayer
370
18
48
1
60
0
100
AcDbCircle
10
49.65
20
38.5
30
0
40
5.75
39
0
210
0
220
0
230
1
0
ELLIPSE
5
121
100
AcDbEntity
8
1
62
256
6
ByLayer
370
18
48
1
60
0
100
AcDbEllipse
10
77.282566
20
47
30
0
11
1.01160944626637
21
1.1850553126911E-15
31
0
210
0
220
0
230
1
40
0.988524
41
0
42
6.28318530717959
0
ELLIPSE
5
122
100
AcDbEntity
8
1
62
256
6
ByLayer
370
18
48
1
60
0
100
AcDbEllipse
10
-6.763884
20
0
30
0
11
18.7348357595652
21
39.4834983055021
31
0
210
0
220
0
230
1
40
0.341999
41
-1.08794676716927
42
-0.161099005228942
0
ELLIPSE
5
123
100
AcDbEntity
8
1
62
256
6
ByLayer
370
18
48
1
60
0
100
AcDbEllipse
10
30.763884
20
0
30
0
11
18.734835759564
21
-39.4834983055002
31
0
210
0
220
0
230
1
40
0.341999
41
-2.98049364836085
42
-2.05364588642049
0
ELLIPSE
5
124
100
AcDbEntity
8
1
62
256
6
ByLayer
370
18
48
1
60
0
100
AcDbEllipse
10
30.763884
20
0
30
0
11
18.7348357595636
21
39.4834983054995
31
0
210
0
220
0
230
1
40
0.341999
41
2.05364588642048
42
2.98049364836085
0
ELLIPSE
5
125
100
AcDbEntity
8
1
62
256
6
ByLayer
370
18
48
1
60
0
100
AcDbEllipse
10
-6.763884
20
0
30
0
11
18.7348357595637
21
-39.4834983055003
31
0
210
0
220
0
230
1
40
0.341999
41
0.161099005228944
42
1.08794676716931
0
ELLIPSE
5
126
100
AcDbEntity
8
1
62
256
6
ByLayer
370
18
48
1
60
0
100
AcDbEllipse
10
30.349075
20
0
30
0
11
2.44921270764477E-15
21
40.0000000000002
31
0
210
0
220
0
230
1
40
0.008727
41
0.375381344544323
42
2.35619449019235
0
POINT
5
70
100
AcDbEntity
8
80
62
256
6
ByLayer
370
18
48
1
60
0
100
AcDbPoint
10
0
20
0
30
0
39
0
210
0
220
0
230
1
50
360
0
POINT
5
72
100
AcDbEntity
8
81
62
256
6
ByLayer
370
18
48
1
60
0
100
AcDbPoint
10
90
20
51
30
0
39
0
210
0
220
0
230
1
50
360
0
POINT
5
74
100
AcDbEntity
8
1
62
256
6
ByLayer
370
18
48
1
60
1
100
AcDbPoint
10
90
20
51
30
0
39
0
210
0
220
0
230
1
50
360
0
POINT
5
76
100
AcDbEntity
8
1
62
256
6
ByLayer
370
18
48
1
60
1
100
AcDbPoint
10
0
20
0
30
0
39
0
210
0
220
0
230
1
50
360
0
POINT
5
77
100
AcDbEntity
8
1
62
256
6
ByLayer
370
18
48
1
60
1
100
AcDbPoint
10
90
20
43
30
0
39
0
210
0
220
0
230
1
50
360
0
POINT
5
78
100
AcDbEntity
8
1
62
256
6
ByLayer
370
18
48
1
60
1
100
AcDbPoint
10
90
20
51
30
0
39
0
210
0
220
0
230
1
50
360
0
POINT
5
79
100
AcDbEntity
8
1
62
256
6
ByLayer
370
18
48
1
60
1
100
AcDbPoint
10
58
20
43.825
30
0
39
0
210
0
220
0
230
1
50
360
0
POINT
5
7A
100
AcDbEntity
8
1
62
256
6
ByLayer
370
18
48
1
60
1
100
AcDbPoint
10
90
20
43
30
0
39
0
210
0
220
0
230
1
50
360
0
POINT
5
7B
100
AcDbEntity
8
1
62
256
6
ByLayer
370
18
48
1
60
1
100
AcDbPoint
10
0
20
0
30
0
39
0
210
0
220
0
230
1
50
360
0
POINT
5
7C
100
AcDbEntity
8
1
62
256
6
ByLayer
370
18
48
1
60
1
100
AcDbPoint
10
90
20
51
30
0
39
0
210
0
220
0
230
1
50
360
0
SPLINE
5
127
100
AcDbEntity
8
SK1
62
256
6
ByLayer
370
18
48
1
60
0
100
AcDbSpline
70
4
71
3
72
11
73
7
40
0
40
0
40
0
40
0
40
0.2388893496862
40
0.497421607755303
40
0.757386725613643
40
1
40
1
40
1
40
1
41
1
10
-0.394913799811292
20
-27.3654112548763
30
0
41
1
10
-0.369683308142783
20
-27.3663394559984
30
0
41
1
10
-0.321111944271209
20
-27.3763891500634
30
0
41
1
10
-0.255177176288498
20
-27.4196125572155
30
0
41
1
10
-0.211247851191416
20
-27.4855974197866
30
0
41
1
10
-0.200957398531329
20
-27.5346319643647
30
0
41
1
10
-0.200000000000003
20
-27.5602884583736
30
0
0
SPLINE
5
128
100
AcDbEntity
8
SK1
62
256
6
ByLayer
370
18
48
1
60
0
100
AcDbSpline
70
4
71
3
72
11
73
7
40
0
40
0
40
0
40
0
40
0.242613274632052
40
0.502578392599584
40
0.761110650559863
40
1
40
1
40
1
40
1
41
1
10
-0.200000000000003
20
27.5602884593822
30
0
41
1
10
-0.200957398526171
20
27.5346319653141
30
0
41
1
10
-0.211247851186457
20
27.4855974206285
30
0
41
1
10
-0.25517717626218
20
27.4196125578967
30
0
41
1
10
-0.321111944249679
20
27.3763891506148
30
0
41
1
10
-0.369683308137439
20
27.3663394565247
30
0
41
1
10
-0.394913799811292
20
27.3654112553951
30
0
0
SPLINE
5
129
100
AcDbEntity
8
SK1
62
256
6
ByLayer
370
18
48
1
60
0
100
AcDbSpline
70
4
71
2
72
6
73
3
40
0
40
0
40
0
40
1
40
1
40
1
41
1
10
-46.5
20
26.40730807462
30
0
41
1
10
-47.2500000380092
20
25.9743785821414
30
0
41
1
10
-48
20
25.5414489475478
30
0
0
SPLINE
5
12A
100
AcDbEntity
8
SK1
62
256
6
ByLayer
370
18
48
1
60
0
100
AcDbSpline
70
4
71
2
72
6
73
3
40
0
40
0
40
0
40
1
40
1
40
1
41
1
10
-48
20
-25.5414493215235
30
0
41
1
10
-47.2500000379546
20
-25.9743789770288
30
0
41
1
10
-46.5
20
-26.4073084920199
30
0
0
SPLINE
5
12B
100
AcDbEntity
8
SK1
62
256
6
ByLayer
370
18
48
1
60
0
100
AcDbSpline
70
4
71
2
72
6
73
3
40
0
40
0
40
0
40
1
40
1
40
1
41
1
10
-0.394913799811292
20
27.3654109362823
30
0
41
1
10
-1.19497688887553
20
27.3453143410234
30
0
41
1
10
-1.9950399779393
20
27.3252177457659
30
0
0
SPLINE
5
12C
100
AcDbEntity
8
SK1
62
256
6
ByLayer
370
18
48
1
60
0
100
AcDbSpline
70
4
71
2
72
6
73
3
40
0
40
0
40
0
40
1
40
1
40
1
41
1
10
-1.9950399779393
20
-27.3252177453533
30
0
41
1
10
-1.19497688887553
20
-27.3453143405603
30
0
41
1
10
-0.394913799811292
20
-27.3654109357686
30
0
0
SPLINE
5
12D
100
AcDbEntity
8
SK1
62
256
6
ByLayer
370
18
48
1
60
0
100
AcDbSpline
70
4
71
3
72
13
73
9
40
0
40
0
40
0
40
0
40
0.239476651984635
40
0.368387280177935
40
0.500029253268045
40
0.631666356502875
40
0.760563560186411
40
1
40
1
40
1
40
1
41
1
10
-1.9950399779393
20
27.325218063952
30
0
41
1
10
-2.021109902029
20
27.3248162470299
30
0
41
1
10
-2.05883986745029
20
27.3309874079684
30
0
41
1
10
-2.1062765532716
20
27.3540268959373
30
0
41
1
10
-2.13886325113761
20
27.3791895462899
30
0
41
1
10
-2.16563551769427
20
27.4104653546573
30
0
41
1
10
-2.19103253553247
20
27.4566758426755
30
0
41
1
10
-2.19909167979044
20
27.4940420737146
30
0
41
1
10
-2.2
20
27.5200952679265
30
0
0
SPLINE
5
12E
100
AcDbEntity
8
SK1
62
256
6
ByLayer
370
18
48
1
60
0
100
AcDbSpline
70
4
71
3
72
13
73
9
40
0
40
0
40
0
40
0
40
0.239436439566014
40
0.368333643169659
40
0.499970746376703
40
0.631612719497151
40
0.760523347771547
40
1
40
1
40
1
40
1
41
1
10
-2.2
20
-27.5200952670183
30
0
41
1
10
-2.19909167978656
20
-27.4940420728663
30
0
41
1
10
-2.19103253552856
20
-27.4566758419157
30
0
41
1
10
-2.16563551768928
20
-27.4104653540177
30
0
41
1
10
-2.13886325113099
20
-27.3791895457297
30
0
41
1
10
-2.10627655326442
20
-27.3540268954422
30
0
41
1
10
-2.05883986743973
20
-27.3309874075326
30
0
41
1
10
-2.02110990202351
20
-27.3248162466093
30
0
41
1
10
-1.9950399779393
20
-27.3252180635337
30
0
0
SPLINE
5
12F
100
AcDbEntity
8
SK1
62
256
6
ByLayer
370
18
48
1
60
0
100
AcDbSpline
70
4
71
2
72
6
73
3
40
0
40
0
40
0
40
1
40
1
40
1
41
1
10
-2.2
20
27.5062670250574
30
0
41
1
10
-24.3500000023322
20
26.9501984522264
30
0
41
1
10
-46.5
20
26.3941258787019
30
0
0
SPLINE
5
130
100
AcDbEntity
8
SK1
62
256
6
ByLayer
370
18
48
1
60
0
100
AcDbSpline
70
4
71
2
72
6
73
3
40
0
40
0
40
0
40
1
40
1
40
1
41
1
10
-46.5
20
-26.3941258817702
30
0
41
1
10
-24.3500000023321
20
-26.9501984525041
30
0
41
1
10
-2.2
20
-27.5062670222795
30
0
0
SPLINE
5
131
100
AcDbEntity
8
1
62
256
6
ByLayer
370
18
48
1
60
0
100
AcDbSpline
70
4
71
3
72
8
73
4
40
0
40
0
40
0
40
0
40
1
40
1
40
1
40
1
41
1
10
32.7
20
45.265158280695
30
0
41
1
10
32.3351499517032
20
43.8935047289198
30
0
41
1
10
31.9705229980092
20
42.5217915767721
30
0
41
1
10
31.6061924007564
20
41.15
30
0
0
SPLINE
5
132
100
AcDbEntity
8
1
62
256
6
ByLayer
370
18
48
1
60
0
100
AcDbSpline
70
4
71
3
72
16
73
12
40
0
40
0
40
0
40
0
40
0.249999999999945
40
0.499999999999889
40
0.499999999999889
40
0.562499999999893
40
0.562499999999893
40
0.624999999999898
40
0.749999999999934
40
0.749999999999934
40
1
40
1
40
1
40
1
41
1
10
31.6061924007564
20
41.15
30
0
41
1
10
31.5917143965489
20
41.09548686174
30
0
41
1
10
31.5628511298763
20
40.9879907941169
30
0
41
1
10
31.5341627608986
20
40.8834244032068
30
0
41
1
10
31.5162909136424
20
40.8190180486181
30
0
41
1
10
31.5127123821323
20
40.8061590580406
30
0
41
1
10
31.5056120278212
20
40.780719450003
30
0
41
1
10
31.4950377106102
20
40.7429452875017
30
0
41
1
10
31.4846894779639
20
40.7063116865443
30
0
41
1
10
31.4642936300242
20
40.6345533987391
30
0
41
1
10
31.4510949614622
20
40.5887158012428
30
0
41
1
10
31.4383186059721
20
40.5449708913917
30
0
0
SPLINE
5
133
100
AcDbEntity
8
1
62
256
6
ByLayer
370
18
48
1
60
0
100
AcDbSpline
70
4
71
3
72
12
73
8
40
0
40
0
40
0
40
0
40
0.25
40
0.25
40
0.5
40
0.5
40
1
40
1
40
1
40
1
41
1
10
34.0009943280785
20
50.175
30
0
41
1
10
33.8930941671674
20
49.7663678123535
30
0
41
1
10
33.7850695335169
20
49.3575930245053
30
0
41
1
10
33.5687670549134
20
48.5397803329114
30
0
41
1
10
33.4604891959413
20
48.1307423725917
30
0
41
1
10
33.1352625481008
20
46.9032566416854
30
0
41
1
10
32.9179229012307
20
46.0844393055481
30
0
41
1
10
32.7
20
45.265158280695
30
0
0
SPLINE
5
134
100
AcDbEntity
8
1
62
256
6
ByLayer
370
18
48
1
60
0
100
AcDbSpline
70
4
71
3
72
37
73
33
40
0
40
0
40
0
40
0
40
0.0312500000000076
40
0.0312500000000076
40
0.0625000000000153
40
0.125000000000031
40
0.125000000000031
40
0.250000000000073
40
0.250000000000073
40
0.281250000000081
40
0.281250000000081
40
0.312500000000089
40
0.312500000000089
40
0.37500000000009
40
0.37500000000009
40
0.500000000000085
40
0.500000000000085
40
0.531250000000078
40
0.531250000000078
40
0.56250000000007
40
0.625000000000056
40
0.687500000000041
40
0.687500000000041
40
0.718750000000034
40
0.718750000000034
40
0.750000000000026
40
0.750000000000026
40
0.875000000000007
40
0.875000000000007
40
0.937500000000004
40
0.937500000000004
40
1
40
1
40
1
40
1
41
1
10
35.1979991993593
20
40.15
30
0
41
1
10
35.216159662568
20
40.15
30
0
41
1
10
35.2343436694247
20
40.1503025762288
30
0
41
1
10
35.2705404672864
20
40.1515196642874
30
0
41
1
10
35.324674801288
20
40.1542634144927
30
0
41
1
10
35.3783209631891
20
40.1597933879564
30
0
41
1
10
35.4849379277087
20
40.174707921697
30
0
41
1
10
35.5551208764808
20
40.1897592792264
30
0
41
1
10
35.641582976962
20
40.2158024634787
30
0
41
1
10
35.6588116381841
20
40.2213750016207
30
0
41
1
10
35.6931357589104
20
40.2332803215246
30
0
41
1
10
35.7102683317633
20
40.2396289974491
30
0
41
1
10
35.7610060779745
20
40.2596878787379
30
0
41
1
10
35.7940493010842
20
40.2744353255076
30
0
41
1
10
35.8907724750531
20
40.3229089214483
30
0
41
1
10
35.9520714242674
20
40.3608215015534
30
0
41
1
10
36.0242042249219
20
40.4161083923762
30
0
41
1
10
36.0384465536953
20
40.4276015588709
30
0
41
1
10
36.0661892922901
20
40.4511913421433
30
0
41
1
10
36.1067111076418
20
40.4874857379126
30
0
41
1
10
36.1688047149807
20
40.5525094181877
30
0
41
1
10
36.2125622957049
20
40.6094566171854
30
0
41
1
10
36.2430477947174
20
40.6541098051279
30
0
41
1
10
36.2528200579797
20
40.669318656058
30
0
41
1
10
36.2715554403084
20
40.7004102573793
30
0
41
1
10
36.2805452051199
20
40.7163445307234
30
0
41
1
10
36.323050932487
20
40.7971584959476
30
0
41
1
10
36.3488697959412
20
40.8644367319707
30
0
41
1
10
36.3752531167924
20
40.9693159906268
30
0
41
1
10
36.3819729542481
20
41.004941551177
30
0
41
1
10
36.391014723018
20
41.0776041036989
30
0
41
1
10
36.3932370625238
20
41.1138738724028
30
0
41
1
10
36.3932370625238
20
41.15
30
0
0
SPLINE
5
135
100
AcDbEntity
8
1
62
256
6
ByLayer
370
18
48
1
60
0
100
AcDbSpline
70
4
71
3
72
33
73
29
40
0
40
0
40
0
40
0
40
0.12500000000004
40
0.12500000000004
40
0.187500000000061
40
0.187500000000061
40
0.250000000000081
40
0.312500000000101
40
0.312500000000101
40
0.343750000000111
40
0.343750000000111
40
0.375000000000121
40
0.375000000000121
40
0.50000000000013
40
0.50000000000013
40
0.562500000000125
40
0.562500000000125
40
0.593750000000113
40
0.593750000000113
40
0.625000000000102
40
0.625000000000102
40
0.750000000000071
40
0.750000000000071
40
0.812500000000053
40
0.812500000000053
40
0.875000000000036
40
0.875000000000036
40
1
40
1
40
1
40
1
41
1
10
36.7792156108743
20
41.15
30
0
41
1
10
36.7792156108743
20
41.0832436260867
30
0
41
1
10
36.7724024636134
20
41.017099031744
30
0
41
1
10
36.7519070702787
20
40.918804833698
30
0
41
1
10
36.743288334735
20
40.8860488117296
30
0
41
1
10
36.7229298975619
20
40.8222481913133
30
0
41
1
10
36.6994237772518
20
40.7598760962957
30
0
41
1
10
36.6697769675525
20
40.7002908544577
30
0
41
1
10
36.6452277297467
20
40.6566521540257
30
0
41
1
10
36.6366582573285
20
40.6422812788688
30
0
41
1
10
36.6187359240041
20
40.6138950568287
30
0
41
1
10
36.6093565962302
20
40.5998444499674
30
0
41
1
10
36.5609510550853
20
40.5311735123727
30
0
41
1
10
36.5172761539375
20
40.4809191664988
30
0
41
1
10
36.4446575523051
20
40.412259099656
30
0
41
1
10
36.4192581400242
20
40.3905010109516
30
0
41
1
10
36.379331242548
20
40.359592684126
30
0
41
1
10
36.3657552067244
20
40.3496106169166
30
0
41
1
10
36.3382758559521
20
40.3304211683924
30
0
41
1
10
36.3243435742831
20
40.3211910993284
30
0
41
1
10
36.2537383245528
20
40.2768276981421
30
0
41
1
10
36.1942590621149
20
40.2470074317023
30
0
41
1
10
36.100599587541
20
40.2106842391689
30
0
41
1
10
36.0685154439817
20
40.1999671223374
30
0
41
1
10
36.0040980234737
20
40.1817637186531
30
0
41
1
10
35.9716360317391
20
40.1742157749747
30
0
41
1
10
35.8735131192457
20
40.1560926942454
30
0
41
1
10
35.8071055833142
20
40.15
30
0
41
1
10
35.7397368307141
20
40.15
30
0
0
SPLINE
5
136
100
AcDbEntity
8
1
62
256
6
ByLayer
370
18
48
1
60
0
100
AcDbSpline
70
4
71
3
72
16
73
12
40
0
40
0
40
0
40
0
40
0.25
40
0.25
40
0.5
40
0.5
40
0.75
40
0.75
40
0.875
40
0.875
40
1
40
1
40
1
40
1
41
1
10
78.7667005785291
20
46.25
30
0
41
1
10
78.7467667006111
20
46.0935670863803
30
0
41
1
10
78.7266794530759
20
45.9371775897324
30
0
41
1
10
78.6860094684646
20
45.6245388631715
30
0
41
1
10
78.6654328684086
20
45.4682878959468
30
0
41
1
10
78.62340792944
20
45.1560327395886
30
0
41
1
10
78.6019824926673
20
45.0000203294677
30
0
41
1
10
78.5684998621878
20
44.7664397314944
30
0
41
1
10
78.557110200286
20
44.6886525878567
30
0
41
1
10
78.5335802156191
20
44.5333180017283
30
0
41
1
10
78.5214526501455
20
44.4557664855772
30
0
41
1
10
78.5086352671082
20
44.3784352420808
30
0
0
SPLINE
5
137
100
AcDbEntity
8
1
62
256
6
ByLayer
370
18
48
1
60
0
100
AcDbSpline
70
4
71
3
72
8
73
4
40
0
40
0
40
0
40
0
40
1
40
1
40
1
40
1
41
1
10
78.9309061280498
20
46.3340772376136
30
0
41
1
10
78.876235916381
20
46.3057472939268
30
0
41
1
10
78.8215242499053
20
46.2776114424312
30
0
41
1
10
78.7667005785291
20
46.25
30
0
0
SPLINE
5
138
100
AcDbEntity
8
1
62
256
6
ByLayer
370
18
48
1
60
0
100
AcDbSpline
70
4
71
3
72
20
73
16
40
0
40
0
40
0
40
0
40
0.250000000000036
40
0.250000000000036
40
0.37500000000003
40
0.37500000000003
40
0.500000000000024
40
0.500000000000024
40
0.625000000000018
40
0.625000000000018
40
0.750000000000012
40
0.750000000000012
40
0.875000000000006
40
0.875000000000006
40
1
40
1
40
1
40
1
41
1
10
79
20
46.4750311307315
30
0
41
1
10
79
20
46.4594615586673
30
0
41
1
10
78.9983481606768
20
46.4443039616087
30
0
41
1
10
78.9934320016868
20
46.4221757122501
30
0
41
1
10
78.9913970972143
20
46.4150062751297
30
0
41
1
10
78.9866387507873
20
46.4013281420651
30
0
41
1
10
78.9839058831016
20
46.3947761721687
30
0
41
1
10
78.9777246871329
20
46.3822529774728
30
0
41
1
10
78.9742790397163
20
46.3763080994363
30
0
41
1
10
78.9669064962477
20
46.3653930420303
30
0
41
1
10
78.9629542896604
20
46.3603682570574
30
0
41
1
10
78.9545197804532
20
46.3511812883532
30
0
41
1
10
78.950015819826
20
46.3470107046755
30
0
41
1
10
78.9407174523756
20
46.3397687270889
30
0
41
1
10
78.9358975451523
20
46.3366637753481
30
0
41
1
10
78.9309061280498
20
46.3340772376136
30
0
0
SPLINE
5
139
100
AcDbEntity
8
1
62
256
6
ByLayer
370
18
48
1
60
0
100
AcDbSpline
70
4
71
3
72
20
73
16
40
0
40
0
40
0
40
0
40
0.250000000000092
40
0.250000000000092
40
0.375000000000077
40
0.375000000000077
40
0.500000000000061
40
0.500000000000061
40
0.625000000000046
40
0.625000000000046
40
0.750000000000031
40
0.750000000000031
40
0.875000000000015
40
0.875000000000015
40
1
40
1
40
1
40
1
41
1
10
78.9309061280499
20
47.6659227623864
30
0
41
1
10
78.9408897042553
20
47.6607493024151
30
0
41
1
10
78.9501260272145
20
47.6535738420833
30
0
41
1
10
78.9628442771852
20
47.6397665138363
30
0
41
1
10
78.9668584243597
20
47.6346707041357
30
0
41
1
10
78.9742288504653
20
47.6237735317465
30
0
41
1
10
78.977618791573
20
47.6179373620879
30
0
41
1
10
78.9837947684758
20
47.6054723172091
30
0
41
1
10
78.9865907405476
20
47.5987961114196
30
0
41
1
10
78.9913709884451
20
47.5850823188285
30
0
41
1
10
78.9933828462511
20
47.5780010690966
30
0
41
1
10
78.9966485913559
20
47.5633890097364
30
0
41
1
10
78.9979072070168
20
47.555799772279
30
0
41
1
10
78.9995791673964
20
47.540480877676
30
0
41
1
10
79.0000000000115
20
47.5327573516057
30
0
41
1
10
79.0000000000115
20
47.5249688692703
30
0
0
SPLINE
5
13A
100
AcDbEntity
8
1
62
256
6
ByLayer
370
18
48
1
60
0
100
AcDbSpline
70
4
71
3
72
8
73
4
40
0
40
0
40
0
40
0
40
1
40
1
40
1
40
1
41
1
10
78.7667005785291
20
47.75
30
0
41
1
10
78.8215333300401
20
47.7223839844417
30
0
41
1
10
78.8762425628008
20
47.694249261918
30
0
41
1
10
78.9309061280499
20
47.6659227623864
30
0
0
SPLINE
5
13B
100
AcDbEntity
8
1
62
256
6
ByLayer
370
18
48
1
60
0
100
AcDbSpline
70
4
71
3
72
16
73
12
40
0
40
0
40
0
40
0
40
0.125
40
0.125
40
0.25
40
0.25
40
0.5
40
0.5
40
0.75
40
0.75
40
1
40
1
40
1
40
1
41
1
10
78.5086352671082
20
49.6215647579192
30
0
41
1
10
78.5214554887051
20
49.5442163885135
30
0
41
1
10
78.5335883084069
20
49.4666300516697
30
0
41
1
10
78.5571217112283
20
49.311269942361
30
0
41
1
10
78.5685118640944
20
49.2334777639673
30
0
41
1
10
78.6019940930439
20
48.999896296692
30
0
41
1
10
78.6234160631123
20
48.8439074723368
30
0
41
1
10
78.665436482115
20
48.5316846061895
30
0
41
1
10
78.6860117537373
20
48.3754436629582
30
0
41
1
10
78.7266799934978
20
48.0628181624225
30
0
41
1
10
78.7467669505663
20
47.9064309520738
30
0
41
1
10
78.7667005785291
20
47.75
30
0
0
SPLINE
5
13C
100
AcDbEntity
8
1
62
256
6
ByLayer
370
18
48
1
60
0
100
AcDbSpline
70
4
71
3
72
21
73
17
40
0
40
0
40
0
40
0
40
0.184065922137862
40
0.184065922137862
40
0.287532056996592
40
0.339265124425966
40
0.339265124425966
40
0.390998191855341
40
0.390998191855341
40
0.59793046157284
40
0.59793046157284
40
0.804862731290339
40
0.804862731290339
40
0.90832886614908
40
0.90832886614908
40
1
40
1
40
1
40
1
41
1
10
33.925949391042
20
-18.5064419089554
30
0
41
1
10
33.8646049192998
20
-18.5099274511077
30
0
41
1
10
33.802665557121
20
-18.5148643533499
30
0
41
1
10
33.7049995345241
20
-18.5249958209787
30
0
41
1
10
33.6520063730019
20
-18.5311989202694
30
0
41
1
10
33.5985974107768
20
-18.538547692806
30
0
41
1
10
33.5628985309136
20
-18.5437067888597
30
0
41
1
10
33.5449846935687
20
-18.5464194999124
30
0
41
1
10
33.4557701453141
20
-18.5605495308318
30
0
41
1
10
33.3851079163479
20
-18.5737219100425
30
0
41
1
10
33.2451447564369
20
-18.6037001605125
30
0
41
1
10
33.1758439896807
20
-18.620506266243
30
0
41
1
10
33.0728911058345
20
-18.6483893922783
30
0
41
1
10
33.0387400496683
20
-18.6581296766688
30
0
41
1
10
32.9746437744467
20
-18.6773353343029
30
0
41
1
10
32.9446224956092
20
-18.6867208006878
30
0
41
1
10
32.9149834957094
20
-18.6963662276171
30
0
0
SPLINE
5
13D
100
AcDbEntity
8
1
62
256
6
ByLayer
370
18
48
1
60
0
100
AcDbSpline
70
4
71
3
72
8
73
4
40
0
40
0
40
0
40
0
40
1
40
1
40
1
40
1
41
1
10
34.1528724998812
20
-18.5
30
0
41
1
10
34.0678237149339
20
-18.5
30
0
41
1
10
33.9835443673723
20
-18.5027089609056
30
0
41
1
10
33.8999999999999
20
-18.5080010647792
30
0
0
SPLINE
5
13E
100
AcDbEntity
8
1
62
256
6
ByLayer
370
18
48
1
60
0
100
AcDbSpline
70
4
71
3
72
8
73
4
40
0
40
0
40
0
40
0
40
1
40
1
40
1
40
1
41
1
10
31.4383186059721
20
40.15
30
0
41
1
10
31.5037808071794
20
40.15
30
0
41
1
10
31.5850079038186
20
40.15
30
0
41
1
10
31.6809414255852
20
40.15
30
0
0
SPLINE
5
13F
100
AcDbEntity
8
1
62
256
6
ByLayer
370
18
48
1
60
0
100
AcDbSpline
70
4
71
3
72
32
73
28
40
0
40
0
40
0
40
0
40
0.197232456388228
40
0.197232456388228
40
0.295848684582342
40
0.345156798679399
40
0.369810855727928
40
0.37597436999006
40
0.379056127121126
40
0.379056127121126
40
0.380597005686659
40
0.380597005686659
40
0.382137884252192
40
0.394464912776455
40
0.493081140970558
40
0.493081140970558
40
0.591697369164661
40
0.591697369164661
40
0.690313597358764
40
0.690313597358764
40
0.788929825552868
40
0.788929825552868
40
0.887546053746971
40
0.887546053746971
40
0.986162281941074
40
0.986162281941074
40
1
40
1
40
1
40
1
41
1
10
31.4383186059721
20
40.15
30
0
41
1
10
31.4128085653717
20
40.15
30
0
41
1
10
31.3772161626068
20
40.15
30
0
41
1
10
31.3149646264122
20
40.15
30
0
41
1
10
31.2816033785275
20
40.15
30
0
41
1
10
31.2400727111813
20
40.15
30
0
41
1
10
31.2203429886365
20
40.15
30
0
41
1
10
31.2119313634229
20
40.15
30
0
41
1
10
31.2096323127513
20
40.15
30
0
41
1
10
31.2084819838742
20
40.15
30
0
41
1
10
31.2080958942212
20
40.15
30
0
41
1
10
31.2073136001004
20
40.15
30
0
41
1
10
31.2037920509451
20
40.15
30
0
41
1
10
31.1751413814541
20
40.15
30
0
41
1
10
31.146270934741
20
40.15
30
0
41
1
10
31.0952587816072
20
40.15
30
0
41
1
10
31.0699058380938
20
40.15
30
0
41
1
10
31.0210536064385
20
40.15
30
0
41
1
10
30.9975524841903
20
40.15
30
0
41
1
10
30.9542942306912
20
40.15
30
0
41
1
10
30.9345533342727
20
40.15
30
0
41
1
10
30.9009996200725
20
40.15
30
0
41
1
10
30.8872086460183
20
40.15
30
0
41
1
10
30.8675730636107
20
40.15
30
0
41
1
10
30.8617565226813
20
40.15
30
0
41
1
10
30.860260946974
20
40.15
30
0
41
1
10
30.8601657298469
20
40.15
30
0
41
1
10
30.8601586059694
20
40.15
30
0
0
SPLINE
5
140
100
AcDbEntity
8
1
62
256
6
ByLayer
370
18
48
1
60
0
100
AcDbSpline
70
4
71
3
72
26
73
22
40
0
40
0
40
0
40
0
40
0.124999999999996
40
0.124999999999996
40
0.249999999999992
40
0.249999999999992
40
0.31249999999999
40
0.31249999999999
40
0.374999999999988
40
0.374999999999988
40
0.499999999999981
40
0.499999999999981
40
0.624999999999974
40
0.624999999999974
40
0.687499999999976
40
0.687499999999976
40
0.749999999999977
40
0.749999999999977
40
0.874999999999988
40
0.874999999999988
40
1
40
1
40
1
40
1
41
1
10
31.17487817098
20
40.15
30
0
41
1
10
31.1788775327914
20
40.15
30
0
41
1
10
31.1849395359595
20
40.1524186534471
30
0
41
1
10
31.2002985839968
20
40.1616561957714
30
0
41
1
10
31.2095947317617
20
40.1684772105864
30
0
41
1
10
31.2253445489338
20
40.1818998091861
30
0
41
1
10
31.2308960181834
20
40.1869078851885
30
0
41
1
10
31.2425058713543
20
40.1979967697382
30
0
41
1
10
31.248569146202
20
40.204085130888
30
0
41
1
10
31.2671422374137
20
40.2237228321379
30
0
41
1
10
31.2801024177815
20
40.2387028552977
30
0
41
1
10
31.3064499681292
20
40.2723797206718
30
0
41
1
10
31.319840298276
20
40.2910769677981
30
0
41
1
10
31.3397830741616
20
40.322035996555
30
0
41
1
10
31.3464248416136
20
40.3328739710357
30
0
41
1
10
31.3594834616987
20
40.3553846936263
30
0
41
1
10
31.3659001020376
20
40.3670531648764
30
0
41
1
10
31.3847125548928
20
40.4033095409418
30
0
41
1
10
31.3966717257023
20
40.4291428580308
30
0
41
1
10
31.4189025308545
20
40.4843249695182
30
0
41
1
10
31.4291772566799
20
40.5136718639797
30
0
41
1
10
31.4383186059721
20
40.5449708913917
30
0
0
SPLINE
5
141
100
AcDbEntity
8
1
62
256
6
ByLayer
370
18
48
1
60
0
100
AcDbSpline
70
4
71
3
72
56
73
52
40
0
40
0
40
0
40
0
40
0.0625000000000009
40
0.0625000000000009
40
0.125000000000002
40
0.125000000000002
40
0.140625000000001
40
0.140625000000001
40
0.15625
40
0.15625
40
0.187499999999998
40
0.187499999999998
40
0.249999999999997
40
0.249999999999997
40
0.312499999999995
40
0.312499999999995
40
0.374999999999993
40
0.374999999999993
40
0.406249999999993
40
0.406249999999993
40
0.437499999999993
40
0.437499999999993
40
0.499999999999993
40
0.499999999999993
40
0.562499999999994
40
0.562499999999994
40
0.624999999999994
40
0.624999999999994
40
0.687499999999995
40
0.687499999999995
40
0.749999999999995
40
0.749999999999995
40
0.781249999999996
40
0.781249999999996
40
0.812499999999997
40
0.812499999999997
40
0.843749999999998
40
0.843749999999998
40
0.874999999999999
40
0.874999999999999
40
0.890624999999999
40
0.890624999999999
40
0.90625
40
0.90625
40
0.9375
40
0.9375
40
0.953125000000001
40
0.953125000000001
40
0.968750000000001
40
0.968750000000001
40
1
40
1
40
1
40
1
41
1
10
32.9
20
-18.7012751482844
30
0
41
1
10
32.7901610819963
20
-18.7375015571862
30
0
41
1
10
32.6838043620596
20
-18.7778464195589
30
0
41
1
10
32.477468620947
20
-18.8660475632715
30
0
41
1
10
32.3774916839817
20
-18.9139064427794
30
0
41
1
10
32.2562668692897
20
-18.9781198437949
30
0
41
1
10
32.2322096322619
20
-18.9911824842461
30
0
41
1
10
32.1844661024857
20
-19.0177417579097
30
0
41
1
10
32.160791801835
20
-19.0312326440802
30
0
41
1
10
32.0906587504682
20
-19.0721428909856
30
0
41
1
10
32.0449723759667
20
-19.1000636505612
30
0
41
1
10
31.9109323291537
20
-19.1856456554233
30
0
41
1
10
31.8255897196562
20
-19.2451219678228
30
0
41
1
10
31.662171017807
20
-19.3684057940603
30
0
41
1
10
31.5840975361314
20
-19.4322151116819
30
0
41
1
10
31.4346825677746
20
-19.5637860383864
30
0
41
1
10
31.3633426337301
20
-19.631548908554
30
0
41
1
10
31.2611046972795
20
-19.7359357622556
30
0
41
1
10
31.2278125104236
20
-19.7711993032055
30
0
41
1
10
31.1628254142389
20
-19.8425674777347
30
0
41
1
10
31.1312877744852
20
-19.8784982898516
30
0
41
1
10
31.0394052253637
20
-19.9869732578546
30
0
41
1
10
30.9817850812606
20
-20.0601998538226
30
0
41
1
10
30.8732400008771
20
-20.2081817608509
30
0
41
1
10
30.822316589119
20
-20.2829387069924
30
0
41
1
10
30.7267562406242
20
-20.4336769783696
30
0
41
1
10
30.6821201835706
20
-20.5096609304338
30
0
41
1
10
30.5988516950922
20
-20.6624724839763
30
0
41
1
10
30.5602196134814
20
-20.7393053879829
30
0
41
1
10
30.4887838806858
20
-20.8932471037446
30
0
41
1
10
30.4559798271449
20
-20.9703686893969
30
0
41
1
10
30.4110939402858
20
-21.0855071382361
30
0
41
1
10
30.3968442945909
20
-21.1238190882557
30
0
41
1
10
30.3698981333648
20
-21.1997205211705
30
0
41
1
10
30.357187499007
20
-21.2373452144032
30
0
41
1
10
30.333284070907
20
-21.3116120302282
30
0
41
1
10
30.3220910074696
20
-21.3482574955343
30
0
41
1
10
30.3012331315039
20
-21.4200593464627
30
0
41
1
10
30.2915676845276
20
-21.4552223554385
30
0
41
1
10
30.2782461551666
20
-21.5062296594504
30
0
41
1
10
30.2739992969938
20
-21.5229512891004
30
0
41
1
10
30.2659393774756
20
-21.555525326176
30
0
41
1
10
30.2621227672131
20
-21.571390959004
30
0
41
1
10
30.2513310552068
20
-21.6174087647191
30
0
41
1
10
30.2450089414212
20
-21.6460264108189
30
0
41
1
10
30.2369743666761
20
-21.6839675674337
30
0
41
1
10
30.2345386591821
20
-21.695773827414
30
0
41
1
10
30.230195686681
20
-21.7172315521044
30
0
41
1
10
30.2283059316838
20
-21.7267953805997
30
0
41
1
10
30.2235694528096
20
-21.7511007471143
30
0
41
1
10
30.2216317309449
20
-21.7615187514327
30
0
41
1
10
30.2210943763924
20
-21.7643908730479
30
0
0
SPLINE
5
142
100
AcDbEntity
8
1
62
256
6
ByLayer
370
18
48
1
60
0
100
AcDbSpline
70
4
71
3
72
8
73
4
40
0
40
0
40
0
40
0
40
1
40
1
40
1
40
1
41
1
10
31.6809414255852
20
40.15
30
0
41
1
10
31.5992409117517
20
39.8131782017431
30
0
41
1
10
31.5183165038824
20
39.477065484164
30
0
41
1
10
31.4383186059721
20
39.1417724490121
30
0
0
SPLINE
5
143
100
AcDbEntity
8
1
62
256
6
ByLayer
370
18
48
1
60
0
100
AcDbSpline
70
4
71
3
72
38
73
34
40
0
40
0
40
0
40
0
40
0.125000000000006
40
0.125000000000006
40
0.250000000000012
40
0.250000000000012
40
0.375000000000017
40
0.375000000000017
40
0.437500000000021
40
0.437500000000021
40
0.468750000000021
40
0.468750000000021
40
0.500000000000022
40
0.500000000000022
40
0.625000000000015
40
0.625000000000015
40
0.687500000000011
40
0.687500000000011
40
0.71875000000001
40
0.71875000000001
40
0.750000000000008
40
0.750000000000008
40
0.812500000000009
40
0.812500000000009
40
0.875000000000009
40
0.875000000000009
40
0.906250000000008
40
0.906250000000008
40
0.921875000000008
40
0.921875000000008
40
0.937500000000009
40
0.937500000000009
40
1
40
1
40
1
40
1
41
1
10
30.2792076144253
20
37.462599910968
30
0
41
1
10
30.3001315872651
20
37.507974271419
30
0
41
1
10
30.3265325944475
20
37.5526113406811
30
0
41
1
10
30.3897733045751
20
37.6425046459788
30
0
41
1
10
30.4266178367012
20
37.6877599787065
30
0
41
1
10
30.5100948638504
20
37.7817008156095
30
0
41
1
10
30.5567336591456
20
37.8303794010547
30
0
41
1
10
30.6333166249173
20
37.9086900787018
30
0
41
1
10
30.6599455037437
20
37.9356826907857
30
0
41
1
10
30.7014142517076
20
37.9779246701461
30
0
41
1
10
30.7154911062388
20
37.9922981362104
30
0
41
1
10
30.7441274220304
20
38.0217093018444
30
0
41
1
10
30.7586927141823
20
38.0367534652663
30
0
41
1
10
30.8322382872973
20
38.1134112697873
30
0
41
1
10
30.8937159388096
20
38.1795975278517
30
0
41
1
10
30.987404909691
20
38.2897463538981
30
0
41
1
10
31.0188731158299
20
38.3282824048525
30
0
41
1
10
31.0660296215571
20
38.3893931035821
30
0
41
1
10
31.0817659522304
20
38.4103537189295
30
0
41
1
10
31.1128693437476
20
38.45310974594
30
0
41
1
10
31.1282639994251
20
38.4749389623774
30
0
41
1
10
31.1738414475864
20
38.5418699106666
30
0
41
1
10
31.2034219936331
20
38.588410308271
30
0
41
1
10
31.2601723452895
20
38.6858928044491
30
0
41
1
10
31.2873462057127
20
38.7368301455736
30
0
41
1
10
31.3255640565818
20
38.8171064535661
30
0
41
1
10
31.3378777623175
20
38.8445122353266
30
0
41
1
10
31.355594208075
20
38.8866896717306
30
0
41
1
10
31.361373804185
20
38.9009271729632
30
0
41
1
10
31.3726590227041
20
38.9297785959375
30
0
41
1
10
31.3781700969527
20
38.9444094269807
30
0
41
1
10
31.4047995169385
20
39.0180461246376
30
0
41
1
10
31.4232999963811
20
39.0788253550874
30
0
41
1
10
31.4383186059721
20
39.1417724490121
30
0
0
SPLINE
5
144
100
AcDbEntity
8
1
62
256
6
ByLayer
370
18
48
1
60
0
100
AcDbSpline
70
4
71
3
72
26
73
22
40
0
40
0
40
0
40
0
40
0.0625
40
0.0625
40
0.0937499999999993
40
0.0937499999999993
40
0.124999999999999
40
0.124999999999999
40
0.249999999999987
40
0.249999999999987
40
0.374999999999976
40
0.374999999999976
40
0.437499999999976
40
0.437499999999976
40
0.499999999999977
40
0.499999999999977
40
0.624999999999982
40
0.624999999999982
40
0.749999999999988
40
0.749999999999988
40
1
40
1
40
1
40
1
41
1
10
13.4613248654051
20
38.1154578595255
30
0
41
1
10
13.4771575420862
20
38.1154578595255
30
0
41
1
10
13.4926967829159
20
38.1149630443688
30
0
41
1
10
13.5156051329863
20
38.1135446782955
30
0
41
1
10
13.5231743077461
20
38.1129588629861
30
0
41
1
10
13.5381834149643
20
38.1115687100729
30
0
41
1
10
13.5456561777206
20
38.1107596566995
30
0
41
1
10
13.5820585103616
20
38.1062685963607
30
0
41
1
10
13.6085397975366
20
38.101260466828
30
0
41
1
10
13.6577471021952
20
38.0892687952498
30
0
41
1
10
13.6795828635238
20
38.0825033540055
30
0
41
1
10
13.7096051321544
20
38.0715750854947
30
0
41
1
10
13.7191444204644
20
38.0677988367433
30
0
41
1
10
13.7374189069211
20
38.0600136207933
30
0
41
1
10
13.7461680175129
20
38.0559959802046
30
0
41
1
10
13.7710680782536
20
38.0437782351317
30
0
41
1
10
13.7859982057652
20
38.0353721093621
30
0
41
1
10
13.8133554924884
20
38.0181487945759
30
0
41
1
10
13.8257737503389
20
38.0093303853475
30
0
41
1
10
13.8599678398711
20
37.9823481941392
30
0
41
1
10
13.8787504379151
20
37.9636126331777
30
0
41
1
10
13.8943375672974
20
37.9445010117191
30
0
0
SPLINE
5
145
100
AcDbEntity
8
1
62
256
6
ByLayer
370
18
48
1
60
0
100
AcDbSpline
70
4
71
3
72
32
73
28
40
0
40
0
40
0
40
0
40
0.249999999999982
40
0.249999999999982
40
0.374999999999974
40
0.374999999999974
40
0.437499999999973
40
0.437499999999973
40
0.499999999999972
40
0.499999999999972
40
0.624999999999979
40
0.624999999999979
40
0.687499999999979
40
0.687499999999979
40
0.749999999999979
40
0.749999999999979
40
0.812499999999979
40
0.812499999999979
40
0.843749999999979
40
0.843749999999979
40
0.874999999999979
40
0.874999999999979
40
0.937499999999989
40
0.937499999999989
40
0.968749999999995
40
0.968749999999995
40
1
40
1
40
1
40
1
41
1
10
13.8943375672973
20
12.6576002058704
30
0
41
1
10
13.8787561873887
20
12.6003292036662
30
0
41
1
10
13.8601238798742
20
12.5441499637055
30
0
41
1
10
13.8260027135195
20
12.4621216159939
30
0
41
1
10
13.8135898550186
20
12.4351561290447
30
0
41
1
10
13.7930183318666
20
12.3954218364663
30
0
41
1
10
13.785833939305
20
12.382296752951
30
0
41
1
10
13.7707119348145
20
12.3563230389551
30
0
41
1
10
13.762764024215
20
12.3434618357381
30
0
41
1
10
13.7378358829826
20
12.3057192432197
30
0
41
1
10
13.7197379933357
20
12.2815531796602
30
0
41
1
10
13.6895137280945
20
12.2473838346621
30
0
41
1
10
13.6789130531145
20
12.2363474443951
30
0
41
1
10
13.6568189855006
20
12.2154741288523
30
0
41
1
10
13.6452904427558
20
12.2055929865223
30
0
41
1
10
13.6210819432585
20
12.1871605631486
30
0
41
1
10
13.6084039311045
20
12.1786070311294
30
0
41
1
10
13.5883100345541
20
12.1670216512237
30
0
41
1
10
13.5814016237711
20
12.1633555796794
30
0
41
1
10
13.567396336243
20
12.156602254
30
0
41
1
10
13.5602871584325
20
12.1535051719201
30
0
41
1
10
13.5386188527679
20
12.1451084576003
30
0
41
1
10
13.5237210688636
20
12.1406978104911
30
0
41
1
10
13.5005803004527
20
12.136167104575
30
0
41
1
10
13.4927562946969
20
12.1350139079814
30
0
41
1
10
13.4770952538461
20
12.1334785049663
30
0
41
1
10
13.4692285817717
20
12.1330899674706
30
0
41
1
10
13.4613248654052
20
12.1330899674706
30
0
0
SPLINE
5
146
100
AcDbEntity
8
1
62
256
6
ByLayer
370
18
48
1
60
0
100
AcDbSpline
70
4
71
3
72
26
73
22
40
0
40
0
40
0
40
0
40
0.0625000000000044
40
0.0625000000000044
40
0.0937500000000059
40
0.0937500000000059
40
0.125000000000007
40
0.125000000000007
40
0.249999999999997
40
0.249999999999997
40
0.374999999999987
40
0.374999999999987
40
0.437499999999988
40
0.437499999999988
40
0.499999999999989
40
0.499999999999989
40
0.624999999999991
40
0.624999999999991
40
0.749999999999992
40
0.749999999999992
40
1
40
1
40
1
40
1
41
1
10
10.5386751345949
20
12.1330899674707
30
0
41
1
10
10.5228424579138
20
12.1330899674707
30
0
41
1
10
10.5073032170841
20
12.1346446934811
30
0
41
1
10
10.4843948670137
20
12.1390985861071
30
0
41
1
10
10.4768256922539
20
12.1409378530103
30
0
41
1
10
10.4618165850357
20
12.1453009719696
30
0
41
1
10
10.4543438222794
20
12.1478396076277
30
0
41
1
10
10.4179414896383
20
12.1619255694048
30
0
41
1
10
10.3914602024633
20
12.177616249759
30
0
41
1
10
10.3422528978047
20
12.215072219626
30
0
41
1
10
10.3204171364761
20
12.2361555816479
30
0
41
1
10
10.2903948678456
20
12.2700982796011
30
0
41
1
10
10.2808555795356
20
12.2818098068951
30
0
41
1
10
10.2625810930789
20
12.3059141713455
30
0
41
1
10
10.2538319824871
20
12.3183336732122
30
0
41
1
10
10.2289319217464
20
12.3560364080031
30
0
41
1
10
10.2140017942348
20
12.3818915830841
30
0
41
1
10
10.1866445075115
20
12.4346746200446
30
0
41
1
10
10.1742262496611
20
12.4616063758702
30
0
41
1
10
10.1400321601288
20
12.5437053894649
30
0
41
1
10
10.1212495620849
20
12.6003080708704
30
0
41
1
10
10.1056624327026
20
12.6576002058703
30
0
0
SPLINE
5
147
100
AcDbEntity
8
1
62
256
6
ByLayer
370
18
48
1
60
0
100
AcDbSpline
70
4
71
3
72
32
73
28
40
0
40
0
40
0
40
0
40
0.249999999999994
40
0.249999999999994
40
0.374999999999999
40
0.374999999999999
40
0.437500000000001
40
0.437500000000001
40
0.500000000000004
40
0.500000000000004
40
0.625000000000011
40
0.625000000000011
40
0.687500000000009
40
0.687500000000009
40
0.750000000000007
40
0.750000000000007
40
0.812500000000005
40
0.812500000000005
40
0.843750000000004
40
0.843750000000004
40
0.875000000000003
40
0.875000000000003
40
0.937500000000001
40
0.937500000000001
40
0.96875
40
0.96875
40
1
40
1
40
1
40
1
41
1
10
10.1056624327026
20
37.9445010117191
30
0
41
1
10
10.1212438126113
20
37.9636055836587
30
0
41
1
10
10.1398761201258
20
37.9822012953861
30
0
41
1
10
10.1739972864804
20
38.0091614379608
30
0
41
1
10
10.1864101449814
20
38.0179913785433
30
0
41
1
10
10.2069816681333
20
38.0309572795536
30
0
41
1
10
10.214166060695
20
38.0352325300315
30
0
41
1
10
10.2292880651854
20
38.0436784163768
30
0
41
1
10
10.237235975785
20
38.0478530906643
30
0
41
1
10
10.2621641170173
20
38.0600837295902
30
0
41
1
10
10.2802620066643
20
38.0678870466105
30
0
41
1
10
10.3104862719055
20
38.0788882765902
30
0
41
1
10
10.3210869468855
20
38.0824358644267
30
0
41
1
10
10.3431810144994
20
38.0891364033824
30
0
41
1
10
10.3547095572442
20
38.0923035991792
30
0
41
1
10
10.3789180567415
20
38.0982048271663
30
0
41
1
10
10.3915960688954
20
38.1009395753102
30
0
41
1
10
10.4116899654458
20
38.1046401449179
30
0
41
1
10
10.4185983762288
20
38.1058104966308
30
0
41
1
10
10.432603663757
20
38.1079654954302
30
0
41
1
10
10.4397128415675
20
38.1089532874669
30
0
41
1
10
10.4613811472321
20
38.1116304436586
30
0
41
1
10
10.4762789311363
20
38.1130353910944
30
0
41
1
10
10.4994196995473
20
38.1144782270721
30
0
41
1
10
10.507243705303
20
38.1148453768633
30
0
41
1
10
10.5229047461539
20
38.1153341847952
30
0
41
1
10
10.5307714182282
20
38.1154578595255
30
0
41
1
10
10.5386751345948
20
38.1154578595255
30
0
0
SPLINE
5
148
100
AcDbEntity
8
1
62
256
6
ByLayer
370
18
48
1
60
0
100
AcDbSpline
70
4
71
3
72
26
73
22
40
0
40
0
40
0
40
0
40
0.0624999999999924
40
0.0624999999999924
40
0.0937499999999913
40
0.0937499999999913
40
0.12499999999999
40
0.12499999999999
40
0.249999999999985
40
0.249999999999985
40
0.37499999999998
40
0.37499999999998
40
0.437499999999977
40
0.437499999999977
40
0.499999999999974
40
0.499999999999974
40
0.624999999999978
40
0.624999999999978
40
0.749999999999982
40
0.749999999999982
40
1
40
1
40
1
40
1
41
1
10
10.5386751345949
20
-38.1154578595255
30
0
41
1
10
10.5228424579138
20
-38.1154578595255
30
0
41
1
10
10.5073032170841
20
-38.1149630443689
30
0
41
1
10
10.4843948670137
20
-38.1135446782956
30
0
41
1
10
10.4768256922539
20
-38.1129588629861
30
0
41
1
10
10.4618165850357
20
-38.1115687100729
30
0
41
1
10
10.4543438222794
20
-38.1107596566995
30
0
41
1
10
10.4179414896383
20
-38.1062685963607
30
0
41
1
10
10.3914602024633
20
-38.101260466828
30
0
41
1
10
10.3422528978047
20
-38.0892687952498
30
0
41
1
10
10.3204171364761
20
-38.0825033540055
30
0
41
1
10
10.2903948678456
20
-38.0715750854947
30
0
41
1
10
10.2808555795356
20
-38.0677988367433
30
0
41
1
10
10.2625810930789
20
-38.0600136207933
30
0
41
1
10
10.2538319824871
20
-38.0559959802046
30
0
41
1
10
10.2289319217463
20
-38.0437782351317
30
0
41
1
10
10.2140017942348
20
-38.0353721093621
30
0
41
1
10
10.1866445075115
20
-38.0181487945759
30
0
41
1
10
10.1742262496611
20
-38.0093303853475
30
0
41
1
10
10.1400321601288
20
-37.9823481941392
30
0
41
1
10
10.1212495620848
20
-37.9636126331776
30
0
41
1
10
10.1056624327025
20
-37.944501011719
30
0
0
SPLINE
5
149
100
AcDbEntity
8
1
62
256
6
ByLayer
370
18
48
1
60
0
100
AcDbSpline
70
4
71
3
72
32
73
28
40
0
40
0
40
0
40
0
40
0.249999999999989
40
0.249999999999989
40
0.374999999999983
40
0.374999999999983
40
0.43749999999998
40
0.43749999999998
40
0.499999999999977
40
0.499999999999977
40
0.624999999999982
40
0.624999999999982
40
0.687499999999984
40
0.687499999999984
40
0.749999999999986
40
0.749999999999986
40
0.812499999999988
40
0.812499999999988
40
0.843749999999986
40
0.843749999999986
40
0.874999999999984
40
0.874999999999984
40
0.937499999999988
40
0.937499999999988
40
0.968749999999994
40
0.968749999999994
40
1
40
1
40
1
40
1
41
1
10
10.1056624327026
20
-12.6576002058705
30
0
41
1
10
10.1212438126112
20
-12.6003292036664
30
0
41
1
10
10.1398761201257
20
-12.5441499637055
30
0
41
1
10
10.1739972864804
20
-12.4621216159939
30
0
41
1
10
10.1864101449814
20
-12.4351561290446
30
0
41
1
10
10.2069816681333
20
-12.3954218364663
30
0
41
1
10
10.214166060695
20
-12.3822967529509
30
0
41
1
10
10.2292880651854
20
-12.356323038955
30
0
41
1
10
10.237235975785
20
-12.343461835738
30
0
41
1
10
10.2621641170173
20
-12.3057192432196
30
0
41
1
10
10.2802620066643
20
-12.2815531796601
30
0
41
1
10
10.3104862719055
20
-12.247383834662
30
0
41
1
10
10.3210869468855
20
-12.2363474443951
30
0
41
1
10
10.3431810144994
20
-12.2154741288522
30
0
41
1
10
10.3547095572442
20
-12.2055929865223
30
0
41
1
10
10.3789180567415
20
-12.1871605631486
30
0
41
1
10
10.3915960688954
20
-12.1786070311293
30
0
41
1
10
10.4116899654458
20
-12.1670216512236
30
0
41
1
10
10.4185983762288
20
-12.1633555796794
30
0
41
1
10
10.432603663757
20
-12.1566022539999
30
0
41
1
10
10.4397128415675
20
-12.1535051719201
30
0
41
1
10
10.4613811472321
20
-12.1451084576003
30
0
41
1
10
10.4762789311363
20
-12.140697810491
30
0
41
1
10
10.4994196995473
20
-12.136167104575
30
0
41
1
10
10.507243705303
20
-12.1350139079813
30
0
41
1
10
10.5229047461539
20
-12.1334785049662
30
0
41
1
10
10.5307714182282
20
-12.1330899674705
30
0
41
1
10
10.5386751345948
20
-12.1330899674705
30
0
0
SPLINE
5
14A
100
AcDbEntity
8
1
62
256
6
ByLayer
370
18
48
1
60
0
100
AcDbSpline
70
4
71
3
72
26
73
22
40
0
40
0
40
0
40
0
40
0.0624999999999897
40
0.0624999999999897
40
0.0937499999999852
40
0.0937499999999852
40
0.124999999999981
40
0.124999999999981
40
0.24999999999998
40
0.24999999999998
40
0.374999999999979
40
0.374999999999979
40
0.437499999999979
40
0.437499999999979
40
0.49999999999998
40
0.49999999999998
40
0.624999999999986
40
0.624999999999986
40
0.749999999999992
40
0.749999999999992
40
1
40
1
40
1
40
1
41
1
10
13.4613248654051
20
-12.1330899674707
30
0
41
1
10
13.4771575420862
20
-12.1330899674707
30
0
41
1
10
13.4926967829159
20
-12.1346446934811
30
0
41
1
10
13.5156051329863
20
-12.1390985861071
30
0
41
1
10
13.5231743077461
20
-12.1409378530103
30
0
41
1
10
13.5381834149643
20
-12.1453009719696
30
0
41
1
10
13.5456561777206
20
-12.1478396076277
30
0
41
1
10
13.5820585103616
20
-12.1619255694048
30
0
41
1
10
13.6085397975366
20
-12.177616249759
30
0
41
1
10
13.6577471021952
20
-12.215072219626
30
0
41
1
10
13.6795828635238
20
-12.2361555816479
30
0
41
1
10
13.7096051321544
20
-12.2700982796012
30
0
41
1
10
13.7191444204644
20
-12.2818098068951
30
0
41
1
10
13.7374189069211
20
-12.3059141713455
30
0
41
1
10
13.7461680175129
20
-12.3183336732122
30
0
41
1
10
13.7710680782536
20
-12.3560364080031
30
0
41
1
10
13.7859982057652
20
-12.3818915830841
30
0
41
1
10
13.8133554924884
20
-12.4346746200446
30
0
41
1
10
13.8257737503389
20
-12.4616063758702
30
0
41
1
10
13.8599678398711
20
-12.5437053894649
30
0
41
1
10
13.8787504379151
20
-12.6003080708704
30
0
41
1
10
13.8943375672974
20
-12.6576002058703
30
0
0
SPLINE
5
14B
100
AcDbEntity
8
1
62
256
6
ByLayer
370
18
48
1
60
0
100
AcDbSpline
70
4
71
3
72
32
73
28
40
0
40
0
40
0
40
0
40
0.249999999999988
40
0.249999999999988
40
0.374999999999986
40
0.374999999999986
40
0.437499999999988
40
0.437499999999988
40
0.49999999999999
40
0.49999999999999
40
0.624999999999996
40
0.624999999999996
40
0.687499999999996
40
0.687499999999996
40
0.749999999999996
40
0.749999999999996
40
0.812499999999997
40
0.812499999999997
40
0.843749999999998
40
0.843749999999998
40
0.875
40
0.875
40
0.937499999999999
40
0.937499999999999
40
0.968749999999999
40
0.968749999999999
40
1
40
1
40
1
40
1
41
1
10
13.8943375672973
20
-37.9445010117191
30
0
41
1
10
13.8787561873887
20
-37.9636055836587
30
0
41
1
10
13.8601238798742
20
-37.9822012953861
30
0
41
1
10
13.8260027135195
20
-38.0091614379608
30
0
41
1
10
13.8135898550186
20
-38.0179913785433
30
0
41
1
10
13.7930183318666
20
-38.0309572795536
30
0
41
1
10
13.7858339393049
20
-38.0352325300315
30
0
41
1
10
13.7707119348145
20
-38.0436784163768
30
0
41
1
10
13.7627640242149
20
-38.0478530906643
30
0
41
1
10
13.7378358829826
20
-38.0600837295902
30
0
41
1
10
13.7197379933357
20
-38.0678870466105
30
0
41
1
10
13.6895137280945
20
-38.0788882765902
30
0
41
1
10
13.6789130531144
20
-38.0824358644267
30
0
41
1
10
13.6568189855006
20
-38.0891364033824
30
0
41
1
10
13.6452904427558
20
-38.0923035991792
30
0
41
1
10
13.6210819432585
20
-38.0982048271663
30
0
41
1
10
13.6084039311045
20
-38.1009395753102
30
0
41
1
10
13.5883100345541
20
-38.1046401449179
30
0
41
1
10
13.5814016237711
20
-38.1058104966308
30
0
41
1
10
13.567396336243
20
-38.1079654954302
30
0
41
1
10
13.5602871584325
20
-38.1089532874669
30
0
41
1
10
13.5386188527679
20
-38.1116304436586
30
0
41
1
10
13.5237210688636
20
-38.1130353910944
30
0
41
1
10
13.5005803004527
20
-38.1144782270721
30
0
41
1
10
13.4927562946969
20
-38.1148453768633
30
0
41
1
10
13.4770952538461
20
-38.1153341847952
30
0
41
1
10
13.4692285817717
20
-38.1154578595255
30
0
41
1
10
13.4613248654052
20
-38.1154578595255
30
0
0
SPLINE
5
14C
100
AcDbEntity
8
1
62
256
6
ByLayer
370
18
48
1
60
0
100
AcDbSpline
70
4
71
3
72
8
73
4
40
0
40
0
40
0
40
0
40
1
40
1
40
1
40
1
41
1
10
30.2792076144253
20
37.462599910968
30
0
41
1
10
30.2422011889185
20
37.3823501943964
30
0
41
1
10
30.2229773357401
20
37.2997413144087
30
0
41
1
10
30.2210943763924
20
37.2147151290435
30
0
0
SPLINE
5
14D
100
AcDbEntity
8
SK1
62
256
6
ByLayer
370
18
48
1
60
0
100
AcDbSpline
70
4
71
3
72
53
73
49
40
0
40
0
40
0
40
0
40
0.0274824124755434
40
0.0552770580657662
40
0.083071703655989
40
0.0969690264511004
40
0.110866349246212
40
0.138660994836435
40
0.166455640426658
40
0.19425028601688
40
0.222044931607103
40
0.249839577197326
40
0.277634222787549
40
0.305428868377772
40
0.333223513967994
40
0.361018159558217
40
0.38881280514844
40
0.416607450738663
40
0.430504773533774
40
0.444402096328886
40
0.458299419123997
40
0.472196741919109
40
0.48609406471422
40
0.493042726111776
40
0.499991387509331
40
0.506940048906887
40
0.513888710304443
40
0.527786033099554
40
0.541683355894666
40
0.555580678689777
40
0.569478001484889
40
0.58337532428
40
0.611169969870223
40
0.638964615460446
40
0.666759261050668
40
0.694553906640891
40
0.722348552231114
40
0.750143197821337
40
0.77793784341156
40
0.805732489001783
40
0.833527134592005
40
0.861321780182228
40
0.889116425772451
40
0.903013748567563
40
0.916911071362674
40
0.944705716952897
40
0.97250036254312
40
1
40
1
40
1
40
1
41
1
10
-48
20
-25.5414480501578
30
0
41
1
10
-48
20
-25.5425617702098
30
0
41
1
10
-48
20
-25.4640635795832
30
0
41
1
10
-48
20
-25.1322425192968
30
0
41
1
10
-48
20
-24.694378987226
30
0
41
1
10
-48
20
-24.2527507958703
30
0
41
1
10
-48
20
-23.753496542719
30
0
41
1
10
-48
20
-23.0303097721662
30
0
41
1
10
-48
20
-22.004895488713
30
0
41
1
10
-48
20
-20.832848719972
30
0
41
1
10
-48
20
-19.5200996220053
30
0
41
1
10
-48
20
-18.0723511216477
30
0
41
1
10
-48
20
-16.4949784354156
30
0
41
1
10
-48
20
-14.7914034442658
30
0
41
1
10
-48
20
-12.966399868565
30
0
41
1
10
-48
20
-11.0239134221955
30
0
41
1
10
-48
20
-8.96950823728534
30
0
41
1
10
-48
20
-7.1768657739095
30
0
41
1
10
-48
20
-5.68399982568388
30
0
41
1
10
-48
20
-4.55359781560873
30
0
41
1
10
-48
20
-3.41075035191335
30
0
41
1
10
-48
20
-2.26472549180249
30
0
41
1
10
-48
20
-1.32161475247156
30
0
41
1
10
-48
20
-0.561042317499243
30
0
41
1
10
-48
20
5.827932625E-07
30
0
41
1
10
-48
20
0.561043122290016
30
0
41
1
10
-48
20
1.32161426869376
30
0
41
1
10
-48
20
2.26472380030225
30
0
41
1
10
-48
20
3.41075020779314
30
0
41
1
10
-48
20
4.55359888251641
30
0
41
1
10
-48
20
5.68399961261883
30
0
41
1
10
-48
20
7.17686534047004
30
0
41
1
10
-48
20
8.96950825544064
30
0
41
1
10
-48
20
11.0239135020289
30
0
41
1
10
-48
20
12.9663999896201
30
0
41
1
10
-48
20
14.7914038739653
30
0
41
1
10
-48
20
16.4949787826048
30
0
41
1
10
-48
20
18.0723510721556
30
0
41
1
10
-48
20
19.5200990771864
30
0
41
1
10
-48
20
20.8328486998638
30
0
41
1
10
-48
20
22.0048965474211
30
0
41
1
10
-48
20
23.0303087127374
30
0
41
1
10
-48
20
23.7534935831729
30
0
41
1
10
-48
20
24.2527492082177
30
0
41
1
10
-48
20
24.6943791914988
30
0
41
1
10
-48
20
25.1322422668055
30
0
41
1
10
-48
20
25.46413245496
30
0
41
1
10
-48
20
25.5426108647612
30
0
41
1
10
-48
20
25.5414458961653
30
0
0
SPLINE
5
14E
100
AcDbEntity
8
SK1
62
256
6
ByLayer
370
18
48
1
60
0
100
AcDbSpline
70
4
71
3
72
34
73
30
40
0
40
0
40
0
40
0
40
0.249999999999998
40
0.249999999999998
40
0.374999999999997
40
0.374999999999997
40
0.499999999999996
40
0.499999999999996
40
0.624999999999995
40
0.624999999999995
40
0.687499999999994
40
0.687499999999994
40
0.749999999999992
40
0.749999999999992
40
0.812499999999991
40
0.812499999999991
40
0.843749999999992
40
0.843749999999992
40
0.874999999999993
40
0.874999999999993
40
0.906249999999993
40
0.906249999999993
40
0.921874999999994
40
0.921874999999994
40
0.937499999999995
40
0.937499999999995
40
0.968749999999998
40
0.968749999999998
40
1
40
1
40
1
40
1
41
1
10
-0.200000000000003
20
-6.55227712232445
30
0
41
1
10
-0.200337167165458
20
-6.48813612986319
30
0
41
1
10
-0.202001510499869
20
-6.42391230321689
30
0
41
1
10
-0.207302963817298
20
-6.32744107363968
30
0
41
1
10
-0.209543235203526
20
-6.29526142118763
30
0
41
1
10
-0.215252325213115
20
-6.23085553749721
30
0
41
1
10
-0.218714447593257
20
-6.19862926640158
30
0
41
1
10
-0.227377685183981
20
-6.1341297290364
30
0
41
1
10
-0.232547642906582
20
-6.10194739347932
30
0
41
1
10
-0.24235517980317
20
-6.05395477419671
30
0
41
1
10
-0.245978726317773
20
-6.03797456128368
30
0
41
1
10
-0.254174420408035
20
-6.00627164279575
30
0
41
1
10
-0.258730367644077
20
-5.99057839566021
30
0
41
1
10
-0.269245267236243
20
-5.95968016956073
30
0
41
1
10
-0.275173744753175
20
-5.94446441589309
30
0
41
1
10
-0.285980482524735
20
-5.92231143869844
30
0
41
1
10
-0.289905978981622
20
-5.91504038952888
30
0
41
1
10
-0.298797923187962
20
-5.90086426726452
30
0
41
1
10
-0.30367406740082
20
-5.89408804025425
30
0
41
1
10
-0.314848838487848
20
-5.88165454576182
30
0
41
1
10
-0.32104061695658
20
-5.87610899057313
30
0
41
1
10
-0.331681166148428
20
-5.86978149468356
30
0
41
1
10
-0.335493722016963
20
-5.86801034282462
30
0
41
1
10
-0.343284951652919
20
-5.86552288649176
30
0
41
1
10
-0.347371812910396
20
-5.86477563679688
30
0
41
1
10
-0.359534957572166
20
-5.86423711805912
30
0
41
1
10
-0.367571007865067
20
-5.86616228333767
30
0
41
1
10
-0.382101750029406
20
-5.87272803663089
30
0
41
1
10
-0.388790995722061
20
-5.87734923192875
30
0
41
1
10
-0.394913799811292
20
-5.8825856729909
30
0
0
SPLINE
5
14F
100
AcDbEntity
8
SK1
62
256
6
ByLayer
370
18
48
1
60
0
100
AcDbSpline
70
4
71
3
72
38
73
34
40
0
40
0
40
0
40
0
40
0.0156250000000004
40
0.0156250000000004
40
0.0312500000000008
40
0.0312500000000008
40
0.0468750000000012
40
0.0468750000000012
40
0.0625000000000016
40
0.0625000000000016
40
0.078125000000002
40
0.078125000000002
40
0.0937500000000024
40
0.0937500000000024
40
0.125000000000003
40
0.125000000000003
40
0.156250000000005
40
0.156250000000005
40
0.187500000000006
40
0.187500000000006
40
0.250000000000005
40
0.250000000000005
40
0.312500000000005
40
0.312500000000005
40
0.375000000000004
40
0.375000000000004
40
0.500000000000003
40
0.500000000000003
40
0.625000000000001
40
0.625000000000001
40
0.75
40
0.75
40
1
40
1
40
1
40
1
41
1
10
-0.394913799811292
20
5.88258733498483
30
0
41
1
10
-0.39185547561415
20
5.87997174517943
30
0
41
1
10
-0.388679953698343
20
5.87753166439154
30
0
41
1
10
-0.382023894922753
20
5.87310852950296
30
0
41
1
10
-0.37852066067849
20
5.87111352959076
30
0
41
1
10
-0.371204411524843
20
5.86780375001044
30
0
41
1
10
-0.367430305230258
20
5.86650268448449
30
0
41
1
10
-0.359586250878721
20
5.86480236632462
30
0
41
1
10
-0.3554910623658
20
5.86442041571942
30
0
41
1
10
-0.347419400494459
20
5.86477259204989
30
0
41
1
10
-0.343334353292775
20
5.86551178963006
30
0
41
1
10
-0.335509573653312
20
5.86800393240804
30
0
41
1
10
-0.331763154935814
20
5.86973798480321
30
0
41
1
10
-0.320994194999571
20
5.87613112177433
30
0
41
1
10
-0.314813212304728
20
5.88168816956647
30
0
41
1
10
-0.303617390374953
20
5.89416050242824
30
0
41
1
10
-0.298778631313581
20
5.90089959919388
30
0
41
1
10
-0.289962744453973
20
5.91494866899535
30
0
41
1
10
-0.285986366953253
20
5.92229535303804
30
0
41
1
10
-0.275047927333091
20
5.94473551098528
30
0
41
1
10
-0.269098119985173
20
5.96006824141071
30
0
41
1
10
-0.258566536361215
20
5.99110891560525
30
0
41
1
10
-0.25401981581534
20
6.00682672167969
30
0
41
1
10
-0.245851820113216
20
6.03851342290707
30
0
41
1
10
-0.242238444719149
20
6.05448453988899
30
0
41
1
10
-0.232418188950987
20
6.1026714064829
30
0
41
1
10
-0.22727249267632
20
6.13483454456443
30
0
41
1
10
-0.218659309075378
20
6.1991230906373
30
0
41
1
10
-0.215212061754897
20
6.23126348879413
30
0
41
1
10
-0.209524252435528
20
6.29552574618808
30
0
41
1
10
-0.207290131858287
20
6.3276477818182
30
0
41
1
10
-0.202001043985945
20
6.42397958323062
30
0
41
1
10
-0.20033707875217
20
6.48815453706823
30
0
41
1
10
-0.200000000000003
20
6.55227865789408
30
0
0
SPLINE
5
150
100
AcDbEntity
8
SK1
62
256
6
ByLayer
370
13
48
1
60
0
100
AcDbSpline
70
4
71
3
72
25
73
21
40
0
40
0
40
0
40
0
40
0.0145587297918217
40
0.0464029860013393
40
0.110091498420374
40
0.17378001083941
40
0.237468523258445
40
0.30115703567748
40
0.364845548096515
40
0.42853406051555
40
0.492222572934585
40
0.55591108535362
40
0.619599597772656
40
0.683288110191691
40
0.746976622610726
40
0.778820878820243
40
0.810665135029761
40
0.874353647448796
40
0.938042159867831
40
1
40
1
40
1
40
1
41
1
10
-0.394913799811292
20
-5.88258567299192
30
0
41
1
10
-0.394913799811292
20
-6.07052405947675
30
0
41
1
10
-0.394913799811292
20
-6.66606717738506
30
0
41
1
10
-0.394913799811292
20
-8.05259623229938
30
0
41
1
10
-0.394913799811292
20
-9.97566753154939
30
0
41
1
10
-0.394913799811292
20
-12.1534974735354
30
0
41
1
10
-0.394913799811292
20
-14.2008618261791
30
0
41
1
10
-0.394913799811292
20
-16.1168447823444
30
0
41
1
10
-0.394913799811292
20
-17.9007381804523
30
0
41
1
10
-0.394913799811292
20
-19.549694005804
30
0
41
1
10
-0.394913799811292
20
-21.0615461829413
30
0
41
1
10
-0.394913799811292
20
-22.432052288855
30
0
41
1
10
-0.394913799811292
20
-23.6558233145232
30
0
41
1
10
-0.394913799811292
20
-24.7273078069339
30
0
41
1
10
-0.394913799811292
20
-25.4857549542384
30
0
41
1
10
-0.394913799811292
20
-26.0073865712911
30
0
41
1
10
-0.394913799811292
20
-26.4695479101472
30
0
41
1
10
-0.394913799811292
20
-26.9317121751432
30
0
41
1
10
-0.394913799811278
20
-27.2808223368452
30
0
41
1
10
-0.394913799811278
20
-27.3652313172552
30
0
41
1
10
-0.394913799811292
20
-27.3654106727887
30
0
0
SPLINE
5
151
100
AcDbEntity
8
SK1
62
256
6
ByLayer
370
18
48
1
60
0
100
AcDbSpline
70
4
71
3
72
49
73
45
40
0
40
0
40
0
40
0
40
0.0312500000000038
40
0.0312500000000038
40
0.0468750000000048
40
0.0468750000000048
40
0.0625000000000058
40
0.0781250000000069
40
0.0781250000000069
40
0.0859375000000073
40
0.0859375000000073
40
0.0937500000000077
40
0.109375000000009
40
0.117187500000009
40
0.117187500000009
40
0.125000000000009
40
0.125000000000009
40
0.15625000000001
40
0.15625000000001
40
0.171875000000011
40
0.171875000000011
40
0.187500000000011
40
0.187500000000011
40
0.218750000000012
40
0.218750000000012
40
0.234375000000012
40
0.234375000000012
40
0.250000000000012
40
0.250000000000012
40
0.31250000000001
40
0.31250000000001
40
0.375000000000009
40
0.375000000000009
40
0.437500000000007
40
0.437500000000007
40
0.500000000000006
40
0.500000000000006
40
0.625000000000004
40
0.625000000000004
40
0.750000000000003
40
0.750000000000003
40
0.875000000000001
40
0.875000000000001
40
1
40
1
40
1
40
1
41
1
10
-0.394913799811292
20
-5.88258567299192
30
0
41
1
10
-0.411179767739853
20
-5.89649691057778
30
0
41
1
10
-0.428385528731511
20
-5.90924654958064
30
0
41
1
10
-0.456220231625167
20
-5.92587726264904
30
0
41
1
10
-0.46590055810735
20
-5.93102514312227
30
0
41
1
10
-0.485699188913216
20
-5.94009851027181
30
0
41
1
10
-0.505959902330702
20
-5.94797987906676
30
0
41
1
10
-0.527276324395132
20
-5.95314074745056
30
0
41
1
10
-0.543724271296668
20
-5.9558251558885
30
0
41
1
10
-0.549307626346604
20
-5.95652193855128
30
0
41
1
10
-0.560402254070226
20
-5.95747179112044
30
0
41
1
10
-0.577005048576737
20
-5.95824738974093
30
0
41
1
10
-0.598988113232068
20
-5.95672779936984
30
0
41
1
10
-0.615363151583239
20
-5.953726487664
30
0
41
1
10
-0.626255188472385
20
-5.95131675596099
30
0
41
1
10
-0.631686913413503
20
-5.94990548753631
30
0
41
1
10
-0.658283686674309
20
-5.94201343342044
30
0
41
1
10
-0.678213101083671
20
-5.93297784531563
30
0
41
1
10
-0.706655485452188
20
-5.91648780259629
30
0
41
1
10
-0.715834603579069
20
-5.91052268984237
30
0
41
1
10
-0.73345067661333
20
-5.89799413410989
30
0
41
1
10
-0.741931675642959
20
-5.89140462063131
30
0
41
1
10
-0.766568398283425
20
-5.87083261121126
30
0
41
1
10
-0.781926636665645
20
-5.85605532307281
30
0
41
1
10
-0.803808427400881
20
-5.8327319572052
30
0
41
1
10
-0.810909537595464
20
-5.82475689909125
30
0
41
1
10
-0.824642187820487
20
-5.80862406976092
30
0
41
1
10
-0.831293292074719
20
-5.8004459091575
30
0
41
1
10
-0.863632300216523
20
-5.75907701915665
30
0
41
1
10
-0.886653206455136
20
-5.72449384855278
30
0
41
1
10
-0.929268994496809
20
-5.65349793311387
30
0
41
1
10
-0.948821917963429
20
-5.61706391416035
30
0
41
1
10
-0.985490326811572
20
-5.54286169997809
30
0
41
1
10
-1.00262576586445
20
-5.50500475294339
30
0
41
1
10
-1.03481085007657
20
-5.42880990558521
30
0
41
1
10
-1.049879588408
20
-5.39043436268409
30
0
41
1
10
-1.09271831790768
20
-5.27463055419162
30
0
41
1
10
-1.11815612697546
20
-5.1965332099478
30
0
41
1
10
-1.16484869971202
20
-5.03900155537229
30
0
41
1
10
-1.18607375956299
20
-4.95956033007351
30
0
41
1
10
-1.22537042104098
20
-4.79955772182797
30
0
41
1
10
-1.24343193354568
20
-4.71899405044132
30
0
41
1
10
-1.27704610356756
20
-4.55687629477117
30
0
41
1
10
-1.29259442759718
20
-4.47532122975804
30
0
41
1
10
-1.30710678118655
20
-4.39331221032487
30
0
0
SPLINE
5
152
100
AcDbEntity
8
SK1
62
256
6
ByLayer
370
18
48
1
60
0
100
AcDbSpline
70
4
71
3
72
50
73
46
40
0
40
0
40
0
40
0
40
0.124999999999998
40
0.124999999999998
40
0.249999999999996
40
0.249999999999996
40
0.312499999999996
40
0.312499999999996
40
0.374999999999996
40
0.374999999999996
40
0.499999999999996
40
0.499999999999996
40
0.562499999999996
40
0.562499999999996
40
0.624999999999997
40
0.624999999999997
40
0.687499999999997
40
0.687499999999997
40
0.718749999999997
40
0.718749999999997
40
0.749999999999997
40
0.749999999999997
40
0.781249999999998
40
0.781249999999998
40
0.812499999999998
40
0.812499999999998
40
0.843749999999998
40
0.843749999999998
40
0.859374999999998
40
0.859374999999998
40
0.874999999999998
40
0.890624999999998
40
0.890624999999998
40
0.898437499999998
40
0.898437499999998
40
0.906249999999998
40
0.921874999999998
40
0.921874999999998
40
0.937499999999999
40
0.937499999999999
40
0.968749999999999
40
0.968749999999999
40
0.984375
40
0.984375
40
1
40
1
40
1
40
1
41
1
10
-1.30710678118655
20
4.39330887788606
30
0
41
1
10
-1.29259057630257
20
4.47534003310412
30
0
41
1
10
-1.27702923965074
20
4.55696714625805
30
0
41
1
10
-1.2433565967056
20
4.71934352683385
30
0
41
1
10
-1.22524991683204
20
4.80009364705947
30
0
41
1
10
-1.19566654622429
20
4.92047732721875
30
0
41
1
10
-1.18539939501379
20
4.96048124175471
30
0
41
1
10
-1.16392950861756
20
5.04022016000795
30
0
41
1
10
-1.15271909218829
20
5.07998178339514
30
0
41
1
10
-1.11752093416874
20
5.19855796010592
30
0
41
1
10
-1.09200642706727
20
5.27670114460133
30
0
41
1
10
-1.04924072742563
20
5.39208696039736
30
0
41
1
10
-1.03422852656961
20
5.43024134229668
30
0
41
1
10
-1.00227006366248
20
5.50579467647674
30
0
41
1
10
-0.985329895267611
20
5.54319570602496
30
0
41
1
10
-0.94884230569906
20
5.61701592648748
30
0
41
1
10
-0.929311633153446
20
5.65344083322157
30
0
41
1
10
-0.897134039200736
20
5.70702849131604
30
0
41
1
10
-0.885889244318065
20
5.72475996992924
30
0
41
1
10
-0.862388317867442
20
5.75943238422735
30
0
41
1
10
-0.850124764431314
20
5.77639487115229
30
0
41
1
10
-0.824286187770227
20
5.80937247929978
30
0
41
1
10
-0.810714993567004
20
5.82539030326046
30
0
41
1
10
-0.781810520162352
20
5.85616212382189
30
0
41
1
10
-0.766480020681527
20
5.87092930527115
30
0
41
1
10
-0.73328068845305
20
5.89860840862801
30
0
41
1
10
-0.715743791280289
20
5.91124847506274
30
0
41
1
10
-0.687416284609284
20
5.92762938506613
30
0
41
1
10
-0.677572371948401
20
5.93267724259607
30
0
41
1
10
-0.657498098822913
20
5.94150365482599
30
0
41
1
10
-0.636988070186462
20
5.94910381427817
30
0
41
1
10
-0.615487385337161
20
5.9539180373385
30
0
41
1
10
-0.598932162610794
20
5.95632074310808
30
0
41
1
10
-0.593335497469866
20
5.95691733339831
30
0
41
1
10
-0.582241374941034
20
5.95766809286985
30
0
41
1
10
-0.565657821584452
20
5.95814654054257
30
0
41
1
10
-0.549243704490024
20
5.95672090529089
30
0
41
1
10
-0.527503554619599
20
5.95318620141708
30
0
41
1
10
-0.516622342716417
20
5.95056688400257
30
0
41
1
10
-0.485210602129996
20
5.94070326229377
30
0
41
1
10
-0.465634608434939
20
5.93149511928672
30
0
41
1
10
-0.437740327393669
20
5.91484188421759
30
0
41
1
10
-0.428752255076887
20
5.90884528223492
30
0
41
1
10
-0.411413024584277
20
5.89619973179913
30
0
41
1
10
-0.40303932910642
20
5.88953658242153
30
0
41
1
10
-0.394913799811292
20
5.88258733498481
30
0
0
SPLINE
5
153
100
AcDbEntity
8
SK1
62
256
6
ByLayer
370
13
48
1
60
0
100
AcDbSpline
70
4
71
3
72
25
73
21
40
0
40
0
40
0
40
0
40
0.0621299294537086
40
0.125806760751585
40
0.189483592049462
40
0.2213220076984
40
0.253160423347338
40
0.316837254645215
40
0.380514085943091
40
0.444190917240968
40
0.507867748538844
40
0.571544579836721
40
0.635221411134597
40
0.698898242432474
40
0.76257507373035
40
0.826251905028227
40
0.889928736326103
40
0.95360556762398
40
0.985443983272918
40
1
40
1
40
1
40
1
41
1
10
-0.394913799811306
20
27.3654111757346
30
0
41
1
10
-0.394913799811292
20
27.365477731656
30
0
41
1
10
-0.394913799811306
20
27.2811607197602
30
0
41
1
10
-0.394913799811292
20
26.931711914563
30
0
41
1
10
-0.394913799811292
20
26.4695479228793
30
0
41
1
10
-0.394913799811292
20
26.0073845707252
30
0
41
1
10
-0.394913799811292
20
25.4857521565205
30
0
41
1
10
-0.394913799811292
20
24.7273073402748
30
0
41
1
10
-0.394913799811292
20
23.6558244102428
30
0
41
1
10
-0.394913799811292
20
22.4320519750209
30
0
41
1
10
-0.394913799811292
20
21.061545739767
30
0
41
1
10
-0.394913799811292
20
19.5496941631405
30
0
41
1
10
-0.394913799811292
20
17.9007385657829
30
0
41
1
10
-0.394913799811292
20
16.116845123771
30
0
41
1
10
-0.394913799811292
20
14.2008618153781
30
0
41
1
10
-0.394913799811292
20
12.153497457354
30
0
41
1
10
-0.394913799811292
20
9.97566741413243
30
0
41
1
10
-0.394913799811292
20
8.05259596592001
30
0
41
1
10
-0.394913799811292
20
6.66606769858655
30
0
41
1
10
-0.394913799811292
20
6.07052516538181
30
0
41
1
10
-0.394913799811292
20
5.88258733498483
30
0
0
SPLINE
5
154
100
AcDbEntity
8
SK1
62
256
6
ByLayer
370
18
48
1
60
0
100
AcDbSpline
70
4
71
3
72
36
73
32
40
0
40
0
40
0
40
0
40
0.0625000000000002
40
0.0625000000000002
40
0.125
40
0.125
40
0.250000000000001
40
0.250000000000001
40
0.312500000000001
40
0.312500000000001
40
0.343750000000001
40
0.343750000000001
40
0.375000000000001
40
0.375000000000001
40
0.437500000000001
40
0.437500000000001
40
0.500000000000001
40
0.5625
40
0.5625
40
0.625
40
0.625
40
0.6875
40
0.71875
40
0.71875
40
0.75
40
0.75
40
0.875
40
0.875
40
0.9375
40
0.9375
40
1
40
1
40
1
40
1
41
1
10
-1.30710678118655
20
-4.39331221032489
30
0
41
1
10
-1.33832612741192
20
-4.21689231016725
30
0
41
1
10
-1.36851092390374
20
-4.03973122982887
30
0
41
1
10
-1.42649811963088
20
-3.68381684447201
30
0
41
1
10
-1.45429466041941
20
-3.50506155058417
30
0
41
1
10
-1.5334217550358
20
-2.96616199669305
30
0
41
1
10
-1.58051371000479
20
-2.60339474516391
30
0
41
1
10
-1.63969017396079
20
-2.05289759168917
30
0
41
1
10
-1.65749856469556
20
-1.86833789193395
30
0
41
1
10
-1.68090524760893
20
-1.58974420341144
30
0
41
1
10
-1.68815609252624
20
-1.4965870997257
30
0
41
1
10
-1.70147805604537
20
-1.30965819488989
30
0
41
1
10
-1.70755165689623
20
-1.21581541728392
30
0
41
1
10
-1.72381183076918
20
-0.934723518861318
30
0
41
1
10
-1.73206493494847
20
-0.747501097942745
30
0
41
1
10
-1.7429848038179
20
-0.373418392454084
30
0
41
1
10
-1.748391829433
20
0.0003055804815801
30
0
41
1
10
-1.74297993884852
20
0.373323280942145
30
0
41
1
10
-1.73211744010526
20
0.745986303504424
30
0
41
1
10
-1.72392517749429
20
0.932138827990201
30
0
41
1
10
-1.70248074969008
20
1.30410713450158
30
0
41
1
10
-1.68260948363638
20
1.5828311275875
30
0
41
1
10
-1.65757931062798
20
1.86120029185435
30
0
41
1
10
-1.6398047441928
20
2.04670347397033
30
0
41
1
10
-1.63039580544412
20
2.13918287403047
30
0
41
1
10
-1.58095222331166
20
2.60000741581413
30
0
41
1
10
-1.53372925180184
20
2.96395482764058
30
0
41
1
10
-1.45444775249806
20
3.50406852662027
30
0
41
1
10
-1.42660609580415
20
3.68313524459486
30
0
41
1
10
-1.36854874276652
20
4.03950797751688
30
0
41
1
10
-1.33833886963826
20
4.21681617087032
30
0
41
1
10
-1.30710678118655
20
4.39330887788606
30
0
0
SPLINE
5
155
100
AcDbEntity
8
SK1
62
256
6
ByLayer
370
13
48
1
60
0
100
AcDbSpline
70
4
71
3
72
53
73
49
40
0
40
0
40
0
40
0
40
0.0270898801791152
40
0.0549069067790335
40
0.0827239333789518
40
0.096632446678911
40
0.11054095997887
40
0.138357986578788
40
0.166175013178707
40
0.193992039778625
40
0.221809066378543
40
0.249626092978462
40
0.27744311957838
40
0.305260146178298
40
0.333077172778217
40
0.360894199378135
40
0.388711225978053
40
0.416528252577971
40
0.430436765877931
40
0.44434527917789
40
0.458253792477849
40
0.472162305777808
40
0.486070819077767
40
0.493025075727747
40
0.499979332377727
40
0.506933589027706
40
0.513887845677686
40
0.527796358977645
40
0.541704872277604
40
0.555613385577563
40
0.569521898877522
40
0.583430412177481
40
0.6112474387774
40
0.639064465377318
40
0.666881491977236
40
0.694698518577155
40
0.722515545177073
40
0.750332571776991
40
0.778149598376909
40
0.805966624976828
40
0.833783651576746
40
0.861600678176664
40
0.889417704776583
40
0.903326218076542
40
0.917234731376501
40
0.945051757976419
40
0.972868784576338
40
1
40
1
40
1
40
1
41
1
10
-1.99503997793931
20
27.3252179135689
30
0
41
1
10
-1.99503997793931
20
27.3251266752501
30
0
41
1
10
-1.99503997793931
20
27.2408696946086
30
0
41
1
10
-1.9950399779393
20
26.8920579638066
30
0
41
1
10
-1.9950399779393
20
26.4304294784276
30
0
41
1
10
-1.9950399779393
20
25.9687186091476
30
0
41
1
10
-1.9950399779393
20
25.4475793002845
30
0
41
1
10
-1.9950399779393
20
24.6899114886171
30
0
41
1
10
-1.9950399779393
20
23.619443795401
30
0
41
1
10
-1.9950399779393
20
22.396811187269
30
0
41
1
10
-1.9950399779393
20
21.0275777036138
30
0
41
1
10
-1.9950399779393
20
19.5171387431293
30
0
41
1
10
-1.9950399779393
20
17.8697605888624
30
0
41
1
10
-1.9950399779393
20
16.0876370834377
30
0
41
1
10
-1.9950399779393
20
14.1736586399812
30
0
41
1
10
-1.9950399779393
20
12.1286054195275
30
0
41
1
10
-1.9950399779393
20
9.95349522257501
30
0
41
1
10
-1.9950399779393
20
8.03329795823163
30
0
41
1
10
-1.9950399779393
20
6.43152354524264
30
0
41
1
10
-1.9950399779393
20
5.19920324116254
30
0
41
1
10
-1.9950399779393
20
3.93622738701504
30
0
41
1
10
-1.9950399779393
20
2.64495367748941
30
0
41
1
10
-1.9950399779393
20
1.54951551889729
30
0
41
1
10
-1.9950399779393
20
0.6647912077417
30
0
41
1
10
-1.9950399779393
20
-1.48582728E-08
30
0
41
1
10
-1.9950399779393
20
-0.664791253601607
30
0
41
1
10
-1.9950399779393
20
-1.549515656636
30
0
41
1
10
-1.9950399779393
20
-2.64495403942521
30
0
41
1
10
-1.9950399779393
20
-3.93622781621522
30
0
41
1
10
-1.9950399779393
20
-5.19920320851571
30
0
41
1
10
-1.9950399779393
20
-6.43152352997811
30
0
41
1
10
-1.9950399779393
20
-8.03329822829241
30
0
41
1
10
-1.9950399779393
20
-9.95349533700443
30
0
41
1
10
-1.9950399779393
20
-12.1286054335931
30
0
41
1
10
-1.9950399779393
20
-14.1736586478766
30
0
41
1
10
-1.9950399779393
20
-16.0876367400659
30
0
41
1
10
-1.9950399779393
20
-17.8697602043723
30
0
41
1
10
-1.9950399779393
20
-19.5171385903506
30
0
41
1
10
-1.9950399779393
20
-21.027578149028
30
0
41
1
10
-1.9950399779393
20
-22.3968114946305
30
0
41
1
10
-1.9950399779393
20
-23.6194427004969
30
0
41
1
10
-1.9950399779393
20
-24.6899119683388
30
0
41
1
10
-1.9950399779393
20
-25.4475821015686
30
0
41
1
10
-1.9950399779393
20
-25.9687206006143
30
0
41
1
10
-1.9950399779393
20
-26.4304294614745
30
0
41
1
10
-1.9950399779393
20
-26.8920582242086
30
0
41
1
10
-1.99503997793931
20
-27.2410439314198
30
0
41
1
10
-1.99503997793931
20
-27.3252532570059
30
0
41
1
10
-1.99503997793928
20
-27.3252180413091
30
0
0
SPLINE
5
156
100
AcDbEntity
8
SK1
62
256
6
ByLayer
370
18
48
1
60
0
100
AcDbSpline
70
4
71
3
72
53
73
49
40
0
40
0
40
0
40
0
40
0.0183590519962273
40
0.0466908704825248
40
0.0750226889688224
40
0.0891885982119712
40
0.10335450745512
40
0.131686325941417
40
0.160018144427715
40
0.188349962914013
40
0.21668178140031
40
0.245013599886608
40
0.273345418372905
40
0.301677236859203
40
0.3300090553455
40
0.358340873831798
40
0.386672692318095
40
0.415004510804393
40
0.429170420047542
40
0.443336329290691
40
0.457502238533839
40
0.471668147776988
40
0.485834057020137
40
0.492917011641711
40
0.499999966263286
40
0.50708292088486
40
0.514165875506435
40
0.528331784749583
40
0.542497693992732
40
0.556663603235881
40
0.57082951247903
40
0.584995421722178
40
0.613327240208476
40
0.641659058694774
40
0.669990877181071
40
0.698322695667369
40
0.726654514153666
40
0.754986332639964
40
0.783318151126261
40
0.811649969612559
40
0.839981788098856
40
0.868313606585154
40
0.896645425071452
40
0.9108113343146
40
0.924977243557749
40
0.953309062044047
40
0.981640880530344
40
1
40
1
40
1
40
1
41
1
10
-2.20000000000002
20
27.5061904584105
30
0
41
1
10
-2.2
20
27.4879594063703
30
0
41
1
10
-2.2
20
27.3967254225486
30
0
41
1
10
-2.2
20
27.0843206529938
30
0
41
1
10
-2.2
20
26.6200957584237
30
0
41
1
10
-2.2
20
26.156191020121
30
0
41
1
10
-2.2
20
25.6326608836802
30
0
41
1
10
-2.2
20
24.8712257553422
30
0
41
1
10
-2.2
20
23.7958356733944
30
0
41
1
10
-2.2
20
22.5676765989873
30
0
41
1
10
-2.2
20
21.1922721628705
30
0
41
1
10
-2.2
20
19.6749841148914
30
0
41
1
10
-2.2
20
18.0199577075533
30
0
41
1
10
-2.2
20
16.229252641869
30
0
41
1
10
-2.2
20
14.3055535850363
30
0
41
1
10
-2.2
20
12.2492947844102
30
0
41
1
10
-2.2
20
10.0609973779136
30
0
41
1
10
-2.2
20
8.12686459619209
30
0
41
1
10
-2.2
20
6.51319173456665
30
0
41
1
10
-2.2
20
5.26973655346097
30
0
41
1
10
-2.2
20
3.99363661217191
30
0
41
1
10
-2.2
20
2.68649440179473
30
0
41
1
10
-2.2
20
1.57441409623576
30
0
41
1
10
-2.2
20
0.676125852580327
30
0
41
1
10
-2.2
20
-8.01526596E-08
30
0
41
1
10
-2.2
20
-0.676125991375216
30
0
41
1
10
-2.2
20
-1.57441419616916
30
0
41
1
10
-2.2
20
-2.68649461847352
30
0
41
1
10
-2.2
20
-3.99363707251752
30
0
41
1
10
-2.2
20
-5.26973663380883
30
0
41
1
10
-2.2
20
-6.51319169435675
30
0
41
1
10
-2.2
20
-8.1268648484035
30
0
41
1
10
-2.2
20
-10.0609975068282
30
0
41
1
10
-2.2
20
-12.2492948087344
30
0
41
1
10
-2.2
20
-14.3055536070197
30
0
41
1
10
-2.2
20
-16.2292523079286
30
0
41
1
10
-2.2
20
-18.0199573189881
30
0
41
1
10
-2.2
20
-19.6749839400142
30
0
41
1
10
-2.2
20
-21.1922725974247
30
0
41
1
10
-2.2
20
-22.5676769377316
30
0
41
1
10
-2.2
20
-23.7958345745359
30
0
41
1
10
-2.2
20
-24.87122617173
30
0
41
1
10
-2.2
20
-25.6326636676739
30
0
41
1
10
-2.2
20
-26.1561930557051
30
0
41
1
10
-2.2
20
-26.6200957619357
30
0
41
1
10
-2.2
20
-27.0843209142601
30
0
41
1
10
-2.20000000000002
20
-27.396725683459
30
0
41
1
10
-2.20000000000002
20
-27.4879595217548
30
0
41
1
10
-2.2
20
-27.5061905414644
30
0
0
SPLINE
5
157
100
AcDbEntity
8
SK1
62
256
6
ByLayer
370
18
48
1
60
0
100
AcDbSpline
70
4
71
3
72
53
73
49
40
0
40
0
40
0
40
0
40
0.0184049970526345
40
0.0467338365610746
40
0.0750626760695148
40
0.0892270958237349
40
0.103391515577955
40
0.131720355086395
40
0.160049194594835
40
0.188378034103275
40
0.216706873611715
40
0.245035713120156
40
0.273364552628595
40
0.301693392137036
40
0.330022231645476
40
0.358351071153916
40
0.386679910662356
40
0.415008750170796
40
0.429173169925016
40
0.443337589679236
40
0.457502009433456
40
0.471666429187676
40
0.485830848941896
40
0.492913058819006
40
0.499995268696116
40
0.507077478573226
40
0.514159688450336
40
0.528324108204556
40
0.542488527958777
40
0.556652947712997
40
0.570817367467216
40
0.584981787221437
40
0.613310626729877
40
0.641639466238317
40
0.669968305746757
40
0.698297145255197
40
0.726625984763637
40
0.754954824272077
40
0.783283663780518
40
0.811612503288957
40
0.839941342797397
40
0.868270182305838
40
0.896599021814278
40
0.910763441568498
40
0.924927861322718
40
0.953256700831158
40
0.981585540339598
40
1
40
1
40
1
40
1
41
1
10
-46.5
20
26.3940910641082
30
0
41
1
10
-46.5
20
26.376586410125
30
0
41
1
10
-46.5
20
26.2887289426344
30
0
41
1
10
-46.5
20
25.9864884679325
30
0
41
1
10
-46.5
20
25.5370892350002
30
0
41
1
10
-46.5
20
25.0857116283691
30
0
41
1
10
-46.5
20
24.5758332694777
30
0
41
1
10
-46.5
20
23.8359097589668
30
0
41
1
10
-46.5
20
22.7886268297893
30
0
41
1
10
-46.5
20
21.5920242293512
30
0
41
1
10
-46.5
20
20.2518563243232
30
0
41
1
10
-46.5
20
18.773677001608
30
0
41
1
10
-46.5
20
17.1623226058104
30
0
41
1
10
-46.5
20
15.4206187950808
30
0
41
1
10
-46.5
20
13.5524250589533
30
0
41
1
10
-46.5
20
11.5601508338966
30
0
41
1
10
-46.5
20
9.44715323273309
30
0
41
1
10
-46.5
20
7.59259314167716
30
0
41
1
10
-46.5
20
6.0468611786246
30
0
41
1
10
-46.5
20
4.86698685362285
30
0
41
1
10
-46.5
20
3.66582628473356
30
0
41
1
10
-46.5
20
2.4492942236117
30
0
41
1
10
-46.5
20
1.43224163583807
30
0
41
1
10
-46.5
20
0.611404309556576
30
0
41
1
10
-46.5
20
2.92682472E-07
30
0
41
1
10
-46.5
20
-0.611403917686943
30
0
41
1
10
-46.5
20
-1.43224195164228
30
0
41
1
10
-46.5
20
-2.44929526971745
30
0
41
1
10
-46.5
20
-3.66582656723671
30
0
41
1
10
-46.5
20
-4.866986288764
30
0
41
1
10
-46.5
20
-6.04686128085439
30
0
41
1
10
-46.5
20
-7.59259349580967
30
0
41
1
10
-46.5
20
-9.44715327893678
30
0
41
1
10
-46.5
20
-11.5601507996435
30
0
41
1
10
-46.5
20
-13.552425000493
30
0
41
1
10
-46.5
20
-15.4206184072864
30
0
41
1
10
-46.5
20
-17.1623222405147
30
0
41
1
10
-46.5
20
-18.7736769529143
30
0
41
1
10
-46.5
20
-20.2518568208893
30
0
41
1
10
-46.5
20
-21.5920243888973
30
0
41
1
10
-46.5
20
-22.7886257535111
30
0
41
1
10
-46.5
20
-23.8359105369953
30
0
41
1
10
-46.5
20
-24.5758361522005
30
0
41
1
10
-46.5
20
-25.0857134120403
30
0
41
1
10
-46.5
20
-25.5370891216558
30
0
41
1
10
-46.5
20
-25.9864887242638
30
0
41
1
10
-46.5
20
-26.2887670152414
30
0
41
1
10
-46.5
20
-26.3766218382716
30
0
41
1
10
-46.5
20
-26.3941179356521
30
0
0
SPLINE
5
158
100
AcDbEntity
8
1
62
256
6
ByLayer
370
18
48
1
60
0
100
AcDbSpline
70
4
71
11
72
24
73
12
40
0
40
0
40
0
40
0
40
0
40
0
40
0
40
0
40
0
40
0
40
0
40
0
40
1
40
1
40
1
40
1
40
1
40
1
40
1
40
1
40
1
40
1
40
1
40
1
41
1
10
67.74178433043
20
50.32679491924
30
0
41
1
10
67.75002887305
20
50.32203493034
30
0
41
1
10
67.75852264793
20
50.31770662482
30
0
41
1
10
67.76724054097
20
50.31382450226
30
0
41
1
10
67.77615648889
20
50.31040141866
30
0
41
1
10
67.78524360229
20
50.30744851536
30
0
41
1
10
67.79447429484
20
50.30497515872
30
0
41
1
10
67.80382041754
20
50.30298889127
30
0
41
1
10
67.81325339678
20
50.30149539465
30
0
41
1
10
67.82274437503
20
50.3004984649
30
0
41
1
10
67.83226435276
20
50.30000000003
30
0
41
1
10
67.84178433049
20
50.30000000004
30
0
0
SPLINE
5
159
100
AcDbEntity
8
1
62
256
6
ByLayer
370
18
48
1
60
0
100
AcDbSpline
70
4
71
11
72
24
73
12
40
0
40
0
40
0
40
0
40
0
40
0
40
0
40
0
40
0
40
0
40
0
40
0
40
1
40
1
40
1
40
1
40
1
40
1
40
1
40
1
40
1
40
1
40
1
40
1
41
1
10
66.95110689109
20
50.75719902133
30
0
41
1
10
66.95982523158
20
50.75681837037
30
0
41
1
10
66.96852530194
20
50.75601926908
30
0
41
1
10
66.97718478664
20
50.75480269182
30
0
41
1
10
66.98578142845
20
50.75317095177
30
0
41
1
10
66.9942931203
20
50.75112769695
30
0
41
1
10
67.00269799687
20
50.74867789884
30
0
41
1
10
67.01097452502
20
50.7458278338
30
0
41
1
10
67.01910159254
20
50.74258505709
30
0
41
1
10
67.02705859446
20
50.73895837013
30
0
41
1
10
67.0348255163
20
50.73495778084
30
0
41
1
10
67.04238301365
20
50.73059445771
30
0
0
SPLINE
5
15A
100
AcDbEntity
8
1
62
256
6
ByLayer
370
18
48
1
60
0
100
AcDbSpline
70
4
71
5
72
12
73
6
40
0
40
0
40
0
40
0
40
0
40
0
40
1
40
1
40
1
40
1
40
1
40
1
41
1
10
60
20
50.22500000167
30
0
41
1
10
60.0000869454
20
50.4832314034
30
0
41
1
10
60.1038510977
20
50.74194805403
30
0
41
1
10
60.313909557
20
50.94303528014
30
0
41
1
10
60.5769060945
20
51.035415612
30
0
41
1
10
60.8348955099
20
51.02423857727
30
0
0
SPLINE
5
15B
100
AcDbEntity
8
1
62
256
6
ByLayer
370
18
48
1
60
0
100
AcDbSpline
70
4
71
5
72
12
73
6
40
0
40
0
40
0
40
0
40
0
40
0
40
1
40
1
40
1
40
1
40
1
40
1
41
1
10
60
20
43.77499999833
30
0
41
1
10
60.0000869454
20
43.5167685966
30
0
41
1
10
60.1038510977
20
43.25805194597
30
0
41
1
10
60.313909557
20
43.05696471986
30
0
41
1
10
60.5769060945
20
42.964584388
30
0
41
1
10
60.8348955099
20
42.97576142273
30
0
0
SPLINE
5
15C
100
AcDbEntity
8
1
62
256
6
ByLayer
370
18
48
1
60
0
100
AcDbSpline
70
4
71
11
72
24
73
12
40
0
40
0
40
0
40
0
40
0
40
0
40
0
40
0
40
0
40
0
40
0
40
0
40
1
40
1
40
1
40
1
40
1
40
1
40
1
40
1
40
1
40
1
40
1
40
1
41
1
10
66.95110689109
20
43.24280097867
30
0
41
1
10
66.95982523158
20
43.24318162963
30
0
41
1
10
66.96852530194
20
43.24398073092
30
0
41
1
10
66.97718478664
20
43.24519730818
30
0
41
1
10
66.98578142845
20
43.24682904823
30
0
41
1
10
66.9942931203
20
43.24887230305
30
0
41
1
10
67.00269799687
20
43.25132210116
30
0
41
1
10
67.01097452502
20
43.2541721662
30
0
41
1
10
67.01910159254
20
43.25741494291
30
0
41
1
10
67.02705859446
20
43.26104162987
30
0
41
1
10
67.0348255163
20
43.26504221916
30
0
41
1
10
67.04238301365
20
43.26940554229
30
0
0
SPLINE
5
15D
100
AcDbEntity
8
1
62
256
6
ByLayer
370
18
48
1
60
0
100
AcDbSpline
70
4
71
11
72
24
73
12
40
0
40
0
40
0
40
0
40
0
40
0
40
0
40
0
40
0
40
0
40
0
40
0
40
1
40
1
40
1
40
1
40
1
40
1
40
1
40
1
40
1
40
1
40
1
40
1
41
1
10
67.74178433043
20
43.67320508076
30
0
41
1
10
67.75002887305
20
43.67796506966
30
0
41
1
10
67.75852264793
20
43.68229337518
30
0
41
1
10
67.76724054097
20
43.68617549774
30
0
41
1
10
67.77615648889
20
43.68959858134
30
0
41
1
10
67.78524360229
20
43.69255148464
30
0
41
1
10
67.79447429484
20
43.69502484128
30
0
41
1
10
67.80382041754
20
43.69701110873
30
0
41
1
10
67.81325339678
20
43.69850460535
30
0
41
1
10
67.82274437503
20
43.6995015351
30
0
41
1
10
67.83226435276
20
43.69999999997
30
0
41
1
10
67.84178433049
20
43.69999999996
30
0
0
SPLINE
5
15E
100
AcDbEntity
8
1
62
256
6
ByLayer
370
18
48
1
60
0
100
AcDbSpline
70
4
71
11
72
24
73
12
40
0
40
0
40
0
40
0
40
0
40
0
40
0
40
0
40
0
40
0
40
0
40
0
40
1
40
1
40
1
40
1
40
1
40
1
40
1
40
1
40
1
40
1
40
1
40
1
41
1
10
82.25821566957
20
43.67320508076
30
0
41
1
10
82.24997112695
20
43.67796506966
30
0
41
1
10
82.24147735207
20
43.68229337518
30
0
41
1
10
82.23275945903
20
43.68617549774
30
0
41
1
10
82.22384351111
20
43.68959858134
30
0
41
1
10
82.21475639771
20
43.69255148464
30
0
41
1
10
82.20552570516
20
43.69502484128
30
0
41
1
10
82.19617958246
20
43.69701110873
30
0
41
1
10
82.18674660322
20
43.69850460535
30
0
41
1
10
82.17725562497
20
43.6995015351
30
0
41
1
10
82.16773564724
20
43.69999999997
30
0
41
1
10
82.15821566951
20
43.69999999996
30
0
0
SPLINE
5
15F
100
AcDbEntity
8
1
62
256
6
ByLayer
370
18
48
1
60
0
100
AcDbSpline
70
4
71
11
72
24
73
12
40
0
40
0
40
0
40
0
40
0
40
0
40
0
40
0
40
0
40
0
40
0
40
0
40
1
40
1
40
1
40
1
40
1
40
1
40
1
40
1
40
1
40
1
40
1
40
1
41
1
10
83.04889310891
20
43.24280097867
30
0
41
1
10
83.04017476842
20
43.24318162963
30
0
41
1
10
83.03147469806
20
43.24398073092
30
0
41
1
10
83.02281521336
20
43.24519730818
30
0
41
1
10
83.01421857155
20
43.24682904823
30
0
41
1
10
83.0057068797
20
43.24887230305
30
0
41
1
10
82.99730200313
20
43.25132210116
30
0
41
1
10
82.98902547498
20
43.2541721662
30
0
41
1
10
82.98089840746
20
43.25741494291
30
0
41
1
10
82.97294140554
20
43.26104162987
30
0
41
1
10
82.9651744837
20
43.26504221916
30
0
41
1
10
82.95761698635
20
43.26940554229
30
0
0
SPLINE
5
160
100
AcDbEntity
8
1
62
256
6
ByLayer
370
18
48
1
60
0
100
AcDbSpline
70
4
71
5
72
12
73
6
40
0
40
0
40
0
40
0
40
0
40
0
40
1
40
1
40
1
40
1
40
1
40
1
41
1
10
90
20
43.77499999833
30
0
41
1
10
89.9999130546
20
43.5167685966
30
0
41
1
10
89.8961489023
20
43.25805194597
30
0
41
1
10
89.686090443
20
43.05696471986
30
0
41
1
10
89.4230939055
20
42.964584388
30
0
41
1
10
89.1651044901
20
42.97576142273
30
0
0
SPLINE
5
161
100
AcDbEntity
8
1
62
256
6
ByLayer
370
18
48
1
60
0
100
AcDbSpline
70
4
71
5
72
12
73
6
40
0
40
0
40
0
40
0
40
0
40
0
40
1
40
1
40
1
40
1
40
1
40
1
41
1
10
90
20
50.22500000167
30
0
41
1
10
89.9999130546
20
50.4832314034
30
0
41
1
10
89.8961489023
20
50.74194805403
30
0
41
1
10
89.686090443
20
50.94303528014
30
0
41
1
10
89.4230939055
20
51.035415612
30
0
41
1
10
89.1651044901
20
51.02423857727
30
0
0
SPLINE
5
162
100
AcDbEntity
8
1
62
256
6
ByLayer
370
18
48
1
60
0
100
AcDbSpline
70
4
71
11
72
24
73
12
40
0
40
0
40
0
40
0
40
0
40
0
40
0
40
0
40
0
40
0
40
0
40
0
40
1
40
1
40
1
40
1
40
1
40
1
40
1
40
1
40
1
40
1
40
1
40
1
41
1
10
83.04889310891
20
50.75719902133
30
0
41
1
10
83.04017476842
20
50.75681837037
30
0
41
1
10
83.03147469806
20
50.75601926908
30
0
41
1
10
83.02281521336
20
50.75480269182
30
0
41
1
10
83.01421857155
20
50.75317095177
30
0
41
1
10
83.0057068797
20
50.75112769695
30
0
41
1
10
82.99730200313
20
50.74867789884
30
0
41
1
10
82.98902547498
20
50.7458278338
30
0
41
1
10
82.98089840746
20
50.74258505709
30
0
41
1
10
82.97294140554
20
50.73895837013
30
0
41
1
10
82.9651744837
20
50.73495778084
30
0
41
1
10
82.95761698635
20
50.73059445771
30
0
0
SPLINE
5
163
100
AcDbEntity
8
1
62
256
6
ByLayer
370
18
48
1
60
0
100
AcDbSpline
70
4
71
11
72
24
73
12
40
0
40
0
40
0
40
0
40
0
40
0
40
0
40
0
40
0
40
0
40
0
40
0
40
1
40
1
40
1
40
1
40
1
40
1
40
1
40
1
40
1
40
1
40
1
40
1
41
1
10
82.25821566957
20
50.32679491924
30
0
41
1
10
82.24997112695
20
50.32203493034
30
0
41
1
10
82.24147735207
20
50.31770662482
30
0
41
1
10
82.23275945903
20
50.31382450226
30
0
41
1
10
82.22384351111
20
50.31040141866
30
0
41
1
10
82.21475639771
20
50.30744851536
30
0
41
1
10
82.20552570516
20
50.30497515872
30
0
41
1
10
82.19617958246
20
50.30298889127
30
0
41
1
10
82.18674660322
20
50.30149539465
30
0
41
1
10
82.17725562497
20
50.3004984649
30
0
41
1
10
82.16773564724
20
50.30000000003
30
0
41
1
10
82.15821566951
20
50.30000000004
30
0
0
SPLINE
5
164
100
AcDbEntity
8
1
62
256
6
ByLayer
370
18
48
1
60
0
100
AcDbSpline
70
4
71
5
72
15
73
9
40
0
40
0
40
0
40
0
40
0
40
0
40
0.0074613573022446
40
0.0074613573022446
40
0.0074613573022446
40
1
40
1
40
1
40
1
40
1
40
1
41
1
10
86.4961060347578
20
44.5053339130553
30
0
41
1
10
86.4956209068597
20
44.505992630021
30
0
41
1
10
86.4951351973132
20
44.5066508388277
30
0
41
1
10
86.4946489078709
20
44.5073085406229
30
0
41
1
10
86.4293970251105
20
44.5953884884562
30
0
41
1
10
86.3537903458
20
44.67440418424
30
0
41
1
10
86.2734438481
20
44.74478114333
30
0
41
1
10
86.1881536441
20
44.80944748613
30
0
41
1
10
86.1008681941
20
44.86797937991
30
0
0
SPLINE
5
165
100
AcDbEntity
8
1
62
256
6
ByLayer
370
18
48
1
60
0
100
AcDbSpline
70
4
71
5
72
15
73
9
40
0
40
0
40
0
40
0
40
0
40
0
40
0.0074613572676361
40
0.0074613572676361
40
0.0074613572676361
40
1
40
1
40
1
40
1
40
1
40
1
41
1
10
86.4961060347464
20
49.4946660869294
30
0
41
1
10
86.4956209068507
20
49.4940073699667
30
0
41
1
10
86.4951351973064
20
49.4933491611631
30
0
41
1
10
86.4946489078664
20
49.492691459371
30
0
41
1
10
86.4293970251078
20
49.4046115115411
30
0
41
1
10
86.3537903458
20
49.32559581576
30
0
41
1
10
86.2734438481
20
49.25521885667
30
0
41
1
10
86.1881536441
20
49.19055251387
30
0
41
1
10
86.1008681941
20
49.13202062009
30
0
0
SPLINE
5
166
100
AcDbEntity
8
1
62
256
6
ByLayer
370
18
48
1
60
0
100
AcDbSpline
70
4
71
5
72
15
73
9
40
0
40
0
40
0
40
0
40
0
40
0
40
0.437068328965547
40
0.437068328965547
40
0.437068328965547
40
1
40
1
40
1
40
1
40
1
40
1
41
1
10
85.5310782149
20
45.51542561675
30
0
41
1
10
85.5311473805
20
45.45842590499
30
0
41
1
10
85.5416724572
20
45.40378902159
30
0
41
1
10
85.5621295952
20
45.3505501306
30
0
41
1
10
85.6227463326
20
45.23988513088
30
0
41
1
10
85.7078759745
20
45.14786873268
30
0
41
1
10
85.7591602355
20
45.10232603211
30
0
41
1
10
85.8146792816
20
45.05981580571
30
0
41
1
10
85.870586004
20
45.02240205625
30
0
0
SPLINE
5
167
100
AcDbEntity
8
1
62
256
6
ByLayer
370
18
48
1
60
0
100
AcDbSpline
70
4
71
5
72
15
73
9
40
0
40
0
40
0
40
0
40
0
40
0
40
0.437068328965547
40
0.437068328965547
40
0.437068328965547
40
1
40
1
40
1
40
1
40
1
40
1
41
1
10
85.5310782149
20
48.48457438325
30
0
41
1
10
85.5311473805
20
48.54157409501
30
0
41
1
10
85.5416724572
20
48.59621097841
30
0
41
1
10
85.5621295952
20
48.6494498694
30
0
41
1
10
85.6227463326
20
48.76011486912
30
0
41
1
10
85.7078759745
20
48.85213126732
30
0
41
1
10
85.7591602355
20
48.89767396789
30
0
41
1
10
85.8146792816
20
48.94018419429
30
0
41
1
10
85.870586004
20
48.97759794375
30
0
0
SPLINE
5
168
100
AcDbEntity
8
1
62
256
6
ByLayer
370
18
48
1
60
0
100
AcDbSpline
70
4
71
5
72
12
73
6
40
0
40
0
40
0
40
0
40
0
40
0
40
1
40
1
40
1
40
1
40
1
40
1
41
1
10
81.00022626063
20
47.270000000698
30
0
41
1
10
80.99021841521
20
47.270000000698
30
0
41
1
10
80.97914050042
20
47.270000000698
30
0
41
1
10
80.96730327683
20
47.270000000698
30
0
41
1
10
80.95508590949
20
47.270000000698
30
0
41
1
10
80.942868617
20
47.270000000698
30
0
0
SPLINE
5
169
100
AcDbEntity
8
1
62
256
6
ByLayer
370
18
48
1
60
0
100
AcDbSpline
70
4
71
5
72
12
73
6
40
0
40
0
40
0
40
0
40
0
40
0
40
1
40
1
40
1
40
1
40
1
40
1
41
1
10
81.00022626063
20
46.729999999302
30
0
41
1
10
80.99021841521
20
46.729999999302
30
0
41
1
10
80.97914050042
20
46.729999999302
30
0
41
1
10
80.96730327683
20
46.729999999302
30
0
41
1
10
80.95508590949
20
46.729999999302
30
0
41
1
10
80.942868617
20
46.729999999302
30
0
0
SPLINE
5
16A
100
AcDbEntity
8
1
62
256
6
ByLayer
370
18
48
1
60
0
100
AcDbSpline
70
4
71
5
72
12
73
6
40
0
40
0
40
0
40
0
40
0
40
0
40
1
40
1
40
1
40
1
40
1
40
1
41
1
10
80.94285699163
20
46.729999263956
30
0
41
1
10
80.9428261726168
20
46.6916885796991
30
0
41
1
10
80.9415985886775
20
46.6533702831294
30
0
41
1
10
80.9387793601911
20
46.6151617655998
30
0
41
1
10
80.9348460301949
20
46.5771108225703
30
0
41
1
10
80.9295212005385
20
46.5393363399886
30
0
0
SPLINE
5
16B
100
AcDbEntity
8
1
62
256
6
ByLayer
370
18
48
1
60
0
100
AcDbSpline
70
4
71
5
72
12
73
6
40
0
40
0
40
0
40
0
40
0
40
0
40
1
40
1
40
1
40
1
40
1
40
1
41
1
10
80.94285699163
20
47.270000736044
30
0
41
1
10
80.9428261726168
20
47.3083114203009
30
0
41
1
10
80.9415985886775
20
47.3466297168707
30
0
41
1
10
80.9387793601911
20
47.3848382344002
30
0
41
1
10
80.9348460301949
20
47.4228891774297
30
0
41
1
10
80.9295212005385
20
47.4606636600115
30
0
0
SPLINE
5
16C
100
AcDbEntity
8
1
62
256
6
ByLayer
370
13
48
1
60
0
100
AcDbSpline
70
4
71
3
72
26
73
22
40
0
40
0
40
0
40
0
40
0.0039953692450231
40
0.0081034076465887
40
0.0162182804968097
40
0.0320941361820948
40
0.062801469836055
40
0.122365117924774
40
0.179522955805298
40
0.243498148205753
40
0.359092368685239
40
0.494172294572763
40
0.539711050366918
40
0.587883177252668
40
0.638705922078244
40
0.69219396716011
40
0.748359904089085
40
0.80721460518057
40
0.868767517453251
40
0.933026897389473
40
1
40
1
40
1
40
1
41
1
10
80.9295211895393
20
47.460735586972
30
0
41
1
10
80.9293863298765
20
47.4613581257009
30
0
41
1
10
80.929112807517
20
47.4626207587109
30
0
41
1
10
80.9285584753096
20
47.4651439499968
30
0
41
1
10
80.9275095964269
20
47.4694905393641
30
0
41
1
10
80.9251720869229
20
47.4778547731923
30
0
41
1
10
80.9194723430199
20
47.4936377389122
30
0
41
1
10
80.9085460148373
20
47.5140059861304
30
0
41
1
10
80.891757316577
20
47.5361584351604
30
0
41
1
10
80.8667660451138
20
47.5619098210394
30
0
41
1
10
80.8294499192361
20
47.5905199839741
30
0
41
1
10
80.7913803637017
20
47.6117211732262
30
0
41
1
10
80.7610660075608
20
47.6256538622066
30
0
41
1
10
80.7416574957787
20
47.6337230286021
30
0
41
1
10
80.7209487177511
20
47.6414819352282
30
0
41
1
10
80.6989382297694
20
47.6488695727507
30
0
41
1
10
80.6756260589631
20
47.655820797722
30
0
41
1
10
80.6510126741645
20
47.6622741184038
30
0
41
1
10
80.6250951493225
20
47.6681421525687
30
0
41
1
10
80.5978847239504
20
47.6734311880068
30
0
41
1
10
80.5792385915716
20
47.6762634009972
30
0
41
1
10
80.5697227361
20
47.6777087907935
30
0
0
SPLINE
5
16D
100
AcDbEntity
8
1
62
256
6
ByLayer
370
18
48
1
60
0
100
AcDbSpline
70
4
71
5
72
12
73
6
40
0
40
0
40
0
40
0
40
0
40
0
40
1
40
1
40
1
40
1
40
1
40
1
41
1
10
80.98690181492
20
47.469801756436
30
0
41
1
10
80.9769253268473
20
47.4678253035987
30
0
41
1
10
80.9658576206838
20
47.4658491000705
30
0
41
1
10
80.9540144554111
20
47.4639364231952
30
0
41
1
10
80.9417826684554
20
47.4621531780755
30
0
41
1
10
80.9295503298061
20
47.4605500355024
30
0
0
SPLINE
5
16E
100
AcDbEntity
8
1
62
256
6
ByLayer
370
18
48
1
60
0
100
AcDbSpline
70
4
71
5
72
12
73
6
40
0
40
0
40
0
40
0
40
0
40
0
40
1
40
1
40
1
40
1
40
1
40
1
41
1
10
80.98690181492
20
46.530198243564
30
0
41
1
10
80.9769253268473
20
46.5321746964013
30
0
41
1
10
80.9658576206838
20
46.5341508999295
30
0
41
1
10
80.9540144554111
20
46.5360635768048
30
0
41
1
10
80.9417826684554
20
46.5378468219246
30
0
41
1
10
80.9295503298061
20
46.5394499644976
30
0
0
SPLINE
5
16F
100
AcDbEntity
8
1
62
256
6
ByLayer
370
13
48
1
60
0
100
AcDbSpline
70
4
71
5
72
12
73
6
40
0
40
0
40
0
40
0
40
0
40
0
40
1
40
1
40
1
40
1
40
1
40
1
41
1
10
80.9295233837883
20
46.539337142689
30
0
41
1
10
80.9135543748799
20
46.4520976691807
30
0
41
1
10
80.8229768257607
20
46.3909522242555
30
0
41
1
10
80.7482634085756
20
46.3611836888088
30
0
41
1
10
80.6576094695955
20
46.3340718715532
30
0
41
1
10
80.5697227361
20
46.322399547127
30
0
0
SPLINE
5
170
100
AcDbEntity
8
1
62
256
6
ByLayer
370
18
48
1
60
0
100
AcDbSpline
70
4
71
5
72
12
73
6
40
0
40
0
40
0
40
0
40
0
40
0
40
1
40
1
40
1
40
1
40
1
40
1
41
1
10
80.6269555849334
20
46.2263011578708
30
0
41
1
10
80.6233645409242
20
46.2527708458972
30
0
41
1
10
80.6146227484244
20
46.2792436461872
30
0
41
1
10
80.6012185476615
20
46.3016792391712
30
0
41
1
10
80.5854137535479
20
46.31629092588
30
0
41
1
10
80.56961955257
20
46.322267476332
30
0
0
SPLINE
5
171
100
AcDbEntity
8
1
62
256
6
ByLayer
370
13
48
1
60
0
100
AcDbSpline
70
4
71
5
72
12
73
6
40
0
40
0
40
0
40
0
40
0
40
0
40
1
40
1
40
1
40
1
40
1
40
1
41
1
10
80.35791328442
20
46.266914648241
30
0
41
1
10
80.39991139387
20
46.279919281998
30
0
41
1
10
80.44210329739
20
46.291936474904
30
0
41
1
10
80.48446695877
20
46.302989154613
30
0
41
1
10
80.5269797832
20
46.313094685179
30
0
41
1
10
80.56961955257
20
46.322267476332
30
0
0
SPLINE
5
172
100
AcDbEntity
8
1
62
256
6
ByLayer
370
13
48
1
60
0
100
AcDbSpline
70
4
71
5
72
12
73
6
40
0
40
0
40
0
40
0
40
0
40
0
40
1
40
1
40
1
40
1
40
1
40
1
41
1
10
80.35791328442
20
47.733085351759
30
0
41
1
10
80.39991139387
20
47.720080718002
30
0
41
1
10
80.44210329739
20
47.708063525096
30
0
41
1
10
80.48446695877
20
47.697010845387
30
0
41
1
10
80.5269797832
20
47.686905314821
30
0
41
1
10
80.56961955257
20
47.677732523668
30
0
0
SPLINE
5
173
100
AcDbEntity
8
1
62
256
6
ByLayer
370
18
48
1
60
0
100
AcDbSpline
70
4
71
5
72
12
73
6
40
0
40
0
40
0
40
0
40
0
40
0
40
1
40
1
40
1
40
1
40
1
40
1
41
1
10
80.6270803803304
20
47.7736737940091
30
0
41
1
10
80.6235088988332
20
47.7471835644654
30
0
41
1
10
80.614774529515
20
47.7206755442785
30
0
41
1
10
80.601362684879
20
47.6982050221121
30
0
41
1
10
80.5855419467944
20
47.6835758723839
30
0
41
1
10
80.5697310584347
20
47.6776035952293
30
0
0
SPLINE
5
174
100
AcDbEntity
8
1
62
256
6
ByLayer
370
18
48
1
60
0
100
AcDbSpline
70
4
71
5
72
12
73
6
40
0
40
0
40
0
40
0
40
0
40
0
40
1
40
1
40
1
40
1
40
1
40
1
41
1
10
80.41527092767
20
46.174478667238
30
0
41
1
10
80.41054245407
20
46.198861647923
30
0
41
1
10
80.40131669698
20
46.223255530018
30
0
41
1
10
80.38817991478
20
46.24442640222
30
0
41
1
10
80.37304321724
20
46.259294373099
30
0
41
1
10
80.35791328443
20
46.266914650637
30
0
0
SPLINE
5
175
100
AcDbEntity
8
1
62
256
6
ByLayer
370
18
48
1
60
0
100
AcDbSpline
70
4
71
5
72
12
73
6
40
0
40
0
40
0
40
0
40
0
40
0
40
1
40
1
40
1
40
1
40
1
40
1
41
1
10
80.35791328426
20
46.236112436513
30
0
41
1
10
80.35791328432
20
46.244240849104
30
0
41
1
10
80.35791328444
20
46.251543778486
30
0
41
1
10
80.35791328435
20
46.257840602755
30
0
41
1
10
80.35791328437
20
46.262991217963
30
0
41
1
10
80.35791328443
20
46.266914650637
30
0
0
SPLINE
5
176
100
AcDbEntity
8
1
62
256
6
ByLayer
370
18
48
1
60
0
100
AcDbSpline
70
4
71
5
72
12
73
6
40
0
40
0
40
0
40
0
40
0
40
0
40
1
40
1
40
1
40
1
40
1
40
1
41
1
10
80.35791328426
20
47.763887563487
30
0
41
1
10
80.35791328432
20
47.755759150896
30
0
41
1
10
80.35791328444
20
47.748456221514
30
0
41
1
10
80.35791328435
20
47.742159397245
30
0
41
1
10
80.35791328437
20
47.737008782037
30
0
41
1
10
80.35791328443
20
47.733085349363
30
0
0
SPLINE
5
177
100
AcDbEntity
8
1
62
256
6
ByLayer
370
18
48
1
60
0
100
AcDbSpline
70
4
71
5
72
12
73
6
40
0
40
0
40
0
40
0
40
0
40
0
40
1
40
1
40
1
40
1
40
1
40
1
41
1
10
80.41527092767
20
47.825521332762
30
0
41
1
10
80.41054245407
20
47.801138352077
30
0
41
1
10
80.40131669698
20
47.776744469982
30
0
41
1
10
80.38817991478
20
47.75557359778
30
0
41
1
10
80.37304321724
20
47.740705626901
30
0
41
1
10
80.35791328443
20
47.733085349363
30
0
0
SPLINE
5
178
100
AcDbEntity
8
1
62
256
6
ByLayer
370
18
48
1
60
0
100
AcDbSpline
70
4
71
5
72
12
73
6
40
0
40
0
40
0
40
0
40
0
40
0
40
1
40
1
40
1
40
1
40
1
40
1
41
1
10
80.41527092791
20
46.174478667203
30
0
41
1
10
80.4068488447
20
46.188508155574
30
0
41
1
10
80.39625805827
20
46.202538369833
30
0
41
1
10
80.38402621377
20
46.215682122169
30
0
41
1
10
80.37096941129
20
46.227062469818
30
0
41
1
10
80.35791328426
20
46.236112436513
30
0
0
SPLINE
5
179
100
AcDbEntity
8
1
62
256
6
ByLayer
370
18
48
1
60
0
100
AcDbSpline
70
4
71
5
72
12
73
6
40
0
40
0
40
0
40
0
40
0
40
0
40
1
40
1
40
1
40
1
40
1
40
1
41
1
10
80.41527092791
20
47.825521332797
30
0
41
1
10
80.4068488447
20
47.811491844426
30
0
41
1
10
80.39625805827
20
47.797461630167
30
0
41
1
10
80.38402621377
20
47.784317877831
30
0
41
1
10
80.37096941129
20
47.772937530182
30
0
41
1
10
80.35791328426
20
47.763887563487
30
0
0
SPLINE
5
17A
100
AcDbEntity
8
1
62
256
6
ByLayer
370
18
48
1
60
0
100
AcDbSpline
70
4
71
8
72
18
73
9
40
0
40
0
40
0
40
0
40
0
40
0
40
0
40
0
40
0
40
1
40
1
40
1
40
1
40
1
40
1
40
1
40
1
40
1
41
1
10
80.25532762777
20
46.14433511136
30
0
41
1
10
80.26348778272
20
46.138678830733
30
0
41
1
10
80.2716479373
20
46.132190107535
30
0
41
1
10
80.27966114147
20
46.124970801756
30
0
41
1
10
80.28738044356
20
46.117143760981
30
0
41
1
10
80.29466444815
20
46.108848970164
30
0
41
1
10
80.30138288168
20
46.100238367083
30
0
41
1
10
80.30742142068
20
46.091469857114
30
0
41
1
10
80.31268527141
20
46.082701347207
30
0
0
SPLINE
5
17B
100
AcDbEntity
8
1
62
256
6
ByLayer
370
18
48
1
60
0
100
AcDbSpline
70
4
71
5
72
12
73
6
40
0
40
0
40
0
40
0
40
0
40
0
40
1
40
1
40
1
40
1
40
1
40
1
41
1
10
80.2553276268
20
46.100066166532
30
0
41
1
10
80.25532762618
20
46.109708484516
30
0
41
1
10
80.25532762758
20
46.119142505453
30
0
41
1
10
80.25532762618
20
46.128175925205
30
0
41
1
10
80.25532762708
20
46.136624933434
30
0
41
1
10
80.25532762689
20
46.144335113804
30
0
0
SPLINE
5
17C
100
AcDbEntity
8
1
62
256
6
ByLayer
370
18
48
1
60
0
100
AcDbSpline
70
4
71
5
72
12
73
6
40
0
40
0
40
0
40
0
40
0
40
0
40
1
40
1
40
1
40
1
40
1
40
1
41
1
10
80.2553276268
20
47.899933833468
30
0
41
1
10
80.25532762618
20
47.890291515484
30
0
41
1
10
80.25532762758
20
47.880857494547
30
0
41
1
10
80.25532762618
20
47.871824074795
30
0
41
1
10
80.25532762708
20
47.863375066566
30
0
41
1
10
80.25532762689
20
47.855664886196
30
0
0
SPLINE
5
17D
100
AcDbEntity
8
1
62
256
6
ByLayer
370
18
48
1
60
0
100
AcDbSpline
70
4
71
8
72
18
73
9
40
0
40
0
40
0
40
0
40
0
40
0
40
0
40
0
40
0
40
1
40
1
40
1
40
1
40
1
40
1
40
1
40
1
40
1
41
1
10
80.25532762777
20
47.85566488864
30
0
41
1
10
80.26348778272
20
47.861321169267
30
0
41
1
10
80.2716479373
20
47.867809892465
30
0
41
1
10
80.27966114147
20
47.875029198244
30
0
41
1
10
80.28738044356
20
47.882856239019
30
0
41
1
10
80.29466444815
20
47.891151029836
30
0
41
1
10
80.30138288168
20
47.899761632917
30
0
41
1
10
80.30742142068
20
47.908530142886
30
0
41
1
10
80.31268527141
20
47.917298652793
30
0
0
SPLINE
5
17E
100
AcDbEntity
8
1
62
256
6
ByLayer
370
18
48
1
60
0
100
AcDbSpline
70
4
71
2
72
6
73
3
40
0
40
0
40
0
40
1
40
1
40
1
41
1
10
82.1117947579408
20
44.8741963764511
30
0
41
1
10
82.0447684892365
20
44.965349642733
30
0
41
1
10
81.9601210950061
20
45.0487683026
30
0
0
SPLINE
5
17F
100
AcDbEntity
8
1
62
256
6
ByLayer
370
18
48
1
60
0
100
AcDbSpline
70
4
71
5
72
12
73
6
40
0
40
0
40
0
40
0
40
0
40
0
40
1
40
1
40
1
40
1
40
1
40
1
41
1
10
81.58066632218
20
45.68790432486
30
0
41
1
10
81.58048682909
20
45.57194828782
30
0
41
1
10
81.6113312314
20
45.45675988848
30
0
41
1
10
81.66654446845
20
45.35798783366
30
0
41
1
10
81.7328341277
20
45.27258746406
30
0
41
1
10
81.80676334812
20
45.19983238521
30
0
0
SPLINE
5
180
100
AcDbEntity
8
1
62
256
6
ByLayer
370
18
48
1
60
0
100
AcDbSpline
70
4
71
5
72
12
73
6
40
0
40
0
40
0
40
0
40
0
40
0
40
1
40
1
40
1
40
1
40
1
40
1
41
1
10
81.58066632218
20
48.31209567514
30
0
41
1
10
81.58048682909
20
48.42805171218
30
0
41
1
10
81.6113312314
20
48.54324011152
30
0
41
1
10
81.66654446845
20
48.64201216634
30
0
41
1
10
81.7328341277
20
48.72741253594
30
0
41
1
10
81.80676334812
20
48.80016761479
30
0
0
SPLINE
5
181
100
AcDbEntity
8
1
62
256
6
ByLayer
370
18
48
1
60
0
100
AcDbSpline
70
4
71
3
72
20
73
16
40
0
40
0
40
0
40
0
40
0.0728250660510268
40
0.146312952644159
40
0.220469580917897
40
0.295300696636176
40
0.370811875032936
40
0.447008525573677
40
0.523895896630414
40
0.601479080064958
40
0.679763015719536
40
0.758752495810237
40
0.838452169223657
40
0.918866545713854
40
1
40
1
40
1
40
1
41
1
10
82.1117917666895
20
49.1258008417869
30
0
41
1
10
82.1083941607446
20
49.121213009694
30
0
41
1
10
82.1015680253948
20
49.1119955891524
30
0
41
1
10
82.0910940364158
20
49.0983173775686
30
0
41
1
10
82.0803904899994
20
49.084670838273
30
0
41
1
10
82.069443445031
20
49.0710736361913
30
0
41
1
10
82.0582566873241
20
49.0575239925039
30
0
41
1
10
82.0468291921897
20
49.0440254211128
30
0
41
1
10
82.0351612249318
20
49.0305800411005
30
0
41
1
10
82.0232527629703
20
49.0171902730705
30
0
41
1
10
82.0111036253389
20
49.0038588301807
30
0
41
1
10
81.9987145687938
20
48.9905870092672
30
0
41
1
10
81.98608271093
20
48.977381625749
30
0
41
1
10
81.973218959236
20
48.9642286519481
30
0
41
1
10
81.9644999863058
20
48.9555768524739
30
0
41
1
10
81.960121095
20
48.9512316973965
30
0
0
SPLINE
5
182
100
AcDbEntity
8
1
62
256
6
ByLayer
370
13
48
1
60
0
100
AcDbSpline
70
4
71
5
72
12
73
6
40
0
40
0
40
0
40
0
40
0
40
0
40
1
40
1
40
1
40
1
40
1
40
1
41
1
10
80.62697719621
20
47.773858693264
30
0
41
1
10
80.58435023177
20
47.782417390238
30
0
41
1
10
80.54184577374
20
47.791847016315
30
0
41
1
10
80.49948305591
20
47.802161901592
30
0
41
1
10
80.4572832651
20
47.813379562948
30
0
41
1
10
80.41527092836
20
47.825521332763
30
0
0
SPLINE
5
183
100
AcDbEntity
8
1
62
256
6
ByLayer
370
18
48
1
60
0
100
AcDbSpline
70
4
71
5
72
22
73
16
40
0
40
0
40
0
40
0
40
0
40
0
40
0.333333333333333
40
0.333333333333333
40
0.333333333333333
40
0.333333333333333
40
0.333333333333333
40
0.666666666666667
40
0.666666666666667
40
0.666666666666667
40
0.666666666666667
40
0.666666666666667
40
1
40
1
40
1
40
1
40
1
40
1
41
1
10
80.62708037975
20
47.773673794117
30
0
41
1
10
80.69394048968
20
47.761038542373
30
0
41
1
10
80.75956077285
20
47.737658572081
30
0
41
1
10
80.82376569857
20
47.706634754115
30
0
41
1
10
80.88250096524
20
47.663919300094
30
0
41
1
10
80.9290884251499
20
47.6035101433079
30
0
41
1
10
80.94093860435
20
47.588144220061
30
0
41
1
10
80.95188292131
20
47.571601770428
30
0
41
1
10
80.96161676176
20
47.553956244297
30
0
41
1
10
80.96987403676
20
47.535370950469
30
0
41
1
10
80.9763022793878
20
47.5157119059596
30
0
41
1
10
80.97920707521
20
47.506828372206
30
0
41
1
10
80.98183190399
20
47.497836677366
30
0
41
1
10
80.98402361099
20
47.488580013331
30
0
41
1
10
80.98557234072
20
47.479230968689
30
0
41
1
10
80.98690181511
20
47.469801756436
30
0
0
SPLINE
5
184
100
AcDbEntity
8
1
62
256
6
ByLayer
370
18
48
1
60
0
100
AcDbSpline
70
4
71
5
72
19
73
13
40
0
40
0
40
0
40
0
40
0
40
0
40
0.44522345479053
40
0.44522345479053
40
0.44522345479053
40
0.55477654520947
40
0.55477654520947
40
0.55477654520947
40
0.55477654520947
40
1
40
1
40
1
40
1
40
1
40
1
41
1
10
80.98690429806
20
47.46980586524
30
0
41
1
10
80.98955877067
20
47.450000089434
30
0
41
1
10
80.99184150192
20
47.430124268218
30
0
41
1
10
80.99383537624
20
47.410198280555
30
0
41
1
10
80.99592888491
20
47.385317689085
30
0
41
1
10
80.99751014375
20
47.360385347033
30
0
41
1
10
80.99780203956
20
47.355460018047
30
0
41
1
10
80.99807337586
20
47.350532960811
30
0
41
1
10
80.99905470334
20
47.330499760755
30
0
41
1
10
80.99966416951
20
47.315390221986
30
0
41
1
10
81.00003257604
20
47.300258475561
30
0
41
1
10
81.00018546629
20
47.28513145821
30
0
41
1
10
81.00021845637
20
47.270000771754
30
0
0
SPLINE
5
185
100
AcDbEntity
8
1
62
256
6
ByLayer
370
18
48
1
60
0
100
AcDbSpline
70
4
71
5
72
19
73
13
40
0
40
0
40
0
40
0
40
0
40
0
40
0.44522345479053
40
0.44522345479053
40
0.44522345479053
40
0.55477654520947
40
0.55477654520947
40
0.55477654520947
40
0.55477654520947
40
1
40
1
40
1
40
1
40
1
40
1
41
1
10
80.98690429806
20
46.53019413476
30
0
41
1
10
80.98955877067
20
46.549999910566
30
0
41
1
10
80.99184150192
20
46.569875731782
30
0
41
1
10
80.99383537624
20
46.589801719445
30
0
41
1
10
80.99592888491
20
46.614682310915
30
0
41
1
10
80.99751014375
20
46.639614652967
30
0
41
1
10
80.99780203956
20
46.644539981953
30
0
41
1
10
80.99807337586
20
46.649467039189
30
0
41
1
10
80.99905470334
20
46.669500239245
30
0
41
1
10
80.99966416951
20
46.684609778014
30
0
41
1
10
81.00003257604
20
46.699741524439
30
0
41
1
10
81.00018546629
20
46.71486854179
30
0
41
1
10
81.00021845637
20
46.729999228246
30
0
0
SPLINE
5
186
100
AcDbEntity
8
1
62
256
6
ByLayer
370
18
48
1
60
0
100
AcDbSpline
70
4
71
5
72
22
73
16
40
0
40
0
40
0
40
0
40
0
40
0
40
0.333333333333333
40
0.333333333333333
40
0.333333333333333
40
0.333333333333333
40
0.333333333333333
40
0.666666666666667
40
0.666666666666667
40
0.666666666666667
40
0.666666666666667
40
0.666666666666667
40
1
40
1
40
1
40
1
40
1
40
1
41
1
10
80.62708037975
20
46.226326205883
30
0
41
1
10
80.69394048968
20
46.238961457627
30
0
41
1
10
80.75956077285
20
46.262341427919
30
0
41
1
10
80.82376569857
20
46.293365245885
30
0
41
1
10
80.88250096524
20
46.336080699906
30
0
41
1
10
80.9290884251499
20
46.3964898566922
30
0
41
1
10
80.94093860435
20
46.411855779939
30
0
41
1
10
80.95188292131
20
46.428398229572
30
0
41
1
10
80.96161676176
20
46.446043755703
30
0
41
1
10
80.96987403676
20
46.464629049531
30
0
41
1
10
80.9763022793878
20
46.4842880940404
30
0
41
1
10
80.97920707521
20
46.493171627794
30
0
41
1
10
80.98183190399
20
46.502163322634
30
0
41
1
10
80.98402361099
20
46.511419986669
30
0
41
1
10
80.98557234072
20
46.520769031311
30
0
41
1
10
80.98690181511
20
46.530198243564
30
0
0
SPLINE
5
187
100
AcDbEntity
8
1
62
256
6
ByLayer
370
13
48
1
60
0
100
AcDbSpline
70
4
71
5
72
12
73
6
40
0
40
0
40
0
40
0
40
0
40
0
40
1
40
1
40
1
40
1
40
1
40
1
41
1
10
80.62697719621
20
46.226141306736
30
0
41
1
10
80.58435023177
20
46.217582609762
30
0
41
1
10
80.54184577374
20
46.208152983685
30
0
41
1
10
80.49948305591
20
46.197838098408
30
0
41
1
10
80.4572832651
20
46.186620437052
30
0
41
1
10
80.41527092836
20
46.174478667237
30
0
0
SPLINE
5
188
100
AcDbEntity
8
1
62
256
6
ByLayer
370
18
48
1
60
0
100
AcDbSpline
70
4
71
5
72
12
73
6
40
0
40
0
40
0
40
0
40
0
40
0
40
1
40
1
40
1
40
1
40
1
40
1
41
1
10
80.25532762775
20
47.899933833868
30
0
41
1
10
80.26760058831
20
47.902931242685
30
0
41
1
10
80.27987364203
20
47.906275668435
30
0
41
1
10
80.2917375973
20
47.909867425935
30
0
41
1
10
80.3027845514
20
47.913583064616
30
0
41
1
10
80.31268527138
20
47.917298651634
30
0
0
SPLINE
5
189
100
AcDbEntity
8
1
62
256
6
ByLayer
370
18
48
1
60
0
100
AcDbSpline
70
4
71
5
72
12
73
6
40
0
40
0
40
0
40
0
40
0
40
0
40
1
40
1
40
1
40
1
40
1
40
1
41
1
10
80.25532762775
20
46.100066166132
30
0
41
1
10
80.26760058831
20
46.097068757315
30
0
41
1
10
80.27987364203
20
46.093724331565
30
0
41
1
10
80.2917375973
20
46.090132574065
30
0
41
1
10
80.3027845514
20
46.086416935384
30
0
41
1
10
80.31268527138
20
46.082701348366
30
0
0
SPLINE
5
18A
100
AcDbEntity
8
1
62
256
6
ByLayer
370
18
48
1
60
0
100
AcDbSpline
70
4
71
5
72
12
73
6
40
0
40
0
40
0
40
0
40
0
40
0
40
1
40
1
40
1
40
1
40
1
40
1
41
1
10
79.9511014917
20
49.10803841846
30
0
41
1
10
79.96337398982
20
49.1110357289
30
0
41
1
10
79.9756464632
20
49.11438002412
30
0
41
1
10
79.98750994804
20
49.1179716622
30
0
41
1
10
79.99855637966
20
49.12168709548
30
0
41
1
10
80.00845663571
20
49.12540251957
30
0
0
SPLINE
5
18B
100
AcDbEntity
8
1
62
256
6
ByLayer
370
18
48
1
60
0
100
AcDbSpline
70
4
71
5
72
12
73
6
40
0
40
0
40
0
40
0
40
0
40
0
40
1
40
1
40
1
40
1
40
1
40
1
41
1
10
79.9511014917
20
44.89196158154
30
0
41
1
10
79.96337398982
20
44.8889642711
30
0
41
1
10
79.9756464632
20
44.88561997588
30
0
41
1
10
79.98750994804
20
44.8820283378
30
0
41
1
10
79.99855637966
20
44.87831290452
30
0
41
1
10
80.00845663571
20
44.87459748043
30
0
0
SPLINE
5
18C
100
AcDbEntity
8
1
62
256
6
ByLayer
370
13
48
1
60
0
100
AcDbSpline
70
4
71
5
72
12
73
6
40
0
40
0
40
0
40
0
40
0
40
0
40
1
40
1
40
1
40
1
40
1
40
1
41
1
10
80.0084088156964
20
49.1263302262779
30
0
41
1
10
80.4290864162273
20
49.1263945833403
30
0
41
1
10
80.8497640173488
20
49.126453290544
30
0
41
1
10
81.2704416186896
20
49.1265084468365
30
0
41
1
10
81.6911192202488
20
49.1265605419758
30
0
41
1
10
82.1117968220425
20
49.1266100473512
30
0
0
SPLINE
5
18D
100
AcDbEntity
8
1
62
256
6
ByLayer
370
18
48
1
60
0
100
AcDbSpline
70
4
71
3
72
28
73
24
40
0
40
0
40
0
40
0
40
0.0551217751833715
40
0.109310996195864
40
0.162590498173976
40
0.214984306375693
40
0.266517685330431
40
0.317217186271408
40
0.367110691993167
40
0.416227458147408
40
0.464598149886543
40
0.512254872642561
40
0.55923119573596
40
0.605562167442786
40
0.651284320092007
40
0.696435663775999
40
0.741055667297358
40
0.785185225091115
40
0.828866609030788
40
0.872143404282206
40
0.915060428682776
40
0.957663635517051
40
1
40
1
40
1
40
1
41
1
10
82.1118042712702
20
49.1257939153768
30
0
41
1
10
82.1138867932281
20
49.1286810116075
30
0
41
1
10
82.1180166048871
20
49.1344063599666
30
0
41
1
10
82.1238892635644
20
49.1431091148241
30
0
41
1
10
82.1294560220581
20
49.1518002355525
30
0
41
1
10
82.1346986019245
20
49.1604910009725
30
0
41
1
10
82.1396217550345
20
49.1691761688955
30
0
41
1
10
82.1442242336713
20
49.1778548114878
30
0
41
1
10
82.148506375089
20
49.1865248717455
30
0
41
1
10
82.1524681191704
20
49.1951845862983
30
0
41
1
10
82.1561095265836
20
49.2038321135224
30
0
41
1
10
82.1594306433349
20
49.2124656308532
30
0
41
1
10
82.1624315358917
20
49.2210833093378
30
0
41
1
10
82.1651122834762
20
49.2296833202467
30
0
41
1
10
82.1674729753803
20
49.2382638334159
30
0
41
1
10
82.1695137301168
20
49.246823017243
30
0
41
1
10
82.1712346245771
20
49.2553590401677
30
0
41
1
10
82.1726359563593
20
49.2638700648819
30
0
41
1
10
82.1737172827428
20
49.2723542699887
30
0
41
1
10
82.1744809569316
20
49.2808097709954
30
0
41
1
10
82.1749191116496
20
49.2892349123316
30
0
41
1
10
82.1750616552605
20
49.2976271923638
30
0
41
1
10
82.1748860918605
20
49.3032160122435
30
0
41
1
10
82.1747985859316
20
49.3060016433903
30
0
0
SPLINE
5
18E
100
AcDbEntity
8
1
62
256
6
ByLayer
370
18
48
1
60
0
100
AcDbSpline
70
4
71
5
72
12
73
6
40
0
40
0
40
0
40
0
40
0
40
0
40
1
40
1
40
1
40
1
40
1
40
1
41
1
10
82.1748287842856
20
49.3060034977511
30
0
41
1
10
82.1615679046649
20
49.3301039195294
30
0
41
1
10
82.1464012244671
20
49.35323727702
30
0
41
1
10
82.1296209845735
20
49.3752817798587
30
0
41
1
10
82.1115638290925
20
49.3961666901563
30
0
41
1
10
82.09257589514
20
49.415877082
30
0
0
SPLINE
5
18F
100
AcDbEntity
8
1
62
256
6
ByLayer
370
13
48
1
60
0
100
AcDbSpline
70
4
71
3
72
36
73
32
40
0
40
0
40
0
40
0
40
0.0398968292396307
40
0.0793541845671449
40
0.11837672529014
40
0.156969269095001
40
0.195136797122256
40
0.232884459176923
40
0.270217579058548
40
0.307141659992205
40
0.343662390140558
40
0.379785648174529
40
0.415517508877596
40
0.450864248755323
40
0.48583235161941
40
0.520428514111971
40
0.55465965113358
40
0.588532901132901
40
0.622055631216004
40
0.655235442025618
40
0.688080172341414
40
0.720597903345913
40
0.752796962499203
40
0.784685926962403
40
0.816273626506504
40
0.847569145842168
40
0.878581826304503
40
0.909321266824343
40
0.939797324119602
40
0.970020112039919
40
1
40
1
40
1
40
1
41
1
10
79.8313737783527
20
49.4158705599318
30
0
41
1
10
79.8347186479685
20
49.4127021058936
30
0
41
1
10
79.8413715425947
20
49.4064000991594
30
0
41
1
10
79.8510830786205
20
49.3967818588828
30
0
41
1
10
79.8605267940268
20
49.387113484122
30
0
41
1
10
79.8696879010618
20
49.3773833659378
30
0
41
1
10
79.8785702255633
20
49.3675993644428
30
0
41
1
10
79.8871727435977
20
49.3577641765299
30
0
41
1
10
79.8954957636947
20
49.3478818253971
30
0
41
1
10
79.9035392966122
20
49.3379559486393
30
0
41
1
10
79.9113034839373
20
49.3279902477401
30
0
41
1
10
79.9187884841159
20
49.3179883680183
30
0
41
1
10
79.9259945014791
20
49.3079539287365
30
0
41
1
10
79.9329217775883
20
49.2978905136952
30
0
41
1
10
79.9395705925184
20
49.2878016723012
30
0
41
1
10
79.9459412635285
20
49.2776909179344
30
0
41
1
10
79.9520341444266
20
49.2675617270853
30
0
41
1
10
79.9578496247663
20
49.2574175383469
30
0
41
1
10
79.9633881290682
20
49.2472617514967
30
0
41
1
10
79.9686501161429
20
49.2370977266299
30
0
41
1
10
79.9736360780321
20
49.2269287832618
30
0
41
1
10
79.9783465403945
20
49.2167581997528
30
0
41
1
10
79.9827820576178
20
49.206589211742
30
0
41
1
10
79.9869432273575
20
49.1964250144155
30
0
41
1
10
79.9908306336609
20
49.1862687508581
30
0
41
1
10
79.9944450528947
20
49.1761235517923
30
0
41
1
10
79.9977866924656
20
49.1659923863585
30
0
41
1
10
80.0008579905444
20
49.1558786087587
30
0
41
1
10
80.0036533008079
20
49.1457839422264
30
0
41
1
10
80.006196896912
20
49.1357159048464
30
0
41
1
10
80.0076733373255
20
49.1289858964912
30
0
41
1
10
80.0084085790325
20
49.1256344691085
30
0
0
SPLINE
5
190
100
AcDbEntity
8
1
62
256
6
ByLayer
370
13
48
1
60
0
100
AcDbSpline
70
4
71
5
72
12
73
6
40
0
40
0
40
0
40
0
40
0
40
0
40
1
40
1
40
1
40
1
40
1
40
1
41
1
10
79.83136632335
20
44.58412370903
30
0
41
1
10
79.881265342052
20
44.630874110944
30
0
41
1
10
79.9263392270177
20
44.683151766188
30
0
41
1
10
79.9652263636056
20
44.7411602486306
30
0
41
1
10
79.9940789533698
20
44.8061191358948
30
0
41
1
10
80.0084079833223
20
44.8743654237634
30
0
0
SPLINE
5
191
100
AcDbEntity
8
1
62
256
6
ByLayer
370
18
48
1
60
0
100
AcDbSpline
70
4
71
5
72
12
73
6
40
0
40
0
40
0
40
0
40
0
40
0
40
1
40
1
40
1
40
1
40
1
40
1
41
1
10
82.1748287842856
20
44.6939965022489
30
0
41
1
10
82.1615679046649
20
44.6698960804706
30
0
41
1
10
82.1464012244671
20
44.64676272298
30
0
41
1
10
82.1296209845735
20
44.6247182201413
30
0
41
1
10
82.1115638290925
20
44.6038333098437
30
0
41
1
10
82.09257589514
20
44.584122918
30
0
0
SPLINE
5
192
100
AcDbEntity
8
1
62
256
6
ByLayer
370
18
48
1
60
0
100
AcDbSpline
70
4
71
3
72
27
73
23
40
0
40
0
40
0
40
0
40
0.0578302361331618
40
0.114602197772168
40
0.170346760507083
40
0.225096554752474
40
0.278886038038908
40
0.331751562498434
40
0.383731435667026
40
0.434865972492654
40
0.485197536229043
40
0.534770565726621
40
0.583631586522678
40
0.631829203110741
40
0.679414069851178
40
0.726438838202716
40
0.77295807831442
40
0.81902817354015
40
0.864707187116048
40
0.910054701061608
40
0.955131628300907
40
1
40
1
40
1
40
1
41
1
10
82.1118040765449
20
44.8742061260302
30
0
41
1
10
82.1139869898821
20
44.8711767609156
30
0
41
1
10
82.1183128699529
20
44.8651734670818
30
0
41
1
10
82.1244505025812
20
44.8560478487751
30
0
41
1
10
82.1302512492831
20
44.8469411418398
30
0
41
1
10
82.1356954590231
20
44.837840041192
30
0
41
1
10
82.1407882333476
20
44.828749011278
30
0
41
1
10
82.145528215493
20
44.8196678732979
30
0
41
1
10
82.1499157292724
20
44.8105976505222
30
0
41
1
10
82.1539506555415
20
44.8015390439621
30
0
41
1
10
82.157632986625
20
44.7924928310429
30
0
41
1
10
82.1609626812495
20
44.7834597623146
30
0
41
1
10
82.1639397042815
20
44.774440589388
30
0
41
1
10
82.1665640114612
20
44.7654360584382
30
0
41
1
10
82.1688355739849
20
44.7564469132251
30
0
41
1
10
82.1707543005185
20
44.7474738935937
30
0
41
1
10
82.1723203250338
20
44.7385177421505
30
0
41
1
10
82.1735329549184
20
44.7295791823819
30
0
41
1
10
82.1743945472557
20
44.7206590003893
30
0
41
1
10
82.1748962252384
20
44.7117577438299
30
0
41
1
10
82.1750706392162
20
44.7028768327699
30
0
41
1
10
82.1748876897488
20
44.6969576105564
30
0
41
1
10
82.1747964271169
20
44.6940048618794
30
0
0
SPLINE
5
193
100
AcDbEntity
8
1
62
256
6
ByLayer
370
13
48
1
60
0
100
AcDbSpline
70
4
71
5
72
12
73
6
40
0
40
0
40
0
40
0
40
0
40
0
40
1
40
1
40
1
40
1
40
1
40
1
41
1
10
80.0084088156938
20
44.873669773722
30
0
41
1
10
80.4290864162249
20
44.8736054166597
30
0
41
1
10
80.8497640173466
20
44.873546709456
30
0
41
1
10
81.2704416186876
20
44.8734915531635
30
0
41
1
10
81.6911192202471
20
44.8734394580242
30
0
41
1
10
82.111796822041
20
44.8733899526488
30
0
0
SPLINE
5
194
100
AcDbEntity
8
1
62
256
6
ByLayer
370
13
48
1
60
0
100
AcDbSpline
70
4
71
5
72
12
73
6
40
0
40
0
40
0
40
0
40
0
40
0
40
1
40
1
40
1
40
1
40
1
40
1
41
1
10
79.95109915869
20
49.10803784867
30
0
41
1
10
79.93679778226
20
49.16495626459
30
0
41
1
10
79.90888514454
20
49.21913591199
30
0
41
1
10
79.87162932108
20
49.26751774382
30
0
41
1
10
79.8286349824
20
49.31111366156
30
0
41
1
10
79.78117848899
20
49.35009932235
30
0
0
SPLINE
5
195
100
AcDbEntity
8
1
62
256
6
ByLayer
370
13
48
1
60
0
100
AcDbSpline
70
4
71
5
72
12
73
6
40
0
40
0
40
0
40
0
40
0
40
0
40
1
40
1
40
1
40
1
40
1
40
1
41
1
10
79.95109915869
20
44.89196215133
30
0
41
1
10
79.93679778226
20
44.83504373541
30
0
41
1
10
79.90888514454
20
44.78086408801
30
0
41
1
10
79.87162932108
20
44.73248225618
30
0
41
1
10
79.8286349824
20
44.68888633844
30
0
41
1
10
79.78117848899
20
44.64990067765
30
0
0
SPLINE
5
196
100
AcDbEntity
8
1
62
256
6
ByLayer
370
13
48
1
60
0
100
AcDbSpline
70
4
71
5
72
12
73
6
40
0
40
0
40
0
40
0
40
0
40
0
40
1
40
1
40
1
40
1
40
1
40
1
41
1
10
79.7811868211121
20
44.6498901033564
30
0
41
1
10
79.6955317993418
20
44.579463178399
30
0
41
1
10
79.6156791467942
20
44.501817103379
30
0
41
1
10
79.5436183128688
20
44.4160667338968
30
0
41
1
10
79.4829014338881
20
44.3205854687127
30
0
41
1
10
79.440412378842
20
44.2172304132649
30
0
0
SPLINE
5
197
100
AcDbEntity
8
1
62
256
6
ByLayer
370
18
48
1
60
0
100
AcDbSpline
70
4
71
5
72
12
73
6
40
0
40
0
40
0
40
0
40
0
40
0
40
1
40
1
40
1
40
1
40
1
40
1
41
1
10
79.78118719384
20
44.64989040982
30
0
41
1
10
79.7927188692
20
44.63628578231
30
0
41
1
10
79.80425075487
20
44.6219783969
30
0
41
1
10
79.8150033301
20
44.60788588208
30
0
41
1
10
79.82420425165
20
44.59502050311
30
0
41
1
10
79.83137456607
20
44.58411396425
30
0
0
SPLINE
5
198
100
AcDbEntity
8
1
62
256
6
ByLayer
370
18
48
1
60
0
100
AcDbSpline
70
4
71
5
72
12
73
6
40
0
40
0
40
0
40
0
40
0
40
0
40
1
40
1
40
1
40
1
40
1
40
1
41
1
10
79.78118719384
20
49.35010959018
30
0
41
1
10
79.7927188692
20
49.36371421769
30
0
41
1
10
79.80425075487
20
49.3780216031
30
0
41
1
10
79.8150033301
20
49.39211411792
30
0
41
1
10
79.82420425165
20
49.40497949689
30
0
41
1
10
79.83137456607
20
49.41588603575
30
0
0
SPLINE
5
199
100
AcDbEntity
8
1
62
256
6
ByLayer
370
13
48
1
60
0
100
AcDbSpline
70
4
71
5
72
12
73
6
40
0
40
0
40
0
40
0
40
0
40
0
40
1
40
1
40
1
40
1
40
1
40
1
41
1
10
79.7811868211121
20
49.3501098966436
30
0
41
1
10
79.6955317993418
20
49.420536821601
30
0
41
1
10
79.6156791467942
20
49.498182896621
30
0
41
1
10
79.5436183128688
20
49.5839332661032
30
0
41
1
10
79.4829014338881
20
49.6794145312873
30
0
41
1
10
79.440412378842
20
49.7827695867351
30
0
0
SPLINE
5
19A
100
AcDbEntity
8
1
62
256
6
ByLayer
370
13
48
1
60
0
100
AcDbSpline
70
4
71
5
72
12
73
6
40
0
40
0
40
0
40
0
40
0
40
0
40
1
40
1
40
1
40
1
40
1
40
1
41
1
10
79.43573302729
20
44.18250226679
30
0
41
1
10
79.4479222892847
20
44.1809038711218
30
0
41
1
10
79.4601116312688
20
44.1793054650203
30
0
41
1
10
79.4719169401093
20
44.1777574177555
30
0
41
1
10
79.4829552308225
20
44.1763099507154
30
0
41
1
10
79.4929133358171
20
44.1750041299892
30
0
0
SPLINE
5
19B
100
AcDbEntity
8
1
62
256
6
ByLayer
370
18
48
1
60
0
100
AcDbSpline
70
4
71
5
72
12
73
6
40
0
40
0
40
0
40
0
40
0
40
0
40
1
40
1
40
1
40
1
40
1
40
1
41
1
10
79.49754184198
20
44.19078825924
30
0
41
1
10
79.48784748179
20
44.19607091623
30
0
41
1
10
79.47689454875
20
44.20155362061
30
0
41
1
10
79.46503823438
20
44.20704241528
30
0
41
1
10
79.45272963975
20
44.21232846593
30
0
41
1
10
79.44042107339
20
44.21723190396
30
0
0
SPLINE
5
19C
100
AcDbEntity
8
1
62
256
6
ByLayer
370
18
48
1
60
0
100
AcDbSpline
70
4
71
5
72
12
73
6
40
0
40
0
40
0
40
0
40
0
40
0
40
1
40
1
40
1
40
1
40
1
40
1
41
1
10
79.49754184198
20
49.80921174076
30
0
41
1
10
79.48784748179
20
49.80392908377
30
0
41
1
10
79.47689454875
20
49.79844637939
30
0
41
1
10
79.46503823438
20
49.79295758472
30
0
41
1
10
79.45272963975
20
49.78767153407
30
0
41
1
10
79.44042107339
20
49.78276809604
30
0
0
SPLINE
5
19D
100
AcDbEntity
8
1
62
256
6
ByLayer
370
13
48
1
60
0
100
AcDbSpline
70
4
71
5
72
12
73
6
40
0
40
0
40
0
40
0
40
0
40
0
40
1
40
1
40
1
40
1
40
1
40
1
41
1
10
79.4357330272908
20
49.8174977332101
30
0
41
1
10
79.4479215087867
20
49.8190961056069
30
0
41
1
10
79.4601096226958
20
49.8206944297609
30
0
41
1
10
79.4719133648688
20
49.8222423297828
30
0
41
1
10
79.4829498836545
20
49.8236895817838
30
0
41
1
10
79.4929061514645
20
49.8249951173544
30
0
0
SPLINE
5
19E
100
AcDbEntity
8
1
62
256
6
ByLayer
370
18
48
1
60
0
100
AcDbSpline
70
4
71
8
72
18
73
9
40
0
40
0
40
0
40
0
40
0
40
0
40
0
40
0
40
0
40
1
40
1
40
1
40
1
40
1
40
1
40
1
40
1
40
1
41
1
10
79.4876889785
20
43.7
30
0
41
1
10
79.48143408468
20
43.7
30
0
41
1
10
79.47479698803
20
43.7
30
0
41
1
10
79.4678332608
20
43.7
30
0
41
1
10
79.46060322996
20
43.7
30
0
41
1
10
79.4531709396
20
43.7
30
0
41
1
10
79.44560296585
20
43.7
30
0
41
1
10
79.43796715035
20
43.7
30
0
41
1
10
79.43033133486
20
43.7
30
0
0
SPLINE
5
19F
100
AcDbEntity
8
1
62
256
6
ByLayer
370
13
48
1
60
0
100
AcDbSpline
70
4
71
3
72
10
73
6
40
0
40
0
40
0
40
0
40
0.5
40
0.5
40
1
40
1
40
1
40
1
41
1
10
79.4876889784984
20
44.10001270187
30
0
41
1
10
79.4793549893033
20
44.1000129203657
30
0
41
1
10
79.4701247987167
20
44.1000131388615
30
0
41
1
10
79.4507200302182
20
44.1000135758531
30
0
41
1
10
79.4405482465792
20
44.1000137943488
30
0
41
1
10
79.4303743252867
20
44.1000140128446
30
0
0
SPLINE
5
1A0
100
AcDbEntity
8
1
62
256
6
ByLayer
370
18
48
1
60
0
100
AcDbSpline
70
4
71
8
72
18
73
9
40
0
40
0
40
0
40
0
40
0
40
0
40
0
40
0
40
0
40
1
40
1
40
1
40
1
40
1
40
1
40
1
40
1
40
1
41
1
10
70.5123110215
20
43.7
30
0
41
1
10
70.51856591532
20
43.7
30
0
41
1
10
70.52520301197
20
43.7
30
0
41
1
10
70.5321667392
20
43.7
30
0
41
1
10
70.53939677004
20
43.7
30
0
41
1
10
70.5468290604
20
43.7
30
0
41
1
10
70.55439703415
20
43.7
30
0
41
1
10
70.56203284965
20
43.7
30
0
41
1
10
70.56966866514
20
43.7
30
0
0
SPLINE
5
1A1
100
AcDbEntity
8
1
62
256
6
ByLayer
370
18
48
1
60
0
100
AcDbSpline
70
4
71
8
72
18
73
9
40
0
40
0
40
0
40
0
40
0
40
0
40
0
40
0
40
0
40
1
40
1
40
1
40
1
40
1
40
1
40
1
40
1
40
1
41
1
10
70.5123110215
20
50.3
30
0
41
1
10
70.51856591532
20
50.3
30
0
41
1
10
70.52520301197
20
50.3
30
0
41
1
10
70.5321667392
20
50.3
30
0
41
1
10
70.53939677004
20
50.3
30
0
41
1
10
70.5468290604
20
50.3
30
0
41
1
10
70.55439703415
20
50.3
30
0
41
1
10
70.56203284965
20
50.3
30
0
41
1
10
70.56966866514
20
50.3
30
0
0
SPLINE
5
1A2
100
AcDbEntity
8
1
62
256
6
ByLayer
370
13
48
1
60
0
100
AcDbSpline
70
4
71
5
72
12
73
6
40
0
40
0
40
0
40
0
40
0
40
0
40
1
40
1
40
1
40
1
40
1
40
1
41
1
10
79.4877018288364
20
49.8999872603814
30
0
41
1
10
79.477697754055
20
49.8999868913062
30
0
41
1
10
79.4666251879979
20
49.8999866088287
30
0
41
1
10
79.4547945631077
20
49.8999863832916
30
0
41
1
10
79.4425844057222
20
49.8999861854913
30
0
41
1
10
79.430374325298
20
49.899985987651
30
0
0
SPLINE
5
1A3
100
AcDbEntity
8
1
62
256
6
ByLayer
370
18
48
1
60
0
100
AcDbSpline
70
4
71
8
72
18
73
9
40
0
40
0
40
0
40
0
40
0
40
0
40
0
40
0
40
0
40
1
40
1
40
1
40
1
40
1
40
1
40
1
40
1
40
1
41
1
10
79.4876889785
20
50.3
30
0
41
1
10
79.48143408468
20
50.3
30
0
41
1
10
79.47479698803
20
50.3
30
0
41
1
10
79.4678332608
20
50.3
30
0
41
1
10
79.46060322996
20
50.3
30
0
41
1
10
79.4531709396
20
50.3
30
0
41
1
10
79.44560296585
20
50.3
30
0
41
1
10
79.43796715035
20
50.3
30
0
41
1
10
79.43033133486
20
50.3
30
0
0
SPLINE
5
1A4
100
AcDbEntity
8
1
62
256
6
ByLayer
370
13
48
1
60
0
100
AcDbSpline
70
4
71
5
72
12
73
6
40
0
40
0
40
0
40
0
40
0
40
0
40
1
40
1
40
1
40
1
40
1
40
1
41
1
10
79.4357091738559
20
49.8174960031468
30
0
41
1
10
79.433551236202
20
49.8339022407207
30
0
41
1
10
79.4319254699008
20
49.8503816358121
30
0
41
1
10
79.4308461574982
20
49.8669089979261
30
0
41
1
10
79.4303257658732
20
49.8834550768133
30
0
41
1
10
79.4303743252963
20
49.8999859870851
30
0
0
SPLINE
5
1A5
100
AcDbEntity
8
1
62
256
6
ByLayer
370
18
48
1
60
0
100
AcDbSpline
70
4
71
5
72
12
73
6
40
0
40
0
40
0
40
0
40
0
40
0
40
1
40
1
40
1
40
1
40
1
40
1
41
1
10
79.4404205480075
20
44.2172293458047
30
0
41
1
10
79.4390233464929
20
44.2104260153571
30
0
41
1
10
79.4378454735756
20
44.20352452876
30
0
41
1
10
79.4368998119326
20
44.1965526583477
30
0
41
1
10
79.4361942166871
20
44.1895363843219
30
0
41
1
10
79.43573302729
20
44.18250226679
30
0
0
SPLINE
5
1A6
100
AcDbEntity
8
1
62
256
6
ByLayer
370
18
48
1
60
0
100
AcDbSpline
70
4
71
5
72
12
73
6
40
0
40
0
40
0
40
0
40
0
40
0
40
1
40
1
40
1
40
1
40
1
40
1
41
1
10
79.4404205480075
20
49.7827706541953
30
0
41
1
10
79.4390233464929
20
49.7895739846429
30
0
41
1
10
79.4378454735756
20
49.79647547124
30
0
41
1
10
79.4368998119326
20
49.8034473416523
30
0
41
1
10
79.4361942166871
20
49.8104636156781
30
0
41
1
10
79.43573302729
20
49.81749773321
30
0
0
SPLINE
5
1A7
100
AcDbEntity
8
1
62
256
6
ByLayer
370
13
48
1
60
0
100
AcDbSpline
70
4
71
5
72
12
73
6
40
0
40
0
40
0
40
0
40
0
40
0
40
1
40
1
40
1
40
1
40
1
40
1
41
1
10
79.4357091738559
20
44.1825039968532
30
0
41
1
10
79.433551236202
20
44.1660977592793
30
0
41
1
10
79.4319254699008
20
44.1496183641879
30
0
41
1
10
79.4308461574982
20
44.1330910020739
30
0
41
1
10
79.4303257658732
20
44.1165449231867
30
0
41
1
10
79.4303743252963
20
44.1000140129149
30
0
0
SPLINE
5
1A8
100
AcDbEntity
8
1
62
256
6
ByLayer
370
13
48
1
60
0
100
AcDbSpline
70
4
71
5
72
12
73
6
40
0
40
0
40
0
40
0
40
0
40
0
40
1
40
1
40
1
40
1
40
1
40
1
41
1
10
79.4975309728911
20
44.1907937337898
30
0
41
1
10
79.5395278821963
20
44.284752010167
30
0
41
1
10
79.5991475440502
20
44.3715523560844
30
0
41
1
10
79.6696982989646
20
44.4495065929123
30
0
41
1
10
79.747746623697
20
44.5200933798171
30
0
41
1
10
79.8313692912784
20
44.5841173737998
30
0
0
SPLINE
5
1A9
100
AcDbEntity
8
1
62
256
6
ByLayer
370
18
48
1
60
0
100
AcDbSpline
70
4
71
5
72
12
73
6
40
0
40
0
40
0
40
0
40
0
40
0
40
1
40
1
40
1
40
1
40
1
40
1
41
1
10
79.4975418334
20
44.19078826391
30
0
41
1
10
79.49627727087
20
44.18777287907
30
0
41
1
10
79.49506814699
20
44.18474081027
30
0
41
1
10
79.49409293678
20
44.18154137222
30
0
41
1
10
79.49348559577
20
44.17829670126
30
0
41
1
10
79.49293267505
20
44.17502751382
30
0
0
SPLINE
5
1AA
100
AcDbEntity
8
1
62
256
6
ByLayer
370
13
48
1
60
0
100
AcDbSpline
70
4
71
5
72
12
73
6
40
0
40
0
40
0
40
0
40
0
40
0
40
1
40
1
40
1
40
1
40
1
40
1
41
1
10
79.48773068322
20
44.1000127008
30
0
41
1
10
79.4876835659139
20
44.1150436981375
30
0
41
1
10
79.4881885962297
20
44.1300884905265
30
0
41
1
10
79.4892360382308
20
44.1451162552293
30
0
41
1
10
79.4908137904746
20
44.1601003865419
30
0
41
1
10
79.4929079888699
20
44.1750179721735
30
0
0
SPLINE
5
1AB
100
AcDbEntity
8
1
62
256
6
ByLayer
370
18
48
1
60
0
100
AcDbSpline
70
4
71
2
72
8
73
5
40
0
40
0
40
0
40
0.5
40
0.5
40
1
40
1
40
1
41
1
10
82.0925820305357
20
44.5841174072243
30
0
41
1
10
81.9909470863661
20
44.4786593170134
30
0
41
1
10
81.935781544502
20
44.3624778668386
30
0
41
1
10
81.8745164040192
20
44.233450350278
30
0
41
1
10
81.87464504559
20
44.1
30
0
0
SPLINE
5
1AC
100
AcDbEntity
8
1
62
256
6
ByLayer
370
18
48
1
60
0
100
AcDbSpline
70
4
71
3
72
47
73
43
40
0
40
0
40
0
40
0
40
0.0287631811385695
40
0.0572730386984827
40
0.0855333248621521
40
0.113547892092554
40
0.141320695106471
40
0.168855792790724
40
0.196157350050401
40
0.223229639577078
40
0.250077043524517
40
0.276704055078757
40
0.303115279908231
40
0.329315437479636
40
0.355309362224301
40
0.381102004539299
40
0.406698431607121
40
0.432103828017712
40
0.457323496175988
40
0.482362856478124
40
0.507227447240081
40
0.531922924361869
40
0.556455060711567
40
0.58082974521376
40
0.605052981627924
40
0.629130887003313
40
0.653069689798167
40
0.676875727652701
40
0.700555444806993
40
0.724115389157052
40
0.74756220894453
40
0.77090264907769
40
0.794143547084663
40
0.817291828701839
40
0.840354503104064
40
0.863338657785833
40
0.886251453106034
40
0.909100116511882
40
0.931891936460732
40
0.954634256061567
40
0.977334466460842
40
1
40
1
40
1
40
1
41
1
10
82.0925790769361
20
49.4158797436947
30
0
41
1
10
82.0889720426637
20
49.4196523763945
30
0
41
1
10
82.0817897420526
20
49.4271644153989
30
0
41
1
10
82.0712865108956
20
49.4385930868265
30
0
41
1
10
82.0610433607984
20
49.4500734056148
30
0
41
1
10
82.0510760310056
20
49.4616181276133
30
0
41
1
10
82.0413806741469
20
49.47322112959
30
0
41
1
10
82.0319586003831
20
49.4848812830067
30
0
41
1
10
82.0228097338392
20
49.496596141024
30
0
41
1
10
82.0139343433641
20
49.5083636086704
30
0
41
1
10
82.0053325848588
20
49.5201815015764
30
0
41
1
10
81.9970046224754
20
49.532047663205
30
0
41
1
10
81.988950596683
20
49.5439599343282
30
0
41
1
10
81.9811706328505
20
49.5559161615896
30
0
41
1
10
81.9736648391112
20
49.5679141957174
30
0
41
1
10
81.9664333070654
20
49.5799518924697
30
0
41
1
10
81.9594761117338
20
49.5920271128504
30
0
41
1
10
81.952793311711
20
49.6041377235108
30
0
41
1
10
81.946384949267
20
49.6162815970965
30
0
41
1
10
81.9402510504633
20
49.6284566126016
30
0
41
1
10
81.934391625267
20
49.6406606557153
30
0
41
1
10
81.9288066676656
20
49.6528916191644
30
0
41
1
10
81.9234961557819
20
49.6651474030511
30
0
41
1
10
81.9184600519899
20
49.6774259151861
30
0
41
1
10
81.9136983030308
20
49.6897250714181
30
0
41
1
10
81.909210840129
20
49.702042795959
30
0
41
1
10
81.9049975791083
20
49.7143770217055
30
0
41
1
10
81.9010584205099
20
49.7267256905567
30
0
41
1
10
81.8973932497036
20
49.7390867537297
30
0
41
1
10
81.8940019370271
20
49.7514581720707
30
0
41
1
10
81.8908843378238
20
49.7638379163643
30
0
41
1
10
81.8880402928581
20
49.7762239676394
30
0
41
1
10
81.8854696273353
20
49.7886143174746
30
0
41
1
10
81.8831721551032
20
49.8010069682947
30
0
41
1
10
81.8811476636329
20
49.8133999336889
30
0
41
1
10
81.8793959703486
20
49.8257912386391
30
0
41
1
10
81.8779167140373
20
49.8381789200713
30
0
41
1
10
81.876710130388
20
49.8505610261981
30
0
41
1
10
81.8757741700482
20
49.8629356203413
30
0
41
1
10
81.8751152159999
20
49.8753007680893
30
0
41
1
10
81.8747082117573
20
49.8876545864343
30
0
41
1
10
81.8746660902486
20
49.8958869597103
30
0
41
1
10
81.8746450455927
20
49.9
30
0
0
SPLINE
5
1AD
100
AcDbEntity
8
1
62
256
6
ByLayer
370
13
48
1
60
0
100
AcDbSpline
70
4
71
3
72
14
73
10
40
0
40
0
40
0
40
0
40
0.141623314433834
40
0.283587055670704
40
0.425934098694547
40
0.568706973170361
40
0.711947829462661
40
0.85569840627329
40
1
40
1
40
1
40
1
41
1
10
79.4877178255945
20
49.8999872989153
30
0
41
1
10
79.4877313839468
20
49.8964350040531
30
0
41
1
10
79.4877585332424
20
49.8893218755061
30
0
41
1
10
79.4880756505672
20
49.878642158521
30
0
41
1
10
79.4885957707278
20
49.867942135832
30
0
41
1
10
79.4893378824308
20
49.8572228200901
30
0
41
1
10
79.4903021459484
20
49.8464862080029
30
0
41
1
10
79.4914711193366
20
49.8357308664962
30
0
41
1
10
79.4924331919275
20
49.828570165986
30
0
41
1
10
79.4929151484005
20
49.8249829668551
30
0
0
SPLINE
5
1AE
100
AcDbEntity
8
1
62
256
6
ByLayer
370
18
48
1
60
0
100
AcDbSpline
70
4
71
5
72
12
73
6
40
0
40
0
40
0
40
0
40
0
40
0
40
1
40
1
40
1
40
1
40
1
40
1
41
1
10
79.4975418334
20
49.80921173609
30
0
41
1
10
79.49627727087
20
49.81222712093
30
0
41
1
10
79.49506814699
20
49.81525918973
30
0
41
1
10
79.49409293678
20
49.81845862778
30
0
41
1
10
79.49348559577
20
49.82170329874
30
0
41
1
10
79.49293267505
20
49.82497248618
30
0
0
SPLINE
5
1AF
100
AcDbEntity
8
1
62
256
6
ByLayer
370
13
48
1
60
0
100
AcDbSpline
70
4
71
3
72
42
73
38
40
0
40
0
40
0
40
0
40
0.0239696419765504
40
0.0481675123981458
40
0.0725984230559158
40
0.0972670493728601
40
0.122177932924624
40
0.147335484086432
40
0.172743984785075
40
0.198407591336186
40
0.224330337348624
40
0.250516136679605
40
0.276968786424678
40
0.303691969929336
40
0.330689259809366
40
0.357964120968716
40
0.385519913604881
40
0.413359896192885
40
0.441487228440054
40
0.469904974204411
40
0.498616104371267
40
0.527623499682291
40
0.55692995351318
40
0.586538174596042
40
0.616450789683658
40
0.646670346152939
40
0.677199314546181
40
0.708040091048115
40
0.739194999898216
40
0.770666295737474
40
0.802456165889317
40
0.83456673257484
40
0.867000055062424
40
0.899758131752314
40
0.932842902196971
40
0.966256249057929
40
1
40
1
40
1
40
1
41
1
10
79.4975333696968
20
49.8092066471822
30
0
41
1
10
79.4992462464512
20
49.8054255902347
30
0
41
1
10
79.5026883092231
20
49.7978274747695
30
0
41
1
10
79.5081351974797
20
49.7864941879618
30
0
41
1
10
79.513819882324
20
49.7751419564318
30
0
41
1
10
79.5197619666246
20
49.7637808488173
30
0
41
1
10
79.5259566570494
20
49.7524101736675
30
0
41
1
10
79.5324057795301
20
49.7410321891525
30
0
41
1
10
79.539109347264
20
49.7296483758684
30
0
41
1
10
79.5460678530074
20
49.7182604500757
30
0
41
1
10
79.5532816454406
20
49.7068700880064
30
0
41
1
10
79.5607510984675
20
49.6954790006631
30
0
41
1
10
79.5684765648653
20
49.6840889132865
30
0
41
1
10
79.5764583885883
20
49.6727015707418
30
0
41
1
10
79.5846969011159
20
49.661318735843
30
0
41
1
10
79.5931924221421
20
49.649942189589
30
0
41
1
10
79.601945259082
20
49.6385737308678
30
0
41
1
10
79.6109557069016
20
49.6272151762954
30
0
41
1
10
79.620224047859
20
49.6158683600067
30
0
41
1
10
79.6297505512701
20
49.6045351334486
30
0
41
1
10
79.6395354732686
20
49.5932173651631
30
0
41
1
10
79.6495790565672
20
49.5819169405604
30
0
41
1
10
79.6598815302204
20
49.5706357616859
30
0
41
1
10
79.6704431093845
20
49.5593757469748
30
0
41
1
10
79.6812639950892
20
49.5481388310101
30
0
41
1
10
79.692344373973
20
49.5369269642274
30
0
41
1
10
79.7036844181557
20
49.5257421127826
30
0
41
1
10
79.7152842845964
20
49.5145862577591
30
0
41
1
10
79.7271441164066
20
49.5034613968379
30
0
41
1
10
79.7392640367605
20
49.4923695365949
30
0
41
1
10
79.7516441708588
20
49.4813127202702
30
0
41
1
10
79.7642845616082
20
49.4702929210979
30
0
41
1
10
79.7771854879847
20
49.4593124449452
30
0
41
1
10
79.7903462578384
20
49.4483724033929
30
0
41
1
10
79.8037697799489
20
49.4374784964865
30
0
41
1
10
79.8174452439681
20
49.4266191060082
30
0
41
1
10
79.8267118103137
20
49.4194738293504
30
0
41
1
10
79.8313678886299
20
49.4158836141113
30
0
0
LINE
5
7D
100
AcDbEntity
8
1
62
256
6
ByLayer
370
18
48
1
60
0
100
AcDbLine
10
0
20
-39.7
30
0
11
0.3
21
-40
31
0
39
0
210
0
220
0
230
1
0
LINE
5
7E
100
AcDbEntity
8
1
62
256
6
ByLayer
370
18
48
1
60
0
100
AcDbLine
10
0.3
20
40
30
0
11
0
21
39.7
31
0
39
0
210
0
220
0
230
1
0
LINE
5
7F
100
AcDbEntity
8
1
62
256
6
ByLayer
370
18
48
1
60
0
100
AcDbLine
10
30.279208
20
40
30
0
11
0.3
21
40
31
0
39
0
210
0
220
0
230
1
0
LINE
5
80
100
AcDbEntity
8
1
62
256
6
ByLayer
370
18
48
1
60
0
100
AcDbLine
10
0.3
20
-40
30
0
11
30
21
-40
31
0
39
0
210
0
220
0
230
1
0
LINE
5
81
100
AcDbEntity
8
81
62
256
6
ByLayer
370
18
48
1
60
0
100
AcDbLine
10
90
20
51
30
0
11
95
21
51
31
0
39
0
210
0
220
0
230
1
0
LINE
5
82
100
AcDbEntity
8
80
62
256
6
ByLayer
370
18
48
1
60
0
100
AcDbLine
10
0
20
0
30
0
11
-5
21
0
31
0
39
0
210
0
220
0
230
1
0
LINE
5
83
100
AcDbEntity
8
1
62
256
6
ByLayer
370
13
48
1
60
0
100
AcDbLine
10
31.606192
20
41.15
30
0
11
32.7
21
41.15
31
0
39
0
210
0
220
0
230
1
0
LINE
5
84
100
AcDbEntity
8
1
62
256
6
ByLayer
370
13
48
1
60
0
100
AcDbLine
10
32.7
20
41.15
30
0
11
32.7
21
40.15
31
0
39
0
210
0
220
0
230
1
0
LINE
5
85
100
AcDbEntity
8
1
62
256
6
ByLayer
370
18
48
1
60
0
100
AcDbLine
10
34.000994
20
50.175
30
0
11
36.393237
21
50.175
31
0
39
0
210
0
220
0
230
1
0
LINE
5
86
100
AcDbEntity
8
1
62
256
6
ByLayer
370
13
48
1
60
0
100
AcDbLine
10
32.7
20
41.15
30
0
11
32.7
21
45.265158
31
0
39
0
210
0
220
0
230
1
0
LINE
5
87
100
AcDbEntity
8
1
62
256
6
ByLayer
370
13
48
1
60
0
100
AcDbLine
10
32.7
20
41.15
30
0
11
36.393237
21
41.15
31
0
39
0
210
0
220
0
230
1
0
LINE
5
88
100
AcDbEntity
8
1
62
256
6
ByLayer
370
18
48
1
60
0
100
AcDbLine
10
36.779371
20
50.175
30
0
11
36.393237
21
50.175
31
0
39
0
210
0
220
0
230
1
0
LINE
5
89
100
AcDbEntity
8
1
62
256
6
ByLayer
370
18
48
1
60
0
100
AcDbLine
10
36.393237
20
41.15
30
0
11
36.393237
21
50.175
31
0
39
0
210
0
220
0
230
1
0
LINE
5
8A
100
AcDbEntity
8
1
62
256
6
ByLayer
370
18
48
1
60
0
100
AcDbLine
10
36.9
20
50.175
30
0
11
36.779216
21
50.175
31
0
39
0
210
0
220
0
230
1
0
LINE
5
8B
100
AcDbEntity
8
1
62
256
6
ByLayer
370
18
48
1
60
0
100
AcDbLine
10
36.779216
20
50.175
30
0
11
36.779216
21
41.15
31
0
39
0
210
0
220
0
230
1
0
LINE
5
8C
100
AcDbEntity
8
1
62
256
6
ByLayer
370
13
48
1
60
0
100
AcDbLine
10
36.9
20
41.15
30
0
11
36.779216
21
41.15
31
0
39
0
210
0
220
0
230
1
0
LINE
5
8D
100
AcDbEntity
8
1
62
256
6
ByLayer
370
18
48
1
60
0
100
AcDbLine
10
78.416905
20
50.175
30
0
11
75.5
21
50.175
31
0
39
0
210
0
220
0
230
1
0
LINE
5
8E
100
AcDbEntity
8
1
62
256
6
ByLayer
370
18
48
1
60
0
100
AcDbLine
10
78.416905
20
43.825
30
0
11
75.5
21
43.825
31
0
39
0
210
0
220
0
230
1
0
LINE
5
8F
100
AcDbEntity
8
1
62
256
6
ByLayer
370
18
48
1
60
0
100
AcDbLine
10
78.508635
20
44.378435
30
0
11
78.416905
21
43.825
31
0
39
0
210
0
220
0
230
1
0
LINE
5
90
100
AcDbEntity
8
1
62
256
6
ByLayer
370
18
48
1
60
0
100
AcDbLine
10
79
20
47.524969
30
0
11
79
21
46.475031
31
0
39
0
210
0
220
0
230
1
0
LINE
5
91
100
AcDbEntity
8
1
62
256
6
ByLayer
370
18
48
1
60
0
100
AcDbLine
10
78.416905
20
50.175
30
0
11
78.508635
21
49.621565
31
0
39
0
210
0
220
0
230
1
0
LINE
5
92
100
AcDbEntity
8
1
62
256
6
ByLayer
370
18
48
1
60
0
100
AcDbLine
10
33.899843
20
40.15
30
0
11
32.900157
21
40.15
31
0
39
0
210
0
220
0
230
1
0
LINE
5
93
100
AcDbEntity
8
1
62
256
6
ByLayer
370
18
48
1
60
0
100
AcDbLine
10
75.5
20
50.175
30
0
11
65.62731
21
50.175
31
0
39
0
210
0
220
0
230
1
0
LINE
5
94
100
AcDbEntity
8
1
62
256
6
ByLayer
370
18
48
1
60
0
100
AcDbLine
10
75.5
20
43.825
30
0
11
65.62731
21
43.825
31
0
39
0
210
0
220
0
230
1
0
LINE
5
95
100
AcDbEntity
8
1
62
256
6
ByLayer
370
18
48
1
60
0
100
AcDbLine
10
75.5
20
50.175
30
0
11
75.5
21
43.825
31
0
39
0
210
0
220
0
230
1
0
LINE
5
96
100
AcDbEntity
8
1
62
256
6
ByLayer
370
18
48
1
60
0
100
AcDbLine
10
34.220942
20
40.15
30
0
11
35.9
21
40.15
31
0
39
0
210
0
220
0
230
1
0
LINE
5
97
100
AcDbEntity
8
1
62
256
6
ByLayer
370
18
48
1
60
0
100
AcDbLine
10
44.9
20
-18.5
30
0
11
34.220942
21
-18.5
31
0
39
0
210
0
220
0
230
1
0
LINE
5
98
100
AcDbEntity
8
1
62
256
6
ByLayer
370
18
48
1
60
0
100
AcDbLine
10
36.9
20
41.15
30
0
11
36.9
21
50.175
31
0
39
0
210
0
220
0
230
1
0
LINE
5
99
100
AcDbEntity
8
1
62
256
6
ByLayer
370
18
48
1
60
0
100
AcDbLine
10
44.9
20
-18.5
30
0
11
56.4
21
32.75
31
0
39
0
210
0
220
0
230
1
0
LINE
5
9A
100
AcDbEntity
8
1
62
256
6
ByLayer
370
18
48
1
60
0
100
AcDbLine
10
56.4
20
42.225
30
0
11
56.4
21
32.75
31
0
39
0
210
0
220
0
230
1
0
LINE
5
9B
100
AcDbEntity
8
1
62
256
6
ByLayer
370
18
48
1
60
0
100
AcDbLine
10
65.62731
20
43.825
30
0
11
58
21
43.825
31
0
39
0
210
0
220
0
230
1
0
LINE
5
9C
100
AcDbEntity
8
1
62
256
6
ByLayer
370
18
48
1
60
0
100
AcDbLine
10
65.62731
20
43.825
30
0
11
65.62731
21
50.175
31
0
39
0
210
0
220
0
230
1
0
LINE
5
9D
100
AcDbEntity
8
1
62
256
6
ByLayer
370
18
48
1
60
0
100
AcDbLine
10
65.62731
20
50.175
30
0
11
36.9
21
50.175
31
0
39
0
210
0
220
0
230
1
0
LINE
5
9E
100
AcDbEntity
8
1
62
256
6
ByLayer
370
18
48
1
60
0
100
AcDbLine
10
34.220942
20
40.15
30
0
11
33.9
21
40.15
31
0
39
0
210
0
220
0
230
1
0
LINE
5
9F
100
AcDbEntity
8
1
62
256
6
ByLayer
370
13
48
1
60
0
100
AcDbLine
10
34.220942
20
40.15
30
0
11
34.220942
21
-18.5
31
0
39
0
210
0
220
0
230
1
0
LINE
5
A0
100
AcDbEntity
8
1
62
256
6
ByLayer
370
18
48
1
60
0
100
AcDbLine
10
33.9
20
40.15
30
0
11
33.9
21
-18.508001
31
0
39
0
210
0
220
0
230
1
0
LINE
5
A1
100
AcDbEntity
8
1
62
256
6
ByLayer
370
18
48
1
60
0
100
AcDbLine
10
34.152872
20
-18.5
30
0
11
34.220942
21
-18.5
31
0
39
0
210
0
220
0
230
1
0
LINE
5
A2
100
AcDbEntity
8
1
62
256
6
ByLayer
370
13
48
1
60
0
100
AcDbLine
10
31.438319
20
40.15
30
0
11
31.438319
21
39.141772
31
0
39
0
210
0
220
0
230
1
0
LINE
5
A3
100
AcDbEntity
8
1
62
256
6
ByLayer
370
18
48
1
60
0
100
AcDbLine
10
32.9
20
-18.701275
30
0
11
32.9
21
40.15
31
0
39
0
210
0
220
0
230
1
0
LINE
5
A4
100
AcDbEntity
8
1
62
256
6
ByLayer
370
18
48
1
60
0
100
AcDbLine
10
32.9
20
40.15
30
0
11
31.680941
21
40.15
31
0
39
0
210
0
220
0
230
1
0
LINE
5
A5
100
AcDbEntity
8
1
62
256
6
ByLayer
370
13
48
1
60
0
100
AcDbLine
10
10.105662
20
37.944501
30
0
11
10.105662
21
12.6576
31
0
39
0
210
0
220
0
230
1
0
LINE
5
A6
100
AcDbEntity
8
1
62
256
6
ByLayer
370
13
48
1
60
0
100
AcDbLine
10
10.538675
20
38.115458
30
0
11
10.538675
21
12.13309
31
0
39
0
210
0
220
0
230
1
0
LINE
5
A7
100
AcDbEntity
8
1
62
256
6
ByLayer
370
13
48
1
60
0
100
AcDbLine
10
13.461325
20
-12.13309
30
0
11
13.461325
21
-38.115458
31
0
39
0
210
0
220
0
230
1
0
LINE
5
A8
100
AcDbEntity
8
1
62
256
6
ByLayer
370
13
48
1
60
0
100
AcDbLine
10
13.894338
20
-12.6576
30
0
11
13.894338
21
-37.944501
31
0
39
0
210
0
220
0
230
1
0
LINE
5
A9
100
AcDbEntity
8
1
62
256
6
ByLayer
370
13
48
1
60
0
100
AcDbLine
10
10.105662
20
-12.6576
30
0
11
10.105662
21
-37.944501
31
0
39
0
210
0
220
0
230
1
0
LINE
5
AA
100
AcDbEntity
8
1
62
256
6
ByLayer
370
13
48
1
60
0
100
AcDbLine
10
10.538675
20
-12.13309
30
0
11
10.538675
21
-38.115458
31
0
39
0
210
0
220
0
230
1
0
LINE
5
AB
100
AcDbEntity
8
1
62
256
6
ByLayer
370
13
48
1
60
0
100
AcDbLine
10
13.461325
20
38.115458
30
0
11
13.461325
21
12.13309
31
0
39
0
210
0
220
0
230
1
0
LINE
5
AC
100
AcDbEntity
8
1
62
256
6
ByLayer
370
13
48
1
60
0
100
AcDbLine
10
13.894338
20
37.944501
30
0
11
13.894338
21
12.6576
31
0
39
0
210
0
220
0
230
1
0
LINE
5
AD
100
AcDbEntity
8
1
62
256
6
ByLayer
370
18
48
1
60
0
100
AcDbLine
10
0
20
-39.7
30
0
11
0
21
39.7
31
0
39
0
210
0
220
0
230
1
0
LINE
5
AE
100
AcDbEntity
8
1
62
256
6
ByLayer
370
18
48
1
60
0
100
AcDbLine
10
30.153025
20
-22.465094
30
0
11
30.102242
21
-28.284271
31
0
39
0
210
0
220
0
230
1
0
LINE
5
AF
100
AcDbEntity
8
1
62
256
6
ByLayer
370
13
48
1
60
0
100
AcDbLine
10
30.221094
20
-21.764391
30
0
11
30.221094
21
37.214715
31
0
39
0
210
0
220
0
230
1
0
LINE
5
B0
100
AcDbEntity
8
1
62
256
6
ByLayer
370
18
48
1
60
0
100
AcDbLine
10
0.3
20
-40
30
0
11
0.3
21
40
31
0
39
0
210
0
220
0
230
1
0
LINE
5
B1
100
AcDbEntity
8
1
62
256
6
ByLayer
370
18
48
1
60
0
100
AcDbLine
10
13.461325
20
12.13309
30
0
11
10.538675
21
12.13309
31
0
39
0
210
0
220
0
230
1
0
LINE
5
B2
100
AcDbEntity
8
1
62
256
6
ByLayer
370
18
48
1
60
0
100
AcDbLine
10
10.538675
20
38.115458
30
0
11
13.461325
21
38.115458
31
0
39
0
210
0
220
0
230
1
0
LINE
5
B3
100
AcDbEntity
8
1
62
256
6
ByLayer
370
18
48
1
60
0
100
AcDbLine
10
10.538675
20
-12.13309
30
0
11
13.461325
21
-12.13309
31
0
39
0
210
0
220
0
230
1
0
LINE
5
B4
100
AcDbEntity
8
1
62
256
6
ByLayer
370
18
48
1
60
0
100
AcDbLine
10
13.461325
20
-38.115458
30
0
11
10.538675
21
-38.115458
31
0
39
0
210
0
220
0
230
1
0
LINE
5
B5
100
AcDbEntity
8
1
62
256
6
ByLayer
370
18
48
1
60
0
100
AcDbLine
10
30.102242
20
-28.284271
30
0
11
30
21
-40
31
0
39
0
210
0
220
0
230
1
0
LINE
5
B6
100
AcDbEntity
8
1
62
256
6
ByLayer
370
13
48
1
60
0
100
AcDbLine
10
30.279208
20
40
30
0
11
30.279208
21
37.4626
31
0
39
0
210
0
220
0
230
1
0
LINE
5
B7
100
AcDbEntity
8
SK1
62
256
6
ByLayer
370
18
48
1
60
0
100
AcDbLine
10
-0.2
20
-6.552277
30
0
11
-0.2
21
-28.683485
31
0
39
0
210
0
220
0
230
1
0
LINE
5
B9
100
AcDbEntity
8
SK1
62
256
6
ByLayer
370
18
48
1
60
0
100
AcDbLine
10
-0.2
20
28.683485
30
0
11
-0.2
21
6.552279
31
0
39
0
210
0
220
0
230
1
0
LINE
5
BA
100
AcDbEntity
8
SK1
62
256
6
ByLayer
370
13
48
1
60
0
100
AcDbLine
10
-1.307107
20
4.393309
30
0
11
-1.307107
21
-4.393312
31
0
39
0
210
0
220
0
230
1
0
LINE
5
BB
100
AcDbEntity
8
1
62
256
6
ByLayer
370
18
48
1
60
0
100
AcDbLine
10
68.125355
20
50.3
30
0
11
67.841784
21
50.3
31
0
39
0
210
0
220
0
230
1
0
LINE
5
BC
100
AcDbEntity
8
1
62
256
6
ByLayer
370
18
48
1
60
0
100
AcDbLine
10
68.125355
20
43.7
30
0
11
67.841784
21
43.7
31
0
39
0
210
0
220
0
230
1
0
LINE
5
BD
100
AcDbEntity
8
1
62
256
6
ByLayer
370
18
48
1
60
0
100
AcDbLine
10
67.042383
20
50.730594
30
0
11
67.741784
21
50.326795
31
0
39
0
210
0
220
0
230
1
0
LINE
5
BE
100
AcDbEntity
8
1
62
256
6
ByLayer
370
18
48
1
60
0
100
AcDbLine
10
60.834896
20
51.024239
30
0
11
66.951107
21
50.757199
31
0
39
0
210
0
220
0
230
1
0
LINE
5
BF
100
AcDbEntity
8
1
62
256
6
ByLayer
370
18
48
1
60
0
100
AcDbLine
10
60
20
43.775
30
0
11
60
21
43.825088
31
0
39
0
210
0
220
0
230
1
0
LINE
5
C0
100
AcDbEntity
8
1
62
256
6
ByLayer
370
18
48
1
60
0
100
AcDbLine
10
60
20
50.174912
30
0
11
60
21
50.225
31
0
39
0
210
0
220
0
230
1
0
LINE
5
C1
100
AcDbEntity
8
1
62
256
6
ByLayer
370
18
48
1
60
0
100
AcDbLine
10
60.834896
20
42.975761
30
0
11
66.951107
21
43.242801
31
0
39
0
210
0
220
0
230
1
0
LINE
5
C2
100
AcDbEntity
8
1
62
256
6
ByLayer
370
18
48
1
60
0
100
AcDbLine
10
67.042383
20
43.269406
30
0
11
67.741784
21
43.673205
31
0
39
0
210
0
220
0
230
1
0
LINE
5
C3
100
AcDbEntity
8
1
62
256
6
ByLayer
370
18
48
1
60
0
100
AcDbLine
10
81.874645
20
50.3
30
0
11
82.158216
21
50.3
31
0
39
0
210
0
220
0
230
1
0
LINE
5
C4
100
AcDbEntity
8
1
62
256
6
ByLayer
370
18
48
1
60
0
100
AcDbLine
10
81.874645
20
43.7
30
0
11
82.158216
21
43.7
31
0
39
0
210
0
220
0
230
1
0
LINE
5
C5
100
AcDbEntity
8
1
62
256
6
ByLayer
370
18
48
1
60
0
100
AcDbLine
10
82.957617
20
43.269406
30
0
11
82.258216
21
43.673205
31
0
39
0
210
0
220
0
230
1
0
LINE
5
C6
100
AcDbEntity
8
1
62
256
6
ByLayer
370
18
48
1
60
0
100
AcDbLine
10
89.165104
20
42.975761
30
0
11
83.048893
21
43.242801
31
0
39
0
210
0
220
0
230
1
0
LINE
5
C7
100
AcDbEntity
8
1
62
256
6
ByLayer
370
18
48
1
60
0
100
AcDbLine
10
90
20
50.225
30
0
11
90
21
43.775
31
0
39
0
210
0
220
0
230
1
0
LINE
5
C8
100
AcDbEntity
8
1
62
256
6
ByLayer
370
18
48
1
60
0
100
AcDbLine
10
89.165104
20
51.024239
30
0
11
83.048893
21
50.757199
31
0
39
0
210
0
220
0
230
1
0
LINE
5
C9
100
AcDbEntity
8
1
62
256
6
ByLayer
370
18
48
1
60
0
100
AcDbLine
10
82.957617
20
50.730594
30
0
11
82.258216
21
50.326795
31
0
39
0
210
0
220
0
230
1
0
LINE
5
CA
100
AcDbEntity
8
1
62
256
6
ByLayer
370
18
48
1
60
0
100
AcDbLine
10
86.496108
20
44.505335
30
0
11
82.174816
21
44.694007
31
0
39
0
210
0
220
0
230
1
0
LINE
5
CB
100
AcDbEntity
8
1
62
256
6
ByLayer
370
18
48
1
60
0
100
AcDbLine
10
86.496108
20
49.494665
30
0
11
82.174816
21
49.305993
31
0
39
0
210
0
220
0
230
1
0
LINE
5
CC
100
AcDbEntity
8
1
62
256
6
ByLayer
370
13
48
1
60
0
100
AcDbLine
10
86.100871
20
44.867979
30
0
11
81.960123
21
45.048768
31
0
39
0
210
0
220
0
230
1
0
LINE
5
CD
100
AcDbEntity
8
1
62
256
6
ByLayer
370
13
48
1
60
0
100
AcDbLine
10
86.100871
20
49.132021
30
0
11
81.960123
21
48.951232
31
0
39
0
210
0
220
0
230
1
0
LINE
5
CE
100
AcDbEntity
8
1
62
256
6
ByLayer
370
18
48
1
60
0
100
AcDbLine
10
85.870586
20
45.022402
30
0
11
86.100871
21
44.867977
31
0
39
0
210
0
220
0
230
1
0
LINE
5
CF
100
AcDbEntity
8
1
62
256
6
ByLayer
370
18
48
1
60
0
100
AcDbLine
10
86.496106
20
44.505336
30
0
11
86.496106
21
47
31
0
39
0
210
0
220
0
230
1
0
LINE
5
D0
100
AcDbEntity
8
1
62
256
6
ByLayer
370
18
48
1
60
0
100
AcDbLine
10
86.496106
20
49.494664
30
0
11
86.496106
21
47
31
0
39
0
210
0
220
0
230
1
0
LINE
5
D1
100
AcDbEntity
8
1
62
256
6
ByLayer
370
18
48
1
60
0
100
AcDbLine
10
85.870586
20
48.977598
30
0
11
86.100871
21
49.132023
31
0
39
0
210
0
220
0
230
1
0
LINE
5
D2
100
AcDbEntity
8
1
62
256
6
ByLayer
370
18
48
1
60
0
100
AcDbLine
10
85.531078
20
45.515426
30
0
11
85.531078
21
47
31
0
39
0
210
0
220
0
230
1
0
LINE
5
D3
100
AcDbEntity
8
1
62
256
6
ByLayer
370
18
48
1
60
0
100
AcDbLine
10
85.531078
20
48.484574
30
0
11
85.531078
21
47
31
0
39
0
210
0
220
0
230
1
0
LINE
5
D4
100
AcDbEntity
8
1
62
256
6
ByLayer
370
13
48
1
60
0
100
AcDbLine
10
85.870586
20
45.022402
30
0
11
81.806763
21
45.199832
31
0
39
0
210
0
220
0
230
1
0
LINE
5
D5
100
AcDbEntity
8
1
62
256
6
ByLayer
370
13
48
1
60
0
100
AcDbLine
10
85.531078
20
45.515426
30
0
11
81.580666
21
45.687904
31
0
39
0
210
0
220
0
230
1
0
LINE
5
D6
100
AcDbEntity
8
1
62
256
6
ByLayer
370
13
48
1
60
0
100
AcDbLine
10
85.531078
20
48.484574
30
0
11
81.580666
21
48.312096
31
0
39
0
210
0
220
0
230
1
0
LINE
5
D7
100
AcDbEntity
8
1
62
256
6
ByLayer
370
13
48
1
60
0
100
AcDbLine
10
85.870586
20
48.977598
30
0
11
81.806764
21
48.800168
31
0
39
0
210
0
220
0
230
1
0
LINE
5
D8
100
AcDbEntity
8
1
62
256
6
ByLayer
370
13
48
1
60
0
100
AcDbLine
10
80.942869
20
47.27
30
0
11
80.942869
21
46.73
31
0
39
0
210
0
220
0
230
1
0
LINE
5
D9
100
AcDbEntity
8
1
62
256
6
ByLayer
370
13
48
1
60
0
100
AcDbLine
10
78.999919
20
46.73
30
0
11
80.942864
21
46.73
31
0
39
0
210
0
220
0
230
1
0
LINE
5
DA
100
AcDbEntity
8
1
62
256
6
ByLayer
370
13
48
1
60
0
100
AcDbLine
10
78.999919
20
47.27
30
0
11
80.942864
21
47.27
31
0
39
0
210
0
220
0
230
1
0
LINE
5
DB
100
AcDbEntity
8
1
62
256
6
ByLayer
370
13
48
1
60
0
100
AcDbLine
10
78.999935
20
46.539264
30
0
11
80.929535
21
46.539264
31
0
39
0
210
0
220
0
230
1
0
LINE
5
DC
100
AcDbEntity
8
1
62
256
6
ByLayer
370
13
48
1
60
0
100
AcDbLine
10
78.999935
20
47.460736
30
0
11
80.929535
21
47.460736
31
0
39
0
210
0
220
0
230
1
0
LINE
5
DD
100
AcDbEntity
8
1
62
256
6
ByLayer
370
13
48
1
60
0
100
AcDbLine
10
78.907811
20
47.677733
30
0
11
80.569658
21
47.677733
31
0
39
0
210
0
220
0
230
1
0
LINE
5
DE
100
AcDbEntity
8
1
62
256
6
ByLayer
370
13
48
1
60
0
100
AcDbLine
10
78.907811
20
46.322267
30
0
11
80.569658
21
46.322267
31
0
39
0
210
0
220
0
230
1
0
LINE
5
DF
100
AcDbEntity
8
1
62
256
6
ByLayer
370
13
48
1
60
0
100
AcDbLine
10
78.799681
20
46.266915
30
0
11
80.357913
21
46.266915
31
0
39
0
210
0
220
0
230
1
0
LINE
5
E0
100
AcDbEntity
8
1
62
256
6
ByLayer
370
13
48
1
60
0
100
AcDbLine
10
78.799681
20
47.733085
30
0
11
80.357913
21
47.733085
31
0
39
0
210
0
220
0
230
1
0
LINE
5
E1
100
AcDbEntity
8
1
62
256
6
ByLayer
370
13
48
1
60
0
100
AcDbLine
10
78.764771
20
46.236112
30
0
11
80.357913
21
46.236112
31
0
39
0
210
0
220
0
230
1
0
LINE
5
E2
100
AcDbEntity
8
1
62
256
6
ByLayer
370
13
48
1
60
0
100
AcDbLine
10
78.764771
20
47.763888
30
0
11
80.357913
21
47.763888
31
0
39
0
210
0
220
0
230
1
0
LINE
5
E3
100
AcDbEntity
8
1
62
256
6
ByLayer
370
13
48
1
60
0
100
AcDbLine
10
80.357913
20
46.236112
30
0
11
80.255328
21
46.144335
31
0
39
0
210
0
220
0
230
1
0
LINE
5
E4
100
AcDbEntity
8
1
62
256
6
ByLayer
370
13
48
1
60
0
100
AcDbLine
10
80.357913
20
47.763888
30
0
11
80.255328
21
47.855665
31
0
39
0
210
0
220
0
230
1
0
LINE
5
E5
100
AcDbEntity
8
1
62
256
6
ByLayer
370
13
48
1
60
0
100
AcDbLine
10
80.255328
20
46.144335
30
0
11
78.752797
21
46.144335
31
0
39
0
210
0
220
0
230
1
0
LINE
5
E6
100
AcDbEntity
8
1
62
256
6
ByLayer
370
13
48
1
60
0
100
AcDbLine
10
80.255328
20
47.855665
30
0
11
78.752632
21
47.855665
31
0
39
0
210
0
220
0
230
1
0
LINE
5
E7
100
AcDbEntity
8
1
62
256
6
ByLayer
370
18
48
1
60
0
100
AcDbLine
10
81.806763
20
45.199832
30
0
11
81.960123
21
45.048767
31
0
39
0
210
0
220
0
230
1
0
LINE
5
E8
100
AcDbEntity
8
1
62
256
6
ByLayer
370
18
48
1
60
0
100
AcDbLine
10
81.580667
20
47
30
0
11
81.580666
21
45.687904
31
0
39
0
210
0
220
0
230
1
0
LINE
5
E9
100
AcDbEntity
8
1
62
256
6
ByLayer
370
18
48
1
60
0
100
AcDbLine
10
81.580667
20
47
30
0
11
81.580666
21
48.312096
31
0
39
0
210
0
220
0
230
1
0
LINE
5
EA
100
AcDbEntity
8
1
62
256
6
ByLayer
370
18
48
1
60
0
100
AcDbLine
10
81.806763
20
48.800168
30
0
11
81.960123
21
48.951233
31
0
39
0
210
0
220
0
230
1
0
LINE
5
EB
100
AcDbEntity
8
1
62
256
6
ByLayer
370
13
48
1
60
0
100
AcDbLine
10
80.415271
20
47.825521
30
0
11
80.312685
21
47.917299
31
0
39
0
210
0
220
0
230
1
0
LINE
5
EC
100
AcDbEntity
8
1
62
256
6
ByLayer
370
13
48
1
60
0
100
AcDbLine
10
81.000226
20
47.270001
30
0
11
81.000226
21
46.729999
31
0
39
0
210
0
220
0
230
1
0
LINE
5
ED
100
AcDbEntity
8
1
62
256
6
ByLayer
370
13
48
1
60
0
100
AcDbLine
10
80.415271
20
46.174479
30
0
11
80.312685
21
46.082701
31
0
39
0
210
0
220
0
230
1
0
LINE
5
EE
100
AcDbEntity
8
1
62
256
6
ByLayer
370
13
48
1
60
0
100
AcDbLine
10
80.008402
20
49.125632
30
0
11
80.312685
21
47.917299
31
0
39
0
210
0
220
0
230
1
0
LINE
5
EF
100
AcDbEntity
8
1
62
256
6
ByLayer
370
13
48
1
60
0
100
AcDbLine
10
80.008402
20
44.874368
30
0
11
80.312685
21
46.082701
31
0
39
0
210
0
220
0
230
1
0
LINE
5
F0
100
AcDbEntity
8
1
62
256
6
ByLayer
370
18
48
1
60
0
100
AcDbLine
10
70.512311
20
50.3
30
0
11
68.125355
21
50.3
31
0
39
0
210
0
220
0
230
1
0
LINE
5
F1
100
AcDbEntity
8
1
62
256
6
ByLayer
370
18
48
1
60
0
100
AcDbLine
10
68.125355
20
50.174994
30
0
11
68.125355
21
50.3
31
0
39
0
210
0
220
0
230
1
0
LINE
5
F2
100
AcDbEntity
8
1
62
256
6
ByLayer
370
18
48
1
60
0
100
AcDbLine
10
70.512311
20
43.7
30
0
11
68.125355
21
43.7
31
0
39
0
210
0
220
0
230
1
0
LINE
5
F3
100
AcDbEntity
8
1
62
256
6
ByLayer
370
18
48
1
60
0
100
AcDbLine
10
68.125355
20
43.825006
30
0
11
68.125355
21
43.7
31
0
39
0
210
0
220
0
230
1
0
LINE
5
F4
100
AcDbEntity
8
1
62
256
6
ByLayer
370
18
48
1
60
0
100
AcDbLine
10
79.487689
20
50.3
30
0
11
81.874645
21
50.3
31
0
39
0
210
0
220
0
230
1
0
LINE
5
F5
100
AcDbEntity
8
1
62
256
6
ByLayer
370
18
48
1
60
0
100
AcDbLine
10
81.874645
20
49.9
30
0
11
81.874645
21
50.3
31
0
39
0
210
0
220
0
230
1
0
LINE
5
F6
100
AcDbEntity
8
1
62
256
6
ByLayer
370
18
48
1
60
0
100
AcDbLine
10
79.487689
20
43.7
30
0
11
81.874645
21
43.7
31
0
39
0
210
0
220
0
230
1
0
LINE
5
F7
100
AcDbEntity
8
1
62
256
6
ByLayer
370
18
48
1
60
0
100
AcDbLine
10
81.874645
20
44.1
30
0
11
81.874645
21
43.7
31
0
39
0
210
0
220
0
230
1
0
LINE
5
F8
100
AcDbEntity
8
1
62
256
6
ByLayer
370
13
48
1
60
0
100
AcDbLine
10
80.255328
20
47.899934
30
0
11
78.746556
21
47.899934
31
0
39
0
210
0
220
0
230
1
0
LINE
5
F9
100
AcDbEntity
8
1
62
256
6
ByLayer
370
13
48
1
60
0
100
AcDbLine
10
79.951102
20
49.108038
30
0
11
80.255328
21
47.899934
31
0
39
0
210
0
220
0
230
1
0
LINE
5
FA
100
AcDbEntity
8
1
62
256
6
ByLayer
370
13
48
1
60
0
100
AcDbLine
10
79.951102
20
44.891962
30
0
11
80.255328
21
46.100066
31
0
39
0
210
0
220
0
230
1
0
LINE
5
FB
100
AcDbEntity
8
1
62
256
6
ByLayer
370
13
48
1
60
0
100
AcDbLine
10
80.255328
20
46.100066
30
0
11
78.747049
21
46.100066
31
0
39
0
210
0
220
0
230
1
0
LINE
5
FC
100
AcDbEntity
8
1
62
256
6
ByLayer
370
13
48
1
60
0
100
AcDbLine
10
79.487689
20
43.7
30
0
11
79.487689
21
44.100008
31
0
39
0
210
0
220
0
230
1
0
LINE
5
FD
100
AcDbEntity
8
1
62
256
6
ByLayer
370
13
48
1
60
0
100
AcDbLine
10
70.512311
20
43.7
30
0
11
70.512311
21
43.825002
31
0
39
0
210
0
220
0
230
1
0
LINE
5
FE
100
AcDbEntity
8
1
62
256
6
ByLayer
370
13
48
1
60
0
100
AcDbLine
10
70.512311
20
50.3
30
0
11
70.512311
21
50.174998
31
0
39
0
210
0
220
0
230
1
0
LINE
5
FF
100
AcDbEntity
8
1
62
256
6
ByLayer
370
13
48
1
60
0
100
AcDbLine
10
79.487689
20
50.3
30
0
11
79.487689
21
49.899992
31
0
39
0
210
0
220
0
230
1
0
LINE
5
100
100
AcDbEntity
8
1
62
256
6
ByLayer
370
18
48
1
60
0
100
AcDbLine
10
79.430331
20
50.3
30
0
11
70.569669
21
50.3
31
0
39
0
210
0
220
0
230
1
0
LINE
5
101
100
AcDbEntity
8
1
62
256
6
ByLayer
370
13
48
1
60
0
100
AcDbLine
10
70.569669
20
50.3
30
0
11
70.569669
21
50.174996
31
0
39
0
210
0
220
0
230
1
0
LINE
5
102
100
AcDbEntity
8
1
62
256
6
ByLayer
370
13
48
1
60
0
100
AcDbLine
10
79.430331
20
50.3
30
0
11
79.430331
21
49.899986
31
0
39
0
210
0
220
0
230
1
0
LINE
5
103
100
AcDbEntity
8
1
62
256
6
ByLayer
370
13
48
1
60
0
100
AcDbLine
10
79.44041
20
44.217232
30
0
11
78.481836
21
44.217232
31
0
39
0
210
0
220
0
230
1
0
LINE
5
104
100
AcDbEntity
8
1
62
256
6
ByLayer
370
13
48
1
60
0
100
AcDbLine
10
79.435722
20
49.817498
30
0
11
78.476081
21
49.817498
31
0
39
0
210
0
220
0
230
1
0
LINE
5
105
100
AcDbEntity
8
1
62
256
6
ByLayer
370
13
48
1
60
0
100
AcDbLine
10
79.44041
20
49.782768
30
0
11
78.481836
21
49.782768
31
0
39
0
210
0
220
0
230
1
0
LINE
5
106
100
AcDbEntity
8
1
62
256
6
ByLayer
370
13
48
1
60
0
100
AcDbLine
10
79.430331
20
43.7
30
0
11
79.430331
21
44.100014
31
0
39
0
210
0
220
0
230
1
0
LINE
5
107
100
AcDbEntity
8
1
62
256
6
ByLayer
370
13
48
1
60
0
100
AcDbLine
10
79.435722
20
44.182502
30
0
11
78.476081
21
44.182502
31
0
39
0
210
0
220
0
230
1
0
LINE
5
108
100
AcDbEntity
8
1
62
256
6
ByLayer
370
13
48
1
60
0
100
AcDbLine
10
70.569669
20
43.7
30
0
11
70.569669
21
43.825004
31
0
39
0
210
0
220
0
230
1
0
LINE
5
109
100
AcDbEntity
8
1
62
256
6
ByLayer
370
18
48
1
60
0
100
AcDbLine
10
79.430331
20
43.7
30
0
11
70.569669
21
43.7
31
0
39
0
210
0
220
0
230
1
0
LINE
5
10A
100
AcDbEntity
8
1
62
256
6
ByLayer
370
13
48
1
60
0
100
AcDbLine
10
82.092576
20
44.584123
30
0
11
79.831369
21
44.584123
31
0
39
0
210
0
220
0
230
1
0
LINE
5
10B
100
AcDbEntity
8
1
62
256
6
ByLayer
370
13
48
1
60
0
100
AcDbLine
10
79.487703
20
44.1
30
0
11
81.874645
21
44.1
31
0
39
0
210
0
220
0
230
1
0
LINE
5
10C
100
AcDbEntity
8
1
62
256
6
ByLayer
370
13
48
1
60
0
100
AcDbLine
10
79.487703
20
49.9
30
0
11
81.874645
21
49.9
31
0
39
0
210
0
220
0
230
1
0
LINE
5
10D
100
AcDbEntity
8
1
62
256
6
ByLayer
370
13
48
1
60
0
100
AcDbLine
10
82.092576
20
49.415877
30
0
11
79.831369
21
49.415877
31
0
39
0
210
0
220
0
230
1
0
LINE
5
10E
100
AcDbEntity
8
SK2
62
256
6
ByLayer
370
18
48
1
60
0
100
AcDbLine
10
-57.975
20
-40
30
0
11
-57.975
21
40
31
0
39
0
210
0
220
0
230
1
0
LINE
5
110
100
AcDbEntity
8
SK2
62
256
6
ByLayer
370
18
48
1
60
0
100
AcDbLine
10
-1.2875
20
40
30
0
11
-59.975
21
40
31
0
39
0
210
0
220
0
230
1
0
LINE
5
111
100
AcDbEntity
8
SK2
62
256
6
ByLayer
370
18
48
1
60
0
100
AcDbLine
10
-1.2875
20
-40
30
0
11
-59.975
21
-40
31
0
39
0
210
0
220
0
230
1
0
LINE
5
112
100
AcDbEntity
8
1
62
256
6
ByLayer
370
18
48
1
60
1
100
AcDbLine
10
-57.975
20
40
30
0
11
-57.514216
21
36.500002
31
0
39
0
210
0
220
0
230
1
0
LINE
5
113
100
AcDbEntity
8
1
62
256
6
ByLayer
370
18
48
1
60
1
100
AcDbLine
10
-57.514216
20
36.500002
30
0
11
-58.435784
21
36.499998
31
0
39
0
210
0
220
0
230
1
0
LINE
5
114
100
AcDbEntity
8
1
62
256
6
ByLayer
370
18
48
1
60
1
100
AcDbLine
10
-58.435784
20
36.499998
30
0
11
-57.975
21
40
31
0
39
0
210
0
220
0
230
1
0
LINE
5
115
100
AcDbEntity
8
1
62
256
6
ByLayer
370
18
48
1
60
1
100
AcDbLine
10
-57.975
20
-40
30
0
11
-58.435784
21
-36.500002
31
0
39
0
210
0
220
0
230
1
0
LINE
5
116
100
AcDbEntity
8
1
62
256
6
ByLayer
370
18
48
1
60
1
100
AcDbLine
10
-58.435784
20
-36.500002
30
0
11
-57.514216
21
-36.499998
31
0
39
0
210
0
220
0
230
1
0
LINE
5
117
100
AcDbEntity
8
1
62
256
6
ByLayer
370
18
48
1
60
1
100
AcDbLine
10
-57.514216
20
-36.499998
30
0
11
-57.975
21
-40
31
0
39
0
210
0
220
0
230
1
0
LINE
5
1B4
100
AcDbEntity
8
1
62
256
6
ByLayer
370
18
48
1
60
1
100
AcDbLine
10
-57.975
20
40
30
0
11
-57.514216
21
36.500002
31
0
39
0
210
0
220
0
230
1
0
LINE
5
1B5
100
AcDbEntity
8
1
62
256
6
ByLayer
370
18
48
1
60
1
100
AcDbLine
10
-57.514216
20
36.500002
30
0
11
-58.435784
21
36.499998
31
0
39
0
210
0
220
0
230
1
0
LINE
5
1B6
100
AcDbEntity
8
1
62
256
6
ByLayer
370
18
48
1
60
1
100
AcDbLine
10
-58.435784
20
36.499998
30
0
11
-57.975
21
40
31
0
39
0
210
0
220
0
230
1
0
LINE
5
1B8
100
AcDbEntity
8
1
62
256
6
ByLayer
370
18
48
1
60
1
100
AcDbLine
10
-57.975
20
-40
30
0
11
-58.435784
21
-36.500002
31
0
39
0
210
0
220
0
230
1
0
LINE
5
1B9
100
AcDbEntity
8
1
62
256
6
ByLayer
370
18
48
1
60
1
100
AcDbLine
10
-58.435784
20
-36.500002
30
0
11
-57.514216
21
-36.499998
31
0
39
0
210
0
220
0
230
1
0
LINE
5
1BA
100
AcDbEntity
8
1
62
256
6
ByLayer
370
18
48
1
60
1
100
AcDbLine
10
-57.514216
20
-36.499998
30
0
11
-57.975
21
-40
31
0
39
0
210
0
220
0
230
1
0
MTEXT
5
1B0
100
AcDbEntity
8
SK2
62
256
6
ByLayer
370
18
48
1
60
0
100
AcDbMText
10
-59.539634
20
-4.530622
30
0
210
0
220
0
230
1
1
%%c
40
3.5
41
0
44
1.084337
50
90
71
7
72
5
7
iso_b_vert
0
MTEXT
5
1B3
100
AcDbEntity
8
SK2
62
256
6
ByLayer
370
18
48
1
60
0
100
AcDbMText
10
-59.539634
20
2.442034
30
0
210
0
220
0
230
1
1
\W0.6740;80
40
3.5
41
0
44
1.084337
50
90
71
7
72
5
7
iso_b_vert
0
MTEXT
5
1BC
100
AcDbEntity
8
SK6
62
256
6
ByLayer
370
18
48
1
60
0
100
AcDbMText
10
-11.3145
20
-48.702453
30
0
210
0
220
0
230
1
1
\W0.7503;C2R-CC8-RL32CB
40
3.5
41
0
44
1.084337
50
0
71
7
72
5
7
iso_b_vert
0
HATCH
5
1B7
100
AcDbEntity
8
SK2
62
256
6
ByLayer
370
13
48
1
60
0
100
AcDbHatch
10
0
20
0
30
0
210
0
220
0
230
1
2
ANSI31
70
0
71
0
91
1
92
5
93
3
72
1
10
-57.975
20
40
11
-57.5142162584472
21
36.5000016925532
72
1
10
-57.5142162584472
20
36.5000016925532
11
-58.4357837415528
21
36.4999983074468
72
1
10
-58.4357837415528
20
36.4999983074468
11
-57.975
21
40
97
0
75
0
76
1
52
0
41
0.0062
77
0
78
1
53
45
43
0
44
0
45
-0.0139193969876572
46
0.0139193969876572
79
0
47
0
98
1
10
0
20
0
0
HATCH
5
1BB
100
AcDbEntity
8
SK2
62
256
6
ByLayer
370
13
48
1
60
0
100
AcDbHatch
10
0
20
0
30
0
210
0
220
0
230
1
2
ANSI31
70
0
71
0
91
1
92
5
93
3
72
1
10
-57.975
20
-40
11
-58.4357837415528
21
-36.5000016925532
72
1
10
-58.4357837415528
20
-36.5000016925532
11
-57.5142162584472
21
-36.4999983074468
72
1
10
-57.5142162584472
20
-36.4999983074468
11
-57.975
21
-40
97
0
75
0
76
1
52
0
41
0.0062
77
0
78
1
53
45
43
0
44
0
45
-0.0139193969876572
46
0.0139193969876572
79
0
47
0
98
1
10
0
20
0
0
DIMENSION
5
1BF
100
AcDbEntity
8
2
62
256
6
ByLayer
370
18
48
1
60
0
100
AcDbDimension
2
_U0
10
121.1
20
0
30
0
11
121.1
21
25.5
31
0
70
32
71
1
72
1
41
1
210
0
220
0
230
1
3
Standard
100
AcDbAlignedDimension
13
90
23
51
33
0
14
0
24
0
34
0
50
90
100
AcDbRotatedDimension
1001
ACAD
1000
DSTYLE
1002
{
1070
   371
1070
    13
1070
   372
1070
    13
1070
   170
1070
     0
1070
   144
1040
1.0
1070
   277
1070
     2
1070
   284
1070
     8
1070
   278
1070
    46
1070
   146
1040
1.0
1070
   345
1005
16
1070
   347
1005
16
1070
   346
1005
16
1070
   344
1005
0
1070
   343
1005
0
1070
   172
1070
     1
1070
    76
1070
     0
1070
    75
1070
     0
1070
   282
1070
     0
1070
   281
1070
     0
1070
    71
1070
     0
1070
    74
1070
     0
1070
   279
1070
     0
1070
   173
1070
     1
1070
   340
1005
1B1
1070
   271
1070
     1
1070
   272
1070
     2
1070
    77
1070
     1
1070
    73
1070
     0
1070
   171
1070
     3
1070
   274
1070
     4
1070
   177
1070
     2
1070
   176
1070
     2
1070
   178
1070
     2
1070
    78
1070
     8
1070
    48
1040
-0.1
1070
    41
1040
3.5
1070
   147
1040
1.75
1070
    42
1040
1.5875
1070
    44
1040
2.0
1070
   140
1040
3.5
1002
}
1001
ACAD_DSTYLE_DIM_LINETYPE
1070
   380
1005
16
1001
ACAD_DSTYLE_DIM_EXT1_LINETYPE
1070
   381
1005
16
1001
ACAD_DSTYLE_DIM_EXT2_LINETYPE
1070
   382
1005
16
0
DIMENSION
5
1D9
100
AcDbEntity
8
2
62
256
6
ByLayer
370
18
48
1
60
0
100
AcDbDimension
2
_U1
10
110.1
20
51
30
0
11
110.1
21
47
31
0
70
32
71
1
72
1
41
1
210
0
220
0
230
1
3
Standard
100
AcDbAlignedDimension
13
90
23
43
33
0
14
90
24
51
34
0
50
90
100
AcDbRotatedDimension
1001
ACAD
1000
DSTYLE
1002
{
1070
   371
1070
    13
1070
   372
1070
    13
1070
   170
1070
     0
1070
   144
1040
1.0
1070
   277
1070
     2
1070
   284
1070
     8
1070
   278
1070
    46
1070
   146
1040
1.0
1070
   345
1005
16
1070
   347
1005
16
1070
   346
1005
16
1070
   344
1005
0
1070
   343
1005
0
1070
   172
1070
     1
1070
    76
1070
     0
1070
    75
1070
     0
1070
   282
1070
     0
1070
   281
1070
     0
1070
    71
1070
     0
1070
    74
1070
     0
1070
   279
1070
     0
1070
   173
1070
     1
1070
   340
1005
1B1
1070
   271
1070
     1
1070
   272
1070
     2
1070
    77
1070
     1
1070
    73
1070
     0
1070
   171
1070
     3
1070
   274
1070
     4
1070
   177
1070
     2
1070
   176
1070
     2
1070
   178
1070
     2
1070
    78
1070
     8
1070
    48
1040
-0.1
1070
    41
1040
3.5
1070
   147
1040
1.75
1070
    42
1040
1.5875
1070
    44
1040
2.0
1070
   140
1040
3.5
1002
}
1001
ACAD_DSTYLE_DIM_LINETYPE
1070
   380
1005
16
1001
ACAD_DSTYLE_DIM_EXT1_LINETYPE
1070
   381
1005
16
1001
ACAD_DSTYLE_DIM_EXT2_LINETYPE
1070
   382
1005
16
0
DIMENSION
5
1F2
100
AcDbEntity
8
2
62
256
6
ByLayer
370
18
48
1
60
0
100
AcDbDimension
2
_U2
10
90
20
-37.925
30
0
11
74
21
-37.925
31
0
70
32
71
1
72
1
41
1
210
0
220
0
230
1
3
Standard
100
AcDbAlignedDimension
13
58
23
43.825
33
0
14
90
24
43
34
0
50
0
100
AcDbRotatedDimension
1001
ACAD
1000
DSTYLE
1002
{
1070
   371
1070
    13
1070
   372
1070
    13
1070
   170
1070
     0
1070
   144
1040
1.0
1070
   277
1070
     2
1070
   284
1070
     8
1070
   278
1070
    46
1070
   146
1040
1.0
1070
   345
1005
16
1070
   347
1005
16
1070
   346
1005
16
1070
   344
1005
0
1070
   343
1005
0
1070
   172
1070
     1
1070
    76
1070
     0
1070
    75
1070
     0
1070
   282
1070
     0
1070
   281
1070
     0
1070
    71
1070
     0
1070
    74
1070
     0
1070
   279
1070
     0
1070
   173
1070
     1
1070
   340
1005
1B1
1070
   271
1070
     1
1070
   272
1070
     2
1070
    77
1070
     1
1070
    73
1070
     1
1070
   171
1070
     3
1070
   274
1070
     4
1070
   177
1070
     2
1070
   176
1070
     2
1070
   178
1070
     2
1070
    78
1070
     8
1070
    48
1040
-0.1
1070
    41
1040
3.5
1070
   147
1040
1.75
1070
    42
1040
1.5875
1070
    44
1040
2.0
1070
   140
1040
3.5
1002
}
1001
ACAD_DSTYLE_DIM_LINETYPE
1070
   380
1005
16
1001
ACAD_DSTYLE_DIM_EXT1_LINETYPE
1070
   381
1005
16
1001
ACAD_DSTYLE_DIM_EXT2_LINETYPE
1070
   382
1005
16
0
DIMENSION
5
20A
100
AcDbEntity
8
2
62
256
6
ByLayer
370
18
48
1
60
0
100
AcDbDimension
2
_U3
10
90
20
62.25
30
0
11
45
21
62.25
31
0
70
32
71
1
72
1
41
1
210
0
220
0
230
1
3
Standard
100
AcDbAlignedDimension
13
0
23
0
33
0
14
90
24
51
34
0
50
0
100
AcDbRotatedDimension
1001
ACAD
1000
DSTYLE
1002
{
1070
   371
1070
    13
1070
   372
1070
    13
1070
   170
1070
     0
1070
   144
1040
1.0
1070
   277
1070
     2
1070
   284
1070
     8
1070
   278
1070
    46
1070
   146
1040
1.0
1070
   345
1005
16
1070
   347
1005
16
1070
   346
1005
16
1070
   344
1005
0
1070
   343
1005
0
1070
   172
1070
     1
1070
    76
1070
     0
1070
    75
1070
     0
1070
   282
1070
     0
1070
   281
1070
     0
1070
    71
1070
     0
1070
    74
1070
     0
1070
   279
1070
     0
1070
   173
1070
     1
1070
   340
1005
1B1
1070
   271
1070
     1
1070
   272
1070
     2
1070
    77
1070
     1
1070
    73
1070
     1
1070
   171
1070
     3
1070
   274
1070
     4
1070
   177
1070
     2
1070
   176
1070
     2
1070
   178
1070
     2
1070
    78
1070
     8
1070
    48
1040
-0.1
1070
    41
1040
3.5
1070
   147
1040
1.75
1070
    42
1040
1.5875
1070
    44
1040
2.0
1070
   140
1040
3.5
1002
}
1001
ACAD_DSTYLE_DIM_LINETYPE
1070
   380
1005
16
1001
ACAD_DSTYLE_DIM_EXT1_LINETYPE
1070
   381
1005
16
1001
ACAD_DSTYLE_DIM_EXT2_LINETYPE
1070
   382
1005
16
0
ENDSEC
0
SECTION
2
OBJECTS
0
DICTIONARY
5
291
330
0
100
AcDbDictionary
280
0
281
1
3
ACAD_GROUP
350
292
3
ACAD_MLINESTYLE
350
293
0
DICTIONARY
5
292
330
0
100
AcDbDictionary
280
0
281
1
0
DICTIONARY
5
293
330
0
100
AcDbDictionary
280
0
281
1
3
Standard
350
18
0
MLINESTYLE
5
18
330
293
100
AcDbMlineStyle
2
Standard
70
0
3

62
256
51
90
52
90
71
2
49
-0.5
62
256
6
ByLayer
49
0.5
62
256
6
ByLayer
0
RASTERVARIABLES
5
280
330

100
AcDbRasterVariables
90
0
70
1
71
1
72
1
0
ENDSEC
0
EOF
