0
SECTION
2
HEADER
9
$ACADVER
1
AC1015
9
$DWGCODEPAGE
3
ANSI_1252
9
$HANDSEED
5
232
9
$ANGBASE
50
0
9
$ANGDIR
70
0
9
$ATTMODE
70
1
9
$AUNITS
70
0
9
$AUPREC
70
0
9
$CECOLOR
62
256
9
$CELTSCALE
40
1
9
$CELTYPE
6
ByLayer
9
$CELWEIGHT
370
18
9
$CLAYER
8
0
9
$CMLJUST
70
0
9
$CMLSCALE
40
1
9
$CMLSTYLE
2
Standard
9
$DIMSTYLE
2
Standard
9
$TEXTSIZE
40
0.2
9
$TEXTSTYLE
7
Standard
9
$LUNITS
70
2
9
$LUPREC
70
4
9
$EXTNAMES
290
1
9
$INSUNITS
70
4
9
$LTSCALE
40
1
9
$LWDISPLAY
290
1
9
$PDMODE
70
0
9
$PDSIZE
40
0
9
$PLINEGEN
70
0
0
ENDSEC
0
SECTION
2
CLASSES
0
CLASS
1
RASTERVARIABLES
2
AcDbRasterVariables
3
ISM
90
0
280
0
281
0
0
ENDSEC
0
SECTION
2
TABLES
0
TABLE
2
VPORT
5
228
100
AcDbSymbolTable
0
VPORT
5
1
100
AcDbSymbolTableRecord
100
AcDbViewportTableRecord
2
*Active
70
0
10
0
20
0
11
1
21
1
12
-1
22
1
13
0
23
0
14
0.5
24
0.5
15
10
25
10
16
0
26
0
36
1
17
0
27
0
37
0
0
ENDTAB
0
TABLE
2
LTYPE
5
229
100
AcDbSymbolTable
0
LTYPE
5
14
100
AcDbSymbolTableRecord
100
AcDbLinetypeTableRecord
70
0
2
ByBlock
3

72
65
73
0
40
0
0
LTYPE
5
15
100
AcDbSymbolTableRecord
100
AcDbLinetypeTableRecord
70
0
2
ByLayer
3

72
65
73
0
40
0
0
LTYPE
5
16
100
AcDbSymbolTableRecord
100
AcDbLinetypeTableRecord
70
0
2
Continuous
3
Solid line
72
65
73
0
40
0
0
LTYPE
5
6E
100
AcDbSymbolTableRecord
100
AcDbLinetypeTableRecord
70
0
2
CENTER
3
____ _ ____ _ ____ _ ____
72
65
73
4
40
47.5
49
22
74
0
49
-8.5
74
0
49
8.5
74
0
49
-8.5
74
0
0
LTYPE
5
6F
100
AcDbSymbolTableRecord
100
AcDbLinetypeTableRecord
70
0
2
DASHED
3
__ __ __ __ __ __ __ __ __
72
65
73
2
40
25.72
49
12.86
74
0
49
-12.86
74
0
0
ENDTAB
0
TABLE
2
LAYER
5
22a
100
AcDbSymbolTable
0
LAYER
5
10
100
AcDbSymbolTableRecord
100
AcDbLayerTableRecord
2
0
70
0
62
7
6
Continuous
290
1
370
-3
390
0
0
LAYER
5
71
100
AcDbSymbolTableRecord
100
AcDbLayerTableRecord
2
81
70
0
62
-3
6
Continuous
290
1
370
-3
390
0
0
LAYER
5
73
100
AcDbSymbolTableRecord
100
AcDbLayerTableRecord
2
80
70
0
62
-6
6
Continuous
290
1
370
-3
390
0
0
LAYER
5
75
100
AcDbSymbolTableRecord
100
AcDbLayerTableRecord
2
1
70
0
62
4
6
Continuous
290
1
370
-3
390
0
0
LAYER
5
156
100
AcDbSymbolTableRecord
100
AcDbLayerTableRecord
2
Defpoints
70
0
62
7
6
Continuous
290
0
370
-3
390
0
0
LAYER
5
163
100
AcDbSymbolTableRecord
100
AcDbLayerTableRecord
2
2
70
0
62
7
6
Continuous
290
1
370
-3
390
0
0
LAYER
5
215
100
AcDbSymbolTableRecord
100
AcDbLayerTableRecord
2
SK1
70
0
62
4
6
Continuous
290
1
370
-3
390
0
0
LAYER
5
216
100
AcDbSymbolTableRecord
100
AcDbLayerTableRecord
2
SK2
70
0
62
7
6
Continuous
290
1
370
-3
390
0
0
LAYER
5
217
100
AcDbSymbolTableRecord
100
AcDbLayerTableRecord
2
SK6
70
0
62
5
6
Continuous
290
1
370
-3
390
0
0
ENDTAB
0
TABLE
2
STYLE
5
22b
100
AcDbSymbolTable
0
STYLE
5
11
100
AcDbSymbolTableRecord
100
AcDbTextStyleTableRecord
2
Standard
3
txt
70
0
71
0
40
0
41
1
42
0
50
0
0
STYLE
5
145
100
AcDbSymbolTableRecord
100
AcDbTextStyleTableRecord
2
iso_b_vert
3
simplex.shx
70
0
71
0
40
0
41
1
42
0
50
0
0
STYLE
5
146
100
AcDbSymbolTableRecord
100
AcDbTextStyleTableRecord
2
DWGDirectTextStyle
3
simplex
70
0
71
0
40
0
41
1
42
0
50
0
0
ENDTAB
0
TABLE
2
DIMSTYLE
5
22c
100
AcDbSymbolTable
100
AcDbDimStyleTable
0
DIMSTYLE
105
27
100
AcDbSymbolTableRecord
100
AcDbDimStyleTableRecord
2
Standard
70
0
3
<>
41
0.18
42
0.0625
44
0.18
140
0.18
147
0.09
73
0
74
0
77
1
271
2
275
0
278
52
280
0
340
11
0
ENDTAB
0
TABLE
2
VIEW
5
22d
100
AcDbSymbolTable
0
ENDTAB
0
TABLE
2
UCS
5
22e
100
AcDbSymbolTable
0
ENDTAB
0
TABLE
2
APPID
5
22f
100
AcDbSymbolTable
0
APPID
5
12
100
AcDbSymbolTableRecord
100
AcDbRegAppTableRecord
2
ACAD
70
0
0
APPID
5
152
100
AcDbSymbolTableRecord
100
AcDbRegAppTableRecord
2
ACAD_DSTYLE_DIMBREAK
70
0
0
APPID
5
1D4
100
AcDbSymbolTableRecord
100
AcDbRegAppTableRecord
2
ACAD_DSTYLE_DIM_LINETYPE
70
0
0
APPID
5
1D5
100
AcDbSymbolTableRecord
100
AcDbRegAppTableRecord
2
ACAD_DSTYLE_DIM_EXT1_LINETYPE
70
0
0
APPID
5
1D6
100
AcDbSymbolTableRecord
100
AcDbRegAppTableRecord
2
ACAD_DSTYLE_DIM_EXT2_LINETYPE
70
0
0
APPID
5
211
100
AcDbSymbolTableRecord
100
AcDbRegAppTableRecord
2
ACAD_MLEADERVER
70
0
0
ENDTAB
0
TABLE
2
BLOCK_RECORD
5
230
100
AcDbSymbolTable
0
BLOCK_RECORD
5
1F
100
AcDbSymbolTableRecord
100
AcDbBlockTableRecord
2
*Model_Space
340
0
70
0
0
BLOCK_RECORD
5
1B
100
AcDbSymbolTableRecord
100
AcDbBlockTableRecord
2
*Paper_Space
340
0
70
0
0
BLOCK_RECORD
5
23
100
AcDbSymbolTableRecord
100
AcDbBlockTableRecord
2
*Paper_Space0
340
0
70
0
0
BLOCK_RECORD
5
157
100
AcDbSymbolTableRecord
100
AcDbBlockTableRecord
2
*D1
340
0
70
0
0
BLOCK_RECORD
5
164
100
AcDbSymbolTableRecord
100
AcDbBlockTableRecord
2
_U0
340
0
70
0
0
BLOCK_RECORD
5
170
100
AcDbSymbolTableRecord
100
AcDbBlockTableRecord
2
*D3
340
0
70
0
0
BLOCK_RECORD
5
17D
100
AcDbSymbolTableRecord
100
AcDbBlockTableRecord
2
_U1
340
0
70
0
0
BLOCK_RECORD
5
189
100
AcDbSymbolTableRecord
100
AcDbBlockTableRecord
2
*D5
340
0
70
0
0
BLOCK_RECORD
5
195
100
AcDbSymbolTableRecord
100
AcDbBlockTableRecord
2
_U2
340
0
70
0
0
BLOCK_RECORD
5
1A1
100
AcDbSymbolTableRecord
100
AcDbBlockTableRecord
2
*D7
340
0
70
0
0
BLOCK_RECORD
5
1AD
100
AcDbSymbolTableRecord
100
AcDbBlockTableRecord
2
_U3
340
0
70
0
0
ENDTAB
0
ENDSEC
0
SECTION
2
BLOCKS
0
BLOCK
5
20
100
AcDbEntity
8
0
100
AcDbBlockBegin
2
*Model_Space
70
0
10
0
20
0
30
0
3
*Model_Space
0
ENDBLK
5
21
100
AcDbEntity
8
0
100
AcDbBlockEnd
0
BLOCK
5
1C
100
AcDbEntity
8
0
100
AcDbBlockBegin
2
*Paper_Space
70
0
10
0
20
0
30
0
3
*Paper_Space
0
ENDBLK
5
1D
100
AcDbEntity
8
0
100
AcDbBlockEnd
0
BLOCK
5
24
100
AcDbEntity
8
0
100
AcDbBlockBegin
2
*Paper_Space0
70
0
10
0
20
0
30
0
3
*Paper_Space0
0
ENDBLK
5
25
100
AcDbEntity
8
0
100
AcDbBlockEnd
0
BLOCK
5
158
100
AcDbEntity
8
0
100
AcDbBlockBegin
2
*D1
70
1
10
0
20
0
30
0
3
*D1
0
LINE
5
15A
100
AcDbEntity
8
0
62
256
6
ByLayer
370
-2
48
1
60
0
100
AcDbLine
10
86.5875
20
-51
30
0
11
118.1
21
-51
31
0
39
0
210
0
220
0
230
1
0
LINE
5
15B
100
AcDbEntity
8
0
62
256
6
ByLayer
370
-2
48
1
60
0
100
AcDbLine
10
1.5875
20
0
30
0
11
118.1
21
0
31
0
39
0
210
0
220
0
230
1
0
LINE
5
15C
100
AcDbEntity
8
0
62
256
6
ByLayer
370
-2
48
1
60
0
100
AcDbLine
10
116.1
20
-47.5
30
0
11
116.1
21
-3.5
31
0
39
0
210
0
220
0
230
1
0
SOLID
5
15D
100
AcDbEntity
8
0
62
256
6
ByLayer
370
-1
48
1
60
0
100
AcDbTrace
10
115.516667
20
-47.5
30
0
11
116.683333
21
-47.5
31
0
12
116.1
22
-51
32
0
13
116.1
23
-51
33
0
39
0
210
0
220
0
230
1
0
SOLID
5
15E
100
AcDbEntity
8
0
62
256
6
ByLayer
370
-1
48
1
60
0
100
AcDbTrace
10
116.683333
20
-3.5
30
0
11
115.516667
21
-3.5
31
0
12
116.1
22
0
32
0
13
116.1
23
0
33
0
39
0
210
0
220
0
230
1
0
MTEXT
5
15F
100
AcDbEntity
8
0
62
256
6
ByLayer
370
18
48
1
60
0
100
AcDbMText
10
109.1
20
-25.5
30
0
210
0
220
0
230
1
1
\A1;51
40
3.5
41
0
44
1
50
90
71
5
72
5
7
iso_b_vert
0
POINT
5
160
100
AcDbEntity
8
Defpoints
62
0
6
ByLayer
370
-1
48
1
60
0
100
AcDbPoint
10
85
20
-51
30
0
39
0
210
0
220
0
230
1
50
360
0
POINT
5
161
100
AcDbEntity
8
Defpoints
62
0
6
ByLayer
370
-1
48
1
60
0
100
AcDbPoint
10
0
20
0
30
0
39
0
210
0
220
0
230
1
50
360
0
POINT
5
162
100
AcDbEntity
8
Defpoints
62
0
6
ByLayer
370
-1
48
1
60
0
100
AcDbPoint
10
116.1
20
0
30
0
39
0
210
0
220
0
230
1
50
360
0
ENDBLK
5
159
100
AcDbEntity
8
0
100
AcDbBlockEnd
0
BLOCK
5
16B
100
AcDbEntity
8
0
100
AcDbBlockBegin
2
_U0
70
0
10
0
20
0
30
0
3
_U0
0
MTEXT
5
165
100
AcDbEntity
8
2
62
256
6
ByLayer
370
18
48
1
60
0
100
AcDbMText
10
115.410366
20
-26.995533
30
0
210
0
220
0
230
1
1
\W0.6351;51
40
3.5
41
0
44
1.084337
50
90
71
7
72
5
7
iso_b_vert
0
LINE
5
166
100
AcDbEntity
8
2
62
256
6
ByLayer
370
13
48
1
60
0
100
AcDbLine
10
86.5875
20
-51
30
0
11
118.1
21
-51
31
0
39
0
210
0
220
0
230
1
0
LINE
5
167
100
AcDbEntity
8
2
62
256
6
ByLayer
370
13
48
1
60
0
100
AcDbLine
10
1.5875
20
0
30
0
11
118.1
21
0
31
0
39
0
210
0
220
0
230
1
0
LINE
5
168
100
AcDbEntity
8
2
62
256
6
ByLayer
370
13
48
1
60
0
100
AcDbLine
10
116.1
20
-51
30
0
11
116.1
21
0
31
0
39
0
210
0
220
0
230
1
0
SOLID
5
169
100
AcDbEntity
8
2
62
256
6
ByLayer
370
18
48
1
60
0
100
AcDbTrace
10
116.1
20
-51
30
0
11
115.639216
21
-47.500002
31
0
12
116.560784
22
-47.499998
32
0
13
116.560784
23
-47.499998
33
0
39
0
210
0
220
0
230
1
0
SOLID
5
16A
100
AcDbEntity
8
2
62
256
6
ByLayer
370
18
48
1
60
0
100
AcDbTrace
10
116.1
20
0
30
0
11
116.560784
21
-3.499998
31
0
12
115.639216
22
-3.500002
32
0
13
115.639216
23
-3.500002
33
0
39
0
210
0
220
0
230
1
0
ENDBLK
5
16C
100
AcDbEntity
8
0
100
AcDbBlockEnd
0
BLOCK
5
171
100
AcDbEntity
8
0
100
AcDbBlockBegin
2
*D3
70
1
10
0
20
0
30
0
3
*D3
0
LINE
5
173
100
AcDbEntity
8
0
62
256
6
ByLayer
370
-2
48
1
60
0
100
AcDbLine
10
86.5875
20
-47
30
0
11
107.1
21
-47
31
0
39
0
210
0
220
0
230
1
0
LINE
5
174
100
AcDbEntity
8
0
62
256
6
ByLayer
370
-2
48
1
60
0
100
AcDbLine
10
86.5875
20
-51
30
0
11
107.1
21
-51
31
0
39
0
210
0
220
0
230
1
0
LINE
5
175
100
AcDbEntity
8
0
62
256
6
ByLayer
370
-2
48
1
60
0
100
AcDbLine
10
105.1
20
-43.5
30
0
11
105.1
21
-40
31
0
39
0
210
0
220
0
230
1
0
LINE
5
176
100
AcDbEntity
8
0
62
256
6
ByLayer
370
-2
48
1
60
0
100
AcDbLine
10
105.1
20
-54.5
30
0
11
105.1
21
-58
31
0
39
0
210
0
220
0
230
1
0
SOLID
5
177
100
AcDbEntity
8
0
62
256
6
ByLayer
370
-1
48
1
60
0
100
AcDbTrace
10
104.516667
20
-43.5
30
0
11
105.683333
21
-43.5
31
0
12
105.1
22
-47
32
0
13
105.1
23
-47
33
0
39
0
210
0
220
0
230
1
0
SOLID
5
178
100
AcDbEntity
8
0
62
256
6
ByLayer
370
-1
48
1
60
0
100
AcDbTrace
10
105.683333
20
-54.5
30
0
11
104.516667
21
-54.5
31
0
12
105.1
22
-51
32
0
13
105.1
23
-51
33
0
39
0
210
0
220
0
230
1
0
MTEXT
5
179
100
AcDbEntity
8
0
62
256
6
ByLayer
370
18
48
1
60
0
100
AcDbMText
10
98.1
20
-49
30
0
210
0
220
0
230
1
1
\A1;4
40
3.5
41
0
44
1
50
90
71
5
72
5
7
iso_b_vert
0
POINT
5
17A
100
AcDbEntity
8
Defpoints
62
0
6
ByLayer
370
-1
48
1
60
0
100
AcDbPoint
10
85
20
-47
30
0
39
0
210
0
220
0
230
1
50
360
0
POINT
5
17B
100
AcDbEntity
8
Defpoints
62
0
6
ByLayer
370
-1
48
1
60
0
100
AcDbPoint
10
85
20
-51
30
0
39
0
210
0
220
0
230
1
50
360
0
POINT
5
17C
100
AcDbEntity
8
Defpoints
62
0
6
ByLayer
370
-1
48
1
60
0
100
AcDbPoint
10
105.1
20
-51
30
0
39
0
210
0
220
0
230
1
50
360
0
ENDBLK
5
172
100
AcDbEntity
8
0
100
AcDbBlockEnd
0
BLOCK
5
184
100
AcDbEntity
8
0
100
AcDbBlockBegin
2
_U1
70
0
10
0
20
0
30
0
3
_U1
0
MTEXT
5
17E
100
AcDbEntity
8
2
62
256
6
ByLayer
370
18
48
1
60
0
100
AcDbMText
10
104.410366
20
-49.8095
30
0
210
0
220
0
230
1
1
\W0.6380;4
40
3.5
41
0
44
1.084337
50
90
71
7
72
5
7
iso_b_vert
0
LINE
5
17F
100
AcDbEntity
8
2
62
256
6
ByLayer
370
13
48
1
60
0
100
AcDbLine
10
86.5875
20
-47
30
0
11
107.1
21
-47
31
0
39
0
210
0
220
0
230
1
0
LINE
5
180
100
AcDbEntity
8
2
62
256
6
ByLayer
370
13
48
1
60
0
100
AcDbLine
10
86.5875
20
-51
30
0
11
107.1
21
-51
31
0
39
0
210
0
220
0
230
1
0
LINE
5
181
100
AcDbEntity
8
2
62
256
6
ByLayer
370
13
48
1
60
0
100
AcDbLine
10
105.1
20
-38.25
30
0
11
105.1
21
-59.75
31
0
39
0
210
0
220
0
230
1
0
SOLID
5
182
100
AcDbEntity
8
2
62
256
6
ByLayer
370
18
48
1
60
0
100
AcDbTrace
10
105.1
20
-47
30
0
11
104.639216
21
-43.500002
31
0
12
105.560784
22
-43.499998
32
0
13
105.560784
23
-43.499998
33
0
39
0
210
0
220
0
230
1
0
SOLID
5
183
100
AcDbEntity
8
2
62
256
6
ByLayer
370
18
48
1
60
0
100
AcDbTrace
10
105.1
20
-51
30
0
11
105.560784
21
-54.499998
31
0
12
104.639216
22
-54.500002
32
0
13
104.639216
23
-54.500002
33
0
39
0
210
0
220
0
230
1
0
ENDBLK
5
185
100
AcDbEntity
8
0
100
AcDbBlockEnd
0
BLOCK
5
18A
100
AcDbEntity
8
0
100
AcDbBlockBegin
2
*D5
70
1
10
0
20
0
30
0
3
*D5
0
LINE
5
18C
100
AcDbEntity
8
0
62
256
6
ByLayer
370
-2
48
1
60
0
100
AcDbLine
10
60
20
-45.7375
30
0
11
60
21
32.925
31
0
39
0
210
0
220
0
230
1
0
LINE
5
18D
100
AcDbEntity
8
0
62
256
6
ByLayer
370
-2
48
1
60
0
100
AcDbLine
10
85
20
-45.4125
30
0
11
85
21
32.925
31
0
39
0
210
0
220
0
230
1
0
LINE
5
18E
100
AcDbEntity
8
0
62
256
6
ByLayer
370
-2
48
1
60
0
100
AcDbLine
10
63.5
20
30.925
30
0
11
81.5
21
30.925
31
0
39
0
210
0
220
0
230
1
0
SOLID
5
18F
100
AcDbEntity
8
0
62
256
6
ByLayer
370
-1
48
1
60
0
100
AcDbTrace
10
63.5
20
31.508333
30
0
11
63.5
21
30.341667
31
0
12
60
22
30.925
32
0
13
60
23
30.925
33
0
39
0
210
0
220
0
230
1
0
SOLID
5
190
100
AcDbEntity
8
0
62
256
6
ByLayer
370
-1
48
1
60
0
100
AcDbTrace
10
81.5
20
30.341667
30
0
11
81.5
21
31.508333
31
0
12
85
22
30.925
32
0
13
85
23
30.925
33
0
39
0
210
0
220
0
230
1
0
MTEXT
5
191
100
AcDbEntity
8
0
62
256
6
ByLayer
370
18
48
1
60
0
100
AcDbMText
10
72.5
20
37.925
30
0
210
0
220
0
230
1
1
\A1;25
40
3.5
41
0
44
1
50
0
71
5
72
5
7
iso_b_vert
0
POINT
5
192
100
AcDbEntity
8
Defpoints
62
0
6
ByLayer
370
-1
48
1
60
0
100
AcDbPoint
10
60
20
-47.325
30
0
39
0
210
0
220
0
230
1
50
360
0
POINT
5
193
100
AcDbEntity
8
Defpoints
62
0
6
ByLayer
370
-1
48
1
60
0
100
AcDbPoint
10
85
20
-47
30
0
39
0
210
0
220
0
230
1
50
360
0
POINT
5
194
100
AcDbEntity
8
Defpoints
62
0
6
ByLayer
370
-1
48
1
60
0
100
AcDbPoint
10
85
20
30.925
30
0
39
0
210
0
220
0
230
1
50
360
0
ENDBLK
5
18B
100
AcDbEntity
8
0
100
AcDbBlockEnd
0
BLOCK
5
19C
100
AcDbEntity
8
0
100
AcDbBlockBegin
2
_U2
70
0
10
0
20
0
30
0
3
_U2
0
MTEXT
5
196
100
AcDbEntity
8
2
62
256
6
ByLayer
370
18
48
1
60
0
100
AcDbMText
10
70.595034
20
31.957634
30
0
210
0
220
0
230
1
1
\W0.6740;25
40
3.5
41
0
44
1.084337
50
0
71
7
72
5
7
iso_b_vert
0
LINE
5
197
100
AcDbEntity
8
2
62
256
6
ByLayer
370
13
48
1
60
0
100
AcDbLine
10
60
20
-45.7375
30
0
11
60
21
32.925
31
0
39
0
210
0
220
0
230
1
0
LINE
5
198
100
AcDbEntity
8
2
62
256
6
ByLayer
370
13
48
1
60
0
100
AcDbLine
10
85
20
-45.4125
30
0
11
85
21
32.925
31
0
39
0
210
0
220
0
230
1
0
LINE
5
199
100
AcDbEntity
8
2
62
256
6
ByLayer
370
13
48
1
60
0
100
AcDbLine
10
60
20
30.925
30
0
11
85
21
30.925
31
0
39
0
210
0
220
0
230
1
0
SOLID
5
19A
100
AcDbEntity
8
2
62
256
6
ByLayer
370
18
48
1
60
0
100
AcDbTrace
10
60
20
30.925
30
0
11
63.499998
21
31.385784
31
0
12
63.500002
22
30.464216
32
0
13
63.500002
23
30.464216
33
0
39
0
210
0
220
0
230
1
0
SOLID
5
19B
100
AcDbEntity
8
2
62
256
6
ByLayer
370
18
48
1
60
0
100
AcDbTrace
10
85
20
30.925
30
0
11
81.500002
21
30.464216
31
0
12
81.499998
22
31.385784
32
0
13
81.499998
23
31.385784
33
0
39
0
210
0
220
0
230
1
0
ENDBLK
5
19D
100
AcDbEntity
8
0
100
AcDbBlockEnd
0
BLOCK
5
1A2
100
AcDbEntity
8
0
100
AcDbBlockBegin
2
*D7
70
1
10
0
20
0
30
0
3
*D7
0
LINE
5
1A4
100
AcDbEntity
8
0
62
256
6
ByLayer
370
-2
48
1
60
0
100
AcDbLine
10
0
20
-1.5875
30
0
11
0
21
-67.75
31
0
39
0
210
0
220
0
230
1
0
LINE
5
1A5
100
AcDbEntity
8
0
62
256
6
ByLayer
370
-2
48
1
60
0
100
AcDbLine
10
85
20
-52.5875
30
0
11
85
21
-67.75
31
0
39
0
210
0
220
0
230
1
0
LINE
5
1A6
100
AcDbEntity
8
0
62
256
6
ByLayer
370
-2
48
1
60
0
100
AcDbLine
10
3.5
20
-65.75
30
0
11
81.5
21
-65.75
31
0
39
0
210
0
220
0
230
1
0
SOLID
5
1A7
100
AcDbEntity
8
0
62
256
6
ByLayer
370
-1
48
1
60
0
100
AcDbTrace
10
3.5
20
-65.166667
30
0
11
3.5
21
-66.333333
31
0
12
0
22
-65.75
32
0
13
0
23
-65.75
33
0
39
0
210
0
220
0
230
1
0
SOLID
5
1A8
100
AcDbEntity
8
0
62
256
6
ByLayer
370
-1
48
1
60
0
100
AcDbTrace
10
81.5
20
-66.333333
30
0
11
81.5
21
-65.166667
31
0
12
85
22
-65.75
32
0
13
85
23
-65.75
33
0
39
0
210
0
220
0
230
1
0
MTEXT
5
1A9
100
AcDbEntity
8
0
62
256
6
ByLayer
370
18
48
1
60
0
100
AcDbMText
10
42.5
20
-58.75
30
0
210
0
220
0
230
1
1
\A1;85
40
3.5
41
0
44
1
50
0
71
5
72
5
7
iso_b_vert
0
POINT
5
1AA
100
AcDbEntity
8
Defpoints
62
0
6
ByLayer
370
-1
48
1
60
0
100
AcDbPoint
10
0
20
0
30
0
39
0
210
0
220
0
230
1
50
360
0
POINT
5
1AB
100
AcDbEntity
8
Defpoints
62
0
6
ByLayer
370
-1
48
1
60
0
100
AcDbPoint
10
85
20
-51
30
0
39
0
210
0
220
0
230
1
50
360
0
POINT
5
1AC
100
AcDbEntity
8
Defpoints
62
0
6
ByLayer
370
-1
48
1
60
0
100
AcDbPoint
10
85
20
-65.75
30
0
39
0
210
0
220
0
230
1
50
360
0
ENDBLK
5
1A3
100
AcDbEntity
8
0
100
AcDbBlockEnd
0
BLOCK
5
1B4
100
AcDbEntity
8
0
100
AcDbBlockBegin
2
_U3
70
0
10
0
20
0
30
0
3
_U3
0
MTEXT
5
1AE
100
AcDbEntity
8
2
62
256
6
ByLayer
370
18
48
1
60
0
100
AcDbMText
10
40.595034
20
-64.717366
30
0
210
0
220
0
230
1
1
\W0.6740;85
40
3.5
41
0
44
1.084337
50
0
71
7
72
5
7
iso_b_vert
0
LINE
5
1AF
100
AcDbEntity
8
2
62
256
6
ByLayer
370
13
48
1
60
0
100
AcDbLine
10
0
20
-1.5875
30
0
11
0
21
-67.75
31
0
39
0
210
0
220
0
230
1
0
LINE
5
1B0
100
AcDbEntity
8
2
62
256
6
ByLayer
370
13
48
1
60
0
100
AcDbLine
10
85
20
-52.5875
30
0
11
85
21
-67.75
31
0
39
0
210
0
220
0
230
1
0
LINE
5
1B1
100
AcDbEntity
8
2
62
256
6
ByLayer
370
13
48
1
60
0
100
AcDbLine
10
0
20
-65.75
30
0
11
85
21
-65.75
31
0
39
0
210
0
220
0
230
1
0
SOLID
5
1B2
100
AcDbEntity
8
2
62
256
6
ByLayer
370
18
48
1
60
0
100
AcDbTrace
10
0
20
-65.75
30
0
11
3.499998
21
-65.289216
31
0
12
3.500002
22
-66.210784
32
0
13
3.500002
23
-66.210784
33
0
39
0
210
0
220
0
230
1
0
SOLID
5
1B3
100
AcDbEntity
8
2
62
256
6
ByLayer
370
18
48
1
60
0
100
AcDbTrace
10
85
20
-65.75
30
0
11
81.500002
21
-66.210784
31
0
12
81.499998
22
-65.289216
32
0
13
81.499998
23
-65.289216
33
0
39
0
210
0
220
0
230
1
0
ENDBLK
5
1B5
100
AcDbEntity
8
0
100
AcDbBlockEnd
0
ENDSEC
0
SECTION
2
ENTITIES
0
ARC
5
F7
100
AcDbEntity
8
1
62
256
6
ByLayer
370
18
48
1
60
0
100
AcDbCircle
39
0
10
30.279208
20
-41.2
30
0
40
1.2
210
0
220
0
230
1
100
AcDbArc
50
60.590026
51
90
0
ARC
5
F8
100
AcDbEntity
8
SK1
62
256
6
ByLayer
370
18
48
1
60
0
100
AcDbCircle
39
0
10
-0.6
20
29.6
30
0
40
0.999999999999994
210
0
220
0
230
1
100
AcDbArc
50
293.578178
51
306.869898
0
ARC
5
F9
100
AcDbEntity
8
SK1
62
256
6
ByLayer
370
18
48
1
60
0
100
AcDbCircle
39
0
10
-0.6
20
-29.6
30
0
40
0.999999999999994
210
0
220
0
230
1
100
AcDbArc
50
53.130102
51
66.421822
0
ARC
5
FC
100
AcDbEntity
8
1
62
256
6
ByLayer
370
18
48
1
60
0
100
AcDbCircle
39
0
10
39.4
20
-41.15
30
0
40
1
210
0
220
0
230
1
100
AcDbArc
50
360
51
90
0
ARC
5
FE
100
AcDbEntity
8
1
62
256
6
ByLayer
370
18
48
1
60
0
100
AcDbCircle
39
0
10
60
20
-45.725
30
0
40
1.6
210
0
220
0
230
1
100
AcDbArc
50
180
51
270
0
ARC
5
FF
100
AcDbEntity
8
1
62
256
6
ByLayer
370
18
48
1
60
0
100
AcDbCircle
39
0
10
34.152872
20
22.5
30
0
40
3.99999999925946
210
0
220
0
230
1
100
AcDbArc
50
180.5
51
189.599004
0
ARC
5
100
100
AcDbEntity
8
1
62
256
6
ByLayer
370
18
48
1
60
0
100
AcDbCircle
39
0
10
84.7
20
-47.3
30
0
40
0.3
210
0
220
0
230
1
100
AcDbArc
50
0
51
92.5
0
ARC
5
101
100
AcDbEntity
8
1
62
256
6
ByLayer
370
18
48
1
60
0
100
AcDbCircle
39
0
10
84.7
20
-50.7
30
0
40
0.3
210
0
220
0
230
1
100
AcDbArc
50
267.5
51
0
0
ARC
5
102
100
AcDbEntity
8
1
62
256
6
ByLayer
370
18
48
1
60
0
100
AcDbCircle
39
0
10
60.3
20
-47.3
30
0
40
0.3
210
0
220
0
230
1
100
AcDbArc
50
87.5
51
180
0
ARC
5
103
100
AcDbEntity
8
1
62
256
6
ByLayer
370
18
48
1
60
0
100
AcDbCircle
39
0
10
60.3
20
-50.7
30
0
40
0.3
210
0
220
0
230
1
100
AcDbArc
50
180
51
272.5
0
ARC
5
104
100
AcDbEntity
8
1
62
256
6
ByLayer
370
18
48
1
60
0
100
AcDbCircle
39
0
10
77.55644
20
-48.332701
30
0
40
0.100000000013078
210
0
220
0
230
1
100
AcDbArc
50
190.000001
51
218.049181
0
ARC
5
105
100
AcDbEntity
8
1
62
256
6
ByLayer
370
18
48
1
60
0
100
AcDbCircle
39
0
10
77.55644
20
-49.667299
30
0
40
0.100000000013078
210
0
220
0
230
1
100
AcDbArc
50
141.950819
51
169.999999
0
CIRCLE
5
FA
100
AcDbEntity
8
1
62
256
6
ByLayer
370
18
48
1
60
0
100
AcDbCircle
10
51.65
20
-41.35
30
0
40
2.55
39
0
210
0
220
0
230
1
0
CIRCLE
5
FB
100
AcDbEntity
8
1
62
256
6
ByLayer
370
18
48
1
60
0
100
AcDbCircle
10
51.65
20
-41.35
30
0
40
3.3
39
0
210
0
220
0
230
1
0
CIRCLE
5
FD
100
AcDbEntity
8
1
62
256
6
ByLayer
370
18
48
1
60
0
100
AcDbCircle
10
51.65
20
-41.35
30
0
40
5.75000000000001
39
0
210
0
220
0
230
1
0
ELLIPSE
5
106
100
AcDbEntity
8
1
62
256
6
ByLayer
370
18
48
1
60
0
100
AcDbEllipse
10
75.697123
20
-49
30
0
11
4.8984254152895E-17
21
0.799999999999998
31
0
210
0
220
0
230
1
40
0.98719
41
0
42
6.28318530717959
0
ELLIPSE
5
107
100
AcDbEntity
8
1
62
256
6
ByLayer
370
18
48
1
60
0
100
AcDbEllipse
10
30.763884
20
0
30
0
11
18.7348357595652
21
39.4834983055016
31
0
210
0
220
0
230
1
40
0.341999
41
2.05364588642052
42
2.98049364836085
0
ELLIPSE
5
108
100
AcDbEntity
8
1
62
256
6
ByLayer
370
18
48
1
60
0
100
AcDbEllipse
10
-6.763884
20
0
30
0
11
18.7348357595646
21
-39.4834983055013
31
0
210
0
220
0
230
1
40
0.341999
41
0.161099005228949
42
1.08794676716928
0
ELLIPSE
5
109
100
AcDbEntity
8
1
62
256
6
ByLayer
370
18
48
1
60
0
100
AcDbEllipse
10
-6.763884
20
0
30
0
11
18.7348357595647
21
39.4834983055015
31
0
210
0
220
0
230
1
40
0.341999
41
-1.08794676716928
42
-0.161099005228948
0
ELLIPSE
5
10A
100
AcDbEntity
8
1
62
256
6
ByLayer
370
18
48
1
60
0
100
AcDbEllipse
10
30.763884
20
0
30
0
11
18.7348357595622
21
-39.4834983054979
31
0
210
0
220
0
230
1
40
0.341999
41
-2.98049364836084
42
-2.05364588642045
0
ELLIPSE
5
10B
100
AcDbEntity
8
1
62
256
6
ByLayer
370
18
48
1
60
0
100
AcDbEllipse
10
30.349075
20
0
30
0
11
2.44921270764464E-15
21
39.9999999999981
31
0
210
0
220
0
230
1
40
0.008727
41
0.785398163397391
42
2.72829953753641
0
ELLIPSE
5
10C
100
AcDbEntity
8
1
62
256
6
ByLayer
370
18
48
1
60
0
100
AcDbEllipse
10
77.434518
20
-50.358749
30
0
11
0.0999740022648745
21
-0.00228015867377586
31
0
210
0
220
0
230
1
40
1
41
2.98986329212853
42
-3.1187890910117
0
ELLIPSE
5
10D
100
AcDbEntity
8
1
62
256
6
ByLayer
370
18
48
1
60
0
100
AcDbEllipse
10
77.434518
20
-47.641251
30
0
11
0.0999740022648745
21
0.00228015867377586
31
0
210
0
220
0
230
1
40
1
41
3.1187890910117
42
-2.98986329212853
0
POINT
5
70
100
AcDbEntity
8
81
62
256
6
ByLayer
370
18
48
1
60
0
100
AcDbPoint
10
85
20
-51
30
0
39
0
210
0
220
0
230
1
50
360
0
POINT
5
72
100
AcDbEntity
8
80
62
256
6
ByLayer
370
18
48
1
60
0
100
AcDbPoint
10
0
20
0
30
0
39
0
210
0
220
0
230
1
50
360
0
POINT
5
74
100
AcDbEntity
8
1
62
256
6
ByLayer
370
18
48
1
60
1
100
AcDbPoint
10
85
20
-51
30
0
39
0
210
0
220
0
230
1
50
360
0
POINT
5
76
100
AcDbEntity
8
1
62
256
6
ByLayer
370
18
48
1
60
1
100
AcDbPoint
10
0
20
0
30
0
39
0
210
0
220
0
230
1
50
360
0
POINT
5
77
100
AcDbEntity
8
1
62
256
6
ByLayer
370
18
48
1
60
1
100
AcDbPoint
10
85
20
-47
30
0
39
0
210
0
220
0
230
1
50
360
0
POINT
5
78
100
AcDbEntity
8
1
62
256
6
ByLayer
370
18
48
1
60
1
100
AcDbPoint
10
85
20
-51
30
0
39
0
210
0
220
0
230
1
50
360
0
POINT
5
79
100
AcDbEntity
8
1
62
256
6
ByLayer
370
18
48
1
60
1
100
AcDbPoint
10
60
20
-47.325
30
0
39
0
210
0
220
0
230
1
50
360
0
POINT
5
7A
100
AcDbEntity
8
1
62
256
6
ByLayer
370
18
48
1
60
1
100
AcDbPoint
10
85
20
-47
30
0
39
0
210
0
220
0
230
1
50
360
0
POINT
5
7B
100
AcDbEntity
8
1
62
256
6
ByLayer
370
18
48
1
60
1
100
AcDbPoint
10
0
20
0
30
0
39
0
210
0
220
0
230
1
50
360
0
POINT
5
7C
100
AcDbEntity
8
1
62
256
6
ByLayer
370
18
48
1
60
1
100
AcDbPoint
10
85
20
-51
30
0
39
0
210
0
220
0
230
1
50
360
0
SPLINE
5
10E
100
AcDbEntity
8
SK1
62
256
6
ByLayer
370
18
48
1
60
0
100
AcDbSpline
70
4
71
3
72
11
73
7
40
0
40
0
40
0
40
0
40
0.242613274386357
40
0.502578392244697
40
0.7611106503138
40
1
40
1
40
1
40
1
41
1
10
-0.199999999999989
20
27.5602884583736
30
0
41
1
10
-0.200957398531329
20
27.5346319643647
30
0
41
1
10
-0.211247851191416
20
27.4855974197866
30
0
41
1
10
-0.255177176288498
20
27.4196125572155
30
0
41
1
10
-0.321111944271195
20
27.3763891500634
30
0
41
1
10
-0.369683308142783
20
27.3663394559984
30
0
41
1
10
-0.394913799811292
20
27.3654112548763
30
0
0
SPLINE
5
10F
100
AcDbEntity
8
SK1
62
256
6
ByLayer
370
18
48
1
60
0
100
AcDbSpline
70
4
71
3
72
11
73
7
40
0
40
0
40
0
40
0
40
0.238889349440137
40
0.497421607400416
40
0.757386725367948
40
1
40
1
40
1
40
1
41
1
10
-0.394913799811292
20
-27.3654112553951
30
0
41
1
10
-0.369683308137439
20
-27.3663394565247
30
0
41
1
10
-0.321111944249679
20
-27.3763891506148
30
0
41
1
10
-0.25517717626218
20
-27.4196125578967
30
0
41
1
10
-0.211247851186442
20
-27.4855974206285
30
0
41
1
10
-0.200957398526157
20
-27.5346319653141
30
0
41
1
10
-0.200000000000017
20
-27.5602884593823
30
0
0
SPLINE
5
110
100
AcDbEntity
8
SK1
62
256
6
ByLayer
370
18
48
1
60
0
100
AcDbSpline
70
4
71
2
72
6
73
3
40
0
40
0
40
0
40
1
40
1
40
1
41
1
10
-48
20
-25.5414489475478
30
0
41
1
10
-47.2500000380092
20
-25.9743785821414
30
0
41
1
10
-46.5
20
-26.40730807462
30
0
0
SPLINE
5
111
100
AcDbEntity
8
SK1
62
256
6
ByLayer
370
18
48
1
60
0
100
AcDbSpline
70
4
71
2
72
6
73
3
40
0
40
0
40
0
40
1
40
1
40
1
41
1
10
-46.5
20
26.4073084920199
30
0
41
1
10
-47.2500000379546
20
25.9743789770288
30
0
41
1
10
-48
20
25.5414493215235
30
0
0
SPLINE
5
112
100
AcDbEntity
8
SK1
62
256
6
ByLayer
370
18
48
1
60
0
100
AcDbSpline
70
4
71
2
72
6
73
3
40
0
40
0
40
0
40
1
40
1
40
1
41
1
10
-0.394913799811292
20
27.3654109357686
30
0
41
1
10
-1.19497688887553
20
27.3453143405603
30
0
41
1
10
-1.9950399779393
20
27.3252177453533
30
0
0
SPLINE
5
113
100
AcDbEntity
8
SK1
62
256
6
ByLayer
370
18
48
1
60
0
100
AcDbSpline
70
4
71
2
72
6
73
3
40
0
40
0
40
0
40
1
40
1
40
1
41
1
10
-1.9950399779393
20
-27.3252177457659
30
0
41
1
10
-1.19497688887553
20
-27.3453143410234
30
0
41
1
10
-0.394913799811292
20
-27.3654109362823
30
0
0
SPLINE
5
114
100
AcDbEntity
8
SK1
62
256
6
ByLayer
370
18
48
1
60
0
100
AcDbSpline
70
4
71
3
72
13
73
9
40
0
40
0
40
0
40
0
40
0.239476652228473
40
0.368387280502888
40
0.500029253623322
40
0.631666356830377
40
0.760563560434021
40
1
40
1
40
1
40
1
41
1
10
-1.9950399779393
20
27.3252180635337
30
0
41
1
10
-2.02110990202351
20
27.3248162466093
30
0
41
1
10
-2.05883986743973
20
27.3309874075326
30
0
41
1
10
-2.10627655326442
20
27.3540268954422
30
0
41
1
10
-2.138863251131
20
27.3791895457297
30
0
41
1
10
-2.16563551768928
20
27.4104653540177
30
0
41
1
10
-2.19103253552858
20
27.4566758419157
30
0
41
1
10
-2.19909167978656
20
27.4940420728663
30
0
41
1
10
-2.2
20
27.5200952670183
30
0
0
SPLINE
5
115
100
AcDbEntity
8
SK1
62
256
6
ByLayer
370
18
48
1
60
0
100
AcDbSpline
70
4
71
3
72
13
73
9
40
0
40
0
40
0
40
0
40
0.239436439813552
40
0.368333643497087
40
0.499970746731944
40
0.631612719822044
40
0.76052334801535
40
1
40
1
40
1
40
1
41
1
10
-2.2
20
-27.5200952679265
30
0
41
1
10
-2.19909167979044
20
-27.4940420737146
30
0
41
1
10
-2.19103253553247
20
-27.4566758426755
30
0
41
1
10
-2.16563551769427
20
-27.4104653546574
30
0
41
1
10
-2.13886325113762
20
-27.3791895462899
30
0
41
1
10
-2.10627655327161
20
-27.3540268959373
30
0
41
1
10
-2.05883986745029
20
-27.3309874079684
30
0
41
1
10
-2.021109902029
20
-27.3248162470299
30
0
41
1
10
-1.9950399779393
20
-27.325218063952
30
0
0
SPLINE
5
116
100
AcDbEntity
8
SK1
62
256
6
ByLayer
370
18
48
1
60
0
100
AcDbSpline
70
4
71
2
72
6
73
3
40
0
40
0
40
0
40
1
40
1
40
1
41
1
10
-2.2
20
27.5062670222795
30
0
41
1
10
-24.3500000023321
20
26.9501984525041
30
0
41
1
10
-46.5
20
26.3941258817702
30
0
0
SPLINE
5
117
100
AcDbEntity
8
SK1
62
256
6
ByLayer
370
18
48
1
60
0
100
AcDbSpline
70
4
71
2
72
6
73
3
40
0
40
0
40
0
40
1
40
1
40
1
41
1
10
-46.5
20
-26.3941258787019
30
0
41
1
10
-24.3500000023322
20
-26.9501984522264
30
0
41
1
10
-2.2
20
-27.5062670250574
30
0
0
SPLINE
5
118
100
AcDbEntity
8
1
62
256
6
ByLayer
370
18
48
1
60
0
100
AcDbSpline
70
4
71
3
72
8
73
4
40
0
40
0
40
0
40
0
40
1
40
1
40
1
40
1
41
1
10
31.56273576873
20
-41.15
30
0
41
1
10
32.409334896503
20
-44.3251950215642
30
0
41
1
10
33.2568020625245
20
-47.5001588540947
30
0
41
1
10
34.1047274241232
20
-50.6749999999783
30
0
0
SPLINE
5
119
100
AcDbEntity
8
1
62
256
6
ByLayer
370
18
48
1
60
0
100
AcDbSpline
70
4
71
3
72
12
73
8
40
0
40
0
40
0
40
0
40
0.249999999999998
40
0.249999999999998
40
0.499999999999995
40
0.499999999999995
40
1
40
1
40
1
40
1
41
1
10
31.4383186059721
20
-40.6942674440912
30
0
41
1
10
31.4482534886211
20
-40.7297418719283
30
0
41
1
10
31.458374927292
20
-40.7661241357278
30
0
41
1
10
31.4789848402707
20
-40.8406904946661
30
0
41
1
10
31.4893625717548
20
-40.8784745055498
30
0
41
1
10
31.5205868532235
20
-40.9928484766612
30
0
41
1
10
31.5415733701273
20
-41.0706297992956
30
0
41
1
10
31.56273576873
20
-41.15
30
0
0
SPLINE
5
11A
100
AcDbEntity
8
1
62
256
6
ByLayer
370
18
48
1
60
0
100
AcDbSpline
70
4
71
3
72
37
73
33
40
0
40
0
40
0
40
0
40
0.0312500000000039
40
0.0312500000000039
40
0.0625000000000078
40
0.125000000000004
40
0.125000000000004
40
0.249999999999995
40
0.249999999999995
40
0.281249999999988
40
0.281249999999988
40
0.312499999999981
40
0.312499999999981
40
0.374999999999972
40
0.374999999999972
40
0.499999999999947
40
0.499999999999947
40
0.53124999999994
40
0.53124999999994
40
0.562499999999932
40
0.624999999999925
40
0.687499999999918
40
0.687499999999918
40
0.71874999999992
40
0.71874999999992
40
0.749999999999921
40
0.749999999999921
40
0.874999999999959
40
0.874999999999959
40
0.93749999999998
40
0.93749999999998
40
1
40
1
40
1
40
1
41
1
10
38.6979991993593
20
-40.15
30
0
41
1
10
38.7161596625569
20
-40.15
30
0
41
1
10
38.7343436715721
20
-40.1503025762777
30
0
41
1
10
38.7705404692686
20
-40.1515196643775
30
0
41
1
10
38.8246748030338
20
-40.1542634146375
30
0
41
1
10
38.8783209647337
20
-40.1597933881372
30
0
41
1
10
38.9849379288975
20
-40.1747079219338
30
0
41
1
10
39.0551208774946
20
-40.1897592794783
30
0
41
1
10
39.1415829778381
20
-40.2158024637559
30
0
41
1
10
39.1588116390369
20
-40.2213750019034
30
0
41
1
10
39.1931357597246
20
-40.2332803218201
30
0
41
1
10
39.2102683325627
20
-40.2396289977521
30
0
41
1
10
39.2610060787218
20
-40.2596878790594
30
0
41
1
10
39.2940493017973
20
-40.2744353258395
30
0
41
1
10
39.3907724756647
20
-40.3229089218058
30
0
41
1
10
39.4520714248128
20
-40.3608215019205
30
0
41
1
10
39.5242042253866
20
-40.4161083927452
30
0
41
1
10
39.5384465541441
20
-40.4276015592398
30
0
41
1
10
39.5661892927071
20
-40.4511913425105
30
0
41
1
10
39.6067111080116
20
-40.4874857382757
30
0
41
1
10
39.6688047152749
20
-40.5525094185346
30
0
41
1
10
39.7125622959425
20
-40.6094566175086
30
0
41
1
10
39.7430477949145
20
-40.6541098054289
30
0
41
1
10
39.7528200581636
20
-40.6693186563508
30
0
41
1
10
39.7715554404667
20
-40.7004102576542
30
0
41
1
10
39.7805452052648
20
-40.7163445309867
30
0
41
1
10
39.8230509325826
20
-40.7971584961779
30
0
41
1
10
39.8488697960024
20
-40.8644367321645
30
0
41
1
10
39.8752531168167
20
-40.9693159907482
30
0
41
1
10
39.8819729542626
20
-41.0049415512714
30
0
41
1
10
39.8910147230196
20
-41.0776041037324
30
0
41
1
10
39.8932370625239
20
-41.1138738724258
30
0
41
1
10
39.8932370625239
20
-41.15
30
0
0
SPLINE
5
11B
100
AcDbEntity
8
1
62
256
6
ByLayer
370
18
48
1
60
0
100
AcDbSpline
70
4
71
3
72
33
73
29
40
0
40
0
40
0
40
0
40
0.124999999999989
40
0.124999999999989
40
0.187499999999984
40
0.187499999999984
40
0.249999999999979
40
0.249999999999979
40
0.374999999999963
40
0.374999999999963
40
0.406249999999956
40
0.406249999999956
40
0.437499999999948
40
0.437499999999948
40
0.499999999999935
40
0.499999999999935
40
0.624999999999928
40
0.624999999999928
40
0.656249999999934
40
0.656249999999934
40
0.68749999999994
40
0.68749999999994
40
0.749999999999952
40
0.812499999999964
40
0.812499999999964
40
0.874999999999976
40
0.874999999999976
40
1
40
1
40
1
40
1
41
1
10
39.2397368307142
20
-40.15
30
0
41
1
10
39.3071055833143
20
-40.15
30
0
41
1
10
39.3735131192457
20
-40.1560926942454
30
0
41
1
10
39.4716360317392
20
-40.1742157749747
30
0
41
1
10
39.5040980234737
20
-40.1817637186531
30
0
41
1
10
39.5685154439817
20
-40.1999671223374
30
0
41
1
10
39.600599587541
20
-40.2106842391689
30
0
41
1
10
39.6942590621149
20
-40.2470074317023
30
0
41
1
10
39.7537383245528
20
-40.2768276981421
30
0
41
1
10
39.8243435742831
20
-40.3211910993284
30
0
41
1
10
39.8382758559522
20
-40.3304211683924
30
0
41
1
10
39.8657552067244
20
-40.3496106169166
30
0
41
1
10
39.879331242548
20
-40.359592684126
30
0
41
1
10
39.9192581400242
20
-40.3905010109516
30
0
41
1
10
39.9446575523052
20
-40.412259099656
30
0
41
1
10
40.0172761539375
20
-40.4809191664988
30
0
41
1
10
40.0609510550853
20
-40.5311735123727
30
0
41
1
10
40.1093565962303
20
-40.5998444499674
30
0
41
1
10
40.1187359240042
20
-40.6138950568288
30
0
41
1
10
40.1366582573285
20
-40.6422812788688
30
0
41
1
10
40.1452277297468
20
-40.6566521540257
30
0
41
1
10
40.1697769675525
20
-40.7002908544577
30
0
41
1
10
40.1994237772518
20
-40.7598760962957
30
0
41
1
10
40.2229298975619
20
-40.8222481913133
30
0
41
1
10
40.243288334735
20
-40.8860488117296
30
0
41
1
10
40.2519070702788
20
-40.918804833698
30
0
41
1
10
40.2724024636134
20
-41.017099031744
30
0
41
1
10
40.2792156108743
20
-41.0832436260867
30
0
41
1
10
40.2792156108743
20
-41.15
30
0
0
SPLINE
5
11C
100
AcDbEntity
8
1
62
256
6
ByLayer
370
18
48
1
60
0
100
AcDbSpline
70
4
71
3
72
10
73
6
40
0
40
0
40
0
40
0
40
0.5
40
0.5
40
1
40
1
40
1
40
1
41
1
10
76.774406808652
20
-49.5
30
0
41
1
10
76.7503619959425
20
-49.6960001217519
30
0
41
1
10
76.7261379246105
20
-49.8919506890017
30
0
41
1
10
76.6770347883834
20
-50.2836636945738
30
0
41
1
10
76.6521732818724
20
-50.4794306070828
30
0
41
1
10
76.6266284544953
20
-50.675
30
0
0
SPLINE
5
11D
100
AcDbEntity
8
1
62
256
6
ByLayer
370
18
48
1
60
0
100
AcDbSpline
70
4
71
3
72
8
73
4
40
0
40
0
40
0
40
0
40
1
40
1
40
1
40
1
41
1
10
76.9330397954622
20
-49.4159227623864
30
0
41
1
10
76.8802175315189
20
-49.444186305517
30
0
41
1
10
76.8273598960424
20
-49.4722980163781
30
0
41
1
10
76.774406808652
20
-49.5
30
0
0
SPLINE
5
11E
100
AcDbEntity
8
1
62
256
6
ByLayer
370
18
48
1
60
0
100
AcDbSpline
70
4
71
3
72
20
73
16
40
0
40
0
40
0
40
0
40
0.124999999999992
40
0.124999999999992
40
0.249999999999983
40
0.249999999999983
40
0.374999999999975
40
0.374999999999975
40
0.499999999999966
40
0.499999999999966
40
0.624999999999958
40
0.624999999999958
40
0.74999999999995
40
0.74999999999995
40
1
40
1
40
1
40
1
41
1
10
77.0000000000114
20
-49.2749688692704
30
0
41
1
10
77.0000000000113
20
-49.2827395802012
30
0
41
1
10
76.9995937631252
20
-49.2904457315629
30
0
41
1
10
76.9979798151933
20
-49.3057306632175
30
0
41
1
10
76.9967642469956
20
-49.3133082123662
30
0
41
1
10
76.9936086504077
20
-49.3279014713725
30
0
41
1
10
76.9916642630197
20
-49.334975103544
30
0
41
1
10
76.9870434392174
20
-49.3486770600967
30
0
41
1
10
76.9843397653765
20
-49.3553511564102
30
0
41
1
10
76.9783611160119
20
-49.3678241997689
30
0
41
1
10
76.9750781767345
20
-49.3736667010935
30
0
41
1
10
76.9679371835434
20
-49.3845799203337
30
0
41
1
10
76.9640470829711
20
-49.3896850163107
30
0
41
1
10
76.9517092968703
20
-49.4035295253539
30
0
41
1
10
76.9427422487556
20
-49.410731282759
30
0
41
1
10
76.9330397954622
20
-49.4159227623864
30
0
0
SPLINE
5
11F
100
AcDbEntity
8
1
62
256
6
ByLayer
370
18
48
1
60
0
100
AcDbSpline
70
4
71
3
72
20
73
16
40
0
40
0
40
0
40
0
40
0.124999999999987
40
0.124999999999987
40
0.249999999999973
40
0.249999999999973
40
0.37499999999996
40
0.37499999999996
40
0.499999999999947
40
0.499999999999947
40
0.624999999999933
40
0.624999999999933
40
0.74999999999992
40
0.74999999999992
40
1
40
1
40
1
40
1
41
1
10
76.933039795462
20
-48.5840772376136
30
0
41
1
10
76.9378909441321
20
-48.5866729357044
30
0
41
1
10
76.9425740123838
20
-48.5897898375515
30
0
41
1
10
76.9516060515023
20
-48.5970596501623
30
0
41
1
10
76.9559769729611
20
-48.6012441397309
30
0
41
1
10
76.9641534857343
20
-48.6104500648764
30
0
41
1
10
76.9679840522906
20
-48.6154842294121
30
0
41
1
10
76.9751283008423
20
-48.6264174806153
30
0
41
1
10
76.9784667668225
20
-48.6323726527538
30
0
41
1
10
76.9844457620998
20
-48.6448943918017
30
0
41
1
10
76.9870887035605
20
-48.6514438932602
30
0
41
1
10
76.9916895717913
20
-48.6651134158443
30
0
41
1
10
76.9936571096376
20
-48.6722794185904
30
0
41
1
10
76.9984050459487
20
-48.6943684079368
30
0
41
1
10
77
20
-48.7094958819082
30
0
41
1
10
77
20
-48.7250311307315
30
0
0
SPLINE
5
120
100
AcDbEntity
8
1
62
256
6
ByLayer
370
18
48
1
60
0
100
AcDbSpline
70
4
71
3
72
8
73
4
40
0
40
0
40
0
40
0
40
1
40
1
40
1
40
1
41
1
10
76.774406808652
20
-48.5
30
0
41
1
10
76.8273535334488
20
-48.5276986550821
30
0
41
1
10
76.8802128688877
20
-48.5558111996547
30
0
41
1
10
76.933039795462
20
-48.5840772376136
30
0
0
SPLINE
5
121
100
AcDbEntity
8
1
62
256
6
ByLayer
370
18
48
1
60
0
100
AcDbSpline
70
4
71
3
72
10
73
6
40
0
40
0
40
0
40
0
40
0.5
40
0.5
40
1
40
1
40
1
40
1
41
1
10
76.6266284544953
20
-47.325
30
0
41
1
10
76.6521735621212
20
-47.5205715384819
30
0
41
1
10
76.6770350754956
20
-47.7163385816477
30
0
41
1
10
76.7261380106099
20
-48.1080500112188
30
0
41
1
10
76.7503619374065
20
-48.3039994010942
30
0
41
1
10
76.7744068086521
20
-48.5
30
0
0
SPLINE
5
122
100
AcDbEntity
8
1
62
256
6
ByLayer
370
18
48
1
60
0
100
AcDbSpline
70
4
71
3
72
8
73
4
40
0
40
0
40
0
40
0
40
1
40
1
40
1
40
1
41
1
10
31.4383186059721
20
-40.15
30
0
41
1
10
31.5259197946462
20
-40.15
30
0
41
1
10
31.6418147578183
20
-40.15
30
0
41
1
10
31.7834123822496
20
-40.15
30
0
0
SPLINE
5
123
100
AcDbEntity
8
1
62
256
6
ByLayer
370
18
48
1
60
0
100
AcDbSpline
70
4
71
3
72
28
73
24
40
0
40
0
40
0
40
0
40
0.0624999999999974
40
0.0624999999999974
40
0.124999999999995
40
0.124999999999995
40
0.24999999999999
40
0.24999999999999
40
0.374999999999985
40
0.374999999999985
40
0.437499999999977
40
0.437499999999977
40
0.499999999999973
40
0.499999999999973
40
0.624999999999971
40
0.624999999999971
40
0.687499999999975
40
0.687499999999975
40
0.749999999999979
40
0.749999999999979
40
0.87499999999999
40
0.87499999999999
40
1
40
1
40
1
40
1
41
1
10
31.4383186059736
20
-40.6942674440895
30
0
41
1
10
31.4323433732398
20
-40.6729317152323
30
0
41
1
10
31.4258131745906
20
-40.6521616113575
30
0
41
1
10
31.4117403469982
20
-40.611695393787
30
0
41
1
10
31.4042012241466
20
-40.5920236358192
30
0
41
1
10
31.3805116251618
20
-40.5352351721903
30
0
41
1
10
31.3632058183739
20
-40.5000695255625
30
0
41
1
10
31.3263897411272
20
-40.4344625865466
30
0
41
1
10
31.306872833698
20
-40.4040252185588
30
0
41
1
10
31.2765090403735
20
-40.36169586811
30
0
41
1
10
31.2661712819963
20
-40.3481009644152
30
0
41
1
10
31.2454649276942
20
-40.3222897026537
30
0
41
1
10
31.2350909014518
20
-40.3100594264273
30
0
41
1
10
31.2040906106817
20
-40.2753042179851
30
0
41
1
10
31.1835734399866
20
-40.2547010896054
30
0
41
1
10
31.1539176367829
20
-40.227538479235
30
0
41
1
10
31.1442216572238
20
-40.2191113093592
30
0
41
1
10
31.1254053101044
20
-40.2035387626284
30
0
41
1
10
31.1162606715609
20
-40.1963755933454
30
0
41
1
10
31.0902189606097
20
-40.1770257881538
30
0
41
1
10
31.0749500655599
20
-40.1671345012986
30
0
41
1
10
31.0506468790246
20
-40.153625764749
30
0
41
1
10
31.041617755531
20
-40.15
30
0
41
1
10
31.0369455244801
20
-40.15
30
0
0
SPLINE
5
124
100
AcDbEntity
8
1
62
256
6
ByLayer
370
18
48
1
60
0
100
AcDbSpline
70
4
71
3
72
30
73
26
40
0
40
0
40
0
40
0
40
0.0874612740929047
40
0.0874612740929047
40
0.174922548185809
40
0.174922548185809
40
0.196787866709036
40
0.196787866709036
40
0.202254196339842
40
0.202254196339842
40
0.207720525970649
40
0.218653185232262
40
0.262383822278716
40
0.349845096371624
40
0.349845096371624
40
0.524767644557438
40
0.524767644557438
40
0.612228918650346
40
0.699690192743253
40
0.699690192743253
40
0.874612740929069
40
0.874612740929069
40
0.962074015021976
40
0.962074015021976
40
1
40
1
40
1
40
1
41
1
10
31.4383186059721
20
-40.15
30
0
41
1
10
31.4269319977865
20
-40.15
30
0
41
1
10
31.4135189283775
20
-40.15
30
0
41
1
10
31.383416232102
20
-40.15
30
0
41
1
10
31.3667362030719
20
-40.15
30
0
41
1
10
31.3443022268133
20
-40.15
30
0
41
1
10
31.3397361388463
20
-40.15
30
0
41
1
10
31.3339362927608
20
-40.15
30
0
41
1
10
31.3327753974605
20
-40.15
30
0
41
1
10
31.3304187423724
20
-40.15
30
0
41
1
10
31.3268699892143
20
-40.15
30
0
41
1
10
31.3137093232844
20
-40.15
30
0
41
1
10
31.2814780428531
20
-40.15
30
0
41
1
10
31.2496359419293
20
-40.15
30
0
41
1
10
31.1842812657502
20
-40.15
30
0
41
1
10
31.1384138752952
20
-40.15
30
0
41
1
10
31.0714497752278
20
-40.15
30
0
41
1
10
31.0274523526057
20
-40.15
30
0
41
1
10
30.9870160107602
20
-40.15
30
0
41
1
10
30.9310421769195
20
-40.15
30
0
41
1
10
30.9000269415606
20
-40.15
30
0
41
1
10
30.8716111483122
20
-40.15
30
0
41
1
10
30.8651563129939
20
-40.15
30
0
41
1
10
30.8608343119145
20
-40.15
30
0
41
1
10
30.8601752503163
20
-40.15
30
0
41
1
10
30.8601626059684
20
-40.15
30
0
0
SPLINE
5
125
100
AcDbEntity
8
1
62
256
6
ByLayer
370
18
48
1
60
0
100
AcDbSpline
70
4
71
3
72
63
73
59
40
0
40
0
40
0
40
0
40
0.031249999999994
40
0.031249999999994
40
0.0390624999999938
40
0.0390624999999938
40
0.0468749999999936
40
0.0468749999999936
40
0.0624999999999923
40
0.0624999999999923
40
0.0937499999999887
40
0.0937499999999887
40
0.109374999999988
40
0.109374999999988
40
0.124999999999987
40
0.124999999999987
40
0.156249999999985
40
0.156249999999985
40
0.187499999999983
40
0.187499999999983
40
0.218749999999982
40
0.218749999999982
40
0.24999999999998
40
0.24999999999998
40
0.312499999999977
40
0.312499999999977
40
0.374999999999974
40
0.374999999999974
40
0.437499999999971
40
0.437499999999971
40
0.468749999999969
40
0.484374999999969
40
0.484374999999969
40
0.499999999999969
40
0.499999999999969
40
0.562499999999972
40
0.562499999999972
40
0.624999999999975
40
0.624999999999975
40
0.687499999999978
40
0.687499999999978
40
0.70312499999998
40
0.70312499999998
40
0.718749999999981
40
0.718749999999981
40
0.749999999999984
40
0.749999999999984
40
0.812499999999992
40
0.812499999999992
40
0.843749999999995
40
0.843749999999995
40
0.859374999999994
40
0.859374999999994
40
0.874999999999994
40
0.874999999999994
40
0.937499999999997
40
0.937499999999997
40
1
40
1
40
1
40
1
41
1
10
30.2088767614854
20
21.8329935416234
30
0
41
1
10
30.209538934229
20
21.8290781275426
30
0
41
1
10
30.2123073986452
20
21.8125551332814
30
0
41
1
10
30.217910462094
20
21.7815896915482
30
0
41
1
10
30.2191395873452
20
21.7748803729211
30
0
41
1
10
30.2218076713006
20
21.7605526291612
30
0
41
1
10
30.2232465331286
20
21.7529356572006
30
0
41
1
10
30.2278248172953
20
21.7291159796308
30
0
41
1
10
30.2312374798415
20
21.7118858554449
30
0
41
1
10
30.2424720974333
20
21.6572964735238
30
0
41
1
10
30.2512852604061
20
21.6171063850231
30
0
41
1
10
30.2663438891729
20
21.5537619808935
30
0
41
1
10
30.2716742642378
20
21.5321080552303
30
0
41
1
10
30.2829013435245
20
21.4881512909143
30
0
41
1
10
30.2888026269558
20
21.4658277574167
30
0
41
1
10
30.3073596718537
20
21.3980817043928
30
0
41
1
10
30.3208674301339
20
21.3518977816941
30
0
41
1
10
30.3501451577361
20
21.2583614376357
30
0
41
1
10
30.365915704116
20
21.2110003974861
30
0
41
1
10
30.3997434717898
20
21.1155924564021
30
0
41
1
10
30.4178054603075
20
21.0675387016971
30
0
41
1
10
30.4560633419349
20
20.9715127704263
30
0
41
1
10
30.4762793793598
20
20.9234794643128
30
0
41
1
10
30.5402167099209
20
20.7796122423994
30
0
41
1
10
30.587220192182
20
20.6840247649374
30
0
41
1
10
30.6903062541527
20
20.4944383759897
30
0
41
1
10
30.7463875787512
20
20.4004271890735
30
0
41
1
10
30.8681925602456
20
20.214562798845
30
0
41
1
10
30.9339132413591
20
20.1227041445471
30
0
41
1
10
31.0403758871885
20
19.9868996420614
30
0
41
1
10
31.0955815768222
20
19.9194928866803
30
0
41
1
10
31.153914468416
20
19.8529013261722
30
0
41
1
10
31.1935200391175
20
19.808696658412
30
0
41
1
10
31.2136903352691
20
19.7866805625549
30
0
41
1
10
31.315925092246
20
19.6775832928902
30
0
41
1
10
31.4024616079036
20
19.5930642993745
30
0
41
1
10
31.5856802995862
20
19.4300554648292
30
0
41
1
10
31.6823581944215
20
19.351562251908
30
0
41
1
10
31.886878004053
20
19.2013078149108
30
0
41
1
10
31.9947117800738
20
19.1295411355879
30
0
41
1
10
32.1374630707808
20
19.0446812015866
30
0
41
1
10
32.1664324249763
20
19.0279418355643
30
0
41
1
10
32.2251201947979
20
18.9950173868251
30
0
41
1
10
32.2547438284495
20
18.9788848976592
30
0
41
1
10
32.3444664305164
20
18.9314928110962
30
0
41
1
10
32.405416366495
20
18.9012377414351
30
0
41
1
10
32.5917951691474
20
18.8146494746647
30
0
41
1
10
32.7207373661517
20
18.7624746648283
30
0
41
1
10
32.9219242208764
20
18.6934539274438
30
0
41
1
10
32.9902856744432
20
18.6719914796568
30
0
41
1
10
33.0949092646943
20
18.6422768201155
30
0
41
1
10
33.1301652984425
20
18.6327789278365
30
0
41
1
10
33.2008157336724
20
18.6147822770434
30
0
41
1
10
33.2362764694723
20
18.6062635635381
30
0
41
1
10
33.4142594654866
20
18.5660759668119
30
0
41
1
10
33.5588131620516
20
18.5416019909406
30
0
41
1
10
33.8524010747859
20
18.5085668967538
30
0
41
1
10
34.0014337398536
20
18.5
30
0
41
1
10
34.1528724998812
20
18.5
30
0
0
SPLINE
5
126
100
AcDbEntity
8
1
62
256
6
ByLayer
370
18
48
1
60
0
100
AcDbSpline
70
4
71
3
72
38
73
34
40
0
40
0
40
0
40
0
40
0.062500000000004
40
0.062500000000004
40
0.0781250000000029
40
0.0781250000000029
40
0.0937500000000018
40
0.0937500000000018
40
0.125000000000002
40
0.125000000000002
40
0.187500000000004
40
0.187500000000004
40
0.250000000000006
40
0.250000000000006
40
0.281250000000007
40
0.281250000000007
40
0.312500000000008
40
0.312500000000008
40
0.375000000000009
40
0.375000000000009
40
0.500000000000013
40
0.500000000000013
40
0.531250000000013
40
0.531250000000013
40
0.562500000000012
40
0.562500000000012
40
0.625000000000011
40
0.625000000000011
40
0.750000000000007
40
0.750000000000007
40
0.875000000000004
40
0.875000000000004
40
1
40
1
40
1
40
1
41
1
10
31.4383186059721
20
-38.6951632524472
30
0
41
1
10
31.4236062806995
20
-38.6323181964143
30
0
41
1
10
31.4055783526079
20
-38.5715657644017
30
0
41
1
10
31.3797289403101
20
-38.4978625384181
30
0
41
1
10
31.3743921268212
20
-38.483234577472
30
0
41
1
10
31.3634012745319
20
-38.4541973909741
30
0
41
1
10
31.3577396778577
20
-38.4397703982663
30
0
41
1
10
31.3403931695204
20
-38.3970275895857
30
0
41
1
10
31.3283300177427
20
-38.3691978315109
30
0
41
1
10
31.2908659059299
20
-38.2875256898739
30
0
41
1
10
31.2641968984461
20
-38.2354933777068
30
0
41
1
10
31.2084250730915
20
-38.1355542995465
30
0
41
1
10
31.1793184724941
20
-38.0876517715781
30
0
41
1
10
31.134410150006
20
-38.018507957732
30
0
41
1
10
31.1192171624092
20
-37.9958918874906
30
0
41
1
10
31.0885629430578
20
-37.951599228367
30
0
41
1
10
31.0731657555375
20
-37.9300132654186
30
0
41
1
10
31.0268807483723
20
-37.8667869095886
30
0
41
1
10
30.9959024017868
20
-37.8266742178163
30
0
41
1
10
30.9034057873297
20
-37.7114365520819
30
0
41
1
10
30.8423516004686
20
-37.6413861381143
30
0
41
1
10
30.7689117054115
20
-37.5595993719899
30
0
41
1
10
30.7543849144719
20
-37.5435549936653
30
0
41
1
10
30.7258048522757
20
-37.5121467937571
30
0
41
1
10
30.7117341212087
20
-37.4967635347892
30
0
41
1
10
30.6702212160129
20
-37.4514663567002
30
0
41
1
10
30.643479579422
20
-37.4224028589506
30
0
41
1
10
30.5663348776948
20
-37.3378268219192
30
0
41
1
10
30.5190248418712
20
-37.2849044493056
30
0
41
1
10
30.4337296430649
20
-37.1824975577105
30
0
41
1
10
30.3957384548266
20
-37.1330186822154
30
0
41
1
10
30.3298062459452
20
-37.0347554140938
30
0
41
1
10
30.3018606268141
20
-36.985971479143
30
0
41
1
10
30.2792076144253
20
-36.9364811907887
30
0
0
SPLINE
5
127
100
AcDbEntity
8
1
62
256
6
ByLayer
370
18
48
1
60
0
100
AcDbSpline
70
4
71
3
72
8
73
4
40
0
40
0
40
0
40
0
40
1
40
1
40
1
40
1
41
1
10
31.7834123822496
20
-40.15
30
0
41
1
10
31.6666803825552
20
-39.6637134229646
30
0
41
1
10
31.5515128166215
20
-39.1786827763201
30
0
41
1
10
31.4383186059721
20
-38.6951632524472
30
0
0
SPLINE
5
128
100
AcDbEntity
8
1
62
256
6
ByLayer
370
18
48
1
60
0
100
AcDbSpline
70
4
71
3
72
26
73
22
40
0
40
0
40
0
40
0
40
0.249999999999988
40
0.249999999999988
40
0.374999999999991
40
0.374999999999991
40
0.499999999999994
40
0.499999999999994
40
0.562499999999997
40
0.562499999999997
40
0.625
40
0.625
40
0.75
40
0.75
40
0.875
40
0.875
40
0.906249999999999
40
0.906249999999999
40
0.937499999999999
40
0.937499999999999
40
1
40
1
40
1
40
1
41
1
10
13.8943375672974
20
-37.944501011719
30
0
41
1
10
13.8787504379151
20
-37.9636126331776
30
0
41
1
10
13.8599678398712
20
-37.9823481941391
30
0
41
1
10
13.825773750339
20
-38.0093303853474
30
0
41
1
10
13.8133554924885
20
-38.0181487945758
30
0
41
1
10
13.7859982057652
20
-38.035372109362
30
0
41
1
10
13.7710680782537
20
-38.0437782351316
30
0
41
1
10
13.746168017513
20
-38.0559959802046
30
0
41
1
10
13.7374189069211
20
-38.0600136207933
30
0
41
1
10
13.7191444204645
20
-38.0677988367432
30
0
41
1
10
13.7096051321545
20
-38.0715750854946
30
0
41
1
10
13.6795828635239
20
-38.0825033540054
30
0
41
1
10
13.6577471021953
20
-38.0892687952497
30
0
41
1
10
13.6085397975367
20
-38.101260466828
30
0
41
1
10
13.5820585103617
20
-38.1062685963606
30
0
41
1
10
13.5456561777207
20
-38.1107596566994
30
0
41
1
10
13.5381834149644
20
-38.1115687100729
30
0
41
1
10
13.5231743077462
20
-38.1129588629861
30
0
41
1
10
13.5156051329864
20
-38.1135446782955
30
0
41
1
10
13.492696782916
20
-38.1149630443688
30
0
41
1
10
13.4771575420863
20
-38.1154578595254
30
0
41
1
10
13.4613248654052
20
-38.1154578595254
30
0
0
SPLINE
5
129
100
AcDbEntity
8
1
62
256
6
ByLayer
370
18
48
1
60
0
100
AcDbSpline
70
4
71
3
72
32
73
28
40
0
40
0
40
0
40
0
40
0.0312500000000036
40
0.0312500000000036
40
0.0625000000000072
40
0.0625000000000072
40
0.125000000000015
40
0.125000000000015
40
0.156250000000018
40
0.156250000000018
40
0.187500000000021
40
0.187500000000021
40
0.25000000000002
40
0.25000000000002
40
0.312500000000019
40
0.312500000000019
40
0.375000000000019
40
0.375000000000019
40
0.50000000000002
40
0.50000000000002
40
0.562500000000021
40
0.562500000000021
40
0.625000000000022
40
0.625000000000022
40
0.750000000000018
40
0.750000000000018
40
1
40
1
40
1
40
1
41
1
10
10.5386751345948
20
-38.1154578595255
30
0
41
1
10
10.5307714182283
20
-38.1154578595255
30
0
41
1
10
10.5229047461539
20
-38.1153341847952
30
0
41
1
10
10.5072437053031
20
-38.1148453768632
30
0
41
1
10
10.4994196995473
20
-38.114478227072
30
0
41
1
10
10.4762789311364
20
-38.1130353910943
30
0
41
1
10
10.4613811472321
20
-38.1116304436586
30
0
41
1
10
10.4397128415675
20
-38.1089532874669
30
0
41
1
10
10.432603663757
20
-38.1079654954302
30
0
41
1
10
10.4185983762289
20
-38.1058104966307
30
0
41
1
10
10.4116899654458
20
-38.1046401449178
30
0
41
1
10
10.3915960688954
20
-38.1009395753102
30
0
41
1
10
10.3789180567415
20
-38.0982048271662
30
0
41
1
10
10.3547095572442
20
-38.0923035991791
30
0
41
1
10
10.3431810144994
20
-38.0891364033824
30
0
41
1
10
10.3210869468855
20
-38.0824358644267
30
0
41
1
10
10.3104862719055
20
-38.0788882765901
30
0
41
1
10
10.2802620066643
20
-38.0678870466104
30
0
41
1
10
10.2621641170174
20
-38.0600837295902
30
0
41
1
10
10.237235975785
20
-38.0478530906642
30
0
41
1
10
10.2292880651854
20
-38.0436784163767
30
0
41
1
10
10.214166060695
20
-38.0352325300315
30
0
41
1
10
10.2069816681334
20
-38.0309572795535
30
0
41
1
10
10.1864101449814
20
-38.0179913785432
30
0
41
1
10
10.1739972864805
20
-38.0091614379608
30
0
41
1
10
10.1398761201258
20
-37.9822012953861
30
0
41
1
10
10.1212438126113
20
-37.9636055836586
30
0
41
1
10
10.1056624327027
20
-37.944501011719
30
0
0
SPLINE
5
12A
100
AcDbEntity
8
1
62
256
6
ByLayer
370
18
48
1
60
0
100
AcDbSpline
70
4
71
3
72
26
73
22
40
0
40
0
40
0
40
0
40
0.250000000000006
40
0.250000000000006
40
0.375000000000005
40
0.375000000000005
40
0.500000000000004
40
0.500000000000004
40
0.562499999999999
40
0.562499999999999
40
0.624999999999994
40
0.624999999999994
40
0.74999999999999
40
0.74999999999999
40
0.874999999999986
40
0.874999999999986
40
0.906249999999989
40
0.906249999999989
40
0.937499999999993
40
0.937499999999993
40
1
40
1
40
1
40
1
41
1
10
10.1056624327026
20
-12.6576002058705
30
0
41
1
10
10.1212495620849
20
-12.6003080708706
30
0
41
1
10
10.1400321601288
20
-12.5437053894651
30
0
41
1
10
10.1742262496611
20
-12.4616063758704
30
0
41
1
10
10.1866445075116
20
-12.4346746200447
30
0
41
1
10
10.2140017942348
20
-12.3818915830843
30
0
41
1
10
10.2289319217464
20
-12.3560364080033
30
0
41
1
10
10.2538319824871
20
-12.3183336732124
30
0
41
1
10
10.2625810930789
20
-12.3059141713457
30
0
41
1
10
10.2808555795356
20
-12.2818098068953
30
0
41
1
10
10.2903948678456
20
-12.2700982796013
30
0
41
1
10
10.3204171364762
20
-12.2361555816481
30
0
41
1
10
10.3422528978048
20
-12.2150722196262
30
0
41
1
10
10.3914602024634
20
-12.1776162497592
30
0
41
1
10
10.4179414896384
20
-12.1619255694049
30
0
41
1
10
10.4543438222794
20
-12.1478396076278
30
0
41
1
10
10.4618165850357
20
-12.1453009719698
30
0
41
1
10
10.4768256922539
20
-12.1409378530105
30
0
41
1
10
10.4843948670137
20
-12.1390985861073
30
0
41
1
10
10.5073032170841
20
-12.1346446934813
30
0
41
1
10
10.5228424579138
20
-12.1330899674709
30
0
41
1
10
10.5386751345949
20
-12.1330899674709
30
0
0
SPLINE
5
12B
100
AcDbEntity
8
1
62
256
6
ByLayer
370
18
48
1
60
0
100
AcDbSpline
70
4
71
3
72
32
73
28
40
0
40
0
40
0
40
0
40
0.0312500000000013
40
0.0312500000000013
40
0.0625000000000027
40
0.0625000000000027
40
0.125000000000005
40
0.125000000000005
40
0.156250000000005
40
0.156250000000005
40
0.187500000000006
40
0.187500000000006
40
0.250000000000002
40
0.250000000000002
40
0.312499999999999
40
0.312499999999999
40
0.374999999999996
40
0.374999999999996
40
0.500000000000005
40
0.500000000000005
40
0.562500000000005
40
0.562500000000005
40
0.625000000000004
40
0.625000000000004
40
0.750000000000003
40
0.750000000000003
40
1
40
1
40
1
40
1
41
1
10
13.4613248654052
20
-12.1330899674708
30
0
41
1
10
13.4692285817718
20
-12.1330899674708
30
0
41
1
10
13.4770952538462
20
-12.1334785049664
30
0
41
1
10
13.492756294697
20
-12.1350139079815
30
0
41
1
10
13.5005803004527
20
-12.1361671045752
30
0
41
1
10
13.5237210688637
20
-12.1406978104913
30
0
41
1
10
13.538618852768
20
-12.1451084576005
30
0
41
1
10
13.5602871584325
20
-12.1535051719203
30
0
41
1
10
13.567396336243
20
-12.1566022540001
30
0
41
1
10
13.5814016237712
20
-12.1633555796796
30
0
41
1
10
13.5883100345542
20
-12.1670216512239
30
0
41
1
10
13.6084039311046
20
-12.1786070311295
30
0
41
1
10
13.6210819432586
20
-12.1871605631487
30
0
41
1
10
13.6452904427559
20
-12.2055929865225
30
0
41
1
10
13.6568189855007
20
-12.2154741288524
30
0
41
1
10
13.6789130531145
20
-12.2363474443953
30
0
41
1
10
13.6895137280946
20
-12.2473838346622
30
0
41
1
10
13.7197379933358
20
-12.2815531796604
30
0
41
1
10
13.7378358829827
20
-12.3057192432198
30
0
41
1
10
13.762764024215
20
-12.3434618357382
30
0
41
1
10
13.7707119348146
20
-12.3563230389552
30
0
41
1
10
13.785833939305
20
-12.3822967529511
30
0
41
1
10
13.7930183318667
20
-12.3954218364665
30
0
41
1
10
13.8135898550187
20
-12.4351561290449
30
0
41
1
10
13.8260027135196
20
-12.4621216159941
30
0
41
1
10
13.8601238798743
20
-12.5441499637057
30
0
41
1
10
13.8787561873888
20
-12.6003292036664
30
0
41
1
10
13.8943375672974
20
-12.6576002058705
30
0
0
SPLINE
5
12C
100
AcDbEntity
8
1
62
256
6
ByLayer
370
18
48
1
60
0
100
AcDbSpline
70
4
71
3
72
26
73
22
40
0
40
0
40
0
40
0
40
0.250000000000018
40
0.250000000000018
40
0.375000000000023
40
0.375000000000023
40
0.500000000000029
40
0.500000000000029
40
0.562500000000025
40
0.562500000000025
40
0.625000000000021
40
0.625000000000021
40
0.750000000000015
40
0.750000000000015
40
0.875000000000008
40
0.875000000000008
40
0.906250000000007
40
0.906250000000007
40
0.937500000000005
40
0.937500000000005
40
1
40
1
40
1
40
1
41
1
10
10.1056624327026
20
37.944501011719
30
0
41
1
10
10.1212495620849
20
37.9636126331776
30
0
41
1
10
10.1400321601288
20
37.9823481941392
30
0
41
1
10
10.1742262496611
20
38.0093303853474
30
0
41
1
10
10.1866445075115
20
38.0181487945758
30
0
41
1
10
10.2140017942348
20
38.035372109362
30
0
41
1
10
10.2289319217464
20
38.0437782351316
30
0
41
1
10
10.2538319824871
20
38.0559959802046
30
0
41
1
10
10.2625810930789
20
38.0600136207933
30
0
41
1
10
10.2808555795356
20
38.0677988367432
30
0
41
1
10
10.2903948678456
20
38.0715750854947
30
0
41
1
10
10.3204171364761
20
38.0825033540054
30
0
41
1
10
10.3422528978047
20
38.0892687952497
30
0
41
1
10
10.3914602024633
20
38.101260466828
30
0
41
1
10
10.4179414896383
20
38.1062685963606
30
0
41
1
10
10.4543438222793
20
38.1107596566994
30
0
41
1
10
10.4618165850356
20
38.1115687100729
30
0
41
1
10
10.4768256922539
20
38.1129588629861
30
0
41
1
10
10.4843948670136
20
38.1135446782955
30
0
41
1
10
10.5073032170841
20
38.1149630443688
30
0
41
1
10
10.5228424579138
20
38.1154578595254
30
0
41
1
10
10.5386751345949
20
38.1154578595254
30
0
0
SPLINE
5
12D
100
AcDbEntity
8
1
62
256
6
ByLayer
370
18
48
1
60
0
100
AcDbSpline
70
4
71
3
72
32
73
28
40
0
40
0
40
0
40
0
40
0.031250000000001
40
0.031250000000001
40
0.0625000000000019
40
0.0625000000000019
40
0.124999999999998
40
0.124999999999998
40
0.156249999999997
40
0.156249999999997
40
0.187499999999995
40
0.187499999999995
40
0.249999999999991
40
0.249999999999991
40
0.312499999999988
40
0.312499999999988
40
0.374999999999984
40
0.374999999999984
40
0.499999999999975
40
0.499999999999975
40
0.562499999999973
40
0.562499999999973
40
0.624999999999972
40
0.624999999999972
40
0.749999999999977
40
0.749999999999977
40
1
40
1
40
1
40
1
41
1
10
13.4613248654052
20
38.1154578595255
30
0
41
1
10
13.4692285817718
20
38.1154578595255
30
0
41
1
10
13.4770952538462
20
38.1153341847952
30
0
41
1
10
13.492756294697
20
38.1148453768633
30
0
41
1
10
13.5005803004527
20
38.114478227072
30
0
41
1
10
13.5237210688637
20
38.1130353910943
30
0
41
1
10
13.538618852768
20
38.1116304436586
30
0
41
1
10
13.5602871584325
20
38.1089532874668
30
0
41
1
10
13.567396336243
20
38.1079654954302
30
0
41
1
10
13.5814016237712
20
38.1058104966308
30
0
41
1
10
13.5883100345542
20
38.1046401449178
30
0
41
1
10
13.6084039311046
20
38.1009395753102
30
0
41
1
10
13.6210819432585
20
38.0982048271662
30
0
41
1
10
13.6452904427558
20
38.0923035991791
30
0
41
1
10
13.6568189855006
20
38.0891364033824
30
0
41
1
10
13.6789130531145
20
38.0824358644267
30
0
41
1
10
13.6895137280946
20
38.0788882765901
30
0
41
1
10
13.7197379933357
20
38.0678870466104
30
0
41
1
10
13.7378358829827
20
38.0600837295902
30
0
41
1
10
13.762764024215
20
38.0478530906642
30
0
41
1
10
13.7707119348146
20
38.0436784163768
30
0
41
1
10
13.785833939305
20
38.0352325300315
30
0
41
1
10
13.7930183318667
20
38.0309572795535
30
0
41
1
10
13.8135898550187
20
38.0179913785433
30
0
41
1
10
13.8260027135196
20
38.0091614379608
30
0
41
1
10
13.8601238798742
20
37.9822012953861
30
0
41
1
10
13.8787561873888
20
37.9636055836586
30
0
41
1
10
13.8943375672974
20
37.9445010117191
30
0
0
SPLINE
5
12E
100
AcDbEntity
8
1
62
256
6
ByLayer
370
18
48
1
60
0
100
AcDbSpline
70
4
71
3
72
26
73
22
40
0
40
0
40
0
40
0
40
0.250000000000022
40
0.250000000000022
40
0.375000000000026
40
0.375000000000026
40
0.500000000000029
40
0.500000000000029
40
0.562500000000026
40
0.562500000000026
40
0.625000000000022
40
0.625000000000022
40
0.750000000000012
40
0.750000000000012
40
0.875000000000002
40
0.875000000000002
40
0.906250000000002
40
0.906250000000002
40
0.937500000000002
40
0.937500000000002
40
1
40
1
40
1
40
1
41
1
10
13.8943375672974
20
12.6576002058704
30
0
41
1
10
13.8787504379151
20
12.6003080708705
30
0
41
1
10
13.8599678398712
20
12.5437053894651
30
0
41
1
10
13.8257737503389
20
12.4616063758704
30
0
41
1
10
13.8133554924885
20
12.4346746200447
30
0
41
1
10
13.7859982057652
20
12.3818915830843
30
0
41
1
10
13.7710680782537
20
12.3560364080033
30
0
41
1
10
13.7461680175129
20
12.3183336732124
30
0
41
1
10
13.7374189069211
20
12.3059141713457
30
0
41
1
10
13.7191444204645
20
12.2818098068953
30
0
41
1
10
13.7096051321544
20
12.2700982796013
30
0
41
1
10
13.6795828635239
20
12.2361555816481
30
0
41
1
10
13.6577471021953
20
12.2150722196261
30
0
41
1
10
13.6085397975367
20
12.1776162497591
30
0
41
1
10
13.5820585103617
20
12.1619255694049
30
0
41
1
10
13.5456561777207
20
12.1478396076278
30
0
41
1
10
13.5381834149644
20
12.1453009719697
30
0
41
1
10
13.5231743077461
20
12.1409378530104
30
0
41
1
10
13.5156051329864
20
12.1390985861073
30
0
41
1
10
13.4926967829159
20
12.1346446934813
30
0
41
1
10
13.4771575420863
20
12.1330899674709
30
0
41
1
10
13.4613248654052
20
12.1330899674709
30
0
0
SPLINE
5
12F
100
AcDbEntity
8
1
62
256
6
ByLayer
370
18
48
1
60
0
100
AcDbSpline
70
4
71
3
72
32
73
28
40
0
40
0
40
0
40
0
40
0.0312500000000039
40
0.0312500000000039
40
0.062500000000008
40
0.062500000000008
40
0.125000000000016
40
0.125000000000016
40
0.156250000000016
40
0.156250000000016
40
0.187500000000017
40
0.187500000000017
40
0.250000000000018
40
0.250000000000018
40
0.312500000000019
40
0.312500000000019
40
0.37500000000002
40
0.37500000000002
40
0.50000000000002
40
0.50000000000002
40
0.562500000000015
40
0.562500000000015
40
0.62500000000001
40
0.62500000000001
40
0.750000000000007
40
0.750000000000007
40
1
40
1
40
1
40
1
41
1
10
10.5386751345948
20
12.1330899674708
30
0
41
1
10
10.5307714182283
20
12.1330899674708
30
0
41
1
10
10.5229047461539
20
12.1334785049664
30
0
41
1
10
10.507243705303
20
12.1350139079815
30
0
41
1
10
10.4994196995473
20
12.1361671045752
30
0
41
1
10
10.4762789311363
20
12.1406978104912
30
0
41
1
10
10.4613811472321
20
12.1451084576005
30
0
41
1
10
10.4397128415675
20
12.1535051719203
30
0
41
1
10
10.432603663757
20
12.1566022540001
30
0
41
1
10
10.4185983762288
20
12.1633555796795
30
0
41
1
10
10.4116899654458
20
12.1670216512238
30
0
41
1
10
10.3915960688954
20
12.1786070311295
30
0
41
1
10
10.3789180567415
20
12.1871605631487
30
0
41
1
10
10.3547095572442
20
12.2055929865225
30
0
41
1
10
10.3431810144994
20
12.2154741288524
30
0
41
1
10
10.3210869468855
20
12.2363474443952
30
0
41
1
10
10.3104862719055
20
12.2473838346622
30
0
41
1
10
10.2802620066643
20
12.2815531796603
30
0
41
1
10
10.2621641170173
20
12.3057192432198
30
0
41
1
10
10.237235975785
20
12.3434618357382
30
0
41
1
10
10.2292880651854
20
12.3563230389552
30
0
41
1
10
10.214166060695
20
12.3822967529511
30
0
41
1
10
10.2069816681334
20
12.3954218364665
30
0
41
1
10
10.1864101449814
20
12.4351561290448
30
0
41
1
10
10.1739972864805
20
12.4621216159941
30
0
41
1
10
10.1398761201258
20
12.5441499637057
30
0
41
1
10
10.1212438126113
20
12.6003292036664
30
0
41
1
10
10.1056624327027
20
12.6576002058705
30
0
0
SPLINE
5
130
100
AcDbEntity
8
1
62
256
6
ByLayer
370
18
48
1
60
0
100
AcDbSpline
70
4
71
3
72
9
73
5
40
0
40
0
40
0
40
0
40
0.499999999999997
40
1
40
1
40
1
40
1
41
1
10
30.2088767614854
20
-36.6321274202501
30
0
41
1
10
30.2099168105575
20
-36.6843930948555
30
0
41
1
10
30.2226269032886
20
-36.7873689042193
30
0
41
1
10
30.2566880177041
20
-36.8872823771288
30
0
41
1
10
30.2792076144253
20
-36.9364811907886
30
0
0
SPLINE
5
131
100
AcDbEntity
8
SK1
62
256
6
ByLayer
370
18
48
1
60
0
100
AcDbSpline
70
4
71
3
72
53
73
49
40
0
40
0
40
0
40
0
40
0.027493445102265
40
0.0552880858501586
40
0.0830827265980521
40
0.0969800469719988
40
0.110877367345946
40
0.138672008093839
40
0.166466648841733
40
0.194261289589626
40
0.22205593033752
40
0.249850571085413
40
0.277645211833307
40
0.3054398525812
40
0.333234493329094
40
0.361029134076987
40
0.388823774824881
40
0.416618415572774
40
0.430515735946721
40
0.444413056320668
40
0.458310376694615
40
0.472207697068562
40
0.486105017442508
40
0.493053677629482
40
0.500002337816455
40
0.506950998003428
40
0.513899658190402
40
0.527796978564348
40
0.541694298938295
40
0.555591619312242
40
0.569488939686189
40
0.583386260060136
40
0.611180900808029
40
0.638975541555923
40
0.666770182303816
40
0.69456482305171
40
0.722359463799603
40
0.750154104547497
40
0.77794874529539
40
0.805743386043284
40
0.833538026791177
40
0.861332667539071
40
0.889127308286964
40
0.903024628660911
40
0.916921949034858
40
0.944716589782751
40
0.972511230530645
40
1
40
1
40
1
40
1
41
1
10
-48
20
-25.5414466764329
30
0
41
1
10
-48
20
-25.5425932991284
30
0
41
1
10
-48
20
-25.4641077393683
30
0
41
1
10
-48
20
-25.1322422668055
30
0
41
1
10
-48
20
-24.6943791914988
30
0
41
1
10
-48
20
-24.2527492082177
30
0
41
1
10
-48
20
-23.7534935831729
30
0
41
1
10
-48
20
-23.0303087127374
30
0
41
1
10
-48
20
-22.0048965474211
30
0
41
1
10
-48
20
-20.8328486998638
30
0
41
1
10
-48
20
-19.5200990771864
30
0
41
1
10
-48
20
-18.0723510721556
30
0
41
1
10
-48
20
-16.4949787826048
30
0
41
1
10
-48
20
-14.7914038739653
30
0
41
1
10
-48
20
-12.9663999896201
30
0
41
1
10
-48
20
-11.0239135020289
30
0
41
1
10
-48
20
-8.96950825544064
30
0
41
1
10
-48
20
-7.17686534047004
30
0
41
1
10
-48
20
-5.68399961261883
30
0
41
1
10
-48
20
-4.55359888251641
30
0
41
1
10
-48
20
-3.41075020779314
30
0
41
1
10
-48
20
-2.26472380030225
30
0
41
1
10
-48
20
-1.32161426869376
30
0
41
1
10
-48
20
-0.561043122290016
30
0
41
1
10
-48
20
-5.827932625E-07
30
0
41
1
10
-48
20
0.561042317499243
30
0
41
1
10
-48
20
1.32161475247156
30
0
41
1
10
-48
20
2.26472549180249
30
0
41
1
10
-48
20
3.41075035191335
30
0
41
1
10
-48
20
4.55359781560873
30
0
41
1
10
-48
20
5.68399982568388
30
0
41
1
10
-48
20
7.1768657739095
30
0
41
1
10
-48
20
8.96950823728534
30
0
41
1
10
-48
20
11.0239134221955
30
0
41
1
10
-48
20
12.966399868565
30
0
41
1
10
-48
20
14.7914034442658
30
0
41
1
10
-48
20
16.4949784354156
30
0
41
1
10
-48
20
18.0723511216477
30
0
41
1
10
-48
20
19.5200996220053
30
0
41
1
10
-48
20
20.832848719972
30
0
41
1
10
-48
20
22.004895488713
30
0
41
1
10
-48
20
23.0303097721662
30
0
41
1
10
-48
20
23.753496542719
30
0
41
1
10
-48
20
24.2527507958703
30
0
41
1
10
-48
20
24.694378987226
30
0
41
1
10
-48
20
25.1322425192968
30
0
41
1
10
-48
20
25.4640889910462
30
0
41
1
10
-48
20
25.5425798368858
30
0
41
1
10
-48
20
25.5414472702744
30
0
0
SPLINE
5
132
100
AcDbEntity
8
SK1
62
256
6
ByLayer
370
18
48
1
60
0
100
AcDbSpline
70
4
71
3
72
34
73
30
40
0
40
0
40
0
40
0
40
0.0312500000000022
40
0.0312500000000022
40
0.0625000000000046
40
0.0625000000000046
40
0.0781250000000057
40
0.0781250000000057
40
0.0937500000000067
40
0.0937500000000067
40
0.125000000000007
40
0.125000000000007
40
0.156250000000008
40
0.156250000000008
40
0.187500000000009
40
0.187500000000009
40
0.250000000000007
40
0.250000000000007
40
0.312500000000006
40
0.312500000000006
40
0.375000000000005
40
0.375000000000005
40
0.500000000000004
40
0.500000000000004
40
0.625000000000003
40
0.625000000000003
40
0.750000000000002
40
0.750000000000002
40
1
40
1
40
1
40
1
41
1
10
-0.394913799811292
20
5.8825856729909
30
0
41
1
10
-0.388790995722076
20
5.87734923192875
30
0
41
1
10
-0.382101750029392
20
5.87272803663089
30
0
41
1
10
-0.367571007865081
20
5.8661622833377
30
0
41
1
10
-0.359534957572151
20
5.86423711805912
30
0
41
1
10
-0.34737181291041
20
5.86477563679688
30
0
41
1
10
-0.343284951652919
20
5.86552288649176
30
0
41
1
10
-0.335493722016963
20
5.86801034282462
30
0
41
1
10
-0.331681166148428
20
5.86978149468354
30
0
41
1
10
-0.321040616956566
20
5.87610899057313
30
0
41
1
10
-0.314848838487848
20
5.88165454576182
30
0
41
1
10
-0.303674067400834
20
5.89408804025425
30
0
41
1
10
-0.298797923187948
20
5.90086426726452
30
0
41
1
10
-0.289905978981636
20
5.91504038952888
30
0
41
1
10
-0.285980482524735
20
5.92231143869844
30
0
41
1
10
-0.275173744753175
20
5.94446441589309
30
0
41
1
10
-0.269245267236243
20
5.95968016956073
30
0
41
1
10
-0.258730367644091
20
5.99057839566021
30
0
41
1
10
-0.254174420408049
20
6.00627164279575
30
0
41
1
10
-0.245978726317759
20
6.03797456128368
30
0
41
1
10
-0.242355179803184
20
6.05395477419671
30
0
41
1
10
-0.232547642906582
20
6.10194739347932
30
0
41
1
10
-0.227377685183996
20
6.1341297290364
30
0
41
1
10
-0.218714447593271
20
6.19862926640158
30
0
41
1
10
-0.2152523252131
20
6.23085553749721
30
0
41
1
10
-0.209543235203512
20
6.29526142118763
30
0
41
1
10
-0.207302963817313
20
6.32744107363968
30
0
41
1
10
-0.202001510499883
20
6.42391230321689
30
0
41
1
10
-0.200337167165458
20
6.48813612986319
30
0
41
1
10
-0.200000000000017
20
6.55227712232445
30
0
0
SPLINE
5
133
100
AcDbEntity
8
SK1
62
256
6
ByLayer
370
18
48
1
60
0
100
AcDbSpline
70
4
71
3
72
38
73
34
40
0
40
0
40
0
40
0
40
0.25
40
0.25
40
0.374999999999999
40
0.374999999999999
40
0.499999999999997
40
0.499999999999997
40
0.624999999999996
40
0.624999999999996
40
0.687499999999996
40
0.687499999999996
40
0.749999999999995
40
0.749999999999995
40
0.812499999999994
40
0.812499999999994
40
0.843749999999995
40
0.843749999999995
40
0.874999999999996
40
0.874999999999996
40
0.906249999999998
40
0.906249999999998
40
0.921874999999998
40
0.921874999999998
40
0.937499999999998
40
0.937499999999998
40
0.953124999999999
40
0.953124999999999
40
0.968749999999999
40
0.968749999999999
40
0.984375
40
0.984375
40
1
40
1
40
1
40
1
41
1
10
-0.200000000000017
20
-6.55227865789408
30
0
41
1
10
-0.20033707875217
20
-6.48815453706823
30
0
41
1
10
-0.202001043985945
20
-6.42397958323062
30
0
41
1
10
-0.207290131858287
20
-6.3276477818182
30
0
41
1
10
-0.209524252435528
20
-6.29552574618808
30
0
41
1
10
-0.215212061754897
20
-6.23126348879413
30
0
41
1
10
-0.218659309075378
20
-6.19912309063727
30
0
41
1
10
-0.22727249267632
20
-6.13483454456443
30
0
41
1
10
-0.232418188950987
20
-6.1026714064829
30
0
41
1
10
-0.242238444719135
20
-6.05448453988899
30
0
41
1
10
-0.245851820113216
20
-6.03851342290707
30
0
41
1
10
-0.254019815815354
20
-6.00682672167969
30
0
41
1
10
-0.258566536361229
20
-5.99110891560525
30
0
41
1
10
-0.269098119985159
20
-5.96006824141071
30
0
41
1
10
-0.275047927333077
20
-5.94473551098525
30
0
41
1
10
-0.285986366953239
20
-5.92229535303804
30
0
41
1
10
-0.289962744453987
20
-5.91494866899535
30
0
41
1
10
-0.298778631313581
20
-5.90089959919388
30
0
41
1
10
-0.303617390374967
20
-5.89416050242824
30
0
41
1
10
-0.314813212304728
20
-5.88168816956647
30
0
41
1
10
-0.320994194999571
20
-5.87613112177433
30
0
41
1
10
-0.331763154935828
20
-5.86973798480321
30
0
41
1
10
-0.335509573653326
20
-5.86800393240804
30
0
41
1
10
-0.343334353292789
20
-5.86551178963006
30
0
41
1
10
-0.347419400494459
20
-5.86477259204989
30
0
41
1
10
-0.355491062365786
20
-5.86442041571942
30
0
41
1
10
-0.359586250878721
20
-5.86480236632462
30
0
41
1
10
-0.367430305230272
20
-5.86650268448449
30
0
41
1
10
-0.371204411524843
20
-5.86780375001044
30
0
41
1
10
-0.378520660678476
20
-5.87111352959076
30
0
41
1
10
-0.382023894922753
20
-5.87310852950296
30
0
41
1
10
-0.388679953698357
20
-5.87753166439154
30
0
41
1
10
-0.391855475614136
20
-5.87997174517943
30
0
41
1
10
-0.394913799811292
20
-5.88258733498483
30
0
0
SPLINE
5
134
100
AcDbEntity
8
SK1
62
256
6
ByLayer
370
13
48
1
60
0
100
AcDbSpline
70
4
71
3
72
25
73
21
40
0
40
0
40
0
40
0
40
0.0619578458821178
40
0.125646357910759
40
0.189334869939401
40
0.221179125953722
40
0.253023381968042
40
0.316711893996684
40
0.380400406025325
40
0.444088918053967
40
0.507777430082608
40
0.57146594211125
40
0.635154454139891
40
0.698842966168533
40
0.762531478197174
40
0.826219990225816
40
0.889908502254457
40
0.953597014283099
40
0.985441270297419
40
1
40
1
40
1
40
1
41
1
10
-0.394913799811292
20
27.3654106728419
30
0
41
1
10
-0.394913799811292
20
27.3652313254911
30
0
41
1
10
-0.394913799811292
20
27.2808223481477
30
0
41
1
10
-0.394913799811292
20
26.9317121751432
30
0
41
1
10
-0.394913799811292
20
26.4695479101472
30
0
41
1
10
-0.394913799811292
20
26.0073865712911
30
0
41
1
10
-0.394913799811292
20
25.4857549542384
30
0
41
1
10
-0.394913799811292
20
24.7273078069339
30
0
41
1
10
-0.394913799811292
20
23.6558233145232
30
0
41
1
10
-0.394913799811292
20
22.432052288855
30
0
41
1
10
-0.394913799811292
20
21.0615461829413
30
0
41
1
10
-0.394913799811292
20
19.549694005804
30
0
41
1
10
-0.394913799811292
20
17.9007381804523
30
0
41
1
10
-0.394913799811292
20
16.1168447823444
30
0
41
1
10
-0.394913799811292
20
14.2008618261791
30
0
41
1
10
-0.394913799811292
20
12.1534974735354
30
0
41
1
10
-0.394913799811292
20
9.97566753154939
30
0
41
1
10
-0.394913799811292
20
8.05259623229938
30
0
41
1
10
-0.394913799811292
20
6.66606717738506
30
0
41
1
10
-0.394913799811292
20
6.07052405947675
30
0
41
1
10
-0.394913799811292
20
5.88258567299192
30
0
0
SPLINE
5
135
100
AcDbEntity
8
SK1
62
256
6
ByLayer
370
13
48
1
60
0
100
AcDbSpline
70
4
71
3
72
25
73
21
40
0
40
0
40
0
40
0
40
0.0145560171801897
40
0.0463944338202107
40
0.110071267100253
40
0.173748100380295
40
0.237424933660337
40
0.301101766940379
40
0.364778600220421
40
0.428455433500463
40
0.492132266780505
40
0.555809100060547
40
0.619485933340589
40
0.683162766620631
40
0.746839599900673
40
0.778678016540694
40
0.810516433180715
40
0.874193266460757
40
0.937870099740799
40
1
40
1
40
1
40
1
41
1
10
-0.394913799811292
20
-5.88258733498481
30
0
41
1
10
-0.394913799811292
20
-6.07052516538181
30
0
41
1
10
-0.394913799811292
20
-6.66606769858655
30
0
41
1
10
-0.394913799811292
20
-8.05259596592001
30
0
41
1
10
-0.394913799811292
20
-9.97566741413243
30
0
41
1
10
-0.394913799811292
20
-12.153497457354
30
0
41
1
10
-0.394913799811292
20
-14.2008618153781
30
0
41
1
10
-0.394913799811292
20
-16.116845123771
30
0
41
1
10
-0.394913799811292
20
-17.9007385657829
30
0
41
1
10
-0.394913799811292
20
-19.5496941631405
30
0
41
1
10
-0.394913799811292
20
-21.061545739767
30
0
41
1
10
-0.394913799811292
20
-22.4320519750209
30
0
41
1
10
-0.394913799811292
20
-23.6558244102428
30
0
41
1
10
-0.394913799811292
20
-24.7273073402748
30
0
41
1
10
-0.394913799811292
20
-25.4857521565205
30
0
41
1
10
-0.394913799811292
20
-26.0073845707252
30
0
41
1
10
-0.394913799811292
20
-26.4695479228793
30
0
41
1
10
-0.394913799811292
20
-26.931711914563
30
0
41
1
10
-0.39491379981132
20
-27.2811606623525
30
0
41
1
10
-0.39491379981132
20
-27.3654776899307
30
0
41
1
10
-0.39491379981132
20
-27.3654111758346
30
0
0
SPLINE
5
136
100
AcDbEntity
8
SK1
62
256
6
ByLayer
370
18
48
1
60
0
100
AcDbSpline
70
4
71
3
72
50
73
46
40
0
40
0
40
0
40
0
40
0.0156250000000004
40
0.0156250000000004
40
0.0312500000000009
40
0.0312500000000009
40
0.0625000000000013
40
0.0625000000000013
40
0.0781250000000016
40
0.0781250000000016
40
0.0937500000000018
40
0.101562500000002
40
0.101562500000002
40
0.109375000000002
40
0.109375000000002
40
0.125000000000002
40
0.140625000000002
40
0.140625000000002
40
0.156250000000002
40
0.156250000000002
40
0.187500000000002
40
0.187500000000002
40
0.218750000000002
40
0.218750000000002
40
0.250000000000003
40
0.250000000000003
40
0.281250000000003
40
0.281250000000003
40
0.312500000000003
40
0.312500000000003
40
0.375000000000003
40
0.375000000000003
40
0.437500000000004
40
0.437500000000004
40
0.500000000000004
40
0.500000000000004
40
0.625000000000004
40
0.625000000000004
40
0.687500000000004
40
0.687500000000004
40
0.750000000000004
40
0.750000000000004
40
0.875000000000002
40
0.875000000000002
40
1
40
1
40
1
40
1
41
1
10
-0.394913799811292
20
-5.88258733498481
30
0
41
1
10
-0.403039329106434
20
-5.88953658242153
30
0
41
1
10
-0.411413024584277
20
-5.89619973179913
30
0
41
1
10
-0.428752255076887
20
-5.90884528223492
30
0
41
1
10
-0.437740327393669
20
-5.91484188421759
30
0
41
1
10
-0.465634608434954
20
-5.93149511928672
30
0
41
1
10
-0.485210602129996
20
-5.94070326229377
30
0
41
1
10
-0.516622342716431
20
-5.95056688400257
30
0
41
1
10
-0.527503554619614
20
-5.95318620141708
30
0
41
1
10
-0.549243704490038
20
-5.95672090529089
30
0
41
1
10
-0.565657821584438
20
-5.95814654054257
30
0
41
1
10
-0.582241374941049
20
-5.95766809286985
30
0
41
1
10
-0.593335497469866
20
-5.95691733339831
30
0
41
1
10
-0.598932162610794
20
-5.95632074310808
30
0
41
1
10
-0.615487385337161
20
-5.9539180373385
30
0
41
1
10
-0.636988070186476
20
-5.94910381427817
30
0
41
1
10
-0.657498098822913
20
-5.94150365482599
30
0
41
1
10
-0.677572371948401
20
-5.93267724259607
30
0
41
1
10
-0.687416284609299
20
-5.92762938506613
30
0
41
1
10
-0.715743791280289
20
-5.91124847506274
30
0
41
1
10
-0.73328068845305
20
-5.89860840862801
30
0
41
1
10
-0.766480020681513
20
-5.87092930527115
30
0
41
1
10
-0.781810520162338
20
-5.85616212382189
30
0
41
1
10
-0.81071499356699
20
-5.82539030326046
30
0
41
1
10
-0.824286187770241
20
-5.80937247929978
30
0
41
1
10
-0.850124764431314
20
-5.77639487115229
30
0
41
1
10
-0.862388317867442
20
-5.75943238422735
30
0
41
1
10
-0.885889244318065
20
-5.72475996992924
30
0
41
1
10
-0.897134039200751
20
-5.70702849131604
30
0
41
1
10
-0.929311633153446
20
-5.65344083322157
30
0
41
1
10
-0.94884230569906
20
-5.61701592648745
30
0
41
1
10
-0.985329895267625
20
-5.54319570602496
30
0
41
1
10
-1.00227006366248
20
-5.50579467647674
30
0
41
1
10
-1.03422852656961
20
-5.43024134229668
30
0
41
1
10
-1.04924072742563
20
-5.39208696039736
30
0
41
1
10
-1.09200642706727
20
-5.27670114460133
30
0
41
1
10
-1.11752093416874
20
-5.19855796010592
30
0
41
1
10
-1.15271909218829
20
-5.07998178339514
30
0
41
1
10
-1.16392950861756
20
-5.04022016000795
30
0
41
1
10
-1.18539939501379
20
-4.96048124175471
30
0
41
1
10
-1.19566654622429
20
-4.92047732721875
30
0
41
1
10
-1.22524991683204
20
-4.80009364705947
30
0
41
1
10
-1.2433565967056
20
-4.71934352683385
30
0
41
1
10
-1.27702923965074
20
-4.55696714625805
30
0
41
1
10
-1.29259057630257
20
-4.47534003310412
30
0
41
1
10
-1.30710678118655
20
-4.39330887788606
30
0
0
SPLINE
5
137
100
AcDbEntity
8
SK1
62
256
6
ByLayer
370
18
48
1
60
0
100
AcDbSpline
70
4
71
3
72
36
73
32
40
0
40
0
40
0
40
0
40
0.0625000000000001
40
0.0625000000000001
40
0.125
40
0.125
40
0.25
40
0.25
40
0.28125
40
0.28125
40
0.3125
40
0.375
40
0.375
40
0.4375
40
0.4375
40
0.499999999999999
40
0.562499999999999
40
0.562499999999999
40
0.624999999999999
40
0.624999999999999
40
0.656249999999999
40
0.656249999999999
40
0.687499999999999
40
0.687499999999999
40
0.749999999999999
40
0.749999999999999
40
0.875
40
0.875
40
0.9375
40
0.9375
40
1
40
1
40
1
40
1
41
1
10
-1.30710678118655
20
-4.39330887788606
30
0
41
1
10
-1.33833886963826
20
-4.21681617087032
30
0
41
1
10
-1.36854874276652
20
-4.03950797751688
30
0
41
1
10
-1.42660609580415
20
-3.68313524459486
30
0
41
1
10
-1.45444775249806
20
-3.50406852662027
30
0
41
1
10
-1.53372925180184
20
-2.96395482764058
30
0
41
1
10
-1.58095222331166
20
-2.60000741581413
30
0
41
1
10
-1.63039580544412
20
-2.13918287403047
30
0
41
1
10
-1.6398047441928
20
-2.04670347397033
30
0
41
1
10
-1.65757931062798
20
-1.86120029185435
30
0
41
1
10
-1.68260948363638
20
-1.5828311275875
30
0
41
1
10
-1.70248074969008
20
-1.30410713450158
30
0
41
1
10
-1.72392517749429
20
-0.932138827990201
30
0
41
1
10
-1.73211744010526
20
-0.745986303504424
30
0
41
1
10
-1.74297993884852
20
-0.373323280942145
30
0
41
1
10
-1.748391829433
20
-0.0003055804815801
30
0
41
1
10
-1.7429848038179
20
0.373418392454084
30
0
41
1
10
-1.73206493494847
20
0.747501097942745
30
0
41
1
10
-1.72381183076918
20
0.934723518861318
30
0
41
1
10
-1.70755165689623
20
1.21581541728392
30
0
41
1
10
-1.70147805604537
20
1.30965819488989
30
0
41
1
10
-1.68815609252624
20
1.4965870997257
30
0
41
1
10
-1.68090524760893
20
1.58974420341144
30
0
41
1
10
-1.65749856469556
20
1.86833789193395
30
0
41
1
10
-1.63969017396079
20
2.05289759168917
30
0
41
1
10
-1.58051371000479
20
2.60339474516391
30
0
41
1
10
-1.5334217550358
20
2.96616199669305
30
0
41
1
10
-1.45429466041941
20
3.50506155058417
30
0
41
1
10
-1.42649811963088
20
3.68381684447201
30
0
41
1
10
-1.36851092390374
20
4.03973122982887
30
0
41
1
10
-1.33832612741192
20
4.21689231016725
30
0
41
1
10
-1.30710678118655
20
4.39331221032489
30
0
0
SPLINE
5
138
100
AcDbEntity
8
SK1
62
256
6
ByLayer
370
18
48
1
60
0
100
AcDbSpline
70
4
71
3
72
49
73
45
40
0
40
0
40
0
40
0
40
0.124999999999999
40
0.124999999999999
40
0.249999999999997
40
0.249999999999997
40
0.374999999999996
40
0.374999999999996
40
0.499999999999994
40
0.499999999999994
40
0.562499999999993
40
0.562499999999993
40
0.624999999999991
40
0.624999999999991
40
0.68749999999999
40
0.68749999999999
40
0.749999999999988
40
0.749999999999988
40
0.765624999999988
40
0.765624999999988
40
0.781249999999988
40
0.781249999999988
40
0.812499999999989
40
0.812499999999989
40
0.828124999999989
40
0.828124999999989
40
0.84374999999999
40
0.84374999999999
40
0.87499999999999
40
0.87499999999999
40
0.882812499999991
40
0.882812499999991
40
0.890624999999991
40
0.906249999999992
40
0.914062499999993
40
0.914062499999993
40
0.921874999999993
40
0.921874999999993
40
0.937499999999994
40
0.953124999999995
40
0.953124999999995
40
0.968749999999996
40
0.968749999999996
40
1
40
1
40
1
40
1
41
1
10
-1.30710678118655
20
4.39331221032487
30
0
41
1
10
-1.29259442759718
20
4.47532122975804
30
0
41
1
10
-1.27704610356756
20
4.55687629477117
30
0
41
1
10
-1.24343193354568
20
4.71899405044132
30
0
41
1
10
-1.22537042104098
20
4.79955772182797
30
0
41
1
10
-1.18607375956299
20
4.95956033007351
30
0
41
1
10
-1.16484869971202
20
5.03900155537229
30
0
41
1
10
-1.11815612697546
20
5.1965332099478
30
0
41
1
10
-1.09271831790768
20
5.27463055419162
30
0
41
1
10
-1.049879588408
20
5.39043436268409
30
0
41
1
10
-1.03481085007657
20
5.42880990558518
30
0
41
1
10
-1.00262576586445
20
5.50500475294339
30
0
41
1
10
-0.985490326811572
20
5.54286169997809
30
0
41
1
10
-0.948821917963414
20
5.61706391416038
30
0
41
1
10
-0.929268994496823
20
5.65349793311387
30
0
41
1
10
-0.886653206455122
20
5.72449384855278
30
0
41
1
10
-0.863632300216523
20
5.75907701915665
30
0
41
1
10
-0.831293292074719
20
5.8004459091575
30
0
41
1
10
-0.824642187820501
20
5.80862406976092
30
0
41
1
10
-0.810909537595478
20
5.82475689909125
30
0
41
1
10
-0.803808427400895
20
5.8327319572052
30
0
41
1
10
-0.781926636665645
20
5.85605532307281
30
0
41
1
10
-0.766568398283425
20
5.87083261121126
30
0
41
1
10
-0.741931675642974
20
5.89140462063131
30
0
41
1
10
-0.73345067661333
20
5.89799413410989
30
0
41
1
10
-0.715834603579083
20
5.91052268984237
30
0
41
1
10
-0.706655485452188
20
5.91648780259629
30
0
41
1
10
-0.678213101083685
20
5.93297784531563
30
0
41
1
10
-0.658283686674309
20
5.94201343342041
30
0
41
1
10
-0.631686913413489
20
5.94990548753631
30
0
41
1
10
-0.626255188472385
20
5.95131675596099
30
0
41
1
10
-0.615363151583239
20
5.953726487664
30
0
41
1
10
-0.598988113232053
20
5.95672779936984
30
0
41
1
10
-0.577005048576751
20
5.95824738974093
30
0
41
1
10
-0.560402254070226
20
5.95747179112044
30
0
41
1
10
-0.549307626346604
20
5.95652193855128
30
0
41
1
10
-0.543724271296668
20
5.9558251558885
30
0
41
1
10
-0.527276324395132
20
5.95314074745056
30
0
41
1
10
-0.505959902330716
20
5.94797987906676
30
0
41
1
10
-0.48569918891323
20
5.94009851027181
30
0
41
1
10
-0.465900558107364
20
5.93102514312227
30
0
41
1
10
-0.456220231625167
20
5.92587726264904
30
0
41
1
10
-0.428385528731496
20
5.90924654958064
30
0
41
1
10
-0.411179767739839
20
5.89649691057778
30
0
41
1
10
-0.394913799811292
20
5.88258567299192
30
0
0
SPLINE
5
139
100
AcDbEntity
8
SK1
62
256
6
ByLayer
370
13
48
1
60
0
100
AcDbSpline
70
4
71
3
72
53
73
49
40
0
40
0
40
0
40
0
40
0.0270827591038261
40
0.0548996179730497
40
0.0827164768422732
40
0.096624906276885
40
0.110533335711497
40
0.13835019458072
40
0.166167053449944
40
0.193983912319168
40
0.221800771188391
40
0.249617630057615
40
0.277434488926838
40
0.305251347796062
40
0.333068206665285
40
0.360885065534509
40
0.388701924403732
40
0.416518783272956
40
0.430427212707568
40
0.44433564214218
40
0.458244071576791
40
0.472152501011403
40
0.486060930446015
40
0.493015145163321
40
0.499969359880627
40
0.506923574597932
40
0.513877789315238
40
0.52778621874985
40
0.541694648184462
40
0.555603077619074
40
0.569511507053685
40
0.583419936488297
40
0.611236795357521
40
0.639053654226744
40
0.666870513095968
40
0.694687371965191
40
0.722504230834415
40
0.750321089703639
40
0.778137948572862
40
0.805954807442086
40
0.833771666311309
40
0.861588525180533
40
0.889405384049756
40
0.903313813484368
40
0.91722224291898
40
0.945039101788204
40
0.972855960657427
40
1
40
1
40
1
40
1
41
1
10
-1.99503997793931
20
27.3252178338467
30
0
41
1
10
-1.9950399779393
20
27.3251051229794
30
0
41
1
10
-1.99503997793931
20
27.2408403004464
30
0
41
1
10
-1.9950399779393
20
26.8920582242086
30
0
41
1
10
-1.9950399779393
20
26.4304294614745
30
0
41
1
10
-1.9950399779393
20
25.9687206006143
30
0
41
1
10
-1.9950399779393
20
25.4475821015686
30
0
41
1
10
-1.9950399779393
20
24.6899119683388
30
0
41
1
10
-1.9950399779393
20
23.6194427004969
30
0
41
1
10
-1.9950399779393
20
22.3968114946305
30
0
41
1
10
-1.9950399779393
20
21.027578149028
30
0
41
1
10
-1.9950399779393
20
19.5171385903506
30
0
41
1
10
-1.9950399779393
20
17.8697602043723
30
0
41
1
10
-1.9950399779393
20
16.0876367400659
30
0
41
1
10
-1.9950399779393
20
14.1736586478766
30
0
41
1
10
-1.9950399779393
20
12.1286054335931
30
0
41
1
10
-1.9950399779393
20
9.95349533700443
30
0
41
1
10
-1.9950399779393
20
8.03329822829241
30
0
41
1
10
-1.9950399779393
20
6.43152352997811
30
0
41
1
10
-1.9950399779393
20
5.19920320851571
30
0
41
1
10
-1.9950399779393
20
3.93622781621522
30
0
41
1
10
-1.9950399779393
20
2.64495403942521
30
0
41
1
10
-1.9950399779393
20
1.549515656636
30
0
41
1
10
-1.9950399779393
20
0.664791253601607
30
0
41
1
10
-1.9950399779393
20
1.48582728E-08
30
0
41
1
10
-1.9950399779393
20
-0.6647912077417
30
0
41
1
10
-1.9950399779393
20
-1.54951551889729
30
0
41
1
10
-1.9950399779393
20
-2.64495367748941
30
0
41
1
10
-1.9950399779393
20
-3.93622738701504
30
0
41
1
10
-1.9950399779393
20
-5.19920324116254
30
0
41
1
10
-1.9950399779393
20
-6.43152354524264
30
0
41
1
10
-1.9950399779393
20
-8.03329795823163
30
0
41
1
10
-1.9950399779393
20
-9.95349522257501
30
0
41
1
10
-1.9950399779393
20
-12.1286054195275
30
0
41
1
10
-1.9950399779393
20
-14.1736586399812
30
0
41
1
10
-1.9950399779393
20
-16.0876370834377
30
0
41
1
10
-1.9950399779393
20
-17.8697605888624
30
0
41
1
10
-1.9950399779393
20
-19.5171387431293
30
0
41
1
10
-1.9950399779393
20
-21.0275777036138
30
0
41
1
10
-1.9950399779393
20
-22.396811187269
30
0
41
1
10
-1.9950399779393
20
-23.619443795401
30
0
41
1
10
-1.9950399779393
20
-24.6899114886171
30
0
41
1
10
-1.9950399779393
20
-25.4475793002845
30
0
41
1
10
-1.9950399779393
20
-25.9687186091476
30
0
41
1
10
-1.9950399779393
20
-26.4304294784275
30
0
41
1
10
-1.9950399779393
20
-26.8920579638066
30
0
41
1
10
-1.9950399779393
20
-27.241098750966
30
0
41
1
10
-1.99503997793931
20
-27.3252932525063
30
0
41
1
10
-1.99503997793931
20
-27.3252179620146
30
0
0
SPLINE
5
13A
100
AcDbEntity
8
SK1
62
256
6
ByLayer
370
18
48
1
60
0
100
AcDbSpline
70
4
71
3
72
53
73
49
40
0
40
0
40
0
40
0
40
0.018359095109957
40
0.046690913602447
40
0.0750227320949369
40
0.0891886413411818
40
0.103354550587427
40
0.131686369079917
40
0.160018187572407
40
0.188350006064896
40
0.216681824557386
40
0.245013643049876
40
0.273345461542366
40
0.301677280034856
40
0.330009098527346
40
0.358340917019836
40
0.386672735512326
40
0.415004554004816
40
0.429170463251061
40
0.443336372497306
40
0.457502281743551
40
0.471668190989796
40
0.485834100236041
40
0.492917054859163
40
0.500000009482286
40
0.507082964105408
40
0.51416591872853
40
0.528331827974776
40
0.54249773722102
40
0.556663646467265
40
0.57082955571351
40
0.584995464959755
40
0.613327283452245
40
0.641659101944735
40
0.669990920437225
40
0.698322738929715
40
0.726654557422205
40
0.754986375914695
40
0.783318194407185
40
0.811650012899675
40
0.839981831392164
40
0.868313649884654
40
0.896645468377144
40
0.910811377623389
40
0.924977286869634
40
0.953309105362124
40
0.981640923854614
40
1
40
1
40
1
40
1
41
1
10
-2.19999999999999
20
27.5061904688832
30
0
41
1
10
-2.19999999999999
20
27.4879594265417
30
0
41
1
10
-2.2
20
27.3967255820052
30
0
41
1
10
-2.2
20
27.0843209142601
30
0
41
1
10
-2.2
20
26.6200957619357
30
0
41
1
10
-2.2
20
26.1561930557051
30
0
41
1
10
-2.2
20
25.6326636676739
30
0
41
1
10
-2.2
20
24.87122617173
30
0
41
1
10
-2.2
20
23.7958345745359
30
0
41
1
10
-2.2
20
22.5676769377316
30
0
41
1
10
-2.2
20
21.1922725974247
30
0
41
1
10
-2.2
20
19.6749839400143
30
0
41
1
10
-2.2
20
18.0199573189881
30
0
41
1
10
-2.2
20
16.2292523079286
30
0
41
1
10
-2.2
20
14.3055536070197
30
0
41
1
10
-2.2
20
12.2492948087344
30
0
41
1
10
-2.2
20
10.0609975068282
30
0
41
1
10
-2.2
20
8.1268648484035
30
0
41
1
10
-2.2
20
6.51319169435675
30
0
41
1
10
-2.2
20
5.26973663380883
30
0
41
1
10
-2.2
20
3.99363707251752
30
0
41
1
10
-2.2
20
2.68649461847352
30
0
41
1
10
-2.2
20
1.57441419616916
30
0
41
1
10
-2.2
20
0.676125991375216
30
0
41
1
10
-2.2
20
8.01526596E-08
30
0
41
1
10
-2.2
20
-0.676125852580327
30
0
41
1
10
-2.2
20
-1.57441409623576
30
0
41
1
10
-2.2
20
-2.68649440179473
30
0
41
1
10
-2.2
20
-3.99363661217191
30
0
41
1
10
-2.2
20
-5.26973655346097
30
0
41
1
10
-2.2
20
-6.51319173456665
30
0
41
1
10
-2.2
20
-8.12686459619209
30
0
41
1
10
-2.2
20
-10.0609973779136
30
0
41
1
10
-2.2
20
-12.2492947844102
30
0
41
1
10
-2.2
20
-14.3055535850363
30
0
41
1
10
-2.2
20
-16.229252641869
30
0
41
1
10
-2.2
20
-18.0199577075533
30
0
41
1
10
-2.2
20
-19.6749841148914
30
0
41
1
10
-2.2
20
-21.1922721628705
30
0
41
1
10
-2.2
20
-22.5676765989873
30
0
41
1
10
-2.2
20
-23.7958356733944
30
0
41
1
10
-2.2
20
-24.8712257553422
30
0
41
1
10
-2.2
20
-25.6326608836802
30
0
41
1
10
-2.2
20
-26.156191020121
30
0
41
1
10
-2.2
20
-26.6200957584237
30
0
41
1
10
-2.2
20
-27.0843206529938
30
0
41
1
10
-2.2
20
-27.3967255230924
30
0
41
1
10
-2.19999999999999
20
-27.4879595007295
30
0
41
1
10
-2.19999999999999
20
-27.5061905303408
30
0
0
SPLINE
5
13B
100
AcDbEntity
8
SK1
62
256
6
ByLayer
370
18
48
1
60
0
100
AcDbSpline
70
4
71
3
72
53
73
49
40
0
40
0
40
0
40
0
40
0.0184147002006641
40
0.0467435397033412
40
0.0750723792060184
40
0.0892367989573569
40
0.103401218708695
40
0.131730058211372
40
0.160058897714049
40
0.188387737216727
40
0.216716576719404
40
0.245045416222081
40
0.273374255724758
40
0.301703095227435
40
0.330031934730112
40
0.358360774232789
40
0.386689613735466
40
0.415018453238143
40
0.429182872989482
40
0.443347292740821
40
0.457511712492159
40
0.471676132243498
40
0.485840551994836
40
0.492922761870505
40
0.500004971746175
40
0.507087181621844
40
0.514169391497513
40
0.528333811248852
40
0.54249823100019
40
0.556662650751529
40
0.570827070502867
40
0.584991490254206
40
0.613320329756883
40
0.64164916925956
40
0.669978008762237
40
0.698306848264914
40
0.726635687767591
40
0.754964527270268
40
0.783293366772945
40
0.811622206275623
40
0.8399510457783
40
0.868279885280977
40
0.896608724783654
40
0.910773144534992
40
0.924937564286331
40
0.953266403789008
40
0.981595243291685
40
1
40
1
40
1
40
1
41
1
10
-46.5
20
26.3941186212863
30
0
41
1
10
-46.5
20
26.376622742482
30
0
41
1
10
-46.5
20
26.2887679837929
30
0
41
1
10
-46.5
20
25.9864887242637
30
0
41
1
10
-46.5
20
25.5370891216558
30
0
41
1
10
-46.5
20
25.0857134120403
30
0
41
1
10
-46.5
20
24.5758361522005
30
0
41
1
10
-46.5
20
23.8359105369953
30
0
41
1
10
-46.5
20
22.7886257535111
30
0
41
1
10
-46.5
20
21.5920243888973
30
0
41
1
10
-46.5
20
20.2518568208893
30
0
41
1
10
-46.5
20
18.7736769529143
30
0
41
1
10
-46.5
20
17.1623222405147
30
0
41
1
10
-46.5
20
15.4206184072864
30
0
41
1
10
-46.5
20
13.552425000493
30
0
41
1
10
-46.5
20
11.5601507996435
30
0
41
1
10
-46.5
20
9.44715327893678
30
0
41
1
10
-46.5
20
7.59259349580967
30
0
41
1
10
-46.5
20
6.04686128085439
30
0
41
1
10
-46.5
20
4.866986288764
30
0
41
1
10
-46.5
20
3.66582656723671
30
0
41
1
10
-46.5
20
2.44929526971745
30
0
41
1
10
-46.5
20
1.43224195164228
30
0
41
1
10
-46.5
20
0.611403917686943
30
0
41
1
10
-46.5
20
-2.92682472E-07
30
0
41
1
10
-46.5
20
-0.611404309556576
30
0
41
1
10
-46.5
20
-1.43224163583807
30
0
41
1
10
-46.5
20
-2.4492942236117
30
0
41
1
10
-46.5
20
-3.66582628473356
30
0
41
1
10
-46.5
20
-4.86698685362285
30
0
41
1
10
-46.5
20
-6.0468611786246
30
0
41
1
10
-46.5
20
-7.59259314167716
30
0
41
1
10
-46.5
20
-9.44715323273309
30
0
41
1
10
-46.5
20
-11.5601508338966
30
0
41
1
10
-46.5
20
-13.5524250589533
30
0
41
1
10
-46.5
20
-15.4206187950808
30
0
41
1
10
-46.5
20
-17.1623226058104
30
0
41
1
10
-46.5
20
-18.773677001608
30
0
41
1
10
-46.5
20
-20.2518563243232
30
0
41
1
10
-46.5
20
-21.5920242293512
30
0
41
1
10
-46.5
20
-22.7886268297893
30
0
41
1
10
-46.5
20
-23.8359097589668
30
0
41
1
10
-46.5
20
-24.5758332694777
30
0
41
1
10
-46.5
20
-25.0857116283691
30
0
41
1
10
-46.5
20
-25.5370892350002
30
0
41
1
10
-46.5
20
-25.9864884679325
30
0
41
1
10
-46.5
20
-26.2887279749011
30
0
41
1
10
-46.5
20
-26.3765855064639
30
0
41
1
10
-46.5
20
-26.3940903783489
30
0
0
SPLINE
5
13C
100
AcDbEntity
8
1
62
256
6
ByLayer
370
18
48
1
60
0
100
AcDbSpline
70
4
71
3
72
18
73
14
40
0
40
0
40
0
40
0
40
0.106502320877295
40
0.209819720888119
40
0.309970050664446
40
0.406972922400248
40
0.500849920825598
40
0.591624858696239
40
0.679324076625645
40
0.763976789997854
40
0.845615488385914
40
0.924276395492294
40
1
40
1
40
1
40
1
41
1
10
77.59011863841
20
-48.5169146481771
30
0
41
1
10
77.5885415273357
20
-48.5162356963495
30
0
41
1
10
77.5854344682343
20
-48.5148980965509
30
0
41
1
10
77.5809243323185
20
-48.5125950376113
30
0
41
1
10
77.5766153234623
20
-48.5101336525213
30
0
41
1
10
77.5725126225171
20
-48.5075098420597
30
0
41
1
10
77.5686149102103
20
-48.5047475341628
30
0
41
1
10
77.5649224452295
20
-48.5018629608244
30
0
41
1
10
77.5614353720449
20
-48.4988731471596
30
0
41
1
10
77.5581528367139
20
-48.4957956455299
30
0
41
1
10
77.5550778698625
20
-48.4926415847493
30
0
41
1
10
77.5521996835922
20
-48.4894420074179
30
0
41
1
10
77.5504035869187
20
-48.4872081231617
30
0
41
1
10
77.54952262475
20
-48.4861124318507
30
0
0
SPLINE
5
13D
100
AcDbEntity
8
1
62
256
6
ByLayer
370
18
48
1
60
0
100
AcDbSpline
70
4
71
3
72
16
73
12
40
0
40
0
40
0
40
0
40
0.117319552192543
40
0.233085853410998
40
0.347299362420233
40
0.459960556948136
40
0.571069934744742
40
0.680628014712972
40
0.788635338118843
40
0.895092469888332
40
1
40
1
40
1
40
1
41
1
10
77.74894541545
20
-48.572267476298
30
0
41
1
10
77.7426777667126
20
-48.5704446731299
30
0
41
1
10
77.7302254497071
20
-48.566823199777
30
0
41
1
10
77.7117192560249
20
-48.5611085912359
30
0
41
1
10
77.6934972967187
20
-48.5552431101865
30
0
41
1
10
77.6755628433777
20
-48.5492133266125
30
0
41
1
10
77.6579151153779
20
-48.5430337309317
30
0
41
1
10
77.6405540288848
20
-48.5367130798226
30
0
41
1
10
77.6234806581351
20
-48.5302550550507
30
0
41
1
10
77.6066908752589
20
-48.5236879439445
30
0
41
1
10
77.5956156516798
20
-48.5191613513213
30
0
41
1
10
77.59011863841
20
-48.51691464817
30
0
0
SPLINE
5
13E
100
AcDbEntity
8
1
62
256
6
ByLayer
370
18
48
1
60
0
100
AcDbSpline
70
4
71
2
72
10
73
7
40
0
40
0
40
0
40
0.5
40
0.5
40
0.75
40
0.75
40
1
40
1
40
1
41
1
10
77.7489454154435
20
-48.572267476262
30
0
41
1
10
77.8165392416659
20
-48.5917621635151
30
0
41
1
10
77.8642354827691
20
-48.6434857110098
30
0
41
1
10
77.8902224727208
20
-48.671666952926
30
0
41
1
10
77.9068593747304
20
-48.7075223538963
30
0
41
1
10
77.9248252361523
20
-48.7462418922267
30
0
41
1
10
77.928946197083
20
-48.789264413028
30
0
0
SPLINE
5
13F
100
AcDbEntity
8
1
62
256
6
ByLayer
370
18
48
1
60
0
100
AcDbSpline
70
4
71
2
72
6
73
3
40
0
40
0
40
0
40
1
40
1
40
1
41
1
10
77.9289461971205
20
-48.789264412942
30
0
41
1
10
77.9378374892931
20
-48.8844834459601
30
0
41
1
10
77.9378609595315
20
-48.9799999993024
30
0
0
SPLINE
5
140
100
AcDbEntity
8
1
62
256
6
ByLayer
370
18
48
1
60
0
100
AcDbSpline
70
4
71
3
72
17
73
13
40
0
40
0
40
0
40
0
40
0.100317411816992
40
0.200541310293736
40
0.300680278273621
40
0.400742920447717
40
0.500737861201962
40
0.600673742442847
40
0.700559221399291
40
0.800402968404921
40
0.900213664663603
40
1
40
1
40
1
40
1
41
1
10
77.92894619712
20
-49.210735587058
30
0
41
1
10
77.9295231228817
20
-49.2043912298246
30
0
41
1
10
77.9306764366097
20
-49.1917084294062
30
0
41
1
10
77.9321818251213
20
-49.1726539472122
30
0
41
1
10
77.9335216262512
20
-49.1535914790204
30
0
41
1
10
77.9346798037513
20
-49.1345196957169
30
0
41
1
10
77.9356607269914
20
-49.1154410706663
30
0
41
1
10
77.9364629358429
20
-49.0963570587512
30
0
41
1
10
77.9370879043616
20
-49.0772693864805
30
0
41
1
10
77.9375311975091
20
-49.058179706331
30
0
41
1
10
77.9378090731845
20
-49.0390896896565
30
0
41
1
10
77.9378436654889
20
-49.0263627125725
30
0
41
1
10
77.93786095953
20
-49.0200000006976
30
0
0
SPLINE
5
141
100
AcDbEntity
8
1
62
256
6
ByLayer
370
18
48
1
60
0
100
AcDbSpline
70
4
71
3
72
38
73
34
40
0
40
0
40
0
40
0
40
0.0320161803202381
40
0.0634137556517323
40
0.0941938978135452
40
0.124357850632176
40
0.153906935796012
40
0.182842559298729
40
0.21116621854072
40
0.238879510169565
40
0.265984138747584
40
0.292481926351479
40
0.318374823219163
40
0.343664919578705
40
0.368354458810706
40
0.39244585212024
40
0.415941694916172
40
0.438844785127734
40
0.461158143719679
40
0.482885037706372
40
0.504029006008751
40
0.551366811163478
40
0.597409666800776
40
0.642207857911417
40
0.685815975457785
40
0.728293199080116
40
0.769703557232123
40
0.810116149643954
40
0.849605314211526
40
0.88825071811132
40
0.926137351649983
40
0.963355403685037
40
1
40
1
40
1
40
1
41
1
10
77.74894541544
20
-49.427732523738
30
0
41
1
10
77.7515736233648
20
-49.4269514392852
30
0
41
1
10
77.756779257937
20
-49.4254043622093
30
0
41
1
10
77.7644507904023
20
-49.4227682841381
30
0
41
1
10
77.7719249095622
20
-49.4199441000571
30
0
41
1
10
77.7791975153459
20
-49.4169210898551
30
0
41
1
10
77.7862696764354
20
-49.4137183659082
30
0
41
1
10
77.7931411178642
20
-49.4103470598266
30
0
41
1
10
77.7998119140361
20
-49.4068201212966
30
0
41
1
10
77.8062820488635
20
-49.4031497437452
30
0
41
1
10
77.8125515300024
20
-49.399348007265
30
0
41
1
10
77.8186203592458
20
-49.3954266889405
30
0
41
1
10
77.8244885401635
20
-49.3913972918273
30
0
41
1
10
77.8301560763678
20
-49.3872710198155
30
0
41
1
10
77.8356229711881
20
-49.3830587686772
30
0
41
1
10
77.840889230658
20
-49.3787711161078
30
0
41
1
10
77.8459548524165
20
-49.3744183110025
30
0
41
1
10
77.8508198658027
20
-49.3700102765179
30
0
41
1
10
77.8554841879108
20
-49.3655565701326
30
0
41
1
10
77.8599481402181
20
-49.3610665051889
30
0
41
1
10
77.8660095567999
20
-49.3546419695069
30
0
41
1
10
77.8734588192033
20
-49.3460531831904
30
0
41
1
10
77.8820027422797
20
-49.3349799163678
30
0
41
1
10
77.8898489226435
20
-49.3235305586926
30
0
41
1
10
77.8969976055379
20
-49.3117506191717
30
0
41
1
10
77.9034486190907
20
-49.2996846186172
30
0
41
1
10
77.9092017357358
20
-49.2873766525562
30
0
41
1
10
77.9142571546108
20
-49.2748701653709
30
0
41
1
10
77.9186132961071
20
-49.2622074528295
30
0
41
1
10
77.9222748801839
20
-49.2494310234884
30
0
41
1
10
77.9252236999947
20
-49.2365780883644
30
0
41
1
10
77.9275246334318
20
-49.2237000583364
30
0
41
1
10
77.9284748015061
20
-49.2150346518978
30
0
41
1
10
77.92894619708
20
-49.210735586972
30
0
0
SPLINE
5
142
100
AcDbEntity
8
1
62
256
6
ByLayer
370
18
48
1
60
0
100
AcDbSpline
70
4
71
2
72
6
73
3
40
0
40
0
40
0
40
1
40
1
40
1
41
1
10
77.748945415452
20
-49.427732523702
30
0
41
1
10
77.6679467190157
20
-49.450984756672
30
0
41
1
10
77.5901186384125
20
-49.48308535183
30
0
0
SPLINE
5
143
100
AcDbEntity
8
1
62
256
6
ByLayer
370
18
48
1
60
0
100
AcDbSpline
70
4
71
2
72
6
73
3
40
0
40
0
40
0
40
1
40
1
40
1
41
1
10
77.5901186384115
20
-49.483085351823
30
0
41
1
10
77.5658197594191
20
-49.4932546708632
30
0
41
1
10
77.5495226247505
20
-49.513887568149
30
0
0
LINE
5
7D
100
AcDbEntity
8
1
62
256
6
ByLayer
370
18
48
1
60
0
100
AcDbLine
10
0
20
-39.7
30
0
11
0.3
21
-40
31
0
39
0
210
0
220
0
230
1
0
LINE
5
7E
100
AcDbEntity
8
1
62
256
6
ByLayer
370
18
48
1
60
0
100
AcDbLine
10
0.3
20
40
30
0
11
0
21
39.7
31
0
39
0
210
0
220
0
230
1
0
LINE
5
7F
100
AcDbEntity
8
1
62
256
6
ByLayer
370
18
48
1
60
0
100
AcDbLine
10
30
20
40
30
0
11
0.3
21
40
31
0
39
0
210
0
220
0
230
1
0
LINE
5
80
100
AcDbEntity
8
1
62
256
6
ByLayer
370
18
48
1
60
0
100
AcDbLine
10
0.3
20
-40
30
0
11
30.279208
21
-40
31
0
39
0
210
0
220
0
230
1
0
LINE
5
81
100
AcDbEntity
8
80
62
256
6
ByLayer
370
18
48
1
60
0
100
AcDbLine
10
0
20
0
30
0
11
-5
21
0
31
0
39
0
210
0
220
0
230
1
0
LINE
5
82
100
AcDbEntity
8
81
62
256
6
ByLayer
370
18
48
1
60
0
100
AcDbLine
10
85
20
-51
30
0
11
90
21
-51
31
0
39
0
210
0
220
0
230
1
0
LINE
5
83
100
AcDbEntity
8
1
62
256
6
ByLayer
370
18
48
1
60
0
100
AcDbLine
10
80.716396
20
-50.675
30
0
11
77.805434
21
-50.675
31
0
39
0
210
0
220
0
230
1
0
LINE
5
84
100
AcDbEntity
8
1
62
256
6
ByLayer
370
18
48
1
60
0
100
AcDbLine
10
77.805434
20
-47.325
30
0
11
76.626608
21
-47.325
31
0
39
0
210
0
220
0
230
1
0
LINE
5
85
100
AcDbEntity
8
1
62
256
6
ByLayer
370
18
48
1
60
0
100
AcDbLine
10
77.805434
20
-50.675
30
0
11
76.626608
21
-50.675
31
0
39
0
210
0
220
0
230
1
0
LINE
5
86
100
AcDbEntity
8
1
62
256
6
ByLayer
370
18
48
1
60
0
100
AcDbLine
10
77.805434
20
-50.675
30
0
11
77.8053
21
-50.599984
31
0
39
0
210
0
220
0
230
1
0
LINE
5
87
100
AcDbEntity
8
1
62
256
6
ByLayer
370
18
48
1
60
0
100
AcDbLine
10
80.716396
20
-47.325
30
0
11
77.805434
21
-47.325
31
0
39
0
210
0
220
0
230
1
0
LINE
5
88
100
AcDbEntity
8
1
62
256
6
ByLayer
370
18
48
1
60
0
100
AcDbLine
10
77.8053
20
-47.400016
30
0
11
77.805434
21
-47.325
31
0
39
0
210
0
220
0
230
1
0
LINE
5
89
100
AcDbEntity
8
1
62
256
6
ByLayer
370
18
48
1
60
0
100
AcDbLine
10
36.2
20
-50.675
30
0
11
34.104727
21
-50.675
31
0
39
0
210
0
220
0
230
1
0
LINE
5
8A
100
AcDbEntity
8
1
62
256
6
ByLayer
370
13
48
1
60
0
100
AcDbLine
10
36.2
20
-41.15
30
0
11
31.562736
21
-41.15
31
0
39
0
210
0
220
0
230
1
0
LINE
5
8B
100
AcDbEntity
8
1
62
256
6
ByLayer
370
13
48
1
60
0
100
AcDbLine
10
36.2
20
-40.15
30
0
11
36.2
21
-41.15
31
0
39
0
210
0
220
0
230
1
0
LINE
5
8C
100
AcDbEntity
8
1
62
256
6
ByLayer
370
18
48
1
60
0
100
AcDbLine
10
39.893237
20
-50.675
30
0
11
36.2
21
-50.675
31
0
39
0
210
0
220
0
230
1
0
LINE
5
8D
100
AcDbEntity
8
1
62
256
6
ByLayer
370
13
48
1
60
0
100
AcDbLine
10
36.2
20
-50.675
30
0
11
36.2
21
-41.15
31
0
39
0
210
0
220
0
230
1
0
LINE
5
8E
100
AcDbEntity
8
1
62
256
6
ByLayer
370
13
48
1
60
0
100
AcDbLine
10
39.893237
20
-41.15
30
0
11
36.2
21
-41.15
31
0
39
0
210
0
220
0
230
1
0
LINE
5
8F
100
AcDbEntity
8
1
62
256
6
ByLayer
370
18
48
1
60
0
100
AcDbLine
10
39.893237
20
-50.675
30
0
11
39.893237
21
-41.15
31
0
39
0
210
0
220
0
230
1
0
LINE
5
90
100
AcDbEntity
8
1
62
256
6
ByLayer
370
18
48
1
60
0
100
AcDbLine
10
39.893237
20
-50.675
30
0
11
40.279315
21
-50.675
31
0
39
0
210
0
220
0
230
1
0
LINE
5
91
100
AcDbEntity
8
1
62
256
6
ByLayer
370
18
48
1
60
0
100
AcDbLine
10
40.4
20
-50.675
30
0
11
40.279216
21
-50.675
31
0
39
0
210
0
220
0
230
1
0
LINE
5
92
100
AcDbEntity
8
1
62
256
6
ByLayer
370
18
48
1
60
0
100
AcDbLine
10
40.279216
20
-41.15
30
0
11
40.279216
21
-50.675
31
0
39
0
210
0
220
0
230
1
0
LINE
5
93
100
AcDbEntity
8
1
62
256
6
ByLayer
370
13
48
1
60
0
100
AcDbLine
10
40.4
20
-41.15
30
0
11
40.279216
21
-41.15
31
0
39
0
210
0
220
0
230
1
0
LINE
5
94
100
AcDbEntity
8
1
62
256
6
ByLayer
370
18
48
1
60
0
100
AcDbLine
10
73.5
20
-50.675
30
0
11
76.626628
21
-50.675
31
0
39
0
210
0
220
0
230
1
0
LINE
5
95
100
AcDbEntity
8
1
62
256
6
ByLayer
370
18
48
1
60
0
100
AcDbLine
10
73.5
20
-47.325
30
0
11
76.626628
21
-47.325
31
0
39
0
210
0
220
0
230
1
0
LINE
5
96
100
AcDbEntity
8
1
62
256
6
ByLayer
370
18
48
1
60
0
100
AcDbLine
10
77
20
-48.725031
30
0
11
77
21
-49.274969
31
0
39
0
210
0
220
0
230
1
0
LINE
5
97
100
AcDbEntity
8
1
62
256
6
ByLayer
370
18
48
1
60
0
100
AcDbLine
10
37.399843
20
-40.15
30
0
11
36.400157
21
-40.15
31
0
39
0
210
0
220
0
230
1
0
LINE
5
98
100
AcDbEntity
8
1
62
256
6
ByLayer
370
18
48
1
60
0
100
AcDbLine
10
37.399843
20
18.5
30
0
11
36.400157
21
18.5
31
0
39
0
210
0
220
0
230
1
0
LINE
5
99
100
AcDbEntity
8
1
62
256
6
ByLayer
370
18
48
1
60
0
100
AcDbLine
10
61.202439
20
-50.675
30
0
11
73.5
21
-50.675
31
0
39
0
210
0
220
0
230
1
0
LINE
5
9A
100
AcDbEntity
8
1
62
256
6
ByLayer
370
18
48
1
60
0
100
AcDbLine
10
73.5
20
-47.325
30
0
11
73.5
21
-50.675
31
0
39
0
210
0
220
0
230
1
0
LINE
5
9B
100
AcDbEntity
8
1
62
256
6
ByLayer
370
18
48
1
60
0
100
AcDbLine
10
61.202439
20
-47.325
30
0
11
73.5
21
-47.325
31
0
39
0
210
0
220
0
230
1
0
LINE
5
9C
100
AcDbEntity
8
1
62
256
6
ByLayer
370
18
48
1
60
0
100
AcDbLine
10
36.4
20
-40.15
30
0
11
34.208724
21
-40.15
31
0
39
0
210
0
220
0
230
1
0
LINE
5
9D
100
AcDbEntity
8
1
62
256
6
ByLayer
370
18
48
1
60
0
100
AcDbLine
10
34.208724
20
18.5
30
0
11
36.4
21
18.5
31
0
39
0
210
0
220
0
230
1
0
LINE
5
9E
100
AcDbEntity
8
1
62
256
6
ByLayer
370
18
48
1
60
0
100
AcDbLine
10
36.4
20
18.5
30
0
11
36.4
21
-40.15
31
0
39
0
210
0
220
0
230
1
0
LINE
5
9F
100
AcDbEntity
8
1
62
256
6
ByLayer
370
18
48
1
60
0
100
AcDbLine
10
39.4
20
-40.15
30
0
11
37.4
21
-40.15
31
0
39
0
210
0
220
0
230
1
0
LINE
5
A0
100
AcDbEntity
8
1
62
256
6
ByLayer
370
18
48
1
60
0
100
AcDbLine
10
37.4
20
18.5
30
0
11
46.9
21
18.5
31
0
39
0
210
0
220
0
230
1
0
LINE
5
A1
100
AcDbEntity
8
1
62
256
6
ByLayer
370
18
48
1
60
0
100
AcDbLine
10
40.4
20
-50.675
30
0
11
40.4
21
-41.15
31
0
39
0
210
0
220
0
230
1
0
LINE
5
A2
100
AcDbEntity
8
1
62
256
6
ByLayer
370
18
48
1
60
0
100
AcDbLine
10
37.4
20
-40.15
30
0
11
37.4
21
18.5
31
0
39
0
210
0
220
0
230
1
0
LINE
5
A3
100
AcDbEntity
8
1
62
256
6
ByLayer
370
18
48
1
60
0
100
AcDbLine
10
40.4
20
-50.675
30
0
11
61.202439
21
-50.675
31
0
39
0
210
0
220
0
230
1
0
LINE
5
A4
100
AcDbEntity
8
1
62
256
6
ByLayer
370
18
48
1
60
0
100
AcDbLine
10
61.202439
20
-50.675
30
0
11
61.202439
21
-47.325
31
0
39
0
210
0
220
0
230
1
0
LINE
5
A5
100
AcDbEntity
8
1
62
256
6
ByLayer
370
18
48
1
60
0
100
AcDbLine
10
60
20
-47.325
30
0
11
61.202439
21
-47.325
31
0
39
0
210
0
220
0
230
1
0
LINE
5
A6
100
AcDbEntity
8
1
62
256
6
ByLayer
370
18
48
1
60
0
100
AcDbLine
10
58.4
20
-35.6
30
0
11
58.4
21
-45.725
31
0
39
0
210
0
220
0
230
1
0
LINE
5
A7
100
AcDbEntity
8
1
62
256
6
ByLayer
370
18
48
1
60
0
100
AcDbLine
10
58.4
20
-35.6
30
0
11
46.9
21
18.5
31
0
39
0
210
0
220
0
230
1
0
LINE
5
A8
100
AcDbEntity
8
1
62
256
6
ByLayer
370
13
48
1
60
0
100
AcDbLine
10
31.438319
20
-38.695163
30
0
11
31.438319
21
-40.15
31
0
39
0
210
0
220
0
230
1
0
LINE
5
A9
100
AcDbEntity
8
1
62
256
6
ByLayer
370
13
48
1
60
0
100
AcDbLine
10
34.208724
20
18.5
30
0
11
34.208724
21
-40.15
31
0
39
0
210
0
220
0
230
1
0
LINE
5
AA
100
AcDbEntity
8
1
62
256
6
ByLayer
370
18
48
1
60
0
100
AcDbLine
10
34.208724
20
18.5
30
0
11
34.152872
21
18.5
31
0
39
0
210
0
220
0
230
1
0
LINE
5
AB
100
AcDbEntity
8
1
62
256
6
ByLayer
370
18
48
1
60
0
100
AcDbLine
10
31.783412
20
-40.15
30
0
11
34.208724
21
-40.15
31
0
39
0
210
0
220
0
230
1
0
LINE
5
AC
100
AcDbEntity
8
1
62
256
6
ByLayer
370
13
48
1
60
0
100
AcDbLine
10
10.105662
20
-12.6576
30
0
11
10.105662
21
-37.944501
31
0
39
0
210
0
220
0
230
1
0
LINE
5
AD
100
AcDbEntity
8
1
62
256
6
ByLayer
370
13
48
1
60
0
100
AcDbLine
10
10.538675
20
-12.13309
30
0
11
10.538675
21
-38.115458
31
0
39
0
210
0
220
0
230
1
0
LINE
5
AE
100
AcDbEntity
8
1
62
256
6
ByLayer
370
13
48
1
60
0
100
AcDbLine
10
13.461325
20
38.115458
30
0
11
13.461325
21
12.13309
31
0
39
0
210
0
220
0
230
1
0
LINE
5
AF
100
AcDbEntity
8
1
62
256
6
ByLayer
370
13
48
1
60
0
100
AcDbLine
10
13.894338
20
37.944501
30
0
11
13.894338
21
12.6576
31
0
39
0
210
0
220
0
230
1
0
LINE
5
B0
100
AcDbEntity
8
1
62
256
6
ByLayer
370
13
48
1
60
0
100
AcDbLine
10
13.461325
20
-12.13309
30
0
11
13.461325
21
-38.115458
31
0
39
0
210
0
220
0
230
1
0
LINE
5
B1
100
AcDbEntity
8
1
62
256
6
ByLayer
370
13
48
1
60
0
100
AcDbLine
10
13.894338
20
-12.6576
30
0
11
13.894338
21
-37.944501
31
0
39
0
210
0
220
0
230
1
0
LINE
5
B2
100
AcDbEntity
8
1
62
256
6
ByLayer
370
13
48
1
60
0
100
AcDbLine
10
10.105662
20
37.944501
30
0
11
10.105662
21
12.6576
31
0
39
0
210
0
220
0
230
1
0
LINE
5
B3
100
AcDbEntity
8
1
62
256
6
ByLayer
370
13
48
1
60
0
100
AcDbLine
10
10.538675
20
38.115458
30
0
11
10.538675
21
12.13309
31
0
39
0
210
0
220
0
230
1
0
LINE
5
B4
100
AcDbEntity
8
1
62
256
6
ByLayer
370
18
48
1
60
0
100
AcDbLine
10
0
20
39.7
30
0
11
0
21
-39.7
31
0
39
0
210
0
220
0
230
1
0
LINE
5
B5
100
AcDbEntity
8
1
62
256
6
ByLayer
370
18
48
1
60
0
100
AcDbLine
10
30.102242
20
28.284271
30
0
11
30.153025
21
22.465094
31
0
39
0
210
0
220
0
230
1
0
LINE
5
B6
100
AcDbEntity
8
1
62
256
6
ByLayer
370
13
48
1
60
0
100
AcDbLine
10
30.208877
20
-36.632127
30
0
11
30.208877
21
21.832994
31
0
39
0
210
0
220
0
230
1
0
LINE
5
B7
100
AcDbEntity
8
1
62
256
6
ByLayer
370
18
48
1
60
0
100
AcDbLine
10
0.3
20
40
30
0
11
0.3
21
-40
31
0
39
0
210
0
220
0
230
1
0
LINE
5
B8
100
AcDbEntity
8
1
62
256
6
ByLayer
370
18
48
1
60
0
100
AcDbLine
10
13.461325
20
-38.115458
30
0
11
10.538675
21
-38.115458
31
0
39
0
210
0
220
0
230
1
0
LINE
5
B9
100
AcDbEntity
8
1
62
256
6
ByLayer
370
18
48
1
60
0
100
AcDbLine
10
10.538675
20
-12.13309
30
0
11
13.461325
21
-12.13309
31
0
39
0
210
0
220
0
230
1
0
LINE
5
BA
100
AcDbEntity
8
1
62
256
6
ByLayer
370
18
48
1
60
0
100
AcDbLine
10
10.538675
20
38.115458
30
0
11
13.461325
21
38.115458
31
0
39
0
210
0
220
0
230
1
0
LINE
5
BB
100
AcDbEntity
8
1
62
256
6
ByLayer
370
18
48
1
60
0
100
AcDbLine
10
13.461325
20
12.13309
30
0
11
10.538675
21
12.13309
31
0
39
0
210
0
220
0
230
1
0
LINE
5
BC
100
AcDbEntity
8
1
62
256
6
ByLayer
370
18
48
1
60
0
100
AcDbLine
10
30
20
40
30
0
11
30.102242
21
28.284271
31
0
39
0
210
0
220
0
230
1
0
LINE
5
BD
100
AcDbEntity
8
1
62
256
6
ByLayer
370
13
48
1
60
0
100
AcDbLine
10
30.279208
20
-40
30
0
11
30.279208
21
-36.936481
31
0
39
0
210
0
220
0
230
1
0
LINE
5
BE
100
AcDbEntity
8
SK1
62
256
6
ByLayer
370
18
48
1
60
0
100
AcDbLine
10
-0.2
20
-28.683485
30
0
11
-0.2
21
-6.552279
31
0
39
0
210
0
220
0
230
1
0
LINE
5
C0
100
AcDbEntity
8
SK1
62
256
6
ByLayer
370
18
48
1
60
0
100
AcDbLine
10
-0.2
20
28.683485
30
0
11
-0.2
21
6.552277
31
0
39
0
210
0
220
0
230
1
0
LINE
5
C1
100
AcDbEntity
8
SK1
62
256
6
ByLayer
370
13
48
1
60
0
100
AcDbLine
10
-1.307107
20
4.393312
30
0
11
-1.307107
21
-4.393309
31
0
39
0
210
0
220
0
230
1
0
LINE
5
C2
100
AcDbEntity
8
1
62
256
6
ByLayer
370
18
48
1
60
0
100
AcDbLine
10
78.63
20
-47.4
30
0
11
80.58649
21
-47.4
31
0
39
0
210
0
220
0
230
1
0
LINE
5
C3
100
AcDbEntity
8
1
62
256
6
ByLayer
370
18
48
1
60
0
100
AcDbLine
10
78.63
20
-50.6
30
0
11
80.58649
21
-50.6
31
0
39
0
210
0
220
0
230
1
0
LINE
5
C4
100
AcDbEntity
8
1
62
256
6
ByLayer
370
18
48
1
60
0
100
AcDbLine
10
85
20
-50.7
30
0
11
85
21
-47.3
31
0
39
0
210
0
220
0
230
1
0
LINE
5
C5
100
AcDbEntity
8
1
62
256
6
ByLayer
370
18
48
1
60
0
100
AcDbLine
10
81
20
-47.16126
30
0
11
80.58649
21
-47.4
31
0
39
0
210
0
220
0
230
1
0
LINE
5
C6
100
AcDbEntity
8
1
62
256
6
ByLayer
370
18
48
1
60
0
100
AcDbLine
10
81
20
-50.83874
30
0
11
80.58649
21
-50.6
31
0
39
0
210
0
220
0
230
1
0
LINE
5
C7
100
AcDbEntity
8
1
62
256
6
ByLayer
370
18
48
1
60
0
100
AcDbLine
10
84.686914
20
-50.999714
30
0
11
81
21
-50.83874
31
0
39
0
210
0
220
0
230
1
0
LINE
5
C8
100
AcDbEntity
8
1
62
256
6
ByLayer
370
18
48
1
60
0
100
AcDbLine
10
84.686914
20
-47.000286
30
0
11
81
21
-47.16126
31
0
39
0
210
0
220
0
230
1
0
LINE
5
C9
100
AcDbEntity
8
1
62
256
6
ByLayer
370
18
48
1
60
0
100
AcDbLine
10
64
20
-47.16126
30
0
11
64.283603
21
-47.324998
31
0
39
0
210
0
220
0
230
1
0
LINE
5
CA
100
AcDbEntity
8
1
62
256
6
ByLayer
370
18
48
1
60
0
100
AcDbLine
10
60.313086
20
-47.000286
30
0
11
64
21
-47.16126
31
0
39
0
210
0
220
0
230
1
0
LINE
5
CB
100
AcDbEntity
8
1
62
256
6
ByLayer
370
18
48
1
60
0
100
AcDbLine
10
60
20
-50.7
30
0
11
60
21
-50.674978
31
0
39
0
210
0
220
0
230
1
0
LINE
5
CC
100
AcDbEntity
8
1
62
256
6
ByLayer
370
18
48
1
60
0
100
AcDbLine
10
60
20
-47.325022
30
0
11
60
21
-47.3
31
0
39
0
210
0
220
0
230
1
0
LINE
5
CD
100
AcDbEntity
8
1
62
256
6
ByLayer
370
18
48
1
60
0
100
AcDbLine
10
60.313086
20
-50.999714
30
0
11
64
21
-50.83874
31
0
39
0
210
0
220
0
230
1
0
LINE
5
CE
100
AcDbEntity
8
1
62
256
6
ByLayer
370
18
48
1
60
0
100
AcDbLine
10
64
20
-50.83874
30
0
11
64.283603
21
-50.675002
31
0
39
0
210
0
220
0
230
1
0
LINE
5
CF
100
AcDbEntity
8
1
62
256
6
ByLayer
370
13
48
1
60
0
100
AcDbLine
10
77
20
-48.98
30
0
11
77.937861
21
-48.98
31
0
39
0
210
0
220
0
230
1
0
LINE
5
D0
100
AcDbEntity
8
1
62
256
6
ByLayer
370
13
48
1
60
0
100
AcDbLine
10
77
20
-49.02
30
0
11
77.937861
21
-49.02
31
0
39
0
210
0
220
0
230
1
0
LINE
5
D1
100
AcDbEntity
8
1
62
256
6
ByLayer
370
13
48
1
60
0
100
AcDbLine
10
76.999918
20
-49.210736
30
0
11
77.928946
21
-49.210736
31
0
39
0
210
0
220
0
230
1
0
LINE
5
D2
100
AcDbEntity
8
1
62
256
6
ByLayer
370
13
48
1
60
0
100
AcDbLine
10
76.999918
20
-48.789264
30
0
11
77.928946
21
-48.789264
31
0
39
0
210
0
220
0
230
1
0
LINE
5
D3
100
AcDbEntity
8
1
62
256
6
ByLayer
370
13
48
1
60
0
100
AcDbLine
10
76.910754
20
-49.427733
30
0
11
77.748945
21
-49.427733
31
0
39
0
210
0
220
0
230
1
0
LINE
5
D4
100
AcDbEntity
8
1
62
256
6
ByLayer
370
13
48
1
60
0
100
AcDbLine
10
76.910754
20
-48.572267
30
0
11
77.748945
21
-48.572267
31
0
39
0
210
0
220
0
230
1
0
LINE
5
D5
100
AcDbEntity
8
1
62
256
6
ByLayer
370
13
48
1
60
0
100
AcDbLine
10
77.590119
20
-49.483085
30
0
11
76.80632
21
-49.483085
31
0
39
0
210
0
220
0
230
1
0
LINE
5
D6
100
AcDbEntity
8
1
62
256
6
ByLayer
370
13
48
1
60
0
100
AcDbLine
10
77.590119
20
-48.516915
30
0
11
76.80632
21
-48.516915
31
0
39
0
210
0
220
0
230
1
0
LINE
5
D7
100
AcDbEntity
8
1
62
256
6
ByLayer
370
13
48
1
60
0
100
AcDbLine
10
76.772685
20
-49.513888
30
0
11
77.549523
21
-49.513888
31
0
39
0
210
0
220
0
230
1
0
LINE
5
D8
100
AcDbEntity
8
1
62
256
6
ByLayer
370
13
48
1
60
0
100
AcDbLine
10
76.772606
20
-48.486112
30
0
11
77.549523
21
-48.486112
31
0
39
0
210
0
220
0
230
1
0
LINE
5
D9
100
AcDbEntity
8
1
62
256
6
ByLayer
370
13
48
1
60
0
100
AcDbLine
10
76.761059
20
-48.394335
30
0
11
77.477691
21
-48.394335
31
0
39
0
210
0
220
0
230
1
0
LINE
5
DA
100
AcDbEntity
8
1
62
256
6
ByLayer
370
13
48
1
60
0
100
AcDbLine
10
76.761215
20
-49.605665
30
0
11
77.477691
21
-49.605665
31
0
39
0
210
0
220
0
230
1
0
LINE
5
DB
100
AcDbEntity
8
1
62
256
6
ByLayer
370
13
48
1
60
0
100
AcDbLine
10
76.755788
20
-49.649934
30
0
11
77.457959
21
-49.649934
31
0
39
0
210
0
220
0
230
1
0
LINE
5
DC
100
AcDbEntity
8
1
62
256
6
ByLayer
370
13
48
1
60
0
100
AcDbLine
10
76.755478
20
-48.350066
30
0
11
77.457959
21
-48.350066
31
0
39
0
210
0
220
0
230
1
0
LINE
5
DD
100
AcDbEntity
8
1
62
256
6
ByLayer
370
13
48
1
60
0
100
AcDbLine
10
76.668967
20
-50.341384
30
0
11
77.336037
21
-50.341384
31
0
39
0
210
0
220
0
230
1
0
LINE
5
DE
100
AcDbEntity
8
1
62
256
6
ByLayer
370
18
48
1
60
0
100
AcDbLine
10
76.636081
20
-50.6
30
0
11
77.334518
21
-50.6
31
0
39
0
210
0
220
0
230
1
0
LINE
5
DF
100
AcDbEntity
8
1
62
256
6
ByLayer
370
13
48
1
60
0
100
AcDbLine
10
76.66675
20
-50.358749
30
0
11
77.334518
21
-50.358749
31
0
39
0
210
0
220
0
230
1
0
LINE
5
E0
100
AcDbEntity
8
1
62
256
6
ByLayer
370
18
48
1
60
0
100
AcDbLine
10
76.63593
20
-47.4
30
0
11
77.334518
21
-47.4
31
0
39
0
210
0
220
0
230
1
0
LINE
5
E1
100
AcDbEntity
8
1
62
256
6
ByLayer
370
18
48
1
60
0
100
AcDbLine
10
78.63
20
-47.4
30
0
11
77.334518
21
-47.4
31
0
39
0
210
0
220
0
230
1
0
LINE
5
E2
100
AcDbEntity
8
1
62
256
6
ByLayer
370
18
48
1
60
0
100
AcDbLine
10
77.334518
20
-47.4
30
0
11
77.334518
21
-47.641251
31
0
39
0
210
0
220
0
230
1
0
LINE
5
E3
100
AcDbEntity
8
1
62
256
6
ByLayer
370
18
48
1
60
0
100
AcDbLine
10
77.336037
20
-47.658616
30
0
11
77.457959
21
-48.350066
31
0
39
0
210
0
220
0
230
1
0
LINE
5
E4
100
AcDbEntity
8
1
62
256
6
ByLayer
370
18
48
1
60
0
100
AcDbLine
10
77.477691
20
-48.394335
30
0
11
77.549523
21
-48.486112
31
0
39
0
210
0
220
0
230
1
0
LINE
5
E5
100
AcDbEntity
8
1
62
256
6
ByLayer
370
18
48
1
60
0
100
AcDbLine
10
77.937861
20
-49.02
30
0
11
77.937861
21
-48.98
31
0
39
0
210
0
220
0
230
1
0
LINE
5
E6
100
AcDbEntity
8
1
62
256
6
ByLayer
370
18
48
1
60
0
100
AcDbLine
10
77.477691
20
-49.605665
30
0
11
77.549523
21
-49.513888
31
0
39
0
210
0
220
0
230
1
0
LINE
5
E7
100
AcDbEntity
8
1
62
256
6
ByLayer
370
18
48
1
60
0
100
AcDbLine
10
77.336037
20
-50.341384
30
0
11
77.457959
21
-49.649934
31
0
39
0
210
0
220
0
230
1
0
LINE
5
E8
100
AcDbEntity
8
1
62
256
6
ByLayer
370
18
48
1
60
0
100
AcDbLine
10
77.334518
20
-50.6
30
0
11
77.334518
21
-50.358749
31
0
39
0
210
0
220
0
230
1
0
LINE
5
E9
100
AcDbEntity
8
1
62
256
6
ByLayer
370
18
48
1
60
0
100
AcDbLine
10
78.63
20
-50.6
30
0
11
77.334518
21
-50.6
31
0
39
0
210
0
220
0
230
1
0
LINE
5
EA
100
AcDbEntity
8
1
62
256
6
ByLayer
370
18
48
1
60
0
100
AcDbLine
10
78.63
20
-50.6
30
0
11
78.63
21
-47.4
31
0
39
0
210
0
220
0
230
1
0
LINE
5
EB
100
AcDbEntity
8
1
62
256
6
ByLayer
370
13
48
1
60
0
100
AcDbLine
10
76.666297
20
-47.641251
30
0
11
77.334518
21
-47.641251
31
0
39
0
210
0
220
0
230
1
0
LINE
5
EC
100
AcDbEntity
8
1
62
256
6
ByLayer
370
13
48
1
60
0
100
AcDbLine
10
76.668513
20
-47.658616
30
0
11
77.336037
21
-47.658616
31
0
39
0
210
0
220
0
230
1
0
LINE
5
ED
100
AcDbEntity
8
SK2
62
256
6
ByLayer
370
18
48
1
60
0
100
AcDbLine
10
-57.975
20
-40
30
0
11
-57.975
21
40
31
0
39
0
210
0
220
0
230
1
0
LINE
5
EF
100
AcDbEntity
8
SK2
62
256
6
ByLayer
370
18
48
1
60
0
100
AcDbLine
10
-1.2875
20
40
30
0
11
-59.975
21
40
31
0
39
0
210
0
220
0
230
1
0
LINE
5
F0
100
AcDbEntity
8
SK2
62
256
6
ByLayer
370
18
48
1
60
0
100
AcDbLine
10
-1.2875
20
-40
30
0
11
-59.975
21
-40
31
0
39
0
210
0
220
0
230
1
0
LINE
5
F1
100
AcDbEntity
8
1
62
256
6
ByLayer
370
18
48
1
60
1
100
AcDbLine
10
-57.975
20
40
30
0
11
-57.514216
21
36.500002
31
0
39
0
210
0
220
0
230
1
0
LINE
5
F2
100
AcDbEntity
8
1
62
256
6
ByLayer
370
18
48
1
60
1
100
AcDbLine
10
-57.514216
20
36.500002
30
0
11
-58.435784
21
36.499998
31
0
39
0
210
0
220
0
230
1
0
LINE
5
F3
100
AcDbEntity
8
1
62
256
6
ByLayer
370
18
48
1
60
1
100
AcDbLine
10
-58.435784
20
36.499998
30
0
11
-57.975
21
40
31
0
39
0
210
0
220
0
230
1
0
LINE
5
F4
100
AcDbEntity
8
1
62
256
6
ByLayer
370
18
48
1
60
1
100
AcDbLine
10
-57.975
20
-40
30
0
11
-58.435784
21
-36.500002
31
0
39
0
210
0
220
0
230
1
0
LINE
5
F5
100
AcDbEntity
8
1
62
256
6
ByLayer
370
18
48
1
60
1
100
AcDbLine
10
-58.435784
20
-36.500002
30
0
11
-57.514216
21
-36.499998
31
0
39
0
210
0
220
0
230
1
0
LINE
5
F6
100
AcDbEntity
8
1
62
256
6
ByLayer
370
18
48
1
60
1
100
AcDbLine
10
-57.514216
20
-36.499998
30
0
11
-57.975
21
-40
31
0
39
0
210
0
220
0
230
1
0
LINE
5
148
100
AcDbEntity
8
1
62
256
6
ByLayer
370
18
48
1
60
1
100
AcDbLine
10
-57.975
20
40
30
0
11
-57.514216
21
36.500002
31
0
39
0
210
0
220
0
230
1
0
LINE
5
149
100
AcDbEntity
8
1
62
256
6
ByLayer
370
18
48
1
60
1
100
AcDbLine
10
-57.514216
20
36.500002
30
0
11
-58.435784
21
36.499998
31
0
39
0
210
0
220
0
230
1
0
LINE
5
14A
100
AcDbEntity
8
1
62
256
6
ByLayer
370
18
48
1
60
1
100
AcDbLine
10
-58.435784
20
36.499998
30
0
11
-57.975
21
40
31
0
39
0
210
0
220
0
230
1
0
LINE
5
14C
100
AcDbEntity
8
1
62
256
6
ByLayer
370
18
48
1
60
1
100
AcDbLine
10
-57.975
20
-40
30
0
11
-58.435784
21
-36.500002
31
0
39
0
210
0
220
0
230
1
0
LINE
5
14D
100
AcDbEntity
8
1
62
256
6
ByLayer
370
18
48
1
60
1
100
AcDbLine
10
-58.435784
20
-36.500002
30
0
11
-57.514216
21
-36.499998
31
0
39
0
210
0
220
0
230
1
0
LINE
5
14E
100
AcDbEntity
8
1
62
256
6
ByLayer
370
18
48
1
60
1
100
AcDbLine
10
-57.514216
20
-36.499998
30
0
11
-57.975
21
-40
31
0
39
0
210
0
220
0
230
1
0
MTEXT
5
144
100
AcDbEntity
8
SK2
62
256
6
ByLayer
370
18
48
1
60
0
100
AcDbMText
10
-59.539634
20
-4.530622
30
0
210
0
220
0
230
1
1
%%c
40
3.5
41
0
44
1.084337
50
90
71
7
72
5
7
iso_b_vert
0
MTEXT
5
147
100
AcDbEntity
8
SK2
62
256
6
ByLayer
370
18
48
1
60
0
100
AcDbMText
10
-59.539634
20
2.442034
30
0
210
0
220
0
230
1
1
\W0.6740;80
40
3.5
41
0
44
1.084337
50
90
71
7
72
5
7
iso_b_vert
0
MTEXT
5
150
100
AcDbEntity
8
SK6
62
256
6
ByLayer
370
18
48
1
60
0
100
AcDbMText
10
-13.8145
20
-59.717366
30
0
210
0
220
0
230
1
1
\W0.7478;C2R-CC8-LH25CB
40
3.5
41
0
44
1.084337
50
0
71
7
72
5
7
iso_b_vert
0
HATCH
5
14B
100
AcDbEntity
8
SK2
62
256
6
ByLayer
370
13
48
1
60
0
100
AcDbHatch
10
0
20
0
30
0
210
0
220
0
230
1
2
ANSI31
70
0
71
0
91
1
92
5
93
3
72
1
10
-57.975
20
40
11
-57.5142162584472
21
36.5000016925532
72
1
10
-57.5142162584472
20
36.5000016925532
11
-58.4357837415528
21
36.4999983074468
72
1
10
-58.4357837415528
20
36.4999983074468
11
-57.975
21
40
97
0
75
0
76
1
52
0
41
0.0062
77
0
78
1
53
45
43
0
44
0
45
-0.0139193969876572
46
0.0139193969876572
79
0
47
0
98
1
10
0
20
0
0
HATCH
5
14F
100
AcDbEntity
8
SK2
62
256
6
ByLayer
370
13
48
1
60
0
100
AcDbHatch
10
0
20
0
30
0
210
0
220
0
230
1
2
ANSI31
70
0
71
0
91
1
92
5
93
3
72
1
10
-57.975
20
-40
11
-58.4357837415528
21
-36.5000016925532
72
1
10
-58.4357837415528
20
-36.5000016925532
11
-57.5142162584472
21
-36.4999983074468
72
1
10
-57.5142162584472
20
-36.4999983074468
11
-57.975
21
-40
97
0
75
0
76
1
52
0
41
0.0062
77
0
78
1
53
45
43
0
44
0
45
-0.0139193969876572
46
0.0139193969876572
79
0
47
0
98
1
10
0
20
0
0
DIMENSION
5
153
100
AcDbEntity
8
2
62
256
6
ByLayer
370
18
48
1
60
0
100
AcDbDimension
2
_U0
10
116.1
20
0
30
0
11
116.1
21
-25.5
31
0
70
32
71
1
72
1
41
1
210
0
220
0
230
1
3
Standard
100
AcDbAlignedDimension
13
85
23
-51
33
0
14
0
24
0
34
0
50
90
100
AcDbRotatedDimension
1001
ACAD
1000
DSTYLE
1002
{
1070
   371
1070
    13
1070
   372
1070
    13
1070
   170
1070
     0
1070
   144
1040
1.0
1070
   277
1070
     2
1070
   284
1070
     8
1070
   278
1070
    46
1070
   146
1040
1.0
1070
   345
1005
16
1070
   347
1005
16
1070
   346
1005
16
1070
   344
1005
0
1070
   343
1005
0
1070
   172
1070
     1
1070
    76
1070
     0
1070
    75
1070
     0
1070
   282
1070
     0
1070
   281
1070
     0
1070
    71
1070
     0
1070
    74
1070
     0
1070
   279
1070
     0
1070
   173
1070
     1
1070
   340
1005
145
1070
   271
1070
     1
1070
   272
1070
     2
1070
    77
1070
     1
1070
    73
1070
     0
1070
   171
1070
     3
1070
   274
1070
     4
1070
   177
1070
     2
1070
   176
1070
     2
1070
   178
1070
     2
1070
    78
1070
     8
1070
    48
1040
-0.1
1070
    41
1040
3.5
1070
   147
1040
1.75
1070
    42
1040
1.5875
1070
    44
1040
2.0
1070
   140
1040
3.5
1002
}
1001
ACAD_DSTYLE_DIM_LINETYPE
1070
   380
1005
16
1001
ACAD_DSTYLE_DIM_EXT1_LINETYPE
1070
   381
1005
16
1001
ACAD_DSTYLE_DIM_EXT2_LINETYPE
1070
   382
1005
16
0
DIMENSION
5
16D
100
AcDbEntity
8
2
62
256
6
ByLayer
370
18
48
1
60
0
100
AcDbDimension
2
_U1
10
105.1
20
-51
30
0
11
105.1
21
-49
31
0
70
32
71
1
72
1
41
1
210
0
220
0
230
1
3
Standard
100
AcDbAlignedDimension
13
85
23
-47
33
0
14
85
24
-51
34
0
50
90
100
AcDbRotatedDimension
1001
ACAD
1000
DSTYLE
1002
{
1070
   371
1070
    13
1070
   372
1070
    13
1070
   170
1070
     0
1070
   144
1040
1.0
1070
   277
1070
     2
1070
   284
1070
     8
1070
   278
1070
    46
1070
   146
1040
1.0
1070
   345
1005
16
1070
   347
1005
16
1070
   346
1005
16
1070
   344
1005
0
1070
   343
1005
0
1070
   172
1070
     1
1070
    76
1070
     0
1070
    75
1070
     0
1070
   282
1070
     0
1070
   281
1070
     0
1070
    71
1070
     0
1070
    74
1070
     0
1070
   279
1070
     0
1070
   173
1070
     1
1070
   340
1005
145
1070
   271
1070
     1
1070
   272
1070
     2
1070
    77
1070
     1
1070
    73
1070
     0
1070
   171
1070
     3
1070
   274
1070
     4
1070
   177
1070
     2
1070
   176
1070
     2
1070
   178
1070
     2
1070
    78
1070
     8
1070
    48
1040
-0.1
1070
    41
1040
3.5
1070
   147
1040
1.75
1070
    42
1040
1.5875
1070
    44
1040
2.0
1070
   140
1040
3.5
1002
}
1001
ACAD_DSTYLE_DIM_LINETYPE
1070
   380
1005
16
1001
ACAD_DSTYLE_DIM_EXT1_LINETYPE
1070
   381
1005
16
1001
ACAD_DSTYLE_DIM_EXT2_LINETYPE
1070
   382
1005
16
0
DIMENSION
5
186
100
AcDbEntity
8
2
62
256
6
ByLayer
370
18
48
1
60
0
100
AcDbDimension
2
_U2
10
85
20
30.925
30
0
11
72.5
21
30.925
31
0
70
32
71
1
72
1
41
1
210
0
220
0
230
1
3
Standard
100
AcDbAlignedDimension
13
60
23
-47.325
33
0
14
85
24
-47
34
0
50
0
100
AcDbRotatedDimension
1001
ACAD
1000
DSTYLE
1002
{
1070
   371
1070
    13
1070
   372
1070
    13
1070
   170
1070
     0
1070
   144
1040
1.0
1070
   277
1070
     2
1070
   284
1070
     8
1070
   278
1070
    46
1070
   146
1040
1.0
1070
   345
1005
16
1070
   347
1005
16
1070
   346
1005
16
1070
   344
1005
0
1070
   343
1005
0
1070
   172
1070
     1
1070
    76
1070
     0
1070
    75
1070
     0
1070
   282
1070
     0
1070
   281
1070
     0
1070
    71
1070
     0
1070
    74
1070
     0
1070
   279
1070
     0
1070
   173
1070
     1
1070
   340
1005
145
1070
   271
1070
     1
1070
   272
1070
     2
1070
    77
1070
     1
1070
    73
1070
     1
1070
   171
1070
     3
1070
   274
1070
     4
1070
   177
1070
     2
1070
   176
1070
     2
1070
   178
1070
     2
1070
    78
1070
     8
1070
    48
1040
-0.1
1070
    41
1040
3.5
1070
   147
1040
1.75
1070
    42
1040
1.5875
1070
    44
1040
2.0
1070
   140
1040
3.5
1002
}
1001
ACAD_DSTYLE_DIM_LINETYPE
1070
   380
1005
16
1001
ACAD_DSTYLE_DIM_EXT1_LINETYPE
1070
   381
1005
16
1001
ACAD_DSTYLE_DIM_EXT2_LINETYPE
1070
   382
1005
16
0
DIMENSION
5
19E
100
AcDbEntity
8
2
62
256
6
ByLayer
370
18
48
1
60
0
100
AcDbDimension
2
_U3
10
85
20
-65.75
30
0
11
42.5
21
-65.75
31
0
70
32
71
1
72
1
41
1
210
0
220
0
230
1
3
Standard
100
AcDbAlignedDimension
13
0
23
0
33
0
14
85
24
-51
34
0
50
0
100
AcDbRotatedDimension
1001
ACAD
1000
DSTYLE
1002
{
1070
   371
1070
    13
1070
   372
1070
    13
1070
   170
1070
     0
1070
   144
1040
1.0
1070
   277
1070
     2
1070
   284
1070
     8
1070
   278
1070
    46
1070
   146
1040
1.0
1070
   345
1005
16
1070
   347
1005
16
1070
   346
1005
16
1070
   344
1005
0
1070
   343
1005
0
1070
   172
1070
     1
1070
    76
1070
     0
1070
    75
1070
     0
1070
   282
1070
     0
1070
   281
1070
     0
1070
    71
1070
     0
1070
    74
1070
     0
1070
   279
1070
     0
1070
   173
1070
     1
1070
   340
1005
145
1070
   271
1070
     1
1070
   272
1070
     2
1070
    77
1070
     1
1070
    73
1070
     1
1070
   171
1070
     3
1070
   274
1070
     4
1070
   177
1070
     2
1070
   176
1070
     2
1070
   178
1070
     2
1070
    78
1070
     8
1070
    48
1040
-0.1
1070
    41
1040
3.5
1070
   147
1040
1.75
1070
    42
1040
1.5875
1070
    44
1040
2.0
1070
   140
1040
3.5
1002
}
1001
ACAD_DSTYLE_DIM_LINETYPE
1070
   380
1005
16
1001
ACAD_DSTYLE_DIM_EXT1_LINETYPE
1070
   381
1005
16
1001
ACAD_DSTYLE_DIM_EXT2_LINETYPE
1070
   382
1005
16
0
ENDSEC
0
SECTION
2
OBJECTS
0
DICTIONARY
5
225
330
0
100
AcDbDictionary
280
0
281
1
3
ACAD_GROUP
350
226
3
ACAD_MLINESTYLE
350
227
0
DICTIONARY
5
226
330
0
100
AcDbDictionary
280
0
281
1
0
DICTIONARY
5
227
330
0
100
AcDbDictionary
280
0
281
1
3
Standard
350
18
0
MLINESTYLE
5
18
330
227
100
AcDbMlineStyle
2
Standard
70
0
3

62
256
51
90
52
90
71
2
49
-0.5
62
256
6
ByLayer
49
0.5
62
256
6
ByLayer
0
RASTERVARIABLES
5
214
330

100
AcDbRasterVariables
90
0
70
1
71
1
72
1
0
ENDSEC
0
EOF
