0
SECTION
2
HEADER
9
$ACADVER
1
AC1015
9
$DWGCODEPAGE
3
ANSI_1252
9
$HANDSEED
5
231
9
$ANGBASE
50
0
9
$ANGDIR
70
0
9
$ATTMODE
70
1
9
$AUNITS
70
0
9
$AUPREC
70
0
9
$CECOLOR
62
256
9
$CELTSCALE
40
1
9
$CELTYPE
6
ByLayer
9
$CELWEIGHT
370
18
9
$CLAYER
8
0
9
$CMLJUST
70
0
9
$CMLSCALE
40
1
9
$CMLSTYLE
2
Standard
9
$DIMSTYLE
2
Standard
9
$TEXTSIZE
40
0.2
9
$TEXTSTYLE
7
Standard
9
$LUNITS
70
2
9
$LUPREC
70
4
9
$EXTNAMES
290
1
9
$INSUNITS
70
4
9
$LTSCALE
40
1
9
$LWDISPLAY
290
1
9
$PDMODE
70
0
9
$PDSIZE
40
0
9
$PLINEGEN
70
0
0
ENDSEC
0
SECTION
2
CLASSES
0
CLASS
1
RASTERVARIABLES
2
AcDbRasterVariables
3
ISM
90
0
280
0
281
0
0
ENDSEC
0
SECTION
2
TABLES
0
TABLE
2
VPORT
5
227
100
AcDbSymbolTable
0
VPORT
5
1
100
AcDbSymbolTableRecord
100
AcDbViewportTableRecord
2
*Active
70
0
10
0
20
0
11
1
21
1
12
-1
22
1
13
0
23
0
14
0.5
24
0.5
15
10
25
10
16
0
26
0
36
1
17
0
27
0
37
0
0
ENDTAB
0
TABLE
2
LTYPE
5
228
100
AcDbSymbolTable
0
LTYPE
5
14
100
AcDbSymbolTableRecord
100
AcDbLinetypeTableRecord
70
0
2
ByBlock
3

72
65
73
0
40
0
0
LTYPE
5
15
100
AcDbSymbolTableRecord
100
AcDbLinetypeTableRecord
70
0
2
ByLayer
3

72
65
73
0
40
0
0
LTYPE
5
16
100
AcDbSymbolTableRecord
100
AcDbLinetypeTableRecord
70
0
2
Continuous
3
Solid line
72
65
73
0
40
0
0
LTYPE
5
6E
100
AcDbSymbolTableRecord
100
AcDbLinetypeTableRecord
70
0
2
CENTER
3
____ _ ____ _ ____ _ ____
72
65
73
4
40
47.5
49
22
74
0
49
-8.5
74
0
49
8.5
74
0
49
-8.5
74
0
0
LTYPE
5
6F
100
AcDbSymbolTableRecord
100
AcDbLinetypeTableRecord
70
0
2
DASHED
3
__ __ __ __ __ __ __ __ __
72
65
73
2
40
25.72
49
12.86
74
0
49
-12.86
74
0
0
ENDTAB
0
TABLE
2
LAYER
5
229
100
AcDbSymbolTable
0
LAYER
5
10
100
AcDbSymbolTableRecord
100
AcDbLayerTableRecord
2
0
70
0
62
7
6
Continuous
290
1
370
-3
390
0
0
LAYER
5
71
100
AcDbSymbolTableRecord
100
AcDbLayerTableRecord
2
80
70
0
62
-6
6
Continuous
290
1
370
-3
390
0
0
LAYER
5
73
100
AcDbSymbolTableRecord
100
AcDbLayerTableRecord
2
81
70
0
62
-3
6
Continuous
290
1
370
-3
390
0
0
LAYER
5
75
100
AcDbSymbolTableRecord
100
AcDbLayerTableRecord
2
1
70
0
62
4
6
Continuous
290
1
370
-3
390
0
0
LAYER
5
154
100
AcDbSymbolTableRecord
100
AcDbLayerTableRecord
2
Defpoints
70
0
62
7
6
Continuous
290
0
370
-3
390
0
0
LAYER
5
161
100
AcDbSymbolTableRecord
100
AcDbLayerTableRecord
2
2
70
0
62
7
6
Continuous
290
1
370
-3
390
0
0
LAYER
5
214
100
AcDbSymbolTableRecord
100
AcDbLayerTableRecord
2
SK1
70
0
62
4
6
Continuous
290
1
370
-3
390
0
0
LAYER
5
215
100
AcDbSymbolTableRecord
100
AcDbLayerTableRecord
2
SK2
70
0
62
7
6
Continuous
290
1
370
-3
390
0
0
LAYER
5
216
100
AcDbSymbolTableRecord
100
AcDbLayerTableRecord
2
SK6
70
0
62
5
6
Continuous
290
1
370
-3
390
0
0
ENDTAB
0
TABLE
2
STYLE
5
22a
100
AcDbSymbolTable
0
STYLE
5
11
100
AcDbSymbolTableRecord
100
AcDbTextStyleTableRecord
2
Standard
3
txt
70
0
71
0
40
0
41
1
42
0
50
0
0
STYLE
5
143
100
AcDbSymbolTableRecord
100
AcDbTextStyleTableRecord
2
iso_b_vert
3
simplex.shx
70
0
71
0
40
0
41
1
42
0
50
0
0
STYLE
5
144
100
AcDbSymbolTableRecord
100
AcDbTextStyleTableRecord
2
DWGDirectTextStyle
3
simplex
70
0
71
0
40
0
41
1
42
0
50
0
0
ENDTAB
0
TABLE
2
DIMSTYLE
5
22b
100
AcDbSymbolTable
100
AcDbDimStyleTable
0
DIMSTYLE
105
27
100
AcDbSymbolTableRecord
100
AcDbDimStyleTableRecord
2
Standard
70
0
3
<>
41
0.18
42
0.0625
44
0.18
140
0.18
147
0.09
73
0
74
0
77
1
271
2
275
0
278
52
280
0
340
11
0
ENDTAB
0
TABLE
2
VIEW
5
22c
100
AcDbSymbolTable
0
ENDTAB
0
TABLE
2
UCS
5
22d
100
AcDbSymbolTable
0
ENDTAB
0
TABLE
2
APPID
5
22e
100
AcDbSymbolTable
0
APPID
5
12
100
AcDbSymbolTableRecord
100
AcDbRegAppTableRecord
2
ACAD
70
0
0
APPID
5
150
100
AcDbSymbolTableRecord
100
AcDbRegAppTableRecord
2
ACAD_DSTYLE_DIMBREAK
70
0
0
APPID
5
1D3
100
AcDbSymbolTableRecord
100
AcDbRegAppTableRecord
2
ACAD_DSTYLE_DIM_LINETYPE
70
0
0
APPID
5
1D4
100
AcDbSymbolTableRecord
100
AcDbRegAppTableRecord
2
ACAD_DSTYLE_DIM_EXT1_LINETYPE
70
0
0
APPID
5
1D5
100
AcDbSymbolTableRecord
100
AcDbRegAppTableRecord
2
ACAD_DSTYLE_DIM_EXT2_LINETYPE
70
0
0
APPID
5
210
100
AcDbSymbolTableRecord
100
AcDbRegAppTableRecord
2
ACAD_MLEADERVER
70
0
0
ENDTAB
0
TABLE
2
BLOCK_RECORD
5
22f
100
AcDbSymbolTable
0
BLOCK_RECORD
5
1F
100
AcDbSymbolTableRecord
100
AcDbBlockTableRecord
2
*Model_Space
340
0
70
0
0
BLOCK_RECORD
5
1B
100
AcDbSymbolTableRecord
100
AcDbBlockTableRecord
2
*Paper_Space
340
0
70
0
0
BLOCK_RECORD
5
23
100
AcDbSymbolTableRecord
100
AcDbBlockTableRecord
2
*Paper_Space0
340
0
70
0
0
BLOCK_RECORD
5
155
100
AcDbSymbolTableRecord
100
AcDbBlockTableRecord
2
*D1
340
0
70
0
0
BLOCK_RECORD
5
162
100
AcDbSymbolTableRecord
100
AcDbBlockTableRecord
2
_U0
340
0
70
0
0
BLOCK_RECORD
5
16E
100
AcDbSymbolTableRecord
100
AcDbBlockTableRecord
2
*D3
340
0
70
0
0
BLOCK_RECORD
5
17B
100
AcDbSymbolTableRecord
100
AcDbBlockTableRecord
2
_U1
340
0
70
0
0
BLOCK_RECORD
5
187
100
AcDbSymbolTableRecord
100
AcDbBlockTableRecord
2
*D5
340
0
70
0
0
BLOCK_RECORD
5
194
100
AcDbSymbolTableRecord
100
AcDbBlockTableRecord
2
_U2
340
0
70
0
0
BLOCK_RECORD
5
1A0
100
AcDbSymbolTableRecord
100
AcDbBlockTableRecord
2
*D7
340
0
70
0
0
BLOCK_RECORD
5
1AC
100
AcDbSymbolTableRecord
100
AcDbBlockTableRecord
2
_U3
340
0
70
0
0
ENDTAB
0
ENDSEC
0
SECTION
2
BLOCKS
0
BLOCK
5
20
100
AcDbEntity
8
0
100
AcDbBlockBegin
2
*Model_Space
70
0
10
0
20
0
30
0
3
*Model_Space
0
ENDBLK
5
21
100
AcDbEntity
8
0
100
AcDbBlockEnd
0
BLOCK
5
1C
100
AcDbEntity
8
0
100
AcDbBlockBegin
2
*Paper_Space
70
0
10
0
20
0
30
0
3
*Paper_Space
0
ENDBLK
5
1D
100
AcDbEntity
8
0
100
AcDbBlockEnd
0
BLOCK
5
24
100
AcDbEntity
8
0
100
AcDbBlockBegin
2
*Paper_Space0
70
0
10
0
20
0
30
0
3
*Paper_Space0
0
ENDBLK
5
25
100
AcDbEntity
8
0
100
AcDbBlockEnd
0
BLOCK
5
156
100
AcDbEntity
8
0
100
AcDbBlockBegin
2
*D1
70
1
10
0
20
0
30
0
3
*D1
0
LINE
5
158
100
AcDbEntity
8
0
62
256
6
ByLayer
370
-2
48
1
60
0
100
AcDbLine
10
66.5875
20
45
30
0
11
98.1
21
45
31
0
39
0
210
0
220
0
230
1
0
LINE
5
159
100
AcDbEntity
8
0
62
256
6
ByLayer
370
-2
48
1
60
0
100
AcDbLine
10
1.5875
20
0
30
0
11
98.1
21
0
31
0
39
0
210
0
220
0
230
1
0
LINE
5
15A
100
AcDbEntity
8
0
62
256
6
ByLayer
370
-2
48
1
60
0
100
AcDbLine
10
96.1
20
41.5
30
0
11
96.1
21
3.5
31
0
39
0
210
0
220
0
230
1
0
SOLID
5
15B
100
AcDbEntity
8
0
62
256
6
ByLayer
370
-1
48
1
60
0
100
AcDbTrace
10
96.683333
20
41.5
30
0
11
95.516667
21
41.5
31
0
12
96.1
22
45
32
0
13
96.1
23
45
33
0
39
0
210
0
220
0
230
1
0
SOLID
5
15C
100
AcDbEntity
8
0
62
256
6
ByLayer
370
-1
48
1
60
0
100
AcDbTrace
10
95.516667
20
3.5
30
0
11
96.683333
21
3.5
31
0
12
96.1
22
0
32
0
13
96.1
23
0
33
0
39
0
210
0
220
0
230
1
0
MTEXT
5
15D
100
AcDbEntity
8
0
62
256
6
ByLayer
370
18
48
1
60
0
100
AcDbMText
10
89.1
20
22.5
30
0
210
0
220
0
230
1
1
\A1;45
40
3.5
41
0
44
1
50
90
71
5
72
5
7
iso_b_vert
0
POINT
5
15E
100
AcDbEntity
8
Defpoints
62
0
6
ByLayer
370
-1
48
1
60
0
100
AcDbPoint
10
65
20
45
30
0
39
0
210
0
220
0
230
1
50
360
0
POINT
5
15F
100
AcDbEntity
8
Defpoints
62
0
6
ByLayer
370
-1
48
1
60
0
100
AcDbPoint
10
0
20
0
30
0
39
0
210
0
220
0
230
1
50
360
0
POINT
5
160
100
AcDbEntity
8
Defpoints
62
0
6
ByLayer
370
-1
48
1
60
0
100
AcDbPoint
10
96.1
20
0
30
0
39
0
210
0
220
0
230
1
50
360
0
ENDBLK
5
157
100
AcDbEntity
8
0
100
AcDbBlockEnd
0
BLOCK
5
169
100
AcDbEntity
8
0
100
AcDbBlockBegin
2
_U0
70
0
10
0
20
0
30
0
3
_U0
0
MTEXT
5
163
100
AcDbEntity
8
2
62
256
6
ByLayer
370
18
48
1
60
0
100
AcDbMText
10
95.410366
20
20.382767
30
0
210
0
220
0
230
1
1
\W0.7361;45
40
3.5
41
0
44
1.084337
50
90
71
7
72
5
7
iso_b_vert
0
LINE
5
164
100
AcDbEntity
8
2
62
256
6
ByLayer
370
13
48
1
60
0
100
AcDbLine
10
66.5875
20
45
30
0
11
98.1
21
45
31
0
39
0
210
0
220
0
230
1
0
LINE
5
165
100
AcDbEntity
8
2
62
256
6
ByLayer
370
13
48
1
60
0
100
AcDbLine
10
1.5875
20
0
30
0
11
98.1
21
0
31
0
39
0
210
0
220
0
230
1
0
LINE
5
166
100
AcDbEntity
8
2
62
256
6
ByLayer
370
13
48
1
60
0
100
AcDbLine
10
96.1
20
45
30
0
11
96.1
21
0
31
0
39
0
210
0
220
0
230
1
0
SOLID
5
167
100
AcDbEntity
8
2
62
256
6
ByLayer
370
18
48
1
60
0
100
AcDbTrace
10
96.1
20
45
30
0
11
96.560784
21
41.500002
31
0
12
95.639216
22
41.499998
32
0
13
95.639216
23
41.499998
33
0
39
0
210
0
220
0
230
1
0
SOLID
5
168
100
AcDbEntity
8
2
62
256
6
ByLayer
370
18
48
1
60
0
100
AcDbTrace
10
96.1
20
0
30
0
11
95.639216
21
3.499998
31
0
12
96.560784
22
3.500002
32
0
13
96.560784
23
3.500002
33
0
39
0
210
0
220
0
230
1
0
ENDBLK
5
16A
100
AcDbEntity
8
0
100
AcDbBlockEnd
0
BLOCK
5
16F
100
AcDbEntity
8
0
100
AcDbBlockBegin
2
*D3
70
1
10
0
20
0
30
0
3
*D3
0
LINE
5
171
100
AcDbEntity
8
0
62
256
6
ByLayer
370
-2
48
1
60
0
100
AcDbLine
10
66.5875
20
41
30
0
11
87.1
21
41
31
0
39
0
210
0
220
0
230
1
0
LINE
5
172
100
AcDbEntity
8
0
62
256
6
ByLayer
370
-2
48
1
60
0
100
AcDbLine
10
66.5875
20
45
30
0
11
87.1
21
45
31
0
39
0
210
0
220
0
230
1
0
LINE
5
173
100
AcDbEntity
8
0
62
256
6
ByLayer
370
-2
48
1
60
0
100
AcDbLine
10
85.1
20
37.5
30
0
11
85.1
21
34
31
0
39
0
210
0
220
0
230
1
0
LINE
5
174
100
AcDbEntity
8
0
62
256
6
ByLayer
370
-2
48
1
60
0
100
AcDbLine
10
85.1
20
48.5
30
0
11
85.1
21
52
31
0
39
0
210
0
220
0
230
1
0
SOLID
5
175
100
AcDbEntity
8
0
62
256
6
ByLayer
370
-1
48
1
60
0
100
AcDbTrace
10
85.683333
20
37.5
30
0
11
84.516667
21
37.5
31
0
12
85.1
22
41
32
0
13
85.1
23
41
33
0
39
0
210
0
220
0
230
1
0
SOLID
5
176
100
AcDbEntity
8
0
62
256
6
ByLayer
370
-1
48
1
60
0
100
AcDbTrace
10
84.516667
20
48.5
30
0
11
85.683333
21
48.5
31
0
12
85.1
22
45
32
0
13
85.1
23
45
33
0
39
0
210
0
220
0
230
1
0
MTEXT
5
177
100
AcDbEntity
8
0
62
256
6
ByLayer
370
18
48
1
60
0
100
AcDbMText
10
78.1
20
43
30
0
210
0
220
0
230
1
1
\A1;4
40
3.5
41
0
44
1
50
90
71
5
72
5
7
iso_b_vert
0
POINT
5
178
100
AcDbEntity
8
Defpoints
62
0
6
ByLayer
370
-1
48
1
60
0
100
AcDbPoint
10
65
20
41
30
0
39
0
210
0
220
0
230
1
50
360
0
POINT
5
179
100
AcDbEntity
8
Defpoints
62
0
6
ByLayer
370
-1
48
1
60
0
100
AcDbPoint
10
65
20
45
30
0
39
0
210
0
220
0
230
1
50
360
0
POINT
5
17A
100
AcDbEntity
8
Defpoints
62
0
6
ByLayer
370
-1
48
1
60
0
100
AcDbPoint
10
85.1
20
45
30
0
39
0
210
0
220
0
230
1
50
360
0
ENDBLK
5
170
100
AcDbEntity
8
0
100
AcDbBlockEnd
0
BLOCK
5
182
100
AcDbEntity
8
0
100
AcDbBlockBegin
2
_U1
70
0
10
0
20
0
30
0
3
_U1
0
MTEXT
5
17C
100
AcDbEntity
8
2
62
256
6
ByLayer
370
18
48
1
60
0
100
AcDbMText
10
84.410366
20
42.1905
30
0
210
0
220
0
230
1
1
\W0.6380;4
40
3.5
41
0
44
1.084337
50
90
71
7
72
5
7
iso_b_vert
0
LINE
5
17D
100
AcDbEntity
8
2
62
256
6
ByLayer
370
13
48
1
60
0
100
AcDbLine
10
66.5875
20
41
30
0
11
87.1
21
41
31
0
39
0
210
0
220
0
230
1
0
LINE
5
17E
100
AcDbEntity
8
2
62
256
6
ByLayer
370
13
48
1
60
0
100
AcDbLine
10
66.5875
20
45
30
0
11
87.1
21
45
31
0
39
0
210
0
220
0
230
1
0
LINE
5
17F
100
AcDbEntity
8
2
62
256
6
ByLayer
370
13
48
1
60
0
100
AcDbLine
10
85.1
20
32.25
30
0
11
85.1
21
53.75
31
0
39
0
210
0
220
0
230
1
0
SOLID
5
180
100
AcDbEntity
8
2
62
256
6
ByLayer
370
18
48
1
60
0
100
AcDbTrace
10
85.1
20
41
30
0
11
85.560784
21
37.500002
31
0
12
84.639216
22
37.499998
32
0
13
84.639216
23
37.499998
33
0
39
0
210
0
220
0
230
1
0
SOLID
5
181
100
AcDbEntity
8
2
62
256
6
ByLayer
370
18
48
1
60
0
100
AcDbTrace
10
85.1
20
45
30
0
11
84.639216
21
48.499998
31
0
12
85.560784
22
48.500002
32
0
13
85.560784
23
48.500002
33
0
39
0
210
0
220
0
230
1
0
ENDBLK
5
183
100
AcDbEntity
8
0
100
AcDbBlockEnd
0
BLOCK
5
188
100
AcDbEntity
8
0
100
AcDbBlockBegin
2
*D5
70
1
10
0
20
0
30
0
3
*D5
0
LINE
5
18A
100
AcDbEntity
8
0
62
256
6
ByLayer
370
-2
48
1
60
0
100
AcDbLine
10
52
20
39.7375
30
0
11
52
21
-25.425
31
0
39
0
210
0
220
0
230
1
0
LINE
5
18B
100
AcDbEntity
8
0
62
256
6
ByLayer
370
-2
48
1
60
0
100
AcDbLine
10
65
20
39.4125
30
0
11
65
21
-25.425
31
0
39
0
210
0
220
0
230
1
0
LINE
5
18C
100
AcDbEntity
8
0
62
256
6
ByLayer
370
-2
48
1
60
0
100
AcDbLine
10
48.5
20
-23.425
30
0
11
45
21
-23.425
31
0
39
0
210
0
220
0
230
1
0
LINE
5
18D
100
AcDbEntity
8
0
62
256
6
ByLayer
370
-2
48
1
60
0
100
AcDbLine
10
68.5
20
-23.425
30
0
11
72
21
-23.425
31
0
39
0
210
0
220
0
230
1
0
SOLID
5
18E
100
AcDbEntity
8
0
62
256
6
ByLayer
370
-1
48
1
60
0
100
AcDbTrace
10
48.5
20
-24.008333
30
0
11
48.5
21
-22.841667
31
0
12
52
22
-23.425
32
0
13
52
23
-23.425
33
0
39
0
210
0
220
0
230
1
0
SOLID
5
18F
100
AcDbEntity
8
0
62
256
6
ByLayer
370
-1
48
1
60
0
100
AcDbTrace
10
68.5
20
-22.841667
30
0
11
68.5
21
-24.008333
31
0
12
65
22
-23.425
32
0
13
65
23
-23.425
33
0
39
0
210
0
220
0
230
1
0
MTEXT
5
190
100
AcDbEntity
8
0
62
256
6
ByLayer
370
18
48
1
60
0
100
AcDbMText
10
58.5
20
-16.425
30
0
210
0
220
0
230
1
1
\A1;13
40
3.5
41
0
44
1
50
0
71
5
72
5
7
iso_b_vert
0
POINT
5
191
100
AcDbEntity
8
Defpoints
62
0
6
ByLayer
370
-1
48
1
60
0
100
AcDbPoint
10
52
20
41.325
30
0
39
0
210
0
220
0
230
1
50
360
0
POINT
5
192
100
AcDbEntity
8
Defpoints
62
0
6
ByLayer
370
-1
48
1
60
0
100
AcDbPoint
10
65
20
41
30
0
39
0
210
0
220
0
230
1
50
360
0
POINT
5
193
100
AcDbEntity
8
Defpoints
62
0
6
ByLayer
370
-1
48
1
60
0
100
AcDbPoint
10
65
20
-23.425
30
0
39
0
210
0
220
0
230
1
50
360
0
ENDBLK
5
189
100
AcDbEntity
8
0
100
AcDbBlockEnd
0
BLOCK
5
19B
100
AcDbEntity
8
0
100
AcDbBlockBegin
2
_U2
70
0
10
0
20
0
30
0
3
_U2
0
MTEXT
5
195
100
AcDbEntity
8
2
62
256
6
ByLayer
370
18
48
1
60
0
100
AcDbMText
10
57.032467
20
-22.392366
30
0
210
0
220
0
230
1
1
\W0.5321;13
40
3.5
41
0
44
1.084337
50
0
71
7
72
5
7
iso_b_vert
0
LINE
5
196
100
AcDbEntity
8
2
62
256
6
ByLayer
370
13
48
1
60
0
100
AcDbLine
10
52
20
39.7375
30
0
11
52
21
-25.425
31
0
39
0
210
0
220
0
230
1
0
LINE
5
197
100
AcDbEntity
8
2
62
256
6
ByLayer
370
13
48
1
60
0
100
AcDbLine
10
65
20
39.4125
30
0
11
65
21
-25.425
31
0
39
0
210
0
220
0
230
1
0
LINE
5
198
100
AcDbEntity
8
2
62
256
6
ByLayer
370
13
48
1
60
0
100
AcDbLine
10
52
20
-23.425
30
0
11
65
21
-23.425
31
0
39
0
210
0
220
0
230
1
0
SOLID
5
199
100
AcDbEntity
8
2
62
256
6
ByLayer
370
18
48
1
60
0
100
AcDbTrace
10
52
20
-23.425
30
0
11
55.499998
21
-22.964216
31
0
12
55.500002
22
-23.885784
32
0
13
55.500002
23
-23.885784
33
0
39
0
210
0
220
0
230
1
0
SOLID
5
19A
100
AcDbEntity
8
2
62
256
6
ByLayer
370
18
48
1
60
0
100
AcDbTrace
10
65
20
-23.425
30
0
11
61.500002
21
-23.885784
31
0
12
61.499998
22
-22.964216
32
0
13
61.499998
23
-22.964216
33
0
39
0
210
0
220
0
230
1
0
ENDBLK
5
19C
100
AcDbEntity
8
0
100
AcDbBlockEnd
0
BLOCK
5
1A1
100
AcDbEntity
8
0
100
AcDbBlockBegin
2
*D7
70
1
10
0
20
0
30
0
3
*D7
0
LINE
5
1A3
100
AcDbEntity
8
0
62
256
6
ByLayer
370
-2
48
1
60
0
100
AcDbLine
10
0
20
1.5875
30
0
11
0
21
55.75
31
0
39
0
210
0
220
0
230
1
0
LINE
5
1A4
100
AcDbEntity
8
0
62
256
6
ByLayer
370
-2
48
1
60
0
100
AcDbLine
10
65
20
46.5875
30
0
11
65
21
55.75
31
0
39
0
210
0
220
0
230
1
0
LINE
5
1A5
100
AcDbEntity
8
0
62
256
6
ByLayer
370
-2
48
1
60
0
100
AcDbLine
10
3.5
20
53.75
30
0
11
61.5
21
53.75
31
0
39
0
210
0
220
0
230
1
0
SOLID
5
1A6
100
AcDbEntity
8
0
62
256
6
ByLayer
370
-1
48
1
60
0
100
AcDbTrace
10
3.5
20
54.333333
30
0
11
3.5
21
53.166667
31
0
12
0
22
53.75
32
0
13
0
23
53.75
33
0
39
0
210
0
220
0
230
1
0
SOLID
5
1A7
100
AcDbEntity
8
0
62
256
6
ByLayer
370
-1
48
1
60
0
100
AcDbTrace
10
61.5
20
53.166667
30
0
11
61.5
21
54.333333
31
0
12
65
22
53.75
32
0
13
65
23
53.75
33
0
39
0
210
0
220
0
230
1
0
MTEXT
5
1A8
100
AcDbEntity
8
0
62
256
6
ByLayer
370
18
48
1
60
0
100
AcDbMText
10
32.5
20
60.75
30
0
210
0
220
0
230
1
1
\A1;65
40
3.5
41
0
44
1
50
0
71
5
72
5
7
iso_b_vert
0
POINT
5
1A9
100
AcDbEntity
8
Defpoints
62
0
6
ByLayer
370
-1
48
1
60
0
100
AcDbPoint
10
0
20
0
30
0
39
0
210
0
220
0
230
1
50
360
0
POINT
5
1AA
100
AcDbEntity
8
Defpoints
62
0
6
ByLayer
370
-1
48
1
60
0
100
AcDbPoint
10
65
20
45
30
0
39
0
210
0
220
0
230
1
50
360
0
POINT
5
1AB
100
AcDbEntity
8
Defpoints
62
0
6
ByLayer
370
-1
48
1
60
0
100
AcDbPoint
10
65
20
53.75
30
0
39
0
210
0
220
0
230
1
50
360
0
ENDBLK
5
1A2
100
AcDbEntity
8
0
100
AcDbBlockEnd
0
BLOCK
5
1B3
100
AcDbEntity
8
0
100
AcDbBlockBegin
2
_U3
70
0
10
0
20
0
30
0
3
_U3
0
MTEXT
5
1AD
100
AcDbEntity
8
2
62
256
6
ByLayer
370
18
48
1
60
0
100
AcDbMText
10
30.595034
20
54.782634
30
0
210
0
220
0
230
1
1
\W0.6740;65
40
3.5
41
0
44
1.084337
50
0
71
7
72
5
7
iso_b_vert
0
LINE
5
1AE
100
AcDbEntity
8
2
62
256
6
ByLayer
370
13
48
1
60
0
100
AcDbLine
10
0
20
1.5875
30
0
11
0
21
55.75
31
0
39
0
210
0
220
0
230
1
0
LINE
5
1AF
100
AcDbEntity
8
2
62
256
6
ByLayer
370
13
48
1
60
0
100
AcDbLine
10
65
20
46.5875
30
0
11
65
21
55.75
31
0
39
0
210
0
220
0
230
1
0
LINE
5
1B0
100
AcDbEntity
8
2
62
256
6
ByLayer
370
13
48
1
60
0
100
AcDbLine
10
0
20
53.75
30
0
11
65
21
53.75
31
0
39
0
210
0
220
0
230
1
0
SOLID
5
1B1
100
AcDbEntity
8
2
62
256
6
ByLayer
370
18
48
1
60
0
100
AcDbTrace
10
0
20
53.75
30
0
11
3.499998
21
54.210784
31
0
12
3.500002
22
53.289216
32
0
13
3.500002
23
53.289216
33
0
39
0
210
0
220
0
230
1
0
SOLID
5
1B2
100
AcDbEntity
8
2
62
256
6
ByLayer
370
18
48
1
60
0
100
AcDbTrace
10
65
20
53.75
30
0
11
61.500002
21
53.289216
31
0
12
61.499998
22
54.210784
32
0
13
61.499998
23
54.210784
33
0
39
0
210
0
220
0
230
1
0
ENDBLK
5
1B4
100
AcDbEntity
8
0
100
AcDbBlockEnd
0
ENDSEC
0
SECTION
2
ENTITIES
0
ARC
5
F5
100
AcDbEntity
8
1
62
256
6
ByLayer
370
18
48
1
60
0
100
AcDbCircle
39
0
10
22.279208
20
32.7
30
0
40
1.2
210
0
220
0
230
1
100
AcDbArc
50
270
51
299.569416
0
ARC
5
F6
100
AcDbEntity
8
SK1
62
256
6
ByLayer
370
18
48
1
60
0
100
AcDbCircle
39
0
10
-0.6
20
23.45
30
0
40
0.999999999999994
210
0
220
0
230
1
100
AcDbArc
50
293.578178
51
306.869898
0
ARC
5
F7
100
AcDbEntity
8
SK1
62
256
6
ByLayer
370
18
48
1
60
0
100
AcDbCircle
39
0
10
-0.6
20
-23.45
30
0
40
0.999999999999994
210
0
220
0
230
1
100
AcDbArc
50
53.130102
51
66.421822
0
ARC
5
FB
100
AcDbEntity
8
1
62
256
6
ByLayer
370
18
48
1
60
0
100
AcDbCircle
39
0
10
31.4
20
32.65
30
0
40
1
210
0
220
0
230
1
100
AcDbArc
50
270
51
0
0
ARC
5
FC
100
AcDbEntity
8
1
62
256
6
ByLayer
370
18
48
1
60
0
100
AcDbCircle
39
0
10
26.093966
20
-20.75
30
0
40
3.99999999956522
210
0
220
0
230
1
100
AcDbArc
50
171.816369
51
179.5
0
ARC
5
FD
100
AcDbEntity
8
1
62
256
6
ByLayer
370
18
48
1
60
0
100
AcDbCircle
39
0
10
64.7
20
41.3
30
0
40
0.3
210
0
220
0
230
1
100
AcDbArc
50
267.5
51
0
0
ARC
5
FE
100
AcDbEntity
8
1
62
256
6
ByLayer
370
18
48
1
60
0
100
AcDbCircle
39
0
10
64.7
20
44.7
30
0
40
0.3
210
0
220
0
230
1
100
AcDbArc
50
0
51
92.5
0
ARC
5
FF
100
AcDbEntity
8
1
62
256
6
ByLayer
370
18
48
1
60
0
100
AcDbCircle
39
0
10
40.3
20
44.7
30
0
40
0.3
210
0
220
0
230
1
100
AcDbArc
50
87.5
51
180
0
ARC
5
100
100
AcDbEntity
8
1
62
256
6
ByLayer
370
18
48
1
60
0
100
AcDbCircle
39
0
10
57.55644
20
43.667299
30
0
40
0.0999999999845752
210
0
220
0
230
1
100
AcDbArc
50
190.000001
51
218.049181
0
ARC
5
101
100
AcDbEntity
8
1
62
256
6
ByLayer
370
18
48
1
60
0
100
AcDbCircle
39
0
10
57.55644
20
42.332701
30
0
40
0.0999999999845752
210
0
220
0
230
1
100
AcDbArc
50
141.950819
51
169.999999
0
CIRCLE
5
F8
100
AcDbEntity
8
1
62
256
6
ByLayer
370
18
48
1
60
0
100
AcDbCircle
10
43.65
20
32.85
30
0
40
2.55
39
0
210
0
220
0
230
1
0
CIRCLE
5
F9
100
AcDbEntity
8
1
62
256
6
ByLayer
370
18
48
1
60
0
100
AcDbCircle
10
43.65
20
32.85
30
0
40
3.30000000000001
39
0
210
0
220
0
230
1
0
CIRCLE
5
FA
100
AcDbEntity
8
1
62
256
6
ByLayer
370
18
48
1
60
0
100
AcDbCircle
10
43.65
20
32.85
30
0
40
5.75
39
0
210
0
220
0
230
1
0
ELLIPSE
5
102
100
AcDbEntity
8
1
62
256
6
ByLayer
370
18
48
1
60
0
100
AcDbEllipse
10
55.27797
20
43
30
0
11
0.830037536054245
21
9.72351924415605E-16
31
0
210
0
220
0
230
1
40
0.963812
41
0
42
6.28318530717959
0
ELLIPSE
5
103
100
AcDbEntity
8
1
62
256
6
ByLayer
370
18
48
1
60
0
100
AcDbEllipse
10
46.149664
20
41.325
30
0
11
-2.78951487299376
21
3.41605763755018E-16
31
0
210
0
220
0
230
1
40
0.573576
41
0
42
1.57079632679489
0
ELLIPSE
5
104
100
AcDbEntity
8
1
62
256
6
ByLayer
370
18
48
1
60
0
100
AcDbEllipse
10
-2.347154
20
0
30
0
11
14.7536831606571
21
31.0932549155823
31
0
210
0
220
0
230
1
40
0.341999
41
-1.09123958575279
42
-0.157806186645435
0
ELLIPSE
5
105
100
AcDbEntity
8
1
62
256
6
ByLayer
370
18
48
1
60
0
100
AcDbEllipse
10
26.347154
20
0
30
0
11
14.7536831606558
21
-31.0932549155803
31
0
210
0
220
0
230
1
40
0.341999
41
-2.98378646694436
42
-2.05035306783695
0
ELLIPSE
5
106
100
AcDbEntity
8
1
62
256
6
ByLayer
370
18
48
1
60
0
100
AcDbEllipse
10
26.347154
20
0
30
0
11
14.7536831606574
21
31.0932549155822
31
0
210
0
220
0
230
1
40
0.341999
41
2.050353067837
42
2.98378646694437
0
ELLIPSE
5
107
100
AcDbEntity
8
1
62
256
6
ByLayer
370
18
48
1
60
0
100
AcDbEllipse
10
-2.347154
20
0
30
0
11
14.7536831606552
21
-31.0932549155799
31
0
210
0
220
0
230
1
40
0.341999
41
0.15780618664544
42
1.09123958575286
0
ELLIPSE
5
108
100
AcDbEntity
8
1
62
256
6
ByLayer
370
18
48
1
60
0
100
AcDbEllipse
10
22.274896
20
0
30
0
11
1.92875500727009E-15
21
31.4999999999975
31
0
210
0
220
0
230
1
40
0.008727
41
0.535188254250117
42
2.3561944901924
0
ELLIPSE
5
109
100
AcDbEntity
8
1
62
256
6
ByLayer
370
18
48
1
60
0
100
AcDbEllipse
10
57.434518
20
41.641251
30
0
11
0.010661639262803
21
0.0994300222659567
31
0
210
0
220
0
230
1
40
1
41
1.50308282049733
42
1.67761574668812
0
ELLIPSE
5
10A
100
AcDbEntity
8
1
62
256
6
ByLayer
370
18
48
1
60
0
100
AcDbEllipse
10
57.434518
20
44.358749
30
0
11
0.010661639262803
21
-0.0994300222659567
31
0
210
0
220
0
230
1
40
1
41
-1.67761574668812
42
-1.50308282049733
0
POINT
5
70
100
AcDbEntity
8
80
62
256
6
ByLayer
370
18
48
1
60
0
100
AcDbPoint
10
0
20
0
30
0
39
0
210
0
220
0
230
1
50
360
0
POINT
5
72
100
AcDbEntity
8
81
62
256
6
ByLayer
370
18
48
1
60
0
100
AcDbPoint
10
65
20
45
30
0
39
0
210
0
220
0
230
1
50
360
0
POINT
5
74
100
AcDbEntity
8
1
62
256
6
ByLayer
370
18
48
1
60
1
100
AcDbPoint
10
65
20
45
30
0
39
0
210
0
220
0
230
1
50
360
0
POINT
5
76
100
AcDbEntity
8
1
62
256
6
ByLayer
370
18
48
1
60
1
100
AcDbPoint
10
0
20
0
30
0
39
0
210
0
220
0
230
1
50
360
0
POINT
5
77
100
AcDbEntity
8
1
62
256
6
ByLayer
370
18
48
1
60
1
100
AcDbPoint
10
65
20
41
30
0
39
0
210
0
220
0
230
1
50
360
0
POINT
5
78
100
AcDbEntity
8
1
62
256
6
ByLayer
370
18
48
1
60
1
100
AcDbPoint
10
65
20
45
30
0
39
0
210
0
220
0
230
1
50
360
0
POINT
5
79
100
AcDbEntity
8
1
62
256
6
ByLayer
370
18
48
1
60
1
100
AcDbPoint
10
52
20
41.325
30
0
39
0
210
0
220
0
230
1
50
360
0
POINT
5
7A
100
AcDbEntity
8
1
62
256
6
ByLayer
370
18
48
1
60
1
100
AcDbPoint
10
65
20
41
30
0
39
0
210
0
220
0
230
1
50
360
0
POINT
5
7B
100
AcDbEntity
8
1
62
256
6
ByLayer
370
18
48
1
60
1
100
AcDbPoint
10
0
20
0
30
0
39
0
210
0
220
0
230
1
50
360
0
POINT
5
7C
100
AcDbEntity
8
1
62
256
6
ByLayer
370
18
48
1
60
1
100
AcDbPoint
10
65
20
45
30
0
39
0
210
0
220
0
230
1
50
360
0
SPLINE
5
10B
100
AcDbEntity
8
SK1
62
256
6
ByLayer
370
18
48
1
60
0
100
AcDbSpline
70
4
71
3
72
11
73
7
40
0
40
0
40
0
40
0
40
0.24260137289863
40
0.502561214665899
40
0.761098879312195
40
1
40
1
40
1
40
1
41
1
10
-0.199999999999989
20
22.0603316233164
30
0
41
1
10
-0.200957649232748
20
22.03467763457
30
0
41
1
10
-0.211248088565583
20
21.9856476021506
30
0
41
1
10
-0.255178473897388
20
21.9196695750854
30
0
41
1
10
-0.321112940270211
20
21.8764518787731
30
0
41
1
10
-0.369683556830324
20
21.8664032520323
30
0
41
1
10
-0.394913799811292
20
21.8654753908017
30
0
0
SPLINE
5
10C
100
AcDbEntity
8
SK1
62
256
6
ByLayer
370
18
48
1
60
0
100
AcDbSpline
70
4
71
3
72
11
73
7
40
0
40
0
40
0
40
0
40
0.238901121200236
40
0.497438786084572
40
0.757398627621475
40
1
40
1
40
1
40
1
41
1
10
-0.394913799811292
20
-21.8654754627471
30
0
41
1
10
-0.369683556841096
20
-21.8664033239634
30
0
41
1
10
-0.321112940313157
20
-21.8764519506625
30
0
41
1
10
-0.255178473954459
20
-21.9196696467454
30
0
41
1
10
-0.211248088575957
20
-21.9856476735436
30
0
41
1
10
-0.200957649243719
20
-22.0346777057893
30
0
41
1
10
-0.200000000000017
20
-22.0603316944385
30
0
0
SPLINE
5
10D
100
AcDbEntity
8
SK1
62
256
6
ByLayer
370
18
48
1
60
0
100
AcDbSpline
70
4
71
2
72
6
73
3
40
0
40
0
40
0
40
1
40
1
40
1
41
1
10
-36.5
20
21.1556411500792
30
0
41
1
10
-37.2500000202692
20
20.7228363924583
30
0
41
1
10
-38
20
20.2900294978113
30
0
0
SPLINE
5
10E
100
AcDbEntity
8
SK1
62
256
6
ByLayer
370
18
48
1
60
0
100
AcDbSpline
70
4
71
2
72
6
73
3
40
0
40
0
40
0
40
1
40
1
40
1
41
1
10
-38
20
-20.2900295032223
30
0
41
1
10
-37.2500000202654
20
-20.7228363958853
30
0
41
1
10
-36.5
20
-21.1556411516461
30
0
0
SPLINE
5
10F
100
AcDbEntity
8
SK1
62
256
6
ByLayer
370
18
48
1
60
0
100
AcDbSpline
70
4
71
2
72
6
73
3
40
0
40
0
40
0
40
1
40
1
40
1
41
1
10
-0.394913799811292
20
21.8654705382346
30
0
41
1
10
-1.19497688887515
20
21.8453761190377
30
0
41
1
10
-1.99503997793928
20
21.8252816998361
30
0
0
SPLINE
5
110
100
AcDbEntity
8
SK1
62
256
6
ByLayer
370
18
48
1
60
0
100
AcDbSpline
70
4
71
2
72
6
73
3
40
0
40
0
40
0
40
1
40
1
40
1
41
1
10
-1.99503997793928
20
-21.8252817664983
30
0
41
1
10
-1.19497688887515
20
-21.845376185605
30
0
41
1
10
-0.394913799811292
20
-21.8654706047072
30
0
0
SPLINE
5
111
100
AcDbEntity
8
SK1
62
256
6
ByLayer
370
18
48
1
60
0
100
AcDbSpline
70
4
71
3
72
13
73
9
40
0
40
0
40
0
40
0
40
0.239488446613139
40
0.368403116187249
40
0.500046645745247
40
0.631682415479622
40
0.760575689762793
40
1
40
1
40
1
40
1
41
1
10
-1.99503997793928
20
21.825286524797
30
0
41
1
10
-2.0211096495122
20
21.8248845959364
30
0
41
1
10
-2.05883938576716
20
21.8310551084546
30
0
41
1
10
-2.1062761997685
20
21.8540920367489
30
0
41
1
10
-2.1388629218354
20
21.8792518859041
30
0
41
1
10
-2.16563526915769
20
21.9105242864783
30
0
41
1
10
-2.19103234710849
20
21.9567296167895
30
0
41
1
10
-2.19909149085342
20
21.9940920912339
30
0
41
1
10
-2.19999999999999
20
22.0201427571469
30
0
0
SPLINE
5
112
100
AcDbEntity
8
SK1
62
256
6
ByLayer
370
18
48
1
60
0
100
AcDbSpline
70
4
71
3
72
13
73
9
40
0
40
0
40
0
40
0
40
0.239424309709105
40
0.36831758382101
40
0.499953353497804
40
0.631596883124593
40
0.760511552875627
40
1
40
1
40
1
40
1
41
1
10
-2.19999999999999
20
-22.0201428284389
30
0
41
1
10
-2.19909149084521
20
-21.994092162624
30
0
41
1
10
-2.19103234710033
20
-21.956729688326
30
0
41
1
10
-2.1656352691468
20
-21.9105243582179
30
0
41
1
10
-2.13886292182099
20
-21.8792519577777
30
0
41
1
10
-2.1062761997531
20
-21.8540921087329
30
0
41
1
10
-2.05883938574669
20
-21.8310551805396
30
0
41
1
10
-2.02110964950145
20
-21.8248846680468
30
0
41
1
10
-1.99503997793928
20
-21.8252865969123
30
0
0
SPLINE
5
113
100
AcDbEntity
8
SK1
62
256
6
ByLayer
370
18
48
1
60
0
100
AcDbSpline
70
4
71
2
72
6
73
3
40
0
40
0
40
0
40
1
40
1
40
1
41
1
10
-2.19999999999999
20
22.0136642719968
30
0
41
1
10
-19.3500000008246
20
21.5830599810351
30
0
41
1
10
-36.5
20
21.1524539804128
30
0
0
SPLINE
5
114
100
AcDbEntity
8
SK1
62
256
6
ByLayer
370
18
48
1
60
0
100
AcDbSpline
70
4
71
2
72
6
73
3
40
0
40
0
40
0
40
1
40
1
40
1
41
1
10
-36.5
20
-21.152454254977
30
0
41
1
10
-19.3500000008244
20
-21.5830602558515
30
0
41
1
10
-2.19999999999999
20
-22.0136645469338
30
0
0
SPLINE
5
115
100
AcDbEntity
8
1
62
256
6
ByLayer
370
18
48
1
60
0
100
AcDbSpline
70
4
71
3
72
10
73
6
40
0
40
0
40
0
40
0
40
0.5
40
0.5
40
1
40
1
40
1
40
1
41
1
10
26.7805359432145
20
44.6749999999869
30
0
41
1
10
26.2458228549728
20
42.6710373840973
30
0
41
1
10
25.7113836436017
20
40.6670016797994
30
0
41
1
10
24.6433520911054
20
36.6587042703797
30
0
41
1
10
24.1097529125159
20
34.6544431904752
30
0
41
1
10
23.5768491959797
20
32.65
30
0
0
SPLINE
5
116
100
AcDbEntity
8
1
62
256
6
ByLayer
370
18
48
1
60
0
100
AcDbSpline
70
4
71
3
72
15
73
11
40
0
40
0
40
0
40
0
40
0.250000000000009
40
0.500000000000018
40
0.500000000000018
40
0.625000000000004
40
0.625000000000004
40
0.749999999999991
40
0.749999999999991
40
1
40
1
40
1
40
1
41
1
10
23.5768491959797
20
32.65
30
0
41
1
10
23.5650726078035
20
32.605704001972
30
0
41
1
10
23.5415925208741
20
32.5181206426742
30
0
41
1
10
23.5182507052434
20
32.432473575086
30
0
41
1
10
23.5007976884182
20
32.368971899774
30
0
41
1
10
23.4949889519702
20
32.3479273256336
30
0
41
1
10
23.4833901798496
20
32.306089587918
30
0
41
1
10
23.4776053763619
20
32.2853159216485
30
0
41
1
10
23.4604707436426
20
32.2240604840281
30
0
41
1
10
23.4492766947907
20
32.1844119997969
30
0
41
1
10
23.4383186059721
20
32.1459721466515
30
0
0
SPLINE
5
117
100
AcDbEntity
8
1
62
256
6
ByLayer
370
18
48
1
60
0
100
AcDbSpline
70
4
71
3
72
37
73
33
40
0
40
0
40
0
40
0
40
0.0312499999999919
40
0.0312499999999919
40
0.0624999999999838
40
0.124999999999968
40
0.124999999999968
40
0.249999999999935
40
0.249999999999935
40
0.281249999999928
40
0.281249999999928
40
0.312499999999921
40
0.312499999999921
40
0.374999999999916
40
0.374999999999916
40
0.499999999999902
40
0.499999999999902
40
0.531249999999897
40
0.531249999999897
40
0.562499999999892
40
0.624999999999891
40
0.68749999999989
40
0.68749999999989
40
0.718749999999894
40
0.718749999999894
40
0.749999999999899
40
0.749999999999899
40
0.874999999999948
40
0.874999999999948
40
0.937499999999974
40
0.937499999999974
40
1
40
1
40
1
40
1
41
1
10
30.6979991993593
20
31.65
30
0
41
1
10
30.7161596625569
20
31.65
30
0
41
1
10
30.7343436715721
20
31.6503025762777
30
0
41
1
10
30.7705404692685
20
31.6515196643775
30
0
41
1
10
30.8246748030338
20
31.6542634146374
30
0
41
1
10
30.8783209647337
20
31.6597933881372
30
0
41
1
10
30.9849379288975
20
31.6747079219338
30
0
41
1
10
31.0551208774945
20
31.6897592794783
30
0
41
1
10
31.1415829778381
20
31.7158024637559
30
0
41
1
10
31.1588116390368
20
31.7213750019034
30
0
41
1
10
31.1931357597246
20
31.7332803218201
30
0
41
1
10
31.2102683325626
20
31.7396289977521
30
0
41
1
10
31.2610060787218
20
31.7596878790594
30
0
41
1
10
31.2940493017973
20
31.7744353258394
30
0
41
1
10
31.3907724756647
20
31.8229089218058
30
0
41
1
10
31.4520714248128
20
31.8608215019205
30
0
41
1
10
31.5242042253866
20
31.9161083927452
30
0
41
1
10
31.538446554144
20
31.9276015592398
30
0
41
1
10
31.5661892927071
20
31.9511913425105
30
0
41
1
10
31.6067111080115
20
31.9874857382757
30
0
41
1
10
31.6688053756179
20
32.0525088685648
30
0
41
1
10
31.7125622959425
20
32.1094566175086
30
0
41
1
10
31.7430477949145
20
32.1541098054289
30
0
41
1
10
31.7528200581636
20
32.1693186563508
30
0
41
1
10
31.7715554404667
20
32.2004102576542
30
0
41
1
10
31.7805452052648
20
32.2163445309867
30
0
41
1
10
31.8230509325826
20
32.2971584961779
30
0
41
1
10
31.8488697960024
20
32.3644367321645
30
0
41
1
10
31.8752531168167
20
32.4693159907482
30
0
41
1
10
31.8819729542626
20
32.5049415512714
30
0
41
1
10
31.8910147230195
20
32.5776041037324
30
0
41
1
10
31.8932370625239
20
32.6138738724258
30
0
41
1
10
31.8932370625238
20
32.65
30
0
0
SPLINE
5
118
100
AcDbEntity
8
1
62
256
6
ByLayer
370
18
48
1
60
0
100
AcDbSpline
70
4
71
3
72
33
73
29
40
0
40
0
40
0
40
0
40
0.125000000000031
40
0.125000000000031
40
0.187500000000046
40
0.187500000000046
40
0.250000000000062
40
0.312500000000077
40
0.312500000000077
40
0.343750000000085
40
0.343750000000085
40
0.375000000000093
40
0.375000000000093
40
0.500000000000092
40
0.500000000000092
40
0.562500000000092
40
0.562500000000092
40
0.593750000000082
40
0.593750000000082
40
0.625000000000073
40
0.625000000000073
40
0.750000000000052
40
0.750000000000052
40
0.812500000000039
40
0.812500000000039
40
0.875000000000026
40
0.875000000000026
40
1
40
1
40
1
40
1
41
1
10
32.2792156108743
20
32.65
30
0
41
1
10
32.2792156108743
20
32.5832436260867
30
0
41
1
10
32.2724024636134
20
32.517099031744
30
0
41
1
10
32.2519070702787
20
32.418804833698
30
0
41
1
10
32.243288334735
20
32.3860488117296
30
0
41
1
10
32.2229298975619
20
32.3222481913133
30
0
41
1
10
32.1994237772518
20
32.2598760962957
30
0
41
1
10
32.1697769675525
20
32.2002908544577
30
0
41
1
10
32.1452277297467
20
32.1566521540257
30
0
41
1
10
32.1366582573285
20
32.1422812788688
30
0
41
1
10
32.1187359240041
20
32.1138950568287
30
0
41
1
10
32.1093565962302
20
32.0998444499674
30
0
41
1
10
32.0609510550853
20
32.0311735123727
30
0
41
1
10
32.0172761539375
20
31.9809191664988
30
0
41
1
10
31.9446575523051
20
31.912259099656
30
0
41
1
10
31.9192581400242
20
31.8905010109516
30
0
41
1
10
31.879331242548
20
31.8595926841259
30
0
41
1
10
31.8657552067244
20
31.8496106169166
30
0
41
1
10
31.8382758559521
20
31.8304211683924
30
0
41
1
10
31.8243435742831
20
31.8211910993284
30
0
41
1
10
31.7537383245528
20
31.7768276981421
30
0
41
1
10
31.6942590621149
20
31.7470074317023
30
0
41
1
10
31.600599587541
20
31.7106842391689
30
0
41
1
10
31.5685154439816
20
31.6999671223374
30
0
41
1
10
31.5040980234736
20
31.6817637186531
30
0
41
1
10
31.4716360317391
20
31.6742157749747
30
0
41
1
10
31.3735131192457
20
31.6560926942454
30
0
41
1
10
31.3071055833143
20
31.65
30
0
41
1
10
31.2397368307141
20
31.65
30
0
0
SPLINE
5
119
100
AcDbEntity
8
1
62
256
6
ByLayer
370
18
48
1
60
0
100
AcDbSpline
70
4
71
3
72
10
73
6
40
0
40
0
40
0
40
0
40
0.5
40
0.5
40
1
40
1
40
1
40
1
41
1
10
56.774406808652
20
42.5
30
0
41
1
10
56.7503619374064
20
42.3039994010942
30
0
41
1
10
56.7261380106098
20
42.1080500112188
30
0
41
1
10
56.6770350754956
20
41.7163385816477
30
0
41
1
10
56.6521735621212
20
41.5205715384819
30
0
41
1
10
56.6266284544953
20
41.325
30
0
0
SPLINE
5
11A
100
AcDbEntity
8
1
62
256
6
ByLayer
370
18
48
1
60
0
100
AcDbSpline
70
4
71
3
72
8
73
4
40
0
40
0
40
0
40
0
40
1
40
1
40
1
40
1
41
1
10
56.9330397954621
20
42.5840772376136
30
0
41
1
10
56.8802128688877
20
42.5558111996547
30
0
41
1
10
56.8273535334488
20
42.527698655082
30
0
41
1
10
56.774406808652
20
42.5
30
0
0
SPLINE
5
11B
100
AcDbEntity
8
1
62
256
6
ByLayer
370
18
48
1
60
0
100
AcDbSpline
70
4
71
3
72
20
73
16
40
0
40
0
40
0
40
0
40
0.250000000000017
40
0.250000000000017
40
0.375000000000014
40
0.375000000000014
40
0.500000000000011
40
0.500000000000011
40
0.625000000000008
40
0.625000000000008
40
0.750000000000006
40
0.750000000000006
40
0.875000000000003
40
0.875000000000003
40
1
40
1
40
1
40
1
41
1
10
57.0000000000001
20
42.7250311307315
30
0
41
1
10
57.0000000000001
20
42.7094958819083
30
0
41
1
10
56.9984050459487
20
42.6943684079368
30
0
41
1
10
56.9936571096376
20
42.6722794185904
30
0
41
1
10
56.9916895717913
20
42.6651134158442
30
0
41
1
10
56.9870887035604
20
42.6514438932602
30
0
41
1
10
56.9844457620998
20
42.6448943918016
30
0
41
1
10
56.9784667668225
20
42.6323726527538
30
0
41
1
10
56.9751283008423
20
42.6264174806153
30
0
41
1
10
56.9679840522906
20
42.6154842294121
30
0
41
1
10
56.9641534857343
20
42.6104500648764
30
0
41
1
10
56.9559769729611
20
42.6012441397309
30
0
41
1
10
56.9516060515023
20
42.5970596501623
30
0
41
1
10
56.9425740123838
20
42.5897898375515
30
0
41
1
10
56.9378909441321
20
42.5866729357044
30
0
41
1
10
56.9330397954621
20
42.5840772376136
30
0
0
SPLINE
5
11C
100
AcDbEntity
8
1
62
256
6
ByLayer
370
18
48
1
60
0
100
AcDbSpline
70
4
71
3
72
20
73
16
40
0
40
0
40
0
40
0
40
0.25
40
0.25
40
0.375
40
0.375
40
0.5
40
0.5
40
0.625
40
0.625
40
0.75
40
0.75
40
0.875
40
0.875
40
1
40
1
40
1
40
1
41
1
10
56.9330397954622
20
43.4159227623864
30
0
41
1
10
56.9427422487556
20
43.410731282759
30
0
41
1
10
56.9517092968703
20
43.4035295253539
30
0
41
1
10
56.964047082971
20
43.3896850163107
30
0
41
1
10
56.9679371835434
20
43.3845799203337
30
0
41
1
10
56.9750781767345
20
43.3736667010935
30
0
41
1
10
56.9783611160119
20
43.3678241997689
30
0
41
1
10
56.9843397653765
20
43.3553511564102
30
0
41
1
10
56.9870434392174
20
43.3486770600967
30
0
41
1
10
56.9916642630197
20
43.334975103544
30
0
41
1
10
56.9936086504078
20
43.3279014713725
30
0
41
1
10
56.9967642469956
20
43.3133082123661
30
0
41
1
10
56.9979798151933
20
43.3057306632175
30
0
41
1
10
56.9995937631251
20
43.2904457315629
30
0
41
1
10
57.0000000000113
20
43.2827395802012
30
0
41
1
10
57.0000000000114
20
43.2749688692704
30
0
0
SPLINE
5
11D
100
AcDbEntity
8
1
62
256
6
ByLayer
370
18
48
1
60
0
100
AcDbSpline
70
4
71
3
72
8
73
4
40
0
40
0
40
0
40
0
40
1
40
1
40
1
40
1
41
1
10
56.774406808652
20
43.5
30
0
41
1
10
56.8273598960424
20
43.4722980163781
30
0
41
1
10
56.8802175315189
20
43.444186305517
30
0
41
1
10
56.9330397954622
20
43.4159227623864
30
0
0
SPLINE
5
11E
100
AcDbEntity
8
1
62
256
6
ByLayer
370
18
48
1
60
0
100
AcDbSpline
70
4
71
3
72
10
73
6
40
0
40
0
40
0
40
0
40
0.5
40
0.5
40
1
40
1
40
1
40
1
41
1
10
56.6266284544953
20
44.675
30
0
41
1
10
56.6521732818724
20
44.4794306070828
30
0
41
1
10
56.6770347883834
20
44.2836636945739
30
0
41
1
10
56.7261379246105
20
43.8919506890017
30
0
41
1
10
56.7503619959425
20
43.696000121752
30
0
41
1
10
56.774406808652
20
43.5
30
0
0
SPLINE
5
11F
100
AcDbEntity
8
1
62
256
6
ByLayer
370
18
48
1
60
0
100
AcDbSpline
70
4
71
3
72
49
73
45
40
0
40
0
40
0
40
0
40
0.062525741662734
40
0.062525741662734
40
0.125051483325468
40
0.125051483325468
40
0.187577224988202
40
0.187577224988202
40
0.203208660403884
40
0.203208660403884
40
0.218840095819566
40
0.25010296665093
40
0.25010296665093
40
0.312628708313662
40
0.312628708313662
40
0.375154449976395
40
0.375154449976395
40
0.40641732080776
40
0.40641732080776
40
0.437680191639125
40
0.437680191639125
40
0.500205933301857
40
0.500205933301857
40
0.562731674964589
40
0.562731674964589
40
0.593994545795955
40
0.593994545795955
40
0.625257416627321
40
0.625257416627321
40
0.750308899952776
40
0.750308899952776
40
0.765940335368456
40
0.765940335368456
40
0.781571770784136
40
0.781571770784136
40
0.812834641615497
40
0.812834641615497
40
0.875360383278217
40
0.875360383278217
40
0.937886124940936
40
0.937886124940936
40
0.969148995772296
40
0.969148995772296
40
1
40
1
40
1
40
1
41
1
10
52
20
41.325
30
0
41
1
10
51.9282856551218
20
41.325
30
0
41
1
10
51.8572419216922
20
41.3201973772988
30
0
41
1
10
51.7165969717878
20
41.3012985964161
30
0
41
1
10
51.6469966371076
20
41.2871956279596
30
0
41
1
10
51.5096698652021
20
41.2496779703067
30
0
41
1
10
51.4419430524345
20
41.2262581138133
30
0
41
1
10
51.3589253949397
20
41.1910656766702
30
0
41
1
10
51.3423820634698
20
41.1837200068829
30
0
41
1
10
51.3096609216529
20
41.1685225546675
30
0
41
1
10
51.2610813000251
20
41.1449505081365
30
0
41
1
10
51.2140464596978
20
41.1191111225838
30
0
41
1
10
51.1221512216847
20
41.0645733204689
30
0
41
1
10
51.0637854389054
20
41.0243979970496
30
0
41
1
10
50.9535279620555
20
40.9373650988635
30
0
41
1
10
50.901638918509
20
40.8905039002716
30
0
41
1
10
50.8291881303957
20
40.8160539252091
30
0
41
1
10
50.8059135596587
20
40.7905104697874
30
0
41
1
10
50.7617465782461
20
40.7388458717913
30
0
41
1
10
50.7407815584297
20
40.7126550503952
30
0
41
1
10
50.6811811700331
20
40.6333453211045
30
0
41
1
10
50.6458470056421
20
40.5794886669721
30
0
41
1
10
50.5835049287288
20
40.4716076125896
30
0
41
1
10
50.5564979389303
20
40.4175815063522
30
0
41
1
10
50.5217139700933
20
40.3377905430047
30
0
41
1
10
50.5110468328328
20
40.3113285668339
30
0
41
1
10
50.4916987216573
20
40.2595932809643
30
0
41
1
10
50.4829965774611
20
40.2342841049131
30
0
41
1
10
50.4438054758716
20
40.1109709046826
30
0
41
1
10
50.4262172820696
20
40.02276846999
30
0
41
1
10
50.4145490755458
20
39.9404777228338
30
0
41
1
10
50.4133664896291
20
39.9315681478397
30
0
41
1
10
50.4112057246831
20
39.9142327843001
30
0
41
1
10
50.4102262749495
20
39.9057945656099
30
0
41
1
10
50.4075731800453
20
39.8813506007276
30
0
41
1
10
50.406180876592
20
39.8662015403329
30
0
41
1
10
50.4028310339538
20
39.8241987219278
30
0
41
1
10
50.4016850615756
20
39.800787111447
30
0
41
1
10
50.4003444567976
20
39.7631637492104
30
0
41
1
10
50.4001507293746
20
39.748946468492
30
0
41
1
10
50.4000218516852
20
39.734628366087
30
0
41
1
10
50.4000095292401
20
39.7310251700557
30
0
41
1
10
50.3999987099202
20
39.7262364803572
30
0
41
1
10
50.3999999774094
20
39.7250212389802
30
0
41
1
10
50.3999999946278
20
39.7250047690537
30
0
0
SPLINE
5
120
100
AcDbEntity
8
1
62
256
6
ByLayer
370
18
48
1
60
0
100
AcDbSpline
70
4
71
3
72
10
73
6
40
0
40
0
40
0
40
0
40
0.5
40
0.5
40
1
40
1
40
1
40
1
41
1
10
23.4383186059721
20
31.65
30
0
41
1
10
23.4943194031782
20
31.65
30
0
41
1
10
23.5617777179441
20
31.65
30
0
41
1
10
23.7180295286716
20
31.65
30
0
41
1
10
23.8068176881739
20
31.65
30
0
41
1
10
23.9053431857192
20
31.65
30
0
0
SPLINE
5
121
100
AcDbEntity
8
1
62
256
6
ByLayer
370
18
48
1
60
0
100
AcDbSpline
70
4
71
3
72
32
73
28
40
0
40
0
40
0
40
0
40
0.0905857044962985
40
0.0905857044962985
40
0.113232130620373
40
0.118893737151392
40
0.118893737151392
40
0.12455534368241
40
0.12455534368241
40
0.135878556744447
40
0.181171408992596
40
0.181171408992596
40
0.362342817985193
40
0.362342817985193
40
0.543514226977789
40
0.543514226977789
40
0.634099931474087
40
0.634099931474087
40
0.724685635970385
40
0.724685635970385
40
0.815271340466683
40
0.815271340466683
40
0.905857044962982
40
0.905857044962982
40
0.99644274945928
40
0.99644274945928
40
1
40
1
40
1
40
1
41
1
10
23.4383186059722
20
31.65
30
0
41
1
10
23.4266196175921
20
31.65
30
0
41
1
10
23.4127838136777
20
31.65
30
0
41
1
10
23.3933432645177
20
31.65
30
0
41
1
10
23.3883487430275
20
31.65
30
0
41
1
10
23.3831959135936
20
31.65
30
0
41
1
10
23.381122306761
20
31.65
30
0
41
1
10
23.3800847706127
20
31.65
30
0
41
1
10
23.3768900595709
20
31.65
30
0
41
1
10
23.3661152977216
20
31.65
30
0
41
1
10
23.3547321377893
20
31.65
30
0
41
1
10
23.3075043847671
20
31.65
30
0
41
1
10
23.2642805289376
20
31.65
30
0
41
1
10
23.1734408345052
20
31.65
30
0
41
1
10
23.1257539409719
20
31.65
30
0
41
1
10
23.0568649610639
20
31.65
30
0
41
1
10
23.0343626713624
20
31.65
30
0
41
1
10
22.9915972656386
20
31.65
30
0
41
1
10
22.9713353908744
20
31.65
30
0
41
1
10
22.9346028169906
20
31.65
30
0
41
1
10
22.9181399716714
20
31.65
30
0
41
1
10
22.8906739671441
20
31.65
30
0
41
1
10
22.8796871952811
20
31.65
30
0
41
1
10
22.8645955131566
20
31.65
30
0
41
1
10
22.8605073187976
20
31.65
30
0
41
1
10
22.8601641620427
20
31.65
30
0
41
1
10
22.860156992756
20
31.65
30
0
41
1
10
22.8601556059703
20
31.65
30
0
0
SPLINE
5
122
100
AcDbEntity
8
1
62
256
6
ByLayer
370
18
48
1
60
0
100
AcDbSpline
70
4
71
3
72
28
73
24
40
0
40
0
40
0
40
0
40
0.125000000000004
40
0.125000000000004
40
0.250000000000009
40
0.250000000000009
40
0.312500000000009
40
0.312500000000009
40
0.37500000000001
40
0.37500000000001
40
0.500000000000008
40
0.500000000000008
40
0.625000000000006
40
0.625000000000006
40
0.687500000000003
40
0.687500000000003
40
0.75
40
0.75
40
0.874999999999999
40
0.874999999999999
40
0.937499999999999
40
0.937499999999999
40
1
40
1
40
1
40
1
41
1
10
23.0745790681967
20
31.65
30
0
41
1
10
23.0797034947919
20
31.65
30
0
41
1
10
23.088339809912
20
31.6532182943537
30
0
41
1
10
23.1107129884679
20
31.6652812040201
30
0
41
1
10
23.124447738007
20
31.6741319697156
30
0
41
1
10
23.14766409967
20
31.691461769185
30
0
41
1
10
23.1558680757873
20
31.6979425634353
30
0
41
1
10
23.1727270953887
20
31.7120565487405
30
0
41
1
10
23.1814039219521
20
31.7197037416824
30
0
41
1
10
23.2079260405293
20
31.7443683618096
30
0
41
1
10
23.2262545474528
20
31.7630977756409
30
0
41
1
10
23.2631683059616
20
31.805181654542
30
0
41
1
10
23.2817602233248
20
31.8285356392096
30
0
41
1
10
23.3092208532197
20
31.8673501841443
30
0
41
1
10
23.3182435885789
20
31.880839563147
30
0
41
1
10
23.3358555373687
20
31.9088177785191
30
0
41
1
10
23.3444581436998
20
31.9233251916313
30
0
41
1
10
23.3695286319472
20
31.9684480006325
30
0
41
1
10
23.3852625864546
20
32.0006537550461
30
0
41
1
10
23.4068629022012
20
32.0524948669297
30
0
41
1
10
23.4137290017026
20
32.0703663342508
30
0
41
1
10
23.426689976007
20
32.1073844263878
30
0
41
1
10
23.4327474690385
20
32.1264291689353
30
0
41
1
10
23.4383186059724
20
32.1459721466512
30
0
0
SPLINE
5
123
100
AcDbEntity
8
1
62
256
6
ByLayer
370
18
48
1
60
0
100
AcDbSpline
70
4
71
3
72
67
73
63
40
0
40
0
40
0
40
0
40
0.0624999999999985
40
0.0624999999999985
40
0.124999999999997
40
0.124999999999997
40
0.140624999999997
40
0.140624999999997
40
0.156249999999997
40
0.156249999999997
40
0.187499999999997
40
0.187499999999997
40
0.249999999999998
40
0.249999999999998
40
0.281249999999999
40
0.281249999999999
40
0.296875
40
0.296875
40
0.3125
40
0.3125
40
0.375000000000001
40
0.375000000000001
40
0.437500000000001
40
0.437500000000001
40
0.500000000000001
40
0.500000000000001
40
0.515625
40
0.515625
40
0.53125
40
0.5625
40
0.5625
40
0.624999999999999
40
0.624999999999999
40
0.687499999999999
40
0.687499999999999
40
0.749999999999999
40
0.749999999999999
40
0.781249999999998
40
0.781249999999998
40
0.812499999999998
40
0.812499999999998
40
0.843749999999997
40
0.843749999999997
40
0.874999999999997
40
0.874999999999997
40
0.890624999999997
40
0.890624999999997
40
0.906249999999997
40
0.906249999999997
40
0.921874999999997
40
0.921874999999997
40
0.937499999999997
40
0.937499999999997
40
0.953124999999998
40
0.953124999999998
40
0.968749999999999
40
0.968749999999999
40
0.984374999999999
40
0.984374999999999
40
0.9921875
40
0.9921875
40
1
40
1
40
1
40
1
41
1
10
26.0939661422936
20
-16.75
30
0
41
1
10
25.9411450476574
20
-16.75
30
0
41
1
10
25.7907393905346
20
-16.7587235824561
30
0
41
1
10
25.4944235323823
20
-16.7923766521907
30
0
41
1
10
25.3485149003339
20
-16.8173119978061
30
0
41
1
10
25.1688513264094
20
-16.8582753364057
30
0
41
1
10
25.133055137776
20
-16.8669592029568
30
0
41
1
10
25.061735200673
20
-16.8853066003541
30
0
41
1
10
25.0261613568963
20
-16.8949862442479
30
0
41
1
10
24.9206749810523
20
-16.9252463715981
30
0
41
1
10
24.8517543947964
20
-16.9471024839074
30
0
41
1
10
24.6489359091693
20
-17.0173915555675
30
0
41
1
10
24.5189667142253
20
-17.0705279097528
30
0
41
1
10
24.3311348980118
20
-17.1587313495765
30
0
41
1
10
24.2697152772442
20
-17.1895537422518
30
0
41
1
10
24.1793102523479
20
-17.2378411174418
30
0
41
1
10
24.1494373018678
20
-17.2542939714781
30
0
41
1
10
24.0903707209872
20
-17.2878101674212
30
0
41
1
10
24.0612577031993
20
-17.3048267556899
30
0
41
1
10
23.9177120036364
20
-17.3911498350201
30
0
41
1
10
23.8093092055448
20
-17.464159562369
30
0
41
1
10
23.6037782312901
20
-17.6170510907298
30
0
41
1
10
23.506658262145
20
-17.6969383137924
30
0
41
1
10
23.3226826887529
20
-17.8629018467327
30
0
41
1
10
23.2358313887578
20
-17.9489813964638
30
0
41
1
10
23.1332860492065
20
-18.0601508677403
30
0
41
1
10
23.1130920964353
20
-18.0825503792919
30
0
41
1
10
23.0734713701209
20
-18.1274994971278
30
0
41
1
10
23.0151248579756
20
-18.19521999998
30
0
41
1
10
22.9599331167854
20
-18.2637946707691
30
0
41
1
10
22.8535358299083
20
-18.4019942148997
30
0
41
1
10
22.7879086467719
20
-18.4955276099181
30
0
41
1
10
22.6663949572527
20
-18.6849533436713
30
0
41
1
10
22.6105114709914
20
-18.7808502776935
30
0
41
1
10
22.5079301492749
20
-18.9745133251272
30
0
41
1
10
22.4612337305974
20
-19.072289730045
30
0
41
1
10
22.3978406120247
20
-19.2197973350827
30
0
41
1
10
22.3778198876576
20
-19.2691043602967
30
0
41
1
10
22.3399797834269
20
-19.3678345616461
30
0
41
1
10
22.3221557416976
20
-19.4172810080214
30
0
41
1
10
22.2888472668918
20
-19.5155916584509
30
0
41
1
10
22.2733405669466
20
-19.5645139143172
30
0
41
1
10
22.2445929677225
20
-19.6614765922429
30
0
41
1
10
22.2313516589709
20
-19.7095251963887
30
0
41
1
10
22.2131868619594
20
-19.7803883286256
30
0
41
1
10
22.2074150254758
20
-19.8038045982375
30
0
41
1
10
22.1964414497793
20
-19.8500741179433
30
0
41
1
10
22.1912419680965
20
-19.8729200014018
30
0
41
1
10
22.1814474335411
20
-19.9177003799923
30
0
41
1
10
22.1768489102108
20
-19.939650504615
30
0
41
1
10
22.1682624917521
20
-19.9823252233687
30
0
41
1
10
22.1642743399032
20
-20.0030528775521
30
0
41
1
10
22.1569340737144
20
-20.042761598549
30
0
41
1
10
22.1535814068693
20
-20.0617482025415
30
0
41
1
10
22.1475613740936
20
-20.0971510087326
30
0
41
1
10
22.1449234091477
20
-20.1133942604481
30
0
41
1
10
22.1404632668014
20
-20.1417069872851
30
0
41
1
10
22.1386390279503
20
-20.1537842014231
30
0
41
1
10
22.136599161752
20
-20.167532793797
30
0
41
1
10
22.1360344649331
20
-20.1713931285841
30
0
41
1
10
22.1351674692261
20
-20.177355135863
30
0
41
1
10
22.134865060747
20
-20.1794564020674
30
0
41
1
10
22.134698385264
20
-20.1806153952332
30
0
0
SPLINE
5
124
100
AcDbEntity
8
1
62
256
6
ByLayer
370
18
48
1
60
0
100
AcDbSpline
70
4
71
3
72
10
73
6
40
0
40
0
40
0
40
0
40
0.5
40
0.5
40
1
40
1
40
1
40
1
41
1
10
23.9053431857192
20
31.65
30
0
41
1
10
23.825681123129
20
31.3077908920247
30
0
41
1
10
23.746852899291
20
30.9659968227725
30
0
41
1
10
23.5910924148061
20
30.2832937428866
30
0
41
1
10
23.5141594672669
20
29.9423843777249
30
0
41
1
10
23.4383186059721
20
29.601957698314
30
0
0
SPLINE
5
125
100
AcDbEntity
8
1
62
256
6
ByLayer
370
18
48
1
60
0
100
AcDbSpline
70
4
71
3
72
32
73
28
40
0
40
0
40
0
40
0
40
0.124999999999993
40
0.124999999999993
40
0.249999999999986
40
0.249999999999986
40
0.374999999999979
40
0.374999999999979
40
0.499999999999971
40
0.499999999999971
40
0.531249999999971
40
0.531249999999971
40
0.562499999999971
40
0.562499999999971
40
0.624999999999973
40
0.624999999999973
40
0.749999999999976
40
0.749999999999976
40
0.78124999999998
40
0.78124999999998
40
0.812499999999984
40
0.812499999999984
40
0.874999999999989
40
0.874999999999989
40
0.937499999999995
40
0.937499999999995
40
1
40
1
40
1
40
1
41
1
10
22.2792076144253
20
27.6808413104202
30
0
41
1
10
22.3091971617309
20
27.739748535696
30
0
41
1
10
22.3436302598125
20
27.7981228609026
30
0
41
1
10
22.4207083126149
20
27.9158940525834
30
0
41
1
10
22.4633561739212
20
27.9752912754611
30
0
41
1
10
22.5558921869472
20
28.0975858377455
30
0
41
1
10
22.605784493114
20
28.1604801120641
30
0
41
1
10
22.711435417456
20
28.292664430431
30
0
41
1
10
22.7672017575789
20
28.3619446161894
30
0
41
1
10
22.8393613627147
20
28.454724133326
30
0
41
1
10
22.8539140940105
20
28.4735909776751
30
0
41
1
10
22.8832226517154
20
28.5120105341331
30
0
41
1
10
22.8979950247306
20
28.5315860189112
30
0
41
1
10
22.9423041762256
20
28.5911068891053
30
0
41
1
10
22.9718980055499
20
28.6319270962585
30
0
41
1
10
23.0601840342688
20
28.758378904948
30
0
41
1
10
23.1184224556377
20
28.847958385736
30
0
41
1
10
23.1877883505822
20
28.968865794043
30
0
41
1
10
23.2014866119682
20
28.9934973764694
30
0
41
1
10
23.228450467963
20
29.0437370763686
30
0
41
1
10
23.2417085258969
20
29.0693369968328
30
0
41
1
10
23.2803376082809
20
29.1469735650822
30
0
41
1
10
23.3046914129889
20
29.2000706234313
30
0
41
1
10
23.3498989939522
20
29.3092511691943
30
0
41
1
10
23.3707567795315
20
29.3653317206828
30
0
41
1
10
23.4081061557642
20
29.4809130423638
30
0
41
1
10
23.4246063461125
20
29.5404075126811
30
0
41
1
10
23.4383186059721
20
29.601957698314
30
0
0
SPLINE
5
126
100
AcDbEntity
8
1
62
256
6
ByLayer
370
18
48
1
60
0
100
AcDbSpline
70
4
71
3
72
30
73
26
40
0
40
0
40
0
40
0
40
0.0625000000000035
40
0.0625000000000035
40
0.0937500000000081
40
0.0937500000000081
40
0.125000000000013
40
0.125000000000013
40
0.250000000000018
40
0.250000000000018
40
0.312500000000019
40
0.312500000000019
40
0.37500000000002
40
0.37500000000002
40
0.437500000000021
40
0.437500000000021
40
0.500000000000022
40
0.500000000000022
40
0.625000000000016
40
0.625000000000016
40
0.750000000000011
40
0.750000000000011
40
0.875000000000005
40
0.875000000000005
40
1
40
1
40
1
40
1
41
1
10
13.4613248654052
20
30.0805927603168
30
0
41
1
10
13.4770644463612
20
30.0805927603168
30
0
41
1
10
13.4925182901835
20
30.0801205034908
30
0
41
1
10
13.5153082123102
20
30.0787652114225
30
0
41
1
10
13.5228395300832
20
30.0782053093477
30
0
41
1
10
13.537775923748
20
30.076876147822
30
0
41
1
10
13.5452163817752
20
30.0761022248719
30
0
41
1
10
13.5815263070002
20
30.07179594856
30
0
41
1
10
13.6079581046675
20
30.0669872793661
30
0
41
1
10
13.6448606867708
20
30.0583172600355
30
0
41
1
10
13.6565013495868
20
30.0552244086801
30
0
41
1
10
13.6786197964872
20
30.0487371057378
30
0
41
1
10
13.6891167538208
20
30.0453372280741
30
0
41
1
10
13.7091749421594
20
30.0382729348065
30
0
41
1
10
13.7187352282342
20
30.0346082702024
30
0
41
1
10
13.737049765874
20
30.0270468182506
30
0
41
1
10
13.7458258793003
20
30.0231382884602
30
0
41
1
10
13.77082212436
20
30.0112312950129
30
0
41
1
10
13.7858017072527
20
30.0030284643032
30
0
41
1
10
13.8132376332897
20
29.9862010424071
30
0
41
1
10
13.8256849705001
20
29.9775752500985
30
0
41
1
10
13.8485243776493
20
29.9599596837525
30
0
41
1
10
13.8589127955723
20
29.9509694256367
30
0
41
1
10
13.877931786983
20
29.932660186932
30
0
41
1
10
13.8865409364124
20
29.9233580917139
30
0
41
1
10
13.8943375672974
20
29.913954846469
30
0
0
SPLINE
5
127
100
AcDbEntity
8
1
62
256
6
ByLayer
370
18
48
1
60
0
100
AcDbSpline
70
4
71
3
72
32
73
28
40
0
40
0
40
0
40
0
40
0.25000000000001
40
0.25000000000001
40
0.375000000000013
40
0.375000000000013
40
0.437500000000014
40
0.437500000000014
40
0.500000000000015
40
0.500000000000015
40
0.625000000000012
40
0.625000000000012
40
0.687500000000011
40
0.687500000000011
40
0.75000000000001
40
0.75000000000001
40
0.812500000000009
40
0.812500000000009
40
0.843750000000006
40
0.843750000000006
40
0.875000000000002
40
0.875000000000002
40
0.937499999999997
40
0.937499999999997
40
0.968749999999999
40
0.968749999999999
40
1
40
1
40
1
40
1
41
1
10
13.8943375672973
20
9.86941261896635
30
0
41
1
10
13.8787501654512
20
9.81243201498822
30
0
41
1
10
13.8600981524864
20
9.7565502308299
30
0
41
1
10
13.8259097308548
20
9.67499387250808
30
0
41
1
10
13.8134681559942
20
9.64819007031218
30
0
41
1
10
13.792841581707
20
9.6087077822869
30
0
41
1
10
13.785636838674
20
9.59566828989821
30
0
41
1
10
13.7704696456803
20
9.56986960560346
30
0
41
1
10
13.7624961131814
20
9.55709686534388
30
0
41
1
10
13.7374904471463
20
9.51963294536145
30
0
41
1
10
13.7193382950672
20
9.49566900868408
30
0
41
1
10
13.689039794361
20
9.46183015552288
30
0
41
1
10
13.6784124135706
20
9.45090526429348
30
0
41
1
10
13.656277975813
20
9.43026612350781
30
0
41
1
10
13.6447350068564
20
9.42050719110856
30
0
41
1
10
13.6205171073694
20
9.40232505361271
30
0
41
1
10
13.607843974168
20
9.39389972204398
30
0
41
1
10
13.5877822000581
20
9.38250456041453
30
0
41
1
10
13.5808872163667
20
9.37890069603409
30
0
41
1
10
13.5669060817703
20
9.37226208194036
30
0
41
1
10
13.5598136368109
20
9.36922064667934
30
0
41
1
10
13.5382117701416
20
9.36098178019498
30
0
41
1
10
13.5233796774591
20
9.35666472180222
30
0
41
1
10
13.5003821923576
20
9.35223451981236
30
0
41
1
10
13.4925919071141
20
9.35110433740243
30
0
41
1
10
13.4770081601071
20
9.34960123302497
30
0
41
1
10
13.4691833484066
20
9.34922131452527
30
0
41
1
10
13.4613248654052
20
9.34922131452527
30
0
0
SPLINE
5
128
100
AcDbEntity
8
1
62
256
6
ByLayer
370
18
48
1
60
0
100
AcDbSpline
70
4
71
3
72
30
73
26
40
0
40
0
40
0
40
0
40
0.0625000000000088
40
0.0625000000000088
40
0.0937500000000139
40
0.0937500000000139
40
0.125000000000019
40
0.125000000000019
40
0.250000000000016
40
0.250000000000016
40
0.312500000000013
40
0.312500000000013
40
0.37500000000001
40
0.37500000000001
40
0.437500000000007
40
0.437500000000007
40
0.500000000000003
40
0.500000000000003
40
0.625000000000002
40
0.625000000000002
40
0.750000000000002
40
0.750000000000002
40
0.875000000000001
40
0.875000000000001
40
1
40
1
40
1
40
1
41
1
10
10.5386751345949
20
9.34922131452521
30
0
41
1
10
10.5229355536388
20
9.34922131452521
30
0
41
1
10
10.5074817098165
20
9.35074113394299
30
0
41
1
10
10.4846917876899
20
9.35509944740042
30
0
41
1
10
10.4771604699169
20
9.35689961322677
30
0
41
1
10
10.4622240762521
20
9.36117119765723
30
0
41
1
10
10.4547836182248
20
9.36365758390284
30
0
41
1
10
10.4184736929998
20
9.37748487924975
30
0
41
1
10
10.3920418953325
20
9.39290424748319
30
0
41
1
10
10.3551393132292
20
9.42059748954588
30
0
41
1
10
10.3434986504133
20
9.43046143490432
30
0
41
1
10
10.3213802035129
20
9.45111186483339
30
0
41
1
10
10.3108832461793
20
9.46191570446797
30
0
41
1
10
10.2908250578407
20
9.4843184805882
30
0
41
1
10
10.2812647717658
20
9.49591822570972
30
0
41
1
10
10.262950234126
20
9.51980127252989
30
0
41
1
10
10.2541741206997
20
9.5321214266348
30
0
41
1
10
10.22917787564
20
9.56957065273539
30
0
41
1
10
10.2141982927473
20
9.5952614212768
30
0
41
1
10
10.1867623667103
20
9.64772023935055
30
0
41
1
10
10.1743150294999
20
9.67449223197181
30
0
41
1
10
10.1514756223507
20
9.72890711075652
30
0
41
1
10
10.1410872044277
20
9.75655159685465
30
0
41
1
10
10.1220682130169
20
9.81257982037175
30
0
41
1
10
10.1134590635876
20
9.84091160634034
30
0
41
1
10
10.1056624327026
20
9.86941261896629
30
0
0
SPLINE
5
129
100
AcDbEntity
8
1
62
256
6
ByLayer
370
18
48
1
60
0
100
AcDbSpline
70
4
71
3
72
32
73
28
40
0
40
0
40
0
40
0
40
0.250000000000006
40
0.250000000000006
40
0.375000000000003
40
0.375000000000003
40
0.437500000000003
40
0.437500000000003
40
0.500000000000002
40
0.500000000000002
40
0.625000000000001
40
0.625000000000001
40
0.687499999999996
40
0.687499999999996
40
0.749999999999991
40
0.749999999999991
40
0.812499999999987
40
0.812499999999987
40
0.843749999999986
40
0.843749999999986
40
0.874999999999986
40
0.874999999999986
40
0.937499999999993
40
0.937499999999993
40
0.968749999999997
40
0.968749999999997
40
1
40
1
40
1
40
1
41
1
10
10.1056624327027
20
29.913954846469
30
0
41
1
10
10.1212498345488
20
29.9327542695084
30
0
41
1
10
10.1399018475136
20
29.9510098933135
30
0
41
1
10
10.1740902691452
20
29.977413331973
30
0
41
1
10
10.1865318440058
20
29.9860499646858
30
0
41
1
10
10.207158418293
20
29.9987154022301
30
0
41
1
10
10.214363161326
20
30.0028887514666
30
0
41
1
10
10.2295303543198
20
30.0111275878529
30
0
41
1
10
10.2375038868186
20
30.0151973377028
30
0
41
1
10
10.2625095528537
20
30.0271090091071
30
0
41
1
10
10.2806617049328
20
30.0346937657148
30
0
41
1
10
10.3109602056391
20
30.0453642012995
30
0
41
1
10
10.3215875864295
20
30.0488020840795
30
0
41
1
10
10.343722024187
20
30.0552856889209
30
0
41
1
10
10.3552649931437
20
30.0583455135275
30
0
41
1
10
10.3794828926307
20
30.0640378913833
30
0
41
1
10
10.3921560258321
20
30.0666711051738
30
0
41
1
10
10.4122177999419
20
30.0702282001224
30
0
41
1
10
10.4191127836333
20
30.0713523776808
30
0
41
1
10
10.4330939182297
20
30.0734220792403
30
0
41
1
10
10.4401863631891
20
30.0743696982574
30
0
41
1
10
10.4617882298585
20
30.076935568727
30
0
41
1
10
10.4766203225409
20
30.0782784555614
30
0
41
1
10
10.4996178076425
20
30.0796561130286
30
0
41
1
10
10.5074080928859
20
30.0800074516351
30
0
41
1
10
10.5229918398929
20
30.080474687126
30
0
41
1
10
10.5308166515934
20
30.0805927603169
30
0
41
1
10
10.5386751345949
20
30.0805927603169
30
0
0
SPLINE
5
12A
100
AcDbEntity
8
1
62
256
6
ByLayer
370
18
48
1
60
0
100
AcDbSpline
70
4
71
3
72
30
73
26
40
0
40
0
40
0
40
0
40
0.0625000000000003
40
0.0625000000000003
40
0.0937500000000005
40
0.0937500000000005
40
0.125000000000001
40
0.125000000000001
40
0.250000000000007
40
0.250000000000007
40
0.312500000000011
40
0.312500000000011
40
0.375000000000014
40
0.375000000000014
40
0.437500000000018
40
0.437500000000018
40
0.500000000000022
40
0.500000000000022
40
0.625000000000016
40
0.625000000000016
40
0.750000000000011
40
0.750000000000011
40
0.875000000000006
40
0.875000000000006
40
1
40
1
40
1
40
1
41
1
10
10.5386751345949
20
-30.0805927603169
30
0
41
1
10
10.5229355536388
20
-30.0805927603169
30
0
41
1
10
10.5074817098165
20
-30.0801205034908
30
0
41
1
10
10.4846917876899
20
-30.0787652114226
30
0
41
1
10
10.4771604699169
20
-30.0782053093477
30
0
41
1
10
10.4622240762521
20
-30.0768761478221
30
0
41
1
10
10.4547836182248
20
-30.0761022248719
30
0
41
1
10
10.4184736929998
20
-30.0717959485601
30
0
41
1
10
10.3920418953325
20
-30.0669872793661
30
0
41
1
10
10.3551393132292
20
-30.0583172600355
30
0
41
1
10
10.3434986504133
20
-30.0552244086801
30
0
41
1
10
10.3213802035129
20
-30.0487371057378
30
0
41
1
10
10.3108832461793
20
-30.0453372280742
30
0
41
1
10
10.2908250578407
20
-30.0382729348065
30
0
41
1
10
10.2812647717658
20
-30.0346082702024
30
0
41
1
10
10.262950234126
20
-30.0270468182506
30
0
41
1
10
10.2541741206997
20
-30.0231382884602
30
0
41
1
10
10.22917787564
20
-30.0112312950129
30
0
41
1
10
10.2141982927473
20
-30.0030284643032
30
0
41
1
10
10.1867623667103
20
-29.9862010424071
30
0
41
1
10
10.1743150294999
20
-29.9775752500985
30
0
41
1
10
10.1514756223507
20
-29.9599596837525
30
0
41
1
10
10.1410872044277
20
-29.9509694256367
30
0
41
1
10
10.1220682130169
20
-29.932660186932
30
0
41
1
10
10.1134590635876
20
-29.9233580917139
30
0
41
1
10
10.1056624327026
20
-29.913954846469
30
0
0
SPLINE
5
12B
100
AcDbEntity
8
1
62
256
6
ByLayer
370
18
48
1
60
0
100
AcDbSpline
70
4
71
3
72
32
73
28
40
0
40
0
40
0
40
0
40
0.250000000000025
40
0.250000000000025
40
0.375000000000038
40
0.375000000000038
40
0.437500000000037
40
0.437500000000037
40
0.500000000000037
40
0.500000000000037
40
0.625000000000029
40
0.625000000000029
40
0.687500000000023
40
0.687500000000023
40
0.750000000000017
40
0.750000000000017
40
0.812500000000012
40
0.812500000000012
40
0.84375000000001
40
0.84375000000001
40
0.875000000000008
40
0.875000000000008
40
0.937500000000004
40
0.937500000000004
40
0.968750000000002
40
0.968750000000002
40
1
40
1
40
1
40
1
41
1
10
10.1056624327026
20
-9.86941261896629
30
0
41
1
10
10.1212498345488
20
-9.81243201498816
30
0
41
1
10
10.1399018475136
20
-9.75655023082982
30
0
41
1
10
10.1740902691451
20
-9.67499387250797
30
0
41
1
10
10.1865318440058
20
-9.6481900703121
30
0
41
1
10
10.207158418293
20
-9.60870778228681
30
0
41
1
10
10.214363161326
20
-9.59566828989813
30
0
41
1
10
10.2295303543197
20
-9.56986960560334
30
0
41
1
10
10.2375038868186
20
-9.55709686534377
30
0
41
1
10
10.2625095528537
20
-9.51963294536134
30
0
41
1
10
10.2806617049328
20
-9.49566900868396
30
0
41
1
10
10.310960205639
20
-9.46183015552276
30
0
41
1
10
10.3215875864294
20
-9.45090526429334
30
0
41
1
10
10.343722024187
20
-9.43026612350766
30
0
41
1
10
10.3552649931436
20
-9.42050719110841
30
0
41
1
10
10.3794828926306
20
-9.40232505361257
30
0
41
1
10
10.3921560258321
20
-9.39389972204387
30
0
41
1
10
10.4122177999419
20
-9.38250456041442
30
0
41
1
10
10.4191127836333
20
-9.37890069603395
30
0
41
1
10
10.4330939182297
20
-9.37226208194019
30
0
41
1
10
10.4401863631891
20
-9.36922064667917
30
0
41
1
10
10.4617882298585
20
-9.36098178019483
30
0
41
1
10
10.4766203225409
20
-9.35666472180208
30
0
41
1
10
10.4996178076425
20
-9.35223451981224
30
0
41
1
10
10.5074080928859
20
-9.35110433740226
30
0
41
1
10
10.5229918398929
20
-9.34960123302483
30
0
41
1
10
10.5308166515934
20
-9.3492213145251
30
0
41
1
10
10.5386751345949
20
-9.34922131452512
30
0
0
SPLINE
5
12C
100
AcDbEntity
8
1
62
256
6
ByLayer
370
18
48
1
60
0
100
AcDbSpline
70
4
71
3
72
30
73
26
40
0
40
0
40
0
40
0
40
0.0625000000000054
40
0.0625000000000054
40
0.0937500000000075
40
0.0937500000000075
40
0.125000000000009
40
0.125000000000009
40
0.250000000000009
40
0.250000000000009
40
0.31250000000001
40
0.31250000000001
40
0.375000000000011
40
0.375000000000011
40
0.437500000000012
40
0.437500000000012
40
0.500000000000013
40
0.500000000000013
40
0.62500000000001
40
0.62500000000001
40
0.750000000000007
40
0.750000000000007
40
0.875000000000003
40
0.875000000000003
40
1
40
1
40
1
40
1
41
1
10
13.4613248654052
20
-9.34922131452532
30
0
41
1
10
13.4770644463612
20
-9.34922131452532
30
0
41
1
10
13.4925182901835
20
-9.35074113394307
30
0
41
1
10
13.5153082123102
20
-9.35509944740048
30
0
41
1
10
13.5228395300832
20
-9.35689961322686
30
0
41
1
10
13.537775923748
20
-9.36117119765731
30
0
41
1
10
13.5452163817752
20
-9.36365758390292
30
0
41
1
10
13.5815263070002
20
-9.37748487924983
30
0
41
1
10
13.6079581046675
20
-9.39290424748327
30
0
41
1
10
13.6448606867708
20
-9.42059748954597
30
0
41
1
10
13.6565013495867
20
-9.4304614349044
30
0
41
1
10
13.6786197964872
20
-9.45111186483348
30
0
41
1
10
13.6891167538208
20
-9.46191570446803
30
0
41
1
10
13.7091749421594
20
-9.48431848058826
30
0
41
1
10
13.7187352282342
20
-9.49591822570977
30
0
41
1
10
13.737049765874
20
-9.51980127252995
30
0
41
1
10
13.7458258793003
20
-9.53212142663486
30
0
41
1
10
13.77082212436
20
-9.56957065273545
30
0
41
1
10
13.7858017072527
20
-9.59526142127683
30
0
41
1
10
13.8132376332897
20
-9.64772023935058
30
0
41
1
10
13.8256849705001
20
-9.67449223197184
30
0
41
1
10
13.8485243776493
20
-9.72890711075652
30
0
41
1
10
13.8589127955723
20
-9.75655159685468
30
0
41
1
10
13.877931786983
20
-9.81257982037175
30
0
41
1
10
13.8865409364124
20
-9.84091160634037
30
0
41
1
10
13.8943375672974
20
-9.86941261896632
30
0
0
SPLINE
5
12D
100
AcDbEntity
8
1
62
256
6
ByLayer
370
18
48
1
60
0
100
AcDbSpline
70
4
71
3
72
32
73
28
40
0
40
0
40
0
40
0
40
0.249999999999973
40
0.249999999999973
40
0.374999999999961
40
0.374999999999961
40
0.437499999999959
40
0.437499999999959
40
0.499999999999956
40
0.499999999999956
40
0.624999999999957
40
0.624999999999957
40
0.68749999999996
40
0.68749999999996
40
0.749999999999963
40
0.749999999999963
40
0.812499999999965
40
0.812499999999965
40
0.84374999999997
40
0.84374999999997
40
0.874999999999974
40
0.874999999999974
40
0.937499999999983
40
0.937499999999983
40
0.968749999999992
40
0.968749999999992
40
1
40
1
40
1
40
1
41
1
10
13.8943375672973
20
-29.913954846469
30
0
41
1
10
13.8787501654512
20
-29.9327542695084
30
0
41
1
10
13.8600981524864
20
-29.9510098933135
30
0
41
1
10
13.8259097308548
20
-29.9774133319729
30
0
41
1
10
13.8134681559942
20
-29.9860499646858
30
0
41
1
10
13.792841581707
20
-29.9987154022301
30
0
41
1
10
13.785636838674
20
-30.0028887514666
30
0
41
1
10
13.7704696456802
20
-30.0111275878529
30
0
41
1
10
13.7624961131814
20
-30.0151973377027
30
0
41
1
10
13.7374904471463
20
-30.0271090091071
30
0
41
1
10
13.7193382950672
20
-30.0346937657147
30
0
41
1
10
13.6890397943609
20
-30.0453642012994
30
0
41
1
10
13.6784124135705
20
-30.0488020840795
30
0
41
1
10
13.656277975813
20
-30.0552856889209
30
0
41
1
10
13.6447350068564
20
-30.0583455135274
30
0
41
1
10
13.6205171073694
20
-30.0640378913833
30
0
41
1
10
13.607843974168
20
-30.0666711051738
30
0
41
1
10
13.5877822000581
20
-30.0702282001223
30
0
41
1
10
13.5808872163667
20
-30.0713523776808
30
0
41
1
10
13.5669060817703
20
-30.0734220792403
30
0
41
1
10
13.5598136368109
20
-30.0743696982574
30
0
41
1
10
13.5382117701416
20
-30.076935568727
30
0
41
1
10
13.5233796774591
20
-30.0782784555613
30
0
41
1
10
13.5003821923576
20
-30.0796561130286
30
0
41
1
10
13.4925919071141
20
-30.0800074516351
30
0
41
1
10
13.4770081601071
20
-30.080474687126
30
0
41
1
10
13.4691833484066
20
-30.0805927603169
30
0
41
1
10
13.4613248654052
20
-30.0805927603169
30
0
0
SPLINE
5
12E
100
AcDbEntity
8
1
62
256
6
ByLayer
370
18
48
1
60
0
100
AcDbSpline
70
4
71
3
72
10
73
6
40
0
40
0
40
0
40
0
40
0.499999999999998
40
0.499999999999998
40
1
40
1
40
1
40
1
41
1
10
22.2792076144253
20
27.6808413104201
30
0
41
1
10
22.2318718677169
20
27.5878616643276
30
0
41
1
10
22.1966425889681
20
27.492605434315
30
0
41
1
10
22.1488047629374
20
27.2974965415979
30
0
41
1
10
22.1362027296174
20
27.1976438773933
30
0
41
1
10
22.134698385264
20
27.0954379800999
30
0
0
SPLINE
5
12F
100
AcDbEntity
8
SK1
62
256
6
ByLayer
370
18
48
1
60
0
100
AcDbSpline
70
4
71
3
72
49
73
45
40
0
40
0
40
0
40
0
40
0.0158520715295456
40
0.0443313504221664
40
0.0728106293147872
40
0.101289908207408
40
0.129769187100029
40
0.158248465992649
40
0.215207023777891
40
0.243686302670512
40
0.272165581563133
40
0.300644860455753
40
0.329124139348374
40
0.357603418240995
40
0.386082697133616
40
0.414561976026237
40
0.428801615472547
40
0.443041254918857
40
0.457280894365168
40
0.471520533811478
40
0.485760173257788
40
0.492879992980944
40
0.499999812704099
40
0.507119632427254
40
0.514239452150409
40
0.52847909159672
40
0.54271873104303
40
0.55695837048934
40
0.571198009935651
40
0.585437649381961
40
0.613916928274582
40
0.642396207167203
40
0.670875486059824
40
0.699354764952444
40
0.727834043845065
40
0.756313322737686
40
0.784792601630307
40
0.841751159415548
40
0.870230438308169
40
0.89870971720079
40
0.927188996093411
40
0.955668274986031
40
0.984147553878652
40
1
40
1
40
1
40
1
41
1
10
-38
20
-20.2900103488575
30
0
41
1
10
-38
20
-20.2838088109934
30
0
41
1
10
-38
20
-20.2386783227418
30
0
41
1
10
-38
20
-20.0459066437045
30
0
41
1
10
-38
20
-19.6579362347721
30
0
41
1
10
-38
20
-19.1216505379956
30
0
41
1
10
-38
20
-18.4471799717542
30
0
41
1
10
-38
20
-17.3708466567051
30
0
41
1
10
-38
20
-16.0627718728323
30
0
41
1
10
-38
20
-14.5156181768618
30
0
41
1
10
-38
20
-13.2517907463501
30
0
41
1
10
-38
20
-11.8841222937699
30
0
41
1
10
-38
20
-10.4165562193455
30
0
41
1
10
-38
20
-8.85372672313898
30
0
41
1
10
-38
20
-7.20134092284709
30
0
41
1
10
-38
20
-5.76201911469511
30
0
41
1
10
-38
20
-4.5640765607352
30
0
41
1
10
-38
20
-3.65884583736087
30
0
41
1
10
-38
20
-2.74483905839463
30
0
41
1
10
-38
20
-1.82748828650287
30
0
41
1
10
-38
20
-1.06947767603967
30
0
41
1
10
-38
20
-0.455018198724474
30
0
41
1
10
-38
20
4.514861303E-07
30
0
41
1
10
-38
20
0.455018630552075
30
0
41
1
10
-38
20
1.06947718042707
30
0
41
1
10
-38
20
1.82748862261292
30
0
41
1
10
-38
20
2.74483966025932
30
0
41
1
10
-38
20
3.65884523285217
30
0
41
1
10
-38
20
4.56407688146012
30
0
41
1
10
-38
20
5.76201962732219
30
0
41
1
10
-38
20
7.20134053529003
30
0
41
1
10
-38
20
8.85372716578038
30
0
41
1
10
-38
20
10.4165563625368
30
0
41
1
10
-38
20
11.884121927153
30
0
41
1
10
-38
20
13.2517911056129
30
0
41
1
10
-38
20
14.5156182315173
30
0
41
1
10
-38
20
16.0627714181563
30
0
41
1
10
-38
20
17.3708469037194
30
0
41
1
10
-38
20
18.4471796582741
30
0
41
1
10
-38
20
19.121649880576
30
0
41
1
10
-38
20
19.6579364097435
30
0
41
1
10
-38
20
20.0459061788578
30
0
41
1
10
-38
20
20.2386786595521
30
0
41
1
10
-38
20
20.2838093497155
30
0
41
1
10
-38
20
20.2900106519716
30
0
0
SPLINE
5
130
100
AcDbEntity
8
SK1
62
256
6
ByLayer
370
18
48
1
60
0
100
AcDbSpline
70
4
71
3
72
36
73
32
40
0
40
0
40
0
40
0
40
0.249999999999995
40
0.249999999999995
40
0.374999999999995
40
0.374999999999995
40
0.499999999999994
40
0.499999999999994
40
0.624999999999994
40
0.624999999999994
40
0.687499999999995
40
0.687499999999995
40
0.749999999999996
40
0.749999999999996
40
0.812499999999997
40
0.812499999999997
40
0.843749999999998
40
0.843749999999998
40
0.874999999999998
40
0.874999999999998
40
0.906249999999999
40
0.906249999999999
40
0.921874999999999
40
0.921874999999999
40
0.937499999999999
40
0.937499999999999
40
0.953124999999999
40
0.953124999999999
40
0.968749999999999
40
0.968749999999999
40
1
40
1
40
1
40
1
41
1
10
-0.200000000000017
20
-7.03415845154797
30
0
41
1
10
-0.200331074104753
20
-6.96758473110461
30
0
41
1
10
-0.201942367211245
20
-6.90082001005126
30
0
41
1
10
-0.207091999731233
20
-6.80034067321819
30
0
41
1
10
-0.209269492367241
20
-6.76679198903059
30
0
41
1
10
-0.214824426638018
20
-6.69957126003933
30
0
41
1
10
-0.21819915020231
20
-6.66587124141833
30
0
41
1
10
-0.226629907857017
20
-6.59846295367004
30
0
41
1
10
-0.231660540619686
20
-6.56479252713515
30
0
41
1
10
-0.241214598359392
20
-6.5144059185414
30
0
41
1
10
-0.24474520514363
20
-6.49760452342764
30
0
41
1
10
-0.252727620657765
20
-6.46421416849179
30
0
41
1
10
-0.257169431390224
20
-6.44763062016602
30
0
41
1
10
-0.267439101060546
20
-6.41481626716185
30
0
41
1
10
-0.27323621273078
20
-6.39857720931977
30
0
41
1
10
-0.283833370168679
20
-6.37471397159132
30
0
41
1
10
-0.287711149711186
20
-6.3668056729274
30
0
41
1
10
-0.296343527957418
20
-6.35152953268795
30
0
41
1
10
-0.301085882076165
20
-6.34414232274304
30
0
41
1
10
-0.312078412289935
20
-6.33025774259031
30
0
41
1
10
-0.31822232846153
20
-6.32386838427445
30
0
41
1
10
-0.329057935890972
20
-6.31619338160348
30
0
41
1
10
-0.332859652575024
20
-6.31402544311607
30
0
41
1
10
-0.340958863848982
20
-6.31070772605878
30
0
41
1
10
-0.345208124413119
20
-6.30960458427649
30
0
41
1
10
-0.35368915432602
20
-6.30870360354672
30
0
41
1
10
-0.358037716131264
20
-6.30890123768719
30
0
41
1
10
-0.366345960396387
20
-6.31042877188762
30
0
41
1
10
-0.37039582601011
20
-6.31175696012832
30
0
41
1
10
-0.381850124236081
20
-6.31686284615006
30
0
41
1
10
-0.388651860853344
20
-6.32169800880934
30
0
41
1
10
-0.394913799811292
20
-6.32721828439901
30
0
0
SPLINE
5
131
100
AcDbEntity
8
SK1
62
256
6
ByLayer
370
18
48
1
60
0
100
AcDbSpline
70
4
71
3
72
40
73
36
40
0
40
0
40
0
40
0
40
0.0156250000000005
40
0.0156250000000005
40
0.0312500000000011
40
0.0312500000000011
40
0.0468750000000016
40
0.0468750000000016
40
0.0625000000000022
40
0.0625000000000022
40
0.0781250000000027
40
0.0781250000000027
40
0.0937500000000033
40
0.0937500000000033
40
0.109375000000004
40
0.109375000000004
40
0.125000000000004
40
0.125000000000004
40
0.156250000000005
40
0.156250000000005
40
0.187500000000007
40
0.187500000000007
40
0.250000000000009
40
0.250000000000009
40
0.312500000000011
40
0.312500000000011
40
0.375000000000013
40
0.375000000000013
40
0.500000000000012
40
0.500000000000012
40
0.62500000000001
40
0.62500000000001
40
0.750000000000009
40
0.750000000000009
40
1
40
1
40
1
40
1
41
1
10
-0.394913799811292
20
6.32722135061286
30
0
41
1
10
-0.39176836682077
20
6.32444846033573
30
0
41
1
10
-0.388488406577181
20
6.32186168295425
30
0
41
1
10
-0.381566403142131
20
6.31718953975286
30
0
41
1
10
-0.377887007436868
20
6.31508659472502
30
0
41
1
10
-0.37022491081737
20
6.31169706442716
30
0
41
1
10
-0.366254804145342
20
6.31040674643401
30
0
41
1
10
-0.35794647802453
20
6.30889601700255
30
0
41
1
10
-0.353563907701925
20
6.30870335232461
30
0
41
1
10
-0.344995599835357
20
6.3096474881059
30
0
41
1
10
-0.340684924848716
20
6.31079560648985
30
0
41
1
10
-0.332576144960626
20
6.31417396688744
30
0
41
1
10
-0.328692242821006
20
6.31642240799482
30
0
41
1
10
-0.321489218115914
20
6.3215939456986
30
0
41
1
10
-0.318164476683506
20
6.32450219496934
30
0
41
1
10
-0.311908022590586
20
6.33077681434855
30
0
41
1
10
-0.308967085084731
20
6.33416203110167
30
0
41
1
10
-0.300766232707417
20
6.34461234463069
30
0
41
1
10
-0.296040108964064
20
6.35202357617757
30
0
41
1
10
-0.287432431444984
20
6.36735118199186
30
0
41
1
10
-0.283553316434961
20
6.37530507146633
30
0
41
1
10
-0.272955344086199
20
6.39930333387312
30
0
41
1
10
-0.267171029982791
20
6.41559723945636
30
0
41
1
10
-0.25692997095706
20
6.44848157748783
30
0
41
1
10
-0.25250502314799
20
6.46507959466703
30
0
41
1
10
-0.244556108211697
20
6.49847112557535
30
0
41
1
10
-0.241036901726744
20
6.51528035330136
30
0
41
1
10
-0.23149114194635
20
6.56582630636572
30
0
41
1
10
-0.226489017484568
20
6.5994729106236
30
0
41
1
10
-0.218114808322753
20
6.66667162394384
30
0
41
1
10
-0.214764318431179
20
6.70022371847915
30
0
41
1
10
-0.209239354999539
20
6.76723901782026
30
0
41
1
10
-0.207070996833011
20
6.80070221210741
30
0
41
1
10
-0.201940349251316
20
6.90096555412458
30
0
41
1
10
-0.200330815103371
20
6.96763966546041
30
0
41
1
10
-0.200000000000017
20
7.03416121607441
30
0
0
SPLINE
5
132
100
AcDbEntity
8
SK1
62
256
6
ByLayer
370
13
48
1
60
0
100
AcDbSpline
70
4
71
3
72
21
73
17
40
0
40
0
40
0
40
0
40
0.0620714910824458
40
0.13036051496976
40
0.198649538857074
40
0.266938562744388
40
0.335227586631702
40
0.403516610519016
40
0.47180563440633
40
0.608383682180957
40
0.676672706068271
40
0.744961729955585
40
0.813250753842899
40
0.881539777730213
40
0.949828801617527
40
1
40
1
40
1
40
1
41
1
10
-0.394913799811292
20
-6.32721828439904
30
0
41
1
10
-0.394913799811292
20
-6.90653762641452
30
0
41
1
10
-0.394913799811292
20
-8.09321756934102
30
0
41
1
10
-0.394913799811292
20
-9.80498157314139
30
0
41
1
10
-0.394913799811292
20
-11.4638140893219
30
0
41
1
10
-0.394913799811292
20
-13.0147246633634
30
0
41
1
10
-0.394913799811292
20
-14.4558606687731
30
0
41
1
10
-0.394913799811292
20
-15.7849097442956
30
0
41
1
10
-0.394913799811292
20
-17.4047594204778
30
0
41
1
10
-0.394913799811292
20
-18.7870404111631
30
0
41
1
10
-0.394913799811292
20
-19.9145928494951
30
0
41
1
10
-0.394913799811292
20
-20.6247618481558
30
0
41
1
10
-0.394913799811292
20
-21.1908658435729
30
0
41
1
10
-0.394913799811292
20
-21.6019834098091
30
0
41
1
10
-0.394913799811292
20
-21.8217384532977
30
0
41
1
10
-0.394913799811263
20
-21.8658202563548
30
0
41
1
10
-0.394913799811292
20
-21.8654706413013
30
0
0
SPLINE
5
133
100
AcDbEntity
8
SK1
62
256
6
ByLayer
370
18
48
1
60
0
100
AcDbSpline
70
4
71
3
72
51
73
47
40
0
40
0
40
0
40
0
40
0.0312500000000006
40
0.0312500000000006
40
0.0468750000000016
40
0.0468750000000016
40
0.0625000000000026
40
0.0625000000000026
40
0.0781250000000036
40
0.0781250000000036
40
0.0937500000000046
40
0.101562500000005
40
0.101562500000005
40
0.109375000000005
40
0.109375000000005
40
0.125000000000006
40
0.125000000000006
40
0.140625000000007
40
0.140625000000007
40
0.156250000000007
40
0.156250000000007
40
0.171875000000008
40
0.171875000000008
40
0.187500000000009
40
0.187500000000009
40
0.218750000000009
40
0.218750000000009
40
0.25000000000001
40
0.25000000000001
40
0.28125000000001
40
0.28125000000001
40
0.312500000000011
40
0.312500000000011
40
0.375000000000011
40
0.375000000000011
40
0.437500000000011
40
0.437500000000011
40
0.500000000000011
40
0.500000000000011
40
0.625000000000008
40
0.625000000000008
40
0.750000000000006
40
0.750000000000006
40
0.875000000000003
40
0.875000000000003
40
1
40
1
40
1
40
1
41
1
10
-0.394913799811292
20
-6.32721828439901
30
0
41
1
10
-0.411169702827039
20
-6.34154884003178
30
0
41
1
10
-0.428432689769124
20
-6.35475565889095
30
0
41
1
10
-0.456587609313431
20
-6.37205876567259
30
0
41
1
10
-0.466398416496645
20
-6.37741702774107
30
0
41
1
10
-0.486501972755633
20
-6.38684509374406
30
0
41
1
10
-0.496835484302608
20
-6.39094564046627
30
0
41
1
10
-0.518168362769302
20
-6.3976988542467
30
0
41
1
10
-0.529196261060889
20
-6.4003572033352
30
0
41
1
10
-0.551937271601957
20
-6.40390572644711
30
0
41
1
10
-0.569030850267808
20
-6.40516730683922
30
0
41
1
10
-0.586181679144261
20
-6.40431153762214
30
0
41
1
10
-0.597628364481892
20
-6.40326750190812
30
0
41
1
10
-0.603385608753428
20
-6.40250300130214
30
0
41
1
10
-0.620403474265572
20
-6.39954770653125
30
0
41
1
10
-0.631442528804882
20
-6.39670554026134
30
0
41
1
10
-0.652994271508675
20
-6.38952126343978
30
0
41
1
10
-0.6635762300306
20
-6.38514079164267
30
0
41
1
10
-0.6838456211714
20
-6.37529177227788
30
0
41
1
10
-0.693552428201002
20
-6.36983092851585
30
0
41
1
10
-0.712284737644694
20
-6.35805370019304
30
0
41
1
10
-0.721309333004712
20
-6.35173618101936
30
0
41
1
10
-0.738796592350639
20
-6.33839390811318
30
0
41
1
10
-0.747287558608093
20
-6.33134151096425
30
0
41
1
10
-0.771774774816237
20
-6.30953788138899
30
0
41
1
10
-0.786839616984622
20
-6.29414128632044
30
0
41
1
10
-0.815263156517972
20
-6.26217184383674
30
0
41
1
10
-0.82861191461663
20
-6.24559230293653
30
0
41
1
10
-0.854034688294348
20
-6.21154523857419
30
0
41
1
10
-0.866130482320528
20
-6.1940351189366
30
0
41
1
10
-0.889197260559286
20
-6.15850150199267
30
0
41
1
10
-0.90014045687775
20
-6.14052530360527
30
0
41
1
10
-0.931589886782064
20
-6.08609644673811
30
0
41
1
10
-0.950735693127655
20
-6.04915001273994
30
0
41
1
10
-0.986572619190127
20
-5.97432275637723
30
0
41
1
10
-1.00324847625177
20
-5.93643689983455
30
0
41
1
10
-1.03476146769921
20
-5.85992972493543
30
0
41
1
10
-1.04959296411107
20
-5.82130654980756
30
0
41
1
10
-1.09190951976353
20
-5.70451929766091
30
0
41
1
10
-1.11725974479191
20
-5.62540226977166
30
0
41
1
10
-1.1639578554223
20
-5.46549802550047
30
0
41
1
10
-1.18522246232584
20
-5.38492681950902
30
0
41
1
10
-1.22466451933835
20
-5.22271935203617
30
0
41
1
10
-1.2428321325454
20
-5.1410815354084
30
0
41
1
10
-1.27671142477865
20
-4.97683362134603
30
0
41
1
10
-1.29241814186358
20
-4.89422245258601
30
0
41
1
10
-1.30710678118655
20
-4.81115156937966
30
0
0
SPLINE
5
134
100
AcDbEntity
8
SK1
62
256
6
ByLayer
370
18
48
1
60
0
100
AcDbSpline
70
4
71
3
72
51
73
47
40
0
40
0
40
0
40
0
40
0.125000000000003
40
0.125000000000003
40
0.250000000000005
40
0.250000000000005
40
0.375000000000008
40
0.375000000000008
40
0.50000000000001
40
0.50000000000001
40
0.562500000000011
40
0.562500000000011
40
0.625000000000011
40
0.625000000000011
40
0.687500000000011
40
0.687500000000011
40
0.718750000000011
40
0.718750000000011
40
0.75000000000001
40
0.75000000000001
40
0.781250000000009
40
0.781250000000009
40
0.812500000000009
40
0.812500000000009
40
0.828125000000008
40
0.828125000000008
40
0.843750000000008
40
0.843750000000008
40
0.859375000000007
40
0.859375000000007
40
0.875000000000007
40
0.875000000000007
40
0.906250000000005
40
0.906250000000005
40
0.914062500000005
40
0.914062500000005
40
0.921875000000005
40
0.937500000000004
40
0.937500000000004
40
0.953125000000003
40
0.953125000000003
40
0.968750000000002
40
0.968750000000002
40
0.984375000000001
40
0.984375000000001
40
1
40
1
40
1
40
1
41
1
10
-1.30710678118655
20
4.8111517782514
30
0
41
1
10
-1.29243386166999
20
4.89413370391597
30
0
41
1
10
-1.27674450029033
20
4.97666000857456
30
0
41
1
10
-1.24290388240135
20
5.14074733501747
30
0
41
1
10
-1.22475757478614
20
5.22230941297437
30
0
41
1
10
-1.18536324259088
20
5.38437609466149
30
0
41
1
10
-1.1641141016691
20
5.46491938757291
30
0
41
1
10
-1.11750013847291
20
5.62462479791714
30
0
41
1
10
-1.09222933922732
20
5.70354894528973
30
0
41
1
10
-1.05003902511504
20
5.82012130347704
30
0
41
1
10
-1.03525413522215
20
5.85867400558868
30
0
41
1
10
-1.00384791181236
20
5.93504366748635
30
0
41
1
10
-0.987232093239811
20
5.97286244830227
30
0
41
1
10
-0.951537336733765
20
6.0475612269523
30
0
41
1
10
-0.932473247849742
20
6.08444613540038
30
0
41
1
10
-0.901177592378616
20
6.13879101734139
30
0
41
1
10
-0.890290953598992
20
6.15674063815601
30
0
41
1
10
-0.867353405011528
20
6.19222552349751
30
0
41
1
10
-0.85525358147396
20
6.2098275518716
30
0
41
1
10
-0.829832017046726
20
6.24404146668815
30
0
41
1
10
-0.816508756328489
20
6.26067183093176
30
0
41
1
10
-0.78822917837428
20
6.29267436431064
30
0
41
1
10
-0.773280793926858
20
6.30805251056447
30
0
41
1
10
-0.749110346030392
20
6.32978409383841
30
0
41
1
10
-0.740759389627414
20
6.33680322085289
30
0
41
1
10
-0.723321143410601
20
6.3502808336809
30
0
41
1
10
-0.714177802118201
20
6.3567747780167
30
0
41
1
10
-0.695263535743464
20
6.36883407140752
30
0
41
1
10
-0.685506727928441
20
6.37439841042161
30
0
41
1
10
-0.665265234159847
20
6.38439885825292
30
0
41
1
10
-0.654728144683787
20
6.38885411254182
30
0
41
1
10
-0.622102468665219
20
6.39998734213981
30
0
41
1
10
-0.59968773121858
20
6.40423336369165
30
0
41
1
10
-0.570661631866017
20
6.40472651279043
30
0
41
1
10
-0.564821683089775
20
6.40457927715815
30
0
41
1
10
-0.553312890967476
20
6.40381092862668
30
0
41
1
10
-0.536205505855378
20
6.40195065166941
30
0
41
1
10
-0.519541799584147
20
6.39807453657346
30
0
41
1
10
-0.497682675631438
20
6.39127312214092
30
0
41
1
10
-0.487153207843136
20
6.38712350886505
30
0
41
1
10
-0.466917648563935
20
6.37769203793539
30
0
41
1
10
-0.457177342303623
20
6.37239779961379
30
0
41
1
10
-0.43831629492334
20
6.3608578974891
30
0
41
1
10
-0.429170091135489
20
6.35459039773457
30
0
41
1
10
-0.411568516590108
20
6.34138290087219
30
0
41
1
10
-0.403103547019441
20
6.33444111034481
30
0
41
1
10
-0.394913799811292
20
6.32722135062522
30
0
0
SPLINE
5
135
100
AcDbEntity
8
SK1
62
256
6
ByLayer
370
13
48
1
60
0
100
AcDbSpline
70
4
71
3
72
21
73
17
40
0
40
0
40
0
40
0
40
0.0501775045473734
40
0.118466082284342
40
0.186754660021311
40
0.255043237758279
40
0.323331815495248
40
0.391620393232217
40
0.528197548706154
40
0.596486126443123
40
0.664774704180092
40
0.73306328191706
40
0.801351859654029
40
0.869640437390998
40
0.937929015127966
40
1
40
1
40
1
40
1
41
1
10
-0.394913799811292
20
21.8654704309263
30
0
41
1
10
-0.394913799811292
20
21.8658250798112
30
0
41
1
10
-0.394913799811292
20
21.821745552036
30
0
41
1
10
-0.394913799811292
20
21.6019829919256
30
0
41
1
10
-0.394913799811292
20
21.1908660117695
30
0
41
1
10
-0.394913799811292
20
20.6247611340725
30
0
41
1
10
-0.394913799811292
20
19.9145926563567
30
0
41
1
10
-0.394913799811292
20
18.7870406318774
30
0
41
1
10
-0.394913799811292
20
17.4047589502432
30
0
41
1
10
-0.394913799811292
20
15.7849099352292
30
0
41
1
10
-0.394913799811292
20
14.4558608746283
30
0
41
1
10
-0.394913799811292
20
13.014724351229
30
0
41
1
10
-0.394913799811292
20
11.4638144327396
30
0
41
1
10
-0.394913799811292
20
9.80498177095927
30
0
41
1
10
-0.394913799811292
20
8.09321828866487
30
0
41
1
10
-0.394913799811292
20
6.90653972901185
30
0
41
1
10
-0.394913799811292
20
6.32722135061286
30
0
0
SPLINE
5
136
100
AcDbEntity
8
SK1
62
256
6
ByLayer
370
18
48
1
60
0
100
AcDbSpline
70
4
71
3
72
40
73
36
40
0
40
0
40
0
40
0
40
0.125000000000001
40
0.125000000000001
40
0.187500000000001
40
0.187500000000001
40
0.250000000000001
40
0.250000000000001
40
0.312500000000001
40
0.312500000000001
40
0.328125000000001
40
0.328125000000001
40
0.343750000000001
40
0.375
40
0.375
40
0.4375
40
0.4375
40
0.5
40
0.5625
40
0.5625
40
0.625
40
0.625
40
0.640625
40
0.640625
40
0.65625
40
0.65625
40
0.6875
40
0.6875
40
0.75
40
0.75
40
0.8125
40
0.8125
40
0.875
40
0.875
40
1
40
1
40
1
40
1
41
1
10
-1.30710678118655
20
-4.8111515693796
30
0
41
1
10
-1.37464191770107
20
-4.42920989906065
30
0
41
1
10
-1.43848245106358
20
-4.04286538655003
30
0
41
1
10
-1.52581080346147
20
-3.4555709451387
30
0
41
1
10
-1.55350142719044
20
-3.25850341404765
30
0
41
1
10
-1.60546482604906
20
-2.86151288497595
30
0
41
1
10
-1.62973519898719
20
-2.6615890156875
30
0
41
1
10
-1.67414509281366
20
-2.25856982386534
30
0
41
1
10
-1.69427910225542
20
-2.05547235697085
30
0
41
1
10
-1.71638790779505
20
-1.79939862844844
30
0
41
1
10
-1.72065969674747
20
-1.74803956652656
30
0
41
1
10
-1.72887208385961
20
-1.64527687502962
30
0
41
1
10
-1.74069036277351
20
-1.49111947898439
30
0
41
1
10
-1.75097190728465
20
-1.33692150334681
30
0
41
1
10
-1.76938952483024
20
-1.02847005779319
30
0
41
1
10
-1.77881369580271
20
-0.822761881301432
30
0
41
1
10
-1.79137807494828
20
-0.411189125581416
30
0
41
1
10
-1.79754609551321
20
0.0005418097730683
30
0
41
1
10
-1.79135312802683
20
0.412582134739552
30
0
41
1
10
-1.77873477820947
20
0.82478135977604
30
0
41
1
10
-1.76926982289669
20
1.03095952328059
30
0
41
1
10
-1.75383938151629
20
1.28877539719627
30
0
41
1
10
-1.75057294247844
20
1.340343237501
30
0
41
1
10
-1.74368713518695
20
1.44348814091276
30
0
41
1
10
-1.74006503391183
20
1.4951017046248
30
0
41
1
10
-1.72870229322061
20
1.64966999837915
30
0
41
1
10
-1.72047269473447
20
1.75227000555529
30
0
41
1
10
-1.69395938565037
20
2.05879746438532
30
0
41
1
10
-1.67384597566206
20
2.26145078101035
30
0
41
1
10
-1.629485287899
20
2.66369063393995
30
0
41
1
10
-1.60524340635007
20
2.86327920729124
30
0
41
1
10
-1.5533368167803
20
3.25969288493101
30
0
41
1
10
-1.52567448156807
20
3.45651882726707
30
0
41
1
10
-1.43842306954178
20
4.04321174825219
30
0
41
1
10
-1.374622793295
20
4.42931851789501
30
0
41
1
10
-1.3071067811866
20
4.81115177825131
30
0
0
SPLINE
5
137
100
AcDbEntity
8
SK1
62
256
6
ByLayer
370
13
48
1
60
0
100
AcDbSpline
70
4
71
3
72
49
73
45
40
0
40
0
40
0
40
0
40
0.0205806420834146
40
0.0487849409498387
40
0.0769892398162628
40
0.105193538682687
40
0.133397837549111
40
0.161602136415535
40
0.218010734148383
40
0.246215033014807
40
0.274419331881231
40
0.302623630747655
40
0.330827929614079
40
0.359032228480503
40
0.387236527346927
40
0.415440826213351
40
0.429542975646564
40
0.443645125079776
40
0.457747274512988
40
0.4718494239462
40
0.485951573379412
40
0.493002648096018
40
0.500053722812624
40
0.50710479752923
40
0.514155872245836
40
0.528258021679048
40
0.54236017111226
40
0.556462320545472
40
0.570564469978684
40
0.584666619411896
40
0.61287091827832
40
0.641075217144744
40
0.669279516011168
40
0.697483814877592
40
0.725688113744016
40
0.75389241261044
40
0.782096711476864
40
0.838505309209712
40
0.866709608076137
40
0.894913906942561
40
0.923118205808985
40
0.951322504675409
40
0.979526803541833
40
1
40
1
40
1
40
1
41
1
10
-1.99503997793928
20
21.8252862012492
30
0
41
1
10
-1.99503997793928
20
21.8253760699236
30
0
41
1
10
-1.99503997793928
20
21.7812238863457
30
0
41
1
10
-1.99503997793928
20
21.5622159608078
30
0
41
1
10
-1.99503997793928
20
21.1516905297668
30
0
41
1
10
-1.99503997793928
20
20.5863476884834
30
0
41
1
10
-1.99503997793928
20
19.8770915138249
30
0
41
1
10
-1.99503997793928
20
18.7508484467722
30
0
41
1
10
-1.99503997793928
20
17.370463175446
30
0
41
1
10
-1.99503997793928
20
15.752471971849
30
0
41
1
10
-1.99503997793928
20
14.4250897201646
30
0
41
1
10
-1.99503997793928
20
12.985830725026
30
0
41
1
10
-1.99503997793928
20
11.4370507512064
30
0
41
1
10
-1.99503997793928
20
9.78067154978808
30
0
41
1
10
-1.99503997793928
20
8.01821733349291
30
0
41
1
10
-1.99503997793928
20
6.46319635117558
30
0
41
1
10
-1.99503997793928
20
5.16749918372616
30
0
41
1
10
-1.99503997793928
20
4.17226659327741
30
0
41
1
10
-1.99503997793928
20
3.15436880408234
30
0
41
1
10
-1.99503997793928
20
2.11640247274798
30
0
41
1
10
-1.99503997793928
20
1.23881045451824
30
0
41
1
10
-1.99503997793928
20
0.53126948289281
30
0
41
1
10
-1.99503997793928
20
7.43625606E-08
30
0
41
1
10
-1.99503997793928
20
-0.53126937109505
30
0
41
1
10
-1.99503997793928
20
-1.23881043770962
30
0
41
1
10
-1.99503997793928
20
-2.11640245296422
30
0
41
1
10
-1.99503997793928
20
-3.15436853749512
30
0
41
1
10
-1.99503997793928
20
-4.17226658860133
30
0
41
1
10
-1.99503997793928
20
-5.16749921349111
30
0
41
1
10
-1.99503997793928
20
-6.46319592062625
30
0
41
1
10
-1.99503997793928
20
-8.01821749841287
30
0
41
1
10
-1.99503997793928
20
-9.7806713457135
30
0
41
1
10
-1.99503997793928
20
-11.4370504129058
30
0
41
1
10
-1.99503997793928
20
-12.9858310385527
30
0
41
1
10
-1.99503997793928
20
-14.4250895103889
30
0
41
1
10
-1.99503997793928
20
-15.7524717843982
30
0
41
1
10
-1.99503997793928
20
-17.370463645283
30
0
41
1
10
-1.99503997793928
20
-18.7508482253859
30
0
41
1
10
-1.99503997793928
20
-19.8770917100388
30
0
41
1
10
-1.99503997793928
20
-20.5863484011186
30
0
41
1
10
-1.99503997793928
20
-21.1516903613971
30
0
41
1
10
-1.99503997793928
20
-21.5622163798915
30
0
41
1
10
-1.99503997793928
20
-21.7809189462592
30
0
41
1
10
-1.99503997793926
20
-21.825181246113
30
0
41
1
10
-1.99503997793928
20
-21.8252861511934
30
0
0
SPLINE
5
138
100
AcDbEntity
8
SK1
62
256
6
ByLayer
370
18
48
1
60
0
100
AcDbSpline
70
4
71
3
72
49
73
45
40
0
40
0
40
0
40
0
40
0.0137023111180024
40
0.0423080713281381
40
0.0709138315382737
40
0.0995195917484094
40
0.128125351958545
40
0.156731112168681
40
0.213942632588952
40
0.242548392799088
40
0.271154153009223
40
0.299759913219359
40
0.328365673429495
40
0.35697143363963
40
0.385577193849766
40
0.414182954059902
40
0.428485834164969
40
0.442788714270037
40
0.457091594375105
40
0.471394474480173
40
0.48569735458524
40
0.492848794637774
40
0.500000234690308
40
0.507151674742842
40
0.514303114795376
40
0.528605994900444
40
0.542908875005512
40
0.55721175511058
40
0.571514635215647
40
0.585817515320715
40
0.614423275530851
40
0.643029035740987
40
0.671634795951122
40
0.700240556161258
40
0.728846316371394
40
0.757452076581529
40
0.786057836791665
40
0.843269357211936
40
0.871875117422072
40
0.900480877632207
40
0.929086637842343
40
0.957692398052479
40
0.986298158262614
40
1
40
1
40
1
40
1
41
1
10
-2.19999999999999
20
22.0136323381905
30
0
41
1
10
-2.19999999999999
20
22.0053276305729
30
0
41
1
10
-2.19999999999999
20
21.9554440395487
30
0
41
1
10
-2.19999999999999
20
21.7550269215783
30
0
41
1
10
-2.19999999999999
20
21.3416333570605
30
0
41
1
10
-2.19999999999999
20
20.7725957724454
30
0
41
1
10
-2.19999999999999
20
20.0589162847047
30
0
41
1
10
-2.19999999999999
20
18.9263267207688
30
0
41
1
10
-2.19999999999999
20
17.5367466797246
30
0
41
1
10
-2.19999999999999
20
15.9097478536278
30
0
41
1
10
-2.19999999999999
20
14.5742840575192
30
0
41
1
10
-2.19999999999999
20
13.1259218425112
30
0
41
1
10
-2.19999999999999
20
11.5668148046225
30
0
41
1
10
-2.19999999999999
20
9.89853996914991
30
0
41
1
10
-2.19999999999999
20
8.12208977576526
30
0
41
1
10
-2.19999999999999
20
6.55235660022589
30
0
41
1
10
-2.19999999999999
20
5.24422917335971
30
0
41
1
10
-2.19999999999999
20
4.2375522406841
30
0
41
1
10
-2.19999999999999
20
3.20644372216569
30
0
41
1
10
-2.19999999999999
20
2.15314018801405
30
0
41
1
10
-2.19999999999999
20
1.26034253962158
30
0
41
1
10
-2.19999999999999
20
0.540965390862539
30
0
41
1
10
-2.19999999999999
20
2.64082871E-08
30
0
41
1
10
-2.19999999999999
20
-0.540965319759152
30
0
41
1
10
-2.19999999999999
20
-1.26034245765445
30
0
41
1
10
-2.19999999999999
20
-2.15314020845372
30
0
41
1
10
-2.19999999999999
20
-3.20644349821168
30
0
41
1
10
-2.19999999999999
20
-4.23755215854527
30
0
41
1
10
-2.19999999999999
20
-5.24422924769223
30
0
41
1
10
-2.19999999999999
20
-6.55235618011341
30
0
41
1
10
-2.19999999999999
20
-8.12208991237512
30
0
41
1
10
-2.19999999999999
20
-9.89853979541101
30
0
41
1
10
-2.19999999999999
20
-11.5668144415121
30
0
41
1
10
-2.19999999999999
20
-13.1259221492871
30
0
41
1
10
-2.19999999999999
20
-14.574283866752
30
0
41
1
10
-2.19999999999999
20
-15.9097476492909
30
0
41
1
10
-2.19999999999999
20
-17.5367471514895
30
0
41
1
10
-2.19999999999999
20
-18.9263265026412
30
0
41
1
10
-2.19999999999999
20
-20.0589164660072
30
0
41
1
10
-2.19999999999999
20
-20.7725964921017
30
0
41
1
10
-2.19999999999999
20
-21.3416331895302
30
0
41
1
10
-2.19999999999999
20
-21.7550273348429
30
0
41
1
10
-2.19999999999999
20
-21.9554433966977
30
0
41
1
10
-2.19999999999999
20
-22.0053267962037
30
0
41
1
10
-2.19999999999999
20
-22.0136316614043
30
0
0
SPLINE
5
139
100
AcDbEntity
8
SK1
62
256
6
ByLayer
370
18
48
1
60
0
100
AcDbSpline
70
4
71
3
72
49
73
45
40
0
40
0
40
0
40
0
40
0.0270948196821403
40
0.0549127532564014
40
0.0827306868306627
40
0.110548620404924
40
0.138366553979185
40
0.166184487553446
40
0.221820354701969
40
0.24963828827623
40
0.277456221850491
40
0.305274155424752
40
0.333092088999013
40
0.360910022573275
40
0.388727956147536
40
0.416545889721797
40
0.430454856508928
40
0.444363823296058
40
0.458272790083189
40
0.472181756870319
40
0.48609072365745
40
0.493045207051015
40
0.499999690444581
40
0.506954173838146
40
0.513908657231711
40
0.527817624018842
40
0.541726590805972
40
0.555635557593103
40
0.569544524380233
40
0.583453491167364
40
0.611271424741625
40
0.639089358315887
40
0.666907291890148
40
0.694725225464409
40
0.72254315903867
40
0.750361092612931
40
0.778179026187193
40
0.833814893335715
40
0.861632826909976
40
0.889450760484237
40
0.917268694058498
40
0.94508662763276
40
0.972904561207021
40
1
40
1
40
1
40
1
41
1
10
-36.5
20
21.1524103635314
30
0
41
1
10
-36.5
20
21.16901016831
30
0
41
1
10
-36.5
20
21.1349478836566
30
0
41
1
10
-36.5
20
20.9025884164263
30
0
41
1
10
-36.5
20
20.5018751860753
30
0
41
1
10
-36.5
20
19.9491724688865
30
0
41
1
10
-36.5
20
19.2550489357272
30
0
41
1
10
-36.5
20
18.1505179338898
30
0
41
1
10
-36.5
20
16.8015889830236
30
0
41
1
10
-36.5
20
15.2144138486304
30
0
41
1
10
-36.5
20
13.9146794509994
30
0
41
1
10
-36.5
20
12.5065635742002
30
0
41
1
10
-36.5
20
10.9931136245939
30
0
41
1
10
-36.5
20
9.37743069816284
30
0
41
1
10
-36.5
20
7.6628582618342
30
0
41
1
10
-36.5
20
6.15816931379931
30
0
41
1
10
-36.5
20
4.9049974336175
30
0
41
1
10
-36.5
20
3.94891719908253
30
0
41
1
10
-36.5
20
2.97621477071243
30
0
41
1
10
-36.5
20
1.99071870036124
30
0
41
1
10
-36.5
20
1.16514681856438
30
0
41
1
10
-36.5
20
0.498098713248481
30
0
41
1
10
-36.5
20
2.384194602E-07
30
0
41
1
10
-36.5
20
-0.498098462230814
30
0
41
1
10
-36.5
20
-1.16514702467006
30
0
41
1
10
-36.5
20
-1.99071854296869
30
0
41
1
10
-36.5
20
-2.97621435827227
30
0
41
1
10
-36.5
20
-3.94891745941501
30
0
41
1
10
-36.5
20
-4.90499731091177
30
0
41
1
10
-36.5
20
-6.15816884754437
30
0
41
1
10
-36.5
20
-7.6628585236061
30
0
41
1
10
-36.5
20
-9.37743039030653
30
0
41
1
10
-36.5
20
-10.9931133711701
30
0
41
1
10
-36.5
20
-12.5065639108223
30
0
41
1
10
-36.5
20
-13.9146791761936
30
0
41
1
10
-36.5
20
-15.2144137189484
30
0
41
1
10
-36.5
20
-16.8015894462653
30
0
41
1
10
-36.5
20
-18.1505177013548
30
0
41
1
10
-36.5
20
-19.2550491829544
30
0
41
1
10
-36.5
20
-19.9491731575018
30
0
41
1
10
-36.5
20
-20.5018750148337
30
0
41
1
10
-36.5
20
-20.9025888554179
30
0
41
1
10
-36.5
20
-21.1349503344255
30
0
41
1
10
-36.5
20
-21.1690108796254
30
0
41
1
10
-36.5
20
-21.1524093339587
30
0
0
SPLINE
5
13A
100
AcDbEntity
8
1
62
256
6
ByLayer
370
18
48
1
60
0
100
AcDbSpline
70
4
71
3
72
18
73
14
40
0
40
0
40
0
40
0
40
0.10650232087754
40
0.20981972088844
40
0.309970050664635
40
0.4069729224004
40
0.50084992082586
40
0.591624858696252
40
0.679324076625919
40
0.763976789997951
40
0.845615488386079
40
0.924276395492333
40
1
40
1
40
1
40
1
41
1
10
57.59011863841
20
43.483085351823
30
0
41
1
10
57.5885415273357
20
43.4837643036506
30
0
41
1
10
57.5854344682343
20
43.4851019034492
30
0
41
1
10
57.5809243323184
20
43.4874049623886
30
0
41
1
10
57.5766153234623
20
43.4898663474787
30
0
41
1
10
57.572512622517
20
43.4924901579403
30
0
41
1
10
57.5686149102103
20
43.4952524658373
30
0
41
1
10
57.5649224452295
20
43.4981370391756
30
0
41
1
10
57.5614353720448
20
43.5011268528404
30
0
41
1
10
57.5581528367139
20
43.5042043544701
30
0
41
1
10
57.5550778698625
20
43.5073584152507
30
0
41
1
10
57.5521996835921
20
43.5105579925821
30
0
41
1
10
57.5504035869187
20
43.5127918768383
30
0
41
1
10
57.54952262475
20
43.5138875681493
30
0
0
SPLINE
5
13B
100
AcDbEntity
8
1
62
256
6
ByLayer
370
18
48
1
60
0
100
AcDbSpline
70
4
71
3
72
16
73
12
40
0
40
0
40
0
40
0
40
0.117319552192522
40
0.233085853411077
40
0.347299362420258
40
0.459960556948126
40
0.571069934744747
40
0.680628014712971
40
0.788635338118842
40
0.895092469888311
40
1
40
1
40
1
40
1
41
1
10
57.74894541545
20
43.427732523702
30
0
41
1
10
57.7426777667126
20
43.4295553268701
30
0
41
1
10
57.730225449707
20
43.433176800223
30
0
41
1
10
57.7117192560249
20
43.4388914087642
30
0
41
1
10
57.6934972967187
20
43.4447568898136
30
0
41
1
10
57.6755628433777
20
43.4507866733875
30
0
41
1
10
57.6579151153778
20
43.4569662690683
30
0
41
1
10
57.6405540288848
20
43.4632869201774
30
0
41
1
10
57.623480658135
20
43.4697449449493
30
0
41
1
10
57.6066908752588
20
43.4763120560555
30
0
41
1
10
57.5956156516797
20
43.4808386486787
30
0
41
1
10
57.59011863841
20
43.48308535183
30
0
0
SPLINE
5
13C
100
AcDbEntity
8
1
62
256
6
ByLayer
370
18
48
1
60
0
100
AcDbSpline
70
4
71
2
72
10
73
7
40
0
40
0
40
0
40
0.5
40
0.5
40
0.75
40
0.75
40
1
40
1
40
1
41
1
10
57.7489454154435
20
43.427732523738
30
0
41
1
10
57.8165392416659
20
43.4082378364849
30
0
41
1
10
57.864235482769
20
43.3565142889902
30
0
41
1
10
57.8902224727208
20
43.328333047074
30
0
41
1
10
57.9068593747304
20
43.2924776461037
30
0
41
1
10
57.9248252361523
20
43.2537581077733
30
0
41
1
10
57.928946197083
20
43.210735586972
30
0
0
SPLINE
5
13D
100
AcDbEntity
8
1
62
256
6
ByLayer
370
18
48
1
60
0
100
AcDbSpline
70
4
71
2
72
6
73
3
40
0
40
0
40
0
40
1
40
1
40
1
41
1
10
57.9289461971205
20
43.210735587058
30
0
41
1
10
57.9378374892931
20
43.1155165540399
30
0
41
1
10
57.9378609595315
20
43.0200000006976
30
0
0
SPLINE
5
13E
100
AcDbEntity
8
1
62
256
6
ByLayer
370
18
48
1
60
0
100
AcDbSpline
70
4
71
3
72
17
73
13
40
0
40
0
40
0
40
0
40
0.100317411817136
40
0.20054131029345
40
0.300680278273658
40
0.400742920447643
40
0.500737861201925
40
0.600673742442882
40
0.70055922139929
40
0.800402968404956
40
0.900213664663639
40
1
40
1
40
1
40
1
41
1
10
57.92894619712
20
42.789264412942
30
0
41
1
10
57.9295231228817
20
42.7956087701754
30
0
41
1
10
57.9306764366097
20
42.8082915705938
30
0
41
1
10
57.9321818251213
20
42.8273460527878
30
0
41
1
10
57.9335216262512
20
42.8464085209795
30
0
41
1
10
57.9346798037513
20
42.8654803042831
30
0
41
1
10
57.9356607269913
20
42.8845589293337
30
0
41
1
10
57.9364629358429
20
42.9036429412488
30
0
41
1
10
57.9370879043616
20
42.9227306135195
30
0
41
1
10
57.937531197509
20
42.9418202936691
30
0
41
1
10
57.9378090731845
20
42.9609103103435
30
0
41
1
10
57.9378436654888
20
42.9736372874275
30
0
41
1
10
57.93786095953
20
42.9799999993024
30
0
0
SPLINE
5
13F
100
AcDbEntity
8
1
62
256
6
ByLayer
370
18
48
1
60
0
100
AcDbSpline
70
4
71
3
72
38
73
34
40
0
40
0
40
0
40
0
40
0.0320161803202341
40
0.0634137556517561
40
0.0941938978135319
40
0.124357850632162
40
0.153906935795928
40
0.182842559298671
40
0.21116621854079
40
0.238879510169611
40
0.265984138747578
40
0.292481926351468
40
0.318374823219161
40
0.343664919578619
40
0.368354458810697
40
0.39244585212031
40
0.415941694916272
40
0.438844785127739
40
0.461158143719551
40
0.482885037706471
40
0.504029006008617
40
0.551366811163465
40
0.597409666800774
40
0.642207857911425
40
0.685815975457821
40
0.728293199080113
40
0.769703557232136
40
0.810116149643951
40
0.849605314211493
40
0.888250718111306
40
0.926137351649984
40
0.963355403684997
40
1
40
1
40
1
40
1
41
1
10
57.74894541544
20
42.572267476262
30
0
41
1
10
57.7515736233648
20
42.5730485607148
30
0
41
1
10
57.756779257937
20
42.5745956377907
30
0
41
1
10
57.7644507904023
20
42.577231715862
30
0
41
1
10
57.7719249095622
20
42.5800558999428
30
0
41
1
10
57.7791975153458
20
42.583078910145
30
0
41
1
10
57.7862696764354
20
42.5862816340918
30
0
41
1
10
57.7931411178642
20
42.5896529401733
30
0
41
1
10
57.7998119140361
20
42.5931798787035
30
0
41
1
10
57.8062820488634
20
42.5968502562548
30
0
41
1
10
57.8125515300024
20
42.600651992735
30
0
41
1
10
57.8186203592458
20
42.6045733110595
30
0
41
1
10
57.8244885401635
20
42.6086027081727
30
0
41
1
10
57.8301560763678
20
42.6127289801844
30
0
41
1
10
57.8356229711881
20
42.6169412313228
30
0
41
1
10
57.840889230658
20
42.6212288838923
30
0
41
1
10
57.8459548524165
20
42.6255816889976
30
0
41
1
10
57.8508198658027
20
42.6299897234822
30
0
41
1
10
57.8554841879108
20
42.6344434298673
30
0
41
1
10
57.8599481402181
20
42.6389334948112
30
0
41
1
10
57.8660095567999
20
42.645358030493
30
0
41
1
10
57.8734588192032
20
42.6539468168096
30
0
41
1
10
57.8820027422796
20
42.6650200836322
30
0
41
1
10
57.8898489226435
20
42.6764694413074
30
0
41
1
10
57.8969976055379
20
42.6882493808284
30
0
41
1
10
57.9034486190906
20
42.7003153813828
30
0
41
1
10
57.9092017357358
20
42.7126233474438
30
0
41
1
10
57.9142571546107
20
42.7251298346291
30
0
41
1
10
57.9186132961071
20
42.7377925471705
30
0
41
1
10
57.9222748801839
20
42.7505689765116
30
0
41
1
10
57.9252236999947
20
42.7634219116356
30
0
41
1
10
57.9275246334317
20
42.7762999416636
30
0
41
1
10
57.928474801506
20
42.7849653481022
30
0
41
1
10
57.92894619708
20
42.789264413028
30
0
0
SPLINE
5
140
100
AcDbEntity
8
1
62
256
6
ByLayer
370
18
48
1
60
0
100
AcDbSpline
70
4
71
2
72
6
73
3
40
0
40
0
40
0
40
1
40
1
40
1
41
1
10
57.748945415452
20
42.572267476298
30
0
41
1
10
57.6679467190157
20
42.5490152433281
30
0
41
1
10
57.5901186384125
20
42.51691464817
30
0
0
SPLINE
5
141
100
AcDbEntity
8
1
62
256
6
ByLayer
370
18
48
1
60
0
100
AcDbSpline
70
4
71
2
72
6
73
3
40
0
40
0
40
0
40
1
40
1
40
1
41
1
10
57.5901186384115
20
42.516914648177
30
0
41
1
10
57.565819759419
20
42.5067453291368
30
0
41
1
10
57.5495226247505
20
42.486112431851
30
0
0
LINE
5
7D
100
AcDbEntity
8
1
62
256
6
ByLayer
370
18
48
1
60
0
100
AcDbLine
10
0
20
-31.2
30
0
11
0.3
21
-31.5
31
0
39
0
210
0
220
0
230
1
0
LINE
5
7E
100
AcDbEntity
8
1
62
256
6
ByLayer
370
18
48
1
60
0
100
AcDbLine
10
0.3
20
31.5
30
0
11
0
21
31.2
31
0
39
0
210
0
220
0
230
1
0
LINE
5
7F
100
AcDbEntity
8
1
62
256
6
ByLayer
370
18
48
1
60
0
100
AcDbLine
10
22.279208
20
31.5
30
0
11
0.3
21
31.5
31
0
39
0
210
0
220
0
230
1
0
LINE
5
80
100
AcDbEntity
8
1
62
256
6
ByLayer
370
18
48
1
60
0
100
AcDbLine
10
0.3
20
-31.5
30
0
11
22
21
-31.5
31
0
39
0
210
0
220
0
230
1
0
LINE
5
81
100
AcDbEntity
8
81
62
256
6
ByLayer
370
18
48
1
60
0
100
AcDbLine
10
65
20
45
30
0
11
70
21
45
31
0
39
0
210
0
220
0
230
1
0
LINE
5
82
100
AcDbEntity
8
80
62
256
6
ByLayer
370
18
48
1
60
0
100
AcDbLine
10
0
20
0
30
0
11
-5
21
0
31
0
39
0
210
0
220
0
230
1
0
LINE
5
83
100
AcDbEntity
8
1
62
256
6
ByLayer
370
18
48
1
60
0
100
AcDbLine
10
56.626608
20
44.675
30
0
11
57.805434
21
44.675
31
0
39
0
210
0
220
0
230
1
0
LINE
5
84
100
AcDbEntity
8
1
62
256
6
ByLayer
370
18
48
1
60
0
100
AcDbLine
10
56.626608
20
41.325
30
0
11
57.805434
21
41.325
31
0
39
0
210
0
220
0
230
1
0
LINE
5
85
100
AcDbEntity
8
1
62
256
6
ByLayer
370
18
48
1
60
0
100
AcDbLine
10
57.805434
20
41.325
30
0
11
60.716396
21
41.325
31
0
39
0
210
0
220
0
230
1
0
LINE
5
86
100
AcDbEntity
8
1
62
256
6
ByLayer
370
18
48
1
60
0
100
AcDbLine
10
57.805434
20
41.325
30
0
11
57.8053
21
41.400016
31
0
39
0
210
0
220
0
230
1
0
LINE
5
87
100
AcDbEntity
8
1
62
256
6
ByLayer
370
18
48
1
60
0
100
AcDbLine
10
57.805434
20
44.675
30
0
11
60.716396
21
44.675
31
0
39
0
210
0
220
0
230
1
0
LINE
5
88
100
AcDbEntity
8
1
62
256
6
ByLayer
370
18
48
1
60
0
100
AcDbLine
10
57.8053
20
44.599984
30
0
11
57.805434
21
44.675
31
0
39
0
210
0
220
0
230
1
0
LINE
5
89
100
AcDbEntity
8
1
62
256
6
ByLayer
370
18
48
1
60
0
100
AcDbLine
10
26.780536
20
44.675
30
0
11
28.2
21
44.675
31
0
39
0
210
0
220
0
230
1
0
LINE
5
8A
100
AcDbEntity
8
1
62
256
6
ByLayer
370
13
48
1
60
0
100
AcDbLine
10
23.576849
20
32.65
30
0
11
28.2
21
32.65
31
0
39
0
210
0
220
0
230
1
0
LINE
5
8B
100
AcDbEntity
8
1
62
256
6
ByLayer
370
13
48
1
60
0
100
AcDbLine
10
28.2
20
32.65
30
0
11
28.2
21
31.65
31
0
39
0
210
0
220
0
230
1
0
LINE
5
8C
100
AcDbEntity
8
1
62
256
6
ByLayer
370
18
48
1
60
0
100
AcDbLine
10
28.2
20
44.675
30
0
11
31.893237
21
44.675
31
0
39
0
210
0
220
0
230
1
0
LINE
5
8D
100
AcDbEntity
8
1
62
256
6
ByLayer
370
13
48
1
60
0
100
AcDbLine
10
28.2
20
32.65
30
0
11
28.2
21
44.675
31
0
39
0
210
0
220
0
230
1
0
LINE
5
8E
100
AcDbEntity
8
1
62
256
6
ByLayer
370
13
48
1
60
0
100
AcDbLine
10
28.2
20
32.65
30
0
11
31.893237
21
32.65
31
0
39
0
210
0
220
0
230
1
0
LINE
5
8F
100
AcDbEntity
8
1
62
256
6
ByLayer
370
18
48
1
60
0
100
AcDbLine
10
32.279251
20
44.675
30
0
11
31.893237
21
44.675
31
0
39
0
210
0
220
0
230
1
0
LINE
5
90
100
AcDbEntity
8
1
62
256
6
ByLayer
370
18
48
1
60
0
100
AcDbLine
10
31.893237
20
32.65
30
0
11
31.893237
21
44.675
31
0
39
0
210
0
220
0
230
1
0
LINE
5
91
100
AcDbEntity
8
1
62
256
6
ByLayer
370
18
48
1
60
0
100
AcDbLine
10
32.4
20
44.675
30
0
11
32.279216
21
44.675
31
0
39
0
210
0
220
0
230
1
0
LINE
5
92
100
AcDbEntity
8
1
62
256
6
ByLayer
370
18
48
1
60
0
100
AcDbLine
10
32.279216
20
44.675
30
0
11
32.279216
21
32.65
31
0
39
0
210
0
220
0
230
1
0
LINE
5
93
100
AcDbEntity
8
1
62
256
6
ByLayer
370
13
48
1
60
0
100
AcDbLine
10
32.4
20
32.65
30
0
11
32.279216
21
32.65
31
0
39
0
210
0
220
0
230
1
0
LINE
5
94
100
AcDbEntity
8
1
62
256
6
ByLayer
370
18
48
1
60
0
100
AcDbLine
10
56.626628
20
44.675
30
0
11
53.5
21
44.675
31
0
39
0
210
0
220
0
230
1
0
LINE
5
95
100
AcDbEntity
8
1
62
256
6
ByLayer
370
18
48
1
60
0
100
AcDbLine
10
56.626628
20
41.325
30
0
11
53.5
21
41.325
31
0
39
0
210
0
220
0
230
1
0
LINE
5
96
100
AcDbEntity
8
1
62
256
6
ByLayer
370
18
48
1
60
0
100
AcDbLine
10
57
20
43.274969
30
0
11
57
21
42.725031
31
0
39
0
210
0
220
0
230
1
0
LINE
5
97
100
AcDbEntity
8
1
62
256
6
ByLayer
370
18
48
1
60
0
100
AcDbLine
10
29.399843
20
31.65
30
0
11
28.400157
21
31.65
31
0
39
0
210
0
220
0
230
1
0
LINE
5
98
100
AcDbEntity
8
1
62
256
6
ByLayer
370
18
48
1
60
0
100
AcDbLine
10
29.399843
20
-16.75
30
0
11
28.400157
21
-16.75
31
0
39
0
210
0
220
0
230
1
0
LINE
5
99
100
AcDbEntity
8
1
62
256
6
ByLayer
370
18
48
1
60
0
100
AcDbLine
10
26.134546
20
31.65
30
0
11
28.4
21
31.65
31
0
39
0
210
0
220
0
230
1
0
LINE
5
9A
100
AcDbEntity
8
1
62
256
6
ByLayer
370
18
48
1
60
0
100
AcDbLine
10
28.4
20
-16.75
30
0
11
26.134546
21
-16.75
31
0
39
0
210
0
220
0
230
1
0
LINE
5
9B
100
AcDbEntity
8
1
62
256
6
ByLayer
370
18
48
1
60
0
100
AcDbLine
10
28.4
20
31.65
30
0
11
28.4
21
-16.75
31
0
39
0
210
0
220
0
230
1
0
LINE
5
9C
100
AcDbEntity
8
1
62
256
6
ByLayer
370
18
48
1
60
0
100
AcDbLine
10
29.4
20
31.65
30
0
11
31.4
21
31.65
31
0
39
0
210
0
220
0
230
1
0
LINE
5
9D
100
AcDbEntity
8
1
62
256
6
ByLayer
370
18
48
1
60
0
100
AcDbLine
10
38.9
20
-16.75
30
0
11
29.4
21
-16.75
31
0
39
0
210
0
220
0
230
1
0
LINE
5
9E
100
AcDbEntity
8
1
62
256
6
ByLayer
370
18
48
1
60
0
100
AcDbLine
10
50.4
20
39.725
30
0
11
50.4
21
27.1
31
0
39
0
210
0
220
0
230
1
0
LINE
5
9F
100
AcDbEntity
8
1
62
256
6
ByLayer
370
18
48
1
60
0
100
AcDbLine
10
38.9
20
-16.75
30
0
11
50.4
21
27.1
31
0
39
0
210
0
220
0
230
1
0
LINE
5
A0
100
AcDbEntity
8
1
62
256
6
ByLayer
370
18
48
1
60
0
100
AcDbLine
10
50.4
20
39.725
30
0
11
46.149664
21
39.725
31
0
39
0
210
0
220
0
230
1
0
LINE
5
A1
100
AcDbEntity
8
1
62
256
6
ByLayer
370
18
48
1
60
0
100
AcDbLine
10
29.4
20
-16.75
30
0
11
29.4
21
31.65
31
0
39
0
210
0
220
0
230
1
0
LINE
5
A2
100
AcDbEntity
8
1
62
256
6
ByLayer
370
18
48
1
60
0
100
AcDbLine
10
43.360149
20
44.675
30
0
11
32.4
21
44.675
31
0
39
0
210
0
220
0
230
1
0
LINE
5
A3
100
AcDbEntity
8
1
62
256
6
ByLayer
370
18
48
1
60
0
100
AcDbLine
10
32.4
20
32.65
30
0
11
32.4
21
44.675
31
0
39
0
210
0
220
0
230
1
0
LINE
5
A4
100
AcDbEntity
8
1
62
256
6
ByLayer
370
18
48
1
60
0
100
AcDbLine
10
53.5
20
44.675
30
0
11
43.360149
21
44.675
31
0
39
0
210
0
220
0
230
1
0
LINE
5
A5
100
AcDbEntity
8
1
62
256
6
ByLayer
370
18
48
1
60
0
100
AcDbLine
10
43.360149
20
41.325
30
0
11
43.360149
21
44.675
31
0
39
0
210
0
220
0
230
1
0
LINE
5
A6
100
AcDbEntity
8
1
62
256
6
ByLayer
370
13
48
1
60
0
100
AcDbLine
10
43.360149
20
41.325
30
0
11
52
21
41.325
31
0
39
0
210
0
220
0
230
1
0
LINE
5
A7
100
AcDbEntity
8
1
62
256
6
ByLayer
370
18
48
1
60
0
100
AcDbLine
10
53.5
20
41.325
30
0
11
52
21
41.325
31
0
39
0
210
0
220
0
230
1
0
LINE
5
A8
100
AcDbEntity
8
1
62
256
6
ByLayer
370
18
48
1
60
0
100
AcDbLine
10
53.5
20
44.675
30
0
11
53.5
21
41.325
31
0
39
0
210
0
220
0
230
1
0
LINE
5
A9
100
AcDbEntity
8
1
62
256
6
ByLayer
370
13
48
1
60
0
100
AcDbLine
10
23.438319
20
31.65
30
0
11
23.438319
21
29.601958
31
0
39
0
210
0
220
0
230
1
0
LINE
5
AA
100
AcDbEntity
8
1
62
256
6
ByLayer
370
13
48
1
60
0
100
AcDbLine
10
26.134546
20
31.65
30
0
11
26.134546
21
-16.75
31
0
39
0
210
0
220
0
230
1
0
LINE
5
AB
100
AcDbEntity
8
1
62
256
6
ByLayer
370
18
48
1
60
0
100
AcDbLine
10
26.134546
20
31.65
30
0
11
23.905343
21
31.65
31
0
39
0
210
0
220
0
230
1
0
LINE
5
AC
100
AcDbEntity
8
1
62
256
6
ByLayer
370
18
48
1
60
0
100
AcDbLine
10
26.093966
20
-16.75
30
0
11
26.134546
21
-16.75
31
0
39
0
210
0
220
0
230
1
0
LINE
5
AD
100
AcDbEntity
8
1
62
256
6
ByLayer
370
13
48
1
60
0
100
AcDbLine
10
13.461325
20
-9.349221
30
0
11
13.461325
21
-30.080593
31
0
39
0
210
0
220
0
230
1
0
LINE
5
AE
100
AcDbEntity
8
1
62
256
6
ByLayer
370
13
48
1
60
0
100
AcDbLine
10
13.894338
20
-9.869413
30
0
11
13.894338
21
-29.913955
31
0
39
0
210
0
220
0
230
1
0
LINE
5
AF
100
AcDbEntity
8
1
62
256
6
ByLayer
370
13
48
1
60
0
100
AcDbLine
10
10.105662
20
29.913955
30
0
11
10.105662
21
9.869413
31
0
39
0
210
0
220
0
230
1
0
LINE
5
B0
100
AcDbEntity
8
1
62
256
6
ByLayer
370
13
48
1
60
0
100
AcDbLine
10
10.538675
20
30.080593
30
0
11
10.538675
21
9.349221
31
0
39
0
210
0
220
0
230
1
0
LINE
5
B1
100
AcDbEntity
8
1
62
256
6
ByLayer
370
13
48
1
60
0
100
AcDbLine
10
13.461325
20
30.080593
30
0
11
13.461325
21
9.349221
31
0
39
0
210
0
220
0
230
1
0
LINE
5
B2
100
AcDbEntity
8
1
62
256
6
ByLayer
370
13
48
1
60
0
100
AcDbLine
10
13.894338
20
29.913955
30
0
11
13.894338
21
9.869413
31
0
39
0
210
0
220
0
230
1
0
LINE
5
B3
100
AcDbEntity
8
1
62
256
6
ByLayer
370
13
48
1
60
0
100
AcDbLine
10
10.105662
20
-9.869413
30
0
11
10.105662
21
-29.913955
31
0
39
0
210
0
220
0
230
1
0
LINE
5
B4
100
AcDbEntity
8
1
62
256
6
ByLayer
370
13
48
1
60
0
100
AcDbLine
10
10.538675
20
-9.349221
30
0
11
10.538675
21
-30.080593
31
0
39
0
210
0
220
0
230
1
0
LINE
5
B5
100
AcDbEntity
8
1
62
256
6
ByLayer
370
18
48
1
60
0
100
AcDbLine
10
0
20
-31.2
30
0
11
0
21
31.2
31
0
39
0
210
0
220
0
230
1
0
LINE
5
B6
100
AcDbEntity
8
1
62
256
6
ByLayer
370
18
48
1
60
0
100
AcDbLine
10
0.3
20
-31.5
30
0
11
0.3
21
31.5
31
0
39
0
210
0
220
0
230
1
0
LINE
5
B7
100
AcDbEntity
8
1
62
256
6
ByLayer
370
18
48
1
60
0
100
AcDbLine
10
13.461325
20
9.349221
30
0
11
10.538675
21
9.349221
31
0
39
0
210
0
220
0
230
1
0
LINE
5
B8
100
AcDbEntity
8
1
62
256
6
ByLayer
370
18
48
1
60
0
100
AcDbLine
10
10.538675
20
30.080593
30
0
11
13.461325
21
30.080593
31
0
39
0
210
0
220
0
230
1
0
LINE
5
B9
100
AcDbEntity
8
1
62
256
6
ByLayer
370
18
48
1
60
0
100
AcDbLine
10
10.538675
20
-9.349221
30
0
11
13.461325
21
-9.349221
31
0
39
0
210
0
220
0
230
1
0
LINE
5
BA
100
AcDbEntity
8
1
62
256
6
ByLayer
370
18
48
1
60
0
100
AcDbLine
10
13.461325
20
-30.080593
30
0
11
10.538675
21
-30.080593
31
0
39
0
210
0
220
0
230
1
0
LINE
5
BB
100
AcDbEntity
8
1
62
256
6
ByLayer
370
18
48
1
60
0
100
AcDbLine
10
22.080515
20
-22.273864
30
0
11
22
21
-31.5
31
0
39
0
210
0
220
0
230
1
0
LINE
5
BC
100
AcDbEntity
8
1
62
256
6
ByLayer
370
13
48
1
60
0
100
AcDbLine
10
22.279208
20
31.5
30
0
11
22.279208
21
27.680841
31
0
39
0
210
0
220
0
230
1
0
LINE
5
BD
100
AcDbEntity
8
1
62
256
6
ByLayer
370
18
48
1
60
0
100
AcDbLine
10
22.094118
20
-20.715094
30
0
11
22.080515
21
-22.273864
31
0
39
0
210
0
220
0
230
1
0
LINE
5
BE
100
AcDbEntity
8
1
62
256
6
ByLayer
370
13
48
1
60
0
100
AcDbLine
10
22.134698
20
-20.180615
30
0
11
22.134698
21
27.095438
31
0
39
0
210
0
220
0
230
1
0
LINE
5
BF
100
AcDbEntity
8
SK1
62
256
6
ByLayer
370
18
48
1
60
0
100
AcDbLine
10
-0.2
20
-7.034158
30
0
11
-0.2
21
-22.533485
31
0
39
0
210
0
220
0
230
1
0
LINE
5
C1
100
AcDbEntity
8
SK1
62
256
6
ByLayer
370
18
48
1
60
0
100
AcDbLine
10
-0.2
20
22.533485
30
0
11
-0.2
21
7.034161
31
0
39
0
210
0
220
0
230
1
0
LINE
5
C2
100
AcDbEntity
8
SK1
62
256
6
ByLayer
370
13
48
1
60
0
100
AcDbLine
10
-1.307107
20
4.811152
30
0
11
-1.307107
21
-4.811152
31
0
39
0
210
0
220
0
230
1
0
LINE
5
C3
100
AcDbEntity
8
1
62
256
6
ByLayer
370
18
48
1
60
0
100
AcDbLine
10
58.63
20
44.6
30
0
11
60.58649
21
44.6
31
0
39
0
210
0
220
0
230
1
0
LINE
5
C4
100
AcDbEntity
8
1
62
256
6
ByLayer
370
18
48
1
60
0
100
AcDbLine
10
58.63
20
41.4
30
0
11
60.58649
21
41.4
31
0
39
0
210
0
220
0
230
1
0
LINE
5
C5
100
AcDbEntity
8
1
62
256
6
ByLayer
370
18
48
1
60
0
100
AcDbLine
10
61
20
44.83874
30
0
11
60.58649
21
44.6
31
0
39
0
210
0
220
0
230
1
0
LINE
5
C6
100
AcDbEntity
8
1
62
256
6
ByLayer
370
18
48
1
60
0
100
AcDbLine
10
61
20
41.16126
30
0
11
60.58649
21
41.4
31
0
39
0
210
0
220
0
230
1
0
LINE
5
C7
100
AcDbEntity
8
1
62
256
6
ByLayer
370
18
48
1
60
0
100
AcDbLine
10
65
20
41.3
30
0
11
65
21
44.7
31
0
39
0
210
0
220
0
230
1
0
LINE
5
C8
100
AcDbEntity
8
1
62
256
6
ByLayer
370
18
48
1
60
0
100
AcDbLine
10
64.686914
20
41.000286
30
0
11
61
21
41.16126
31
0
39
0
210
0
220
0
230
1
0
LINE
5
C9
100
AcDbEntity
8
1
62
256
6
ByLayer
370
18
48
1
60
0
100
AcDbLine
10
64.686914
20
44.999714
30
0
11
61
21
44.83874
31
0
39
0
210
0
220
0
230
1
0
LINE
5
CA
100
AcDbEntity
8
1
62
256
6
ByLayer
370
18
48
1
60
0
100
AcDbLine
10
40.313086
20
44.999714
30
0
11
44
21
44.83874
31
0
39
0
210
0
220
0
230
1
0
LINE
5
CB
100
AcDbEntity
8
1
62
256
6
ByLayer
370
18
48
1
60
0
100
AcDbLine
10
44
20
44.83874
30
0
11
44.283603
21
44.675002
31
0
39
0
210
0
220
0
230
1
0
LINE
5
CC
100
AcDbEntity
8
1
62
256
6
ByLayer
370
18
48
1
60
0
100
AcDbLine
10
40
20
44.674978
30
0
11
40
21
44.7
31
0
39
0
210
0
220
0
230
1
0
LINE
5
CD
100
AcDbEntity
8
1
62
256
6
ByLayer
370
13
48
1
60
0
100
AcDbLine
10
57
20
42.98
30
0
11
57.937861
21
42.98
31
0
39
0
210
0
220
0
230
1
0
LINE
5
CE
100
AcDbEntity
8
1
62
256
6
ByLayer
370
13
48
1
60
0
100
AcDbLine
10
57
20
43.02
30
0
11
57.937861
21
43.02
31
0
39
0
210
0
220
0
230
1
0
LINE
5
CF
100
AcDbEntity
8
1
62
256
6
ByLayer
370
13
48
1
60
0
100
AcDbLine
10
56.999918
20
42.789264
30
0
11
57.928946
21
42.789264
31
0
39
0
210
0
220
0
230
1
0
LINE
5
D0
100
AcDbEntity
8
1
62
256
6
ByLayer
370
13
48
1
60
0
100
AcDbLine
10
56.999918
20
43.210736
30
0
11
57.928946
21
43.210736
31
0
39
0
210
0
220
0
230
1
0
LINE
5
D1
100
AcDbEntity
8
1
62
256
6
ByLayer
370
13
48
1
60
0
100
AcDbLine
10
56.910754
20
42.572267
30
0
11
57.748945
21
42.572267
31
0
39
0
210
0
220
0
230
1
0
LINE
5
D2
100
AcDbEntity
8
1
62
256
6
ByLayer
370
13
48
1
60
0
100
AcDbLine
10
56.910754
20
43.427733
30
0
11
57.748945
21
43.427733
31
0
39
0
210
0
220
0
230
1
0
LINE
5
D3
100
AcDbEntity
8
1
62
256
6
ByLayer
370
13
48
1
60
0
100
AcDbLine
10
57.590119
20
43.483085
30
0
11
56.80632
21
43.483085
31
0
39
0
210
0
220
0
230
1
0
LINE
5
D4
100
AcDbEntity
8
1
62
256
6
ByLayer
370
13
48
1
60
0
100
AcDbLine
10
57.590119
20
42.516915
30
0
11
56.80632
21
42.516915
31
0
39
0
210
0
220
0
230
1
0
LINE
5
D5
100
AcDbEntity
8
1
62
256
6
ByLayer
370
13
48
1
60
0
100
AcDbLine
10
56.772606
20
42.486112
30
0
11
57.549523
21
42.486112
31
0
39
0
210
0
220
0
230
1
0
LINE
5
D6
100
AcDbEntity
8
1
62
256
6
ByLayer
370
13
48
1
60
0
100
AcDbLine
10
56.772685
20
43.513888
30
0
11
57.549523
21
43.513888
31
0
39
0
210
0
220
0
230
1
0
LINE
5
D7
100
AcDbEntity
8
1
62
256
6
ByLayer
370
13
48
1
60
0
100
AcDbLine
10
56.761059
20
42.394335
30
0
11
57.477691
21
42.394335
31
0
39
0
210
0
220
0
230
1
0
LINE
5
D8
100
AcDbEntity
8
1
62
256
6
ByLayer
370
13
48
1
60
0
100
AcDbLine
10
56.761215
20
43.605665
30
0
11
57.477691
21
43.605665
31
0
39
0
210
0
220
0
230
1
0
LINE
5
D9
100
AcDbEntity
8
1
62
256
6
ByLayer
370
13
48
1
60
0
100
AcDbLine
10
56.755478
20
42.350066
30
0
11
57.457959
21
42.350066
31
0
39
0
210
0
220
0
230
1
0
LINE
5
DA
100
AcDbEntity
8
1
62
256
6
ByLayer
370
13
48
1
60
0
100
AcDbLine
10
56.755788
20
43.649934
30
0
11
57.457959
21
43.649934
31
0
39
0
210
0
220
0
230
1
0
LINE
5
DB
100
AcDbEntity
8
1
62
256
6
ByLayer
370
13
48
1
60
0
100
AcDbLine
10
56.668513
20
41.658616
30
0
11
57.336037
21
41.658616
31
0
39
0
210
0
220
0
230
1
0
LINE
5
DC
100
AcDbEntity
8
1
62
256
6
ByLayer
370
13
48
1
60
0
100
AcDbLine
10
56.666297
20
41.641251
30
0
11
57.334518
21
41.641251
31
0
39
0
210
0
220
0
230
1
0
LINE
5
DD
100
AcDbEntity
8
1
62
256
6
ByLayer
370
18
48
1
60
0
100
AcDbLine
10
56.63593
20
41.4
30
0
11
57.334518
21
41.4
31
0
39
0
210
0
220
0
230
1
0
LINE
5
DE
100
AcDbEntity
8
1
62
256
6
ByLayer
370
18
48
1
60
0
100
AcDbLine
10
58.63
20
44.6
30
0
11
57.334518
21
44.6
31
0
39
0
210
0
220
0
230
1
0
LINE
5
DF
100
AcDbEntity
8
1
62
256
6
ByLayer
370
18
48
1
60
0
100
AcDbLine
10
57.336037
20
44.341384
30
0
11
57.457959
21
43.649934
31
0
39
0
210
0
220
0
230
1
0
LINE
5
E0
100
AcDbEntity
8
1
62
256
6
ByLayer
370
18
48
1
60
0
100
AcDbLine
10
57.477691
20
43.605665
30
0
11
57.549523
21
43.513888
31
0
39
0
210
0
220
0
230
1
0
LINE
5
E1
100
AcDbEntity
8
1
62
256
6
ByLayer
370
18
48
1
60
0
100
AcDbLine
10
57.937861
20
42.98
30
0
11
57.937861
21
43.02
31
0
39
0
210
0
220
0
230
1
0
LINE
5
E2
100
AcDbEntity
8
1
62
256
6
ByLayer
370
18
48
1
60
0
100
AcDbLine
10
57.477691
20
42.394335
30
0
11
57.549523
21
42.486112
31
0
39
0
210
0
220
0
230
1
0
LINE
5
E3
100
AcDbEntity
8
1
62
256
6
ByLayer
370
18
48
1
60
0
100
AcDbLine
10
57.336037
20
41.658616
30
0
11
57.457959
21
42.350066
31
0
39
0
210
0
220
0
230
1
0
LINE
5
E4
100
AcDbEntity
8
1
62
256
6
ByLayer
370
18
48
1
60
0
100
AcDbLine
10
57.334518
20
41.4
30
0
11
57.334518
21
41.641251
31
0
39
0
210
0
220
0
230
1
0
LINE
5
E5
100
AcDbEntity
8
1
62
256
6
ByLayer
370
18
48
1
60
0
100
AcDbLine
10
58.63
20
41.4
30
0
11
57.334518
21
41.4
31
0
39
0
210
0
220
0
230
1
0
LINE
5
E6
100
AcDbEntity
8
1
62
256
6
ByLayer
370
18
48
1
60
0
100
AcDbLine
10
58.63
20
41.4
30
0
11
58.63
21
44.6
31
0
39
0
210
0
220
0
230
1
0
LINE
5
E7
100
AcDbEntity
8
1
62
256
6
ByLayer
370
18
48
1
60
0
100
AcDbLine
10
57.334518
20
44.6
30
0
11
57.334518
21
44.358749
31
0
39
0
210
0
220
0
230
1
0
LINE
5
E8
100
AcDbEntity
8
1
62
256
6
ByLayer
370
18
48
1
60
0
100
AcDbLine
10
56.636081
20
44.6
30
0
11
57.334518
21
44.6
31
0
39
0
210
0
220
0
230
1
0
LINE
5
E9
100
AcDbEntity
8
1
62
256
6
ByLayer
370
13
48
1
60
0
100
AcDbLine
10
56.66675
20
44.358749
30
0
11
57.334518
21
44.358749
31
0
39
0
210
0
220
0
230
1
0
LINE
5
EA
100
AcDbEntity
8
1
62
256
6
ByLayer
370
13
48
1
60
0
100
AcDbLine
10
56.668967
20
44.341384
30
0
11
57.336037
21
44.341384
31
0
39
0
210
0
220
0
230
1
0
LINE
5
EB
100
AcDbEntity
8
SK2
62
256
6
ByLayer
370
18
48
1
60
0
100
AcDbLine
10
-47.975
20
-31.5
30
0
11
-47.975
21
31.5
31
0
39
0
210
0
220
0
230
1
0
LINE
5
ED
100
AcDbEntity
8
SK2
62
256
6
ByLayer
370
18
48
1
60
0
100
AcDbLine
10
-1.2875
20
31.5
30
0
11
-49.975
21
31.5
31
0
39
0
210
0
220
0
230
1
0
LINE
5
EE
100
AcDbEntity
8
SK2
62
256
6
ByLayer
370
18
48
1
60
0
100
AcDbLine
10
-1.2875
20
-31.5
30
0
11
-49.975
21
-31.5
31
0
39
0
210
0
220
0
230
1
0
LINE
5
EF
100
AcDbEntity
8
1
62
256
6
ByLayer
370
18
48
1
60
1
100
AcDbLine
10
-47.975
20
31.5
30
0
11
-47.514216
21
28.000002
31
0
39
0
210
0
220
0
230
1
0
LINE
5
F0
100
AcDbEntity
8
1
62
256
6
ByLayer
370
18
48
1
60
1
100
AcDbLine
10
-47.514216
20
28.000002
30
0
11
-48.435784
21
27.999998
31
0
39
0
210
0
220
0
230
1
0
LINE
5
F1
100
AcDbEntity
8
1
62
256
6
ByLayer
370
18
48
1
60
1
100
AcDbLine
10
-48.435784
20
27.999998
30
0
11
-47.975
21
31.5
31
0
39
0
210
0
220
0
230
1
0
LINE
5
F2
100
AcDbEntity
8
1
62
256
6
ByLayer
370
18
48
1
60
1
100
AcDbLine
10
-47.975
20
-31.5
30
0
11
-48.435784
21
-28.000002
31
0
39
0
210
0
220
0
230
1
0
LINE
5
F3
100
AcDbEntity
8
1
62
256
6
ByLayer
370
18
48
1
60
1
100
AcDbLine
10
-48.435784
20
-28.000002
30
0
11
-47.514216
21
-27.999998
31
0
39
0
210
0
220
0
230
1
0
LINE
5
F4
100
AcDbEntity
8
1
62
256
6
ByLayer
370
18
48
1
60
1
100
AcDbLine
10
-47.514216
20
-27.999998
30
0
11
-47.975
21
-31.5
31
0
39
0
210
0
220
0
230
1
0
LINE
5
146
100
AcDbEntity
8
1
62
256
6
ByLayer
370
18
48
1
60
1
100
AcDbLine
10
-47.975
20
31.5
30
0
11
-47.514216
21
28.000002
31
0
39
0
210
0
220
0
230
1
0
LINE
5
147
100
AcDbEntity
8
1
62
256
6
ByLayer
370
18
48
1
60
1
100
AcDbLine
10
-47.514216
20
28.000002
30
0
11
-48.435784
21
27.999998
31
0
39
0
210
0
220
0
230
1
0
LINE
5
148
100
AcDbEntity
8
1
62
256
6
ByLayer
370
18
48
1
60
1
100
AcDbLine
10
-48.435784
20
27.999998
30
0
11
-47.975
21
31.5
31
0
39
0
210
0
220
0
230
1
0
LINE
5
14A
100
AcDbEntity
8
1
62
256
6
ByLayer
370
18
48
1
60
1
100
AcDbLine
10
-47.975
20
-31.5
30
0
11
-48.435784
21
-28.000002
31
0
39
0
210
0
220
0
230
1
0
LINE
5
14B
100
AcDbEntity
8
1
62
256
6
ByLayer
370
18
48
1
60
1
100
AcDbLine
10
-48.435784
20
-28.000002
30
0
11
-47.514216
21
-27.999998
31
0
39
0
210
0
220
0
230
1
0
LINE
5
14C
100
AcDbEntity
8
1
62
256
6
ByLayer
370
18
48
1
60
1
100
AcDbLine
10
-47.514216
20
-27.999998
30
0
11
-47.975
21
-31.5
31
0
39
0
210
0
220
0
230
1
0
MTEXT
5
142
100
AcDbEntity
8
SK2
62
256
6
ByLayer
370
18
48
1
60
0
100
AcDbMText
10
-49.539634
20
-4.530622
30
0
210
0
220
0
230
1
1
%%c
40
3.5
41
0
44
1.084337
50
90
71
7
72
5
7
iso_b_vert
0
MTEXT
5
145
100
AcDbEntity
8
SK2
62
256
6
ByLayer
370
18
48
1
60
0
100
AcDbMText
10
-49.539634
20
2.442034
30
0
210
0
220
0
230
1
1
\W0.6740;63
40
3.5
41
0
44
1.084337
50
90
71
7
72
5
7
iso_b_vert
0
MTEXT
5
14E
100
AcDbEntity
8
SK6
62
256
6
ByLayer
370
18
48
1
60
0
100
AcDbMText
10
-18.8145
20
-47.467366
30
0
210
0
220
0
230
1
1
\W0.7278;C2R-CC6-RH13CB
40
3.5
41
0
44
1.084337
50
0
71
7
72
5
7
iso_b_vert
0
HATCH
5
149
100
AcDbEntity
8
SK2
62
256
6
ByLayer
370
13
48
1
60
0
100
AcDbHatch
10
0
20
0
30
0
210
0
220
0
230
1
2
ANSI31
70
0
71
0
91
1
92
5
93
3
72
1
10
-47.9750000000001
20
31.5
11
-47.5142162584473
21
28.0000016925532
72
1
10
-47.5142162584473
20
28.0000016925532
11
-48.4357837415529
21
27.9999983074468
72
1
10
-48.4357837415529
20
27.9999983074468
11
-47.9750000000001
21
31.5
97
0
75
0
76
1
52
0
41
0.0062
77
0
78
1
53
45
43
0
44
0
45
-0.0139193969876572
46
0.0139193969876572
79
0
47
0
98
1
10
0
20
0
0
HATCH
5
14D
100
AcDbEntity
8
SK2
62
256
6
ByLayer
370
13
48
1
60
0
100
AcDbHatch
10
0
20
0
30
0
210
0
220
0
230
1
2
ANSI31
70
0
71
0
91
1
92
5
93
3
72
1
10
-47.9750000000001
20
-31.5
11
-48.4357837415529
21
-28.0000016925532
72
1
10
-48.4357837415529
20
-28.0000016925532
11
-47.5142162584473
21
-27.9999983074468
72
1
10
-47.5142162584473
20
-27.9999983074468
11
-47.9750000000001
21
-31.5
97
0
75
0
76
1
52
0
41
0.0062
77
0
78
1
53
45
43
0
44
0
45
-0.0139193969876572
46
0.0139193969876572
79
0
47
0
98
1
10
0
20
0
0
DIMENSION
5
151
100
AcDbEntity
8
2
62
256
6
ByLayer
370
18
48
1
60
0
100
AcDbDimension
2
_U0
10
96.1
20
0
30
0
11
96.1
21
22.5
31
0
70
32
71
1
72
1
41
1
210
0
220
0
230
1
3
Standard
100
AcDbAlignedDimension
13
65
23
45
33
0
14
0
24
0
34
0
50
90
100
AcDbRotatedDimension
1001
ACAD
1000
DSTYLE
1002
{
1070
   371
1070
    13
1070
   372
1070
    13
1070
   170
1070
     0
1070
   144
1040
1.0
1070
   277
1070
     2
1070
   284
1070
     8
1070
   278
1070
    46
1070
   146
1040
1.0
1070
   345
1005
16
1070
   347
1005
16
1070
   346
1005
16
1070
   344
1005
0
1070
   343
1005
0
1070
   172
1070
     1
1070
    76
1070
     0
1070
    75
1070
     0
1070
   282
1070
     0
1070
   281
1070
     0
1070
    71
1070
     0
1070
    74
1070
     0
1070
   279
1070
     0
1070
   173
1070
     1
1070
   340
1005
143
1070
   271
1070
     1
1070
   272
1070
     2
1070
    77
1070
     1
1070
    73
1070
     0
1070
   171
1070
     3
1070
   274
1070
     4
1070
   177
1070
     2
1070
   176
1070
     2
1070
   178
1070
     2
1070
    78
1070
     8
1070
    48
1040
-0.1
1070
    41
1040
3.5
1070
   147
1040
1.75
1070
    42
1040
1.5875
1070
    44
1040
2.0
1070
   140
1040
3.5
1002
}
1001
ACAD_DSTYLE_DIM_LINETYPE
1070
   380
1005
16
1001
ACAD_DSTYLE_DIM_EXT1_LINETYPE
1070
   381
1005
16
1001
ACAD_DSTYLE_DIM_EXT2_LINETYPE
1070
   382
1005
16
0
DIMENSION
5
16B
100
AcDbEntity
8
2
62
256
6
ByLayer
370
18
48
1
60
0
100
AcDbDimension
2
_U1
10
85.1
20
45
30
0
11
85.1
21
43
31
0
70
32
71
1
72
1
41
1
210
0
220
0
230
1
3
Standard
100
AcDbAlignedDimension
13
65
23
41
33
0
14
65
24
45
34
0
50
90
100
AcDbRotatedDimension
1001
ACAD
1000
DSTYLE
1002
{
1070
   371
1070
    13
1070
   372
1070
    13
1070
   170
1070
     0
1070
   144
1040
1.0
1070
   277
1070
     2
1070
   284
1070
     8
1070
   278
1070
    46
1070
   146
1040
1.0
1070
   345
1005
16
1070
   347
1005
16
1070
   346
1005
16
1070
   344
1005
0
1070
   343
1005
0
1070
   172
1070
     1
1070
    76
1070
     0
1070
    75
1070
     0
1070
   282
1070
     0
1070
   281
1070
     0
1070
    71
1070
     0
1070
    74
1070
     0
1070
   279
1070
     0
1070
   173
1070
     1
1070
   340
1005
143
1070
   271
1070
     1
1070
   272
1070
     2
1070
    77
1070
     1
1070
    73
1070
     0
1070
   171
1070
     3
1070
   274
1070
     4
1070
   177
1070
     2
1070
   176
1070
     2
1070
   178
1070
     2
1070
    78
1070
     8
1070
    48
1040
-0.1
1070
    41
1040
3.5
1070
   147
1040
1.75
1070
    42
1040
1.5875
1070
    44
1040
2.0
1070
   140
1040
3.5
1002
}
1001
ACAD_DSTYLE_DIM_LINETYPE
1070
   380
1005
16
1001
ACAD_DSTYLE_DIM_EXT1_LINETYPE
1070
   381
1005
16
1001
ACAD_DSTYLE_DIM_EXT2_LINETYPE
1070
   382
1005
16
0
DIMENSION
5
184
100
AcDbEntity
8
2
62
256
6
ByLayer
370
18
48
1
60
0
100
AcDbDimension
2
_U2
10
65
20
-23.425
30
0
11
58.5
21
-23.425
31
0
70
32
71
1
72
1
41
1
210
0
220
0
230
1
3
Standard
100
AcDbAlignedDimension
13
52
23
41.325
33
0
14
65
24
41
34
0
50
0
100
AcDbRotatedDimension
1001
ACAD
1000
DSTYLE
1002
{
1070
   371
1070
    13
1070
   372
1070
    13
1070
   170
1070
     0
1070
   144
1040
1.0
1070
   277
1070
     2
1070
   284
1070
     8
1070
   278
1070
    46
1070
   146
1040
1.0
1070
   345
1005
16
1070
   347
1005
16
1070
   346
1005
16
1070
   344
1005
0
1070
   343
1005
0
1070
   172
1070
     1
1070
    76
1070
     0
1070
    75
1070
     0
1070
   282
1070
     0
1070
   281
1070
     0
1070
    71
1070
     0
1070
    74
1070
     0
1070
   279
1070
     0
1070
   173
1070
     1
1070
   340
1005
143
1070
   271
1070
     1
1070
   272
1070
     2
1070
    77
1070
     1
1070
    73
1070
     1
1070
   171
1070
     3
1070
   274
1070
     4
1070
   177
1070
     2
1070
   176
1070
     2
1070
   178
1070
     2
1070
    78
1070
     8
1070
    48
1040
-0.1
1070
    41
1040
3.5
1070
   147
1040
1.75
1070
    42
1040
1.5875
1070
    44
1040
2.0
1070
   140
1040
3.5
1002
}
1001
ACAD_DSTYLE_DIM_LINETYPE
1070
   380
1005
16
1001
ACAD_DSTYLE_DIM_EXT1_LINETYPE
1070
   381
1005
16
1001
ACAD_DSTYLE_DIM_EXT2_LINETYPE
1070
   382
1005
16
0
DIMENSION
5
19D
100
AcDbEntity
8
2
62
256
6
ByLayer
370
18
48
1
60
0
100
AcDbDimension
2
_U3
10
65
20
53.75
30
0
11
32.5
21
53.75
31
0
70
32
71
1
72
1
41
1
210
0
220
0
230
1
3
Standard
100
AcDbAlignedDimension
13
0
23
0
33
0
14
65
24
45
34
0
50
0
100
AcDbRotatedDimension
1001
ACAD
1000
DSTYLE
1002
{
1070
   371
1070
    13
1070
   372
1070
    13
1070
   170
1070
     0
1070
   144
1040
1.0
1070
   277
1070
     2
1070
   284
1070
     8
1070
   278
1070
    46
1070
   146
1040
1.0
1070
   345
1005
16
1070
   347
1005
16
1070
   346
1005
16
1070
   344
1005
0
1070
   343
1005
0
1070
   172
1070
     1
1070
    76
1070
     0
1070
    75
1070
     0
1070
   282
1070
     0
1070
   281
1070
     0
1070
    71
1070
     0
1070
    74
1070
     0
1070
   279
1070
     0
1070
   173
1070
     1
1070
   340
1005
143
1070
   271
1070
     1
1070
   272
1070
     2
1070
    77
1070
     1
1070
    73
1070
     1
1070
   171
1070
     3
1070
   274
1070
     4
1070
   177
1070
     2
1070
   176
1070
     2
1070
   178
1070
     2
1070
    78
1070
     8
1070
    48
1040
-0.1
1070
    41
1040
3.5
1070
   147
1040
1.75
1070
    42
1040
1.5875
1070
    44
1040
2.0
1070
   140
1040
3.5
1002
}
1001
ACAD_DSTYLE_DIM_LINETYPE
1070
   380
1005
16
1001
ACAD_DSTYLE_DIM_EXT1_LINETYPE
1070
   381
1005
16
1001
ACAD_DSTYLE_DIM_EXT2_LINETYPE
1070
   382
1005
16
0
ENDSEC
0
SECTION
2
OBJECTS
0
DICTIONARY
5
224
330
0
100
AcDbDictionary
280
0
281
1
3
ACAD_GROUP
350
225
3
ACAD_MLINESTYLE
350
226
0
DICTIONARY
5
225
330
0
100
AcDbDictionary
280
0
281
1
0
DICTIONARY
5
226
330
0
100
AcDbDictionary
280
0
281
1
3
Standard
350
18
0
MLINESTYLE
5
18
330
226
100
AcDbMlineStyle
2
Standard
70
0
3

62
256
51
90
52
90
71
2
49
-0.5
62
256
6
ByLayer
49
0.5
62
256
6
ByLayer
0
RASTERVARIABLES
5
213
330

100
AcDbRasterVariables
90
0
70
1
71
1
72
1
0
ENDSEC
0
EOF
