0
SECTION
2
HEADER
9
$ACADVER
1
AC1015
9
$DWGCODEPAGE
3
ANSI_1252
9
$HANDSEED
5
23f
9
$ANGBASE
50
0
9
$ANGDIR
70
0
9
$ATTMODE
70
1
9
$AUNITS
70
0
9
$AUPREC
70
0
9
$CECOLOR
62
256
9
$CELTSCALE
40
1
9
$CELTYPE
6
ByLayer
9
$CELWEIGHT
370
18
9
$CLAYER
8
0
9
$CMLJUST
70
0
9
$CMLSCALE
40
1
9
$CMLSTYLE
2
Standard
9
$DIMSTYLE
2
Standard
9
$TEXTSIZE
40
0.2
9
$TEXTSTYLE
7
Standard
9
$LUNITS
70
2
9
$LUPREC
70
4
9
$EXTNAMES
290
1
9
$INSUNITS
70
4
9
$LTSCALE
40
1
9
$LWDISPLAY
290
1
9
$PDMODE
70
0
9
$PDSIZE
40
0
9
$PLINEGEN
70
0
0
ENDSEC
0
SECTION
2
CLASSES
0
CLASS
1
RASTERVARIABLES
2
AcDbRasterVariables
3
ISM
90
0
280
0
281
0
0
ENDSEC
0
SECTION
2
TABLES
0
TABLE
2
VPORT
5
235
100
AcDbSymbolTable
0
VPORT
5
1
100
AcDbSymbolTableRecord
100
AcDbViewportTableRecord
2
*Active
70
0
10
0
20
0
11
1
21
1
12
-1
22
1
13
0
23
0
14
0.5
24
0.5
15
10
25
10
16
0
26
0
36
1
17
0
27
0
37
0
0
ENDTAB
0
TABLE
2
LTYPE
5
236
100
AcDbSymbolTable
0
LTYPE
5
14
100
AcDbSymbolTableRecord
100
AcDbLinetypeTableRecord
70
0
2
ByBlock
3

72
65
73
0
40
0
0
LTYPE
5
15
100
AcDbSymbolTableRecord
100
AcDbLinetypeTableRecord
70
0
2
ByLayer
3

72
65
73
0
40
0
0
LTYPE
5
16
100
AcDbSymbolTableRecord
100
AcDbLinetypeTableRecord
70
0
2
Continuous
3
Solid line
72
65
73
0
40
0
0
LTYPE
5
6E
100
AcDbSymbolTableRecord
100
AcDbLinetypeTableRecord
70
0
2
CENTER
3
____ _ ____ _ ____ _ ____
72
65
73
4
40
47.5
49
22
74
0
49
-8.5
74
0
49
8.5
74
0
49
-8.5
74
0
0
LTYPE
5
6F
100
AcDbSymbolTableRecord
100
AcDbLinetypeTableRecord
70
0
2
DASHED
3
__ __ __ __ __ __ __ __ __
72
65
73
2
40
25.72
49
12.86
74
0
49
-12.86
74
0
0
ENDTAB
0
TABLE
2
LAYER
5
237
100
AcDbSymbolTable
0
LAYER
5
10
100
AcDbSymbolTableRecord
100
AcDbLayerTableRecord
2
0
70
0
62
7
6
Continuous
290
1
370
-3
390
0
0
LAYER
5
71
100
AcDbSymbolTableRecord
100
AcDbLayerTableRecord
2
80
70
0
62
-6
6
Continuous
290
1
370
-3
390
0
0
LAYER
5
73
100
AcDbSymbolTableRecord
100
AcDbLayerTableRecord
2
81
70
0
62
-3
6
Continuous
290
1
370
-3
390
0
0
LAYER
5
75
100
AcDbSymbolTableRecord
100
AcDbLayerTableRecord
2
1
70
0
62
4
6
Continuous
290
1
370
-3
390
0
0
LAYER
5
163
100
AcDbSymbolTableRecord
100
AcDbLayerTableRecord
2
Defpoints
70
0
62
7
6
Continuous
290
0
370
-3
390
0
0
LAYER
5
170
100
AcDbSymbolTableRecord
100
AcDbLayerTableRecord
2
2
70
0
62
7
6
Continuous
290
1
370
-3
390
0
0
LAYER
5
222
100
AcDbSymbolTableRecord
100
AcDbLayerTableRecord
2
SK1
70
0
62
4
6
Continuous
290
1
370
-3
390
0
0
LAYER
5
223
100
AcDbSymbolTableRecord
100
AcDbLayerTableRecord
2
SK2
70
0
62
7
6
Continuous
290
1
370
-3
390
0
0
LAYER
5
224
100
AcDbSymbolTableRecord
100
AcDbLayerTableRecord
2
SK6
70
0
62
5
6
Continuous
290
1
370
-3
390
0
0
ENDTAB
0
TABLE
2
STYLE
5
238
100
AcDbSymbolTable
0
STYLE
5
11
100
AcDbSymbolTableRecord
100
AcDbTextStyleTableRecord
2
Standard
3
txt
70
0
71
0
40
0
41
1
42
0
50
0
0
STYLE
5
152
100
AcDbSymbolTableRecord
100
AcDbTextStyleTableRecord
2
iso_b_vert
3
simplex.shx
70
0
71
0
40
0
41
1
42
0
50
0
0
STYLE
5
153
100
AcDbSymbolTableRecord
100
AcDbTextStyleTableRecord
2
DWGDirectTextStyle
3
simplex
70
0
71
0
40
0
41
1
42
0
50
0
0
ENDTAB
0
TABLE
2
DIMSTYLE
5
239
100
AcDbSymbolTable
100
AcDbDimStyleTable
0
DIMSTYLE
105
27
100
AcDbSymbolTableRecord
100
AcDbDimStyleTableRecord
2
Standard
70
0
3
<>
41
0.18
42
0.0625
44
0.18
140
0.18
147
0.09
73
0
74
0
77
1
271
2
275
0
278
52
280
0
340
11
0
ENDTAB
0
TABLE
2
VIEW
5
23a
100
AcDbSymbolTable
0
ENDTAB
0
TABLE
2
UCS
5
23b
100
AcDbSymbolTable
0
ENDTAB
0
TABLE
2
APPID
5
23c
100
AcDbSymbolTable
0
APPID
5
12
100
AcDbSymbolTableRecord
100
AcDbRegAppTableRecord
2
ACAD
70
0
0
APPID
5
15F
100
AcDbSymbolTableRecord
100
AcDbRegAppTableRecord
2
ACAD_DSTYLE_DIMBREAK
70
0
0
APPID
5
1E1
100
AcDbSymbolTableRecord
100
AcDbRegAppTableRecord
2
ACAD_DSTYLE_DIM_LINETYPE
70
0
0
APPID
5
1E2
100
AcDbSymbolTableRecord
100
AcDbRegAppTableRecord
2
ACAD_DSTYLE_DIM_EXT1_LINETYPE
70
0
0
APPID
5
1E3
100
AcDbSymbolTableRecord
100
AcDbRegAppTableRecord
2
ACAD_DSTYLE_DIM_EXT2_LINETYPE
70
0
0
APPID
5
21E
100
AcDbSymbolTableRecord
100
AcDbRegAppTableRecord
2
ACAD_MLEADERVER
70
0
0
ENDTAB
0
TABLE
2
BLOCK_RECORD
5
23d
100
AcDbSymbolTable
0
BLOCK_RECORD
5
1F
100
AcDbSymbolTableRecord
100
AcDbBlockTableRecord
2
*Model_Space
340
0
70
0
0
BLOCK_RECORD
5
1B
100
AcDbSymbolTableRecord
100
AcDbBlockTableRecord
2
*Paper_Space
340
0
70
0
0
BLOCK_RECORD
5
23
100
AcDbSymbolTableRecord
100
AcDbBlockTableRecord
2
*Paper_Space0
340
0
70
0
0
BLOCK_RECORD
5
164
100
AcDbSymbolTableRecord
100
AcDbBlockTableRecord
2
*D1
340
0
70
0
0
BLOCK_RECORD
5
171
100
AcDbSymbolTableRecord
100
AcDbBlockTableRecord
2
_U0
340
0
70
0
0
BLOCK_RECORD
5
17D
100
AcDbSymbolTableRecord
100
AcDbBlockTableRecord
2
*D3
340
0
70
0
0
BLOCK_RECORD
5
18A
100
AcDbSymbolTableRecord
100
AcDbBlockTableRecord
2
_U1
340
0
70
0
0
BLOCK_RECORD
5
196
100
AcDbSymbolTableRecord
100
AcDbBlockTableRecord
2
*D5
340
0
70
0
0
BLOCK_RECORD
5
1A2
100
AcDbSymbolTableRecord
100
AcDbBlockTableRecord
2
_U2
340
0
70
0
0
BLOCK_RECORD
5
1AE
100
AcDbSymbolTableRecord
100
AcDbBlockTableRecord
2
*D7
340
0
70
0
0
BLOCK_RECORD
5
1BA
100
AcDbSymbolTableRecord
100
AcDbBlockTableRecord
2
_U3
340
0
70
0
0
ENDTAB
0
ENDSEC
0
SECTION
2
BLOCKS
0
BLOCK
5
20
100
AcDbEntity
8
0
100
AcDbBlockBegin
2
*Model_Space
70
0
10
0
20
0
30
0
3
*Model_Space
0
ENDBLK
5
21
100
AcDbEntity
8
0
100
AcDbBlockEnd
0
BLOCK
5
1C
100
AcDbEntity
8
0
100
AcDbBlockBegin
2
*Paper_Space
70
0
10
0
20
0
30
0
3
*Paper_Space
0
ENDBLK
5
1D
100
AcDbEntity
8
0
100
AcDbBlockEnd
0
BLOCK
5
24
100
AcDbEntity
8
0
100
AcDbBlockBegin
2
*Paper_Space0
70
0
10
0
20
0
30
0
3
*Paper_Space0
0
ENDBLK
5
25
100
AcDbEntity
8
0
100
AcDbBlockEnd
0
BLOCK
5
165
100
AcDbEntity
8
0
100
AcDbBlockBegin
2
*D1
70
1
10
0
20
0
30
0
3
*D1
0
LINE
5
167
100
AcDbEntity
8
0
62
256
6
ByLayer
370
-2
48
1
60
0
100
AcDbLine
10
76.5875
20
35
30
0
11
108.1
21
35
31
0
39
0
210
0
220
0
230
1
0
LINE
5
168
100
AcDbEntity
8
0
62
256
6
ByLayer
370
-2
48
1
60
0
100
AcDbLine
10
1.5875
20
0
30
0
11
108.1
21
0
31
0
39
0
210
0
220
0
230
1
0
LINE
5
169
100
AcDbEntity
8
0
62
256
6
ByLayer
370
-2
48
1
60
0
100
AcDbLine
10
106.1
20
31.5
30
0
11
106.1
21
3.5
31
0
39
0
210
0
220
0
230
1
0
SOLID
5
16A
100
AcDbEntity
8
0
62
256
6
ByLayer
370
-1
48
1
60
0
100
AcDbTrace
10
106.683333
20
31.5
30
0
11
105.516667
21
31.5
31
0
12
106.1
22
35
32
0
13
106.1
23
35
33
0
39
0
210
0
220
0
230
1
0
SOLID
5
16B
100
AcDbEntity
8
0
62
256
6
ByLayer
370
-1
48
1
60
0
100
AcDbTrace
10
105.516667
20
3.5
30
0
11
106.683333
21
3.5
31
0
12
106.1
22
0
32
0
13
106.1
23
0
33
0
39
0
210
0
220
0
230
1
0
MTEXT
5
16C
100
AcDbEntity
8
0
62
256
6
ByLayer
370
18
48
1
60
0
100
AcDbMText
10
99.1
20
17.5
30
0
210
0
220
0
230
1
1
\A1;35
40
3.5
41
0
44
1
50
90
71
5
72
5
7
iso_b_vert
0
POINT
5
16D
100
AcDbEntity
8
Defpoints
62
0
6
ByLayer
370
-1
48
1
60
0
100
AcDbPoint
10
75
20
35
30
0
39
0
210
0
220
0
230
1
50
360
0
POINT
5
16E
100
AcDbEntity
8
Defpoints
62
0
6
ByLayer
370
-1
48
1
60
0
100
AcDbPoint
10
0
20
0
30
0
39
0
210
0
220
0
230
1
50
360
0
POINT
5
16F
100
AcDbEntity
8
Defpoints
62
0
6
ByLayer
370
-1
48
1
60
0
100
AcDbPoint
10
106.1
20
0
30
0
39
0
210
0
220
0
230
1
50
360
0
ENDBLK
5
166
100
AcDbEntity
8
0
100
AcDbBlockEnd
0
BLOCK
5
178
100
AcDbEntity
8
0
100
AcDbBlockBegin
2
_U0
70
0
10
0
20
0
30
0
3
_U0
0
MTEXT
5
172
100
AcDbEntity
8
2
62
256
6
ByLayer
370
18
48
1
60
0
100
AcDbMText
10
105.410366
20
15.567034
30
0
210
0
220
0
230
1
1
\W0.6740;35
40
3.5
41
0
44
1.084337
50
90
71
7
72
5
7
iso_b_vert
0
LINE
5
173
100
AcDbEntity
8
2
62
256
6
ByLayer
370
13
48
1
60
0
100
AcDbLine
10
76.5875
20
35
30
0
11
108.1
21
35
31
0
39
0
210
0
220
0
230
1
0
LINE
5
174
100
AcDbEntity
8
2
62
256
6
ByLayer
370
13
48
1
60
0
100
AcDbLine
10
1.5875
20
0
30
0
11
108.1
21
0
31
0
39
0
210
0
220
0
230
1
0
LINE
5
175
100
AcDbEntity
8
2
62
256
6
ByLayer
370
13
48
1
60
0
100
AcDbLine
10
106.1
20
35
30
0
11
106.1
21
0
31
0
39
0
210
0
220
0
230
1
0
SOLID
5
176
100
AcDbEntity
8
2
62
256
6
ByLayer
370
18
48
1
60
0
100
AcDbTrace
10
106.1
20
35
30
0
11
106.560784
21
31.500002
31
0
12
105.639216
22
31.499998
32
0
13
105.639216
23
31.499998
33
0
39
0
210
0
220
0
230
1
0
SOLID
5
177
100
AcDbEntity
8
2
62
256
6
ByLayer
370
18
48
1
60
0
100
AcDbTrace
10
106.1
20
0
30
0
11
105.639216
21
3.499998
31
0
12
106.560784
22
3.500002
32
0
13
106.560784
23
3.500002
33
0
39
0
210
0
220
0
230
1
0
ENDBLK
5
179
100
AcDbEntity
8
0
100
AcDbBlockEnd
0
BLOCK
5
17E
100
AcDbEntity
8
0
100
AcDbBlockBegin
2
*D3
70
1
10
0
20
0
30
0
3
*D3
0
LINE
5
180
100
AcDbEntity
8
0
62
256
6
ByLayer
370
-2
48
1
60
0
100
AcDbLine
10
76.5875
20
29
30
0
11
97.1
21
29
31
0
39
0
210
0
220
0
230
1
0
LINE
5
181
100
AcDbEntity
8
0
62
256
6
ByLayer
370
-2
48
1
60
0
100
AcDbLine
10
76.5875
20
35
30
0
11
97.1
21
35
31
0
39
0
210
0
220
0
230
1
0
LINE
5
182
100
AcDbEntity
8
0
62
256
6
ByLayer
370
-2
48
1
60
0
100
AcDbLine
10
95.1
20
25.5
30
0
11
95.1
21
22
31
0
39
0
210
0
220
0
230
1
0
LINE
5
183
100
AcDbEntity
8
0
62
256
6
ByLayer
370
-2
48
1
60
0
100
AcDbLine
10
95.1
20
38.5
30
0
11
95.1
21
42
31
0
39
0
210
0
220
0
230
1
0
SOLID
5
184
100
AcDbEntity
8
0
62
256
6
ByLayer
370
-1
48
1
60
0
100
AcDbTrace
10
95.683333
20
25.5
30
0
11
94.516667
21
25.5
31
0
12
95.1
22
29
32
0
13
95.1
23
29
33
0
39
0
210
0
220
0
230
1
0
SOLID
5
185
100
AcDbEntity
8
0
62
256
6
ByLayer
370
-1
48
1
60
0
100
AcDbTrace
10
94.516667
20
38.5
30
0
11
95.683333
21
38.5
31
0
12
95.1
22
35
32
0
13
95.1
23
35
33
0
39
0
210
0
220
0
230
1
0
MTEXT
5
186
100
AcDbEntity
8
0
62
256
6
ByLayer
370
18
48
1
60
0
100
AcDbMText
10
88.1
20
32
30
0
210
0
220
0
230
1
1
\A1;6
40
3.5
41
0
44
1
50
90
71
5
72
5
7
iso_b_vert
0
POINT
5
187
100
AcDbEntity
8
Defpoints
62
0
6
ByLayer
370
-1
48
1
60
0
100
AcDbPoint
10
75
20
29
30
0
39
0
210
0
220
0
230
1
50
360
0
POINT
5
188
100
AcDbEntity
8
Defpoints
62
0
6
ByLayer
370
-1
48
1
60
0
100
AcDbPoint
10
75
20
35
30
0
39
0
210
0
220
0
230
1
50
360
0
POINT
5
189
100
AcDbEntity
8
Defpoints
62
0
6
ByLayer
370
-1
48
1
60
0
100
AcDbPoint
10
95.1
20
35
30
0
39
0
210
0
220
0
230
1
50
360
0
ENDBLK
5
17F
100
AcDbEntity
8
0
100
AcDbBlockEnd
0
BLOCK
5
191
100
AcDbEntity
8
0
100
AcDbBlockBegin
2
_U1
70
0
10
0
20
0
30
0
3
_U1
0
MTEXT
5
18B
100
AcDbEntity
8
2
62
256
6
ByLayer
370
18
48
1
60
0
100
AcDbMText
10
94.410366
20
31.374767
30
0
210
0
220
0
230
1
1
\W0.5404;6
40
3.5
41
0
44
1.084337
50
90
71
7
72
5
7
iso_b_vert
0
LINE
5
18C
100
AcDbEntity
8
2
62
256
6
ByLayer
370
13
48
1
60
0
100
AcDbLine
10
76.5875
20
29
30
0
11
97.1
21
29
31
0
39
0
210
0
220
0
230
1
0
LINE
5
18D
100
AcDbEntity
8
2
62
256
6
ByLayer
370
13
48
1
60
0
100
AcDbLine
10
76.5875
20
35
30
0
11
97.1
21
35
31
0
39
0
210
0
220
0
230
1
0
LINE
5
18E
100
AcDbEntity
8
2
62
256
6
ByLayer
370
13
48
1
60
0
100
AcDbLine
10
95.1
20
20.25
30
0
11
95.1
21
43.75
31
0
39
0
210
0
220
0
230
1
0
SOLID
5
18F
100
AcDbEntity
8
2
62
256
6
ByLayer
370
18
48
1
60
0
100
AcDbTrace
10
95.1
20
29
30
0
11
95.560784
21
25.500002
31
0
12
94.639216
22
25.499998
32
0
13
94.639216
23
25.499998
33
0
39
0
210
0
220
0
230
1
0
SOLID
5
190
100
AcDbEntity
8
2
62
256
6
ByLayer
370
18
48
1
60
0
100
AcDbTrace
10
95.1
20
35
30
0
11
94.639216
21
38.499998
31
0
12
95.560784
22
38.500002
32
0
13
95.560784
23
38.500002
33
0
39
0
210
0
220
0
230
1
0
ENDBLK
5
192
100
AcDbEntity
8
0
100
AcDbBlockEnd
0
BLOCK
5
197
100
AcDbEntity
8
0
100
AcDbBlockBegin
2
*D5
70
1
10
0
20
0
30
0
3
*D5
0
LINE
5
199
100
AcDbEntity
8
0
62
256
6
ByLayer
370
-2
48
1
60
0
100
AcDbLine
10
50
20
27.7375
30
0
11
50
21
-24.425
31
0
39
0
210
0
220
0
230
1
0
LINE
5
19A
100
AcDbEntity
8
0
62
256
6
ByLayer
370
-2
48
1
60
0
100
AcDbLine
10
75
20
27.4125
30
0
11
75
21
-24.425
31
0
39
0
210
0
220
0
230
1
0
LINE
5
19B
100
AcDbEntity
8
0
62
256
6
ByLayer
370
-2
48
1
60
0
100
AcDbLine
10
53.5
20
-22.425
30
0
11
71.5
21
-22.425
31
0
39
0
210
0
220
0
230
1
0
SOLID
5
19C
100
AcDbEntity
8
0
62
256
6
ByLayer
370
-1
48
1
60
0
100
AcDbTrace
10
53.5
20
-21.841667
30
0
11
53.5
21
-23.008333
31
0
12
50
22
-22.425
32
0
13
50
23
-22.425
33
0
39
0
210
0
220
0
230
1
0
SOLID
5
19D
100
AcDbEntity
8
0
62
256
6
ByLayer
370
-1
48
1
60
0
100
AcDbTrace
10
71.5
20
-23.008333
30
0
11
71.5
21
-21.841667
31
0
12
75
22
-22.425
32
0
13
75
23
-22.425
33
0
39
0
210
0
220
0
230
1
0
MTEXT
5
19E
100
AcDbEntity
8
0
62
256
6
ByLayer
370
18
48
1
60
0
100
AcDbMText
10
62.5
20
-15.425
30
0
210
0
220
0
230
1
1
\A1;25
40
3.5
41
0
44
1
50
0
71
5
72
5
7
iso_b_vert
0
POINT
5
19F
100
AcDbEntity
8
Defpoints
62
0
6
ByLayer
370
-1
48
1
60
0
100
AcDbPoint
10
50
20
29.325
30
0
39
0
210
0
220
0
230
1
50
360
0
POINT
5
1A0
100
AcDbEntity
8
Defpoints
62
0
6
ByLayer
370
-1
48
1
60
0
100
AcDbPoint
10
75
20
29
30
0
39
0
210
0
220
0
230
1
50
360
0
POINT
5
1A1
100
AcDbEntity
8
Defpoints
62
0
6
ByLayer
370
-1
48
1
60
0
100
AcDbPoint
10
75
20
-22.425
30
0
39
0
210
0
220
0
230
1
50
360
0
ENDBLK
5
198
100
AcDbEntity
8
0
100
AcDbBlockEnd
0
BLOCK
5
1A9
100
AcDbEntity
8
0
100
AcDbBlockBegin
2
_U2
70
0
10
0
20
0
30
0
3
_U2
0
MTEXT
5
1A3
100
AcDbEntity
8
2
62
256
6
ByLayer
370
18
48
1
60
0
100
AcDbMText
10
60.595034
20
-21.392366
30
0
210
0
220
0
230
1
1
\W0.6740;25
40
3.5
41
0
44
1.084337
50
0
71
7
72
5
7
iso_b_vert
0
LINE
5
1A4
100
AcDbEntity
8
2
62
256
6
ByLayer
370
13
48
1
60
0
100
AcDbLine
10
50
20
27.7375
30
0
11
50
21
-24.425
31
0
39
0
210
0
220
0
230
1
0
LINE
5
1A5
100
AcDbEntity
8
2
62
256
6
ByLayer
370
13
48
1
60
0
100
AcDbLine
10
75
20
27.4125
30
0
11
75
21
-24.425
31
0
39
0
210
0
220
0
230
1
0
LINE
5
1A6
100
AcDbEntity
8
2
62
256
6
ByLayer
370
13
48
1
60
0
100
AcDbLine
10
50
20
-22.425
30
0
11
75
21
-22.425
31
0
39
0
210
0
220
0
230
1
0
SOLID
5
1A7
100
AcDbEntity
8
2
62
256
6
ByLayer
370
18
48
1
60
0
100
AcDbTrace
10
50
20
-22.425
30
0
11
53.499998
21
-21.964216
31
0
12
53.500002
22
-22.885784
32
0
13
53.500002
23
-22.885784
33
0
39
0
210
0
220
0
230
1
0
SOLID
5
1A8
100
AcDbEntity
8
2
62
256
6
ByLayer
370
18
48
1
60
0
100
AcDbTrace
10
75
20
-22.425
30
0
11
71.500002
21
-22.885784
31
0
12
71.499998
22
-21.964216
32
0
13
71.499998
23
-21.964216
33
0
39
0
210
0
220
0
230
1
0
ENDBLK
5
1AA
100
AcDbEntity
8
0
100
AcDbBlockEnd
0
BLOCK
5
1AF
100
AcDbEntity
8
0
100
AcDbBlockBegin
2
*D7
70
1
10
0
20
0
30
0
3
*D7
0
LINE
5
1B1
100
AcDbEntity
8
0
62
256
6
ByLayer
370
-2
48
1
60
0
100
AcDbLine
10
0
20
1.5875
30
0
11
0
21
49.25
31
0
39
0
210
0
220
0
230
1
0
LINE
5
1B2
100
AcDbEntity
8
0
62
256
6
ByLayer
370
-2
48
1
60
0
100
AcDbLine
10
75
20
36.5875
30
0
11
75
21
49.25
31
0
39
0
210
0
220
0
230
1
0
LINE
5
1B3
100
AcDbEntity
8
0
62
256
6
ByLayer
370
-2
48
1
60
0
100
AcDbLine
10
3.5
20
47.25
30
0
11
71.5
21
47.25
31
0
39
0
210
0
220
0
230
1
0
SOLID
5
1B4
100
AcDbEntity
8
0
62
256
6
ByLayer
370
-1
48
1
60
0
100
AcDbTrace
10
3.5
20
47.833333
30
0
11
3.5
21
46.666667
31
0
12
0
22
47.25
32
0
13
0
23
47.25
33
0
39
0
210
0
220
0
230
1
0
SOLID
5
1B5
100
AcDbEntity
8
0
62
256
6
ByLayer
370
-1
48
1
60
0
100
AcDbTrace
10
71.5
20
46.666667
30
0
11
71.5
21
47.833333
31
0
12
75
22
47.25
32
0
13
75
23
47.25
33
0
39
0
210
0
220
0
230
1
0
MTEXT
5
1B6
100
AcDbEntity
8
0
62
256
6
ByLayer
370
18
48
1
60
0
100
AcDbMText
10
37.5
20
54.25
30
0
210
0
220
0
230
1
1
\A1;75
40
3.5
41
0
44
1
50
0
71
5
72
5
7
iso_b_vert
0
POINT
5
1B7
100
AcDbEntity
8
Defpoints
62
0
6
ByLayer
370
-1
48
1
60
0
100
AcDbPoint
10
0
20
0
30
0
39
0
210
0
220
0
230
1
50
360
0
POINT
5
1B8
100
AcDbEntity
8
Defpoints
62
0
6
ByLayer
370
-1
48
1
60
0
100
AcDbPoint
10
75
20
35
30
0
39
0
210
0
220
0
230
1
50
360
0
POINT
5
1B9
100
AcDbEntity
8
Defpoints
62
0
6
ByLayer
370
-1
48
1
60
0
100
AcDbPoint
10
75
20
47.25
30
0
39
0
210
0
220
0
230
1
50
360
0
ENDBLK
5
1B0
100
AcDbEntity
8
0
100
AcDbBlockEnd
0
BLOCK
5
1C1
100
AcDbEntity
8
0
100
AcDbBlockBegin
2
_U3
70
0
10
0
20
0
30
0
3
_U3
0
MTEXT
5
1BB
100
AcDbEntity
8
2
62
256
6
ByLayer
370
18
48
1
60
0
100
AcDbMText
10
35.595034
20
48.282634
30
0
210
0
220
0
230
1
1
\W0.6740;75
40
3.5
41
0
44
1.084337
50
0
71
7
72
5
7
iso_b_vert
0
LINE
5
1BC
100
AcDbEntity
8
2
62
256
6
ByLayer
370
13
48
1
60
0
100
AcDbLine
10
0
20
1.5875
30
0
11
0
21
49.25
31
0
39
0
210
0
220
0
230
1
0
LINE
5
1BD
100
AcDbEntity
8
2
62
256
6
ByLayer
370
13
48
1
60
0
100
AcDbLine
10
75
20
36.5875
30
0
11
75
21
49.25
31
0
39
0
210
0
220
0
230
1
0
LINE
5
1BE
100
AcDbEntity
8
2
62
256
6
ByLayer
370
13
48
1
60
0
100
AcDbLine
10
0
20
47.25
30
0
11
75
21
47.25
31
0
39
0
210
0
220
0
230
1
0
SOLID
5
1BF
100
AcDbEntity
8
2
62
256
6
ByLayer
370
18
48
1
60
0
100
AcDbTrace
10
0
20
47.25
30
0
11
3.499998
21
47.710784
31
0
12
3.500002
22
46.789216
32
0
13
3.500002
23
46.789216
33
0
39
0
210
0
220
0
230
1
0
SOLID
5
1C0
100
AcDbEntity
8
2
62
256
6
ByLayer
370
18
48
1
60
0
100
AcDbTrace
10
75
20
47.25
30
0
11
71.500002
21
46.789216
31
0
12
71.499998
22
47.710784
32
0
13
71.499998
23
47.710784
33
0
39
0
210
0
220
0
230
1
0
ENDBLK
5
1C2
100
AcDbEntity
8
0
100
AcDbBlockEnd
0
ENDSEC
0
SECTION
2
ENTITIES
0
ARC
5
104
100
AcDbEntity
8
1
62
256
6
ByLayer
370
18
48
1
60
0
100
AcDbCircle
39
0
10
20.279208
20
26.2
30
0
40
1.2
210
0
220
0
230
1
100
AcDbArc
50
270
51
299.31744
0
ARC
5
105
100
AcDbEntity
8
SK1
62
256
6
ByLayer
370
18
48
1
60
0
100
AcDbCircle
39
0
10
-0.6
20
18.75
30
0
40
0.999999999999998
210
0
220
0
230
1
100
AcDbArc
50
293.578178
51
306.869898
0
ARC
5
106
100
AcDbEntity
8
SK1
62
256
6
ByLayer
370
18
48
1
60
0
100
AcDbCircle
39
0
10
-0.6
20
-18.75
30
0
40
0.999999999999998
210
0
220
0
230
1
100
AcDbArc
50
53.130102
51
66.421822
0
ARC
5
109
100
AcDbEntity
8
1
62
256
6
ByLayer
370
18
48
1
60
0
100
AcDbCircle
39
0
10
29.4
20
26.15
30
0
40
1
210
0
220
0
230
1
100
AcDbArc
50
270
51
0
0
ARC
5
10B
100
AcDbEntity
8
1
62
256
6
ByLayer
370
18
48
1
60
0
100
AcDbCircle
39
0
10
50
20
27.725
30
0
40
1.6
210
0
220
0
230
1
100
AcDbArc
50
90
51
180
0
ARC
5
10C
100
AcDbEntity
8
1
62
256
6
ByLayer
370
18
48
1
60
0
100
AcDbCircle
39
0
10
24.087421
20
-15
30
0
40
4
210
0
220
0
230
1
100
AcDbArc
50
90
51
90.137504
0
ARC
5
10D
100
AcDbEntity
8
1
62
256
6
ByLayer
370
18
48
1
60
0
100
AcDbCircle
39
0
10
74.6
20
29.383126
30
0
40
0.4
210
0
220
0
230
1
100
AcDbArc
50
266.667001
51
0
0
ARC
5
10E
100
AcDbEntity
8
1
62
256
6
ByLayer
370
18
48
1
60
0
100
AcDbCircle
39
0
10
74.6
20
34.616874
30
0
40
0.4
210
0
220
0
230
1
100
AcDbArc
50
0
51
93.332999
0
ARC
5
10F
100
AcDbEntity
8
1
62
256
6
ByLayer
370
18
48
1
60
0
100
AcDbCircle
39
0
10
50.4
20
34.616874
30
0
40
0.4
210
0
220
0
230
1
100
AcDbArc
50
86.667001
51
171.643804
0
ARC
5
110
100
AcDbEntity
8
1
62
256
6
ByLayer
370
18
48
1
60
0
100
AcDbCircle
39
0
10
50.4
20
29.383126
30
0
40
0.4
210
0
220
0
230
1
100
AcDbArc
50
188.356196
51
273.332999
0
CIRCLE
5
107
100
AcDbEntity
8
1
62
256
6
ByLayer
370
18
48
1
60
0
100
AcDbCircle
10
41.65
20
23.6
30
0
40
2.55
39
0
210
0
220
0
230
1
0
CIRCLE
5
108
100
AcDbEntity
8
1
62
256
6
ByLayer
370
18
48
1
60
0
100
AcDbCircle
10
41.65
20
23.6
30
0
40
3.3
39
0
210
0
220
0
230
1
0
CIRCLE
5
10A
100
AcDbEntity
8
1
62
256
6
ByLayer
370
18
48
1
60
0
100
AcDbCircle
10
41.65
20
23.6
30
0
40
5.75
39
0
210
0
220
0
230
1
0
ELLIPSE
5
111
100
AcDbEntity
8
1
62
256
6
ByLayer
370
18
48
1
60
0
100
AcDbEllipse
10
65.319692
20
32
30
0
11
6.12303176911189E-17
21
1
31
0
210
0
220
0
230
1
40
0.974584
41
0
42
6.28318530717959
0
ELLIPSE
5
112
100
AcDbEntity
8
1
62
256
6
ByLayer
370
18
48
1
60
0
100
AcDbEllipse
10
-1.056258
20
0
30
0
11
11.7092723497274
21
24.6771864409377
31
0
210
0
220
0
230
1
40
0.341999
41
-1.08183270048926
42
-0.167213071908988
0
ELLIPSE
5
113
100
AcDbEntity
8
1
62
256
6
ByLayer
370
18
48
1
60
0
100
AcDbEllipse
10
21.056258
20
0
30
0
11
11.7092723497277
21
-24.6771864409378
31
0
210
0
220
0
230
1
40
0.341999
41
-2.97437958168081
42
-2.05975995310054
0
ELLIPSE
5
114
100
AcDbEntity
8
1
62
256
6
ByLayer
370
18
48
1
60
0
100
AcDbEllipse
10
21.056258
20
0
30
0
11
11.7092723497267
21
24.6771864409366
31
0
210
0
220
0
230
1
40
0.341999
41
2.0597599531005
42
2.97437958168081
0
ELLIPSE
5
115
100
AcDbEntity
8
1
62
256
6
ByLayer
370
18
48
1
60
0
100
AcDbEllipse
10
-1.056258
20
0
30
0
11
11.7092723497277
21
-24.6771864409381
31
0
210
0
220
0
230
1
40
0.341999
41
0.167213071908981
42
1.08183270048925
0
ELLIPSE
5
116
100
AcDbEntity
8
1
62
256
6
ByLayer
370
18
48
1
60
0
100
AcDbEllipse
10
20.218172
20
0
30
0
11
1.53075794227785E-15
21
24.999999999998
31
0
210
0
220
0
230
1
40
0.008727
41
0.697891718822452
42
2.35619449019245
0
ELLIPSE
5
117
100
AcDbEntity
8
1
62
256
6
ByLayer
370
18
48
1
60
0
100
AcDbEllipse
10
68.044631
20
34.358749
30
0
11
0.433147588265456
21
2.5906074637615E-11
31
0
210
0
220
0
230
1
40
0.230868
41
3.14159265358979
42
-2.96704007747274
0
ELLIPSE
5
118
100
AcDbEntity
8
1
62
256
6
ByLayer
370
18
48
1
60
0
100
AcDbEllipse
10
69.336487
20
32.667299
30
0
11
0.433147587326412
21
5.07413064829502E-16
31
0
210
0
220
0
230
1
40
0.230868
41
-2.9670597283944
42
-2.47750918239489
0
ELLIPSE
5
119
100
AcDbEntity
8
1
62
256
6
ByLayer
370
18
48
1
60
0
100
AcDbEllipse
10
69.336487
20
31.332701
30
0
11
0.433147587338059
21
5.07413064843147E-16
31
0
210
0
220
0
230
1
40
0.230868
41
2.47750918240368
42
2.96705972839514
0
ELLIPSE
5
11A
100
AcDbEntity
8
1
62
256
6
ByLayer
370
18
48
1
60
0
100
AcDbEllipse
10
68.044631
20
29.641251
30
0
11
0.433147589736848
21
-5.72583827589871E-11
31
0
210
0
220
0
230
1
40
0.230868
41
2.96704007778672
42
3.14159265358979
0
POINT
5
70
100
AcDbEntity
8
80
62
256
6
ByLayer
370
18
48
1
60
0
100
AcDbPoint
10
0
20
0
30
0
39
0
210
0
220
0
230
1
50
360
0
POINT
5
72
100
AcDbEntity
8
81
62
256
6
ByLayer
370
18
48
1
60
0
100
AcDbPoint
10
75
20
35
30
0
39
0
210
0
220
0
230
1
50
360
0
POINT
5
74
100
AcDbEntity
8
1
62
256
6
ByLayer
370
18
48
1
60
1
100
AcDbPoint
10
75
20
35
30
0
39
0
210
0
220
0
230
1
50
360
0
POINT
5
76
100
AcDbEntity
8
1
62
256
6
ByLayer
370
18
48
1
60
1
100
AcDbPoint
10
0
20
0
30
0
39
0
210
0
220
0
230
1
50
360
0
POINT
5
77
100
AcDbEntity
8
1
62
256
6
ByLayer
370
18
48
1
60
1
100
AcDbPoint
10
75
20
29
30
0
39
0
210
0
220
0
230
1
50
360
0
POINT
5
78
100
AcDbEntity
8
1
62
256
6
ByLayer
370
18
48
1
60
1
100
AcDbPoint
10
75
20
35
30
0
39
0
210
0
220
0
230
1
50
360
0
POINT
5
79
100
AcDbEntity
8
1
62
256
6
ByLayer
370
18
48
1
60
1
100
AcDbPoint
10
50
20
29.325
30
0
39
0
210
0
220
0
230
1
50
360
0
POINT
5
7A
100
AcDbEntity
8
1
62
256
6
ByLayer
370
18
48
1
60
1
100
AcDbPoint
10
75
20
29
30
0
39
0
210
0
220
0
230
1
50
360
0
POINT
5
7B
100
AcDbEntity
8
1
62
256
6
ByLayer
370
18
48
1
60
1
100
AcDbPoint
10
0
20
0
30
0
39
0
210
0
220
0
230
1
50
360
0
POINT
5
7C
100
AcDbEntity
8
1
62
256
6
ByLayer
370
18
48
1
60
1
100
AcDbPoint
10
75
20
35
30
0
39
0
210
0
220
0
230
1
50
360
0
SPLINE
5
11B
100
AcDbEntity
8
SK1
62
256
6
ByLayer
370
18
48
1
60
0
100
AcDbSpline
70
4
71
3
72
11
73
7
40
0
40
0
40
0
40
0
40
0.242589954178611
40
0.502544718947534
40
0.761087572808619
40
1
40
1
40
1
40
1
41
1
10
-0.200000000000003
20
17.5545583467655
30
0
41
1
10
-0.200957889270356
20
17.5289140231062
30
0
41
1
10
-0.211248315226229
20
17.4799022728818
30
0
41
1
10
-0.255179720944128
20
17.4139496110851
30
0
41
1
10
-0.321113897423785
20
17.3707504109673
30
0
41
1
10
-0.369683795840189
20
17.3607068368228
30
0
41
1
10
-0.394913799811292
20
17.3597802673791
30
0
0
SPLINE
5
11C
100
AcDbEntity
8
SK1
62
256
6
ByLayer
370
18
48
1
60
0
100
AcDbSpline
70
4
71
3
72
11
73
7
40
0
40
0
40
0
40
0
40
0.238912427113142
40
0.497455280942537
40
0.757410045745086
40
1
40
1
40
1
40
1
41
1
10
-0.394913799811292
20
-17.3597801301672
30
0
41
1
10
-0.369683795838398
20
-17.3607066995757
30
0
41
1
10
-0.321113897416438
20
-17.3707502735068
30
0
41
1
10
-0.25517972093634
20
-17.4139494728386
30
0
41
1
10
-0.21124831522458
20
-17.4799021334559
30
0
41
1
10
-0.200957889268722
20
-17.5289138828004
30
0
41
1
10
-0.200000000000003
20
-17.5545582060014
30
0
0
SPLINE
5
11D
100
AcDbEntity
8
SK1
62
256
6
ByLayer
370
18
48
1
60
0
100
AcDbSpline
70
4
71
2
72
6
73
3
40
0
40
0
40
0
40
1
40
1
40
1
41
1
10
-28.5
20
16.8588088260863
30
0
41
1
10
-29.2499999297871
20
16.4259984461422
30
0
41
1
10
-30
20
15.9931873508859
30
0
0
SPLINE
5
11E
100
AcDbEntity
8
SK1
62
256
6
ByLayer
370
18
48
1
60
0
100
AcDbSpline
70
4
71
2
72
6
73
3
40
0
40
0
40
0
40
1
40
1
40
1
41
1
10
-30
20
-15.9931874249212
30
0
41
1
10
-29.2499999297894
20
-16.425998517687
30
0
41
1
10
-28.5
20
-16.8588088951667
30
0
0
SPLINE
5
11F
100
AcDbEntity
8
SK1
62
256
6
ByLayer
370
18
48
1
60
0
100
AcDbSpline
70
4
71
2
72
6
73
3
40
0
40
0
40
0
40
1
40
1
40
1
41
1
10
-0.394913799811292
20
17.3602209523781
30
0
41
1
10
-1.19497688886898
20
17.3401342706943
30
0
41
1
10
-1.9950399779393
20
17.3200475850767
30
0
0
SPLINE
5
120
100
AcDbEntity
8
SK1
62
256
6
ByLayer
370
18
48
1
60
0
100
AcDbSpline
70
4
71
2
72
6
73
3
40
0
40
0
40
0
40
1
40
1
40
1
41
1
10
-1.9950399779393
20
-17.3200478774323
30
0
41
1
10
-1.19497688886898
20
-17.340134563042
30
0
41
1
10
-0.394913799811292
20
-17.3602212447177
30
0
0
SPLINE
5
121
100
AcDbEntity
8
SK1
62
256
6
ByLayer
370
18
48
1
60
0
100
AcDbSpline
70
4
71
3
72
13
73
9
40
0
40
0
40
0
40
0
40
0.239505987673083
40
0.368426538155688
40
0.500072261058321
40
0.631705987654816
40
0.760593443052916
40
1
40
1
40
1
40
1
41
1
10
-1.9950399779393
20
17.3252686883828
30
0
41
1
10
-2.02110925982341
20
17.3248665791032
30
0
41
1
10
-2.05883863809936
20
17.3310361992814
30
0
41
1
10
-2.10627567686484
20
17.3540696096461
30
0
41
1
10
-2.13886243911925
20
17.3792256041407
30
0
41
1
10
-2.16563490776916
20
17.4104933211739
30
0
41
1
10
-2.19103207710596
20
17.4566915621889
30
0
41
1
10
-2.19909121921685
20
17.4940488942773
30
0
41
1
10
-2.2
20
17.5200961072231
30
0
0
SPLINE
5
122
100
AcDbEntity
8
SK1
62
256
6
ByLayer
370
18
48
1
60
0
100
AcDbSpline
70
4
71
3
72
13
73
9
40
0
40
0
40
0
40
0
40
0.239406556342956
40
0.368294011542631
40
0.499927738071791
40
0.631573461053609
40
0.76049401174041
40
1
40
1
40
1
40
1
41
1
10
-2.2
20
-17.5200962264206
30
0
41
1
10
-2.19909121920765
20
-17.4940490135991
30
0
41
1
10
-2.19103207709688
20
-17.4566916816953
30
0
41
1
10
-2.16563490775661
20
-17.4104934409328
30
0
41
1
10
-2.13886243910255
20
-17.379225724067
30
0
41
1
10
-2.106275676847
20
-17.3540697297104
30
0
41
1
10
-2.05883863807624
20
-17.3310363194718
30
0
41
1
10
-2.0211092598112
20
-17.3248666993254
30
0
41
1
10
-1.9950399779393
20
-17.3252688086104
30
0
0
SPLINE
5
123
100
AcDbEntity
8
SK1
62
256
6
ByLayer
370
18
48
1
60
0
100
AcDbSpline
70
4
71
2
72
6
73
3
40
0
40
0
40
0
40
1
40
1
40
1
41
1
10
-2.2
20
17.5148287077807
30
0
41
1
10
-15.3499999982432
20
17.1846805562453
30
0
41
1
10
-28.5
20
16.8545313165689
30
0
0
SPLINE
5
124
100
AcDbEntity
8
SK1
62
256
6
ByLayer
370
18
48
1
60
0
100
AcDbSpline
70
4
71
2
72
6
73
3
40
0
40
0
40
0
40
1
40
1
40
1
41
1
10
-28.5
20
-16.8545316091351
30
0
41
1
10
-15.3499999982428
20
-17.1846808487114
30
0
41
1
10
-2.2
20
-17.5148290000611
30
0
0
SPLINE
5
125
100
AcDbEntity
8
1
62
256
6
ByLayer
370
18
48
1
60
0
100
AcDbSpline
70
4
71
3
72
10
73
6
40
0
40
0
40
0
40
0
40
0.499999999999999
40
0.499999999999999
40
1
40
1
40
1
40
1
41
1
10
23.8571321823305
20
34.6749999999907
30
0
41
1
10
23.4791106799305
20
33.2543766909831
30
0
41
1
10
23.101382628706
20
31.833675270849
30
0
41
1
10
22.3467951812628
20
28.992041211125
30
0
41
1
10
21.9699306830525
20
27.571108439368
30
0
41
1
10
21.5937415683672
20
26.15
30
0
0
SPLINE
5
126
100
AcDbEntity
8
1
62
256
6
ByLayer
370
18
48
1
60
0
100
AcDbSpline
70
4
71
3
72
16
73
12
40
0
40
0
40
0
40
0
40
0.249999999999992
40
0.249999999999992
40
0.499999999999983
40
0.499999999999983
40
0.624999999999987
40
0.624999999999987
40
0.749999999999992
40
0.749999999999992
40
1
40
1
40
1
40
1
41
1
10
21.5937415683672
20
26.15
30
0
41
1
10
21.5805320755465
20
26.1000992426564
30
0
41
1
10
21.5673406201506
20
26.0508462588363
30
0
41
1
10
21.5409897794192
20
25.9535806104732
30
0
41
1
10
21.5278304001528
20
25.9055680925487
30
0
41
1
10
21.5081174763668
20
25.8345000631933
30
0
41
1
10
21.501528166244
20
25.8108890873348
30
0
41
1
10
21.4884882148788
20
25.7644544496638
30
0
41
1
10
21.4820417238425
20
25.7416442760654
30
0
41
1
10
21.4629220190385
20
25.674422949395
30
0
41
1
10
21.45046715232
20
25.6312140525811
30
0
41
1
10
21.4383186059721
20
25.589659530439
30
0
0
SPLINE
5
127
100
AcDbEntity
8
1
62
256
6
ByLayer
370
18
48
1
60
0
100
AcDbSpline
70
4
71
3
72
37
73
33
40
0
40
0
40
0
40
0
40
0.0312499999999963
40
0.0312499999999963
40
0.0624999999999925
40
0.124999999999985
40
0.124999999999985
40
0.249999999999968
40
0.249999999999968
40
0.281249999999963
40
0.281249999999963
40
0.312499999999958
40
0.312499999999958
40
0.374999999999954
40
0.374999999999954
40
0.499999999999939
40
0.499999999999939
40
0.531249999999938
40
0.531249999999938
40
0.562499999999936
40
0.624999999999938
40
0.687499999999939
40
0.687499999999939
40
0.71874999999994
40
0.71874999999994
40
0.74999999999994
40
0.74999999999994
40
0.874999999999967
40
0.874999999999967
40
0.937499999999984
40
0.937499999999984
40
1
40
1
40
1
40
1
41
1
10
28.6979991993593
20
25.15
30
0
41
1
10
28.7161596625569
20
25.15
30
0
41
1
10
28.7343436715721
20
25.1503025762776
30
0
41
1
10
28.7705404692686
20
25.1515196643775
30
0
41
1
10
28.8246748030338
20
25.1542634146374
30
0
41
1
10
28.8783209647337
20
25.1597933881372
30
0
41
1
10
28.9849379288975
20
25.1747079219338
30
0
41
1
10
29.0551208774945
20
25.1897592794783
30
0
41
1
10
29.1415829778381
20
25.2158024637559
30
0
41
1
10
29.1588116390368
20
25.2213750019034
30
0
41
1
10
29.1931357597246
20
25.2332803218201
30
0
41
1
10
29.2102683325627
20
25.2396289977521
30
0
41
1
10
29.2610060787218
20
25.2596878790594
30
0
41
1
10
29.2940493017973
20
25.2744353258394
30
0
41
1
10
29.3907724756647
20
25.3229089218058
30
0
41
1
10
29.4520714248128
20
25.3608215019205
30
0
41
1
10
29.5242042253867
20
25.4161083927452
30
0
41
1
10
29.5384465541441
20
25.4276015592398
30
0
41
1
10
29.5661892927071
20
25.4511913425105
30
0
41
1
10
29.6067111080115
20
25.4874857382757
30
0
41
1
10
29.6688047152749
20
25.5525094185346
30
0
41
1
10
29.7125622959425
20
25.6094566175086
30
0
41
1
10
29.7430477949145
20
25.6541098054289
30
0
41
1
10
29.7528200581636
20
25.6693186563508
30
0
41
1
10
29.7715554404667
20
25.7004102576542
30
0
41
1
10
29.7805452052648
20
25.7163445309867
30
0
41
1
10
29.8230509325826
20
25.7971584961779
30
0
41
1
10
29.8488697960024
20
25.8644367321645
30
0
41
1
10
29.8752531168167
20
25.9693159907482
30
0
41
1
10
29.8819729542626
20
26.0049415512714
30
0
41
1
10
29.8910147230195
20
26.0776041037324
30
0
41
1
10
29.8932370625239
20
26.1138738724258
30
0
41
1
10
29.8932370625239
20
26.15
30
0
0
SPLINE
5
128
100
AcDbEntity
8
1
62
256
6
ByLayer
370
18
48
1
60
0
100
AcDbSpline
70
4
71
3
72
33
73
29
40
0
40
0
40
0
40
0
40
0.125000000000002
40
0.125000000000002
40
0.187500000000003
40
0.187500000000003
40
0.250000000000003
40
0.312500000000004
40
0.312500000000004
40
0.343750000000003
40
0.343750000000003
40
0.375000000000002
40
0.375000000000002
40
0.500000000000003
40
0.500000000000003
40
0.562500000000005
40
0.562500000000005
40
0.593750000000004
40
0.593750000000004
40
0.625000000000003
40
0.625000000000003
40
0.750000000000001
40
0.750000000000001
40
0.812499999999999
40
0.812499999999999
40
0.874999999999997
40
0.874999999999997
40
1
40
1
40
1
40
1
41
1
10
30.2792156108743
20
26.15
30
0
41
1
10
30.2792156108743
20
26.0832436260867
30
0
41
1
10
30.2724024636134
20
26.017099031744
30
0
41
1
10
30.2519070702788
20
25.918804833698
30
0
41
1
10
30.243288334735
20
25.8860488117296
30
0
41
1
10
30.2229298975619
20
25.8222481913133
30
0
41
1
10
30.1994237772517
20
25.7598760962957
30
0
41
1
10
30.1697769675525
20
25.7002908544577
30
0
41
1
10
30.1452277297467
20
25.6566521540257
30
0
41
1
10
30.1366582573285
20
25.6422812788688
30
0
41
1
10
30.1187359240042
20
25.6138950568287
30
0
41
1
10
30.1093565962302
20
25.5998444499674
30
0
41
1
10
30.0609510550853
20
25.5311735123727
30
0
41
1
10
30.0172761539375
20
25.4809191664987
30
0
41
1
10
29.9446575523051
20
25.412259099656
30
0
41
1
10
29.9192581400242
20
25.3905010109516
30
0
41
1
10
29.879331242548
20
25.359592684126
30
0
41
1
10
29.8657552067244
20
25.3496106169166
30
0
41
1
10
29.8382758559522
20
25.3304211683924
30
0
41
1
10
29.8243435742831
20
25.3211910993284
30
0
41
1
10
29.7537383245528
20
25.2768276981421
30
0
41
1
10
29.6942590621149
20
25.2470074317023
30
0
41
1
10
29.600599587541
20
25.2106842391689
30
0
41
1
10
29.5685154439817
20
25.1999671223375
30
0
41
1
10
29.5040980234737
20
25.1817637186531
30
0
41
1
10
29.4716360317391
20
25.1742157749747
30
0
41
1
10
29.3735131192457
20
25.1560926942454
30
0
41
1
10
29.3071055833143
20
25.15
30
0
41
1
10
29.2397368307141
20
25.15
30
0
0
SPLINE
5
129
100
AcDbEntity
8
1
62
256
6
ByLayer
370
18
48
1
60
0
100
AcDbSpline
70
4
71
3
72
16
73
12
40
0
40
0
40
0
40
0
40
0.250000000000001
40
0.250000000000001
40
0.500000000000001
40
0.500000000000001
40
0.750000000000002
40
0.750000000000002
40
0.875000000000001
40
0.875000000000001
40
1
40
1
40
1
40
1
41
1
10
66.774406808652
20
31.5
30
0
41
1
10
66.7537677243637
20
31.3317615078886
30
0
41
1
10
66.7329945381364
20
31.1635602573309
30
0
41
1
10
66.6910037663428
20
30.8272851112454
30
0
41
1
10
66.6697923291861
20
30.6592071762572
30
0
41
1
10
66.6265620734993
20
30.3232907952801
30
0
41
1
10
66.6045699210322
20
30.1554509537486
30
0
41
1
10
66.5702675579685
20
29.9041037014617
30
0
41
1
10
66.5586099642817
20
29.8203914326523
30
0
41
1
10
66.5345279266474
20
29.6532076112175
30
0
41
1
10
66.5221206439949
20
29.5697306716193
30
0
41
1
10
66.5089628852597
20
29.4864893083101
30
0
0
SPLINE
5
12A
100
AcDbEntity
8
1
62
256
6
ByLayer
370
18
48
1
60
0
100
AcDbSpline
70
4
71
3
72
8
73
4
40
0
40
0
40
0
40
0
40
1
40
1
40
1
40
1
41
1
10
66.9330397954621
20
31.5840772376136
30
0
41
1
10
66.8802128688877
20
31.5558111996548
30
0
41
1
10
66.8273535334488
20
31.5276986550821
30
0
41
1
10
66.774406808652
20
31.5
30
0
0
SPLINE
5
12B
100
AcDbEntity
8
1
62
256
6
ByLayer
370
18
48
1
60
0
100
AcDbSpline
70
4
71
3
72
20
73
16
40
0
40
0
40
0
40
0
40
0.24999999999992
40
0.24999999999992
40
0.374999999999933
40
0.374999999999933
40
0.499999999999947
40
0.499999999999947
40
0.62499999999996
40
0.62499999999996
40
0.749999999999973
40
0.749999999999973
40
0.874999999999987
40
0.874999999999987
40
1
40
1
40
1
40
1
41
1
10
67
20
31.7250311307315
30
0
41
1
10
66.9999999999999
20
31.7094958819083
30
0
41
1
10
66.9984050459486
20
31.6943684079369
30
0
41
1
10
66.9936571096376
20
31.6722794185904
30
0
41
1
10
66.9916895717912
20
31.6651134158443
30
0
41
1
10
66.9870887035605
20
31.6514438932602
30
0
41
1
10
66.9844457620998
20
31.6448943918017
30
0
41
1
10
66.9784667668225
20
31.6323726527539
30
0
41
1
10
66.9751283008422
20
31.6264174806154
30
0
41
1
10
66.9679840522907
20
31.6154842294122
30
0
41
1
10
66.9641534857344
20
31.6104500648764
30
0
41
1
10
66.9559769729611
20
31.6012441397309
30
0
41
1
10
66.9516060515024
20
31.5970596501624
30
0
41
1
10
66.9425740123839
20
31.5897898375515
30
0
41
1
10
66.9378909441321
20
31.5866729357044
30
0
41
1
10
66.9330397954621
20
31.5840772376136
30
0
0
SPLINE
5
12C
100
AcDbEntity
8
1
62
256
6
ByLayer
370
18
48
1
60
0
100
AcDbSpline
70
4
71
3
72
20
73
16
40
0
40
0
40
0
40
0
40
0.24999999999991
40
0.24999999999991
40
0.374999999999925
40
0.374999999999925
40
0.49999999999994
40
0.49999999999994
40
0.624999999999955
40
0.624999999999955
40
0.74999999999997
40
0.74999999999997
40
0.874999999999985
40
0.874999999999985
40
1
40
1
40
1
40
1
41
1
10
66.933039795462
20
32.4159227623864
30
0
41
1
10
66.9427422487555
20
32.4107312827591
30
0
41
1
10
66.9517092968701
20
32.403529525354
30
0
41
1
10
66.9640470829709
20
32.3896850163107
30
0
41
1
10
66.9679371835433
20
32.3845799203337
30
0
41
1
10
66.9750781767345
20
32.3736667010935
30
0
41
1
10
66.9783611160118
20
32.367824199769
30
0
41
1
10
66.9843397653764
20
32.3553511564103
30
0
41
1
10
66.9870434392173
20
32.3486770600967
30
0
41
1
10
66.9916642630196
20
32.334975103544
30
0
41
1
10
66.9936086504077
20
32.3279014713725
30
0
41
1
10
66.9967642469955
20
32.3133082123662
30
0
41
1
10
66.9979798151933
20
32.3057306632175
30
0
41
1
10
66.9995937631251
20
32.2904457315629
30
0
41
1
10
67.0000000000113
20
32.2827395802012
30
0
41
1
10
67.0000000000113
20
32.2749688692704
30
0
0
SPLINE
5
12D
100
AcDbEntity
8
1
62
256
6
ByLayer
370
18
48
1
60
0
100
AcDbSpline
70
4
71
3
72
8
73
4
40
0
40
0
40
0
40
0
40
1
40
1
40
1
40
1
41
1
10
66.774406808652
20
32.5
30
0
41
1
10
66.8273598960423
20
32.4722980163781
30
0
41
1
10
66.8802175315188
20
32.444186305517
30
0
41
1
10
66.933039795462
20
32.4159227623864
30
0
0
SPLINE
5
12E
100
AcDbEntity
8
1
62
256
6
ByLayer
370
18
48
1
60
0
100
AcDbSpline
70
4
71
3
72
16
73
12
40
0
40
0
40
0
40
0
40
0.125
40
0.125
40
0.25
40
0.25
40
0.5
40
0.5
40
0.75
40
0.75
40
1
40
1
40
1
40
1
41
1
10
66.5089628852597
20
34.5135106916899
30
0
41
1
10
66.5221180303294
20
34.4302858634974
30
0
41
1
10
66.5345255867988
20
34.3468084681373
30
0
41
1
10
66.5586102290944
20
34.1796068934224
30
0
41
1
10
66.5702699428618
20
34.095879162532
30
0
41
1
10
66.6045749680554
20
33.8445113863893
30
0
41
1
10
66.6265668124317
20
33.6766727664949
30
0
41
1
10
66.6697949910066
20
33.3407717550911
30
0
41
1
10
66.6910054231555
20
33.1727016917547
30
0
41
1
10
66.732995258765
20
32.8364339003747
30
0
41
1
10
66.7537681164735
20
32.6682352958507
30
0
41
1
10
66.7744068086523
20
32.5000000000009
30
0
0
SPLINE
5
12F
100
AcDbEntity
8
1
62
256
6
ByLayer
370
18
48
1
60
0
100
AcDbSpline
70
4
71
3
72
10
73
6
40
0
40
0
40
0
40
0
40
0.5
40
0.5
40
1
40
1
40
1
40
1
41
1
10
21.4383186059721
20
25.15
30
0
41
1
10
21.5073348576298
20
25.15
30
0
41
1
10
21.5936444094142
20
25.15
30
0
41
1
10
21.797251757718
20
25.15
30
0
41
1
10
21.9145291166964
20
25.15
30
0
41
1
10
22.0452164507293
20
25.15
30
0
0
SPLINE
5
130
100
AcDbEntity
8
1
62
256
6
ByLayer
370
18
48
1
60
0
100
AcDbSpline
70
4
71
3
72
31
73
27
40
0
40
0
40
0
40
0
40
0.023475507546056
40
0.023475507546056
40
0.0293443844325699
40
0.0293443844325699
40
0.0352132613190839
40
0.0469510150921118
40
0.0939020301842241
40
0.187804060368449
40
0.187804060368449
40
0.375608120736898
40
0.375608120736898
40
0.469510150921123
40
0.469510150921123
40
0.563412181105348
40
0.563412181105348
40
0.657314211289573
40
0.657314211289573
40
0.751216241473798
40
0.751216241473798
40
0.845118271658022
40
0.845118271658022
40
0.939020301842247
40
0.939020301842247
40
1
40
1
40
1
40
1
41
1
10
21.4383186059721
20
25.15
30
0
41
1
10
21.4352764904254
20
25.15
30
0
41
1
10
21.432089395682
20
25.15
30
0
41
1
10
21.4279338744324
20
25.15
30
0
41
1
10
21.4270854740373
20
25.15
30
0
41
1
10
21.4253754180396
20
25.15
30
0
41
1
10
21.422784669936
20
25.15
30
0
41
1
10
21.4130069032097
20
25.15
30
0
41
1
10
21.3877658048805
20
25.15
30
0
41
1
10
21.3602831824582
20
25.15
30
0
41
1
10
21.301077194839
20
25.15
30
0
41
1
10
21.2559208195015
20
25.15
30
0
41
1
10
21.1850417331747
20
25.15
30
0
41
1
10
21.1608954295142
20
25.15
30
0
41
1
10
21.1126090080194
20
25.15
30
0
41
1
10
21.0884667435637
20
25.15
30
0
41
1
10
21.0414356399343
20
25.15
30
0
41
1
10
21.0185451573696
20
25.15
30
0
41
1
10
20.9755352241285
20
25.15
30
0
41
1
10
20.9554183968521
20
25.15
30
0
41
1
10
20.9197454728762
20
25.15
30
0
41
1
10
20.9042014715544
20
25.15
30
0
41
1
10
20.8795352807617
20
25.15
30
0
41
1
10
20.8704350840159
20
25.15
30
0
41
1
10
20.861884259381
20
25.15
30
0
41
1
10
20.8601760905817
20
25.15
30
0
41
1
10
20.860163605961
20
25.15
30
0
0
SPLINE
5
131
100
AcDbEntity
8
1
62
256
6
ByLayer
370
18
48
1
60
0
100
AcDbSpline
70
4
71
3
72
26
73
22
40
0
40
0
40
0
40
0
40
0.124999999999994
40
0.124999999999994
40
0.249999999999988
40
0.249999999999988
40
0.312499999999985
40
0.312499999999985
40
0.374999999999983
40
0.374999999999983
40
0.49999999999998
40
0.49999999999998
40
0.562499999999979
40
0.562499999999979
40
0.624999999999978
40
0.624999999999978
40
0.749999999999985
40
0.749999999999985
40
0.874999999999993
40
0.874999999999993
40
1
40
1
40
1
40
1
41
1
10
21.11644918328
20
25.15
30
0
41
1
10
21.1218738751806
20
25.15
30
0
41
1
10
21.1300054568013
20
25.1527760292951
30
0
41
1
10
21.1502559577502
20
25.1632534201059
30
0
41
1
10
21.162374395983
20
25.1709589861924
30
0
41
1
10
21.1826336751786
20
25.1860663760904
30
0
41
1
10
21.1897363033316
20
25.1916973046665
30
0
41
1
10
21.2045033255989
20
25.2041529907878
30
0
41
1
10
21.2120964141049
20
25.2109178346418
30
0
41
1
10
21.2353023835193
20
25.2327802464766
30
0
41
1
10
21.2513358761467
20
25.2494367389821
30
0
41
1
10
21.275578493945
20
25.277554796389
30
0
41
1
10
21.2836932181025
20
25.2874520260504
30
0
41
1
10
21.2998971034367
20
25.3083247595892
30
0
41
1
10
21.3079972754771
20
25.3193159187441
30
0
41
1
10
21.3320569967699
20
25.3538776642511
30
0
41
1
10
21.3475766188662
20
25.3787417223382
30
0
41
1
10
21.3769801014244
20
25.4322089639123
30
0
41
1
10
21.3908676442061
20
25.4608112468155
30
0
41
1
10
21.4164250425089
20
25.5220606024185
30
0
41
1
10
21.4280993217987
20
25.5547041161612
30
0
41
1
10
21.4383186059721
20
25.589659530439
30
0
0
SPLINE
5
132
100
AcDbEntity
8
1
62
256
6
ByLayer
370
18
48
1
60
0
100
AcDbSpline
70
4
71
3
72
65
73
61
40
0
40
0
40
0
40
0
40
0.0624999999999956
40
0.0624999999999956
40
0.124999999999991
40
0.124999999999991
40
0.14062499999999
40
0.14062499999999
40
0.156249999999988
40
0.156249999999988
40
0.187499999999987
40
0.187499999999987
40
0.249999999999984
40
0.249999999999984
40
0.281249999999984
40
0.281249999999984
40
0.296874999999984
40
0.296874999999984
40
0.312499999999984
40
0.312499999999984
40
0.374999999999985
40
0.374999999999985
40
0.437499999999986
40
0.437499999999986
40
0.468749999999986
40
0.484374999999986
40
0.484374999999986
40
0.499999999999986
40
0.499999999999986
40
0.562499999999988
40
0.562499999999988
40
0.624999999999989
40
0.624999999999989
40
0.68749999999999
40
0.68749999999999
40
0.749999999999992
40
0.749999999999992
40
0.781249999999993
40
0.781249999999993
40
0.812499999999994
40
0.812499999999994
40
0.843749999999995
40
0.843749999999995
40
0.874999999999996
40
0.874999999999996
40
0.906249999999997
40
0.906249999999997
40
0.937499999999998
40
0.937499999999998
40
0.953124999999999
40
0.953124999999999
40
0.968749999999999
40
0.968749999999999
40
0.976562499999999
40
0.976562499999999
40
0.984375
40
0.984375
40
0.9921875
40
0.9921875
40
1
40
1
40
1
40
1
41
1
10
24.0778214368807
20
-11.0000115189476
30
0
41
1
10
23.9209761406175
20
-11.0003879312767
30
0
41
1
10
23.766600680394
20
-11.0099461646997
30
0
41
1
10
23.4624464683746
20
-11.0461585608314
30
0
41
1
10
23.3126693679854
20
-11.0728188135215
30
0
41
1
10
23.1282370361579
20
-11.1165217717551
30
0
41
1
10
23.0914904669477
20
-11.1257829021574
30
0
41
1
10
23.0182767166896
20
-11.1453448597055
30
0
41
1
10
22.9818736015284
20
-11.1556309413538
30
0
41
1
10
22.873966090635
20
-11.1877616594128
30
0
41
1
10
22.803482541072
20
-11.2109503779395
30
0
41
1
10
22.5961204162085
20
-11.2854875790392
30
0
41
1
10
22.4633149381364
20
-11.3417883206741
30
0
41
1
10
22.2715046258064
20
-11.4352410959817
30
0
41
1
10
22.2088050609595
20
-11.4678974357163
30
0
41
1
10
22.1165496591414
20
-11.5190658184604
30
0
41
1
10
22.0860905329793
20
-11.5364920649045
30
0
41
1
10
22.0261384007957
20
-11.5718335947714
30
0
41
1
10
21.9965954682184
20
-11.5897759091182
30
0
41
1
10
21.8509631677374
20
-11.680793483251
30
0
41
1
10
21.741091673925
20
-11.757768368733
30
0
41
1
10
21.5330067835902
20
-11.9190431240036
30
0
41
1
10
21.4348017899824
20
-12.0033481574577
30
0
41
1
10
21.2954820405387
20
-12.1348377676415
30
0
41
1
10
21.2278247637765
20
-12.2018441904392
30
0
41
1
10
21.1630715900226
20
-12.2706834862868
30
0
41
1
10
21.1205396524331
20
-12.3169787228108
30
0
41
1
10
21.0995949286625
20
-12.3403258769
30
0
41
1
10
20.9969093874257
20
-12.4575062662098
30
0
41
1
10
20.9208566971261
20
-12.5531007461224
30
0
41
1
10
20.7796568075318
20
-12.7476364653321
30
0
41
1
10
20.7145151494138
20
-12.8465788638902
30
0
41
1
10
20.5943000365191
20
-13.0476111035686
30
0
41
1
10
20.5392296194647
20
-13.1497006469877
30
0
41
1
10
20.4386265941417
20
-13.3569634349291
30
0
41
1
10
20.3930955834197
20
-13.4621336956987
30
0
41
1
10
20.3317352222602
20
-13.6222871668292
30
0
41
1
10
20.3124199785326
20
-13.6761339985379
30
0
41
1
10
20.2762044900277
20
-13.7843180446183
30
0
41
1
10
20.2593021770947
20
-13.8386493227854
30
0
41
1
10
20.2278569413826
20
-13.9478619882758
30
0
41
1
10
20.213314040511
20
-14.0027418426792
30
0
41
1
10
20.1865508366078
20
-14.1131851745047
30
0
41
1
10
20.1743305001334
20
-14.1687446178099
30
0
41
1
10
20.1521902343936
20
-14.2808188042158
30
0
41
1
10
20.1422726063342
20
-14.3373176491469
30
0
41
1
10
20.1247655238001
20
-14.4516339512525
30
0
41
1
10
20.1171688701466
20
-14.5094311660175
30
0
41
1
10
20.107520147414
20
-14.5984041913364
30
0
41
1
10
20.1045927454125
20
-14.6284823166432
30
0
41
1
10
20.0993500480868
20
-14.6897801147848
30
0
41
1
10
20.0970328355596
20
-14.720984948632
30
0
41
1
10
20.0940390978454
20
-14.7694293812774
30
0
41
1
10
20.0931217449795
20
-14.7858559500221
30
0
41
1
10
20.0914587754608
20
-14.819528082842
30
0
41
1
10
20.0907130804365
20
-14.8367988349584
30
0
41
1
10
20.0894335329779
20
-14.8719178852133
30
0
41
1
10
20.0888962507726
20
-14.8898245239406
30
0
41
1
10
20.0880516950442
20
-14.9266244706939
30
0
41
1
10
20.0877441277657
20
-14.9455188425489
30
0
41
1
10
20.0875732991938
20
-14.9650938580066
30
0
0
SPLINE
5
133
100
AcDbEntity
8
1
62
256
6
ByLayer
370
18
48
1
60
0
100
AcDbSpline
70
4
71
3
72
10
73
6
40
0
40
0
40
0
40
0
40
0.5
40
0.5
40
1
40
1
40
1
40
1
41
1
10
22.0452164507293
20
25.15
30
0
41
1
10
21.9401268744199
20
24.6797499617203
30
0
41
1
10
21.8368097834279
20
24.2099479615162
30
0
41
1
10
21.6342961592223
20
23.2712050855947
30
0
41
1
10
21.5350983866006
20
22.8022639883483
30
0
41
1
10
21.4383186059721
20
22.3337405327214
30
0
0
SPLINE
5
134
100
AcDbEntity
8
1
62
256
6
ByLayer
370
18
48
1
60
0
100
AcDbSpline
70
4
71
3
72
26
73
22
40
0
40
0
40
0
40
0
40
0.125
40
0.125
40
0.250000000000001
40
0.250000000000001
40
0.375000000000001
40
0.375000000000001
40
0.500000000000001
40
0.500000000000001
40
0.625000000000001
40
0.625000000000001
40
0.750000000000002
40
0.750000000000002
40
0.875000000000002
40
0.875000000000002
40
0.906250000000001
40
0.906250000000001
40
0.937499999999999
40
0.937499999999999
40
1
40
1
40
1
40
1
41
1
10
20.2792076144253
20
20.113995121038
30
0
41
1
10
20.312851200709
20
20.1892679334587
30
0
41
1
10
20.3505216716455
20
20.2638762053675
30
0
41
1
10
20.4331582702033
20
20.4136809203025
30
0
41
1
10
20.4781261880455
20
20.4888789659664
30
0
41
1
10
20.5742075667729
20
20.642061665901
30
0
41
1
10
20.6253234688502
20
20.7200458097035
30
0
41
1
10
20.7320953656148
20
20.8812537011921
30
0
41
1
10
20.7877561403076
20
20.9644728392687
30
0
41
1
10
20.9014564295983
20
21.1389257528605
30
0
41
1
10
20.9595068649615
20
21.2301457438596
30
0
41
1
10
21.0750527748138
20
21.4239471729721
30
0
41
1
10
21.131488493698
20
21.5247948365914
30
0
41
1
10
21.2375943351222
20
21.7366141466075
30
0
41
1
10
21.2873228981266
20
21.8475651537303
30
0
41
1
10
21.3419894424996
20
21.9947068927049
30
0
41
1
10
21.3525474478782
20
22.0245852907082
30
0
41
1
10
21.3726396686351
20
22.0847958438382
30
0
41
1
10
21.3821947961361
20
22.1151812768342
30
0
41
1
10
21.4092357602441
20
22.2072335426144
30
0
41
1
10
21.4251087737332
20
22.2697900235484
30
0
41
1
10
21.4383186059721
20
22.3337405327215
30
0
0
SPLINE
5
135
100
AcDbEntity
8
1
62
256
6
ByLayer
370
18
48
1
60
0
100
AcDbSpline
70
4
71
3
72
26
73
22
40
0
40
0
40
0
40
0
40
0.0625000000000001
40
0.0625000000000001
40
0.0937499999999972
40
0.0937499999999972
40
0.124999999999994
40
0.124999999999994
40
0.249999999999991
40
0.249999999999991
40
0.374999999999987
40
0.374999999999987
40
0.437499999999986
40
0.437499999999986
40
0.499999999999985
40
0.499999999999985
40
0.624999999999986
40
0.624999999999986
40
0.74999999999999
40
0.74999999999999
40
1
40
1
40
1
40
1
41
1
10
11.4613248654052
20
23.8391299750502
30
0
41
1
10
11.4772013120199
20
23.8391299750502
30
0
41
1
10
11.4927843117433
20
23.8386381480423
30
0
41
1
10
11.5157579869923
20
23.8372273769848
30
0
41
1
10
11.5233488813097
20
23.8366445991221
30
0
41
1
10
11.5384012334117
20
23.8352611656444
30
0
41
1
10
11.5458956692735
20
23.8344558067494
30
0
41
1
10
11.5824040005111
20
23.8299833264009
30
0
41
1
10
11.6089650834003
20
23.8249896713849
30
0
41
1
10
11.6582924559948
20
23.813005969379
30
0
41
1
10
11.6801688454703
20
23.8062336877525
30
0
41
1
10
11.7102266942347
20
23.7952700628808
30
0
41
1
10
11.719773612984
20
23.7914778883489
30
0
41
1
10
11.7380555263963
20
23.7836514357395
30
0
41
1
10
11.7468017366172
20
23.7796095569562
30
0
41
1
10
11.7716769242357
20
23.7673085978343
30
0
41
1
10
11.7865761040498
20
23.7588292909636
30
0
41
1
10
11.8138519277098
20
23.7414211400326
30
0
41
1
10
11.8262196262291
20
23.7324910902464
30
0
41
1
10
11.8602443227467
20
23.7051129235882
30
0
41
1
10
11.8788862370737
20
23.686033116806
30
0
41
1
10
11.8943375672975
20
23.6665017920808
30
0
0
SPLINE
5
136
100
AcDbEntity
8
1
62
256
6
ByLayer
370
18
48
1
60
0
100
AcDbSpline
70
4
71
3
72
30
73
26
40
0
40
0
40
0
40
0
40
0.249999999999995
40
0.249999999999995
40
0.374999999999995
40
0.374999999999995
40
0.437499999999993
40
0.437499999999993
40
0.499999999999992
40
0.499999999999992
40
0.624999999999995
40
0.624999999999995
40
0.687499999999995
40
0.687499999999995
40
0.749999999999995
40
0.749999999999995
40
0.812499999999996
40
0.812499999999996
40
0.843749999999996
40
0.843749999999996
40
0.874999999999996
40
0.874999999999996
40
0.937499999999998
40
0.937499999999998
40
1
40
1
40
1
40
1
41
1
10
11.8943375672973
20
8.05584836782793
30
0
41
1
10
11.8788923030149
20
7.9984916943493
30
0
41
1
10
11.8604037172645
20
7.94218253951274
30
0
41
1
10
11.8264575712212
20
7.85991012495438
30
0
41
1
10
11.8140962699691
20
7.83285506058513
30
0
41
1
10
11.7935837333005
20
7.79297622996174
30
0
41
1
10
11.7864159259844
20
7.77980127287401
30
0
41
1
10
11.7713191828915
20
7.75372482186648
30
0
41
1
10
11.7633824368151
20
7.74081492713998
30
0
41
1
10
11.7384769785308
20
7.70292805784948
30
0
41
1
10
11.7203772593316
20
7.67866353751202
30
0
41
1
10
11.6901125047558
20
7.64434849039861
30
0
41
1
10
11.6794995583259
20
7.63327217102554
30
0
41
1
10
11.6573691354905
20
7.6123213786517
30
0
41
1
10
11.6458165560481
20
7.60240297286816
30
0
41
1
10
11.6215461384039
20
7.58390025536218
30
0
41
1
10
11.6088302857938
20
7.57531366225038
30
0
41
1
10
11.5886665813883
20
7.56368345606458
30
0
41
1
10
11.5817366894217
20
7.56000567013081
30
0
41
1
10
11.5676991017995
20
7.55323657194805
30
0
41
1
10
11.5605721090664
20
7.55013193108829
30
0
41
1
10
11.5388449404601
20
7.54171396614049
30
0
41
1
10
11.5239007732522
20
7.53729092133955
30
0
41
1
10
11.4929356027573
20
7.53123335639168
30
0
41
1
10
11.477175816822
20
7.52966679426498
30
0
41
1
10
11.4613248654052
20
7.52966679426498
30
0
0
SPLINE
5
137
100
AcDbEntity
8
1
62
256
6
ByLayer
370
18
48
1
60
0
100
AcDbSpline
70
4
71
3
72
26
73
22
40
0
40
0
40
0
40
0
40
0.0625000000000022
40
0.0625000000000022
40
0.0937500000000062
40
0.0937500000000062
40
0.12500000000001
40
0.12500000000001
40
0.250000000000014
40
0.250000000000014
40
0.375000000000018
40
0.375000000000018
40
0.437500000000018
40
0.437500000000018
40
0.500000000000017
40
0.500000000000017
40
0.625000000000013
40
0.625000000000013
40
0.750000000000009
40
0.750000000000009
40
1
40
1
40
1
40
1
41
1
10
8.53867513459488
20
7.52966679426521
30
0
41
1
10
8.52279868798016
20
7.52966679426521
30
0
41
1
10
8.50721568825682
20
7.53122440152964
30
0
41
1
10
8.48424201300779
20
7.53568798536668
30
0
41
1
10
8.47665111869043
20
7.53753139400649
30
0
41
1
10
8.46159876658839
20
7.54190496002269
30
0
41
1
10
8.45410433072652
20
7.54444995843585
30
0
41
1
10
8.41759599948898
20
7.55857361750122
30
0
41
1
10
8.39103491659975
20
7.57431556968126
30
0
41
1
10
8.3417075440052
20
7.61190750686279
30
0
41
1
10
8.31983115452977
20
7.63307325241217
30
0
41
1
10
8.28977330576538
20
7.66715495165661
30
0
41
1
10
8.280226387016
20
7.67891539799638
30
0
41
1
10
8.26194447360365
20
7.70312184666892
30
0
41
1
10
8.25319826338281
20
7.71559105034083
30
0
41
1
10
8.22832307576428
20
7.75343444963914
30
0
41
1
10
8.21342389595023
20
7.77938351245623
30
0
41
1
10
8.18614807229017
20
7.83234954293019
30
0
41
1
10
8.17378037377094
20
7.85937042586599
30
0
41
1
10
8.13975567725333
20
7.94172327888205
30
0
41
1
10
8.12111376292626
20
7.99846916820721
30
0
41
1
10
8.10566243270253
20
8.05584836782785
30
0
0
SPLINE
5
138
100
AcDbEntity
8
1
62
256
6
ByLayer
370
18
48
1
60
0
100
AcDbSpline
70
4
71
3
72
30
73
26
40
0
40
0
40
0
40
0
40
0.249999999999988
40
0.249999999999988
40
0.374999999999983
40
0.374999999999983
40
0.437499999999982
40
0.437499999999982
40
0.499999999999982
40
0.499999999999982
40
0.624999999999984
40
0.624999999999984
40
0.687499999999987
40
0.687499999999987
40
0.74999999999999
40
0.74999999999999
40
0.812499999999993
40
0.812499999999993
40
0.843749999999993
40
0.843749999999993
40
0.874999999999992
40
0.874999999999992
40
0.937499999999996
40
0.937499999999996
40
1
40
1
40
1
40
1
41
1
10
8.10566243270267
20
23.6665017920808
30
0
41
1
10
8.12110769698509
20
23.6860254491251
30
0
41
1
10
8.13959628273551
20
23.7049589195931
30
0
41
1
10
8.17354242877877
20
23.7323123198157
30
0
41
1
10
8.18590373003096
20
23.7412544902041
30
0
41
1
10
8.20641626669956
20
23.7543620682907
30
0
41
1
10
8.21358407401564
20
23.7586801045418
30
0
41
1
10
8.22868081710854
20
23.7672030231185
30
0
41
1
10
8.23661756318495
20
23.7714105724815
30
0
41
1
10
8.2615230214692
20
23.7837256270429
30
0
41
1
10
8.2796227406684
20
23.7915679133937
30
0
41
1
10
8.30988749524428
20
23.8026065911347
30
0
41
1
10
8.3205004416742
20
23.8061604830514
30
0
41
1
10
8.34263086450954
20
23.812868038308
30
0
41
1
10
8.35418344395194
20
23.816035844018
30
0
41
1
10
8.3784538615962
20
23.8219342456095
30
0
41
1
10
8.39116971420628
20
23.8246655611124
30
0
41
1
10
8.41133341861178
20
23.8283593459882
30
0
41
1
10
8.41826331057831
20
23.8295263669799
30
0
41
1
10
8.43230089820059
20
23.8316728303992
30
0
41
1
10
8.43942789093373
20
23.8326565134122
30
0
41
1
10
8.46115505954
20
23.8353222152631
30
0
41
1
10
8.47609922674792
20
23.8367207404254
30
0
41
1
10
8.50706439724274
20
23.838635326325
30
0
41
1
10
8.52282418317805
20
23.8391299750504
30
0
41
1
10
8.53867513459483
20
23.8391299750504
30
0
0
SPLINE
5
139
100
AcDbEntity
8
1
62
256
6
ByLayer
370
18
48
1
60
0
100
AcDbSpline
70
4
71
3
72
26
73
22
40
0
40
0
40
0
40
0
40
0.062499999999988
40
0.062499999999988
40
0.0937499999999849
40
0.0937499999999849
40
0.124999999999982
40
0.124999999999982
40
0.249999999999982
40
0.249999999999982
40
0.374999999999982
40
0.374999999999982
40
0.437499999999982
40
0.437499999999982
40
0.499999999999983
40
0.499999999999983
40
0.624999999999989
40
0.624999999999989
40
0.749999999999991
40
0.749999999999991
40
1
40
1
40
1
40
1
41
1
10
8.53867513459488
20
-23.8391299750502
30
0
41
1
10
8.52279868798016
20
-23.8391299750502
30
0
41
1
10
8.50721568825679
20
-23.8386381480423
30
0
41
1
10
8.48424201300776
20
-23.8372273769848
30
0
41
1
10
8.4766511186904
20
-23.8366445991221
30
0
41
1
10
8.46159876658837
20
-23.8352611656444
30
0
41
1
10
8.45410433072649
20
-23.8344558067494
30
0
41
1
10
8.41759599948898
20
-23.8299833264009
30
0
41
1
10
8.39103491659972
20
-23.8249896713849
30
0
41
1
10
8.3417075440052
20
-23.813005969379
30
0
41
1
10
8.31983115452974
20
-23.8062336877525
30
0
41
1
10
8.28977330576538
20
-23.7952700628808
30
0
41
1
10
8.280226387016
20
-23.7914778883489
30
0
41
1
10
8.26194447360365
20
-23.7836514357395
30
0
41
1
10
8.25319826338281
20
-23.7796095569563
30
0
41
1
10
8.22832307576428
20
-23.7673085978343
30
0
41
1
10
8.21342389595023
20
-23.7588292909636
30
0
41
1
10
8.18614807229017
20
-23.7414211400326
30
0
41
1
10
8.17378037377094
20
-23.7324910902464
30
0
41
1
10
8.13975567725333
20
-23.7051129235882
30
0
41
1
10
8.12111376292626
20
-23.6860331168061
30
0
41
1
10
8.10566243270253
20
-23.6665017920808
30
0
0
SPLINE
5
13A
100
AcDbEntity
8
1
62
256
6
ByLayer
370
18
48
1
60
0
100
AcDbSpline
70
4
71
3
72
30
73
26
40
0
40
0
40
0
40
0
40
0.250000000000017
40
0.250000000000017
40
0.375000000000028
40
0.375000000000028
40
0.43750000000003
40
0.43750000000003
40
0.500000000000033
40
0.500000000000033
40
0.625000000000031
40
0.625000000000031
40
0.68750000000003
40
0.68750000000003
40
0.750000000000029
40
0.750000000000029
40
0.812500000000029
40
0.812500000000029
40
0.843750000000024
40
0.843750000000024
40
0.87500000000002
40
0.87500000000002
40
0.93750000000001
40
0.93750000000001
40
1
40
1
40
1
40
1
41
1
10
8.10566243270267
20
-8.05584836782788
30
0
41
1
10
8.12110769698509
20
-7.99849169434927
30
0
41
1
10
8.13959628273548
20
-7.94218253951269
30
0
41
1
10
8.17354242877877
20
-7.85991012495433
30
0
41
1
10
8.18590373003096
20
-7.83285506058508
30
0
41
1
10
8.20641626669956
20
-7.79297622996168
30
0
41
1
10
8.21358407401564
20
-7.77980127287393
30
0
41
1
10
8.22868081710851
20
-7.7537248218664
30
0
41
1
10
8.23661756318495
20
-7.74081492713992
30
0
41
1
10
8.2615230214692
20
-7.70292805784942
30
0
41
1
10
8.2796227406684
20
-7.67866353751197
30
0
41
1
10
8.30988749524428
20
-7.64434849039856
30
0
41
1
10
8.32050044167417
20
-7.63327217102545
30
0
41
1
10
8.34263086450954
20
-7.61232137865164
30
0
41
1
10
8.35418344395194
20
-7.60240297286808
30
0
41
1
10
8.3784538615962
20
-7.5839002553621
30
0
41
1
10
8.39116971420628
20
-7.57531366225032
30
0
41
1
10
8.41133341861178
20
-7.56368345606452
30
0
41
1
10
8.41826331057831
20
-7.56000567013072
30
0
41
1
10
8.43230089820057
20
-7.55323657194796
30
0
41
1
10
8.4394278909337
20
-7.5501319310882
30
0
41
1
10
8.46115505954
20
-7.54171396614043
30
0
41
1
10
8.47609922674789
20
-7.53729092133946
30
0
41
1
10
8.50706439724271
20
-7.5312333563916
30
0
41
1
10
8.52282418317805
20
-7.5296667942649
30
0
41
1
10
8.53867513459483
20
-7.5296667942649
30
0
0
SPLINE
5
13B
100
AcDbEntity
8
1
62
256
6
ByLayer
370
18
48
1
60
0
100
AcDbSpline
70
4
71
3
72
26
73
22
40
0
40
0
40
0
40
0
40
0.0624999999999961
40
0.0624999999999961
40
0.0937499999999942
40
0.0937499999999942
40
0.124999999999992
40
0.124999999999992
40
0.249999999999992
40
0.249999999999992
40
0.374999999999991
40
0.374999999999991
40
0.437499999999992
40
0.437499999999992
40
0.499999999999993
40
0.499999999999993
40
0.624999999999995
40
0.624999999999995
40
0.749999999999996
40
0.749999999999996
40
1
40
1
40
1
40
1
41
1
10
11.4613248654052
20
-7.52966679426527
30
0
41
1
10
11.4772013120199
20
-7.52966679426527
30
0
41
1
10
11.4927843117432
20
-7.5312244015297
30
0
41
1
10
11.5157579869922
20
-7.53568798536674
30
0
41
1
10
11.5233488813096
20
-7.53753139400655
30
0
41
1
10
11.5384012334116
20
-7.54190496002275
30
0
41
1
10
11.5458956692735
20
-7.54444995843591
30
0
41
1
10
11.582404000511
20
-7.55857361750125
30
0
41
1
10
11.6089650834003
20
-7.57431556968129
30
0
41
1
10
11.6582924559948
20
-7.61190750686282
30
0
41
1
10
11.6801688454702
20
-7.6330732524122
30
0
41
1
10
11.7102266942346
20
-7.66715495165661
30
0
41
1
10
11.719773612984
20
-7.67891539799638
30
0
41
1
10
11.7380555263963
20
-7.70312184666892
30
0
41
1
10
11.7468017366172
20
-7.71559105034083
30
0
41
1
10
11.7716769242357
20
-7.75343444963914
30
0
41
1
10
11.7865761040498
20
-7.77938351245621
30
0
41
1
10
11.8138519277098
20
-7.83234954293013
30
0
41
1
10
11.826219626229
20
-7.85937042586593
30
0
41
1
10
11.8602443227466
20
-7.94172327888199
30
0
41
1
10
11.8788862370737
20
-7.99846916820724
30
0
41
1
10
11.8943375672975
20
-8.05584836782788
30
0
0
SPLINE
5
13C
100
AcDbEntity
8
1
62
256
6
ByLayer
370
18
48
1
60
0
100
AcDbSpline
70
4
71
3
72
30
73
26
40
0
40
0
40
0
40
0
40
0.250000000000006
40
0.250000000000006
40
0.375000000000006
40
0.375000000000006
40
0.437500000000004
40
0.437500000000004
40
0.500000000000003
40
0.500000000000003
40
0.625000000000002
40
0.625000000000002
40
0.687500000000001
40
0.687500000000001
40
0.749999999999999
40
0.749999999999999
40
0.812499999999997
40
0.812499999999997
40
0.843749999999997
40
0.843749999999997
40
0.874999999999997
40
0.874999999999997
40
0.937499999999999
40
0.937499999999999
40
1
40
1
40
1
40
1
41
1
10
11.8943375672973
20
-23.6665017920808
30
0
41
1
10
11.8788923030149
20
-23.6860254491251
30
0
41
1
10
11.8604037172645
20
-23.7049589195931
30
0
41
1
10
11.8264575712212
20
-23.7323123198157
30
0
41
1
10
11.814096269969
20
-23.7412544902041
30
0
41
1
10
11.7935837333004
20
-23.7543620682907
30
0
41
1
10
11.7864159259844
20
-23.7586801045418
30
0
41
1
10
11.7713191828915
20
-23.7672030231185
30
0
41
1
10
11.763382436815
20
-23.7714105724815
30
0
41
1
10
11.7384769785308
20
-23.7837256270429
30
0
41
1
10
11.7203772593316
20
-23.7915679133937
30
0
41
1
10
11.6901125047557
20
-23.8026065911346
30
0
41
1
10
11.6794995583258
20
-23.8061604830514
30
0
41
1
10
11.6573691354905
20
-23.812868038308
30
0
41
1
10
11.6458165560481
20
-23.816035844018
30
0
41
1
10
11.6215461384038
20
-23.8219342456095
30
0
41
1
10
11.6088302857937
20
-23.8246655611124
30
0
41
1
10
11.5886665813882
20
-23.8283593459881
30
0
41
1
10
11.5817366894217
20
-23.8295263669799
30
0
41
1
10
11.5676991017994
20
-23.8316728303992
30
0
41
1
10
11.5605721090663
20
-23.8326565134122
30
0
41
1
10
11.53884494046
20
-23.8353222152631
30
0
41
1
10
11.5239007732521
20
-23.8367207404254
30
0
41
1
10
11.4929356027573
20
-23.8386353263249
30
0
41
1
10
11.477175816822
20
-23.8391299750504
30
0
41
1
10
11.4613248654053
20
-23.8391299750504
30
0
0
SPLINE
5
13D
100
AcDbEntity
8
1
62
256
6
ByLayer
370
18
48
1
60
0
100
AcDbSpline
70
4
71
3
72
10
73
6
40
0
40
0
40
0
40
0
40
0.5
40
0.5
40
1
40
1
40
1
40
1
41
1
10
20.2792076144253
20
20.113995121038
30
0
41
1
10
20.2117517757231
20
19.9630721293427
30
0
41
1
10
20.1626283825148
20
19.8076877351775
30
0
41
1
10
20.0966029574405
20
19.4880304671092
30
0
41
1
10
20.0797300588642
20
19.3237565632347
30
0
41
1
10
20.077973744624
20
19.1549669624732
30
0
0
SPLINE
5
13E
100
AcDbEntity
8
SK1
62
256
6
ByLayer
370
18
48
1
60
0
100
AcDbSpline
70
4
71
3
72
45
73
41
40
0
40
0
40
0
40
0
40
0.0236943090977227
40
0.0517123127961641
40
0.0797303164946056
40
0.107748320193047
40
0.16378432758993
40
0.219820334986813
40
0.247838338685254
40
0.275856342383696
40
0.303874346082137
40
0.331892349780579
40
0.35991035347902
40
0.387928357177462
40
0.415946360875903
40
0.429955362725124
40
0.443964364574345
40
0.471982368272786
40
0.485991370122007
40
0.492995871046617
40
0.500000371971228
40
0.507004872895838
40
0.514009373820448
40
0.528018375669669
40
0.556036379368111
40
0.570045381217331
40
0.584054383066552
40
0.612072386764993
40
0.640090390463435
40
0.668108394161876
40
0.696126397860318
40
0.724144401558759
40
0.752162405257201
40
0.780180408955642
40
0.836216416352525
40
0.892252423749408
40
0.92027042744785
40
0.948288431146291
40
0.976306434844732
40
1
40
1
40
1
40
1
41
1
10
-30
20
-15.9931892285603
30
0
41
1
10
-30
20
-15.9976541767523
30
0
41
1
10
-30
20
-15.9670776557096
30
0
41
1
10
-30
20
-15.7965331178349
30
0
41
1
10
-30
20
-15.4890632796305
30
0
41
1
10
-30
20
-14.9202435431778
30
0
41
1
10
-30
20
-13.9430327235571
30
0
41
1
10
-30
20
-12.6450678356931
30
0
41
1
10
-30
20
-11.42137036219
30
0
41
1
10
-30
20
-10.4224345134304
30
0
41
1
10
-30
20
-9.34179268341308
30
0
41
1
10
-30
20
-8.18272261240929
30
0
41
1
10
-30
20
-6.94914665451273
30
0
41
1
10
-30
20
-5.64597210397025
30
0
41
1
10
-30
20
-4.51272453462846
30
0
41
1
10
-30
20
-3.56968201835696
30
0
41
1
10
-30
20
-2.61530592334967
30
0
41
1
10
-30
20
-1.67591474804155
30
0
41
1
10
-30
20
-0.833341855678952
30
0
41
1
10
-30
20
-0.354131622770439
30
0
41
1
10
-30
20
4.002277763E-07
30
0
41
1
10
-30
20
0.354131996183753
30
0
41
1
10
-30
20
0.8333415404785
30
0
41
1
10
-30
20
1.675914880346
30
0
41
1
10
-30
20
2.61530613672116
30
0
41
1
10
-30
20
3.56968220154852
30
0
41
1
10
-30
20
4.51272494557483
30
0
41
1
10
-30
20
5.64597176408017
30
0
41
1
10
-30
20
6.94914704263559
30
0
41
1
10
-30
20
8.18272269843541
30
0
41
1
10
-30
20
9.34179238961872
30
0
41
1
10
-30
20
10.4224348167646
30
0
41
1
10
-30
20
11.4213703912989
30
0
41
1
10
-30
20
12.6450674903883
30
0
41
1
10
-30
20
13.9430330734595
30
0
41
1
10
-30
20
14.9202427964398
30
0
41
1
10
-30
20
15.4890634139888
30
0
41
1
10
-30
20
15.7965327535813
30
0
41
1
10
-30
20
15.967075505619
30
0
41
1
10
-30
20
15.9976531602798
30
0
41
1
10
-30
20
15.993189538055
30
0
0
SPLINE
5
13F
100
AcDbEntity
8
SK1
62
256
6
ByLayer
370
18
48
1
60
0
100
AcDbSpline
70
4
71
3
72
38
73
34
40
0
40
0
40
0
40
0
40
0.250000000000004
40
0.250000000000004
40
0.375000000000005
40
0.375000000000005
40
0.500000000000006
40
0.500000000000006
40
0.625000000000007
40
0.625000000000007
40
0.687500000000007
40
0.687500000000007
40
0.750000000000006
40
0.750000000000006
40
0.812500000000005
40
0.812500000000005
40
0.843750000000004
40
0.843750000000004
40
0.875000000000004
40
0.875000000000004
40
0.906250000000003
40
0.906250000000003
40
0.921875000000003
40
0.921875000000003
40
0.937500000000002
40
0.937500000000002
40
0.953125000000002
40
0.953125000000002
40
0.968750000000001
40
0.968750000000001
40
0.984375000000001
40
0.984375000000001
40
1
40
1
40
1
40
1
41
1
10
-0.200000000000003
20
-6.07843116862819
30
0
41
1
10
-0.200329859654715
20
-6.01357702681216
30
0
41
1
10
-0.201930655445082
20
-5.94848814748264
30
0
41
1
10
-0.207062820514707
20
-5.85044931358669
30
0
41
1
10
-0.20923421427949
20
-5.81770188154849
30
0
41
1
10
-0.214779228537765
20
-5.75205694597241
30
0
41
1
10
-0.218149341071296
20
-5.71913713924843
30
0
41
1
10
-0.226581907125748
20
-5.65322539657006
30
0
41
1
10
-0.231616433421465
20
-5.62029294902339
30
0
41
1
10
-0.241184891539902
20
-5.57099638970121
30
0
41
1
10
-0.244723140953212
20
-5.55455058376137
30
0
41
1
10
-0.252718404682298
20
-5.5218878599284
30
0
41
1
10
-0.257164394743896
20
-5.50568135296541
30
0
41
1
10
-0.267422418728998
20
-5.47365965349934
30
0
41
1
10
-0.27320640701916
20
-5.45783596374696
30
0
41
1
10
-0.283724888361974
20
-5.43464123738531
30
0
41
1
10
-0.287542348293414
20
-5.4270010731546
30
0
41
1
10
-0.296164698039021
20
-5.41201401791545
30
0
41
1
10
-0.301003751718952
20
-5.40461199814789
30
0
41
1
10
-0.312019326339495
20
-5.39094692539055
30
0
41
1
10
-0.318249907555938
20
-5.38460165612528
30
0
41
1
10
-0.328982330604234
20
-5.37709874944122
30
0
41
1
10
-0.332865959292377
20
-5.37490714744834
30
0
41
1
10
-0.340905624745204
20
-5.37162929612282
30
0
41
1
10
-0.345153788553674
20
-5.37051023807433
30
0
41
1
10
-0.353672033871135
20
-5.36955188220819
30
0
41
1
10
-0.357904387099566
20
-5.36969675293611
30
0
41
1
10
-0.366271728735924
20
-5.37110702101791
30
0
41
1
10
-0.370241250613816
20
-5.3723360299343
30
0
41
1
10
-0.377868038063696
20
-5.37555831609174
30
0
41
1
10
-0.381539373885104
20
-5.37756780385979
30
0
41
1
10
-0.388473887026265
20
-5.38206549938212
30
0
41
1
10
-0.391760928947505
20
-5.38456196831947
30
0
41
1
10
-0.394913799811292
20
-5.38724256160012
30
0
0
SPLINE
5
140
100
AcDbEntity
8
SK1
62
256
6
ByLayer
370
18
48
1
60
0
100
AcDbSpline
70
4
71
3
72
38
73
34
40
0
40
0
40
0
40
0
40
0.0156250000000001
40
0.0156250000000001
40
0.0312500000000002
40
0.0312500000000002
40
0.0468750000000004
40
0.0468750000000004
40
0.0625000000000005
40
0.0625000000000005
40
0.0781250000000006
40
0.0781250000000006
40
0.0937500000000007
40
0.0937500000000007
40
0.125000000000002
40
0.125000000000002
40
0.156250000000003
40
0.156250000000003
40
0.187500000000004
40
0.187500000000004
40
0.250000000000004
40
0.250000000000004
40
0.312500000000003
40
0.312500000000003
40
0.375000000000003
40
0.375000000000003
40
0.500000000000001
40
0.500000000000001
40
0.625
40
0.625
40
0.749999999999999
40
0.749999999999999
40
1
40
1
40
1
40
1
41
1
10
-0.394913799809103
20
5.38724490303883
30
0
41
1
10
-0.391781832950684
20
5.38458208568073
30
0
41
1
10
-0.388519962703796
20
5.3821033059937
30
0
41
1
10
-0.381650196472492
20
5.37763658736259
30
0
41
1
10
-0.37800693571306
20
5.37563233451903
30
0
41
1
10
-0.370423579197166
20
5.3724029821978
30
0
41
1
10
-0.366503702076443
20
5.37117873901857
30
0
41
1
10
-0.358331183030089
20
5.36974313779842
30
0
41
1
10
-0.35401586551319
20
5.36955368909105
30
0
41
1
10
-0.345568573158772
20
5.37043109064084
30
0
41
1
10
-0.341321667103003
20
5.37150405183561
30
0
41
1
10
-0.333263890221914
20
5.37470929745373
30
0
41
1
10
-0.329419339218234
20
5.37683593115614
30
0
41
1
10
-0.318577749103326
20
5.38430052549953
30
0
41
1
10
-0.312400979321538
20
5.39054104494755
30
0
41
1
10
-0.301354650858116
20
5.40411801099191
30
0
41
1
10
-0.29659132798615
20
5.41134235290917
30
0
41
1
10
-0.28792239407619
20
5.42628126698935
30
0
41
1
10
-0.284017391060786
20
5.43403466061349
30
0
41
1
10
-0.273296210573349
20
5.45757128507682
30
0
41
1
10
-0.267463037667511
20
5.47353830586408
30
0
41
1
10
-0.257144178245824
20
5.50574351678898
30
0
41
1
10
-0.252692130238913
20
5.52198910291162
30
0
41
1
10
-0.244699800125929
20
5.55465646091204
30
0
41
1
10
-0.241167183894675
20
5.57107991706795
30
0
41
1
10
-0.231573562776475
20
5.62053570750788
30
0
41
1
10
-0.226533735280654
20
5.65356559342146
30
0
41
1
10
-0.218124597314045
20
5.71937115218233
30
0
41
1
10
-0.214765406462959
20
5.75220767186642
30
0
41
1
10
-0.20923073586448
20
5.81775962891638
30
0
41
1
10
-0.20706153420231
20
5.85047499196594
30
0
41
1
10
-0.201932717755398
20
5.94845143863458
30
0
41
1
10
-0.200330038101569
20
6.01354333629638
30
0
41
1
10
-0.200000000000003
20
6.07843244581235
30
0
0
SPLINE
5
141
100
AcDbEntity
8
SK1
62
256
6
ByLayer
370
13
48
1
60
0
100
AcDbSpline
70
4
71
3
72
20
73
16
40
0
40
0
40
0
40
0
40
0.0453685402388427
40
0.113618264778643
40
0.181867989318443
40
0.250117713858243
40
0.318367438398043
40
0.386617162937843
40
0.454866887477643
40
0.591366336557243
40
0.727865785636843
40
0.796115510176644
40
0.864365234716444
40
0.932614959256244
40
1
40
1
40
1
40
1
41
1
10
-0.394913799811292
20
-5.38724256160785
30
0
41
1
10
-0.394913799811292
20
-5.7190547501427
30
0
41
1
10
-0.394913799811292
20
-6.5348354946259
30
0
41
1
10
-0.394913799811292
20
-7.7796880789966
30
0
41
1
10
-0.394913799811292
20
-9.09679923539034
30
0
41
1
10
-0.394913799811292
20
-10.3283869583107
30
0
41
1
10
-0.394913799811292
20
-11.4729576347282
30
0
41
1
10
-0.394913799811292
20
-12.5286533763275
30
0
41
1
10
-0.394913799811292
20
-13.8156305223415
30
0
41
1
10
-0.394913799811292
20
-15.1889742433629
30
0
41
1
10
-0.394913799811292
20
-16.224825355641
30
0
41
1
10
-0.394913799811292
20
-16.8259463034278
30
0
41
1
10
-0.394913799811292
20
-17.1536380024563
30
0
41
1
10
-0.394913799811292
20
-17.3456596443697
30
0
41
1
10
-0.394913799811278
20
-17.3741382160821
30
0
41
1
10
-0.394913799811249
20
-17.360218892693
30
0
0
SPLINE
5
142
100
AcDbEntity
8
SK1
62
256
6
ByLayer
370
18
48
1
60
0
100
AcDbSpline
70
4
71
3
72
50
73
46
40
0
40
0
40
0
40
0
40
0.0312500000000003
40
0.0312500000000003
40
0.0468750000000004
40
0.0468750000000004
40
0.0625000000000005
40
0.0625000000000005
40
0.0781250000000006
40
0.0781250000000006
40
0.0937500000000008
40
0.0937500000000008
40
0.109375000000001
40
0.109375000000001
40
0.125000000000001
40
0.125000000000001
40
0.140625000000001
40
0.140625000000001
40
0.156250000000001
40
0.156250000000001
40
0.187500000000001
40
0.187500000000001
40
0.218750000000002
40
0.218750000000002
40
0.250000000000002
40
0.250000000000002
40
0.281250000000002
40
0.281250000000002
40
0.312500000000002
40
0.312500000000002
40
0.375000000000002
40
0.375000000000002
40
0.437500000000003
40
0.437500000000003
40
0.500000000000003
40
0.500000000000003
40
0.625000000000003
40
0.625000000000003
40
0.687500000000003
40
0.687500000000003
40
0.750000000000003
40
0.750000000000003
40
0.875000000000001
40
0.875000000000001
40
1
40
1
40
1
40
1
41
1
10
-0.394913799811292
20
-5.38724256160785
30
0
41
1
10
-0.411056331481689
20
-5.40096705709072
30
0
41
1
10
-0.428167571421085
20
-5.41359596702645
30
0
41
1
10
-0.455974774655161
20
-5.43013648208
30
0
41
1
10
-0.465658214706977
20
-5.43526409556435
30
0
41
1
10
-0.485484698823484
20
-5.44430592701531
30
0
41
1
10
-0.495657428995088
20
-5.44824432393753
30
0
41
1
10
-0.516608715435041
20
-5.45476351226009
30
0
41
1
10
-0.527386860231829
20
-5.45734523281897
30
0
41
1
10
-0.549664818445279
20
-5.46089328829356
30
0
41
1
10
-0.560930035443775
20
-5.46180969649637
30
0
41
1
10
-0.58336584661788
20
-5.4618713105761
30
0
41
1
10
-0.594591467840033
20
-5.46102572365922
30
0
41
1
10
-0.617058166617753
20
-5.45757599588921
30
0
41
1
10
-0.627999143283205
20
-5.45501931647436
30
0
41
1
10
-0.649331735085568
20
-5.44848807488123
30
0
41
1
10
-0.659758151599831
20
-5.44449947952498
30
0
41
1
10
-0.680036525045026
20
-5.43533205618729
30
0
41
1
10
-0.689742098894541
20
-5.43022628481569
30
0
41
1
10
-0.717826906306087
20
-5.41366379171245
30
0
41
1
10
-0.735187935399338
20
-5.40097830060952
30
0
41
1
10
-0.768034946557918
20
-5.3733304614868
30
0
41
1
10
-0.783237057424159
20
-5.35859529837754
30
0
41
1
10
-0.811836627358673
20
-5.32802442998909
30
0
41
1
10
-0.825257514876
20
-5.31215335693128
30
0
41
1
10
-0.85080730255018
20
-5.27953884086708
30
0
41
1
10
-0.862932209486871
20
-5.26279281423709
30
0
41
1
10
-0.886169886076786
20
-5.22860723544372
30
0
41
1
10
-0.897260448987012
20
-5.21119248410568
30
0
41
1
10
-0.929029640850715
20
-5.15857889561175
30
0
41
1
10
-0.948347177186236
20
-5.12284414993096
30
0
41
1
10
-0.984487535026446
20
-5.05043807526349
30
0
41
1
10
-1.00129416978024
20
-5.01376164954297
30
0
41
1
10
-1.03304457478234
20
-4.93966608077309
30
0
41
1
10
-1.04798244371666
20
-4.90224508459647
30
0
41
1
10
-1.09059413059555
20
-4.78904752584498
30
0
41
1
10
-1.11609621830422
20
-4.71234577760799
30
0
41
1
10
-1.15135515985604
20
-4.5958383808707
30
0
41
1
10
-1.16260343866753
20
-4.55673847320068
30
0
41
1
10
-1.18417456263644
20
-4.47826299864514
30
0
41
1
10
-1.19450305218301
20
-4.43886894670428
30
0
41
1
10
-1.22429462395716
20
-4.32024366329264
30
0
41
1
10
-1.24257202444835
20
-4.24057073726354
30
0
41
1
10
-1.27661859809459
20
-4.08013408760158
30
0
41
1
10
-1.29238372607517
20
-3.99936988902869
30
0
41
1
10
-1.30710678118655
20
-3.91808269248796
30
0
0
SPLINE
5
143
100
AcDbEntity
8
SK1
62
256
6
ByLayer
370
18
48
1
60
0
100
AcDbSpline
70
4
71
3
72
53
73
49
40
0
40
0
40
0
40
0
40
0.125000000000001
40
0.125000000000001
40
0.250000000000002
40
0.250000000000002
40
0.312500000000001
40
0.312500000000001
40
0.375
40
0.375
40
0.499999999999998
40
0.499999999999998
40
0.562499999999997
40
0.562499999999997
40
0.624999999999997
40
0.624999999999997
40
0.687499999999996
40
0.687499999999996
40
0.718749999999996
40
0.718749999999996
40
0.749999999999996
40
0.749999999999996
40
0.781249999999996
40
0.781249999999996
40
0.812499999999996
40
0.812499999999996
40
0.843749999999996
40
0.843749999999996
40
0.859374999999996
40
0.859374999999996
40
0.874999999999996
40
0.874999999999996
40
0.890624999999996
40
0.890624999999996
40
0.898437499999996
40
0.898437499999996
40
0.906249999999996
40
0.906249999999996
40
0.921874999999996
40
0.929687499999996
40
0.929687499999996
40
0.937499999999996
40
0.937499999999996
40
0.968749999999998
40
0.968749999999998
40
0.984374999999999
40
0.984374999999999
40
1
40
1
40
1
40
1
41
1
10
-1.30710678118655
20
3.91808311129773
30
0
41
1
10
-1.29239108240533
20
3.99932964943406
30
0
41
1
10
-1.27663490881506
20
4.08005058420358
30
0
41
1
10
-1.24261095077243
20
4.24039497937332
30
0
41
1
10
-1.22434718173433
20
4.32001891689728
30
0
41
1
10
-1.19458151328423
20
4.4385658061575
30
0
41
1
10
-1.18426257821703
20
4.47793290560358
30
0
41
1
10
-1.16271294340757
20
4.55635268985438
30
0
41
1
10
-1.15147501748679
20
4.59543056617446
30
0
41
1
10
-1.11622081339451
20
4.71196262616613
30
0
41
1
10
-1.09072783956063
20
4.7886606233923
30
0
41
1
10
-1.04815216411872
20
4.90181336669085
30
0
41
1
10
-1.0332301135569
20
4.93921284702586
30
0
41
1
10
-1.00152410230017
20
5.01324987497119
30
0
41
1
10
-0.98474588609686
20
5.04988928444084
30
0
41
1
10
-0.948685190430851
20
5.12220258194975
30
0
41
1
10
-0.9294183550615
20
5.15788155457784
30
0
41
1
10
-0.89776031758835
20
5.21039425330497
30
0
41
1
10
-0.886742970836494
20
5.22772922691763
30
0
41
1
10
-0.863513824307901
20
5.26197522516898
30
0
41
1
10
-0.851357742368535
20
5.27880041053604
30
0
41
1
10
-0.825828436847388
20
5.3114635713869
30
0
41
1
10
-0.812437519911725
20
5.32733553299158
30
0
41
1
10
-0.783971777383798
20
5.35785904442625
30
0
41
1
10
-0.768905931142342
20
5.3725169261117
30
0
41
1
10
-0.73634132235442
20
5.40008757388534
30
0
41
1
10
-0.718704728837835
20
5.41307616107991
30
0
41
1
10
-0.690494000998427
20
5.42981903443436
30
0
41
1
10
-0.680770506185979
20
5.43496537787163
30
0
41
1
10
-0.660532703009167
20
5.44418605279546
30
0
41
1
10
-0.650045797816915
20
5.44823342219189
30
0
41
1
10
-0.628779113835961
20
5.45481846069112
30
0
41
1
10
-0.617932285477139
20
5.4573891634796
30
0
41
1
10
-0.601299914959682
20
5.46002170773141
30
0
41
1
10
-0.595695338836961
20
5.46069496960087
30
0
41
1
10
-0.584356912700073
20
5.46160478770398
30
0
41
1
10
-0.57863702197416
20
5.46183701163631
30
0
41
1
10
-0.561675487241857
20
5.46185622962997
30
0
41
1
10
-0.544917445528711
20
5.460540346752
30
0
41
1
10
-0.528445210270348
20
5.45734844847985
30
0
41
1
10
-0.517525389033295
20
5.45481548249097
30
0
41
1
10
-0.512078734988123
20
5.4533397528954
30
0
41
1
10
-0.485450985324846
20
5.44513209892818
30
0
41
1
10
-0.465729936503905
20
5.43590631685376
30
0
41
1
10
-0.437770416117488
20
5.41932732155468
30
0
41
1
10
-0.428743917867408
20
5.41334179407005
30
0
41
1
10
-0.411386251483449
20
5.40075705360886
30
0
41
1
10
-0.403020392727001
20
5.39413717786459
30
0
41
1
10
-0.394913799811292
20
5.38724490303878
30
0
0
SPLINE
5
144
100
AcDbEntity
8
SK1
62
256
6
ByLayer
370
13
48
1
60
0
100
AcDbSpline
70
4
71
3
72
20
73
16
40
0
40
0
40
0
40
0
40
0.0673842632078396
40
0.135634051858684
40
0.203883840509528
40
0.272133629160372
40
0.40863320646206
40
0.545132783763748
40
0.613382572414592
40
0.681632361065436
40
0.74988214971628
40
0.818131938367125
40
0.886381727017969
40
0.954631515668813
40
1
40
1
40
1
40
1
41
1
10
-0.394913799811221
20
17.3602193112199
30
0
41
1
10
-0.394913799811292
20
17.3741378069609
30
0
41
1
10
-0.394913799811292
20
17.3456582492739
30
0
41
1
10
-0.394913799811292
20
17.1536376810083
30
0
41
1
10
-0.394913799811292
20
16.8259464323311
30
0
41
1
10
-0.394913799811292
20
16.2248245878661
30
0
41
1
10
-0.394913799811292
20
15.1889746622834
30
0
41
1
10
-0.394913799811292
20
13.8156301488903
30
0
41
1
10
-0.394913799811292
20
12.5286535254346
30
0
41
1
10
-0.394913799811292
20
11.4729578043957
30
0
41
1
10
-0.394913799811292
20
10.3283867090429
30
0
41
1
10
-0.394913799811292
20
9.09679950047928
30
0
41
1
10
-0.394913799811292
20
7.77968825069564
30
0
41
1
10
-0.394913799811292
20
6.53483606378791
30
0
41
1
10
-0.394913799811292
20
5.71905630139054
30
0
41
1
10
-0.394913799811292
20
5.38724490303878
30
0
0
SPLINE
5
145
100
AcDbEntity
8
SK1
62
256
6
ByLayer
370
18
48
1
60
0
100
AcDbSpline
70
4
71
3
72
38
73
34
40
0
40
0
40
0
40
0
40
0.0624999999999996
40
0.0624999999999996
40
0.124999999999999
40
0.124999999999999
40
0.249999999999999
40
0.249999999999999
40
0.374999999999998
40
0.374999999999998
40
0.390624999999998
40
0.390624999999998
40
0.406249999999998
40
0.406249999999998
40
0.437499999999998
40
0.437499999999998
40
0.499999999999998
40
0.499999999999998
40
0.562499999999998
40
0.562499999999998
40
0.624999999999998
40
0.624999999999998
40
0.749999999999998
40
0.749999999999998
40
0.781249999999998
40
0.781249999999998
40
0.812499999999998
40
0.812499999999998
40
0.874999999999999
40
0.874999999999999
40
0.937499999999999
40
0.937499999999999
40
1
40
1
40
1
40
1
41
1
10
-1.30710678118655
20
-3.91808269248793
30
0
41
1
10
-1.33526487251859
20
-3.76261955749285
30
0
41
1
10
-1.36267126502632
20
-3.60631098585768
30
0
41
1
10
-1.41562242099803
20
-3.29187611045597
30
0
41
1
10
-1.44117770353176
20
-3.13375373985022
30
0
41
1
10
-1.51435013598102
20
-2.65639932915298
30
0
41
1
10
-1.55846884179031
20
-2.33418302861884
30
0
41
1
10
-1.63296978491243
20
-1.6800471987703
30
0
41
1
10
-1.66337509736468
20
-1.34813830750841
30
0
41
1
10
-1.68707319146451
20
-0.968091690681831
30
0
41
1
10
-1.68955923537888
20
-0.925771372654225
30
0
41
1
10
-1.69422507481973
20
-0.840939584978486
30
0
41
1
10
-1.69640659794263
20
-0.798386309984636
30
0
41
1
10
-1.70245250680873
20
-0.670897601193644
30
0
41
1
10
-1.70582437938029
20
-0.58605256890192
30
0
41
1
10
-1.71388361409092
20
-0.331968562038014
30
0
41
1
10
-1.71646782396985
20
-0.163187101305937
30
0
41
1
10
-1.71636335941631
20
0.173213348331842
30
0
41
1
10
-1.71367008139578
20
0.340831662555303
30
0
41
1
10
-1.70293626023371
20
0.674902568806118
30
0
41
1
10
-1.69494665814693
20
0.84136228930052
30
0
41
1
10
-1.66399327242202
20
1.33914312869115
30
0
41
1
10
-1.63408221528162
20
1.66887252592323
30
0
41
1
10
-1.5876007265538
20
2.07872253566575
30
0
41
1
10
-1.57784909269048
20
2.16057674059005
30
0
41
1
10
-1.55749771994262
20
2.32406172494169
30
0
41
1
10
-1.54688933197929
20
2.40575612114199
30
0
41
1
10
-1.51394731043966
20
2.65007047288915
30
0
41
1
10
-1.49055743488208
20
2.81150726182858
30
0
41
1
10
-1.44149329508794
20
3.13180385741538
30
0
41
1
10
-1.41582315096537
20
3.29066553946589
30
0
41
1
10
-1.36271475580057
20
3.60607338167009
30
0
41
1
10
-1.33526589565592
20
3.76261441071907
30
0
41
1
10
-1.30710678118655
20
3.91808311129768
30
0
0
SPLINE
5
146
100
AcDbEntity
8
SK1
62
256
6
ByLayer
370
13
48
1
60
0
100
AcDbSpline
70
4
71
3
72
45
73
41
40
0
40
0
40
0
40
0
40
0.0139247376971571
40
0.0425174014235572
40
0.0711100651499573
40
0.0997027288763573
40
0.156888056329157
40
0.214073383781958
40
0.242666047508358
40
0.271258711234758
40
0.299851374961158
40
0.328444038687558
40
0.357036702413958
40
0.385629366140358
40
0.414222029866758
40
0.428518361729958
40
0.442814693593158
40
0.471407357319558
40
0.485703689182758
40
0.492851855114358
40
0.500000021045958
40
0.507148186977558
40
0.514296352909158
40
0.528592684772358
40
0.557185348498758
40
0.571481680361958
40
0.585778012225158
40
0.614370675951558
40
0.642963339677958
40
0.671556003404358
40
0.700148667130758
40
0.728741330857158
40
0.757333994583558
40
0.785926658309959
40
0.843111985762759
40
0.900297313215559
40
0.928889976941959
40
0.957482640668359
40
0.986075304394759
40
1
40
1
40
1
40
1
41
1
10
-1.99503997793928
20
17.3200454241452
30
0
41
1
10
-1.9950399779393
20
17.3133442652769
30
0
41
1
10
-1.9950399779393
20
17.2734193807019
30
0
41
1
10
-1.9950399779393
20
17.1138751154123
30
0
41
1
10
-1.9950399779393
20
16.7867763596001
30
0
41
1
10
-1.9950399779393
20
16.1866009265939
30
0
41
1
10
-1.9950399779393
20
15.1524691326423
30
0
41
1
10
-1.9950399779393
20
13.7813331880937
30
0
41
1
10
-1.9950399779393
20
12.4962106263157
30
0
41
1
10
-1.9950399779393
20
11.4421779521075
30
0
41
1
10
-1.9950399779393
20
10.2994799380558
30
0
41
1
10
-1.9950399779393
20
9.07001746022104
30
0
41
1
10
-1.9950399779393
20
7.75535376586828
30
0
41
1
10
-1.9950399779393
20
6.35676341745574
30
0
41
1
10
-1.9950399779393
20
5.12318926412425
30
0
41
1
10
-1.9950399779393
20
4.09531236648536
30
0
41
1
10
-1.9950399779393
20
3.04236295320669
30
0
41
1
10
-1.9950399779393
20
1.95640625727882
30
0
41
1
10
-1.9950399779393
20
0.981337226851394
30
0
41
1
10
-1.9950399779393
20
0.420771319084707
30
0
41
1
10
-1.9950399779393
20
6.88173714E-08
30
0
41
1
10
-1.9950399779393
20
-0.420771221994357
30
0
41
1
10
-1.9950399779393
20
-0.981337209960486
30
0
41
1
10
-1.9950399779393
20
-1.95640624898675
30
0
41
1
10
-1.9950399779393
20
-3.04236280324244
30
0
41
1
10
-1.9950399779393
20
-4.0953123914187
30
0
41
1
10
-1.9950399779393
20
-5.12318891405303
30
0
41
1
10
-1.9950399779393
20
-6.35676356337376
30
0
41
1
10
-1.9950399779393
20
-7.7553535878281
30
0
41
1
10
-1.9950399779393
20
-9.07001720037854
30
0
41
1
10
-1.9950399779393
20
-10.2994801886281
30
0
41
1
10
-1.9950399779393
20
-11.4421777785236
30
0
41
1
10
-1.9950399779393
20
-12.4962104807245
30
0
41
1
10
-1.9950399779393
20
-13.7813335607202
30
0
41
1
10
-1.9950399779393
20
-15.152468715744
30
0
41
1
10
-1.9950399779393
20
-16.1866016937524
30
0
41
1
10
-1.9950399779393
20
-16.786776230537
30
0
41
1
10
-1.9950399779393
20
-17.1138754381145
30
0
41
1
10
-1.99503997793931
20
-17.2734198416264
30
0
41
1
10
-1.99503997793931
20
-17.3133444710487
30
0
41
1
10
-1.99503997793931
20
-17.3200455754433
30
0
0
SPLINE
5
147
100
AcDbEntity
8
SK1
62
256
6
ByLayer
370
18
48
1
60
0
100
AcDbSpline
70
4
71
3
72
45
73
41
40
0
40
0
40
0
40
0
40
0.0138970652061824
40
0.0424913615200683
40
0.0710856578339542
40
0.0996799541478402
40
0.156868546775612
40
0.214057139403384
40
0.24265143571727
40
0.271245732031156
40
0.299840028345042
40
0.328434324658928
40
0.357028620972814
40
0.3856229172867
40
0.414217213600585
40
0.428514361757528
40
0.442811509914471
40
0.471405806228357
40
0.4857029543853
40
0.492851528463772
40
0.500000102542243
40
0.507148676620715
40
0.514297250699186
40
0.528594398856129
40
0.557188695170015
40
0.571485843326958
40
0.585782991483901
40
0.614377287797787
40
0.642971584111673
40
0.671565880425559
40
0.700160176739445
40
0.728754473053331
40
0.757348769367217
40
0.785943065681103
40
0.843131658308874
40
0.900320250936646
40
0.928914547250532
40
0.957508843564418
40
0.986103139878304
40
1
40
1
40
1
40
1
41
1
10
-2.2
20
17.5147945434987
30
0
41
1
10
-2.2
20
17.5080193403718
30
0
41
1
10
-2.2
20
17.4676802405309
30
0
41
1
10
-2.2
20
17.3066644250431
30
0
41
1
10
-2.2
20
16.9766929599708
30
0
41
1
10
-2.2
20
16.3719288388599
30
0
41
1
10
-2.2
20
15.3294666616432
30
0
41
1
10
-2.2
20
13.9476224427057
30
0
41
1
10
-2.2
20
12.6535104390874
30
0
41
1
10
-2.2
20
11.5914144609754
30
0
41
1
10
-2.2
20
10.4396347881955
30
0
41
1
10
-2.2
20
9.19987052615136
30
0
41
1
10
-2.2
20
7.87333982787851
30
0
41
1
10
-2.2
20
6.4607857552443
30
0
41
1
10
-2.2
20
5.21252898167785
30
0
41
1
10
-2.2
20
4.17223684682958
30
0
41
1
10
-2.2
20
3.10486150423552
30
0
41
1
10
-2.2
20
1.99745537289451
30
0
41
1
10
-2.2
20
1.00299597482069
30
0
41
1
10
-2.2
20
0.430523794544825
30
0
41
1
10
-2.2
20
2.03164063E-08
30
0
41
1
10
-2.2
20
-0.430523737893537
30
0
41
1
10
-2.2
20
-1.00299590932914
30
0
41
1
10
-2.2
20
-1.99745538275133
30
0
41
1
10
-2.2
20
-3.10486136355075
30
0
41
1
10
-2.2
20
-4.17223690222141
30
0
41
1
10
-2.2
20
-5.21252864051553
30
0
41
1
10
-2.2
20
-6.46078587277509
30
0
41
1
10
-2.2
20
-7.87333968058334
30
0
41
1
10
-2.2
20
-9.19987024087132
30
0
41
1
10
-2.2
20
-10.4396350324424
30
0
41
1
10
-2.2
20
-11.5914143063801
30
0
41
1
10
-2.2
20
-12.6535102764493
30
0
41
1
10
-2.2
20
-13.9476228193307
30
0
41
1
10
-2.2
20
-15.3294662349403
30
0
41
1
10
-2.2
20
-16.3719296090069
30
0
41
1
10
-2.2
20
-16.9766928316826
30
0
41
1
10
-2.2
20
-17.3066647416643
30
0
41
1
10
-2.2
20
-17.4676803343479
30
0
41
1
10
-2.2
20
-17.5080192368676
30
0
41
1
10
-2.2
20
-17.5147944559821
30
0
0
SPLINE
5
148
100
AcDbEntity
8
SK1
62
256
6
ByLayer
370
18
48
1
60
0
100
AcDbSpline
70
4
71
3
72
45
73
41
40
0
40
0
40
0
40
0
40
0.0275256165846459
40
0.0553182299230271
40
0.0831108432614084
40
0.11090345659979
40
0.166488683276552
40
0.222073909953314
40
0.249866523291696
40
0.277659136630077
40
0.305451749968458
40
0.333244363306839
40
0.361036976645221
40
0.388829589983602
40
0.416622203321983
40
0.430518509991174
40
0.444414816660364
40
0.472207429998745
40
0.486103736667936
40
0.493051890002531
40
0.500000043337127
40
0.506948196671722
40
0.513896350006317
40
0.527792656675508
40
0.555585270013889
40
0.56948157668308
40
0.58337788335227
40
0.611170496690652
40
0.638963110029033
40
0.666755723367414
40
0.694548336705795
40
0.722340950044177
40
0.750133563382558
40
0.777926176720939
40
0.833511403397701
40
0.889096630074464
40
0.916889243412845
40
0.944681856751226
40
0.972474470089607
40
1
40
1
40
1
40
1
41
1
10
-28.5
20
16.8545102430492
30
0
41
1
10
-28.5
20
16.8681141415897
30
0
41
1
10
-28.5
20
16.8405420049117
30
0
41
1
10
-28.5
20
16.6531187925377
30
0
41
1
10
-28.5
20
16.3328856609547
30
0
41
1
10
-28.5
20
15.7436769514769
30
0
41
1
10
-28.5
20
14.7294543359372
30
0
41
1
10
-28.5
20
13.3839106046769
30
0
41
1
10
-28.5
20
12.1202723366856
30
0
41
1
10
-28.5
20
11.0855105352455
30
0
41
1
10
-28.5
20
9.96451720849825
30
0
41
1
10
-28.5
20
8.75967545377557
30
0
41
1
10
-28.5
20
7.47337327542297
30
0
41
1
10
-28.5
20
6.10815549439155
30
0
41
1
10
-28.5
20
4.9096720321497
30
0
41
1
10
-28.5
20
3.9114668992739
30
0
41
1
10
-28.5
20
2.89299469927084
30
0
41
1
10
-28.5
20
1.85830102725041
30
0
41
1
10
-28.5
20
0.929573956929886
30
0
41
1
10
-28.5
20
0.39746341502854
30
0
41
1
10
-28.5
20
1.847321585E-07
30
0
41
1
10
-28.5
20
-0.397463221290906
30
0
41
1
10
-28.5
20
-0.929574056191939
30
0
41
1
10
-28.5
20
-1.85830097558352
30
0
41
1
10
-28.5
20
-2.89299452712916
30
0
41
1
10
-28.5
20
-3.91146685141305
30
0
41
1
10
-28.5
20
-4.90967166078667
30
0
41
1
10
-28.5
20
-6.10815570815362
30
0
41
1
10
-28.5
20
-7.47337302390386
30
0
41
1
10
-28.5
20
-8.75967525472745
30
0
41
1
10
-28.5
20
-9.96451747418803
30
0
41
1
10
-28.5
20
-11.0855103162798
30
0
41
1
10
-28.5
20
-12.1202722318355
30
0
41
1
10
-28.5
20
-13.3839109677473
30
0
41
1
10
-28.5
20
-14.7294539424715
30
0
41
1
10
-28.5
20
-15.7436777114932
30
0
41
1
10
-28.5
20
-16.3328855300396
30
0
41
1
10
-28.5
20
-16.653119129773
30
0
41
1
10
-28.5
20
-16.8405424000942
30
0
41
1
10
-28.5
20
-16.8681141142387
30
0
41
1
10
-28.5
20
-16.8545104785856
30
0
0
SPLINE
5
149
100
AcDbEntity
8
1
62
256
6
ByLayer
370
18
48
1
60
0
100
AcDbSpline
70
4
71
3
72
19
73
15
40
0
40
0
40
0
40
0
40
0.105598795309672
40
0.207133056767991
40
0.304606247524367
40
0.398022283830819
40
0.487385615464931
40
0.572701326119354
40
0.653975258965573
40
0.731214174678324
40
0.804425952125345
40
0.873619846082892
40
0.938806822394076
40
1
40
1
40
1
40
1
41
1
10
69.48236683062
20
32.4830853518219
30
0
41
1
10
69.4761086181707
20
32.4837049490853
30
0
41
1
10
69.463833074016
20
32.4849202951009
30
0
41
1
10
69.4458128004535
20
32.4870082121237
30
0
41
1
10
69.428539119221
20
32.4892307140948
30
0
41
1
10
69.4120140189837
20
32.491593512128
30
0
41
1
10
69.3962369707864
20
32.4940773874631
30
0
41
1
10
69.3812080910702
20
32.4966698932994
30
0
41
1
10
69.3669272661601
20
32.4993571633471
30
0
41
1
10
69.3533946416573
20
32.5021269601486
30
0
41
1
10
69.3406095573258
20
32.5049646761752
30
0
41
1
10
69.3285740432231
20
32.5078656318826
30
0
41
1
10
69.3172808603107
20
32.5107934196336
30
0
41
1
10
69.3100347419719
20
32.5128781454489
30
0
41
1
10
69.3065261768
20
32.5138875681559
30
0
0
SPLINE
5
14A
100
AcDbEntity
8
1
62
256
6
ByLayer
370
18
48
1
60
0
100
AcDbSpline
70
4
71
3
72
16
73
12
40
0
40
0
40
0
40
0
40
0.118227901208885
40
0.234676362797881
40
0.349345481218908
40
0.46223535748396
40
0.573346097457498
40
0.682677812172262
40
0.790230618171215
40
0.896004637878234
40
1
40
1
40
1
40
1
41
1
10
70.1702887043916
20
32.4277346738549
30
0
41
1
10
70.1431521268267
20
32.4295566837591
30
0
41
1
10
70.0892874023701
20
32.4331732806277
30
0
41
1
10
70.009124713396
20
32.4388878609321
30
0
41
1
10
69.9302034041845
20
32.4447527074665
30
0
41
1
10
69.8525249527701
20
32.4507819529496
30
0
41
1
10
69.7760890095594
20
32.4569609754792
30
0
41
1
10
69.7008955277781
20
32.4632809223074
30
0
41
1
10
69.6269450208379
20
32.4697385791177
30
0
41
1
10
69.5542355274137
20
32.4763039893531
30
0
41
1
10
69.5061872606909
20
32.4808377116471
30
0
41
1
10
69.48236683059
20
32.48308535183
30
0
0
SPLINE
5
14B
100
AcDbEntity
8
1
62
256
6
ByLayer
370
18
48
1
60
0
100
AcDbSpline
70
4
71
2
72
10
73
7
40
0
40
0
40
0
40
0.5
40
0.5
40
0.75
40
0.75
40
1
40
1
40
1
41
1
10
70.1703211835004
20
32.427732523738
30
0
41
1
10
70.4005090492969
20
32.4124656263185
30
0
41
1
10
70.5813994958523
20
32.376258356737
30
0
41
1
10
70.6977168199743
20
32.3529761282298
30
0
41
1
10
70.7815407125726
20
32.3230189485083
30
0
41
1
10
70.9246417322623
20
32.2718771698065
30
0
41
1
10
70.9499902265207
20
32.210735586972
30
0
0
SPLINE
5
14C
100
AcDbEntity
8
1
62
256
6
ByLayer
370
18
48
1
60
0
100
AcDbSpline
70
4
71
2
72
6
73
3
40
0
40
0
40
0
40
1
40
1
40
1
41
1
10
70.9499902266708
20
32.210735587058
30
0
41
1
10
70.9884919085573
20
32.1155912650914
30
0
41
1
10
70.9886043049807
20
32.0200000006976
30
0
0
SPLINE
5
14D
100
AcDbEntity
8
1
62
256
6
ByLayer
370
18
48
1
60
0
100
AcDbSpline
70
4
71
3
72
24
73
20
40
0
40
0
40
0
40
0
40
0.0615883759048397
40
0.122688254024929
40
0.183326299851807
40
0.243529792548024
40
0.303326606004203
40
0.36274518644549
40
0.421814526539229
40
0.480564136000303
40
0.539024008730868
40
0.597224586585081
40
0.655196719894234
40
0.712971624940747
40
0.770580838619312
40
0.828056170570645
40
0.885429653119929
40
0.942733489390628
40
1
40
1
40
1
40
1
41
1
10
70.94999022667
20
31.789264412942
30
0
41
1
10
70.9514760409687
20
31.7929901798057
30
0
41
1
10
70.9544358845988
20
31.8004121620338
30
0
41
1
10
70.9585659721737
20
31.8116216503168
30
0
41
1
10
70.9624450214134
20
31.8228285131276
30
0
41
1
10
70.9660526456091
20
31.83404112012
30
0
41
1
10
70.9693942359552
20
31.8452568203016
30
0
41
1
10
70.9724683525928
20
31.8564758821521
30
0
41
1
10
70.9752753669341
20
31.8676977990062
30
0
41
1
10
70.9778151708743
20
31.8789222688591
30
0
41
1
10
70.9800877810841
20
31.8901489343787
30
0
41
1
10
70.9820931925111
20
31.9013774519818
30
0
41
1
10
70.9838313661184
20
31.9126074735421
30
0
41
1
10
70.985302422705
20
31.9238386513105
30
0
41
1
10
70.9865058842008
20
31.935070636779
30
0
41
1
10
70.9874435045143
20
31.9463030808113
30
0
41
1
10
70.9881087368339
20
31.9575356348018
30
0
41
1
10
70.9885259471521
20
31.968767946552
30
0
41
1
10
70.9885781913775
20
31.9762567949783
30
0
41
1
10
70.98860430498
20
31.9799999993024
30
0
0
SPLINE
5
14E
100
AcDbEntity
8
1
62
256
6
ByLayer
370
18
48
1
60
0
100
AcDbSpline
70
4
71
3
72
43
73
39
40
0
40
0
40
0
40
0
40
0.0409973406366606
40
0.0809092982715876
40
0.119736159842851
40
0.15747823704754
40
0.194135869264801
40
0.22970942692188
40
0.2641993153863
40
0.297605979485298
40
0.32992990877783
40
0.361171643733667
40
0.391331783012899
40
0.420410992088527
40
0.448410013519427
40
0.475329679265269
40
0.501170925548124
40
0.5725928670937
40
0.638080914696119
40
0.697670982799366
40
0.751410812475231
40
0.772779913618556
40
0.793234602755299
40
0.812782181749368
40
0.831431018019193
40
0.849190749344535
40
0.866072536338493
40
0.88208937498717
40
0.897256484840491
40
0.911591792130983
40
0.925116531009034
40
0.937855989439949
40
0.949840427402952
40
0.961106190504017
40
0.971697025976519
40
0.981665570834293
40
0.991074911407371
40
1
40
1
40
1
40
1
41
1
10
70.1703211835
20
31.572267476262
30
0
41
1
10
70.1815955433722
20
31.5730405333593
30
0
41
1
10
70.2038457803768
20
31.5745661812744
30
0
41
1
10
70.2367474852616
20
31.5771689404714
30
0
41
1
10
70.268734387051
20
31.5799480523694
30
0
41
1
10
70.2998047803202
20
31.58291298977
30
0
41
1
10
70.3299591078148
20
31.5860435105336
30
0
41
1
10
70.3591972610569
20
31.5893273427029
30
0
41
1
10
70.3875192737298
20
31.5927505360394
30
0
41
1
10
70.4149251441988
20
31.5962999639445
30
0
41
1
10
70.4414148802485
20
31.5999627077347
30
0
41
1
10
70.4669884910949
20
31.6037262288778
30
0
41
1
10
70.4916459782106
20
31.6075783622643
30
0
41
1
10
70.5153873786588
20
31.6115072610154
30
0
41
1
10
70.5382126108909
20
31.6155016729279
30
0
41
1
10
70.5601220206574
20
31.6195499937754
30
0
41
1
10
70.5937486984552
20
31.626107366319
30
0
41
1
10
70.637660265658
20
31.6355375625419
30
0
41
1
10
70.690314785579
20
31.6485901785153
30
0
41
1
10
70.7378060332942
20
31.6621596087783
30
0
41
1
10
70.7731644417989
20
31.67382203962
30
0
41
1
10
70.7979490400554
20
31.6829721037049
30
0
41
1
10
70.8137384431464
20
31.6891993032897
30
0
41
1
10
70.8286893772276
20
31.6955079877224
30
0
41
1
10
70.8428019685625
20
31.7018921260808
30
0
41
1
10
70.8560763753171
20
31.7083455162314
30
0
41
1
10
70.8685127830692
20
31.714862070018
30
0
41
1
10
70.8801114087742
20
31.7214357642013
30
0
41
1
10
70.8908725094797
20
31.7280606767799
30
0
41
1
10
70.9007963582658
20
31.7347310216471
30
0
41
1
10
70.9098833178299
20
31.741441151275
30
0
41
1
10
70.9181335453682
20
31.7481857216071
30
0
41
1
10
70.9255478947299
20
31.7549593379339
30
0
41
1
10
70.9321246317882
20
31.761758000668
30
0
41
1
10
70.937870243827
20
31.768574412401
30
0
41
1
10
70.9427620013418
20
31.7754140966517
30
0
41
1
10
70.9468749657509
20
31.7822401833556
30
0
41
1
10
70.9489702532908
20
31.786964597137
30
0
41
1
10
70.94999022652
20
31.789264413028
30
0
0
SPLINE
5
14F
100
AcDbEntity
8
1
62
256
6
ByLayer
370
18
48
1
60
0
100
AcDbSpline
70
4
71
2
72
6
73
3
40
0
40
0
40
0
40
1
40
1
40
1
41
1
10
70.1702887043921
20
31.5722653261425
30
0
41
1
10
69.819552783945
20
31.5490374694324
30
0
41
1
10
69.4823668305908
20
31.51691464817
30
0
0
SPLINE
5
150
100
AcDbEntity
8
1
62
256
6
ByLayer
370
18
48
1
60
0
100
AcDbSpline
70
4
71
2
72
6
73
3
40
0
40
0
40
0
40
1
40
1
40
1
41
1
10
69.4823668306203
20
31.516914648178
30
0
41
1
10
69.3769907517283
20
31.5068233680093
30
0
41
1
10
69.3065261768005
20
31.486112431844
30
0
0
LINE
5
7D
100
AcDbEntity
8
1
62
256
6
ByLayer
370
18
48
1
60
0
100
AcDbLine
10
0
20
-24.7
30
0
11
0.3
21
-25
31
0
39
0
210
0
220
0
230
1
0
LINE
5
7E
100
AcDbEntity
8
1
62
256
6
ByLayer
370
18
48
1
60
0
100
AcDbLine
10
0.3
20
25
30
0
11
0
21
24.7
31
0
39
0
210
0
220
0
230
1
0
LINE
5
7F
100
AcDbEntity
8
1
62
256
6
ByLayer
370
18
48
1
60
0
100
AcDbLine
10
20.279208
20
25
30
0
11
0.3
21
25
31
0
39
0
210
0
220
0
230
1
0
LINE
5
80
100
AcDbEntity
8
1
62
256
6
ByLayer
370
18
48
1
60
0
100
AcDbLine
10
0.3
20
-25
30
0
11
20
21
-25
31
0
39
0
210
0
220
0
230
1
0
LINE
5
81
100
AcDbEntity
8
81
62
256
6
ByLayer
370
18
48
1
60
0
100
AcDbLine
10
75
20
35
30
0
11
80
21
35
31
0
39
0
210
0
220
0
230
1
0
LINE
5
82
100
AcDbEntity
8
80
62
256
6
ByLayer
370
18
48
1
60
0
100
AcDbLine
10
0
20
0
30
0
11
-5
21
0
31
0
39
0
210
0
220
0
230
1
0
LINE
5
83
100
AcDbEntity
8
1
62
256
6
ByLayer
370
18
48
1
60
0
100
AcDbLine
10
67.807219
20
34.675
30
0
11
69.177662
21
34.675
31
0
39
0
210
0
220
0
230
1
0
LINE
5
84
100
AcDbEntity
8
1
62
256
6
ByLayer
370
18
48
1
60
0
100
AcDbLine
10
67.807219
20
29.325
30
0
11
69.177662
21
29.325
31
0
39
0
210
0
220
0
230
1
0
LINE
5
85
100
AcDbEntity
8
1
62
256
6
ByLayer
370
18
48
1
60
0
100
AcDbLine
10
66.483456
20
34.675
30
0
11
67.807219
21
34.675
31
0
39
0
210
0
220
0
230
1
0
LINE
5
86
100
AcDbEntity
8
1
62
256
6
ByLayer
370
18
48
1
60
0
100
AcDbLine
10
67.807085
20
34.599996
30
0
11
67.807219
21
34.675
31
0
39
0
210
0
220
0
230
1
0
LINE
5
87
100
AcDbEntity
8
1
62
256
6
ByLayer
370
18
48
1
60
0
100
AcDbLine
10
66.483456
20
29.325
30
0
11
67.807219
21
29.325
31
0
39
0
210
0
220
0
230
1
0
LINE
5
88
100
AcDbEntity
8
1
62
256
6
ByLayer
370
18
48
1
60
0
100
AcDbLine
10
67.807219
20
29.325
30
0
11
67.807085
21
29.400004
31
0
39
0
210
0
220
0
230
1
0
LINE
5
89
100
AcDbEntity
8
1
62
256
6
ByLayer
370
18
48
1
60
0
100
AcDbLine
10
23.857132
20
34.675
30
0
11
26.2
21
34.675
31
0
39
0
210
0
220
0
230
1
0
LINE
5
8A
100
AcDbEntity
8
1
62
256
6
ByLayer
370
13
48
1
60
0
100
AcDbLine
10
21.593742
20
26.15
30
0
11
26.2
21
26.15
31
0
39
0
210
0
220
0
230
1
0
LINE
5
8B
100
AcDbEntity
8
1
62
256
6
ByLayer
370
13
48
1
60
0
100
AcDbLine
10
26.2
20
26.15
30
0
11
26.2
21
25.15
31
0
39
0
210
0
220
0
230
1
0
LINE
5
8C
100
AcDbEntity
8
1
62
256
6
ByLayer
370
18
48
1
60
0
100
AcDbLine
10
26.2
20
34.675
30
0
11
29.893237
21
34.675
31
0
39
0
210
0
220
0
230
1
0
LINE
5
8D
100
AcDbEntity
8
1
62
256
6
ByLayer
370
13
48
1
60
0
100
AcDbLine
10
26.2
20
26.15
30
0
11
26.2
21
34.675
31
0
39
0
210
0
220
0
230
1
0
LINE
5
8E
100
AcDbEntity
8
1
62
256
6
ByLayer
370
13
48
1
60
0
100
AcDbLine
10
26.2
20
26.15
30
0
11
29.893237
21
26.15
31
0
39
0
210
0
220
0
230
1
0
LINE
5
8F
100
AcDbEntity
8
1
62
256
6
ByLayer
370
18
48
1
60
0
100
AcDbLine
10
30.279315
20
34.675
30
0
11
29.893237
21
34.675
31
0
39
0
210
0
220
0
230
1
0
LINE
5
90
100
AcDbEntity
8
1
62
256
6
ByLayer
370
18
48
1
60
0
100
AcDbLine
10
29.893237
20
26.15
30
0
11
29.893237
21
34.675
31
0
39
0
210
0
220
0
230
1
0
LINE
5
91
100
AcDbEntity
8
1
62
256
6
ByLayer
370
18
48
1
60
0
100
AcDbLine
10
30.4
20
34.675
30
0
11
30.279216
21
34.675
31
0
39
0
210
0
220
0
230
1
0
LINE
5
92
100
AcDbEntity
8
1
62
256
6
ByLayer
370
18
48
1
60
0
100
AcDbLine
10
30.279216
20
34.675
30
0
11
30.279216
21
26.15
31
0
39
0
210
0
220
0
230
1
0
LINE
5
93
100
AcDbEntity
8
1
62
256
6
ByLayer
370
13
48
1
60
0
100
AcDbLine
10
30.4
20
26.15
30
0
11
30.279216
21
26.15
31
0
39
0
210
0
220
0
230
1
0
LINE
5
94
100
AcDbEntity
8
1
62
256
6
ByLayer
370
18
48
1
60
0
100
AcDbLine
10
66.483437
20
34.675
30
0
11
63.5
21
34.675
31
0
39
0
210
0
220
0
230
1
0
LINE
5
95
100
AcDbEntity
8
1
62
256
6
ByLayer
370
18
48
1
60
0
100
AcDbLine
10
66.483437
20
29.325
30
0
11
63.5
21
29.325
31
0
39
0
210
0
220
0
230
1
0
LINE
5
96
100
AcDbEntity
8
1
62
256
6
ByLayer
370
18
48
1
60
0
100
AcDbLine
10
67
20
32.274969
30
0
11
67
21
31.725031
31
0
39
0
210
0
220
0
230
1
0
LINE
5
97
100
AcDbEntity
8
1
62
256
6
ByLayer
370
18
48
1
60
0
100
AcDbLine
10
66.483437
20
34.675
30
0
11
66.508963
21
34.513511
31
0
39
0
210
0
220
0
230
1
0
LINE
5
98
100
AcDbEntity
8
1
62
256
6
ByLayer
370
18
48
1
60
0
100
AcDbLine
10
66.508963
20
29.486489
30
0
11
66.483437
21
29.325
31
0
39
0
210
0
220
0
230
1
0
LINE
5
99
100
AcDbEntity
8
1
62
256
6
ByLayer
370
18
48
1
60
0
100
AcDbLine
10
27.399843
20
25.15
30
0
11
26.400157
21
25.15
31
0
39
0
210
0
220
0
230
1
0
LINE
5
9A
100
AcDbEntity
8
1
62
256
6
ByLayer
370
18
48
1
60
0
100
AcDbLine
10
27.399843
20
-11
30
0
11
26.400157
21
-11
31
0
39
0
210
0
220
0
230
1
0
LINE
5
9B
100
AcDbEntity
8
1
62
256
6
ByLayer
370
18
48
1
60
0
100
AcDbLine
10
27.4
20
25.15
30
0
11
29.4
21
25.15
31
0
39
0
210
0
220
0
230
1
0
LINE
5
9C
100
AcDbEntity
8
1
62
256
6
ByLayer
370
18
48
1
60
0
100
AcDbLine
10
27.4
20
-11
30
0
11
27.4
21
25.15
31
0
39
0
210
0
220
0
230
1
0
LINE
5
9D
100
AcDbEntity
8
1
62
256
6
ByLayer
370
18
48
1
60
0
100
AcDbLine
10
36.9
20
-11
30
0
11
27.4
21
-11
31
0
39
0
210
0
220
0
230
1
0
LINE
5
9E
100
AcDbEntity
8
1
62
256
6
ByLayer
370
18
48
1
60
0
100
AcDbLine
10
30.4
20
26.15
30
0
11
30.4
21
34.675
31
0
39
0
210
0
220
0
230
1
0
LINE
5
9F
100
AcDbEntity
8
1
62
256
6
ByLayer
370
18
48
1
60
0
100
AcDbLine
10
36.9
20
-11
30
0
11
48.4
21
17.85
31
0
39
0
210
0
220
0
230
1
0
LINE
5
A0
100
AcDbEntity
8
1
62
256
6
ByLayer
370
18
48
1
60
0
100
AcDbLine
10
48.4
20
27.725
30
0
11
48.4
21
17.85
31
0
39
0
210
0
220
0
230
1
0
LINE
5
A1
100
AcDbEntity
8
1
62
256
6
ByLayer
370
18
48
1
60
0
100
AcDbLine
10
51.202439
20
29.325
30
0
11
50
21
29.325
31
0
39
0
210
0
220
0
230
1
0
LINE
5
A2
100
AcDbEntity
8
1
62
256
6
ByLayer
370
18
48
1
60
0
100
AcDbLine
10
51.202439
20
34.675
30
0
11
30.4
21
34.675
31
0
39
0
210
0
220
0
230
1
0
LINE
5
A3
100
AcDbEntity
8
1
62
256
6
ByLayer
370
18
48
1
60
0
100
AcDbLine
10
63.5
20
34.675
30
0
11
51.202439
21
34.675
31
0
39
0
210
0
220
0
230
1
0
LINE
5
A4
100
AcDbEntity
8
1
62
256
6
ByLayer
370
18
48
1
60
0
100
AcDbLine
10
51.202439
20
29.325
30
0
11
51.202439
21
34.675
31
0
39
0
210
0
220
0
230
1
0
LINE
5
A5
100
AcDbEntity
8
1
62
256
6
ByLayer
370
18
48
1
60
0
100
AcDbLine
10
63.5
20
29.325
30
0
11
51.202439
21
29.325
31
0
39
0
210
0
220
0
230
1
0
LINE
5
A6
100
AcDbEntity
8
1
62
256
6
ByLayer
370
18
48
1
60
0
100
AcDbLine
10
63.5
20
34.675
30
0
11
63.5
21
29.325
31
0
39
0
210
0
220
0
230
1
0
LINE
5
A7
100
AcDbEntity
8
1
62
256
6
ByLayer
370
18
48
1
60
0
100
AcDbLine
10
24.077821
20
25.15
30
0
11
26.4
21
25.15
31
0
39
0
210
0
220
0
230
1
0
LINE
5
A8
100
AcDbEntity
8
1
62
256
6
ByLayer
370
18
48
1
60
0
100
AcDbLine
10
26.4
20
-11
30
0
11
24.087421
21
-11
31
0
39
0
210
0
220
0
230
1
0
LINE
5
A9
100
AcDbEntity
8
1
62
256
6
ByLayer
370
18
48
1
60
0
100
AcDbLine
10
26.4
20
25.15
30
0
11
26.4
21
-11
31
0
39
0
210
0
220
0
230
1
0
LINE
5
AA
100
AcDbEntity
8
1
62
256
6
ByLayer
370
13
48
1
60
0
100
AcDbLine
10
21.438319
20
25.15
30
0
11
21.438319
21
22.333741
31
0
39
0
210
0
220
0
230
1
0
LINE
5
AB
100
AcDbEntity
8
1
62
256
6
ByLayer
370
18
48
1
60
0
100
AcDbLine
10
20.077974
20
-16.065094
30
0
11
20.087573
21
-14.965094
31
0
39
0
210
0
220
0
230
1
0
LINE
5
AC
100
AcDbEntity
8
1
62
256
6
ByLayer
370
13
48
1
60
0
100
AcDbLine
10
24.077821
20
25.15
30
0
11
24.077821
21
-11.000012
31
0
39
0
210
0
220
0
230
1
0
LINE
5
AD
100
AcDbEntity
8
1
62
256
6
ByLayer
370
18
48
1
60
0
100
AcDbLine
10
24.077821
20
25.15
30
0
11
22.045216
21
25.15
31
0
39
0
210
0
220
0
230
1
0
LINE
5
AE
100
AcDbEntity
8
1
62
256
6
ByLayer
370
13
48
1
60
0
100
AcDbLine
10
11.461325
20
-7.529667
30
0
11
11.461325
21
-23.83913
31
0
39
0
210
0
220
0
230
1
0
LINE
5
AF
100
AcDbEntity
8
1
62
256
6
ByLayer
370
13
48
1
60
0
100
AcDbLine
10
11.894338
20
-8.055848
30
0
11
11.894338
21
-23.666502
31
0
39
0
210
0
220
0
230
1
0
LINE
5
B0
100
AcDbEntity
8
1
62
256
6
ByLayer
370
13
48
1
60
0
100
AcDbLine
10
8.105662
20
23.666502
30
0
11
8.105662
21
8.055848
31
0
39
0
210
0
220
0
230
1
0
LINE
5
B1
100
AcDbEntity
8
1
62
256
6
ByLayer
370
13
48
1
60
0
100
AcDbLine
10
8.538675
20
23.83913
30
0
11
8.538675
21
7.529667
31
0
39
0
210
0
220
0
230
1
0
LINE
5
B2
100
AcDbEntity
8
1
62
256
6
ByLayer
370
13
48
1
60
0
100
AcDbLine
10
8.105662
20
-8.055848
30
0
11
8.105662
21
-23.666502
31
0
39
0
210
0
220
0
230
1
0
LINE
5
B3
100
AcDbEntity
8
1
62
256
6
ByLayer
370
13
48
1
60
0
100
AcDbLine
10
8.538675
20
-7.529667
30
0
11
8.538675
21
-23.83913
31
0
39
0
210
0
220
0
230
1
0
LINE
5
B4
100
AcDbEntity
8
1
62
256
6
ByLayer
370
13
48
1
60
0
100
AcDbLine
10
11.461325
20
23.83913
30
0
11
11.461325
21
7.529667
31
0
39
0
210
0
220
0
230
1
0
LINE
5
B5
100
AcDbEntity
8
1
62
256
6
ByLayer
370
13
48
1
60
0
100
AcDbLine
10
11.894338
20
23.666502
30
0
11
11.894338
21
8.055848
31
0
39
0
210
0
220
0
230
1
0
LINE
5
B6
100
AcDbEntity
8
1
62
256
6
ByLayer
370
18
48
1
60
0
100
AcDbLine
10
0
20
-24.7
30
0
11
0
21
24.7
31
0
39
0
210
0
220
0
230
1
0
LINE
5
B7
100
AcDbEntity
8
1
62
256
6
ByLayer
370
18
48
1
60
0
100
AcDbLine
10
0.3
20
-25
30
0
11
0.3
21
25
31
0
39
0
210
0
220
0
230
1
0
LINE
5
B8
100
AcDbEntity
8
1
62
256
6
ByLayer
370
18
48
1
60
0
100
AcDbLine
10
11.461325
20
7.529667
30
0
11
8.538675
21
7.529667
31
0
39
0
210
0
220
0
230
1
0
LINE
5
B9
100
AcDbEntity
8
1
62
256
6
ByLayer
370
18
48
1
60
0
100
AcDbLine
10
8.538675
20
23.83913
30
0
11
11.461325
21
23.83913
31
0
39
0
210
0
220
0
230
1
0
LINE
5
BA
100
AcDbEntity
8
1
62
256
6
ByLayer
370
18
48
1
60
0
100
AcDbLine
10
8.538675
20
-7.529667
30
0
11
11.461325
21
-7.529667
31
0
39
0
210
0
220
0
230
1
0
LINE
5
BB
100
AcDbEntity
8
1
62
256
6
ByLayer
370
18
48
1
60
0
100
AcDbLine
10
11.461325
20
-23.83913
30
0
11
8.538675
21
-23.83913
31
0
39
0
210
0
220
0
230
1
0
LINE
5
BC
100
AcDbEntity
8
1
62
256
6
ByLayer
370
18
48
1
60
0
100
AcDbLine
10
20.063901
20
-17.67767
30
0
11
20
21
-25
31
0
39
0
210
0
220
0
230
1
0
LINE
5
BD
100
AcDbEntity
8
1
62
256
6
ByLayer
370
13
48
1
60
0
100
AcDbLine
10
20.279208
20
25
30
0
11
20.279208
21
20.113995
31
0
39
0
210
0
220
0
230
1
0
LINE
5
BE
100
AcDbEntity
8
1
62
256
6
ByLayer
370
18
48
1
60
0
100
AcDbLine
10
20.077974
20
-16.065094
30
0
11
20.063901
21
-17.67767
31
0
39
0
210
0
220
0
230
1
0
LINE
5
BF
100
AcDbEntity
8
1
62
256
6
ByLayer
370
13
48
1
60
0
100
AcDbLine
10
20.077974
20
-16.065094
30
0
11
20.077974
21
19.154967
31
0
39
0
210
0
220
0
230
1
0
LINE
5
C0
100
AcDbEntity
8
SK1
62
256
6
ByLayer
370
18
48
1
60
0
100
AcDbLine
10
-0.2
20
-6.078431
30
0
11
-0.2
21
-17.833485
31
0
39
0
210
0
220
0
230
1
0
LINE
5
C2
100
AcDbEntity
8
SK1
62
256
6
ByLayer
370
18
48
1
60
0
100
AcDbLine
10
-0.2
20
17.833485
30
0
11
-0.2
21
6.078432
31
0
39
0
210
0
220
0
230
1
0
LINE
5
C3
100
AcDbEntity
8
SK1
62
256
6
ByLayer
370
13
48
1
60
0
100
AcDbLine
10
-1.307107
20
3.918083
30
0
11
-1.307107
21
-3.918083
31
0
39
0
210
0
220
0
230
1
0
LINE
5
C4
100
AcDbEntity
8
SK1
62
256
6
ByLayer
370
18
48
1
60
0
100
AcDbLine
10
-1.99504
20
17.325269
30
0
11
-1.99504
21
17.320045
31
0
39
0
210
0
220
0
230
1
0
LINE
5
C5
100
AcDbEntity
8
SK1
62
256
6
ByLayer
370
18
48
1
60
0
100
AcDbLine
10
-1.99504
20
-17.320045
30
0
11
-1.99504
21
-17.325269
31
0
39
0
210
0
220
0
230
1
0
LINE
5
C6
100
AcDbEntity
8
1
62
256
6
ByLayer
370
18
48
1
60
0
100
AcDbLine
10
74.576744
20
28.983803
30
0
11
72.568682
21
29.100747
31
0
39
0
210
0
220
0
230
1
0
LINE
5
C7
100
AcDbEntity
8
1
62
256
6
ByLayer
370
18
48
1
60
0
100
AcDbLine
10
74.576744
20
35.016197
30
0
11
72.568682
21
34.899253
31
0
39
0
210
0
220
0
230
1
0
LINE
5
C8
100
AcDbEntity
8
1
62
256
6
ByLayer
370
18
48
1
60
0
100
AcDbLine
10
75
20
34.616874
30
0
11
75
21
29.383126
31
0
39
0
210
0
220
0
230
1
0
LINE
5
C9
100
AcDbEntity
8
1
62
256
6
ByLayer
370
18
48
1
60
0
100
AcDbLine
10
50.423256
20
35.016197
30
0
11
52.431318
21
34.899253
31
0
39
0
210
0
220
0
230
1
0
LINE
5
CA
100
AcDbEntity
8
1
62
256
6
ByLayer
370
18
48
1
60
0
100
AcDbLine
10
50.423256
20
28.983803
30
0
11
52.431318
21
29.100747
31
0
39
0
210
0
220
0
230
1
0
LINE
5
CB
100
AcDbEntity
8
1
62
256
6
ByLayer
370
18
48
1
60
0
100
AcDbLine
10
52.431318
20
34.899253
30
0
11
52.856927
21
34.921078
31
0
39
0
210
0
220
0
230
1
0
LINE
5
CC
100
AcDbEntity
8
1
62
256
6
ByLayer
370
18
48
1
60
0
100
AcDbLine
10
52.431318
20
29.100747
30
0
11
52.856927
21
29.078922
31
0
39
0
210
0
220
0
230
1
0
LINE
5
CD
100
AcDbEntity
8
1
62
256
6
ByLayer
370
18
48
1
60
0
100
AcDbLine
10
52.431318
20
34.899253
30
0
11
52.431318
21
34.674923
31
0
39
0
210
0
220
0
230
1
0
LINE
5
CE
100
AcDbEntity
8
1
62
256
6
ByLayer
370
18
48
1
60
0
100
AcDbLine
10
52.431318
20
29.325077
30
0
11
52.431318
21
29.100747
31
0
39
0
210
0
220
0
230
1
0
LINE
5
CF
100
AcDbEntity
8
1
62
256
6
ByLayer
370
18
48
1
60
0
100
AcDbLine
10
72.568682
20
29.100747
30
0
11
72.143073
21
29.078922
31
0
39
0
210
0
220
0
230
1
0
LINE
5
D0
100
AcDbEntity
8
1
62
256
6
ByLayer
370
18
48
1
60
0
100
AcDbLine
10
72.568682
20
34.899253
30
0
11
72.143073
21
34.921078
31
0
39
0
210
0
220
0
230
1
0
LINE
5
D1
100
AcDbEntity
8
1
62
256
6
ByLayer
370
18
48
1
60
0
100
AcDbLine
10
72.568682
20
34.899253
30
0
11
72.568682
21
29.100747
31
0
39
0
210
0
220
0
230
1
0
LINE
5
D2
100
AcDbEntity
8
1
62
256
6
ByLayer
370
13
48
1
60
0
100
AcDbLine
10
66.999889
20
32.02
30
0
11
70.988604
21
32.02
31
0
39
0
210
0
220
0
230
1
0
LINE
5
D3
100
AcDbEntity
8
1
62
256
6
ByLayer
370
13
48
1
60
0
100
AcDbLine
10
66.999889
20
31.98
30
0
11
70.988604
21
31.98
31
0
39
0
210
0
220
0
230
1
0
LINE
5
D4
100
AcDbEntity
8
1
62
256
6
ByLayer
370
13
48
1
60
0
100
AcDbLine
10
66.999884
20
31.789264
30
0
11
70.94999
21
31.789264
31
0
39
0
210
0
220
0
230
1
0
LINE
5
D5
100
AcDbEntity
8
1
62
256
6
ByLayer
370
13
48
1
60
0
100
AcDbLine
10
66.999884
20
32.210736
30
0
11
70.94999
21
32.210736
31
0
39
0
210
0
220
0
230
1
0
LINE
5
D6
100
AcDbEntity
8
1
62
256
6
ByLayer
370
13
48
1
60
0
100
AcDbLine
10
70.170287
20
31.572267
30
0
11
66.910655
21
31.572267
31
0
39
0
210
0
220
0
230
1
0
LINE
5
D7
100
AcDbEntity
8
1
62
256
6
ByLayer
370
13
48
1
60
0
100
AcDbLine
10
70.170287
20
32.427733
30
0
11
66.910655
21
32.427733
31
0
39
0
210
0
220
0
230
1
0
LINE
5
D8
100
AcDbEntity
8
1
62
256
6
ByLayer
370
13
48
1
60
0
100
AcDbLine
10
69.482367
20
31.516915
30
0
11
66.806266
21
31.516915
31
0
39
0
210
0
220
0
230
1
0
LINE
5
D9
100
AcDbEntity
8
1
62
256
6
ByLayer
370
13
48
1
60
0
100
AcDbLine
10
69.482367
20
32.483085
30
0
11
66.806266
21
32.483085
31
0
39
0
210
0
220
0
230
1
0
LINE
5
DA
100
AcDbEntity
8
1
62
256
6
ByLayer
370
13
48
1
60
0
100
AcDbLine
10
66.77269
20
31.486112
30
0
11
69.306526
21
31.486112
31
0
39
0
210
0
220
0
230
1
0
LINE
5
DB
100
AcDbEntity
8
1
62
256
6
ByLayer
370
13
48
1
60
0
100
AcDbLine
10
66.77269
20
32.513888
30
0
11
69.306526
21
32.513888
31
0
39
0
210
0
220
0
230
1
0
LINE
5
DC
100
AcDbEntity
8
1
62
256
6
ByLayer
370
13
48
1
60
0
100
AcDbLine
10
68.995391
20
31.394335
30
0
11
66.761382
21
31.394335
31
0
39
0
210
0
220
0
230
1
0
LINE
5
DD
100
AcDbEntity
8
1
62
256
6
ByLayer
370
13
48
1
60
0
100
AcDbLine
10
68.995391
20
32.605665
30
0
11
66.761179
21
32.605665
31
0
39
0
210
0
220
0
230
1
0
LINE
5
DE
100
AcDbEntity
8
1
62
256
6
ByLayer
370
13
48
1
60
0
100
AcDbLine
10
68.90992
20
32.649934
30
0
11
66.755786
21
32.649934
31
0
39
0
210
0
220
0
230
1
0
LINE
5
DF
100
AcDbEntity
8
1
62
256
6
ByLayer
370
13
48
1
60
0
100
AcDbLine
10
68.90992
20
31.350066
30
0
11
66.755786
21
31.350066
31
0
39
0
210
0
220
0
230
1
0
LINE
5
E0
100
AcDbEntity
8
1
62
256
6
ByLayer
370
18
48
1
60
0
100
AcDbLine
10
67.611484
20
34.6
30
0
11
66.495264
21
34.6
31
0
39
0
210
0
220
0
230
1
0
LINE
5
E1
100
AcDbEntity
8
1
62
256
6
ByLayer
370
18
48
1
60
0
100
AcDbLine
10
67.611484
20
29.4
30
0
11
66.495264
21
29.4
31
0
39
0
210
0
220
0
230
1
0
LINE
5
E2
100
AcDbEntity
8
1
62
256
6
ByLayer
370
18
48
1
60
0
100
AcDbLine
10
55.532489
20
34.832909
30
0
11
55.822433
21
34.675
31
0
39
0
210
0
220
0
230
1
0
LINE
5
E3
100
AcDbEntity
8
1
62
256
6
ByLayer
370
18
48
1
60
0
100
AcDbLine
10
55.532489
20
34.832909
30
0
11
52.856927
21
34.921078
31
0
39
0
210
0
220
0
230
1
0
LINE
5
E4
100
AcDbEntity
8
1
62
256
6
ByLayer
370
18
48
1
60
0
100
AcDbLine
10
52.856927
20
29.078922
30
0
11
52.856927
21
29.325023
31
0
39
0
210
0
220
0
230
1
0
LINE
5
E5
100
AcDbEntity
8
1
62
256
6
ByLayer
370
18
48
1
60
0
100
AcDbLine
10
52.856927
20
34.674977
30
0
11
52.856927
21
34.921078
31
0
39
0
210
0
220
0
230
1
0
LINE
5
E6
100
AcDbEntity
8
1
62
256
6
ByLayer
370
18
48
1
60
0
100
AcDbLine
10
55.532489
20
29.167091
30
0
11
52.856927
21
29.078922
31
0
39
0
210
0
220
0
230
1
0
LINE
5
E7
100
AcDbEntity
8
1
62
256
6
ByLayer
370
18
48
1
60
0
100
AcDbLine
10
55.532489
20
29.167091
30
0
11
55.822433
21
29.325
31
0
39
0
210
0
220
0
230
1
0
LINE
5
E8
100
AcDbEntity
8
1
62
256
6
ByLayer
370
13
48
1
60
0
100
AcDbLine
10
67.618068
20
34.341384
30
0
11
66.534477
21
34.341384
31
0
39
0
210
0
220
0
230
1
0
LINE
5
E9
100
AcDbEntity
8
1
62
256
6
ByLayer
370
13
48
1
60
0
100
AcDbLine
10
67.611484
20
34.358749
30
0
11
66.531843
21
34.358749
31
0
39
0
210
0
220
0
230
1
0
LINE
5
EA
100
AcDbEntity
8
1
62
256
6
ByLayer
370
18
48
1
60
0
100
AcDbLine
10
68.90992
20
32.649934
30
0
11
67.618066
21
34.341382
31
0
39
0
210
0
220
0
230
1
0
LINE
5
EB
100
AcDbEntity
8
1
62
256
6
ByLayer
370
18
48
1
60
0
100
AcDbLine
10
69.306526
20
32.513888
30
0
11
68.995391
21
32.605665
31
0
39
0
210
0
220
0
230
1
0
LINE
5
EC
100
AcDbEntity
8
1
62
256
6
ByLayer
370
18
48
1
60
0
100
AcDbLine
10
70.988604
20
32.02
30
0
11
70.988604
21
31.98
31
0
39
0
210
0
220
0
230
1
0
LINE
5
ED
100
AcDbEntity
8
1
62
256
6
ByLayer
370
18
48
1
60
0
100
AcDbLine
10
69.306526
20
31.486112
30
0
11
68.995391
21
31.394335
31
0
39
0
210
0
220
0
230
1
0
LINE
5
EE
100
AcDbEntity
8
1
62
256
6
ByLayer
370
18
48
1
60
0
100
AcDbLine
10
68.90992
20
31.350066
30
0
11
67.618066
21
29.658618
31
0
39
0
210
0
220
0
230
1
0
LINE
5
EF
100
AcDbEntity
8
1
62
256
6
ByLayer
370
18
48
1
60
0
100
AcDbLine
10
67.611484
20
29.641251
30
0
11
67.611484
21
29.4
31
0
39
0
210
0
220
0
230
1
0
LINE
5
F0
100
AcDbEntity
8
1
62
256
6
ByLayer
370
18
48
1
60
0
100
AcDbLine
10
69.039855
20
29.4
30
0
11
67.611484
21
29.4
31
0
39
0
210
0
220
0
230
1
0
LINE
5
F1
100
AcDbEntity
8
1
62
256
6
ByLayer
370
18
48
1
60
0
100
AcDbLine
10
69.467511
20
29.167091
30
0
11
69.039855
21
29.4
31
0
39
0
210
0
220
0
230
1
0
LINE
5
F2
100
AcDbEntity
8
1
62
256
6
ByLayer
370
18
48
1
60
0
100
AcDbLine
10
69.467511
20
29.167091
30
0
11
72.143073
21
29.078922
31
0
39
0
210
0
220
0
230
1
0
LINE
5
F3
100
AcDbEntity
8
1
62
256
6
ByLayer
370
18
48
1
60
0
100
AcDbLine
10
72.143073
20
29.078922
30
0
11
72.143073
21
34.921078
31
0
39
0
210
0
220
0
230
1
0
LINE
5
F4
100
AcDbEntity
8
1
62
256
6
ByLayer
370
18
48
1
60
0
100
AcDbLine
10
69.467511
20
34.832909
30
0
11
72.143073
21
34.921078
31
0
39
0
210
0
220
0
230
1
0
LINE
5
F5
100
AcDbEntity
8
1
62
256
6
ByLayer
370
18
48
1
60
0
100
AcDbLine
10
69.467511
20
34.832909
30
0
11
69.039855
21
34.6
31
0
39
0
210
0
220
0
230
1
0
LINE
5
F6
100
AcDbEntity
8
1
62
256
6
ByLayer
370
18
48
1
60
0
100
AcDbLine
10
69.039855
20
34.6
30
0
11
67.611484
21
34.6
31
0
39
0
210
0
220
0
230
1
0
LINE
5
F7
100
AcDbEntity
8
1
62
256
6
ByLayer
370
18
48
1
60
0
100
AcDbLine
10
67.611484
20
34.358749
30
0
11
67.611484
21
34.6
31
0
39
0
210
0
220
0
230
1
0
LINE
5
F8
100
AcDbEntity
8
1
62
256
6
ByLayer
370
13
48
1
60
0
100
AcDbLine
10
67.611484
20
29.641251
30
0
11
66.530245
21
29.641251
31
0
39
0
210
0
220
0
230
1
0
LINE
5
F9
100
AcDbEntity
8
1
62
256
6
ByLayer
370
13
48
1
60
0
100
AcDbLine
10
67.618068
20
29.658616
30
0
11
66.532718
21
29.658616
31
0
39
0
210
0
220
0
230
1
0
LINE
5
FA
100
AcDbEntity
8
SK2
62
256
6
ByLayer
370
18
48
1
60
0
100
AcDbLine
10
-39.975
20
-25
30
0
11
-39.975
21
25
31
0
39
0
210
0
220
0
230
1
0
LINE
5
FC
100
AcDbEntity
8
SK2
62
256
6
ByLayer
370
18
48
1
60
0
100
AcDbLine
10
-1.2875
20
25
30
0
11
-41.975
21
25
31
0
39
0
210
0
220
0
230
1
0
LINE
5
FD
100
AcDbEntity
8
SK2
62
256
6
ByLayer
370
18
48
1
60
0
100
AcDbLine
10
-1.2875
20
-25
30
0
11
-41.975
21
-25
31
0
39
0
210
0
220
0
230
1
0
LINE
5
FE
100
AcDbEntity
8
1
62
256
6
ByLayer
370
18
48
1
60
1
100
AcDbLine
10
-39.975
20
25
30
0
11
-39.514216
21
21.500002
31
0
39
0
210
0
220
0
230
1
0
LINE
5
FF
100
AcDbEntity
8
1
62
256
6
ByLayer
370
18
48
1
60
1
100
AcDbLine
10
-39.514216
20
21.500002
30
0
11
-40.435784
21
21.499998
31
0
39
0
210
0
220
0
230
1
0
LINE
5
100
100
AcDbEntity
8
1
62
256
6
ByLayer
370
18
48
1
60
1
100
AcDbLine
10
-40.435784
20
21.499998
30
0
11
-39.975
21
25
31
0
39
0
210
0
220
0
230
1
0
LINE
5
101
100
AcDbEntity
8
1
62
256
6
ByLayer
370
18
48
1
60
1
100
AcDbLine
10
-39.975
20
-25
30
0
11
-40.435784
21
-21.500002
31
0
39
0
210
0
220
0
230
1
0
LINE
5
102
100
AcDbEntity
8
1
62
256
6
ByLayer
370
18
48
1
60
1
100
AcDbLine
10
-40.435784
20
-21.500002
30
0
11
-39.514216
21
-21.499998
31
0
39
0
210
0
220
0
230
1
0
LINE
5
103
100
AcDbEntity
8
1
62
256
6
ByLayer
370
18
48
1
60
1
100
AcDbLine
10
-39.514216
20
-21.499998
30
0
11
-39.975
21
-25
31
0
39
0
210
0
220
0
230
1
0
LINE
5
155
100
AcDbEntity
8
1
62
256
6
ByLayer
370
18
48
1
60
1
100
AcDbLine
10
-39.975
20
25
30
0
11
-39.514216
21
21.500002
31
0
39
0
210
0
220
0
230
1
0
LINE
5
156
100
AcDbEntity
8
1
62
256
6
ByLayer
370
18
48
1
60
1
100
AcDbLine
10
-39.514216
20
21.500002
30
0
11
-40.435784
21
21.499998
31
0
39
0
210
0
220
0
230
1
0
LINE
5
157
100
AcDbEntity
8
1
62
256
6
ByLayer
370
18
48
1
60
1
100
AcDbLine
10
-40.435784
20
21.499998
30
0
11
-39.975
21
25
31
0
39
0
210
0
220
0
230
1
0
LINE
5
159
100
AcDbEntity
8
1
62
256
6
ByLayer
370
18
48
1
60
1
100
AcDbLine
10
-39.975
20
-25
30
0
11
-40.435784
21
-21.500002
31
0
39
0
210
0
220
0
230
1
0
LINE
5
15A
100
AcDbEntity
8
1
62
256
6
ByLayer
370
18
48
1
60
1
100
AcDbLine
10
-40.435784
20
-21.500002
30
0
11
-39.514216
21
-21.499998
31
0
39
0
210
0
220
0
230
1
0
LINE
5
15B
100
AcDbEntity
8
1
62
256
6
ByLayer
370
18
48
1
60
1
100
AcDbLine
10
-39.514216
20
-21.499998
30
0
11
-39.975
21
-25
31
0
39
0
210
0
220
0
230
1
0
MTEXT
5
151
100
AcDbEntity
8
SK2
62
256
6
ByLayer
370
18
48
1
60
0
100
AcDbMText
10
-41.539634
20
-4.530622
30
0
210
0
220
0
230
1
1
%%c
40
3.5
41
0
44
1.084337
50
90
71
7
72
5
7
iso_b_vert
0
MTEXT
5
154
100
AcDbEntity
8
SK2
62
256
6
ByLayer
370
18
48
1
60
0
100
AcDbMText
10
-41.539634
20
2.442034
30
0
210
0
220
0
230
1
1
\W0.6740;50
40
3.5
41
0
44
1.084337
50
90
71
7
72
5
7
iso_b_vert
0
MTEXT
5
15D
100
AcDbEntity
8
SK6
62
256
6
ByLayer
370
18
48
1
60
0
100
AcDbMText
10
-9.8145
20
-49.20893
30
0
210
0
220
0
230
1
1
\W0.7479;C2R-CC5-RK25CB
40
3.5
41
0
44
1.084337
50
0
71
7
72
5
7
iso_b_vert
0
HATCH
5
158
100
AcDbEntity
8
SK2
62
256
6
ByLayer
370
13
48
1
60
0
100
AcDbHatch
10
0
20
0
30
0
210
0
220
0
230
1
2
ANSI31
70
0
71
0
91
1
92
5
93
3
72
1
10
-39.9750000000001
20
25
11
-39.5142162584473
21
21.5000016925532
72
1
10
-39.5142162584473
20
21.5000016925532
11
-40.4357837415529
21
21.4999983074468
72
1
10
-40.4357837415529
20
21.4999983074468
11
-39.9750000000001
21
25
97
0
75
0
76
1
52
0
41
0.0062
77
0
78
1
53
45
43
0
44
0
45
-0.0139193969876572
46
0.0139193969876572
79
0
47
0
98
1
10
0
20
0
0
HATCH
5
15C
100
AcDbEntity
8
SK2
62
256
6
ByLayer
370
13
48
1
60
0
100
AcDbHatch
10
0
20
0
30
0
210
0
220
0
230
1
2
ANSI31
70
0
71
0
91
1
92
5
93
3
72
1
10
-39.9750000000001
20
-25
11
-40.4357837415529
21
-21.5000016925532
72
1
10
-40.4357837415529
20
-21.5000016925532
11
-39.5142162584473
21
-21.4999983074468
72
1
10
-39.5142162584473
20
-21.4999983074468
11
-39.9750000000001
21
-25
97
0
75
0
76
1
52
0
41
0.0062
77
0
78
1
53
45
43
0
44
0
45
-0.0139193969876572
46
0.0139193969876572
79
0
47
0
98
1
10
0
20
0
0
DIMENSION
5
160
100
AcDbEntity
8
2
62
256
6
ByLayer
370
18
48
1
60
0
100
AcDbDimension
2
_U0
10
106.1
20
0
30
0
11
106.1
21
17.5
31
0
70
32
71
1
72
1
41
1
210
0
220
0
230
1
3
Standard
100
AcDbAlignedDimension
13
75
23
35
33
0
14
0
24
0
34
0
50
90
100
AcDbRotatedDimension
1001
ACAD
1000
DSTYLE
1002
{
1070
   371
1070
    13
1070
   372
1070
    13
1070
   170
1070
     0
1070
   144
1040
1.0
1070
   277
1070
     2
1070
   284
1070
     8
1070
   278
1070
    46
1070
   146
1040
1.0
1070
   345
1005
16
1070
   347
1005
16
1070
   346
1005
16
1070
   344
1005
0
1070
   343
1005
0
1070
   172
1070
     1
1070
    76
1070
     0
1070
    75
1070
     0
1070
   282
1070
     0
1070
   281
1070
     0
1070
    71
1070
     0
1070
    74
1070
     0
1070
   279
1070
     0
1070
   173
1070
     1
1070
   340
1005
152
1070
   271
1070
     1
1070
   272
1070
     2
1070
    77
1070
     1
1070
    73
1070
     0
1070
   171
1070
     3
1070
   274
1070
     4
1070
   177
1070
     2
1070
   176
1070
     2
1070
   178
1070
     2
1070
    78
1070
     8
1070
    48
1040
-0.1
1070
    41
1040
3.5
1070
   147
1040
1.75
1070
    42
1040
1.5875
1070
    44
1040
2.0
1070
   140
1040
3.5
1002
}
1001
ACAD_DSTYLE_DIM_LINETYPE
1070
   380
1005
16
1001
ACAD_DSTYLE_DIM_EXT1_LINETYPE
1070
   381
1005
16
1001
ACAD_DSTYLE_DIM_EXT2_LINETYPE
1070
   382
1005
16
0
DIMENSION
5
17A
100
AcDbEntity
8
2
62
256
6
ByLayer
370
18
48
1
60
0
100
AcDbDimension
2
_U1
10
95.1
20
35
30
0
11
95.1
21
32
31
0
70
32
71
1
72
1
41
1
210
0
220
0
230
1
3
Standard
100
AcDbAlignedDimension
13
75
23
29
33
0
14
75
24
35
34
0
50
90
100
AcDbRotatedDimension
1001
ACAD
1000
DSTYLE
1002
{
1070
   371
1070
    13
1070
   372
1070
    13
1070
   170
1070
     0
1070
   144
1040
1.0
1070
   277
1070
     2
1070
   284
1070
     8
1070
   278
1070
    46
1070
   146
1040
1.0
1070
   345
1005
16
1070
   347
1005
16
1070
   346
1005
16
1070
   344
1005
0
1070
   343
1005
0
1070
   172
1070
     1
1070
    76
1070
     0
1070
    75
1070
     0
1070
   282
1070
     0
1070
   281
1070
     0
1070
    71
1070
     0
1070
    74
1070
     0
1070
   279
1070
     0
1070
   173
1070
     1
1070
   340
1005
152
1070
   271
1070
     1
1070
   272
1070
     2
1070
    77
1070
     1
1070
    73
1070
     0
1070
   171
1070
     3
1070
   274
1070
     4
1070
   177
1070
     2
1070
   176
1070
     2
1070
   178
1070
     2
1070
    78
1070
     8
1070
    48
1040
-0.1
1070
    41
1040
3.5
1070
   147
1040
1.75
1070
    42
1040
1.5875
1070
    44
1040
2.0
1070
   140
1040
3.5
1002
}
1001
ACAD_DSTYLE_DIM_LINETYPE
1070
   380
1005
16
1001
ACAD_DSTYLE_DIM_EXT1_LINETYPE
1070
   381
1005
16
1001
ACAD_DSTYLE_DIM_EXT2_LINETYPE
1070
   382
1005
16
0
DIMENSION
5
193
100
AcDbEntity
8
2
62
256
6
ByLayer
370
18
48
1
60
0
100
AcDbDimension
2
_U2
10
75
20
-22.425
30
0
11
62.5
21
-22.425
31
0
70
32
71
1
72
1
41
1
210
0
220
0
230
1
3
Standard
100
AcDbAlignedDimension
13
50
23
29.325
33
0
14
75
24
29
34
0
50
0
100
AcDbRotatedDimension
1001
ACAD
1000
DSTYLE
1002
{
1070
   371
1070
    13
1070
   372
1070
    13
1070
   170
1070
     0
1070
   144
1040
1.0
1070
   277
1070
     2
1070
   284
1070
     8
1070
   278
1070
    46
1070
   146
1040
1.0
1070
   345
1005
16
1070
   347
1005
16
1070
   346
1005
16
1070
   344
1005
0
1070
   343
1005
0
1070
   172
1070
     1
1070
    76
1070
     0
1070
    75
1070
     0
1070
   282
1070
     0
1070
   281
1070
     0
1070
    71
1070
     0
1070
    74
1070
     0
1070
   279
1070
     0
1070
   173
1070
     1
1070
   340
1005
152
1070
   271
1070
     1
1070
   272
1070
     2
1070
    77
1070
     1
1070
    73
1070
     1
1070
   171
1070
     3
1070
   274
1070
     4
1070
   177
1070
     2
1070
   176
1070
     2
1070
   178
1070
     2
1070
    78
1070
     8
1070
    48
1040
-0.1
1070
    41
1040
3.5
1070
   147
1040
1.75
1070
    42
1040
1.5875
1070
    44
1040
2.0
1070
   140
1040
3.5
1002
}
1001
ACAD_DSTYLE_DIM_LINETYPE
1070
   380
1005
16
1001
ACAD_DSTYLE_DIM_EXT1_LINETYPE
1070
   381
1005
16
1001
ACAD_DSTYLE_DIM_EXT2_LINETYPE
1070
   382
1005
16
0
DIMENSION
5
1AB
100
AcDbEntity
8
2
62
256
6
ByLayer
370
18
48
1
60
0
100
AcDbDimension
2
_U3
10
75
20
47.25
30
0
11
37.5
21
47.25
31
0
70
32
71
1
72
1
41
1
210
0
220
0
230
1
3
Standard
100
AcDbAlignedDimension
13
0
23
0
33
0
14
75
24
35
34
0
50
0
100
AcDbRotatedDimension
1001
ACAD
1000
DSTYLE
1002
{
1070
   371
1070
    13
1070
   372
1070
    13
1070
   170
1070
     0
1070
   144
1040
1.0
1070
   277
1070
     2
1070
   284
1070
     8
1070
   278
1070
    46
1070
   146
1040
1.0
1070
   345
1005
16
1070
   347
1005
16
1070
   346
1005
16
1070
   344
1005
0
1070
   343
1005
0
1070
   172
1070
     1
1070
    76
1070
     0
1070
    75
1070
     0
1070
   282
1070
     0
1070
   281
1070
     0
1070
    71
1070
     0
1070
    74
1070
     0
1070
   279
1070
     0
1070
   173
1070
     1
1070
   340
1005
152
1070
   271
1070
     1
1070
   272
1070
     2
1070
    77
1070
     1
1070
    73
1070
     1
1070
   171
1070
     3
1070
   274
1070
     4
1070
   177
1070
     2
1070
   176
1070
     2
1070
   178
1070
     2
1070
    78
1070
     8
1070
    48
1040
-0.1
1070
    41
1040
3.5
1070
   147
1040
1.75
1070
    42
1040
1.5875
1070
    44
1040
2.0
1070
   140
1040
3.5
1002
}
1001
ACAD_DSTYLE_DIM_LINETYPE
1070
   380
1005
16
1001
ACAD_DSTYLE_DIM_EXT1_LINETYPE
1070
   381
1005
16
1001
ACAD_DSTYLE_DIM_EXT2_LINETYPE
1070
   382
1005
16
0
ENDSEC
0
SECTION
2
OBJECTS
0
DICTIONARY
5
232
330
0
100
AcDbDictionary
280
0
281
1
3
ACAD_GROUP
350
233
3
ACAD_MLINESTYLE
350
234
0
DICTIONARY
5
233
330
0
100
AcDbDictionary
280
0
281
1
0
DICTIONARY
5
234
330
0
100
AcDbDictionary
280
0
281
1
3
Standard
350
18
0
MLINESTYLE
5
18
330
234
100
AcDbMlineStyle
2
Standard
70
0
3

62
256
51
90
52
90
71
2
49
-0.5
62
256
6
ByLayer
49
0.5
62
256
6
ByLayer
0
RASTERVARIABLES
5
221
330

100
AcDbRasterVariables
90
0
70
1
71
1
72
1
0
ENDSEC
0
EOF
