0
SECTION
2
HEADER
9
$ACADVER
1
AC1015
9
$DWGCODEPAGE
3
ANSI_1252
9
$HANDSEED
5
245
9
$ANGBASE
50
0
9
$ANGDIR
70
0
9
$ATTMODE
70
1
9
$AUNITS
70
0
9
$AUPREC
70
0
9
$CECOLOR
62
256
9
$CELTSCALE
40
1
9
$CELTYPE
6
ByLayer
9
$CELWEIGHT
370
18
9
$CLAYER
8
0
9
$CMLJUST
70
0
9
$CMLSCALE
40
1
9
$CMLSTYLE
2
Standard
9
$DIMSTYLE
2
Standard
9
$TEXTSIZE
40
0.2
9
$TEXTSTYLE
7
Standard
9
$LUNITS
70
2
9
$LUPREC
70
4
9
$EXTNAMES
290
1
9
$INSUNITS
70
4
9
$LTSCALE
40
1
9
$LWDISPLAY
290
1
9
$PDMODE
70
0
9
$PDSIZE
40
0
9
$PLINEGEN
70
0
0
ENDSEC
0
SECTION
2
CLASSES
0
CLASS
1
RASTERVARIABLES
2
AcDbRasterVariables
3
ISM
90
0
280
0
281
0
0
ENDSEC
0
SECTION
2
TABLES
0
TABLE
2
VPORT
5
23b
100
AcDbSymbolTable
0
VPORT
5
1
100
AcDbSymbolTableRecord
100
AcDbViewportTableRecord
2
*Active
70
0
10
0
20
0
11
1
21
1
12
-1
22
1
13
0
23
0
14
0.5
24
0.5
15
10
25
10
16
0
26
0
36
1
17
0
27
0
37
0
0
ENDTAB
0
TABLE
2
LTYPE
5
23c
100
AcDbSymbolTable
0
LTYPE
5
14
100
AcDbSymbolTableRecord
100
AcDbLinetypeTableRecord
70
0
2
ByBlock
3

72
65
73
0
40
0
0
LTYPE
5
15
100
AcDbSymbolTableRecord
100
AcDbLinetypeTableRecord
70
0
2
ByLayer
3

72
65
73
0
40
0
0
LTYPE
5
16
100
AcDbSymbolTableRecord
100
AcDbLinetypeTableRecord
70
0
2
Continuous
3
Solid line
72
65
73
0
40
0
0
LTYPE
5
6E
100
AcDbSymbolTableRecord
100
AcDbLinetypeTableRecord
70
0
2
CENTER
3
____ _ ____ _ ____ _ ____
72
65
73
4
40
47.5
49
22
74
0
49
-8.5
74
0
49
8.5
74
0
49
-8.5
74
0
0
LTYPE
5
6F
100
AcDbSymbolTableRecord
100
AcDbLinetypeTableRecord
70
0
2
DASHED
3
__ __ __ __ __ __ __ __ __
72
65
73
2
40
25.72
49
12.86
74
0
49
-12.86
74
0
0
ENDTAB
0
TABLE
2
LAYER
5
23d
100
AcDbSymbolTable
0
LAYER
5
10
100
AcDbSymbolTableRecord
100
AcDbLayerTableRecord
2
0
70
0
62
7
6
Continuous
290
1
370
-3
390
0
0
LAYER
5
71
100
AcDbSymbolTableRecord
100
AcDbLayerTableRecord
2
81
70
0
62
-3
6
Continuous
290
1
370
-3
390
0
0
LAYER
5
73
100
AcDbSymbolTableRecord
100
AcDbLayerTableRecord
2
80
70
0
62
-6
6
Continuous
290
1
370
-3
390
0
0
LAYER
5
75
100
AcDbSymbolTableRecord
100
AcDbLayerTableRecord
2
1
70
0
62
4
6
Continuous
290
1
370
-3
390
0
0
LAYER
5
169
100
AcDbSymbolTableRecord
100
AcDbLayerTableRecord
2
Defpoints
70
0
62
7
6
Continuous
290
0
370
-3
390
0
0
LAYER
5
176
100
AcDbSymbolTableRecord
100
AcDbLayerTableRecord
2
2
70
0
62
7
6
Continuous
290
1
370
-3
390
0
0
LAYER
5
228
100
AcDbSymbolTableRecord
100
AcDbLayerTableRecord
2
SK1
70
0
62
4
6
Continuous
290
1
370
-3
390
0
0
LAYER
5
229
100
AcDbSymbolTableRecord
100
AcDbLayerTableRecord
2
SK2
70
0
62
7
6
Continuous
290
1
370
-3
390
0
0
LAYER
5
22a
100
AcDbSymbolTableRecord
100
AcDbLayerTableRecord
2
SK6
70
0
62
5
6
Continuous
290
1
370
-3
390
0
0
ENDTAB
0
TABLE
2
STYLE
5
23e
100
AcDbSymbolTable
0
STYLE
5
11
100
AcDbSymbolTableRecord
100
AcDbTextStyleTableRecord
2
Standard
3
txt
70
0
71
0
40
0
41
1
42
0
50
0
0
STYLE
5
158
100
AcDbSymbolTableRecord
100
AcDbTextStyleTableRecord
2
iso_b_vert
3
simplex.shx
70
0
71
0
40
0
41
1
42
0
50
0
0
STYLE
5
159
100
AcDbSymbolTableRecord
100
AcDbTextStyleTableRecord
2
DWGDirectTextStyle
3
simplex
70
0
71
0
40
0
41
1
42
0
50
0
0
ENDTAB
0
TABLE
2
DIMSTYLE
5
23f
100
AcDbSymbolTable
100
AcDbDimStyleTable
0
DIMSTYLE
105
27
100
AcDbSymbolTableRecord
100
AcDbDimStyleTableRecord
2
Standard
70
0
3
<>
41
0.18
42
0.0625
44
0.18
140
0.18
147
0.09
73
0
74
0
77
1
271
2
275
0
278
52
280
0
340
11
0
ENDTAB
0
TABLE
2
VIEW
5
240
100
AcDbSymbolTable
0
ENDTAB
0
TABLE
2
UCS
5
241
100
AcDbSymbolTable
0
ENDTAB
0
TABLE
2
APPID
5
242
100
AcDbSymbolTable
0
APPID
5
12
100
AcDbSymbolTableRecord
100
AcDbRegAppTableRecord
2
ACAD
70
0
0
APPID
5
165
100
AcDbSymbolTableRecord
100
AcDbRegAppTableRecord
2
ACAD_DSTYLE_DIMBREAK
70
0
0
APPID
5
1E7
100
AcDbSymbolTableRecord
100
AcDbRegAppTableRecord
2
ACAD_DSTYLE_DIM_LINETYPE
70
0
0
APPID
5
1E8
100
AcDbSymbolTableRecord
100
AcDbRegAppTableRecord
2
ACAD_DSTYLE_DIM_EXT1_LINETYPE
70
0
0
APPID
5
1E9
100
AcDbSymbolTableRecord
100
AcDbRegAppTableRecord
2
ACAD_DSTYLE_DIM_EXT2_LINETYPE
70
0
0
APPID
5
224
100
AcDbSymbolTableRecord
100
AcDbRegAppTableRecord
2
ACAD_MLEADERVER
70
0
0
ENDTAB
0
TABLE
2
BLOCK_RECORD
5
243
100
AcDbSymbolTable
0
BLOCK_RECORD
5
1F
100
AcDbSymbolTableRecord
100
AcDbBlockTableRecord
2
*Model_Space
340
0
70
0
0
BLOCK_RECORD
5
1B
100
AcDbSymbolTableRecord
100
AcDbBlockTableRecord
2
*Paper_Space
340
0
70
0
0
BLOCK_RECORD
5
23
100
AcDbSymbolTableRecord
100
AcDbBlockTableRecord
2
*Paper_Space0
340
0
70
0
0
BLOCK_RECORD
5
16A
100
AcDbSymbolTableRecord
100
AcDbBlockTableRecord
2
*D1
340
0
70
0
0
BLOCK_RECORD
5
177
100
AcDbSymbolTableRecord
100
AcDbBlockTableRecord
2
_U0
340
0
70
0
0
BLOCK_RECORD
5
183
100
AcDbSymbolTableRecord
100
AcDbBlockTableRecord
2
*D3
340
0
70
0
0
BLOCK_RECORD
5
190
100
AcDbSymbolTableRecord
100
AcDbBlockTableRecord
2
_U1
340
0
70
0
0
BLOCK_RECORD
5
19C
100
AcDbSymbolTableRecord
100
AcDbBlockTableRecord
2
*D5
340
0
70
0
0
BLOCK_RECORD
5
1A8
100
AcDbSymbolTableRecord
100
AcDbBlockTableRecord
2
_U2
340
0
70
0
0
BLOCK_RECORD
5
1B4
100
AcDbSymbolTableRecord
100
AcDbBlockTableRecord
2
*D7
340
0
70
0
0
BLOCK_RECORD
5
1C0
100
AcDbSymbolTableRecord
100
AcDbBlockTableRecord
2
_U3
340
0
70
0
0
ENDTAB
0
ENDSEC
0
SECTION
2
BLOCKS
0
BLOCK
5
20
100
AcDbEntity
8
0
100
AcDbBlockBegin
2
*Model_Space
70
0
10
0
20
0
30
0
3
*Model_Space
0
ENDBLK
5
21
100
AcDbEntity
8
0
100
AcDbBlockEnd
0
BLOCK
5
1C
100
AcDbEntity
8
0
100
AcDbBlockBegin
2
*Paper_Space
70
0
10
0
20
0
30
0
3
*Paper_Space
0
ENDBLK
5
1D
100
AcDbEntity
8
0
100
AcDbBlockEnd
0
BLOCK
5
24
100
AcDbEntity
8
0
100
AcDbBlockBegin
2
*Paper_Space0
70
0
10
0
20
0
30
0
3
*Paper_Space0
0
ENDBLK
5
25
100
AcDbEntity
8
0
100
AcDbBlockEnd
0
BLOCK
5
16B
100
AcDbEntity
8
0
100
AcDbBlockBegin
2
*D1
70
1
10
0
20
0
30
0
3
*D1
0
LINE
5
16D
100
AcDbEntity
8
0
62
256
6
ByLayer
370
-2
48
1
60
0
100
AcDbLine
10
71.5875
20
-27
30
0
11
103.1
21
-27
31
0
39
0
210
0
220
0
230
1
0
LINE
5
16E
100
AcDbEntity
8
0
62
256
6
ByLayer
370
-2
48
1
60
0
100
AcDbLine
10
1.5875
20
0
30
0
11
103.1
21
0
31
0
39
0
210
0
220
0
230
1
0
LINE
5
16F
100
AcDbEntity
8
0
62
256
6
ByLayer
370
-2
48
1
60
0
100
AcDbLine
10
101.1
20
-23.5
30
0
11
101.1
21
-3.5
31
0
39
0
210
0
220
0
230
1
0
SOLID
5
170
100
AcDbEntity
8
0
62
256
6
ByLayer
370
-1
48
1
60
0
100
AcDbTrace
10
100.516667
20
-23.5
30
0
11
101.683333
21
-23.5
31
0
12
101.1
22
-27
32
0
13
101.1
23
-27
33
0
39
0
210
0
220
0
230
1
0
SOLID
5
171
100
AcDbEntity
8
0
62
256
6
ByLayer
370
-1
48
1
60
0
100
AcDbTrace
10
101.683333
20
-3.5
30
0
11
100.516667
21
-3.5
31
0
12
101.1
22
0
32
0
13
101.1
23
0
33
0
39
0
210
0
220
0
230
1
0
MTEXT
5
172
100
AcDbEntity
8
0
62
256
6
ByLayer
370
18
48
1
60
0
100
AcDbMText
10
94.1
20
-13.5
30
0
210
0
220
0
230
1
1
\A1;27
40
3.5
41
0
44
1
50
90
71
5
72
5
7
iso_b_vert
0
POINT
5
173
100
AcDbEntity
8
Defpoints
62
0
6
ByLayer
370
-1
48
1
60
0
100
AcDbPoint
10
70
20
-27
30
0
39
0
210
0
220
0
230
1
50
360
0
POINT
5
174
100
AcDbEntity
8
Defpoints
62
0
6
ByLayer
370
-1
48
1
60
0
100
AcDbPoint
10
0
20
0
30
0
39
0
210
0
220
0
230
1
50
360
0
POINT
5
175
100
AcDbEntity
8
Defpoints
62
0
6
ByLayer
370
-1
48
1
60
0
100
AcDbPoint
10
101.1
20
0
30
0
39
0
210
0
220
0
230
1
50
360
0
ENDBLK
5
16C
100
AcDbEntity
8
0
100
AcDbBlockEnd
0
BLOCK
5
17E
100
AcDbEntity
8
0
100
AcDbBlockBegin
2
_U0
70
0
10
0
20
0
30
0
3
_U0
0
MTEXT
5
178
100
AcDbEntity
8
2
62
256
6
ByLayer
370
18
48
1
60
0
100
AcDbMText
10
100.410366
20
-15.432966
30
0
210
0
220
0
230
1
1
\W0.6740;27
40
3.5
41
0
44
1.084337
50
90
71
7
72
5
7
iso_b_vert
0
LINE
5
179
100
AcDbEntity
8
2
62
256
6
ByLayer
370
13
48
1
60
0
100
AcDbLine
10
71.5875
20
-27
30
0
11
103.1
21
-27
31
0
39
0
210
0
220
0
230
1
0
LINE
5
17A
100
AcDbEntity
8
2
62
256
6
ByLayer
370
13
48
1
60
0
100
AcDbLine
10
1.5875
20
0
30
0
11
103.1
21
0
31
0
39
0
210
0
220
0
230
1
0
LINE
5
17B
100
AcDbEntity
8
2
62
256
6
ByLayer
370
13
48
1
60
0
100
AcDbLine
10
101.1
20
-27
30
0
11
101.1
21
0
31
0
39
0
210
0
220
0
230
1
0
SOLID
5
17C
100
AcDbEntity
8
2
62
256
6
ByLayer
370
18
48
1
60
0
100
AcDbTrace
10
101.1
20
-27
30
0
11
100.639216
21
-23.500002
31
0
12
101.560784
22
-23.499998
32
0
13
101.560784
23
-23.499998
33
0
39
0
210
0
220
0
230
1
0
SOLID
5
17D
100
AcDbEntity
8
2
62
256
6
ByLayer
370
18
48
1
60
0
100
AcDbTrace
10
101.1
20
0
30
0
11
101.560784
21
-3.499998
31
0
12
100.639216
22
-3.500002
32
0
13
100.639216
23
-3.500002
33
0
39
0
210
0
220
0
230
1
0
ENDBLK
5
17F
100
AcDbEntity
8
0
100
AcDbBlockEnd
0
BLOCK
5
184
100
AcDbEntity
8
0
100
AcDbBlockBegin
2
*D3
70
1
10
0
20
0
30
0
3
*D3
0
LINE
5
186
100
AcDbEntity
8
0
62
256
6
ByLayer
370
-2
48
1
60
0
100
AcDbLine
10
71.5875
20
-21
30
0
11
92.1
21
-21
31
0
39
0
210
0
220
0
230
1
0
LINE
5
187
100
AcDbEntity
8
0
62
256
6
ByLayer
370
-2
48
1
60
0
100
AcDbLine
10
71.5875
20
-27
30
0
11
92.1
21
-27
31
0
39
0
210
0
220
0
230
1
0
LINE
5
188
100
AcDbEntity
8
0
62
256
6
ByLayer
370
-2
48
1
60
0
100
AcDbLine
10
90.1
20
-17.5
30
0
11
90.1
21
-14
31
0
39
0
210
0
220
0
230
1
0
LINE
5
189
100
AcDbEntity
8
0
62
256
6
ByLayer
370
-2
48
1
60
0
100
AcDbLine
10
90.1
20
-30.5
30
0
11
90.1
21
-34
31
0
39
0
210
0
220
0
230
1
0
SOLID
5
18A
100
AcDbEntity
8
0
62
256
6
ByLayer
370
-1
48
1
60
0
100
AcDbTrace
10
89.516667
20
-17.5
30
0
11
90.683333
21
-17.5
31
0
12
90.1
22
-21
32
0
13
90.1
23
-21
33
0
39
0
210
0
220
0
230
1
0
SOLID
5
18B
100
AcDbEntity
8
0
62
256
6
ByLayer
370
-1
48
1
60
0
100
AcDbTrace
10
90.683333
20
-30.5
30
0
11
89.516667
21
-30.5
31
0
12
90.1
22
-27
32
0
13
90.1
23
-27
33
0
39
0
210
0
220
0
230
1
0
MTEXT
5
18C
100
AcDbEntity
8
0
62
256
6
ByLayer
370
18
48
1
60
0
100
AcDbMText
10
83.1
20
-24
30
0
210
0
220
0
230
1
1
\A1;6
40
3.5
41
0
44
1
50
90
71
5
72
5
7
iso_b_vert
0
POINT
5
18D
100
AcDbEntity
8
Defpoints
62
0
6
ByLayer
370
-1
48
1
60
0
100
AcDbPoint
10
70
20
-21
30
0
39
0
210
0
220
0
230
1
50
360
0
POINT
5
18E
100
AcDbEntity
8
Defpoints
62
0
6
ByLayer
370
-1
48
1
60
0
100
AcDbPoint
10
70
20
-27
30
0
39
0
210
0
220
0
230
1
50
360
0
POINT
5
18F
100
AcDbEntity
8
Defpoints
62
0
6
ByLayer
370
-1
48
1
60
0
100
AcDbPoint
10
90.1
20
-27
30
0
39
0
210
0
220
0
230
1
50
360
0
ENDBLK
5
185
100
AcDbEntity
8
0
100
AcDbBlockEnd
0
BLOCK
5
197
100
AcDbEntity
8
0
100
AcDbBlockBegin
2
_U1
70
0
10
0
20
0
30
0
3
_U1
0
MTEXT
5
191
100
AcDbEntity
8
2
62
256
6
ByLayer
370
18
48
1
60
0
100
AcDbMText
10
89.410366
20
-24.625233
30
0
210
0
220
0
230
1
1
\W0.5404;6
40
3.5
41
0
44
1.084337
50
90
71
7
72
5
7
iso_b_vert
0
LINE
5
192
100
AcDbEntity
8
2
62
256
6
ByLayer
370
13
48
1
60
0
100
AcDbLine
10
71.5875
20
-21
30
0
11
92.1
21
-21
31
0
39
0
210
0
220
0
230
1
0
LINE
5
193
100
AcDbEntity
8
2
62
256
6
ByLayer
370
13
48
1
60
0
100
AcDbLine
10
71.5875
20
-27
30
0
11
92.1
21
-27
31
0
39
0
210
0
220
0
230
1
0
LINE
5
194
100
AcDbEntity
8
2
62
256
6
ByLayer
370
13
48
1
60
0
100
AcDbLine
10
90.1
20
-12.25
30
0
11
90.1
21
-35.75
31
0
39
0
210
0
220
0
230
1
0
SOLID
5
195
100
AcDbEntity
8
2
62
256
6
ByLayer
370
18
48
1
60
0
100
AcDbTrace
10
90.1
20
-21
30
0
11
89.639216
21
-17.500002
31
0
12
90.560784
22
-17.499998
32
0
13
90.560784
23
-17.499998
33
0
39
0
210
0
220
0
230
1
0
SOLID
5
196
100
AcDbEntity
8
2
62
256
6
ByLayer
370
18
48
1
60
0
100
AcDbTrace
10
90.1
20
-27
30
0
11
90.560784
21
-30.499998
31
0
12
89.639216
22
-30.500002
32
0
13
89.639216
23
-30.500002
33
0
39
0
210
0
220
0
230
1
0
ENDBLK
5
198
100
AcDbEntity
8
0
100
AcDbBlockEnd
0
BLOCK
5
19D
100
AcDbEntity
8
0
100
AcDbBlockBegin
2
*D5
70
1
10
0
20
0
30
0
3
*D5
0
LINE
5
19F
100
AcDbEntity
8
0
62
256
6
ByLayer
370
-2
48
1
60
0
100
AcDbLine
10
50
20
-19.7375
30
0
11
50
21
18.925
31
0
39
0
210
0
220
0
230
1
0
LINE
5
1A0
100
AcDbEntity
8
0
62
256
6
ByLayer
370
-2
48
1
60
0
100
AcDbLine
10
70
20
-19.4125
30
0
11
70
21
18.925
31
0
39
0
210
0
220
0
230
1
0
LINE
5
1A1
100
AcDbEntity
8
0
62
256
6
ByLayer
370
-2
48
1
60
0
100
AcDbLine
10
53.5
20
16.925
30
0
11
66.5
21
16.925
31
0
39
0
210
0
220
0
230
1
0
SOLID
5
1A2
100
AcDbEntity
8
0
62
256
6
ByLayer
370
-1
48
1
60
0
100
AcDbTrace
10
53.5
20
17.508333
30
0
11
53.5
21
16.341667
31
0
12
50
22
16.925
32
0
13
50
23
16.925
33
0
39
0
210
0
220
0
230
1
0
SOLID
5
1A3
100
AcDbEntity
8
0
62
256
6
ByLayer
370
-1
48
1
60
0
100
AcDbTrace
10
66.5
20
16.341667
30
0
11
66.5
21
17.508333
31
0
12
70
22
16.925
32
0
13
70
23
16.925
33
0
39
0
210
0
220
0
230
1
0
MTEXT
5
1A4
100
AcDbEntity
8
0
62
256
6
ByLayer
370
18
48
1
60
0
100
AcDbMText
10
60
20
23.925
30
0
210
0
220
0
230
1
1
\A1;20
40
3.5
41
0
44
1
50
0
71
5
72
5
7
iso_b_vert
0
POINT
5
1A5
100
AcDbEntity
8
Defpoints
62
0
6
ByLayer
370
-1
48
1
60
0
100
AcDbPoint
10
50
20
-21.325
30
0
39
0
210
0
220
0
230
1
50
360
0
POINT
5
1A6
100
AcDbEntity
8
Defpoints
62
0
6
ByLayer
370
-1
48
1
60
0
100
AcDbPoint
10
70
20
-21
30
0
39
0
210
0
220
0
230
1
50
360
0
POINT
5
1A7
100
AcDbEntity
8
Defpoints
62
0
6
ByLayer
370
-1
48
1
60
0
100
AcDbPoint
10
70
20
16.925
30
0
39
0
210
0
220
0
230
1
50
360
0
ENDBLK
5
19E
100
AcDbEntity
8
0
100
AcDbBlockEnd
0
BLOCK
5
1AF
100
AcDbEntity
8
0
100
AcDbBlockBegin
2
_U2
70
0
10
0
20
0
30
0
3
_U2
0
MTEXT
5
1A9
100
AcDbEntity
8
2
62
256
6
ByLayer
370
18
48
1
60
0
100
AcDbMText
10
58.095034
20
17.957634
30
0
210
0
220
0
230
1
1
\W0.6740;20
40
3.5
41
0
44
1.084337
50
0
71
7
72
5
7
iso_b_vert
0
LINE
5
1AA
100
AcDbEntity
8
2
62
256
6
ByLayer
370
13
48
1
60
0
100
AcDbLine
10
50
20
-19.7375
30
0
11
50
21
18.925
31
0
39
0
210
0
220
0
230
1
0
LINE
5
1AB
100
AcDbEntity
8
2
62
256
6
ByLayer
370
13
48
1
60
0
100
AcDbLine
10
70
20
-19.4125
30
0
11
70
21
18.925
31
0
39
0
210
0
220
0
230
1
0
LINE
5
1AC
100
AcDbEntity
8
2
62
256
6
ByLayer
370
13
48
1
60
0
100
AcDbLine
10
50
20
16.925
30
0
11
70
21
16.925
31
0
39
0
210
0
220
0
230
1
0
SOLID
5
1AD
100
AcDbEntity
8
2
62
256
6
ByLayer
370
18
48
1
60
0
100
AcDbTrace
10
50
20
16.925
30
0
11
53.499998
21
17.385784
31
0
12
53.500002
22
16.464216
32
0
13
53.500002
23
16.464216
33
0
39
0
210
0
220
0
230
1
0
SOLID
5
1AE
100
AcDbEntity
8
2
62
256
6
ByLayer
370
18
48
1
60
0
100
AcDbTrace
10
70
20
16.925
30
0
11
66.500002
21
16.464216
31
0
12
66.499998
22
17.385784
32
0
13
66.499998
23
17.385784
33
0
39
0
210
0
220
0
230
1
0
ENDBLK
5
1B0
100
AcDbEntity
8
0
100
AcDbBlockEnd
0
BLOCK
5
1B5
100
AcDbEntity
8
0
100
AcDbBlockBegin
2
*D7
70
1
10
0
20
0
30
0
3
*D7
0
LINE
5
1B7
100
AcDbEntity
8
0
62
256
6
ByLayer
370
-2
48
1
60
0
100
AcDbLine
10
0
20
-1.5875
30
0
11
0
21
-47.75
31
0
39
0
210
0
220
0
230
1
0
LINE
5
1B8
100
AcDbEntity
8
0
62
256
6
ByLayer
370
-2
48
1
60
0
100
AcDbLine
10
70
20
-28.5875
30
0
11
70
21
-47.75
31
0
39
0
210
0
220
0
230
1
0
LINE
5
1B9
100
AcDbEntity
8
0
62
256
6
ByLayer
370
-2
48
1
60
0
100
AcDbLine
10
3.5
20
-45.75
30
0
11
66.5
21
-45.75
31
0
39
0
210
0
220
0
230
1
0
SOLID
5
1BA
100
AcDbEntity
8
0
62
256
6
ByLayer
370
-1
48
1
60
0
100
AcDbTrace
10
3.5
20
-45.166667
30
0
11
3.5
21
-46.333333
31
0
12
0
22
-45.75
32
0
13
0
23
-45.75
33
0
39
0
210
0
220
0
230
1
0
SOLID
5
1BB
100
AcDbEntity
8
0
62
256
6
ByLayer
370
-1
48
1
60
0
100
AcDbTrace
10
66.5
20
-46.333333
30
0
11
66.5
21
-45.166667
31
0
12
70
22
-45.75
32
0
13
70
23
-45.75
33
0
39
0
210
0
220
0
230
1
0
MTEXT
5
1BC
100
AcDbEntity
8
0
62
256
6
ByLayer
370
18
48
1
60
0
100
AcDbMText
10
35
20
-38.75
30
0
210
0
220
0
230
1
1
\A1;70
40
3.5
41
0
44
1
50
0
71
5
72
5
7
iso_b_vert
0
POINT
5
1BD
100
AcDbEntity
8
Defpoints
62
0
6
ByLayer
370
-1
48
1
60
0
100
AcDbPoint
10
0
20
0
30
0
39
0
210
0
220
0
230
1
50
360
0
POINT
5
1BE
100
AcDbEntity
8
Defpoints
62
0
6
ByLayer
370
-1
48
1
60
0
100
AcDbPoint
10
70
20
-27
30
0
39
0
210
0
220
0
230
1
50
360
0
POINT
5
1BF
100
AcDbEntity
8
Defpoints
62
0
6
ByLayer
370
-1
48
1
60
0
100
AcDbPoint
10
70
20
-45.75
30
0
39
0
210
0
220
0
230
1
50
360
0
ENDBLK
5
1B6
100
AcDbEntity
8
0
100
AcDbBlockEnd
0
BLOCK
5
1C7
100
AcDbEntity
8
0
100
AcDbBlockBegin
2
_U3
70
0
10
0
20
0
30
0
3
_U3
0
MTEXT
5
1C1
100
AcDbEntity
8
2
62
256
6
ByLayer
370
18
48
1
60
0
100
AcDbMText
10
33.095034
20
-44.717366
30
0
210
0
220
0
230
1
1
\W0.6740;70
40
3.5
41
0
44
1.084337
50
0
71
7
72
5
7
iso_b_vert
0
LINE
5
1C2
100
AcDbEntity
8
2
62
256
6
ByLayer
370
13
48
1
60
0
100
AcDbLine
10
0
20
-1.5875
30
0
11
0
21
-47.75
31
0
39
0
210
0
220
0
230
1
0
LINE
5
1C3
100
AcDbEntity
8
2
62
256
6
ByLayer
370
13
48
1
60
0
100
AcDbLine
10
70
20
-28.5875
30
0
11
70
21
-47.75
31
0
39
0
210
0
220
0
230
1
0
LINE
5
1C4
100
AcDbEntity
8
2
62
256
6
ByLayer
370
13
48
1
60
0
100
AcDbLine
10
0
20
-45.75
30
0
11
70
21
-45.75
31
0
39
0
210
0
220
0
230
1
0
SOLID
5
1C5
100
AcDbEntity
8
2
62
256
6
ByLayer
370
18
48
1
60
0
100
AcDbTrace
10
0
20
-45.75
30
0
11
3.499998
21
-45.289216
31
0
12
3.500002
22
-46.210784
32
0
13
3.500002
23
-46.210784
33
0
39
0
210
0
220
0
230
1
0
SOLID
5
1C6
100
AcDbEntity
8
2
62
256
6
ByLayer
370
18
48
1
60
0
100
AcDbTrace
10
70
20
-45.75
30
0
11
66.500002
21
-46.210784
31
0
12
66.499998
22
-45.289216
32
0
13
66.499998
23
-45.289216
33
0
39
0
210
0
220
0
230
1
0
ENDBLK
5
1C8
100
AcDbEntity
8
0
100
AcDbBlockEnd
0
ENDSEC
0
SECTION
2
ENTITIES
0
ARC
5
FE
100
AcDbEntity
8
1
62
256
6
ByLayer
370
18
48
1
60
0
100
AcDbCircle
39
0
10
20.279208
20
-21.2
30
0
40
1.2
210
0
220
0
230
1
100
AcDbArc
50
60.662139
51
90
0
ARC
5
FF
100
AcDbEntity
8
SK1
62
256
6
ByLayer
370
18
48
1
60
0
100
AcDbCircle
39
0
10
-0.6
20
15
30
0
40
0.999999999999994
210
0
220
0
230
1
100
AcDbArc
50
293.578178
51
306.869898
0
ARC
5
100
100
AcDbEntity
8
SK1
62
256
6
ByLayer
370
18
48
1
60
0
100
AcDbCircle
39
0
10
-0.6
20
-15
30
0
40
0.999999999999994
210
0
220
0
230
1
100
AcDbArc
50
53.130102
51
66.421822
0
ARC
5
104
100
AcDbEntity
8
1
62
256
6
ByLayer
370
18
48
1
60
0
100
AcDbCircle
39
0
10
29.4
20
-21.15
30
0
40
1
210
0
220
0
230
1
100
AcDbArc
50
360
51
90
0
ARC
5
105
100
AcDbEntity
8
1
62
256
6
ByLayer
370
18
48
1
60
0
100
AcDbCircle
39
0
10
50
20
-19.725
30
0
40
1.6
210
0
220
0
230
1
100
AcDbArc
50
180
51
270
0
ARC
5
106
100
AcDbEntity
8
1
62
256
6
ByLayer
370
18
48
1
60
0
100
AcDbCircle
39
0
10
69.6
20
-26.616874
30
0
40
0.4
210
0
220
0
230
1
100
AcDbArc
50
266.667001
51
0
0
ARC
5
107
100
AcDbEntity
8
1
62
256
6
ByLayer
370
18
48
1
60
0
100
AcDbCircle
39
0
10
69.6
20
-21.383126
30
0
40
0.4
210
0
220
0
230
1
100
AcDbArc
50
0
51
93.332999
0
ARC
5
108
100
AcDbEntity
8
1
62
256
6
ByLayer
370
18
48
1
60
0
100
AcDbCircle
39
0
10
45.4
20
-26.616874
30
0
40
0.4
210
0
220
0
230
1
100
AcDbArc
50
188.356196
51
273.332999
0
CIRCLE
5
101
100
AcDbEntity
8
1
62
256
6
ByLayer
370
18
48
1
60
0
100
AcDbCircle
10
41.65
20
-13.1
30
0
40
2.55
39
0
210
0
220
0
230
1
0
CIRCLE
5
102
100
AcDbEntity
8
1
62
256
6
ByLayer
370
18
48
1
60
0
100
AcDbCircle
10
41.65
20
-13.1
30
0
40
3.3
39
0
210
0
220
0
230
1
0
CIRCLE
5
103
100
AcDbEntity
8
1
62
256
6
ByLayer
370
18
48
1
60
0
100
AcDbCircle
10
41.65
20
-13.1
30
0
40
5.75
39
0
210
0
220
0
230
1
0
ELLIPSE
5
109
100
AcDbEntity
8
1
62
256
6
ByLayer
370
18
48
1
60
0
100
AcDbEllipse
10
60.322568
20
-24
30
0
11
6.12303176911189E-17
21
1
31
0
210
0
220
0
230
1
40
0.974266
41
0
42
6.28318530717959
0
ELLIPSE
5
10A
100
AcDbEntity
8
1
62
256
6
ByLayer
370
18
48
1
60
0
100
AcDbEllipse
10
16.948929
20
0
30
0
11
9.36741787978128
21
19.7417491527497
31
0
210
0
220
0
230
1
40
0.341999
41
2.04527312608987
42
2.98886640869144
0
ELLIPSE
5
10B
100
AcDbEntity
8
1
62
256
6
ByLayer
370
18
48
1
60
0
100
AcDbEllipse
10
-0.948929
20
0
30
0
11
9.36741787978225
21
-19.7417491527502
31
0
210
0
220
0
230
1
40
0.341999
41
0.152726244898341
42
1.09631952749989
0
ELLIPSE
5
10C
100
AcDbEntity
8
1
62
256
6
ByLayer
370
18
48
1
60
0
100
AcDbEllipse
10
-0.948929
20
0
30
0
11
9.36741787978194
21
19.7417491527498
31
0
210
0
220
0
230
1
40
0.341999
41
-1.0963195274999
42
-0.152726244898351
0
ELLIPSE
5
10D
100
AcDbEntity
8
1
62
256
6
ByLayer
370
18
48
1
60
0
100
AcDbEllipse
10
16.948929
20
0
30
0
11
9.36741787978144
21
-19.7417491527498
31
0
210
0
220
0
230
1
40
0.341999
41
-2.98886640869144
42
-2.04527312608987
0
ELLIPSE
5
10E
100
AcDbEntity
8
1
62
256
6
ByLayer
370
18
48
1
60
0
100
AcDbEllipse
10
20.174537
20
0
30
0
11
1.22460635382213E-15
21
19.9999999999959
31
0
210
0
220
0
230
1
40
0.008727
41
0.779965219575176
42
2.36162743401466
0
ELLIPSE
5
10F
100
AcDbEntity
8
1
62
256
6
ByLayer
370
18
48
1
60
0
100
AcDbEllipse
10
63.044631
20
-21.641251
30
0
11
0.433147587138496
21
5.07413064609368E-16
31
0
210
0
220
0
230
1
40
0.230868
41
3.14159265358979
42
-2.96704007723131
0
ELLIPSE
5
110
100
AcDbEntity
8
1
62
256
6
ByLayer
370
18
48
1
60
0
100
AcDbEllipse
10
64.336487
20
-23.332701
30
0
11
0.433147587462381
21
5.07413064988784E-16
31
0
210
0
220
0
230
1
40
0.230868
41
-2.96705972839845
42
-2.47750918249658
0
ELLIPSE
5
111
100
AcDbEntity
8
1
62
256
6
ByLayer
370
18
48
1
60
0
100
AcDbEllipse
10
64.336487
20
-24.667299
30
0
11
0.433147587462381
21
5.07413064988784E-16
31
0
210
0
220
0
230
1
40
0.230868
41
2.47750918249658
42
2.96705972839845
0
ELLIPSE
5
112
100
AcDbEntity
8
1
62
256
6
ByLayer
370
18
48
1
60
0
100
AcDbEllipse
10
63.044631
20
-26.358749
30
0
11
0.433147587138496
21
5.07413064609368E-16
31
0
210
0
220
0
230
1
40
0.230868
41
2.96704007723127
42
3.14159265358979
0
POINT
5
70
100
AcDbEntity
8
81
62
256
6
ByLayer
370
18
48
1
60
0
100
AcDbPoint
10
70
20
-27
30
0
39
0
210
0
220
0
230
1
50
360
0
POINT
5
72
100
AcDbEntity
8
80
62
256
6
ByLayer
370
18
48
1
60
0
100
AcDbPoint
10
0
20
0
30
0
39
0
210
0
220
0
230
1
50
360
0
POINT
5
74
100
AcDbEntity
8
1
62
256
6
ByLayer
370
18
48
1
60
1
100
AcDbPoint
10
70
20
-27
30
0
39
0
210
0
220
0
230
1
50
360
0
POINT
5
76
100
AcDbEntity
8
1
62
256
6
ByLayer
370
18
48
1
60
1
100
AcDbPoint
10
0
20
0
30
0
39
0
210
0
220
0
230
1
50
360
0
POINT
5
77
100
AcDbEntity
8
1
62
256
6
ByLayer
370
18
48
1
60
1
100
AcDbPoint
10
70
20
-21
30
0
39
0
210
0
220
0
230
1
50
360
0
POINT
5
78
100
AcDbEntity
8
1
62
256
6
ByLayer
370
18
48
1
60
1
100
AcDbPoint
10
70
20
-27
30
0
39
0
210
0
220
0
230
1
50
360
0
POINT
5
79
100
AcDbEntity
8
1
62
256
6
ByLayer
370
18
48
1
60
1
100
AcDbPoint
10
50
20
-21.325
30
0
39
0
210
0
220
0
230
1
50
360
0
POINT
5
7A
100
AcDbEntity
8
1
62
256
6
ByLayer
370
18
48
1
60
1
100
AcDbPoint
10
70
20
-21
30
0
39
0
210
0
220
0
230
1
50
360
0
POINT
5
7B
100
AcDbEntity
8
1
62
256
6
ByLayer
370
18
48
1
60
1
100
AcDbPoint
10
0
20
0
30
0
39
0
210
0
220
0
230
1
50
360
0
POINT
5
7C
100
AcDbEntity
8
1
62
256
6
ByLayer
370
18
48
1
60
1
100
AcDbPoint
10
70
20
-27
30
0
39
0
210
0
220
0
230
1
50
360
0
SPLINE
5
113
100
AcDbEntity
8
SK1
62
256
6
ByLayer
370
18
48
1
60
0
100
AcDbSpline
70
4
71
2
72
6
73
3
40
0
40
0
40
0
40
1
40
1
40
1
41
1
10
-1.4950399779393
20
-13.7130167789402
30
0
41
1
10
-0.94497688887391
20
-13.7267321696587
30
0
41
1
10
-0.394913799811292
20
-13.740447551665
30
0
0
SPLINE
5
114
100
AcDbEntity
8
SK1
62
256
6
ByLayer
370
18
48
1
60
0
100
AcDbSpline
70
4
71
2
72
6
73
3
40
0
40
0
40
0
40
1
40
1
40
1
41
1
10
-0.394913799811292
20
13.7404477916605
30
0
41
1
10
-0.94497688887391
20
13.7267324097107
30
0
41
1
10
-1.4950399779393
20
13.7130170190491
30
0
0
SPLINE
5
115
100
AcDbEntity
8
SK1
62
256
6
ByLayer
370
18
48
1
60
0
100
AcDbSpline
70
4
71
2
72
6
73
3
40
0
40
0
40
0
40
1
40
1
40
1
41
1
10
-24
20
-12.6317156240216
30
0
41
1
10
-23.249999936895
20
-13.0645339427607
30
0
41
1
10
-22.5
20
-13.4973518251592
30
0
0
SPLINE
5
116
100
AcDbEntity
8
SK1
62
256
6
ByLayer
370
18
48
1
60
0
100
AcDbSpline
70
4
71
2
72
6
73
3
40
0
40
0
40
0
40
1
40
1
40
1
41
1
10
-22.5
20
13.4973518870616
30
0
41
1
10
-23.2499999368976
20
13.0645340070691
30
0
41
1
10
-24
20
12.6317156907499
30
0
0
SPLINE
5
117
100
AcDbEntity
8
SK1
62
256
6
ByLayer
370
18
48
1
60
0
100
AcDbSpline
70
4
71
3
72
13
73
9
40
0
40
0
40
0
40
0
40
0.239505896267058
40
0.368426445719716
40
0.500072184804663
40
0.631705935597398
40
0.760593415643758
40
1
40
1
40
1
40
1
41
1
10
-1.4950399779393
20
13.8252671707288
30
0
41
1
10
-1.52110926509485
20
13.8248650525742
30
0
41
1
10
-1.55883864918067
20
13.8310346548635
30
0
41
1
10
-1.60627567892249
20
13.8540680395026
30
0
41
1
10
-1.63886244003068
20
13.8792240145368
30
0
41
1
10
-1.66563490778343
20
13.9104917120148
30
0
41
1
10
-1.69103207617425
20
13.956689925787
30
0
41
1
10
-1.69909121849834
20
13.9940472396764
30
0
41
1
10
-1.7
20
14.020094440518
30
0
0
SPLINE
5
118
100
AcDbEntity
8
SK1
62
256
6
ByLayer
370
18
48
1
60
0
100
AcDbSpline
70
4
71
3
72
13
73
9
40
0
40
0
40
0
40
0
40
0.239406584968136
40
0.368294065212519
40
0.499927816069781
40
0.631573555071368
40
0.760494104316207
40
1
40
1
40
1
40
1
41
1
10
-1.7
20
-14.0200943498873
30
0
41
1
10
-1.69909121850789
20
-13.9940471489176
30
0
41
1
10
-1.6910320761837
20
-13.9566898348375
30
0
41
1
10
-1.66563490779619
20
-13.9104916208042
30
0
41
1
10
-1.6388624400475
20
-13.8792239231524
30
0
41
1
10
-1.60627567894025
20
-13.8540679479736
30
0
41
1
10
-1.55883864920244
20
-13.8310345631992
30
0
41
1
10
-1.52110926510643
20
-13.8248649608707
30
0
41
1
10
-1.4950399779393
20
-13.825267079015
30
0
0
SPLINE
5
119
100
AcDbEntity
8
SK1
62
256
6
ByLayer
370
18
48
1
60
0
100
AcDbSpline
70
4
71
2
72
6
73
3
40
0
40
0
40
0
40
1
40
1
40
1
41
1
10
-1.7
20
14.0158108591592
30
0
41
1
10
-12.0999999986036
20
13.7547063780669
30
0
41
1
10
-22.5
20
13.4936010331935
30
0
0
SPLINE
5
11A
100
AcDbEntity
8
SK1
62
256
6
ByLayer
370
18
48
1
60
0
100
AcDbSpline
70
4
71
2
72
6
73
3
40
0
40
0
40
0
40
1
40
1
40
1
41
1
10
-22.5
20
-13.4936007996938
30
0
41
1
10
-12.0999999986039
20
-13.7547061446862
30
0
41
1
10
-1.7
20
-14.0158106259661
30
0
0
SPLINE
5
11B
100
AcDbEntity
8
1
62
256
6
ByLayer
370
18
48
1
60
0
100
AcDbSpline
70
4
71
3
72
8
73
4
40
0
40
0
40
0
40
0
40
1
40
1
40
1
40
1
41
1
10
21.6136424361939
20
-21.15
30
0
41
1
10
22.0982150699001
20
-22.9921163174727
30
0
41
1
10
22.5848462283842
20
-24.8336948935512
30
0
41
1
10
23.0724958791621
20
-26.6749999999998
30
0
0
SPLINE
5
11C
100
AcDbEntity
8
1
62
256
6
ByLayer
370
18
48
1
60
0
100
AcDbSpline
70
4
71
3
72
16
73
12
40
0
40
0
40
0
40
0
40
0.249999999999963
40
0.249999999999963
40
0.374999999999944
40
0.437499999999942
40
0.437499999999942
40
0.49999999999994
40
0.49999999999994
40
0.74999999999997
40
1
40
1
40
1
40
1
41
1
10
21.4383186059722
20
-20.5256956333767
30
0
41
1
10
21.4518153600693
20
-20.5702290696228
30
0
41
1
10
21.4657197370956
20
-20.6170812692177
30
0
41
1
10
21.4871420894401
20
-20.6906700751526
30
0
41
1
10
21.4979956569014
20
-20.7282968668316
30
0
41
1
10
21.5090622754009
20
-20.7671818677564
30
0
41
1
10
21.5164878470326
20
-20.7933886947865
30
0
41
1
10
21.5202328231476
20
-20.8066633458203
30
0
41
1
10
21.5389651123965
20
-20.8733515396753
30
0
41
1
10
21.5688954649434
20
-20.981732713439
30
0
41
1
10
21.5987397790381
20
-21.0933471351645
30
0
41
1
10
21.6136424361939
20
-21.15
30
0
0
SPLINE
5
11D
100
AcDbEntity
8
1
62
256
6
ByLayer
370
18
48
1
60
0
100
AcDbSpline
70
4
71
3
72
37
73
33
40
0
40
0
40
0
40
0
40
0.0312500000000079
40
0.0312500000000079
40
0.0625000000000158
40
0.125000000000025
40
0.125000000000025
40
0.250000000000043
40
0.250000000000043
40
0.281250000000045
40
0.281250000000045
40
0.312500000000047
40
0.312500000000047
40
0.375000000000042
40
0.375000000000042
40
0.500000000000028
40
0.500000000000028
40
0.531250000000027
40
0.531250000000027
40
0.562500000000026
40
0.625000000000024
40
0.687500000000023
40
0.687500000000023
40
0.718750000000018
40
0.718750000000018
40
0.750000000000012
40
0.750000000000012
40
0.875000000000006
40
0.875000000000006
40
0.937500000000003
40
0.937500000000003
40
1
40
1
40
1
40
1
41
1
10
28.6979991993593
20
-20.15
30
0
41
1
10
28.716159662568
20
-20.15
30
0
41
1
10
28.7343436694247
20
-20.1503025762288
30
0
41
1
10
28.7705404672865
20
-20.1515196642874
30
0
41
1
10
28.824674801288
20
-20.1542634144927
30
0
41
1
10
28.8783209631891
20
-20.1597933879564
30
0
41
1
10
28.9849379277087
20
-20.174707921697
30
0
41
1
10
29.0551208764808
20
-20.1897592792264
30
0
41
1
10
29.141582976962
20
-20.2158024634787
30
0
41
1
10
29.1588116381842
20
-20.2213750016207
30
0
41
1
10
29.1931357589105
20
-20.2332803215246
30
0
41
1
10
29.2102683317633
20
-20.239628997449
30
0
41
1
10
29.2610060779745
20
-20.2596878787379
30
0
41
1
10
29.2940493010843
20
-20.2744353255076
30
0
41
1
10
29.3907724750532
20
-20.3229089214483
30
0
41
1
10
29.4520714242674
20
-20.3608215015534
30
0
41
1
10
29.5242042249219
20
-20.4161083923762
30
0
41
1
10
29.5384465536953
20
-20.4276015588709
30
0
41
1
10
29.5661892922902
20
-20.4511913421433
30
0
41
1
10
29.6067111076418
20
-20.4874857379126
30
0
41
1
10
29.6688053753237
20
-20.552508868218
30
0
41
1
10
29.7125622957049
20
-20.6094566171854
30
0
41
1
10
29.7430477947174
20
-20.6541098051279
30
0
41
1
10
29.7528200579798
20
-20.669318656058
30
0
41
1
10
29.7715554403085
20
-20.7004102573793
30
0
41
1
10
29.7805452051199
20
-20.7163445307234
30
0
41
1
10
29.823050932487
20
-20.7971584959475
30
0
41
1
10
29.8488697959412
20
-20.8644367319707
30
0
41
1
10
29.8752531167924
20
-20.9693159906267
30
0
41
1
10
29.8819729542482
20
-21.004941551177
30
0
41
1
10
29.8910147230181
20
-21.0776041036989
30
0
41
1
10
29.8932370625239
20
-21.1138738724027
30
0
41
1
10
29.8932370625239
20
-21.15
30
0
0
SPLINE
5
11E
100
AcDbEntity
8
1
62
256
6
ByLayer
370
18
48
1
60
0
100
AcDbSpline
70
4
71
3
72
33
73
29
40
0
40
0
40
0
40
0
40
0.125000000000012
40
0.125000000000012
40
0.187500000000014
40
0.187500000000014
40
0.250000000000017
40
0.250000000000017
40
0.375000000000025
40
0.375000000000025
40
0.406250000000026
40
0.406250000000026
40
0.437500000000027
40
0.437500000000027
40
0.500000000000024
40
0.500000000000024
40
0.625000000000018
40
0.625000000000018
40
0.656250000000015
40
0.656250000000015
40
0.687500000000012
40
0.687500000000012
40
0.75000000000001
40
0.812500000000007
40
0.812500000000007
40
0.875000000000005
40
0.875000000000005
40
1
40
1
40
1
40
1
41
1
10
29.2397368307141
20
-20.15
30
0
41
1
10
29.3071055833143
20
-20.15
30
0
41
1
10
29.3735131192457
20
-20.1560926942454
30
0
41
1
10
29.4716360317391
20
-20.1742157749747
30
0
41
1
10
29.5040980234737
20
-20.1817637186531
30
0
41
1
10
29.5685154439817
20
-20.1999671223374
30
0
41
1
10
29.600599587541
20
-20.2106842391689
30
0
41
1
10
29.6942590621149
20
-20.2470074317023
30
0
41
1
10
29.7537383245528
20
-20.2768276981421
30
0
41
1
10
29.8243435742831
20
-20.3211910993284
30
0
41
1
10
29.8382758559522
20
-20.3304211683923
30
0
41
1
10
29.8657552067244
20
-20.3496106169166
30
0
41
1
10
29.879331242548
20
-20.3595926841259
30
0
41
1
10
29.9192581400242
20
-20.3905010109516
30
0
41
1
10
29.9446575523051
20
-20.412259099656
30
0
41
1
10
30.0172761539375
20
-20.4809191664987
30
0
41
1
10
30.0609510550854
20
-20.5311735123727
30
0
41
1
10
30.1093565962302
20
-20.5998444499673
30
0
41
1
10
30.1187359240042
20
-20.6138950568287
30
0
41
1
10
30.1366582573285
20
-20.6422812788688
30
0
41
1
10
30.1452277297467
20
-20.6566521540257
30
0
41
1
10
30.1697769675525
20
-20.7002908544577
30
0
41
1
10
30.1994237772518
20
-20.7598760962957
30
0
41
1
10
30.2229298975619
20
-20.8222481913133
30
0
41
1
10
30.243288334735
20
-20.8860488117296
30
0
41
1
10
30.2519070702788
20
-20.918804833698
30
0
41
1
10
30.2724024636134
20
-21.017099031744
30
0
41
1
10
30.2792156108743
20
-21.0832436260867
30
0
41
1
10
30.2792156108743
20
-21.15
30
0
0
SPLINE
5
11F
100
AcDbEntity
8
1
62
256
6
ByLayer
370
18
48
1
60
0
100
AcDbSpline
70
4
71
3
72
16
73
12
40
0
40
0
40
0
40
0
40
0.124999999999998
40
0.124999999999998
40
0.249999999999996
40
0.249999999999996
40
0.499999999999997
40
0.499999999999997
40
0.749999999999999
40
0.749999999999999
40
1
40
1
40
1
40
1
41
1
10
61.5089628852596
20
-21.4864893083105
30
0
41
1
10
61.5221196492082
20
-21.5697243781927
30
0
41
1
10
61.534526509157
20
-21.6531980304046
30
0
41
1
10
61.5586081043347
20
-21.8203782606713
30
0
41
1
10
61.5702657031626
20
-21.9040902906805
30
0
41
1
10
61.6045684163413
20
-22.1554395680441
30
0
41
1
10
61.6265616395945
20
-22.3232874346546
30
0
41
1
10
61.6697925519949
20
-22.6592088965822
30
0
41
1
10
61.6910037398408
20
-22.827284900839
30
0
41
1
10
61.7329945036582
20
-23.1635599793915
30
0
41
1
10
61.7537676482598
20
-23.3317608875315
30
0
41
1
10
61.774406808652
20
-23.5
30
0
0
SPLINE
5
120
100
AcDbEntity
8
1
62
256
6
ByLayer
370
18
48
1
60
0
100
AcDbSpline
70
4
71
3
72
16
73
12
40
0
40
0
40
0
40
0
40
0.125
40
0.125
40
0.25
40
0.25
40
0.5
40
0.5
40
0.75
40
0.75
40
1
40
1
40
1
40
1
41
1
10
61.5089628852596
20
-26.5135106916896
30
0
41
1
10
61.5221198747076
20
-26.4302741952058
30
0
41
1
10
61.5345326483583
20
-26.3467605619262
30
0
41
1
10
61.5586172623635
20
-26.1795569491927
30
0
41
1
10
61.5702753797678
20
-26.0958398107603
30
0
41
1
10
61.6045781903239
20
-25.8444868015451
30
0
41
1
10
61.6265691616939
20
-25.6766546862941
30
0
41
1
10
61.6697959954832
20
-25.3407637753315
30
0
41
1
10
61.691005984181
20
-25.1726972124401
30
0
41
1
10
61.732995149876
20
-24.836434758837
30
0
41
1
10
61.7537680547283
20
-24.66823579916
30
0
41
1
10
61.774406808652
20
-24.5
30
0
0
SPLINE
5
121
100
AcDbEntity
8
1
62
256
6
ByLayer
370
18
48
1
60
0
100
AcDbSpline
70
4
71
3
72
8
73
4
40
0
40
0
40
0
40
0
40
1
40
1
40
1
40
1
41
1
10
61.933039795462
20
-24.4159227623864
30
0
41
1
10
61.8802175315188
20
-24.444186305517
30
0
41
1
10
61.8273598960423
20
-24.4722980163781
30
0
41
1
10
61.774406808652
20
-24.5
30
0
0
SPLINE
5
122
100
AcDbEntity
8
1
62
256
6
ByLayer
370
18
48
1
60
0
100
AcDbSpline
70
4
71
3
72
20
73
16
40
0
40
0
40
0
40
0
40
0.125
40
0.125
40
0.25
40
0.25
40
0.375
40
0.375
40
0.5
40
0.5
40
0.625
40
0.625
40
0.75
40
0.75
40
1
40
1
40
1
40
1
41
1
10
62.0000000000113
20
-24.2749688692703
30
0
41
1
10
62.0000000000112
20
-24.2827395802012
30
0
41
1
10
61.9995937631251
20
-24.2904457315629
30
0
41
1
10
61.9979798151933
20
-24.3057306632175
30
0
41
1
10
61.9967642469955
20
-24.3133082123662
30
0
41
1
10
61.9936086504077
20
-24.3279014713725
30
0
41
1
10
61.9916642630196
20
-24.334975103544
30
0
41
1
10
61.9870434392173
20
-24.3486770600967
30
0
41
1
10
61.9843397653764
20
-24.3553511564103
30
0
41
1
10
61.9783611160118
20
-24.367824199769
30
0
41
1
10
61.9750781767345
20
-24.3736667010935
30
0
41
1
10
61.9679371835433
20
-24.3845799203337
30
0
41
1
10
61.964047082971
20
-24.3896850163107
30
0
41
1
10
61.9517092968701
20
-24.4035295253539
30
0
41
1
10
61.9427422487555
20
-24.4107312827591
30
0
41
1
10
61.933039795462
20
-24.4159227623864
30
0
0
SPLINE
5
123
100
AcDbEntity
8
1
62
256
6
ByLayer
370
18
48
1
60
0
100
AcDbSpline
70
4
71
3
72
20
73
16
40
0
40
0
40
0
40
0
40
0.124999999999993
40
0.124999999999993
40
0.249999999999987
40
0.249999999999987
40
0.37499999999998
40
0.37499999999998
40
0.499999999999973
40
0.499999999999973
40
0.624999999999967
40
0.624999999999967
40
0.74999999999996
40
0.74999999999996
40
1
40
1
40
1
40
1
41
1
10
61.9330397954621
20
-23.5840772376136
30
0
41
1
10
61.9378909441321
20
-23.5866729357044
30
0
41
1
10
61.9425740123839
20
-23.5897898375515
30
0
41
1
10
61.9516060515024
20
-23.5970596501624
30
0
41
1
10
61.9559769729612
20
-23.601244139731
30
0
41
1
10
61.9641534857343
20
-23.6104500648764
30
0
41
1
10
61.9679840522907
20
-23.6154842294122
30
0
41
1
10
61.9751283008423
20
-23.6264174806154
30
0
41
1
10
61.9784667668225
20
-23.6323726527539
30
0
41
1
10
61.9844457620998
20
-23.6448943918017
30
0
41
1
10
61.9870887035604
20
-23.6514438932602
30
0
41
1
10
61.9916895717912
20
-23.6651134158443
30
0
41
1
10
61.9936571096376
20
-23.6722794185904
30
0
41
1
10
61.9984050459487
20
-23.6943684079369
30
0
41
1
10
62
20
-23.7094958819083
30
0
41
1
10
62
20
-23.7250311307314
30
0
0
SPLINE
5
124
100
AcDbEntity
8
1
62
256
6
ByLayer
370
18
48
1
60
0
100
AcDbSpline
70
4
71
3
72
8
73
4
40
0
40
0
40
0
40
0
40
1
40
1
40
1
40
1
41
1
10
61.774406808652
20
-23.5
30
0
41
1
10
61.8273535334488
20
-23.5276986550821
30
0
41
1
10
61.8802128688877
20
-23.5558111996548
30
0
41
1
10
61.9330397954621
20
-23.5840772376136
30
0
0
SPLINE
5
125
100
AcDbEntity
8
1
62
256
6
ByLayer
370
18
48
1
60
0
100
AcDbSpline
70
4
71
3
72
10
73
6
40
0
40
0
40
0
40
0
40
0.5
40
0.5
40
1
40
1
40
1
40
1
41
1
10
21.4383186059721
20
-20.15
30
0
41
1
10
21.4993766970472
20
-20.15
30
0
41
1
10
21.5738348774479
20
-20.15
30
0
41
1
10
21.7466135718393
20
-20.15
30
0
41
1
10
21.8449189310201
20
-20.15
30
0
41
1
10
21.9535094518299
20
-20.15
30
0
0
SPLINE
5
126
100
AcDbEntity
8
1
62
256
6
ByLayer
370
18
48
1
60
0
100
AcDbSpline
70
4
71
3
72
14
73
10
40
0
40
0
40
0
40
0
40
0.25
40
0.25
40
0.5
40
0.5
40
0.75
40
0.75
40
1
40
1
40
1
40
1
41
1
10
20.9016434511125
20
16.4810545625527
30
0
41
1
10
20.839350409373
20
16.5578959113805
30
0
41
1
10
20.7777351994983
20
16.6398031400836
30
0
41
1
10
20.6594289834942
20
16.8109353547456
30
0
41
1
10
20.6027350486066
20
16.9001547062651
30
0
41
1
10
20.4966090786156
20
17.082937967596
30
0
41
1
10
20.4471726604821
20
17.176493002264
30
0
41
1
10
20.3567754841619
20
17.3650474940926
30
0
41
1
10
20.315807604408
20
17.4600391123963
30
0
41
1
10
20.2792076144253
20
17.5544724136169
30
0
0
SPLINE
5
127
100
AcDbEntity
8
1
62
256
6
ByLayer
370
18
48
1
60
0
100
AcDbSpline
70
4
71
3
72
26
73
22
40
0
40
0
40
0
40
0
40
0.124999999999993
40
0.124999999999993
40
0.249999999999985
40
0.249999999999985
40
0.312499999999983
40
0.312499999999983
40
0.374999999999981
40
0.374999999999981
40
0.499999999999982
40
0.499999999999982
40
0.624999999999983
40
0.624999999999983
40
0.687499999999986
40
0.687499999999986
40
0.749999999999989
40
0.749999999999989
40
0.874999999999994
40
0.874999999999994
40
1
40
1
40
1
40
1
41
1
10
21.4383186059721
20
-20.5256956333767
30
0
41
1
10
21.4292208494652
20
-20.4956769817464
30
0
41
1
10
21.4189675547236
20
-20.467542760792
30
0
41
1
10
21.3966837188804
20
-20.4146855888546
30
0
41
1
10
21.3846504497372
20
-20.3899642480968
30
0
41
1
10
21.365622702278
20
-20.3553122433401
30
0
41
1
10
21.3591019501017
20
-20.344144015859
30
0
41
1
10
21.3458702296443
20
-20.3227329306734
30
0
41
1
10
21.3391725336526
20
-20.3125079362788
30
0
41
1
10
21.3189371670791
20
-20.2832168042524
30
0
41
1
10
21.3052550326586
20
-20.2655283557773
30
0
41
1
10
21.2780830566766
20
-20.2336801197685
30
0
41
1
10
21.2645902830749
20
-20.2195198311205
30
0
41
1
10
21.2450014170567
20
-20.2009673945125
30
0
41
1
10
21.2385800225237
20
-20.1952342460637
30
0
41
1
10
21.2262019761704
20
-20.1848075699971
30
0
41
1
10
21.2202260448297
20
-20.1800950663712
30
0
41
1
10
21.2030811683837
20
-20.1674564106304
30
0
41
1
10
21.1926910326366
20
-20.1610211516405
30
0
41
1
10
21.1748457719776
20
-20.1522942288503
30
0
41
1
10
21.1673904791431
20
-20.15
30
0
41
1
10
21.1618966327773
20
-20.15
30
0
0
SPLINE
5
128
100
AcDbEntity
8
1
62
256
6
ByLayer
370
18
48
1
60
0
100
AcDbSpline
70
4
71
3
72
32
73
28
40
0
40
0
40
0
40
0
40
0.0975432056712082
40
0.0975432056712082
40
0.100591430848433
40
0.100591430848433
40
0.103639656025658
40
0.109736106380108
40
0.121929007089007
40
0.146314808506806
40
0.195086411342406
40
0.195086411342406
40
0.390172822684802
40
0.390172822684802
40
0.487716028356
40
0.487716028356
40
0.585259234027198
40
0.585259234027198
40
0.682802439698396
40
0.682802439698396
40
0.780345645369595
40
0.780345645369595
40
0.877888851040793
40
0.877888851040793
40
0.975432056711991
40
0.975432056711991
40
1
40
1
40
1
40
1
41
1
10
21.4383186059722
20
-20.15
30
0
41
1
10
21.4254487119374
20
-20.15
30
0
41
1
10
21.409989855534
20
-20.15
30
0
41
1
10
21.3919470420963
20
-20.15
30
0
41
1
10
21.3914097084251
20
-20.15
30
0
41
1
10
21.390322733563
20
-20.15
30
0
41
1
10
21.3886865267292
20
-20.15
30
0
41
1
10
21.3848288242608
20
-20.15
30
0
41
1
10
21.3769564650118
20
-20.15
30
0
41
1
10
21.3606045315588
20
-20.15
30
0
41
1
10
21.3456174736023
20
-20.15
30
0
41
1
10
21.2938071639227
20
-20.15
30
0
41
1
10
21.2463916824526
20
-20.15
30
0
41
1
10
21.172352392228
20
-20.15
30
0
41
1
10
21.1471927484463
20
-20.15
30
0
41
1
10
21.09711509364
20
-20.15
30
0
41
1
10
21.0721917021965
20
-20.15
30
0
41
1
10
21.0240579281405
20
-20.15
30
0
41
1
10
21.0008458625466
20
-20.15
30
0
41
1
10
20.9579281962498
20
-20.15
30
0
41
1
10
20.9382286984798
20
-20.15
30
0
41
1
10
20.9044055326008
20
-20.15
30
0
41
1
10
20.8903011964134
20
-20.15
30
0
41
1
10
20.8696501672513
20
-20.15
30
0
41
1
10
20.8631303474313
20
-20.15
30
0
41
1
10
20.8604229613541
20
-20.15
30
0
41
1
10
20.8601552339722
20
-20.15
30
0
41
1
10
20.8601618449316
20
-20.15
30
0
0
SPLINE
5
129
100
AcDbEntity
8
1
62
256
6
ByLayer
370
18
48
1
60
0
100
AcDbSpline
70
4
71
3
72
35
73
31
40
0
40
0
40
0
40
0
40
0.0624999999999963
40
0.0624999999999963
40
0.0937499999999951
40
0.0937499999999951
40
0.124999999999994
40
0.124999999999994
40
0.24999999999999
40
0.24999999999999
40
0.374999999999986
40
0.374999999999986
40
0.437499999999983
40
0.437499999999983
40
0.468749999999982
40
0.468749999999982
40
0.499999999999982
40
0.499999999999982
40
0.624999999999978
40
0.624999999999978
40
0.687499999999978
40
0.718749999999978
40
0.718749999999978
40
0.734374999999979
40
0.734374999999979
40
0.74999999999998
40
0.74999999999998
40
0.87499999999999
40
0.87499999999999
40
1
40
1
40
1
40
1
41
1
10
20.9016434511128
20
16.4810545625523
30
0
41
1
10
20.9419397431921
20
16.4313472220587
30
0
41
1
10
20.983860184422
20
16.3820719646418
30
0
41
1
10
21.0493379224092
20
16.3088687658865
30
0
41
1
10
21.0716070455303
20
16.2845770719717
30
0
41
1
10
21.116814099283
20
16.236478905633
30
0
41
1
10
21.1397776791245
20
16.212643072982
30
0
41
1
10
21.2564240698683
20
16.0945527097255
30
0
41
1
10
21.3555724893693
20
16.0035540000437
30
0
41
1
10
21.566551979659
20
15.8292330782228
30
0
41
1
10
21.6783741407642
20
15.7459046379705
30
0
41
1
10
21.8568521980552
20
15.6274820303568
30
0
41
1
10
21.9181413905007
20
15.5891061965726
30
0
41
1
10
22.0129923093759
20
15.5333328892987
30
0
41
1
10
22.0451521040486
20
15.5150103006361
30
0
41
1
10
22.1101505920814
20
15.4791752410705
30
0
41
1
10
22.1429886825725
20
15.4616605157964
30
0
41
1
10
22.3089023243552
20
15.3761378023991
30
0
41
1
10
22.447123799876
20
15.3142545782704
30
0
41
1
10
22.663511248632
20
15.2322506821729
30
0
41
1
10
22.7739755949842
20
15.1939620224021
30
0
41
1
10
22.8880767836299
20
15.160026364311
30
0
41
1
10
22.9457579068013
20
15.1438137959886
30
0
41
1
10
22.9651109195035
20
15.1385300786148
30
0
41
1
10
23.0038801799827
20
15.1282588999972
30
0
41
1
10
23.023305307199
20
15.1232685773486
30
0
41
1
10
23.1984961519307
20
15.0796643039602
30
0
41
1
10
23.35680511327
20
15.0501762569891
30
0
41
1
10
23.6787468728994
20
15.0103482796086
30
0
41
1
10
23.8423774407897
20
15
30
0
41
1
10
24.0088791813337
20
15
30
0
0
SPLINE
5
12A
100
AcDbEntity
8
1
62
256
6
ByLayer
370
18
48
1
60
0
100
AcDbSpline
70
4
71
3
72
18
73
14
40
0
40
0
40
0
40
0
40
0.125
40
0.125
40
0.1875
40
0.1875
40
0.25
40
0.25
40
0.5
40
0.5
40
0.750000000000001
40
0.750000000000001
40
1
40
1
40
1
40
1
41
1
10
20.901643451111
20
16.481054562552
30
0
41
1
10
20.8710544198989
20
16.4307459427406
30
0
41
1
10
20.8404870190925
20
16.3813642806016
30
0
41
1
10
20.7949949542972
20
16.308420155669
30
0
41
1
10
20.7798981290862
20
16.2843059576776
30
0
41
1
10
20.7499781035131
20
16.236576508205
30
0
41
1
10
20.7351417072294
20
16.2129400911197
30
0
41
1
10
20.6616782393579
20
16.0957669069187
30
0
41
1
10
20.6052365856802
20
16.0052402180489
30
0
41
1
10
20.4990764998977
20
15.8275037056461
30
0
41
1
10
20.4493535730297
20
15.7402953477308
30
0
41
1
10
20.3580069316037
20
15.5664775021541
30
0
41
1
10
20.3163800506086
20
15.4798664448923
30
0
41
1
10
20.2792076144253
20
15.3923889233801
30
0
0
SPLINE
5
12B
100
AcDbEntity
8
1
62
256
6
ByLayer
370
18
48
1
60
0
100
AcDbSpline
70
4
71
3
72
28
73
24
40
0
40
0
40
0
40
0
40
0.0624999999999991
40
0.0624999999999991
40
0.124999999999998
40
0.124999999999998
40
0.249999999999996
40
0.249999999999996
40
0.312499999999995
40
0.312499999999995
40
0.343749999999996
40
0.343749999999996
40
0.374999999999997
40
0.374999999999997
40
0.499999999999997
40
0.499999999999997
40
0.624999999999998
40
0.624999999999998
40
0.749999999999998
40
0.749999999999998
40
0.874999999999998
40
0.874999999999998
40
1
40
1
40
1
40
1
41
1
10
21.4383186059739
20
-17.7139778294043
30
0
41
1
10
21.4251740884689
20
-17.6490380801224
30
0
41
1
10
21.4093636185785
20
-17.5852825537825
30
0
41
1
10
21.3733817150058
20
-17.4598077548642
30
0
41
1
10
21.3533853450768
20
-17.3987062239629
30
0
41
1
10
21.2888129038011
20
-17.2198102574768
30
0
41
1
10
21.239654689933
20
-17.1062582008698
30
0
41
1
10
21.1605815345636
20
-16.942432337331
30
0
41
1
10
21.133320201828
20
-16.8889180944357
30
0
41
1
10
21.0914649821442
20
-16.8100903863787
30
0
41
1
10
21.0773399027711
20
-16.7840342561219
30
0
41
1
10
21.0490106894068
20
-16.7326956300557
30
0
41
1
10
21.0347856486387
20
-16.7073727994645
30
0
41
1
10
20.9634987057906
20
-16.5823520261176
30
0
41
1
10
20.9059876265464
20
-16.4874075949327
30
0
41
1
10
20.792949982429
20
-16.3046197771667
30
0
41
1
10
20.7374144264428
20
-16.2167870028439
30
0
41
1
10
20.6305158903876
20
-16.0456630309135
30
0
41
1
10
20.5791491514709
20
-15.962374995424
30
0
41
1
10
20.4822266240623
20
-15.7980346781437
30
0
41
1
10
20.4366689768665
20
-15.7169821714612
30
0
41
1
10
20.3525269878651
20
-15.5550292864246
30
0
41
1
10
20.3139411607664
20
-15.4741270298702
30
0
41
1
10
20.2792076144253
20
-15.3923889233801
30
0
0
SPLINE
5
12C
100
AcDbEntity
8
1
62
256
6
ByLayer
370
18
48
1
60
0
100
AcDbSpline
70
4
71
3
72
8
73
4
40
0
40
0
40
0
40
0
40
1
40
1
40
1
40
1
41
1
10
21.9535094518299
20
-20.15
30
0
41
1
10
21.7749318933156
20
-19.3370973701274
30
0
41
1
10
21.6025197197716
20
-18.5252041949129
30
0
41
1
10
21.4383186059721
20
-17.7139778294051
30
0
0
SPLINE
5
12D
100
AcDbEntity
8
1
62
256
6
ByLayer
370
18
48
1
60
0
100
AcDbSpline
70
4
71
3
72
12
73
8
40
0
40
0
40
0
40
0
40
0.500000000000001
40
0.500000000000001
40
0.750000000000001
40
0.750000000000001
40
1
40
1
40
1
40
1
41
1
10
20.0517931412518
20
-14.2187599587822
30
0
41
1
10
20.0536312300547
20
-14.4271078000371
30
0
41
1
10
20.0720302056982
20
-14.629056168313
30
0
41
1
10
20.1275045829328
20
-14.9224648927294
30
0
41
1
10
20.1506604277937
20
-15.0186804781582
30
0
41
1
10
20.2070878566688
20
-15.2079285880827
30
0
41
1
10
20.2403566151262
20
-15.3009612561112
30
0
41
1
10
20.2792076144253
20
-15.3923889233801
30
0
0
SPLINE
5
12E
100
AcDbEntity
8
1
62
256
6
ByLayer
370
18
48
1
60
0
100
AcDbSpline
70
4
71
3
72
12
73
8
40
0
40
0
40
0
40
0
40
0.249999999999999
40
0.249999999999999
40
0.499999999999999
40
0.499999999999999
40
1
40
1
40
1
40
1
41
1
10
20.2792076144253
20
15.3923889233801
30
0
41
1
10
20.2403566151262
20
15.3009612561112
30
0
41
1
10
20.2070878566688
20
15.2079285880827
30
0
41
1
10
20.1506604277937
20
15.0186804781582
30
0
41
1
10
20.1275045829329
20
14.9224648927294
30
0
41
1
10
20.0720302056982
20
14.629056168313
30
0
41
1
10
20.0536312300547
20
14.4271078000371
30
0
41
1
10
20.0517931412518
20
14.2187599587822
30
0
0
SPLINE
5
12F
100
AcDbEntity
8
1
62
256
6
ByLayer
370
18
48
1
60
0
100
AcDbSpline
70
4
71
3
72
14
73
10
40
0
40
0
40
0
40
0
40
0.25
40
0.25
40
0.499999999999999
40
0.499999999999999
40
0.75
40
0.75
40
1
40
1
40
1
40
1
41
1
10
20.009031489077
20
18.9650938580065
30
0
41
1
10
20.0098538092763
20
18.8708652963928
30
0
41
1
10
20.0140412700175
20
18.7706425008102
30
0
41
1
10
20.0318979812089
20
18.558462533891
30
0
41
1
10
20.0455598863306
20
18.4465047827357
30
0
41
1
10
20.0856313692891
20
18.2110872069956
30
0
41
1
10
20.1120276170517
20
18.0876264793781
30
0
41
1
10
20.1816534449692
20
17.8294357266309
30
0
41
1
10
20.224857325194
20
17.6947040704241
30
0
41
1
10
20.2792076144253
20
17.5544724136169
30
0
0
SPLINE
5
130
100
AcDbEntity
8
1
62
256
6
ByLayer
370
18
48
1
60
0
100
AcDbSpline
70
4
71
3
72
25
73
21
40
0
40
0
40
0
40
0
40
0.249999999999986
40
0.249999999999986
40
0.374999999999983
40
0.374999999999983
40
0.499999999999979
40
0.499999999999979
40
0.562499999999983
40
0.562499999999983
40
0.624999999999986
40
0.68749999999999
40
0.68749999999999
40
0.749999999999993
40
0.749999999999993
40
0.874999999999991
40
0.874999999999991
40
0.937499999999996
40
0.937499999999996
40
1
40
1
40
1
40
1
41
1
10
9.33660254037861
20
-19.0245744101322
30
0
41
1
10
9.32720842156829
20
-19.0356185274184
30
0
41
1
10
9.31588453947575
20
-19.0464153092313
30
0
41
1
10
9.29525647265243
20
-19.0619278372253
30
0
41
1
10
9.28776218432895
20
-19.0669920754349
30
0
41
1
10
9.27124506170023
20
-19.0768715139989
30
0
41
1
10
9.26222766550282
20
-19.0816874304591
30
0
41
1
10
9.24718147390908
20
-19.0886774015103
30
0
41
1
10
9.24190585527097
20
-19.0909686533589
30
0
41
1
10
9.23090181997068
20
-19.095399659777
30
0
41
1
10
9.21941536169066
20
-19.0996940974827
30
0
41
1
10
9.20680755935996
20
-19.1036766400565
30
0
41
1
10
9.19352784170755
20
-19.1074753109817
30
0
41
1
10
9.1865295196101
20
-19.109288210346
30
0
41
1
10
9.16442417341895
20
-19.1143521510704
30
0
41
1
10
9.14859952398743
20
-19.1171586755843
30
0
41
1
10
9.12253667740623
20
-19.1201714845572
30
0
41
1
10
9.11355518087368
20
-19.1209563802606
30
0
41
1
10
9.09541273714802
20
-19.1220079254874
30
0
41
1
10
9.08618793610023
20
-19.1222825906925
30
0
41
1
10
9.07679491924327
20
-19.1222825906925
30
0
0
SPLINE
5
131
100
AcDbEntity
8
1
62
256
6
ByLayer
370
18
48
1
60
0
100
AcDbSpline
70
4
71
3
72
26
73
22
40
0
40
0
40
0
40
0
40
0.0624999999999999
40
0.0624999999999999
40
0.125
40
0.125
40
0.1875
40
0.1875
40
0.25
40
0.25
40
0.3125
40
0.3125
40
0.375
40
0.375
40
0.500000000000001
40
0.500000000000001
40
0.625000000000002
40
0.625000000000002
40
0.750000000000004
40
0.750000000000004
40
1
40
1
40
1
40
1
41
1
10
6.92320508075687
20
-19.1222825906926
30
0
41
1
10
6.91382447246664
20
-19.1222825906926
30
0
41
1
10
6.90445612562743
20
-19.1220042459418
30
0
41
1
10
6.88616578647202
20
-19.1209361972228
30
0
41
1
10
6.877306029935
20
-19.1201548450203
30
0
41
1
10
6.86008230329932
20
-19.1181607182976
30
0
41
1
10
6.85165205969534
20
-19.1169347436763
30
0
41
1
10
6.83564492760419
20
-19.1141675067423
30
0
41
1
10
6.82805305136273
20
-19.1126296584783
30
0
41
1
10
6.81353466302775
20
-19.1093020671091
30
0
41
1
10
6.80660916084835
20
-19.1075119510364
30
0
41
1
10
6.79332109685251
20
-19.1037159413756
30
0
41
1
10
6.78693692536262
20
-19.1017017213015
30
0
41
1
10
6.76873667859329
20
-19.0954500347066
30
0
41
1
10
6.75782269201741
20
-19.0910025433169
30
0
41
1
10
6.73776606630176
20
-19.0816841489935
30
0
41
1
10
6.72865815863287
20
-19.07681905156
30
0
41
1
10
6.712104492701
20
-19.0669068299453
30
0
41
1
10
6.70461359775268
20
-19.061836585657
30
0
41
1
10
6.68402554771032
20
-19.0463346141653
30
0
41
1
10
6.67278813956517
20
-19.0356144845435
30
0
41
1
10
6.66339745962154
20
-19.0245744101322
30
0
0
SPLINE
5
132
100
AcDbEntity
8
1
62
256
6
ByLayer
370
18
48
1
60
0
100
AcDbSpline
70
4
71
3
72
25
73
21
40
0
40
0
40
0
40
0
40
0.249999999999997
40
0.249999999999997
40
0.374999999999989
40
0.374999999999989
40
0.499999999999981
40
0.499999999999981
40
0.562499999999982
40
0.562499999999982
40
0.624999999999983
40
0.687499999999984
40
0.687499999999984
40
0.749999999999985
40
0.749999999999985
40
0.874999999999995
40
0.874999999999995
40
0.937499999999998
40
0.937499999999998
40
1
40
1
40
1
40
1
41
1
10
6.66339745962154
20
-6.16973001948571
30
0
41
1
10
6.67279157843183
20
-6.13567510453117
30
0
41
1
10
6.68411546052437
20
-6.10206728171741
30
0
41
1
10
6.70474352734769
20
-6.05336249030208
30
0
41
1
10
6.71223781567116
20
-6.03739036016586
30
0
41
1
10
6.72875493829989
20
-6.00610043240181
30
0
41
1
10
6.73777233449729
20
-5.99078025293949
30
0
41
1
10
6.75281852609103
20
-5.96845506553063
30
0
41
1
10
6.75809414472914
20
-5.96112164449841
30
0
41
1
10
6.76909818002943
20
-5.9469124104387
30
0
41
1
10
6.78058463830945
20
-5.93311315635253
30
0
41
1
10
6.79319244064015
20
-5.9202685823868
30
0
41
1
10
6.80647215829256
20
-5.90799699523123
30
0
41
1
10
6.81347048039001
20
-5.90212985895329
30
0
41
1
10
6.83557582658116
20
-5.88571770958595
30
0
41
1
10
6.85140047601269
20
-5.87658838136372
30
0
41
1
10
6.87746332259391
20
-5.86677544388641
30
0
41
1
10
6.88644481912644
20
-5.8642160875483
30
0
41
1
10
6.90458726285212
20
-5.8607863051715
30
0
41
1
10
6.91381206389988
20
-5.85988980456938
30
0
41
1
10
6.92320508075687
20
-5.85988980456938
30
0
0
SPLINE
5
133
100
AcDbEntity
8
1
62
256
6
ByLayer
370
18
48
1
60
0
100
AcDbSpline
70
4
71
3
72
26
73
22
40
0
40
0
40
0
40
0
40
0.0624999999999997
40
0.0624999999999997
40
0.124999999999999
40
0.124999999999999
40
0.187499999999999
40
0.187499999999999
40
0.249999999999999
40
0.249999999999999
40
0.312499999999998
40
0.312499999999998
40
0.374999999999998
40
0.374999999999998
40
0.499999999999998
40
0.499999999999998
40
0.624999999999999
40
0.624999999999999
40
0.749999999999999
40
0.749999999999999
40
1
40
1
40
1
40
1
41
1
10
9.07679491924327
20
-5.85988980456941
30
0
41
1
10
9.0861755275335
20
-5.85988980456941
30
0
41
1
10
9.09554387437268
20
-5.86079831910379
30
0
41
1
10
9.11383421352809
20
-5.86428190495297
30
0
41
1
10
9.12269397006511
20
-5.86682965857773
30
0
41
1
10
9.13991769670079
20
-5.8733246368358
30
0
41
1
10
9.1483479403048
20
-5.87731470491121
30
0
41
1
10
9.16435507239592
20
-5.88630806692444
30
0
41
1
10
9.17194694863738
20
-5.89130031342685
30
0
41
1
10
9.18646533697236
20
-5.90208491578252
30
0
41
1
10
9.19339083915176
20
-5.90787848896434
30
0
41
1
10
9.2066789031476
20
-5.92014175764382
30
0
41
1
10
9.21306307463749
20
-5.92663822853584
30
0
41
1
10
9.23126332140683
20
-5.94676259304853
30
0
41
1
10
9.24217730798267
20
-5.96102885758611
30
0
41
1
10
9.26223393369835
20
-5.99079069805944
30
0
41
1
10
9.27134184136725
20
-6.00626721095978
30
0
41
1
10
9.28789550729911
20
-6.0376597182682
30
0
41
1
10
9.29538640224743
20
-6.05364979751815
30
0
41
1
10
9.31597445228977
20
-6.10231901184949
30
0
41
1
10
9.32721186043494
20
-6.13568757087467
30
0
41
1
10
9.33660254037858
20
-6.16973001948574
30
0
0
SPLINE
5
134
100
AcDbEntity
8
1
62
256
6
ByLayer
370
18
48
1
60
0
100
AcDbSpline
70
4
71
3
72
25
73
21
40
0
40
0
40
0
40
0
40
0.250000000000006
40
0.250000000000006
40
0.375000000000002
40
0.375000000000002
40
0.499999999999997
40
0.499999999999997
40
0.562499999999998
40
0.562499999999998
40
0.624999999999999
40
0.6875
40
0.6875
40
0.750000000000001
40
0.750000000000001
40
0.874999999999999
40
0.874999999999999
40
0.9375
40
0.9375
40
1
40
1
40
1
40
1
41
1
10
6.66339745962154
20
19.0245744101322
30
0
41
1
10
6.67279157843183
20
19.0356185274184
30
0
41
1
10
6.68411546052437
20
19.0464153092313
30
0
41
1
10
6.70474352734769
20
19.0619278372253
30
0
41
1
10
6.71223781567116
20
19.0669920754349
30
0
41
1
10
6.72875493829989
20
19.0768715139989
30
0
41
1
10
6.73777233449729
20
19.0816874304591
30
0
41
1
10
6.75281852609103
20
19.0886774015103
30
0
41
1
10
6.75809414472914
20
19.0909686533589
30
0
41
1
10
6.76909818002946
20
19.095399659777
30
0
41
1
10
6.78058463830945
20
19.0996940974827
30
0
41
1
10
6.79319244064015
20
19.1036766400565
30
0
41
1
10
6.80647215829256
20
19.1074753109818
30
0
41
1
10
6.81347048039001
20
19.109288210346
30
0
41
1
10
6.83557582658119
20
19.1143521510704
30
0
41
1
10
6.85140047601269
20
19.1171586755844
30
0
41
1
10
6.87746332259388
20
19.1201714845572
30
0
41
1
10
6.88644481912644
20
19.1209563802606
30
0
41
1
10
6.90458726285212
20
19.1220079254874
30
0
41
1
10
6.91381206389988
20
19.1222825906925
30
0
41
1
10
6.92320508075687
20
19.1222825906925
30
0
0
SPLINE
5
135
100
AcDbEntity
8
1
62
256
6
ByLayer
370
18
48
1
60
0
100
AcDbSpline
70
4
71
3
72
26
73
22
40
0
40
0
40
0
40
0
40
0.0624999999999977
40
0.0624999999999977
40
0.124999999999995
40
0.124999999999995
40
0.187499999999993
40
0.187499999999993
40
0.249999999999991
40
0.249999999999991
40
0.312499999999989
40
0.312499999999989
40
0.374999999999986
40
0.374999999999986
40
0.499999999999987
40
0.499999999999987
40
0.624999999999987
40
0.624999999999987
40
0.749999999999988
40
0.749999999999988
40
1
40
1
40
1
40
1
41
1
10
9.07679491924327
20
19.1222825906926
30
0
41
1
10
9.0861755275335
20
19.1222825906926
30
0
41
1
10
9.09554387437268
20
19.1220042459417
30
0
41
1
10
9.11383421352812
20
19.1209361972228
30
0
41
1
10
9.12269397006514
20
19.1201548450203
30
0
41
1
10
9.13991769670082
20
19.1181607182976
30
0
41
1
10
9.14834794030483
20
19.1169347436763
30
0
41
1
10
9.16435507239595
20
19.1141675067423
30
0
41
1
10
9.17194694863741
20
19.1126296584783
30
0
41
1
10
9.18646533697239
20
19.1093020671091
30
0
41
1
10
9.19339083915179
20
19.1075119510364
30
0
41
1
10
9.20667890314763
20
19.1037159413756
30
0
41
1
10
9.21306307463752
20
19.1017017213015
30
0
41
1
10
9.23126332140686
20
19.0954500347066
30
0
41
1
10
9.24217730798273
20
19.0910025433169
30
0
41
1
10
9.26223393369838
20
19.0816841489935
30
0
41
1
10
9.27134184136727
20
19.07681905156
30
0
41
1
10
9.28789550729917
20
19.0669068299453
30
0
41
1
10
9.29538640224746
20
19.061836585657
30
0
41
1
10
9.31597445228982
20
19.0463346141653
30
0
41
1
10
9.32721186043506
20
19.0356144845434
30
0
41
1
10
9.33660254037869
20
19.0245744101321
30
0
0
SPLINE
5
136
100
AcDbEntity
8
1
62
256
6
ByLayer
370
18
48
1
60
0
100
AcDbSpline
70
4
71
3
72
25
73
21
40
0
40
0
40
0
40
0
40
0.249999999999976
40
0.249999999999976
40
0.374999999999968
40
0.374999999999968
40
0.499999999999958
40
0.499999999999958
40
0.562499999999959
40
0.562499999999959
40
0.62499999999996
40
0.687499999999961
40
0.687499999999961
40
0.749999999999962
40
0.749999999999962
40
0.874999999999977
40
0.874999999999977
40
0.937499999999988
40
0.937499999999988
40
1
40
1
40
1
40
1
41
1
10
9.33660254037869
20
6.16973001948611
30
0
41
1
10
9.32720842156843
20
6.13567510453157
30
0
41
1
10
9.31588453947577
20
6.10206728171747
30
0
41
1
10
9.29525647265245
20
6.05336249030211
30
0
41
1
10
9.28776218432898
20
6.03739036016592
30
0
41
1
10
9.27124506170026
20
6.00610043240187
30
0
41
1
10
9.26222766550285
20
5.99078025293954
30
0
41
1
10
9.24718147390911
20
5.96845506553066
30
0
41
1
10
9.241905855271
20
5.96112164449843
30
0
41
1
10
9.23090181997071
20
5.94691241043876
30
0
41
1
10
9.2194147994463
20
5.93311363814723
30
0
41
1
10
9.20680755935999
20
5.92026858238683
30
0
41
1
10
9.19352784170758
20
5.90799699523126
30
0
41
1
10
9.1865295196101
20
5.90212985895334
30
0
41
1
10
9.16442417341895
20
5.88571770958598
30
0
41
1
10
9.14859952398746
20
5.87658838136372
30
0
41
1
10
9.12253667740623
20
5.86677544388644
30
0
41
1
10
9.1135551808737
20
5.8642160875483
30
0
41
1
10
9.09541273714802
20
5.86078630517153
30
0
41
1
10
9.08618793610023
20
5.85988980456943
30
0
41
1
10
9.07679491924327
20
5.85988980456941
30
0
0
SPLINE
5
137
100
AcDbEntity
8
1
62
256
6
ByLayer
370
18
48
1
60
0
100
AcDbSpline
70
4
71
3
72
26
73
22
40
0
40
0
40
0
40
0
40
0.0624999999999992
40
0.0624999999999992
40
0.124999999999998
40
0.124999999999998
40
0.187499999999998
40
0.187499999999998
40
0.249999999999997
40
0.249999999999997
40
0.312499999999996
40
0.312499999999996
40
0.374999999999995
40
0.374999999999995
40
0.499999999999995
40
0.499999999999995
40
0.624999999999994
40
0.624999999999994
40
0.749999999999994
40
0.749999999999994
40
1
40
1
40
1
40
1
41
1
10
6.92320508075687
20
5.85988980456935
30
0
41
1
10
6.91382447246664
20
5.85988980456935
30
0
41
1
10
6.90445612562743
20
5.86079831910374
30
0
41
1
10
6.88616578647202
20
5.86428190495292
30
0
41
1
10
6.87730602993503
20
5.86682965857767
30
0
41
1
10
6.86008230329932
20
5.87332463683575
30
0
41
1
10
6.85165205969534
20
5.87731470491119
30
0
41
1
10
6.83564492760419
20
5.88630806692441
30
0
41
1
10
6.82805305136273
20
5.8913003134268
30
0
41
1
10
6.81353466302775
20
5.90208491578247
30
0
41
1
10
6.80660916084838
20
5.90787848896431
30
0
41
1
10
6.79332109685251
20
5.92014175764379
30
0
41
1
10
6.78693692536262
20
5.92663822853581
30
0
41
1
10
6.76873667859329
20
5.9467625930485
30
0
41
1
10
6.75782269201744
20
5.96102885758609
30
0
41
1
10
6.73776606630176
20
5.99079069805941
30
0
41
1
10
6.72865815863287
20
6.00626721095975
30
0
41
1
10
6.712104492701
20
6.03765971826817
30
0
41
1
10
6.70461359775271
20
6.05364979751812
30
0
41
1
10
6.68402554771035
20
6.10231901184949
30
0
41
1
10
6.67278813956517
20
6.13568757087467
30
0
41
1
10
6.66339745962154
20
6.16973001948571
30
0
0
SPLINE
5
138
100
AcDbEntity
8
SK1
62
256
6
ByLayer
370
13
48
1
60
0
100
AcDbSpline
70
4
71
3
72
18
73
14
40
0
40
0
40
0
40
0
40
0.0047272517206622
40
0.0849380751982086
40
0.165148898675755
40
0.325570545630848
40
0.405781369108395
40
0.485992192585941
40
0.646413839541034
40
0.806835486496127
40
0.887046309973674
40
0.96725713345122
40
1
40
1
40
1
40
1
41
1
10
-0.394913799811292
20
-5.00116108217654
30
0
41
1
10
-0.394913799811292
20
-5.02384266526144
30
0
41
1
10
-0.394913799811292
20
-5.43069780454795
30
0
41
1
10
-0.394913799811292
20
-6.19788950405021
30
0
41
1
10
-0.394913799811292
20
-7.59985122616763
30
0
41
1
10
-0.394913799811292
20
-8.86359092653058
30
0
41
1
10
-0.394913799811292
20
-9.98771978618731
30
0
41
1
10
-0.394913799811292
20
-11.015314225612
30
0
41
1
10
-0.394913799811292
20
-12.1118907902116
30
0
41
1
10
-0.394913799811292
20
-12.9393754432253
30
0
41
1
10
-0.394913799811292
20
-13.4200270263956
30
0
41
1
10
-0.394913799811306
20
-13.6305385249066
30
0
41
1
10
-0.394913799811292
20
-13.7181012197504
30
0
41
1
10
-0.394913799811292
20
-13.7403540821301
30
0
0
SPLINE
5
139
100
AcDbEntity
8
SK1
62
256
6
ByLayer
370
18
48
1
60
0
100
AcDbSpline
70
4
71
3
72
9
73
5
40
0
40
0
40
0
40
0
40
0.601387697462788
40
1
40
1
40
1
40
1
41
1
10
-0.394913799811292
20
-13.7403545289451
30
0
41
1
10
-0.394913799811292
20
-13.7726147174695
30
0
41
1
10
-0.394913799811292
20
-13.8153202987602
30
0
41
1
10
-0.394913799811292
20
-13.8386282511807
30
0
41
1
10
-0.394913799811292
20
-13.8446595289407
30
0
0
SPLINE
5
13A
100
AcDbEntity
8
SK1
62
256
6
ByLayer
370
18
48
1
60
0
100
AcDbSpline
70
4
71
3
72
9
73
5
40
0
40
0
40
0
40
0
40
0.398611407755301
40
1
40
1
40
1
40
1
41
1
10
-0.394913799811292
20
13.8446596982822
30
0
41
1
10
-0.394913799811292
20
13.8386284705405
30
0
41
1
10
-0.394913799811278
20
13.8153206302247
30
0
41
1
10
-0.394913799811278
20
13.7726150014334
30
0
41
1
10
-0.394913799811306
20
13.7403546982822
30
0
0
SPLINE
5
13B
100
AcDbEntity
8
SK1
62
256
6
ByLayer
370
13
48
1
60
0
100
AcDbSpline
70
4
71
3
72
18
73
14
40
0
40
0
40
0
40
0
40
0.0327429339058712
40
0.112953748831488
40
0.193164563757104
40
0.353586193608337
40
0.51400782345957
40
0.594218638385186
40
0.674429453310802
40
0.834851083162035
40
0.915061898087651
40
0.995272713013268
40
1
40
1
40
1
40
1
41
1
10
-0.394913799811306
20
13.7403545626061
30
0
41
1
10
-0.394913799811306
20
13.7181016405073
30
0
41
1
10
-0.394913799811292
20
13.6305387838112
30
0
41
1
10
-0.394913799811292
20
13.4200269261686
30
0
41
1
10
-0.394913799811292
20
12.9393760577865
30
0
41
1
10
-0.394913799811292
20
12.1118904563386
30
0
41
1
10
-0.394913799811292
20
11.0153145242408
30
0
41
1
10
-0.394913799811292
20
9.98771966705354
30
0
41
1
10
-0.394913799811292
20
8.86359091499725
30
0
41
1
10
-0.394913799811292
20
7.59985108367658
30
0
41
1
10
-0.394913799811292
20
6.19788936064779
30
0
41
1
10
-0.394913799811292
20
5.43069766104711
30
0
41
1
10
-0.394913799811292
20
5.02384231959817
30
0
41
1
10
-0.394913799811292
20
5.00116056257954
30
0
0
SPLINE
5
13C
100
AcDbEntity
8
SK1
62
256
6
ByLayer
370
18
48
1
60
0
100
AcDbSpline
70
4
71
3
72
38
73
34
40
0
40
0
40
0
40
0
40
0.0156249999999998
40
0.0156249999999998
40
0.0312499999999996
40
0.0312499999999996
40
0.0468749999999993
40
0.0468749999999993
40
0.0624999999999991
40
0.0624999999999991
40
0.0781249999999989
40
0.0781249999999989
40
0.0937499999999988
40
0.0937499999999988
40
0.124999999999998
40
0.124999999999998
40
0.156249999999997
40
0.156249999999997
40
0.187499999999996
40
0.187499999999996
40
0.249999999999995
40
0.249999999999995
40
0.312499999999993
40
0.312499999999993
40
0.374999999999992
40
0.374999999999992
40
0.499999999999993
40
0.499999999999993
40
0.624999999999995
40
0.624999999999995
40
0.749999999999996
40
0.749999999999996
40
1
40
1
40
1
40
1
41
1
10
-0.394913799807426
20
5.0011605625827
30
0
41
1
10
-0.391748910595936
20
4.99861131394735
30
0
41
1
10
-0.388451589186062
20
4.99624657017219
30
0
41
1
10
-0.381503554973719
20
4.99201030025037
30
0
41
1
10
-0.377826935748587
20
4.99013013351893
30
0
41
1
10
-0.370199866878068
20
4.98715038455433
30
0
41
1
10
-0.366237107961965
20
4.98603634171386
30
0
41
1
10
-0.357908257094152
20
4.98482371680839
30
0
41
1
10
-0.353680105342008
20
4.98475614855752
30
0
41
1
10
-0.345215229645106
20
4.98581465317153
30
0
41
1
10
-0.340970311888157
20
4.98696063906212
30
0
41
1
10
-0.332955447377699
20
4.99024185405628
30
0
41
1
10
-0.329074985882386
20
4.99241446107368
30
0
41
1
10
-0.318315705386453
20
4.99984728403027
30
0
41
1
10
-0.31208522105814
20
5.00607580183947
30
0
41
1
10
-0.301009391385108
20
5.01954154516272
30
0
41
1
10
-0.296146757250469
20
5.02681840777248
30
0
41
1
10
-0.287438460223072
20
5.04163217306564
30
0
41
1
10
-0.283588617015099
20
5.04917503165893
30
0
41
1
10
-0.272989810764841
20
5.07205528847362
30
0
41
1
10
-0.267174521636761
20
5.08763962812947
30
0
41
1
10
-0.256872941277024
20
5.11914471876437
30
0
41
1
10
-0.25241547486219
20
5.13507348953752
30
0
41
1
10
-0.24440867181373
20
5.16715112267377
30
0
41
1
10
-0.240869472299124
20
5.18329434587591
30
0
41
1
10
-0.231309806283861
20
5.23164989232507
30
0
41
1
10
-0.2262954399297
20
5.26391096453324
30
0
41
1
10
-0.217912063159474
20
5.3284110202664
30
0
41
1
10
-0.214571990690132
20
5.36058541153008
30
0
41
1
10
-0.209086134712749
20
5.42467998241563
30
0
41
1
10
-0.206944102193134
20
5.45662122324208
30
0
41
1
10
-0.201889292856535
20
5.55215860520599
30
0
41
1
10
-0.200325582586999
20
5.61546983788409
30
0
41
1
10
-0.200000000000003
20
5.67845150388044
30
0
0
SPLINE
5
13D
100
AcDbEntity
8
SK1
62
256
6
ByLayer
370
18
48
1
60
0
100
AcDbSpline
70
4
71
3
72
51
73
47
40
0
40
0
40
0
40
0
40
0.125
40
0.125
40
0.250000000000001
40
0.250000000000001
40
0.375000000000001
40
0.375000000000001
40
0.500000000000001
40
0.500000000000001
40
0.562500000000002
40
0.562500000000002
40
0.625000000000003
40
0.625000000000003
40
0.656250000000003
40
0.656250000000003
40
0.687500000000004
40
0.687500000000004
40
0.750000000000003
40
0.750000000000003
40
0.781250000000003
40
0.781250000000003
40
0.796875000000003
40
0.796875000000003
40
0.812500000000003
40
0.812500000000003
40
0.843750000000002
40
0.843750000000002
40
0.859375000000002
40
0.859375000000002
40
0.875000000000001
40
0.882812500000001
40
0.882812500000001
40
0.890625000000001
40
0.890625000000001
40
0.906250000000001
40
0.914062500000001
40
0.914062500000001
40
0.921875000000001
40
0.921875000000001
40
0.9375
40
0.953125
40
0.953125
40
0.96875
40
0.96875
40
1
40
1
40
1
40
1
41
1
10
-1.30710678118751
20
3.62853202212813
30
0
41
1
10
-1.2919061364086
20
3.70556358522939
30
0
41
1
10
-1.27564950878531
20
3.7820205106818
30
0
41
1
10
-1.2406084132062
20
3.93375870314148
30
0
41
1
10
-1.22181063294732
20
4.00910669461106
30
0
41
1
10
-1.18115763731655
20
4.15813319978361
30
0
41
1
10
-1.15931218721892
20
4.23182333008765
30
0
41
1
10
-1.11159177403967
20
4.37733091027962
30
0
41
1
10
-1.08574263925135
20
4.44915525032008
30
0
41
1
10
-1.04258655138119
20
4.55515277213792
30
0
41
1
10
-1.02746285247525
20
4.59019333091888
30
0
41
1
10
-0.99531723437029
20
4.65958274004282
30
0
41
1
10
-0.978301889811419
20
4.69393335632202
30
0
41
1
10
-0.950840081220846
20
4.74480636515824
30
0
41
1
10
-0.941360422010973
20
4.76165452150423
30
0
41
1
10
-0.921612206817855
20
4.79509560720325
30
0
41
1
10
-0.911330345780556
20
4.81170689277053
30
0
41
1
10
-0.879296662789443
20
4.86066233047501
30
0
41
1
10
-0.856343638951387
20
4.89227865327604
30
0
41
1
10
-0.818026122235793
20
4.93731968624948
30
0
41
1
10
-0.804596803075
20
4.95193103239396
30
0
41
1
10
-0.78309303822293
20
4.97302905184745
30
0
41
1
10
-0.775696659387535
20
4.9799241664696
30
0
41
1
10
-0.760349771776134
20
4.99338317091983
30
0
41
1
10
-0.752392350049959
20
4.999948849948
30
0
41
1
10
-0.727880800919934
20
5.01875181169186
30
0
41
1
10
-0.710603681718212
20
5.03020967742904
30
0
41
1
10
-0.68262925493238
20
5.04504465543113
30
0
41
1
10
-0.672891603682132
20
5.04961808259611
30
0
41
1
10
-0.652894042393314
20
5.05762851177528
30
0
41
1
10
-0.637551053482454
20
5.06277719842694
30
0
41
1
10
-0.621612371118459
20
5.06644388397413
30
0
41
1
10
-0.610843200204997
20
5.06853179751513
30
0
41
1
10
-0.605373228252517
20
5.06939770112723
30
0
41
1
10
-0.589024240534243
20
5.07139043996949
30
0
41
1
10
-0.572669010460388
20
5.07220433725334
30
0
41
1
10
-0.556304392511265
20
5.07124292633216
30
0
41
1
10
-0.545392549087381
20
5.07020599311227
30
0
41
1
10
-0.539919309159174
20
5.06948506381411
30
0
41
1
10
-0.523814898152125
20
5.06678978581303
30
0
41
1
10
-0.50297983481218
20
5.06177117057427
30
0
41
1
10
-0.483228911030722
20
5.05432574420999
30
0
41
1
10
-0.463947967840667
20
5.04582591451216
30
0
41
1
10
-0.45453441672953
20
5.04103707702356
30
0
41
1
10
-0.427464692677432
20
5.02563245237855
30
0
41
1
10
-0.410735023483483
20
5.01390421017646
30
0
41
1
10
-0.394913799810496
20
5.00116056255814
30
0
0
SPLINE
5
13E
100
AcDbEntity
8
SK1
62
256
6
ByLayer
370
18
48
1
60
0
100
AcDbSpline
70
4
71
3
72
51
73
47
40
0
40
0
40
0
40
0
40
0.0312499999999998
40
0.0312499999999998
40
0.0468749999999998
40
0.0468749999999998
40
0.0624999999999999
40
0.0624999999999999
40
0.0781250000000002
40
0.0859375000000003
40
0.0859375000000003
40
0.0937500000000004
40
0.0937500000000004
40
0.125000000000001
40
0.125000000000001
40
0.132812500000001
40
0.132812500000001
40
0.140625000000001
40
0.140625000000001
40
0.156250000000001
40
0.156250000000001
40
0.171875000000001
40
0.171875000000001
40
0.1875
40
0.1875
40
0.21875
40
0.21875
40
0.250000000000001
40
0.250000000000001
40
0.312500000000001
40
0.312500000000001
40
0.375000000000001
40
0.375000000000001
40
0.437500000000001
40
0.437500000000001
40
0.500000000000001
40
0.500000000000001
40
0.562500000000002
40
0.562500000000002
40
0.625000000000002
40
0.625000000000002
40
0.750000000000001
40
0.750000000000001
40
0.875
40
0.875
40
1
40
1
40
1
40
1
41
1
10
-0.394913799811292
20
-5.00116108217659
30
0
41
1
10
-0.41066538649504
20
-5.01384862569722
30
0
41
1
10
-0.427444682539473
20
-5.02560401094567
30
0
41
1
10
-0.454225812702376
20
-5.04087055985525
30
0
41
1
10
-0.463438908679222
20
-5.04557564745028
30
0
41
1
10
-0.482560235211096
20
-5.05405619211425
30
0
41
1
10
-0.492542658095473
20
-5.05785401853598
30
0
41
1
10
-0.512988129699522
20
-5.06417699720825
30
0
41
1
10
-0.52860623913692
20
-5.06795442924033
30
0
41
1
10
-0.544698986354931
20
-5.07012184570777
30
0
41
1
10
-0.555539481232216
20
-5.07118703454174
30
0
41
1
10
-0.561044214178409
20
-5.0715296778481
30
0
41
1
10
-0.588380278389167
20
-5.07223202598755
30
0
41
1
10
-0.609788395540534
20
-5.06961980113229
30
0
41
1
10
-0.636038898961743
20
-5.06284104440826
30
0
41
1
10
-0.641273399804732
20
-5.06130432437081
30
0
41
1
10
-0.651523728611267
20
-5.05794894419779
30
0
41
1
10
-0.656561241457752
20
-5.05612553121156
30
0
41
1
10
-0.671435209911536
20
-5.05025831011366
30
0
41
1
10
-0.681034016074321
20
-5.04581904881579
30
0
41
1
10
-0.699699693093564
20
-5.0360533513589
30
0
41
1
10
-0.708803295444653
20
-5.03069978836885
30
0
41
1
10
-0.726275289417984
20
-5.01942067172476
30
0
41
1
10
-0.734670547069527
20
-5.01348585979886
30
0
41
1
10
-0.7590283536763
20
-4.99496074537163
30
0
41
1
10
-0.774172797668427
20
-4.98165817730296
30
0
41
1
10
-0.802914827069742
20
-4.95369126459417
30
0
41
1
10
-0.81654709362823
20
-4.93896729549496
30
0
41
1
10
-0.855145617589443
20
-4.89385654551648
30
0
41
1
10
-0.878053724810229
20
-4.86240606869328
30
0
41
1
10
-0.920529370906081
20
-4.79779601403041
30
0
41
1
10
-0.940052913520788
20
-4.76461628090829
30
0
41
1
10
-0.976740804435948
20
-4.69698582221125
30
0
41
1
10
-0.993913112071084
20
-4.66248133856587
30
0
41
1
10
-1.02632348400364
20
-4.59277716864142
30
0
41
1
10
-1.04157111619293
20
-4.55755616008759
30
0
41
1
10
-1.07057669597754
20
-4.48649265752218
30
0
41
1
10
-1.08433177378575
20
-4.4506493409462
30
0
41
1
10
-1.11062583028021
20
-4.37841416747673
30
0
41
1
10
-1.12316712175577
20
-4.34200882575533
30
0
41
1
10
-1.15918165202707
20
-4.23227919141885
30
0
41
1
10
-1.18109081197508
20
-4.1583703791232
30
0
41
1
10
-1.22178607754874
20
-4.0092085502001
30
0
41
1
10
-1.24056171778477
20
-3.9339536596444
30
0
41
1
10
-1.27561460874023
20
-3.78218340304136
30
0
41
1
10
-1.29188624779786
20
-3.70566670397201
30
0
41
1
10
-1.30710678118655
20
-3.62853433720645
30
0
0
SPLINE
5
13F
100
AcDbEntity
8
SK1
62
256
6
ByLayer
370
18
48
1
60
0
100
AcDbSpline
70
4
71
3
72
40
73
36
40
0
40
0
40
0
40
0
40
0.249999999999997
40
0.249999999999997
40
0.374999999999995
40
0.374999999999995
40
0.499999999999993
40
0.499999999999993
40
0.624999999999991
40
0.624999999999991
40
0.687499999999992
40
0.687499999999992
40
0.749999999999992
40
0.749999999999992
40
0.812499999999993
40
0.812499999999993
40
0.843749999999992
40
0.843749999999992
40
0.874999999999992
40
0.874999999999992
40
0.890624999999993
40
0.890624999999993
40
0.906249999999994
40
0.906249999999994
40
0.921874999999995
40
0.921874999999995
40
0.937499999999996
40
0.937499999999996
40
0.953124999999997
40
0.953124999999997
40
0.968749999999998
40
0.968749999999998
40
0.984374999999999
40
0.984374999999999
40
1
40
1
40
1
40
1
41
1
10
-0.200000000000003
20
-5.6784520164293
30
0
41
1
10
-0.200325540023954
20
-5.61547854140406
30
0
41
1
10
-0.201889470916583
20
-5.55222154865803
30
0
41
1
10
-0.206929588208155
20
-5.45686315009959
30
0
41
1
10
-0.209064130076882
20
-5.42499801712523
30
0
41
1
10
-0.214523044028141
20
-5.36109790788316
30
0
41
1
10
-0.217841153282251
20
-5.32906305985318
30
0
41
1
10
-0.226165642229034
20
-5.2648064330395
30
0
41
1
10
-0.23114988012145
20
-5.23258507573846
30
0
41
1
10
-0.240700146478559
20
-5.1840907743358
30
0
41
1
10
-0.244243877237153
20
-5.16786639775955
30
0
41
1
10
-0.252257427302908
20
-5.13565463294319
30
0
41
1
10
-0.256723214245554
20
-5.11964268012935
30
0
41
1
10
-0.26706857515525
20
-5.08792546636624
30
0
41
1
10
-0.272916655032233
20
-5.0722125984079
30
0
41
1
10
-0.283630596953643
20
-5.0490854463963
30
0
41
1
10
-0.287559273211883
20
-5.04140704567575
30
0
41
1
10
-0.29628672569271
20
-5.0266015359532
30
0
41
1
10
-0.301074093098137
20
-5.01945615581226
30
0
41
1
10
-0.309349269610593
20
-5.00940629678658
30
0
41
1
10
-0.312316306979525
20
-5.00615011165595
30
0
41
1
10
-0.31861660499726
20
-5.00011766639523
30
0
41
1
10
-0.321954234540115
20
-4.99732874567786
30
0
41
1
10
-0.329143040072381
20
-4.99237354459819
30
0
41
1
10
-0.33301572502674
20
-4.99021187411824
30
0
41
1
10
-0.341034463404853
20
-4.9869408469134
30
0
41
1
10
-0.345285948994146
20
-4.98580083402231
30
0
41
1
10
-0.353728848469132
20
-4.98475618750666
30
0
41
1
10
-0.358001975899768
20
-4.98483227377295
30
0
41
1
10
-0.366274570071312
20
-4.98604804966439
30
0
41
1
10
-0.370231991198082
20
-4.98716039898099
30
0
41
1
10
-0.377874829705576
20
-4.99015247985739
30
0
41
1
10
-0.381540018186669
20
-4.99203141004631
30
0
41
1
10
-0.388463488029387
20
-4.99625601274579
30
0
41
1
10
-0.391753438827735
20
-4.99861548354417
30
0
41
1
10
-0.394913799811292
20
-5.00116108217654
30
0
0
SPLINE
5
140
100
AcDbEntity
8
SK1
62
256
6
ByLayer
370
18
48
1
60
0
100
AcDbSpline
70
4
71
3
72
38
73
34
40
0
40
0
40
0
40
0
40
0.0156249999999999
40
0.0156249999999999
40
0.03125
40
0.03125
40
0.046875
40
0.046875
40
0.0625000000000001
40
0.0625000000000001
40
0.0781250000000001
40
0.0781250000000001
40
0.0937500000000001
40
0.0937500000000001
40
0.125000000000001
40
0.125000000000001
40
0.156250000000002
40
0.156250000000002
40
0.187500000000003
40
0.187500000000003
40
0.250000000000004
40
0.250000000000004
40
0.312500000000004
40
0.312500000000004
40
0.375000000000005
40
0.375000000000005
40
0.500000000000004
40
0.500000000000004
40
0.625000000000002
40
0.625000000000002
40
0.750000000000001
40
0.750000000000001
40
1
40
1
40
1
40
1
41
1
10
-0.394913799814603
20
-13.8446595289409
30
0
41
1
10
-0.391749296202079
20
-13.844842490927
30
0
41
1
10
-0.388452375608793
20
-13.8450961903932
30
0
41
1
10
-0.381505168769749
20
-13.8457938151623
30
0
41
1
10
-0.377829013893788
20
-13.846241915681
30
0
41
1
10
-0.370202860200735
20
-13.8473733313911
30
0
41
1
10
-0.366240526544672
20
-13.8480563938372
30
0
41
1
10
-0.357912392007833
20
-13.849739303977
30
0
41
1
10
-0.353684635700688
20
-13.8507136617023
30
0
41
1
10
-0.345220189226794
20
-13.8529238754024
30
0
41
1
10
-0.340975528995898
20
-13.854165851519
30
0
41
1
10
-0.332960961810898
20
-13.8567502285021
30
0
41
1
10
-0.329080600695079
20
-13.8581264595614
30
0
41
1
10
-0.318321797663046
20
-13.8622381003803
30
0
41
1
10
-0.312091372528243
20
-13.8650224034849
30
0
41
1
10
-0.301015966388775
20
-13.8704509077418
30
0
41
1
10
-0.296153419957179
20
-13.8731079755536
30
0
41
1
10
-0.2874455172187
20
-13.8782073044309
30
0
41
1
10
-0.283595780474983
20
-13.8806523483052
30
0
41
1
10
-0.272997114041218
20
-13.887771829979
30
0
41
1
10
-0.267181679795755
20
-13.8922335922221
30
0
41
1
10
-0.256879537942396
20
-13.9007947938235
30
0
41
1
10
-0.2524216589118
20
-13.9048892296203
30
0
41
1
10
-0.244413939321603
20
-13.9127918287045
30
0
41
1
10
-0.240874255815328
20
-13.9165963734791
30
0
41
1
10
-0.231313142997919
20
-13.9275805879124
30
0
41
1
10
-0.226297832831591
20
-13.9343664914098
30
0
41
1
10
-0.217912944663468
20
-13.947127348993
30
0
41
1
10
-0.214572317075479
20
-13.9530845047233
30
0
41
1
10
-0.209085750971369
20
-13.964280444998
30
0
41
1
10
-0.206943565198614
20
-13.9695217949656
30
0
41
1
10
-0.201888714477093
20
-13.9843134154885
30
0
41
1
10
-0.200325526921631
20
-13.9929377840209
30
0
41
1
10
-0.200000000000003
20
-14.0005306290775
30
0
0
SPLINE
5
141
100
AcDbEntity
8
SK1
62
256
6
ByLayer
370
18
48
1
60
0
100
AcDbSpline
70
4
71
3
72
40
73
36
40
0
40
0
40
0
40
0
40
0.249999999999998
40
0.249999999999998
40
0.374999999999998
40
0.374999999999998
40
0.499999999999997
40
0.499999999999997
40
0.624999999999998
40
0.624999999999998
40
0.687499999999998
40
0.687499999999998
40
0.749999999999998
40
0.749999999999998
40
0.812499999999999
40
0.812499999999999
40
0.84375
40
0.84375
40
0.875000000000001
40
0.875000000000001
40
0.890625000000001
40
0.890625000000001
40
0.90625
40
0.90625
40
0.921875
40
0.921875
40
0.9375
40
0.9375
40
0.953125
40
0.953125
40
0.96875
40
0.96875
40
0.984375
40
0.984375
40
1
40
1
40
1
40
1
41
1
10
-0.200000000000003
20
14.0005308360297
30
0
41
1
10
-0.200325484931824
20
13.9929389755075
30
0
41
1
10
-0.201888899753499
20
13.9843210157469
30
0
41
1
10
-0.206929064368978
20
13.9695604951635
30
0
41
1
10
-0.209063760504847
20
13.9643331642487
30
0
41
1
10
-0.214523379010942
20
13.9531770452386
30
0
41
1
10
-0.217842040597986
20
13.9472498215878
30
0
41
1
10
-0.226167999261989
20
13.9345502713768
30
0
41
1
10
-0.231153161037923
20
13.9277833881154
30
0
41
1
10
-0.240704867227123
20
13.916782127484
30
0
41
1
10
-0.244249097570219
20
13.9129633802222
30
0
41
1
10
-0.252263586587134
20
13.9050370743235
30
0
41
1
10
-0.256729802109746
20
13.9009261566768
30
0
41
1
10
-0.267075773720663
20
13.8923152006562
30
0
41
1
10
-0.272924030069348
20
13.8878208927885
30
0
41
1
10
-0.283637913589715
20
13.8806243248759
30
0
41
1
10
-0.287566520738565
20
13.8781327420571
30
0
41
1
10
-0.296293809253314
20
13.8730299294695
30
0
41
1
10
-0.301081039190621
20
13.870417714082
30
0
41
1
10
-0.309355911672171
20
13.866364075454
30
0
41
1
10
-0.312322841305999
20
13.8649804039333
30
0
41
1
10
-0.318622944145005
20
13.8622234641578
30
0
41
1
10
-0.321960461861977
20
13.8608465411072
30
0
41
1
10
-0.329149016141258
20
13.858101654615
30
0
41
1
10
-0.333021571763894
20
13.8567295936368
30
0
41
1
10
-0.341039973310558
20
13.8541465128493
30
0
41
1
10
-0.345291253771677
20
13.8529042812469
30
0
41
1
10
-0.353733594241362
20
13.8507022641717
30
0
41
1
10
-0.358006392495966
20
13.8497192387353
30
0
41
1
10
-0.366278137943922
20
13.8480502152413
30
0
41
1
10
-0.370235109341749
20
13.8473680380174
30
0
41
1
10
-0.377877027729269
20
13.8462356418831
30
0
41
1
10
-0.381541736392833
20
13.8457899488977
30
0
41
1
10
-0.388464315595584
20
13.8450955240371
30
0
41
1
10
-0.391753842527152
20
13.8448423969163
30
0
41
1
10
-0.394913799811292
20
13.8446596982822
30
0
0
SPLINE
5
142
100
AcDbEntity
8
SK1
62
256
6
ByLayer
370
18
48
1
60
0
100
AcDbSpline
70
4
71
3
72
39
73
35
40
0
40
0
40
0
40
0
40
0.0233594630826243
40
0.051397204267383
40
0.0794349454521418
40
0.107472686636901
40
0.163548169006418
40
0.219623651375936
40
0.247661392560694
40
0.275699133745453
40
0.331774616114971
40
0.359812357299729
40
0.387850098484488
40
0.415887839669247
40
0.443925580854006
40
0.471963322038764
40
0.485982192631144
40
0.500001063223523
40
0.514019933815903
40
0.528038804408282
40
0.556076545593041
40
0.584114286777799
40
0.612152027962558
40
0.640189769147317
40
0.668227510332076
40
0.724302992701593
40
0.752340733886352
40
0.780378475071111
40
0.836453957440628
40
0.892529439810146
40
0.920567180994904
40
0.948604922179663
40
0.976642663364422
40
1
40
1
40
1
40
1
41
1
10
-24
20
-12.6317140953155
30
0
41
1
10
-24
20
-12.6344703689982
30
0
41
1
10
-24
20
-12.6094822597275
30
0
41
1
10
-24
20
-12.4743689830171
30
0
41
1
10
-24
20
-12.230146179188
30
0
41
1
10
-24
20
-11.778244241418
30
0
41
1
10
-24
20
-11.0029092636263
30
0
41
1
10
-24
20
-9.97333247862687
30
0
41
1
10
-24
20
-9.00198713477033
30
0
41
1
10
-24
20
-7.94098140173097
30
0
41
1
10
-24
20
-6.76812921007328
30
0
41
1
10
-24
20
-5.45799637564653
30
0
41
1
10
-24
20
-4.42753733029454
30
0
41
1
10
-24
20
-3.35000222974921
30
0
41
1
10
-24
20
-2.23771741989395
30
0
41
1
10
-24
20
-1.30515932004789
30
0
41
1
10
-24
20
-0.551100854738877
30
0
41
1
10
-24
20
-2.454147534E-07
30
0
41
1
10
-24
20
0.551100895559586
30
0
41
1
10
-24
20
1.30515943417129
30
0
41
1
10
-24
20
2.23771697460674
30
0
41
1
10
-24
20
3.35000208235883
30
0
41
1
10
-24
20
4.4275375451636
30
0
41
1
10
-24
20
5.45799609225458
30
0
41
1
10
-24
20
6.76812911518888
30
0
41
1
10
-24
20
7.94098139760015
30
0
41
1
10
-24
20
9.00198709358403
30
0
41
1
10
-24
20
9.97333275207075
30
0
41
1
10
-24
20
11.0029089912388
30
0
41
1
10
-24
20
11.7782448377074
30
0
41
1
10
-24
20
12.2301460729139
30
0
41
1
10
-24
20
12.4743692733745
30
0
41
1
10
-24
20
12.6094790952424
30
0
41
1
10
-24
20
12.6344684139318
30
0
41
1
10
-24
20
12.6317149354496
30
0
0
SPLINE
5
143
100
AcDbEntity
8
SK1
62
256
6
ByLayer
370
18
48
1
60
0
100
AcDbSpline
70
4
71
3
72
9
73
5
40
0
40
0
40
0
40
0
40
0.558773299688095
40
1
40
1
40
1
40
1
41
1
10
-1.49503997793928
20
13.8252670526319
30
0
41
1
10
-1.49503997793928
20
13.8253385853013
30
0
41
1
10
-1.49503997793928
20
13.8032101993166
30
0
41
1
10
-1.49503997793928
20
13.745176793144
30
0
41
1
10
-1.49503997793927
20
13.7130156698669
30
0
0
SPLINE
5
144
100
AcDbEntity
8
SK1
62
256
6
ByLayer
370
13
48
1
60
0
100
AcDbSpline
70
4
71
3
72
20
73
16
40
0
40
0
40
0
40
0
40
0.0283171877084202
40
0.0975854517045258
40
0.166853715700632
40
0.305390243692843
40
0.443926771685055
40
0.51319503568116
40
0.582463299677266
40
0.720999827669477
40
0.790268091665583
40
0.859536355661689
40
0.928804619657795
40
0.9980728836539
40
1
40
1
40
1
40
1
41
1
10
-1.49503997793928
20
13.7130156698659
30
0
41
1
10
-1.49503997793928
20
13.6907766313027
30
0
41
1
10
-1.49503997793931
20
13.6033357133109
30
0
41
1
10
-1.4950399779393
20
13.3930993868039
30
0
41
1
10
-1.4950399779393
20
12.9130991355629
30
0
41
1
10
-1.4950399779393
20
12.0867937065467
30
0
41
1
10
-1.4950399779393
20
10.9917340076615
30
0
41
1
10
-1.4950399779393
20
9.96541209516295
30
0
41
1
10
-1.4950399779393
20
8.84271184628204
30
0
41
1
10
-1.4950399779393
20
7.58102884110858
30
0
41
1
10
-1.4950399779393
20
6.18114524290198
30
0
41
1
10
-1.4950399779393
20
5.06527592408099
30
0
41
1
10
-1.4950399779393
20
3.88412508952482
30
0
41
1
10
-1.4950399779393
20
3.04345441166049
30
0
41
1
10
-1.4950399779393
20
2.60753527399982
30
0
41
1
10
-1.4950399779393
20
2.59572866980201
30
0
0
SPLINE
5
145
100
AcDbEntity
8
SK1
62
256
6
ByLayer
370
13
48
1
60
0
100
AcDbSpline
70
4
71
3
72
20
73
16
40
0
40
0
40
0
40
0
40
0.0019270700262743
40
0.0711953294832528
40
0.140463588940231
40
0.20973184839721
40
0.279000107854188
40
0.417536626768145
40
0.486804886225123
40
0.556073145682102
40
0.694609664596059
40
0.833146183510016
40
0.902414442966994
40
0.971682702423972
40
1
40
1
40
1
40
1
41
1
10
-1.4950399779393
20
-2.59572959682796
30
0
41
1
10
-1.4950399779393
20
-2.60753591899177
30
0
41
1
10
-1.4950399779393
20
-3.04345481646683
30
0
41
1
10
-1.4950399779393
20
-3.88412534084222
30
0
41
1
10
-1.4950399779393
20
-5.0652758228772
30
0
41
1
10
-1.4950399779393
20
-6.18114538947242
30
0
41
1
10
-1.4950399779393
20
-7.58102898252227
30
0
41
1
10
-1.4950399779393
20
-8.84271185764786
30
0
41
1
10
-1.4950399779393
20
-9.96541221253273
30
0
41
1
10
-1.4950399779393
20
-10.9917337096027
30
0
41
1
10
-1.4950399779393
20
-12.0867940390283
30
0
41
1
10
-1.4950399779393
20
-12.9130985214152
30
0
41
1
10
-1.4950399779393
20
-13.3930994871677
30
0
41
1
10
-1.49503997793931
20
-13.6033356716302
30
0
41
1
10
-1.49503997793931
20
-13.6907765202042
30
0
41
1
10
-1.4950399779393
20
-13.7130155967853
30
0
0
SPLINE
5
146
100
AcDbEntity
8
SK1
62
256
6
ByLayer
370
18
48
1
60
0
100
AcDbSpline
70
4
71
3
72
9
73
5
40
0
40
0
40
0
40
0
40
0.442559076144145
40
1
40
1
40
1
40
1
41
1
10
-1.49503997793931
20
-13.7130150343164
30
0
41
1
10
-1.4950399779393
20
-13.7451762618623
30
0
41
1
10
-1.4950399779393
20
-13.803035157063
30
0
41
1
10
-1.4950399779393
20
-13.8252049542183
30
0
41
1
10
-1.4950399779393
20
-13.825267034316
30
0
0
SPLINE
5
147
100
AcDbEntity
8
SK1
62
256
6
ByLayer
370
18
48
1
60
0
100
AcDbSpline
70
4
71
3
72
21
73
17
40
0
40
0
40
0
40
0
40
0.0053471909156908
40
0.0675275880873096
40
0.129707985258928
40
0.191888382430547
40
0.254068779602166
40
0.378429573945404
40
0.440609971117023
40
0.502790368288641
40
0.627151162631879
40
0.751511956975117
40
0.813692354146736
40
0.875872751318354
40
0.938053148489973
40
1
40
1
40
1
40
1
41
1
10
-1.7
20
-2.58377808521789
30
0
41
1
10
-1.7
20
-2.6211130853342
30
0
41
1
10
-1.7
20
-3.09163207213675
30
0
41
1
10
-1.7
20
-3.97134131573901
30
0
41
1
10
-1.7
20
-5.16941096177055
30
0
41
1
10
-1.7
20
-6.29922705440438
30
0
41
1
10
-1.7
20
-7.71376588282689
30
0
41
1
10
-1.7
20
-8.98995375595479
30
0
41
1
10
-1.7
20
-10.1227281115305
30
0
41
1
10
-1.7
20
-11.1580265629749
30
0
41
1
10
-1.7
20
-12.2637795792515
30
0
41
1
10
-1.7
20
-13.0984067777707
30
0
41
1
10
-1.7
20
-13.5829959818305
30
0
41
1
10
-1.7
20
-13.8477062499051
30
0
41
1
10
-1.7
20
-14.0038343024279
30
0
41
1
10
-1.7
20
-14.0272338768388
30
0
41
1
10
-1.7
20
-14.0158119586824
30
0
0
SPLINE
5
148
100
AcDbEntity
8
SK1
62
256
6
ByLayer
370
18
48
1
60
0
100
AcDbSpline
70
4
71
3
72
21
73
17
40
0
40
0
40
0
40
0
40
0.0619470340847886
40
0.124127416781558
40
0.186307799478328
40
0.248488182175097
40
0.372848947568637
40
0.497209712962176
40
0.559390095658945
40
0.621570478355715
40
0.745931243749254
40
0.808111626446024
40
0.870292009142793
40
0.932472391839563
40
0.994652774536333
40
1
40
1
40
1
40
1
41
1
10
-1.70000000000002
20
14.0158119279692
30
0
41
1
10
-1.70000000000002
20
14.0272339860565
30
0
41
1
10
-1.7
20
14.0038349659784
30
0
41
1
10
-1.7
20
13.8477064954836
30
0
41
1
10
-1.7
20
13.5829958824317
30
0
41
1
10
-1.7
20
13.0984073948343
30
0
41
1
10
-1.7
20
12.2637792369573
30
0
41
1
10
-1.7
20
11.158026865053
30
0
41
1
10
-1.7
20
10.1227279817209
30
0
41
1
10
-1.7
20
8.9899537434076
30
0
41
1
10
-1.7
20
7.71376573381551
30
0
41
1
10
-1.7
20
6.29922693017525
30
0
41
1
10
-1.7
20
5.16941104441418
30
0
41
1
10
-1.7
20
3.97134104745157
30
0
41
1
10
-1.7
20
3.09163174208075
30
0
41
1
10
-1.7
20
2.62111254506641
30
0
41
1
10
-1.7
20
2.58377729734613
30
0
0
SPLINE
5
149
100
AcDbEntity
8
SK1
62
256
6
ByLayer
370
18
48
1
60
0
100
AcDbSpline
70
4
71
3
72
39
73
35
40
0
40
0
40
0
40
0
40
0.0277680118892449
40
0.0555463626226677
40
0.0833247133560905
40
0.111103064089513
40
0.166659765556359
40
0.222216467023204
40
0.249994817756627
40
0.27777316849005
40
0.333329869956896
40
0.361108220690318
40
0.388886571423741
40
0.416664922157164
40
0.444443272890587
40
0.47222162362401
40
0.486110798990721
40
0.499999974357432
40
0.513889149724144
40
0.527778325090855
40
0.555556675824278
40
0.583335026557701
40
0.611113377291124
40
0.638891728024546
40
0.666670078757969
40
0.722226780224815
40
0.750005130958238
40
0.77778348169166
40
0.833340183158506
40
0.888896884625351
40
0.916675235358774
40
0.944453586092197
40
0.97223193682562
40
1
40
1
40
1
40
1
41
1
10
-22.5
20
13.4936008032519
30
0
41
1
10
-22.5
20
13.5046599458555
30
0
41
1
10
-22.5
20
13.4821972912734
30
0
41
1
10
-22.5
20
13.3308795934982
30
0
41
1
10
-22.5
20
13.0738789920944
30
0
41
1
10
-22.5
20
12.6015916721314
30
0
41
1
10
-22.5
20
11.7892769425394
30
0
41
1
10
-22.5
20
10.7121918739409
30
0
41
1
10
-22.5
20
9.70096045673193
30
0
41
1
10
-22.5
20
8.5951948167403
30
0
41
1
10
-22.5
20
7.35789505897995
30
0
41
1
10
-22.5
20
5.98264719956148
30
0
41
1
10
-22.5
20
4.89022238185544
30
0
41
1
10
-22.5
20
3.73751305004353
30
0
41
1
10
-22.5
20
2.52988134516508
30
0
41
1
10
-22.5
20
1.48826022368627
30
0
41
1
10
-22.5
20
0.637225639727404
30
0
41
1
10
-22.5
20
-1.01300202E-07
30
0
41
1
10
-22.5
20
-0.63722566300541
30
0
41
1
10
-22.5
20
-1.48826017841199
30
0
41
1
10
-22.5
20
-2.52988151772914
30
0
41
1
10
-22.5
20
-3.73751327283387
30
0
41
1
10
-22.5
20
-4.89022224945154
30
0
41
1
10
-22.5
20
-5.98264738368823
30
0
41
1
10
-22.5
20
-7.35789518762175
30
0
41
1
10
-22.5
20
-8.59519482612015
30
0
41
1
10
-22.5
20
-9.70096055319001
30
0
41
1
10
-22.5
20
-10.7121915826386
30
0
41
1
10
-22.5
20
-11.7892772585257
30
0
41
1
10
-22.5
20
-12.6015910628856
30
0
41
1
10
-22.5
20
-13.0738790940806
30
0
41
1
10
-22.5
20
-13.3308793310681
30
0
41
1
10
-22.5
20
-13.4821968994931
30
0
41
1
10
-22.5
20
-13.5046599487267
30
0
41
1
10
-22.5
20
-13.4936006589817
30
0
0
SPLINE
5
14A
100
AcDbEntity
8
SK1
62
256
6
ByLayer
370
18
48
1
60
0
100
AcDbSpline
70
4
71
3
72
50
73
46
40
0
40
0
40
0
40
0
40
0.125000000000012
40
0.125000000000012
40
0.250000000000024
40
0.250000000000024
40
0.312500000000031
40
0.312500000000031
40
0.375000000000038
40
0.375000000000038
40
0.437500000000045
40
0.437500000000045
40
0.468750000000048
40
0.468750000000048
40
0.48437500000005
40
0.48437500000005
40
0.500000000000052
40
0.500000000000052
40
0.515625000000054
40
0.515625000000054
40
0.523437500000057
40
0.523437500000057
40
0.531250000000059
40
0.531250000000059
40
0.535156250000059
40
0.535156250000059
40
0.539062500000059
40
0.539062500000059
40
0.546875000000059
40
0.546875000000059
40
0.562500000000056
40
0.562500000000056
40
0.578125000000054
40
0.578125000000054
40
0.593750000000052
40
0.593750000000052
40
0.625000000000048
40
0.625000000000048
40
0.68750000000004
40
0.68750000000004
40
0.750000000000032
40
0.750000000000032
40
0.875000000000016
40
0.875000000000016
40
1
40
1
40
1
40
1
41
1
10
-1.4950399779393
20
-2.59572959682799
30
0
41
1
10
-1.50259580380231
20
-2.54970538090487
30
0
41
1
10
-1.51044407919379
20
-2.5037485497009
30
0
41
1
10
-1.52696140207523
20
-2.41209242042987
30
0
41
1
10
-1.53561964544302
20
-2.36637992038092
30
0
41
1
10
-1.5496214994392
20
-2.29823508774663
30
0
41
1
10
-1.55445799280432
20
-2.27560423600821
30
0
41
1
10
-1.56462503300465
20
-2.23061031941455
30
0
41
1
10
-1.56994933734997
20
-2.20824327444524
30
0
41
1
10
-1.58141440210635
20
-2.1639829941042
30
0
41
1
10
-1.58752132339228
20
-2.14206819971534
30
0
41
1
10
-1.59800183776959
20
-2.11000295822438
30
0
41
1
10
-1.60173135359587
20
-2.09941136011767
30
0
41
1
10
-1.60792208521562
20
-2.0840854996479
30
0
41
1
10
-1.61008417279068
20
-2.0790771956942
30
0
41
1
10
-1.61471614069212
20
-2.06937654210969
30
0
41
1
10
-1.61717970743425
20
-2.06467763004105
30
0
41
1
10
-1.62266900676535
20
-2.05586039978144
30
0
41
1
10
-1.62570082643286
20
-2.05168607565219
30
0
41
1
10
-1.63098239203809
20
-2.04685996014615
30
0
41
1
10
-1.6329019457323
20
-2.04547928392895
30
0
41
1
10
-1.63699263810763
20
-2.04373469956386
30
0
41
1
10
-1.63921911624004
20
-2.04338149066749
30
0
41
1
10
-1.64253578152041
20
-2.04402974687966
30
0
41
1
10
-1.64365346396515
20
-2.04444453700538
30
0
41
1
10
-1.64576913847839
20
-2.04559596629972
30
0
41
1
10
-1.64678471429062
20
-2.04633307019134
30
0
41
1
10
-1.64972344115721
20
-2.04895713823333
30
0
41
1
10
-1.65146277058666
20
-2.05118187975825
30
0
41
1
10
-1.65615085025311
20
-2.05848683766303
30
0
41
1
10
-1.6585367992972
20
-2.06399527606521
30
0
41
1
10
-1.66277344227467
20
-2.07547629075165
30
0
41
1
10
-1.66455510466849
20
-2.0813878802806
30
0
41
1
10
-1.66776761506961
20
-2.09338046474815
30
0
41
1
10
-1.66917976470286
20
-2.09942277841125
30
0
41
1
10
-1.67305217630947
20
-2.11760538297838
30
0
41
1
10
-1.6751594901484
20
-2.12981712458023
30
0
41
1
10
-1.68075232756121
20
-2.16659121971193
30
0
41
1
10
-1.68351230038941
20
-2.19134004598717
30
0
41
1
10
-1.68813273270565
20
-2.24066381962933
30
0
41
1
10
-1.68996451253322
20
-2.26528111364473
30
0
41
1
10
-1.69458987013775
20
-2.33904299616424
30
0
41
1
10
-1.6965250123217
20
-2.38809848078017
30
0
41
1
10
-1.69914629015307
20
-2.48605219520391
30
0
41
1
10
-1.69980283176194
20
-2.53494813104055
30
0
41
1
10
-1.7
20
-2.58377808521789
30
0
0
SPLINE
5
14B
100
AcDbEntity
8
SK1
62
256
6
ByLayer
370
18
48
1
60
0
100
AcDbSpline
70
4
71
3
72
8
73
4
40
0
40
0
40
0
40
0
40
1
40
1
40
1
40
1
41
1
10
-1.30710678118655
20
-3.62853433720642
30
0
41
1
10
-1.37356947571648
20
-3.29172452904805
30
0
41
1
10
-1.43720049720228
20
-2.94804273884375
30
0
41
1
10
-1.4950399779393
20
-2.59572959682799
30
0
0
SPLINE
5
14C
100
AcDbEntity
8
SK1
62
256
6
ByLayer
370
18
48
1
60
0
100
AcDbSpline
70
4
71
3
72
8
73
4
40
0
40
0
40
0
40
0
40
1
40
1
40
1
40
1
41
1
10
-1.4950399779393
20
2.59572866974992
30
0
41
1
10
-1.43720046286556
20
2.94804131885212
30
0
41
1
10
-1.37356940710868
20
3.29172262772087
30
0
41
1
10
-1.30710678118655
20
3.62853202212773
30
0
0
SPLINE
5
14D
100
AcDbEntity
8
SK1
62
256
6
ByLayer
370
18
48
1
60
0
100
AcDbSpline
70
4
71
3
72
50
73
46
40
0
40
0
40
0
40
0
40
0.125000000000011
40
0.125000000000011
40
0.250000000000021
40
0.250000000000021
40
0.312500000000027
40
0.312500000000027
40
0.375000000000032
40
0.375000000000032
40
0.406250000000035
40
0.406250000000035
40
0.421875000000036
40
0.421875000000036
40
0.437500000000038
40
0.437500000000038
40
0.453125000000039
40
0.453125000000039
40
0.460937500000039
40
0.460937500000039
40
0.468750000000038
40
0.468750000000038
40
0.476562500000038
40
0.476562500000038
40
0.484375000000037
40
0.484375000000037
40
0.492187500000037
40
0.492187500000037
40
0.500000000000036
40
0.500000000000036
40
0.515625000000035
40
0.515625000000035
40
0.531250000000034
40
0.531250000000034
40
0.562500000000032
40
0.562500000000032
40
0.625000000000028
40
0.625000000000028
40
0.687500000000023
40
0.687500000000023
40
0.750000000000019
40
0.750000000000019
40
0.87500000000001
40
0.87500000000001
40
1
40
1
40
1
40
1
41
1
10
-1.7
20
2.58377729734613
30
0
41
1
10
-1.69980436369318
20
2.53532682713825
30
0
41
1
10
-1.69915633746155
20
2.48678291130128
30
0
41
1
10
-1.69657077641125
20
2.38945991149225
30
0
41
1
10
-1.69465688317244
20
2.34062742639441
30
0
41
1
10
-1.69011547560279
20
2.26744567235394
30
0
41
1
10
-1.68832031406806
20
2.24305704289955
30
0
41
1
10
-1.68382251839573
20
2.19430149785723
30
0
41
1
10
-1.6811538035131
20
2.16993349213547
30
0
41
1
10
-1.67575012136615
20
2.13342095957782
30
0
41
1
10
-1.67370679113651
20
2.12121687034826
30
0
41
1
10
-1.66999109272727
20
2.10307013790924
30
0
41
1
10
-1.6686459486251
20
2.09706546109075
30
0
41
1
10
-1.66562961649734
20
2.08519083778748
30
0
41
1
10
-1.66396430018823
20
2.07931848353303
30
0
41
1
10
-1.6600558123808
20
2.06781172737621
30
0
41
1
10
-1.65780271049239
20
2.06209889338854
30
0
41
1
10
-1.65360265881839
20
2.05440095769973
30
0
41
1
10
-1.65203540861354
20
2.05194214116116
30
0
41
1
10
-1.64851622596237
20
2.04772090624601
30
0
41
1
10
-1.64651873271588
20
2.04593477970201
30
0
41
1
10
-1.64226262858723
20
2.043768326699
30
0
41
1
10
-1.63997873447313
20
2.04341449775865
30
0
41
1
10
-1.6356843696697
20
2.04410116240959
30
0
41
1
10
-1.63361913581856
20
2.0450986814044
30
0
41
1
10
-1.62982987335099
20
2.04777834300637
30
0
41
1
10
-1.62808309003236
20
2.04945955976308
30
0
41
1
10
-1.62484301170014
20
2.0531239146128
30
0
41
1
10
-1.62333314102943
20
2.05512691093279
30
0
41
1
10
-1.61901669792691
20
2.06146559975113
30
0
41
1
10
-1.61642392925381
20
2.06612103362772
30
0
41
1
10
-1.61160259165956
20
2.07573673930193
30
0
41
1
10
-1.60936320218998
20
2.08073614174975
30
0
41
1
10
-1.60299914819286
20
2.09599696577877
30
0
41
1
10
-1.59920684184681
20
2.10654042134561
30
0
41
1
10
-1.58850203306027
20
2.13871110702169
30
0
41
1
10
-1.58228349561369
20
2.16081267675321
30
0
41
1
10
-1.57063755711233
20
2.20542457669759
30
0
41
1
10
-1.56523752837914
20
2.22799607735607
30
0
41
1
10
-1.55494638829134
20
2.27335583269641
30
0
41
1
10
-1.55006067855432
20
2.29615277543081
30
0
41
1
10
-1.53593092606574
20
2.36476035150477
30
0
41
1
10
-1.52720389146864
20
2.41078220609728
30
0
41
1
10
-1.510557364089
20
2.5030840028657
30
0
41
1
10
-1.50265060758178
20
2.54937072424823
30
0
41
1
10
-1.4950399779393
20
2.59572866980201
30
0
0
SPLINE
5
14E
100
AcDbEntity
8
SK1
62
256
6
ByLayer
370
18
48
1
60
0
100
AcDbSpline
70
4
71
3
72
28
73
24
40
0
40
0
40
0
40
0
40
0.0625
40
0.0625
40
0.125
40
0.125
40
0.25
40
0.25
40
0.375
40
0.375
40
0.5
40
0.5
40
0.53125
40
0.53125
40
0.5625
40
0.5625
40
0.625
40
0.625
40
0.75
40
0.75
40
0.875
40
0.875
40
1
40
1
40
1
40
1
41
1
10
-1.7
20
-2.58377808521789
30
0
41
1
10
-1.71653480458672
20
-2.4797818566588
30
0
41
1
10
-1.73252928227532
20
-2.37518275958956
30
0
41
1
10
-1.76321329032666
20
-2.16467276723154
30
0
41
1
10
-1.7779104307611
20
-2.05868937391003
30
0
41
1
10
-1.8194991935238
20
-1.74011907259904
30
0
41
1
10
-1.84395869573467
20
-1.52647783394633
30
0
41
1
10
-1.88456941336776
20
-1.09633072422011
30
0
41
1
10
-1.90073152159664
20
-0.879827175945792
30
0
41
1
10
-1.92269285742202
20
-0.443534065874189
30
0
41
1
10
-1.9285260192795
20
-0.2237512458141
30
0
41
1
10
-1.92857376506791
20
0.0532112388235646
30
0
41
1
10
-1.92821915648835
20
0.108715900509111
30
0
41
1
10
-1.92678890529307
20
0.219949147197781
30
0
41
1
10
-1.92571062209051
20
0.275747908317783
30
0
41
1
10
-1.92143351430276
20
0.442459814342243
30
0
41
1
10
-1.91719408999322
20
0.552958450347262
30
0
41
1
10
-1.90057185673113
20
0.882620801089502
30
0
41
1
10
-1.88427766240595
20
1.09995043784016
30
0
41
1
10
-1.84353399204588
20
1.53043779083347
30
0
41
1
10
-1.81907192909576
20
1.7435914590406
30
0
41
1
10
-1.76383853333438
20
2.16627904107367
30
0
41
1
10
-1.7330653294344
20
2.37581216989977
30
0
41
1
10
-1.7
20
2.58377729734613
30
0
0
SPLINE
5
14F
100
AcDbEntity
8
1
62
256
6
ByLayer
370
18
48
1
60
0
100
AcDbSpline
70
4
71
3
72
19
73
15
40
0
40
0
40
0
40
0
40
0.105598795309752
40
0.207133056768005
40
0.304606247524384
40
0.398022283830841
40
0.487385615464969
40
0.572701326119398
40
0.653975258965693
40
0.731214174678385
40
0.804425952125547
40
0.873619846082965
40
0.938806822394101
40
1
40
1
40
1
40
1
41
1
10
64.48236683062
20
-23.5169146481781
30
0
41
1
10
64.4761086181708
20
-23.5162950509147
30
0
41
1
10
64.463833074016
20
-23.5150797048991
30
0
41
1
10
64.4458128004535
20
-23.5129917878763
30
0
41
1
10
64.428539119221
20
-23.5107692859052
30
0
41
1
10
64.4120140189837
20
-23.508406487872
30
0
41
1
10
64.3962369707865
20
-23.5059226125369
30
0
41
1
10
64.3812080910702
20
-23.5033301067006
30
0
41
1
10
64.3669272661601
20
-23.500642836653
30
0
41
1
10
64.3533946416573
20
-23.4978730398514
30
0
41
1
10
64.3406095573258
20
-23.4950353238249
30
0
41
1
10
64.3285740432231
20
-23.4921343681174
30
0
41
1
10
64.3172808603108
20
-23.4892065803664
30
0
41
1
10
64.310034741972
20
-23.4871218545511
30
0
41
1
10
64.3065261768
20
-23.4861124318441
30
0
0
SPLINE
5
150
100
AcDbEntity
8
1
62
256
6
ByLayer
370
18
48
1
60
0
100
AcDbSpline
70
4
71
3
72
16
73
12
40
0
40
0
40
0
40
0
40
0.118227901208987
40
0.234676362797987
40
0.349345481218967
40
0.462235357484022
40
0.573346097457546
40
0.68267781217228
40
0.79023061817124
40
0.896004637878247
40
1
40
1
40
1
40
1
41
1
10
65.1702887043917
20
-23.5722653261451
30
0
41
1
10
65.1431521268268
20
-23.5704433162409
30
0
41
1
10
65.0892874023702
20
-23.5668267193723
30
0
41
1
10
65.009124713396
20
-23.5611121390679
30
0
41
1
10
64.9302034041844
20
-23.5552472925334
30
0
41
1
10
64.8525249527702
20
-23.5492180470504
30
0
41
1
10
64.7760890095594
20
-23.5430390245208
30
0
41
1
10
64.7008955277781
20
-23.5367190776925
30
0
41
1
10
64.6269450208379
20
-23.5302614208823
30
0
41
1
10
64.5542355274137
20
-23.5236960106469
30
0
41
1
10
64.5061872606909
20
-23.5191622883528
30
0
41
1
10
64.48236683059
20
-23.51691464817
30
0
0
SPLINE
5
151
100
AcDbEntity
8
1
62
256
6
ByLayer
370
18
48
1
60
0
100
AcDbSpline
70
4
71
2
72
10
73
7
40
0
40
0
40
0
40
0.5
40
0.5
40
0.75
40
0.75
40
1
40
1
40
1
41
1
10
65.1703211835004
20
-23.572267476262
30
0
41
1
10
65.4005090492969
20
-23.5875343736815
30
0
41
1
10
65.5813994958523
20
-23.6237416432629
30
0
41
1
10
65.6977168199743
20
-23.6470238717702
30
0
41
1
10
65.7815407125726
20
-23.6769810514917
30
0
41
1
10
65.9246417322624
20
-23.7281228301935
30
0
41
1
10
65.9499902265207
20
-23.789264413028
30
0
0
SPLINE
5
152
100
AcDbEntity
8
1
62
256
6
ByLayer
370
18
48
1
60
0
100
AcDbSpline
70
4
71
2
72
6
73
3
40
0
40
0
40
0
40
1
40
1
40
1
41
1
10
65.9499902266708
20
-23.789264412942
30
0
41
1
10
65.9884919085573
20
-23.8844087349086
30
0
41
1
10
65.9886043049807
20
-23.9799999993024
30
0
0
SPLINE
5
153
100
AcDbEntity
8
1
62
256
6
ByLayer
370
18
48
1
60
0
100
AcDbSpline
70
4
71
3
72
24
73
20
40
0
40
0
40
0
40
0
40
0.0615883759049718
40
0.12268825402469
40
0.183326299851625
40
0.243529792548011
40
0.303326606004191
40
0.362745186445309
40
0.421814526539186
40
0.480564136000261
40
0.539024008730861
40
0.59722458658511
40
0.655196719894211
40
0.712971624940742
40
0.770580838619273
40
0.828056170570643
40
0.88542965311991
40
0.94273348939061
40
1
40
1
40
1
40
1
41
1
10
65.94999022667
20
-24.210735587058
30
0
41
1
10
65.9514760409687
20
-24.2070098201942
30
0
41
1
10
65.9544358845988
20
-24.1995878379662
30
0
41
1
10
65.9585659721737
20
-24.1883783496833
30
0
41
1
10
65.9624450214134
20
-24.1771714868724
30
0
41
1
10
65.9660526456091
20
-24.16595887988
30
0
41
1
10
65.9693942359552
20
-24.1547431796984
30
0
41
1
10
65.9724683525929
20
-24.1435241178479
30
0
41
1
10
65.9752753669341
20
-24.1323022009938
30
0
41
1
10
65.9778151708743
20
-24.1210777311409
30
0
41
1
10
65.9800877810841
20
-24.1098510656213
30
0
41
1
10
65.9820931925112
20
-24.0986225480182
30
0
41
1
10
65.9838313661184
20
-24.0873925264579
30
0
41
1
10
65.9853024227051
20
-24.0761613486895
30
0
41
1
10
65.9865058842008
20
-24.064929363221
30
0
41
1
10
65.9874435045143
20
-24.0536969191887
30
0
41
1
10
65.9881087368338
20
-24.0424643651982
30
0
41
1
10
65.9885259471521
20
-24.031232053448
30
0
41
1
10
65.9885781913775
20
-24.0237432050217
30
0
41
1
10
65.98860430498
20
-24.0200000006976
30
0
0
SPLINE
5
154
100
AcDbEntity
8
1
62
256
6
ByLayer
370
18
48
1
60
0
100
AcDbSpline
70
4
71
3
72
43
73
39
40
0
40
0
40
0
40
0
40
0.040997340636662
40
0.0809092982715882
40
0.119736159842853
40
0.157478237047537
40
0.194135869264803
40
0.229709426921877
40
0.264199315386298
40
0.297605979485301
40
0.329929908777827
40
0.361171643733673
40
0.391331783012898
40
0.420410992088533
40
0.448410013519436
40
0.475329679265278
40
0.501170925548116
40
0.572592867093692
40
0.638080914696124
40
0.697670982799368
40
0.751410812475234
40
0.772779913618563
40
0.793234602755301
40
0.81278218174937
40
0.8314310180192
40
0.849190749344531
40
0.866072536338499
40
0.882089374987179
40
0.897256484840493
40
0.911591792130981
40
0.925116531009043
40
0.937855989439949
40
0.949840427402951
40
0.961106190504025
40
0.971697025976517
40
0.981665570834288
40
0.99107491140736
40
1
40
1
40
1
40
1
41
1
10
65.1703211835
20
-24.427732523738
30
0
41
1
10
65.1815955433722
20
-24.4269594666407
30
0
41
1
10
65.2038457803768
20
-24.4254338187256
30
0
41
1
10
65.2367474852616
20
-24.4228310595287
30
0
41
1
10
65.268734387051
20
-24.4200519476305
30
0
41
1
10
65.2998047803203
20
-24.4170870102301
30
0
41
1
10
65.3299591078148
20
-24.4139564894663
30
0
41
1
10
65.3591972610569
20
-24.4106726572971
30
0
41
1
10
65.3875192737298
20
-24.4072494639607
30
0
41
1
10
65.4149251441988
20
-24.4037000360555
30
0
41
1
10
65.4414148802485
20
-24.4000372922653
30
0
41
1
10
65.4669884910949
20
-24.3962737711221
30
0
41
1
10
65.4916459782106
20
-24.3924216377357
30
0
41
1
10
65.5153873786587
20
-24.3884927389845
30
0
41
1
10
65.538212610891
20
-24.3844983270722
30
0
41
1
10
65.5601220206574
20
-24.3804500062245
30
0
41
1
10
65.5937486984551
20
-24.3738926336811
30
0
41
1
10
65.6376602656581
20
-24.3644624374581
30
0
41
1
10
65.690314785579
20
-24.3514098214847
30
0
41
1
10
65.7378060332943
20
-24.3378403912217
30
0
41
1
10
65.7731644417989
20
-24.32617796038
30
0
41
1
10
65.7979490400554
20
-24.317027896295
30
0
41
1
10
65.8137384431464
20
-24.3108006967103
30
0
41
1
10
65.8286893772276
20
-24.3044920122776
30
0
41
1
10
65.8428019685624
20
-24.2981078739192
30
0
41
1
10
65.8560763753171
20
-24.2916544837687
30
0
41
1
10
65.8685127830692
20
-24.285137929982
30
0
41
1
10
65.8801114087742
20
-24.2785642357987
30
0
41
1
10
65.8908725094797
20
-24.2719393232201
30
0
41
1
10
65.9007963582658
20
-24.2652689783529
30
0
41
1
10
65.9098833178299
20
-24.258558848725
30
0
41
1
10
65.9181335453682
20
-24.2518142783929
30
0
41
1
10
65.9255478947299
20
-24.2450406620661
30
0
41
1
10
65.9321246317881
20
-24.238241999332
30
0
41
1
10
65.937870243827
20
-24.231425587599
30
0
41
1
10
65.9427620013418
20
-24.2245859033484
30
0
41
1
10
65.9468749657509
20
-24.2177598166444
30
0
41
1
10
65.9489702532908
20
-24.213035402863
30
0
41
1
10
65.94999022652
20
-24.210735586972
30
0
0
SPLINE
5
155
100
AcDbEntity
8
1
62
256
6
ByLayer
370
18
48
1
60
0
100
AcDbSpline
70
4
71
2
72
6
73
3
40
0
40
0
40
0
40
1
40
1
40
1
41
1
10
65.1702887043921
20
-24.4277346738575
30
0
41
1
10
64.819552783945
20
-24.4509625305676
30
0
41
1
10
64.4823668305908
20
-24.48308535183
30
0
0
SPLINE
5
156
100
AcDbEntity
8
1
62
256
6
ByLayer
370
18
48
1
60
0
100
AcDbSpline
70
4
71
2
72
6
73
3
40
0
40
0
40
0
40
1
40
1
40
1
41
1
10
64.4823668306204
20
-24.483085351822
30
0
41
1
10
64.3769907517283
20
-24.4931766319907
30
0
41
1
10
64.3065261768005
20
-24.513887568156
30
0
0
LINE
5
7D
100
AcDbEntity
8
1
62
256
6
ByLayer
370
18
48
1
60
0
100
AcDbLine
10
0
20
-19.7
30
0
11
0.3
21
-20
31
0
39
0
210
0
220
0
230
1
0
LINE
5
7E
100
AcDbEntity
8
1
62
256
6
ByLayer
370
18
48
1
60
0
100
AcDbLine
10
0.3
20
20
30
0
11
0
21
19.7
31
0
39
0
210
0
220
0
230
1
0
LINE
5
7F
100
AcDbEntity
8
1
62
256
6
ByLayer
370
18
48
1
60
0
100
AcDbLine
10
20
20
20
30
0
11
0.3
21
20
31
0
39
0
210
0
220
0
230
1
0
LINE
5
80
100
AcDbEntity
8
1
62
256
6
ByLayer
370
18
48
1
60
0
100
AcDbLine
10
0.3
20
-20
30
0
11
20.279208
21
-20
31
0
39
0
210
0
220
0
230
1
0
LINE
5
81
100
AcDbEntity
8
80
62
256
6
ByLayer
370
18
48
1
60
0
100
AcDbLine
10
0
20
0
30
0
11
-5
21
0
31
0
39
0
210
0
220
0
230
1
0
LINE
5
82
100
AcDbEntity
8
81
62
256
6
ByLayer
370
18
48
1
60
0
100
AcDbLine
10
70
20
-27
30
0
11
75
21
-27
31
0
39
0
210
0
220
0
230
1
0
LINE
5
83
100
AcDbEntity
8
1
62
256
6
ByLayer
370
18
48
1
60
0
100
AcDbLine
10
62.807219
20
-26.675
30
0
11
61.483456
21
-26.675
31
0
39
0
210
0
220
0
230
1
0
LINE
5
84
100
AcDbEntity
8
1
62
256
6
ByLayer
370
18
48
1
60
0
100
AcDbLine
10
64.177662
20
-26.675
30
0
11
62.807219
21
-26.675
31
0
39
0
210
0
220
0
230
1
0
LINE
5
85
100
AcDbEntity
8
1
62
256
6
ByLayer
370
18
48
1
60
0
100
AcDbLine
10
62.807219
20
-26.675
30
0
11
62.807085
21
-26.599996
31
0
39
0
210
0
220
0
230
1
0
LINE
5
86
100
AcDbEntity
8
1
62
256
6
ByLayer
370
18
48
1
60
0
100
AcDbLine
10
62.807219
20
-21.325
30
0
11
61.483456
21
-21.325
31
0
39
0
210
0
220
0
230
1
0
LINE
5
87
100
AcDbEntity
8
1
62
256
6
ByLayer
370
18
48
1
60
0
100
AcDbLine
10
64.177662
20
-21.325
30
0
11
62.807219
21
-21.325
31
0
39
0
210
0
220
0
230
1
0
LINE
5
88
100
AcDbEntity
8
1
62
256
6
ByLayer
370
18
48
1
60
0
100
AcDbLine
10
62.807085
20
-21.400004
30
0
11
62.807219
21
-21.325
31
0
39
0
210
0
220
0
230
1
0
LINE
5
89
100
AcDbEntity
8
1
62
256
6
ByLayer
370
18
48
1
60
0
100
AcDbLine
10
26.2
20
-26.675
30
0
11
23.072496
21
-26.675
31
0
39
0
210
0
220
0
230
1
0
LINE
5
8A
100
AcDbEntity
8
1
62
256
6
ByLayer
370
13
48
1
60
0
100
AcDbLine
10
26.2
20
-21.15
30
0
11
21.613642
21
-21.15
31
0
39
0
210
0
220
0
230
1
0
LINE
5
8B
100
AcDbEntity
8
1
62
256
6
ByLayer
370
18
48
1
60
0
100
AcDbLine
10
29.893237
20
-26.675
30
0
11
26.2
21
-26.675
31
0
39
0
210
0
220
0
230
1
0
LINE
5
8C
100
AcDbEntity
8
1
62
256
6
ByLayer
370
13
48
1
60
0
100
AcDbLine
10
26.2
20
-26.675
30
0
11
26.2
21
-21.15
31
0
39
0
210
0
220
0
230
1
0
LINE
5
8D
100
AcDbEntity
8
1
62
256
6
ByLayer
370
13
48
1
60
0
100
AcDbLine
10
26.2
20
-20.15
30
0
11
26.2
21
-21.15
31
0
39
0
210
0
220
0
230
1
0
LINE
5
8E
100
AcDbEntity
8
1
62
256
6
ByLayer
370
13
48
1
60
0
100
AcDbLine
10
29.893237
20
-21.15
30
0
11
26.2
21
-21.15
31
0
39
0
210
0
220
0
230
1
0
LINE
5
8F
100
AcDbEntity
8
1
62
256
6
ByLayer
370
18
48
1
60
0
100
AcDbLine
10
29.893237
20
-26.675
30
0
11
29.893237
21
-21.15
31
0
39
0
210
0
220
0
230
1
0
LINE
5
90
100
AcDbEntity
8
1
62
256
6
ByLayer
370
18
48
1
60
0
100
AcDbLine
10
29.893237
20
-26.675
30
0
11
30.279309
21
-26.675
31
0
39
0
210
0
220
0
230
1
0
LINE
5
91
100
AcDbEntity
8
1
62
256
6
ByLayer
370
18
48
1
60
0
100
AcDbLine
10
30.4
20
-26.675
30
0
11
30.279216
21
-26.675
31
0
39
0
210
0
220
0
230
1
0
LINE
5
92
100
AcDbEntity
8
1
62
256
6
ByLayer
370
18
48
1
60
0
100
AcDbLine
10
30.279216
20
-21.15
30
0
11
30.279216
21
-26.675
31
0
39
0
210
0
220
0
230
1
0
LINE
5
93
100
AcDbEntity
8
1
62
256
6
ByLayer
370
13
48
1
60
0
100
AcDbLine
10
30.4
20
-21.15
30
0
11
30.279216
21
-21.15
31
0
39
0
210
0
220
0
230
1
0
LINE
5
94
100
AcDbEntity
8
1
62
256
6
ByLayer
370
18
48
1
60
0
100
AcDbLine
10
58.5
20
-21.325
30
0
11
61.483437
21
-21.325
31
0
39
0
210
0
220
0
230
1
0
LINE
5
95
100
AcDbEntity
8
1
62
256
6
ByLayer
370
18
48
1
60
0
100
AcDbLine
10
58.5
20
-26.675
30
0
11
61.483437
21
-26.675
31
0
39
0
210
0
220
0
230
1
0
LINE
5
96
100
AcDbEntity
8
1
62
256
6
ByLayer
370
18
48
1
60
0
100
AcDbLine
10
61.483437
20
-21.325
30
0
11
61.508963
21
-21.486489
31
0
39
0
210
0
220
0
230
1
0
LINE
5
97
100
AcDbEntity
8
1
62
256
6
ByLayer
370
18
48
1
60
0
100
AcDbLine
10
61.508963
20
-26.513511
30
0
11
61.483437
21
-26.675
31
0
39
0
210
0
220
0
230
1
0
LINE
5
98
100
AcDbEntity
8
1
62
256
6
ByLayer
370
18
48
1
60
0
100
AcDbLine
10
62
20
-23.725031
30
0
11
62
21
-24.274969
31
0
39
0
210
0
220
0
230
1
0
LINE
5
99
100
AcDbEntity
8
1
62
256
6
ByLayer
370
18
48
1
60
0
100
AcDbLine
10
27.399843
20
-20.15
30
0
11
26.400157
21
-20.15
31
0
39
0
210
0
220
0
230
1
0
LINE
5
9A
100
AcDbEntity
8
1
62
256
6
ByLayer
370
18
48
1
60
0
100
AcDbLine
10
27.399843
20
15
30
0
11
26.400157
21
15
31
0
39
0
210
0
220
0
230
1
0
LINE
5
9B
100
AcDbEntity
8
1
62
256
6
ByLayer
370
18
48
1
60
0
100
AcDbLine
10
51.216445
20
-21.325
30
0
11
58.5
21
-21.325
31
0
39
0
210
0
220
0
230
1
0
LINE
5
9C
100
AcDbEntity
8
1
62
256
6
ByLayer
370
18
48
1
60
0
100
AcDbLine
10
51.216445
20
-26.675
30
0
11
58.5
21
-26.675
31
0
39
0
210
0
220
0
230
1
0
LINE
5
9D
100
AcDbEntity
8
1
62
256
6
ByLayer
370
18
48
1
60
0
100
AcDbLine
10
58.5
20
-21.325
30
0
11
58.5
21
-26.675
31
0
39
0
210
0
220
0
230
1
0
LINE
5
9E
100
AcDbEntity
8
1
62
256
6
ByLayer
370
18
48
1
60
0
100
AcDbLine
10
26.4
20
-20.15
30
0
11
24.051641
21
-20.15
31
0
39
0
210
0
220
0
230
1
0
LINE
5
9F
100
AcDbEntity
8
1
62
256
6
ByLayer
370
18
48
1
60
0
100
AcDbLine
10
24.051641
20
15
30
0
11
26.4
21
15
31
0
39
0
210
0
220
0
230
1
0
LINE
5
A0
100
AcDbEntity
8
1
62
256
6
ByLayer
370
18
48
1
60
0
100
AcDbLine
10
26.4
20
15
30
0
11
26.4
21
-20.15
31
0
39
0
210
0
220
0
230
1
0
LINE
5
A1
100
AcDbEntity
8
1
62
256
6
ByLayer
370
18
48
1
60
0
100
AcDbLine
10
29.4
20
-20.15
30
0
11
27.4
21
-20.15
31
0
39
0
210
0
220
0
230
1
0
LINE
5
A2
100
AcDbEntity
8
1
62
256
6
ByLayer
370
18
48
1
60
0
100
AcDbLine
10
27.4
20
15
30
0
11
36.9
21
15
31
0
39
0
210
0
220
0
230
1
0
LINE
5
A3
100
AcDbEntity
8
1
62
256
6
ByLayer
370
18
48
1
60
0
100
AcDbLine
10
27.4
20
-20.15
30
0
11
27.4
21
15
31
0
39
0
210
0
220
0
230
1
0
LINE
5
A4
100
AcDbEntity
8
1
62
256
6
ByLayer
370
18
48
1
60
0
100
AcDbLine
10
30.4
20
-26.675
30
0
11
30.4
21
-21.15
31
0
39
0
210
0
220
0
230
1
0
LINE
5
A5
100
AcDbEntity
8
1
62
256
6
ByLayer
370
18
48
1
60
0
100
AcDbLine
10
30.4
20
-26.675
30
0
11
51.216445
21
-26.675
31
0
39
0
210
0
220
0
230
1
0
LINE
5
A6
100
AcDbEntity
8
1
62
256
6
ByLayer
370
18
48
1
60
0
100
AcDbLine
10
51.216445
20
-26.675
30
0
11
51.216445
21
-21.325
31
0
39
0
210
0
220
0
230
1
0
LINE
5
A7
100
AcDbEntity
8
1
62
256
6
ByLayer
370
18
48
1
60
0
100
AcDbLine
10
50
20
-21.325
30
0
11
51.216445
21
-21.325
31
0
39
0
210
0
220
0
230
1
0
LINE
5
A8
100
AcDbEntity
8
1
62
256
6
ByLayer
370
18
48
1
60
0
100
AcDbLine
10
48.4
20
-7.35
30
0
11
48.4
21
-19.725
31
0
39
0
210
0
220
0
230
1
0
LINE
5
A9
100
AcDbEntity
8
1
62
256
6
ByLayer
370
18
48
1
60
0
100
AcDbLine
10
48.4
20
-7.35
30
0
11
36.9
21
15
31
0
39
0
210
0
220
0
230
1
0
LINE
5
AA
100
AcDbEntity
8
1
62
256
6
ByLayer
370
13
48
1
60
0
100
AcDbLine
10
21.438319
20
-17.713978
30
0
11
21.438319
21
-20.15
31
0
39
0
210
0
220
0
230
1
0
LINE
5
AB
100
AcDbEntity
8
1
62
256
6
ByLayer
370
13
48
1
60
0
100
AcDbLine
10
24.051641
20
15
30
0
11
24.051641
21
-20.15
31
0
39
0
210
0
220
0
230
1
0
LINE
5
AC
100
AcDbEntity
8
1
62
256
6
ByLayer
370
18
48
1
60
0
100
AcDbLine
10
24.051641
20
15
30
0
11
24.008879
21
15
31
0
39
0
210
0
220
0
230
1
0
LINE
5
AD
100
AcDbEntity
8
1
62
256
6
ByLayer
370
18
48
1
60
0
100
AcDbLine
10
21.953509
20
-20.15
30
0
11
24.051641
21
-20.15
31
0
39
0
210
0
220
0
230
1
0
LINE
5
AE
100
AcDbEntity
8
1
62
256
6
ByLayer
370
13
48
1
60
0
100
AcDbLine
10
9.076795
20
19.122283
30
0
11
9.076795
21
5.85989
31
0
39
0
210
0
220
0
230
1
0
LINE
5
AF
100
AcDbEntity
8
1
62
256
6
ByLayer
370
13
48
1
60
0
100
AcDbLine
10
9.336603
20
19.024574
30
0
11
9.336603
21
6.16973
31
0
39
0
210
0
220
0
230
1
0
LINE
5
B0
100
AcDbEntity
8
1
62
256
6
ByLayer
370
13
48
1
60
0
100
AcDbLine
10
6.663397
20
-6.16973
30
0
11
6.663397
21
-19.024574
31
0
39
0
210
0
220
0
230
1
0
LINE
5
B1
100
AcDbEntity
8
1
62
256
6
ByLayer
370
13
48
1
60
0
100
AcDbLine
10
6.923205
20
-5.85989
30
0
11
6.923205
21
-19.122283
31
0
39
0
210
0
220
0
230
1
0
LINE
5
B2
100
AcDbEntity
8
1
62
256
6
ByLayer
370
13
48
1
60
0
100
AcDbLine
10
9.076795
20
-5.85989
30
0
11
9.076795
21
-19.122283
31
0
39
0
210
0
220
0
230
1
0
LINE
5
B3
100
AcDbEntity
8
1
62
256
6
ByLayer
370
13
48
1
60
0
100
AcDbLine
10
9.336603
20
-6.16973
30
0
11
9.336603
21
-19.024574
31
0
39
0
210
0
220
0
230
1
0
LINE
5
B4
100
AcDbEntity
8
1
62
256
6
ByLayer
370
13
48
1
60
0
100
AcDbLine
10
6.663397
20
19.024574
30
0
11
6.663397
21
6.16973
31
0
39
0
210
0
220
0
230
1
0
LINE
5
B5
100
AcDbEntity
8
1
62
256
6
ByLayer
370
13
48
1
60
0
100
AcDbLine
10
6.923205
20
19.122283
30
0
11
6.923205
21
5.85989
31
0
39
0
210
0
220
0
230
1
0
LINE
5
B6
100
AcDbEntity
8
1
62
256
6
ByLayer
370
18
48
1
60
0
100
AcDbLine
10
0
20
19.7
30
0
11
0
21
-19.7
31
0
39
0
210
0
220
0
230
1
0
LINE
5
B7
100
AcDbEntity
8
1
62
256
6
ByLayer
370
13
48
1
60
0
100
AcDbLine
10
20.279208
20
17.554472
30
0
11
20.279208
21
15.392389
31
0
39
0
210
0
220
0
230
1
0
LINE
5
B8
100
AcDbEntity
8
1
62
256
6
ByLayer
370
18
48
1
60
0
100
AcDbLine
10
20.009031
20
18.965094
30
0
11
20
21
20
31
0
39
0
210
0
220
0
230
1
0
LINE
5
B9
100
AcDbEntity
8
1
62
256
6
ByLayer
370
13
48
1
60
0
100
AcDbLine
10
20.279208
20
-20
30
0
11
20.279208
21
-15.392389
31
0
39
0
210
0
220
0
230
1
0
LINE
5
BA
100
AcDbEntity
8
1
62
256
6
ByLayer
370
18
48
1
60
0
100
AcDbLine
10
0.3
20
20
30
0
11
0.3
21
-20
31
0
39
0
210
0
220
0
230
1
0
LINE
5
BB
100
AcDbEntity
8
1
62
256
6
ByLayer
370
18
48
1
60
0
100
AcDbLine
10
9.076795
20
-19.122283
30
0
11
6.923205
21
-19.122283
31
0
39
0
210
0
220
0
230
1
0
LINE
5
BC
100
AcDbEntity
8
1
62
256
6
ByLayer
370
18
48
1
60
0
100
AcDbLine
10
6.923205
20
-5.85989
30
0
11
9.076795
21
-5.85989
31
0
39
0
210
0
220
0
230
1
0
LINE
5
BD
100
AcDbEntity
8
1
62
256
6
ByLayer
370
18
48
1
60
0
100
AcDbLine
10
6.923205
20
19.122283
30
0
11
9.076795
21
19.122283
31
0
39
0
210
0
220
0
230
1
0
LINE
5
BE
100
AcDbEntity
8
1
62
256
6
ByLayer
370
18
48
1
60
0
100
AcDbLine
10
9.076795
20
5.85989
30
0
11
6.923205
21
5.85989
31
0
39
0
210
0
220
0
230
1
0
LINE
5
BF
100
AcDbEntity
8
1
62
256
6
ByLayer
370
13
48
1
60
0
100
AcDbLine
10
20.051793
20
-14.21876
30
0
11
20.051793
21
14.21876
31
0
39
0
210
0
220
0
230
1
0
LINE
5
C0
100
AcDbEntity
8
SK1
62
256
6
ByLayer
370
18
48
1
60
0
100
AcDbLine
10
-0.2
20
-14.083485
30
0
11
-0.2
21
-5.678452
31
0
39
0
210
0
220
0
230
1
0
LINE
5
C2
100
AcDbEntity
8
SK1
62
256
6
ByLayer
370
18
48
1
60
0
100
AcDbLine
10
-0.2
20
14.083485
30
0
11
-0.2
21
5.678452
31
0
39
0
210
0
220
0
230
1
0
LINE
5
C3
100
AcDbEntity
8
SK1
62
256
6
ByLayer
370
13
48
1
60
0
100
AcDbLine
10
-1.307107
20
3.628532
30
0
11
-1.307107
21
-3.628534
31
0
39
0
210
0
220
0
230
1
0
LINE
5
C4
100
AcDbEntity
8
1
62
256
6
ByLayer
370
18
48
1
60
0
100
AcDbLine
10
69.576744
20
-27.016197
30
0
11
67.568682
21
-26.899253
31
0
39
0
210
0
220
0
230
1
0
LINE
5
C5
100
AcDbEntity
8
1
62
256
6
ByLayer
370
18
48
1
60
0
100
AcDbLine
10
69.576744
20
-20.983803
30
0
11
67.568682
21
-21.100747
31
0
39
0
210
0
220
0
230
1
0
LINE
5
C6
100
AcDbEntity
8
1
62
256
6
ByLayer
370
18
48
1
60
0
100
AcDbLine
10
70
20
-21.383126
30
0
11
70
21
-26.616874
31
0
39
0
210
0
220
0
230
1
0
LINE
5
C7
100
AcDbEntity
8
1
62
256
6
ByLayer
370
18
48
1
60
0
100
AcDbLine
10
45.423256
20
-27.016197
30
0
11
47.431318
21
-26.899253
31
0
39
0
210
0
220
0
230
1
0
LINE
5
C8
100
AcDbEntity
8
1
62
256
6
ByLayer
370
18
48
1
60
0
100
AcDbLine
10
47.431318
20
-26.899253
30
0
11
47.856927
21
-26.921078
31
0
39
0
210
0
220
0
230
1
0
LINE
5
C9
100
AcDbEntity
8
1
62
256
6
ByLayer
370
18
48
1
60
0
100
AcDbLine
10
47.431318
20
-26.674923
30
0
11
47.431318
21
-26.899253
31
0
39
0
210
0
220
0
230
1
0
LINE
5
CA
100
AcDbEntity
8
1
62
256
6
ByLayer
370
18
48
1
60
0
100
AcDbLine
10
67.568682
20
-26.899253
30
0
11
67.143073
21
-26.921078
31
0
39
0
210
0
220
0
230
1
0
LINE
5
CB
100
AcDbEntity
8
1
62
256
6
ByLayer
370
18
48
1
60
0
100
AcDbLine
10
67.568682
20
-21.100747
30
0
11
67.143073
21
-21.078922
31
0
39
0
210
0
220
0
230
1
0
LINE
5
CC
100
AcDbEntity
8
1
62
256
6
ByLayer
370
18
48
1
60
0
100
AcDbLine
10
67.568682
20
-21.100747
30
0
11
67.568682
21
-26.899253
31
0
39
0
210
0
220
0
230
1
0
LINE
5
CD
100
AcDbEntity
8
1
62
256
6
ByLayer
370
13
48
1
60
0
100
AcDbLine
10
61.999889
20
-24.02
30
0
11
65.988604
21
-24.02
31
0
39
0
210
0
220
0
230
1
0
LINE
5
CE
100
AcDbEntity
8
1
62
256
6
ByLayer
370
13
48
1
60
0
100
AcDbLine
10
61.999889
20
-23.98
30
0
11
65.988604
21
-23.98
31
0
39
0
210
0
220
0
230
1
0
LINE
5
CF
100
AcDbEntity
8
1
62
256
6
ByLayer
370
13
48
1
60
0
100
AcDbLine
10
61.999884
20
-24.210736
30
0
11
65.94999
21
-24.210736
31
0
39
0
210
0
220
0
230
1
0
LINE
5
D0
100
AcDbEntity
8
1
62
256
6
ByLayer
370
13
48
1
60
0
100
AcDbLine
10
61.999884
20
-23.789264
30
0
11
65.94999
21
-23.789264
31
0
39
0
210
0
220
0
230
1
0
LINE
5
D1
100
AcDbEntity
8
1
62
256
6
ByLayer
370
13
48
1
60
0
100
AcDbLine
10
65.170287
20
-23.572267
30
0
11
61.910655
21
-23.572267
31
0
39
0
210
0
220
0
230
1
0
LINE
5
D2
100
AcDbEntity
8
1
62
256
6
ByLayer
370
13
48
1
60
0
100
AcDbLine
10
65.170287
20
-24.427733
30
0
11
61.910655
21
-24.427733
31
0
39
0
210
0
220
0
230
1
0
LINE
5
D3
100
AcDbEntity
8
1
62
256
6
ByLayer
370
13
48
1
60
0
100
AcDbLine
10
64.482367
20
-24.483085
30
0
11
61.806266
21
-24.483085
31
0
39
0
210
0
220
0
230
1
0
LINE
5
D4
100
AcDbEntity
8
1
62
256
6
ByLayer
370
13
48
1
60
0
100
AcDbLine
10
64.482367
20
-23.516915
30
0
11
61.806266
21
-23.516915
31
0
39
0
210
0
220
0
230
1
0
LINE
5
D5
100
AcDbEntity
8
1
62
256
6
ByLayer
370
13
48
1
60
0
100
AcDbLine
10
61.77269
20
-24.513888
30
0
11
64.306526
21
-24.513888
31
0
39
0
210
0
220
0
230
1
0
LINE
5
D6
100
AcDbEntity
8
1
62
256
6
ByLayer
370
13
48
1
60
0
100
AcDbLine
10
61.772584
20
-23.486112
30
0
11
64.306526
21
-23.486112
31
0
39
0
210
0
220
0
230
1
0
LINE
5
D7
100
AcDbEntity
8
1
62
256
6
ByLayer
370
13
48
1
60
0
100
AcDbLine
10
63.995391
20
-24.605665
30
0
11
61.761382
21
-24.605665
31
0
39
0
210
0
220
0
230
1
0
LINE
5
D8
100
AcDbEntity
8
1
62
256
6
ByLayer
370
13
48
1
60
0
100
AcDbLine
10
63.995391
20
-23.394335
30
0
11
61.760976
21
-23.394335
31
0
39
0
210
0
220
0
230
1
0
LINE
5
D9
100
AcDbEntity
8
1
62
256
6
ByLayer
370
13
48
1
60
0
100
AcDbLine
10
63.90992
20
-24.649934
30
0
11
61.755786
21
-24.649934
31
0
39
0
210
0
220
0
230
1
0
LINE
5
DA
100
AcDbEntity
8
1
62
256
6
ByLayer
370
13
48
1
60
0
100
AcDbLine
10
63.90992
20
-23.350066
30
0
11
61.755586
21
-23.350066
31
0
39
0
210
0
220
0
230
1
0
LINE
5
DB
100
AcDbEntity
8
1
62
256
6
ByLayer
370
18
48
1
60
0
100
AcDbLine
10
62.611484
20
-21.4
30
0
11
61.495264
21
-21.4
31
0
39
0
210
0
220
0
230
1
0
LINE
5
DC
100
AcDbEntity
8
1
62
256
6
ByLayer
370
18
48
1
60
0
100
AcDbLine
10
62.611484
20
-26.6
30
0
11
61.495264
21
-26.6
31
0
39
0
210
0
220
0
230
1
0
LINE
5
DD
100
AcDbEntity
8
1
62
256
6
ByLayer
370
18
48
1
60
0
100
AcDbLine
10
50.532489
20
-21.167091
30
0
11
50.822433
21
-21.325
31
0
39
0
210
0
220
0
230
1
0
LINE
5
DE
100
AcDbEntity
8
1
62
256
6
ByLayer
370
18
48
1
60
0
100
AcDbLine
10
50.532489
20
-21.167091
30
0
11
49.223512
21
-21.123956
31
0
39
0
210
0
220
0
230
1
0
LINE
5
DF
100
AcDbEntity
8
1
62
256
6
ByLayer
370
18
48
1
60
0
100
AcDbLine
10
47.856927
20
-26.921078
30
0
11
47.856927
21
-26.674977
31
0
39
0
210
0
220
0
230
1
0
LINE
5
E0
100
AcDbEntity
8
1
62
256
6
ByLayer
370
18
48
1
60
0
100
AcDbLine
10
50.532489
20
-26.832909
30
0
11
47.856927
21
-26.921078
31
0
39
0
210
0
220
0
230
1
0
LINE
5
E1
100
AcDbEntity
8
1
62
256
6
ByLayer
370
18
48
1
60
0
100
AcDbLine
10
50.532489
20
-26.832909
30
0
11
50.822433
21
-26.675
31
0
39
0
210
0
220
0
230
1
0
LINE
5
E2
100
AcDbEntity
8
1
62
256
6
ByLayer
370
13
48
1
60
0
100
AcDbLine
10
62.618068
20
-21.658616
30
0
11
61.532878
21
-21.658616
31
0
39
0
210
0
220
0
230
1
0
LINE
5
E3
100
AcDbEntity
8
1
62
256
6
ByLayer
370
13
48
1
60
0
100
AcDbLine
10
62.611484
20
-21.641251
30
0
11
61.530405
21
-21.641251
31
0
39
0
210
0
220
0
230
1
0
LINE
5
E4
100
AcDbEntity
8
1
62
256
6
ByLayer
370
13
48
1
60
0
100
AcDbLine
10
62.611484
20
-26.358749
30
0
11
61.530405
21
-26.358749
31
0
39
0
210
0
220
0
230
1
0
LINE
5
E5
100
AcDbEntity
8
1
62
256
6
ByLayer
370
13
48
1
60
0
100
AcDbLine
10
62.618068
20
-26.341384
30
0
11
61.532718
21
-26.341384
31
0
39
0
210
0
220
0
230
1
0
LINE
5
E6
100
AcDbEntity
8
1
62
256
6
ByLayer
370
18
48
1
60
0
100
AcDbLine
10
63.90992
20
-23.350066
30
0
11
62.618066
21
-21.658618
31
0
39
0
210
0
220
0
230
1
0
LINE
5
E7
100
AcDbEntity
8
1
62
256
6
ByLayer
370
18
48
1
60
0
100
AcDbLine
10
64.306526
20
-23.486112
30
0
11
63.995391
21
-23.394335
31
0
39
0
210
0
220
0
230
1
0
LINE
5
E8
100
AcDbEntity
8
1
62
256
6
ByLayer
370
18
48
1
60
0
100
AcDbLine
10
65.988604
20
-23.98
30
0
11
65.988604
21
-24.02
31
0
39
0
210
0
220
0
230
1
0
LINE
5
E9
100
AcDbEntity
8
1
62
256
6
ByLayer
370
18
48
1
60
0
100
AcDbLine
10
64.306526
20
-24.513888
30
0
11
63.995391
21
-24.605665
31
0
39
0
210
0
220
0
230
1
0
LINE
5
EA
100
AcDbEntity
8
1
62
256
6
ByLayer
370
18
48
1
60
0
100
AcDbLine
10
63.90992
20
-24.649934
30
0
11
62.618066
21
-26.341382
31
0
39
0
210
0
220
0
230
1
0
LINE
5
EB
100
AcDbEntity
8
1
62
256
6
ByLayer
370
18
48
1
60
0
100
AcDbLine
10
62.611484
20
-26.358749
30
0
11
62.611484
21
-26.6
31
0
39
0
210
0
220
0
230
1
0
LINE
5
EC
100
AcDbEntity
8
1
62
256
6
ByLayer
370
18
48
1
60
0
100
AcDbLine
10
64.039855
20
-26.6
30
0
11
62.611484
21
-26.6
31
0
39
0
210
0
220
0
230
1
0
LINE
5
ED
100
AcDbEntity
8
1
62
256
6
ByLayer
370
18
48
1
60
0
100
AcDbLine
10
64.467511
20
-26.832909
30
0
11
64.039855
21
-26.6
31
0
39
0
210
0
220
0
230
1
0
LINE
5
EE
100
AcDbEntity
8
1
62
256
6
ByLayer
370
18
48
1
60
0
100
AcDbLine
10
64.467511
20
-26.832909
30
0
11
67.143073
21
-26.921078
31
0
39
0
210
0
220
0
230
1
0
LINE
5
EF
100
AcDbEntity
8
1
62
256
6
ByLayer
370
18
48
1
60
0
100
AcDbLine
10
67.143073
20
-26.921078
30
0
11
67.143073
21
-21.078922
31
0
39
0
210
0
220
0
230
1
0
LINE
5
F0
100
AcDbEntity
8
1
62
256
6
ByLayer
370
18
48
1
60
0
100
AcDbLine
10
64.467511
20
-21.167091
30
0
11
67.143073
21
-21.078922
31
0
39
0
210
0
220
0
230
1
0
LINE
5
F1
100
AcDbEntity
8
1
62
256
6
ByLayer
370
18
48
1
60
0
100
AcDbLine
10
64.467511
20
-21.167091
30
0
11
64.039855
21
-21.4
31
0
39
0
210
0
220
0
230
1
0
LINE
5
F2
100
AcDbEntity
8
1
62
256
6
ByLayer
370
18
48
1
60
0
100
AcDbLine
10
64.039855
20
-21.4
30
0
11
62.611484
21
-21.4
31
0
39
0
210
0
220
0
230
1
0
LINE
5
F3
100
AcDbEntity
8
1
62
256
6
ByLayer
370
18
48
1
60
0
100
AcDbLine
10
62.611484
20
-21.641251
30
0
11
62.611484
21
-21.4
31
0
39
0
210
0
220
0
230
1
0
LINE
5
F4
100
AcDbEntity
8
SK2
62
256
6
ByLayer
370
18
48
1
60
0
100
AcDbLine
10
-33.975
20
-20
30
0
11
-33.975
21
20
31
0
39
0
210
0
220
0
230
1
0
LINE
5
F6
100
AcDbEntity
8
SK2
62
256
6
ByLayer
370
18
48
1
60
0
100
AcDbLine
10
-1.2875
20
20
30
0
11
-35.975
21
20
31
0
39
0
210
0
220
0
230
1
0
LINE
5
F7
100
AcDbEntity
8
SK2
62
256
6
ByLayer
370
18
48
1
60
0
100
AcDbLine
10
-1.2875
20
-20
30
0
11
-35.975
21
-20
31
0
39
0
210
0
220
0
230
1
0
LINE
5
F8
100
AcDbEntity
8
1
62
256
6
ByLayer
370
18
48
1
60
1
100
AcDbLine
10
-33.975
20
20
30
0
11
-33.514216
21
16.500002
31
0
39
0
210
0
220
0
230
1
0
LINE
5
F9
100
AcDbEntity
8
1
62
256
6
ByLayer
370
18
48
1
60
1
100
AcDbLine
10
-33.514216
20
16.500002
30
0
11
-34.435784
21
16.499998
31
0
39
0
210
0
220
0
230
1
0
LINE
5
FA
100
AcDbEntity
8
1
62
256
6
ByLayer
370
18
48
1
60
1
100
AcDbLine
10
-34.435784
20
16.499998
30
0
11
-33.975
21
20
31
0
39
0
210
0
220
0
230
1
0
LINE
5
FB
100
AcDbEntity
8
1
62
256
6
ByLayer
370
18
48
1
60
1
100
AcDbLine
10
-33.975
20
-20
30
0
11
-34.435784
21
-16.500002
31
0
39
0
210
0
220
0
230
1
0
LINE
5
FC
100
AcDbEntity
8
1
62
256
6
ByLayer
370
18
48
1
60
1
100
AcDbLine
10
-34.435784
20
-16.500002
30
0
11
-33.514216
21
-16.499998
31
0
39
0
210
0
220
0
230
1
0
LINE
5
FD
100
AcDbEntity
8
1
62
256
6
ByLayer
370
18
48
1
60
1
100
AcDbLine
10
-33.514216
20
-16.499998
30
0
11
-33.975
21
-20
31
0
39
0
210
0
220
0
230
1
0
LINE
5
15B
100
AcDbEntity
8
1
62
256
6
ByLayer
370
18
48
1
60
1
100
AcDbLine
10
-33.975
20
20
30
0
11
-33.514216
21
16.500002
31
0
39
0
210
0
220
0
230
1
0
LINE
5
15C
100
AcDbEntity
8
1
62
256
6
ByLayer
370
18
48
1
60
1
100
AcDbLine
10
-33.514216
20
16.500002
30
0
11
-34.435784
21
16.499998
31
0
39
0
210
0
220
0
230
1
0
LINE
5
15D
100
AcDbEntity
8
1
62
256
6
ByLayer
370
18
48
1
60
1
100
AcDbLine
10
-34.435784
20
16.499998
30
0
11
-33.975
21
20
31
0
39
0
210
0
220
0
230
1
0
LINE
5
15F
100
AcDbEntity
8
1
62
256
6
ByLayer
370
18
48
1
60
1
100
AcDbLine
10
-33.975
20
-20
30
0
11
-34.435784
21
-16.500002
31
0
39
0
210
0
220
0
230
1
0
LINE
5
160
100
AcDbEntity
8
1
62
256
6
ByLayer
370
18
48
1
60
1
100
AcDbLine
10
-34.435784
20
-16.500002
30
0
11
-33.514216
21
-16.499998
31
0
39
0
210
0
220
0
230
1
0
LINE
5
161
100
AcDbEntity
8
1
62
256
6
ByLayer
370
18
48
1
60
1
100
AcDbLine
10
-33.514216
20
-16.499998
30
0
11
-33.975
21
-20
31
0
39
0
210
0
220
0
230
1
0
MTEXT
5
157
100
AcDbEntity
8
SK2
62
256
6
ByLayer
370
18
48
1
60
0
100
AcDbMText
10
-35.539634
20
-4.714889
30
0
210
0
220
0
230
1
1
%%c
40
3.5
41
0
44
1.084337
50
90
71
7
72
5
7
iso_b_vert
0
MTEXT
5
15A
100
AcDbEntity
8
SK2
62
256
6
ByLayer
370
18
48
1
60
0
100
AcDbMText
10
-35.539634
20
2.257767
30
0
210
0
220
0
230
1
1
\W0.7361;40
40
3.5
41
0
44
1.084337
50
90
71
7
72
5
7
iso_b_vert
0
MTEXT
5
163
100
AcDbEntity
8
SK6
62
256
6
ByLayer
370
18
48
1
60
0
100
AcDbMText
10
-9.3145
20
-57.725803
30
0
210
0
220
0
230
1
1
\W0.7582;C2R-CC4-LK20CB
40
3.5
41
0
44
1.084337
50
0
71
7
72
5
7
iso_b_vert
0
HATCH
5
15E
100
AcDbEntity
8
SK2
62
256
6
ByLayer
370
13
48
1
60
0
100
AcDbHatch
10
0
20
0
30
0
210
0
220
0
230
1
2
ANSI31
70
0
71
0
91
1
92
5
93
3
72
1
10
-33.9750000000001
20
20
11
-33.5142162584473
21
16.5000016925532
72
1
10
-33.5142162584473
20
16.5000016925532
11
-34.4357837415529
21
16.4999983074468
72
1
10
-34.4357837415529
20
16.4999983074468
11
-33.9750000000001
21
20
97
0
75
0
76
1
52
0
41
0.0062
77
0
78
1
53
45
43
0
44
0
45
-0.0139193969876572
46
0.0139193969876572
79
0
47
0
98
1
10
0
20
0
0
HATCH
5
162
100
AcDbEntity
8
SK2
62
256
6
ByLayer
370
13
48
1
60
0
100
AcDbHatch
10
0
20
0
30
0
210
0
220
0
230
1
2
ANSI31
70
0
71
0
91
1
92
5
93
3
72
1
10
-33.9750000000001
20
-20
11
-34.4357837415529
21
-16.5000016925532
72
1
10
-34.4357837415529
20
-16.5000016925532
11
-33.5142162584473
21
-16.4999983074468
72
1
10
-33.5142162584473
20
-16.4999983074468
11
-33.9750000000001
21
-20
97
0
75
0
76
1
52
0
41
0.0062
77
0
78
1
53
45
43
0
44
0
45
-0.0139193969876572
46
0.0139193969876572
79
0
47
0
98
1
10
0
20
0
0
DIMENSION
5
166
100
AcDbEntity
8
2
62
256
6
ByLayer
370
18
48
1
60
0
100
AcDbDimension
2
_U0
10
101.1
20
0
30
0
11
101.1
21
-13.5
31
0
70
32
71
1
72
1
41
1
210
0
220
0
230
1
3
Standard
100
AcDbAlignedDimension
13
70
23
-27
33
0
14
0
24
0
34
0
50
90
100
AcDbRotatedDimension
1001
ACAD
1000
DSTYLE
1002
{
1070
   371
1070
    13
1070
   372
1070
    13
1070
   170
1070
     0
1070
   144
1040
1.0
1070
   277
1070
     2
1070
   284
1070
     8
1070
   278
1070
    46
1070
   146
1040
1.0
1070
   345
1005
16
1070
   347
1005
16
1070
   346
1005
16
1070
   344
1005
0
1070
   343
1005
0
1070
   172
1070
     1
1070
    76
1070
     0
1070
    75
1070
     0
1070
   282
1070
     0
1070
   281
1070
     0
1070
    71
1070
     0
1070
    74
1070
     0
1070
   279
1070
     0
1070
   173
1070
     1
1070
   340
1005
158
1070
   271
1070
     1
1070
   272
1070
     2
1070
    77
1070
     1
1070
    73
1070
     0
1070
   171
1070
     3
1070
   274
1070
     4
1070
   177
1070
     2
1070
   176
1070
     2
1070
   178
1070
     2
1070
    78
1070
     8
1070
    48
1040
-0.1
1070
    41
1040
3.5
1070
   147
1040
1.75
1070
    42
1040
1.5875
1070
    44
1040
2.0
1070
   140
1040
3.5
1002
}
1001
ACAD_DSTYLE_DIM_LINETYPE
1070
   380
1005
16
1001
ACAD_DSTYLE_DIM_EXT1_LINETYPE
1070
   381
1005
16
1001
ACAD_DSTYLE_DIM_EXT2_LINETYPE
1070
   382
1005
16
0
DIMENSION
5
180
100
AcDbEntity
8
2
62
256
6
ByLayer
370
18
48
1
60
0
100
AcDbDimension
2
_U1
10
90.1
20
-27
30
0
11
90.1
21
-24
31
0
70
32
71
1
72
1
41
1
210
0
220
0
230
1
3
Standard
100
AcDbAlignedDimension
13
70
23
-21
33
0
14
70
24
-27
34
0
50
90
100
AcDbRotatedDimension
1001
ACAD
1000
DSTYLE
1002
{
1070
   371
1070
    13
1070
   372
1070
    13
1070
   170
1070
     0
1070
   144
1040
1.0
1070
   277
1070
     2
1070
   284
1070
     8
1070
   278
1070
    46
1070
   146
1040
1.0
1070
   345
1005
16
1070
   347
1005
16
1070
   346
1005
16
1070
   344
1005
0
1070
   343
1005
0
1070
   172
1070
     1
1070
    76
1070
     0
1070
    75
1070
     0
1070
   282
1070
     0
1070
   281
1070
     0
1070
    71
1070
     0
1070
    74
1070
     0
1070
   279
1070
     0
1070
   173
1070
     1
1070
   340
1005
158
1070
   271
1070
     1
1070
   272
1070
     2
1070
    77
1070
     1
1070
    73
1070
     0
1070
   171
1070
     3
1070
   274
1070
     4
1070
   177
1070
     2
1070
   176
1070
     2
1070
   178
1070
     2
1070
    78
1070
     8
1070
    48
1040
-0.1
1070
    41
1040
3.5
1070
   147
1040
1.75
1070
    42
1040
1.5875
1070
    44
1040
2.0
1070
   140
1040
3.5
1002
}
1001
ACAD_DSTYLE_DIM_LINETYPE
1070
   380
1005
16
1001
ACAD_DSTYLE_DIM_EXT1_LINETYPE
1070
   381
1005
16
1001
ACAD_DSTYLE_DIM_EXT2_LINETYPE
1070
   382
1005
16
0
DIMENSION
5
199
100
AcDbEntity
8
2
62
256
6
ByLayer
370
18
48
1
60
0
100
AcDbDimension
2
_U2
10
70
20
16.925
30
0
11
60
21
16.925
31
0
70
32
71
1
72
1
41
1
210
0
220
0
230
1
3
Standard
100
AcDbAlignedDimension
13
50
23
-21.325
33
0
14
70
24
-21
34
0
50
0
100
AcDbRotatedDimension
1001
ACAD
1000
DSTYLE
1002
{
1070
   371
1070
    13
1070
   372
1070
    13
1070
   170
1070
     0
1070
   144
1040
1.0
1070
   277
1070
     2
1070
   284
1070
     8
1070
   278
1070
    46
1070
   146
1040
1.0
1070
   345
1005
16
1070
   347
1005
16
1070
   346
1005
16
1070
   344
1005
0
1070
   343
1005
0
1070
   172
1070
     1
1070
    76
1070
     0
1070
    75
1070
     0
1070
   282
1070
     0
1070
   281
1070
     0
1070
    71
1070
     0
1070
    74
1070
     0
1070
   279
1070
     0
1070
   173
1070
     1
1070
   340
1005
158
1070
   271
1070
     1
1070
   272
1070
     2
1070
    77
1070
     1
1070
    73
1070
     1
1070
   171
1070
     3
1070
   274
1070
     4
1070
   177
1070
     2
1070
   176
1070
     2
1070
   178
1070
     2
1070
    78
1070
     8
1070
    48
1040
-0.1
1070
    41
1040
3.5
1070
   147
1040
1.75
1070
    42
1040
1.5875
1070
    44
1040
2.0
1070
   140
1040
3.5
1002
}
1001
ACAD_DSTYLE_DIM_LINETYPE
1070
   380
1005
16
1001
ACAD_DSTYLE_DIM_EXT1_LINETYPE
1070
   381
1005
16
1001
ACAD_DSTYLE_DIM_EXT2_LINETYPE
1070
   382
1005
16
0
DIMENSION
5
1B1
100
AcDbEntity
8
2
62
256
6
ByLayer
370
18
48
1
60
0
100
AcDbDimension
2
_U3
10
70
20
-45.75
30
0
11
35
21
-45.75
31
0
70
32
71
1
72
1
41
1
210
0
220
0
230
1
3
Standard
100
AcDbAlignedDimension
13
0
23
0
33
0
14
70
24
-27
34
0
50
0
100
AcDbRotatedDimension
1001
ACAD
1000
DSTYLE
1002
{
1070
   371
1070
    13
1070
   372
1070
    13
1070
   170
1070
     0
1070
   144
1040
1.0
1070
   277
1070
     2
1070
   284
1070
     8
1070
   278
1070
    46
1070
   146
1040
1.0
1070
   345
1005
16
1070
   347
1005
16
1070
   346
1005
16
1070
   344
1005
0
1070
   343
1005
0
1070
   172
1070
     1
1070
    76
1070
     0
1070
    75
1070
     0
1070
   282
1070
     0
1070
   281
1070
     0
1070
    71
1070
     0
1070
    74
1070
     0
1070
   279
1070
     0
1070
   173
1070
     1
1070
   340
1005
158
1070
   271
1070
     1
1070
   272
1070
     2
1070
    77
1070
     1
1070
    73
1070
     1
1070
   171
1070
     3
1070
   274
1070
     4
1070
   177
1070
     2
1070
   176
1070
     2
1070
   178
1070
     2
1070
    78
1070
     8
1070
    48
1040
-0.1
1070
    41
1040
3.5
1070
   147
1040
1.75
1070
    42
1040
1.5875
1070
    44
1040
2.0
1070
   140
1040
3.5
1002
}
1001
ACAD_DSTYLE_DIM_LINETYPE
1070
   380
1005
16
1001
ACAD_DSTYLE_DIM_EXT1_LINETYPE
1070
   381
1005
16
1001
ACAD_DSTYLE_DIM_EXT2_LINETYPE
1070
   382
1005
16
0
ENDSEC
0
SECTION
2
OBJECTS
0
DICTIONARY
5
238
330
0
100
AcDbDictionary
280
0
281
1
3
ACAD_GROUP
350
239
3
ACAD_MLINESTYLE
350
23a
0
DICTIONARY
5
239
330
0
100
AcDbDictionary
280
0
281
1
0
DICTIONARY
5
23a
330
0
100
AcDbDictionary
280
0
281
1
3
Standard
350
18
0
MLINESTYLE
5
18
330
23a
100
AcDbMlineStyle
2
Standard
70
0
3

62
256
51
90
52
90
71
2
49
-0.5
62
256
6
ByLayer
49
0.5
62
256
6
ByLayer
0
RASTERVARIABLES
5
227
330

100
AcDbRasterVariables
90
0
70
1
71
1
72
1
0
ENDSEC
0
EOF
