0
SECTION
2
HEADER
9
$ACADVER
1
AC1015
9
$DWGCODEPAGE
3
ANSI_1252
9
$HANDSEED
5
23d
9
$ANGBASE
50
0
9
$ANGDIR
70
0
9
$ATTMODE
70
1
9
$AUNITS
70
0
9
$AUPREC
70
0
9
$CECOLOR
62
256
9
$CELTSCALE
40
1
9
$CELTYPE
6
ByLayer
9
$CELWEIGHT
370
18
9
$CLAYER
8
0
9
$CMLJUST
70
0
9
$CMLSCALE
40
1
9
$CMLSTYLE
2
Standard
9
$DIMSTYLE
2
Standard
9
$TEXTSIZE
40
0.2
9
$TEXTSTYLE
7
Standard
9
$LUNITS
70
2
9
$LUPREC
70
4
9
$EXTNAMES
290
1
9
$INSUNITS
70
4
9
$LTSCALE
40
1
9
$LWDISPLAY
290
1
9
$PDMODE
70
0
9
$PDSIZE
40
0
9
$PLINEGEN
70
0
0
ENDSEC
0
SECTION
2
CLASSES
0
CLASS
1
RASTERVARIABLES
2
AcDbRasterVariables
3
ISM
90
0
280
0
281
0
0
ENDSEC
0
SECTION
2
TABLES
0
TABLE
2
VPORT
5
233
100
AcDbSymbolTable
0
VPORT
5
1
100
AcDbSymbolTableRecord
100
AcDbViewportTableRecord
2
*Active
70
0
10
0
20
0
11
1
21
1
12
-1
22
1
13
0
23
0
14
0.5
24
0.5
15
10
25
10
16
0
26
0
36
1
17
0
27
0
37
0
0
ENDTAB
0
TABLE
2
LTYPE
5
234
100
AcDbSymbolTable
0
LTYPE
5
14
100
AcDbSymbolTableRecord
100
AcDbLinetypeTableRecord
70
0
2
ByBlock
3

72
65
73
0
40
0
0
LTYPE
5
15
100
AcDbSymbolTableRecord
100
AcDbLinetypeTableRecord
70
0
2
ByLayer
3

72
65
73
0
40
0
0
LTYPE
5
16
100
AcDbSymbolTableRecord
100
AcDbLinetypeTableRecord
70
0
2
Continuous
3
Solid line
72
65
73
0
40
0
0
LTYPE
5
6E
100
AcDbSymbolTableRecord
100
AcDbLinetypeTableRecord
70
0
2
CENTER
3
____ _ ____ _ ____ _ ____
72
65
73
4
40
47.5
49
22
74
0
49
-8.5
74
0
49
8.5
74
0
49
-8.5
74
0
0
LTYPE
5
6F
100
AcDbSymbolTableRecord
100
AcDbLinetypeTableRecord
70
0
2
DASHED
3
__ __ __ __ __ __ __ __ __
72
65
73
2
40
25.72
49
12.86
74
0
49
-12.86
74
0
0
ENDTAB
0
TABLE
2
LAYER
5
235
100
AcDbSymbolTable
0
LAYER
5
10
100
AcDbSymbolTableRecord
100
AcDbLayerTableRecord
2
0
70
0
62
7
6
Continuous
290
1
370
-3
390
0
0
LAYER
5
71
100
AcDbSymbolTableRecord
100
AcDbLayerTableRecord
2
80
70
0
62
-6
6
Continuous
290
1
370
-3
390
0
0
LAYER
5
73
100
AcDbSymbolTableRecord
100
AcDbLayerTableRecord
2
81
70
0
62
-3
6
Continuous
290
1
370
-3
390
0
0
LAYER
5
75
100
AcDbSymbolTableRecord
100
AcDbLayerTableRecord
2
1
70
0
62
4
6
Continuous
290
1
370
-3
390
0
0
LAYER
5
161
100
AcDbSymbolTableRecord
100
AcDbLayerTableRecord
2
Defpoints
70
0
62
7
6
Continuous
290
0
370
-3
390
0
0
LAYER
5
16E
100
AcDbSymbolTableRecord
100
AcDbLayerTableRecord
2
2
70
0
62
7
6
Continuous
290
1
370
-3
390
0
0
LAYER
5
220
100
AcDbSymbolTableRecord
100
AcDbLayerTableRecord
2
SK1
70
0
62
4
6
Continuous
290
1
370
-3
390
0
0
LAYER
5
221
100
AcDbSymbolTableRecord
100
AcDbLayerTableRecord
2
SK2
70
0
62
7
6
Continuous
290
1
370
-3
390
0
0
LAYER
5
222
100
AcDbSymbolTableRecord
100
AcDbLayerTableRecord
2
SK6
70
0
62
5
6
Continuous
290
1
370
-3
390
0
0
ENDTAB
0
TABLE
2
STYLE
5
236
100
AcDbSymbolTable
0
STYLE
5
11
100
AcDbSymbolTableRecord
100
AcDbTextStyleTableRecord
2
Standard
3
txt
70
0
71
0
40
0
41
1
42
0
50
0
0
STYLE
5
150
100
AcDbSymbolTableRecord
100
AcDbTextStyleTableRecord
2
iso_b_vert
3
simplex.shx
70
0
71
0
40
0
41
1
42
0
50
0
0
STYLE
5
151
100
AcDbSymbolTableRecord
100
AcDbTextStyleTableRecord
2
DWGDirectTextStyle
3
simplex
70
0
71
0
40
0
41
1
42
0
50
0
0
ENDTAB
0
TABLE
2
DIMSTYLE
5
237
100
AcDbSymbolTable
100
AcDbDimStyleTable
0
DIMSTYLE
105
27
100
AcDbSymbolTableRecord
100
AcDbDimStyleTableRecord
2
Standard
70
0
3
<>
41
0.18
42
0.0625
44
0.18
140
0.18
147
0.09
73
0
74
0
77
1
271
2
275
0
278
52
280
0
340
11
0
ENDTAB
0
TABLE
2
VIEW
5
238
100
AcDbSymbolTable
0
ENDTAB
0
TABLE
2
UCS
5
239
100
AcDbSymbolTable
0
ENDTAB
0
TABLE
2
APPID
5
23a
100
AcDbSymbolTable
0
APPID
5
12
100
AcDbSymbolTableRecord
100
AcDbRegAppTableRecord
2
ACAD
70
0
0
APPID
5
15D
100
AcDbSymbolTableRecord
100
AcDbRegAppTableRecord
2
ACAD_DSTYLE_DIMBREAK
70
0
0
APPID
5
1DF
100
AcDbSymbolTableRecord
100
AcDbRegAppTableRecord
2
ACAD_DSTYLE_DIM_LINETYPE
70
0
0
APPID
5
1E0
100
AcDbSymbolTableRecord
100
AcDbRegAppTableRecord
2
ACAD_DSTYLE_DIM_EXT1_LINETYPE
70
0
0
APPID
5
1E1
100
AcDbSymbolTableRecord
100
AcDbRegAppTableRecord
2
ACAD_DSTYLE_DIM_EXT2_LINETYPE
70
0
0
APPID
5
21C
100
AcDbSymbolTableRecord
100
AcDbRegAppTableRecord
2
ACAD_MLEADERVER
70
0
0
ENDTAB
0
TABLE
2
BLOCK_RECORD
5
23b
100
AcDbSymbolTable
0
BLOCK_RECORD
5
1F
100
AcDbSymbolTableRecord
100
AcDbBlockTableRecord
2
*Model_Space
340
0
70
0
0
BLOCK_RECORD
5
1B
100
AcDbSymbolTableRecord
100
AcDbBlockTableRecord
2
*Paper_Space
340
0
70
0
0
BLOCK_RECORD
5
23
100
AcDbSymbolTableRecord
100
AcDbBlockTableRecord
2
*Paper_Space0
340
0
70
0
0
BLOCK_RECORD
5
162
100
AcDbSymbolTableRecord
100
AcDbBlockTableRecord
2
*D1
340
0
70
0
0
BLOCK_RECORD
5
16F
100
AcDbSymbolTableRecord
100
AcDbBlockTableRecord
2
_U0
340
0
70
0
0
BLOCK_RECORD
5
17B
100
AcDbSymbolTableRecord
100
AcDbBlockTableRecord
2
*D3
340
0
70
0
0
BLOCK_RECORD
5
188
100
AcDbSymbolTableRecord
100
AcDbBlockTableRecord
2
_U1
340
0
70
0
0
BLOCK_RECORD
5
194
100
AcDbSymbolTableRecord
100
AcDbBlockTableRecord
2
*D5
340
0
70
0
0
BLOCK_RECORD
5
1A0
100
AcDbSymbolTableRecord
100
AcDbBlockTableRecord
2
_U2
340
0
70
0
0
BLOCK_RECORD
5
1AC
100
AcDbSymbolTableRecord
100
AcDbBlockTableRecord
2
*D7
340
0
70
0
0
BLOCK_RECORD
5
1B8
100
AcDbSymbolTableRecord
100
AcDbBlockTableRecord
2
_U3
340
0
70
0
0
ENDTAB
0
ENDSEC
0
SECTION
2
BLOCKS
0
BLOCK
5
20
100
AcDbEntity
8
0
100
AcDbBlockBegin
2
*Model_Space
70
0
10
0
20
0
30
0
3
*Model_Space
0
ENDBLK
5
21
100
AcDbEntity
8
0
100
AcDbBlockEnd
0
BLOCK
5
1C
100
AcDbEntity
8
0
100
AcDbBlockBegin
2
*Paper_Space
70
0
10
0
20
0
30
0
3
*Paper_Space
0
ENDBLK
5
1D
100
AcDbEntity
8
0
100
AcDbBlockEnd
0
BLOCK
5
24
100
AcDbEntity
8
0
100
AcDbBlockBegin
2
*Paper_Space0
70
0
10
0
20
0
30
0
3
*Paper_Space0
0
ENDBLK
5
25
100
AcDbEntity
8
0
100
AcDbBlockEnd
0
BLOCK
5
163
100
AcDbEntity
8
0
100
AcDbBlockBegin
2
*D1
70
1
10
0
20
0
30
0
3
*D1
0
LINE
5
165
100
AcDbEntity
8
0
62
256
6
ByLayer
370
-2
48
1
60
0
100
AcDbLine
10
66.5875
20
22
30
0
11
98.1
21
22
31
0
39
0
210
0
220
0
230
1
0
LINE
5
166
100
AcDbEntity
8
0
62
256
6
ByLayer
370
-2
48
1
60
0
100
AcDbLine
10
1.5875
20
0
30
0
11
98.1
21
0
31
0
39
0
210
0
220
0
230
1
0
LINE
5
167
100
AcDbEntity
8
0
62
256
6
ByLayer
370
-2
48
1
60
0
100
AcDbLine
10
96.1
20
18.5
30
0
11
96.1
21
3.5
31
0
39
0
210
0
220
0
230
1
0
SOLID
5
168
100
AcDbEntity
8
0
62
256
6
ByLayer
370
-1
48
1
60
0
100
AcDbTrace
10
96.683333
20
18.5
30
0
11
95.516667
21
18.5
31
0
12
96.1
22
22
32
0
13
96.1
23
22
33
0
39
0
210
0
220
0
230
1
0
SOLID
5
169
100
AcDbEntity
8
0
62
256
6
ByLayer
370
-1
48
1
60
0
100
AcDbTrace
10
95.516667
20
3.5
30
0
11
96.683333
21
3.5
31
0
12
96.1
22
0
32
0
13
96.1
23
0
33
0
39
0
210
0
220
0
230
1
0
MTEXT
5
16A
100
AcDbEntity
8
0
62
256
6
ByLayer
370
18
48
1
60
0
100
AcDbMText
10
89.1
20
11
30
0
210
0
220
0
230
1
1
\A1;22
40
3.5
41
0
44
1
50
90
71
5
72
5
7
iso_b_vert
0
POINT
5
16B
100
AcDbEntity
8
Defpoints
62
0
6
ByLayer
370
-1
48
1
60
0
100
AcDbPoint
10
65
20
22
30
0
39
0
210
0
220
0
230
1
50
360
0
POINT
5
16C
100
AcDbEntity
8
Defpoints
62
0
6
ByLayer
370
-1
48
1
60
0
100
AcDbPoint
10
0
20
0
30
0
39
0
210
0
220
0
230
1
50
360
0
POINT
5
16D
100
AcDbEntity
8
Defpoints
62
0
6
ByLayer
370
-1
48
1
60
0
100
AcDbPoint
10
96.1
20
0
30
0
39
0
210
0
220
0
230
1
50
360
0
ENDBLK
5
164
100
AcDbEntity
8
0
100
AcDbBlockEnd
0
BLOCK
5
176
100
AcDbEntity
8
0
100
AcDbBlockBegin
2
_U0
70
0
10
0
20
0
30
0
3
_U0
0
MTEXT
5
170
100
AcDbEntity
8
2
62
256
6
ByLayer
370
18
48
1
60
0
100
AcDbMText
10
95.410366
20
9.067034
30
0
210
0
220
0
230
1
1
\W0.6740;22
40
3.5
41
0
44
1.084337
50
90
71
7
72
5
7
iso_b_vert
0
LINE
5
171
100
AcDbEntity
8
2
62
256
6
ByLayer
370
13
48
1
60
0
100
AcDbLine
10
66.5875
20
22
30
0
11
98.1
21
22
31
0
39
0
210
0
220
0
230
1
0
LINE
5
172
100
AcDbEntity
8
2
62
256
6
ByLayer
370
13
48
1
60
0
100
AcDbLine
10
1.5875
20
0
30
0
11
98.1
21
0
31
0
39
0
210
0
220
0
230
1
0
LINE
5
173
100
AcDbEntity
8
2
62
256
6
ByLayer
370
13
48
1
60
0
100
AcDbLine
10
96.1
20
22
30
0
11
96.1
21
0
31
0
39
0
210
0
220
0
230
1
0
SOLID
5
174
100
AcDbEntity
8
2
62
256
6
ByLayer
370
18
48
1
60
0
100
AcDbTrace
10
96.1
20
22
30
0
11
96.560784
21
18.500002
31
0
12
95.639216
22
18.499998
32
0
13
95.639216
23
18.499998
33
0
39
0
210
0
220
0
230
1
0
SOLID
5
175
100
AcDbEntity
8
2
62
256
6
ByLayer
370
18
48
1
60
0
100
AcDbTrace
10
96.1
20
0
30
0
11
95.639216
21
3.499998
31
0
12
96.560784
22
3.500002
32
0
13
96.560784
23
3.500002
33
0
39
0
210
0
220
0
230
1
0
ENDBLK
5
177
100
AcDbEntity
8
0
100
AcDbBlockEnd
0
BLOCK
5
17C
100
AcDbEntity
8
0
100
AcDbBlockBegin
2
*D3
70
1
10
0
20
0
30
0
3
*D3
0
LINE
5
17E
100
AcDbEntity
8
0
62
256
6
ByLayer
370
-2
48
1
60
0
100
AcDbLine
10
66.5875
20
18
30
0
11
87.1
21
18
31
0
39
0
210
0
220
0
230
1
0
LINE
5
17F
100
AcDbEntity
8
0
62
256
6
ByLayer
370
-2
48
1
60
0
100
AcDbLine
10
66.5875
20
22
30
0
11
87.1
21
22
31
0
39
0
210
0
220
0
230
1
0
LINE
5
180
100
AcDbEntity
8
0
62
256
6
ByLayer
370
-2
48
1
60
0
100
AcDbLine
10
85.1
20
14.5
30
0
11
85.1
21
11
31
0
39
0
210
0
220
0
230
1
0
LINE
5
181
100
AcDbEntity
8
0
62
256
6
ByLayer
370
-2
48
1
60
0
100
AcDbLine
10
85.1
20
25.5
30
0
11
85.1
21
29
31
0
39
0
210
0
220
0
230
1
0
SOLID
5
182
100
AcDbEntity
8
0
62
256
6
ByLayer
370
-1
48
1
60
0
100
AcDbTrace
10
85.683333
20
14.5
30
0
11
84.516667
21
14.5
31
0
12
85.1
22
18
32
0
13
85.1
23
18
33
0
39
0
210
0
220
0
230
1
0
SOLID
5
183
100
AcDbEntity
8
0
62
256
6
ByLayer
370
-1
48
1
60
0
100
AcDbTrace
10
84.516667
20
25.5
30
0
11
85.683333
21
25.5
31
0
12
85.1
22
22
32
0
13
85.1
23
22
33
0
39
0
210
0
220
0
230
1
0
MTEXT
5
184
100
AcDbEntity
8
0
62
256
6
ByLayer
370
18
48
1
60
0
100
AcDbMText
10
78.1
20
20
30
0
210
0
220
0
230
1
1
\A1;4
40
3.5
41
0
44
1
50
90
71
5
72
5
7
iso_b_vert
0
POINT
5
185
100
AcDbEntity
8
Defpoints
62
0
6
ByLayer
370
-1
48
1
60
0
100
AcDbPoint
10
65
20
18
30
0
39
0
210
0
220
0
230
1
50
360
0
POINT
5
186
100
AcDbEntity
8
Defpoints
62
0
6
ByLayer
370
-1
48
1
60
0
100
AcDbPoint
10
65
20
22
30
0
39
0
210
0
220
0
230
1
50
360
0
POINT
5
187
100
AcDbEntity
8
Defpoints
62
0
6
ByLayer
370
-1
48
1
60
0
100
AcDbPoint
10
85.1
20
22
30
0
39
0
210
0
220
0
230
1
50
360
0
ENDBLK
5
17D
100
AcDbEntity
8
0
100
AcDbBlockEnd
0
BLOCK
5
18F
100
AcDbEntity
8
0
100
AcDbBlockBegin
2
_U1
70
0
10
0
20
0
30
0
3
_U1
0
MTEXT
5
189
100
AcDbEntity
8
2
62
256
6
ByLayer
370
18
48
1
60
0
100
AcDbMText
10
84.410366
20
19.1905
30
0
210
0
220
0
230
1
1
\W0.6380;4
40
3.5
41
0
44
1.084337
50
90
71
7
72
5
7
iso_b_vert
0
LINE
5
18A
100
AcDbEntity
8
2
62
256
6
ByLayer
370
13
48
1
60
0
100
AcDbLine
10
66.5875
20
18
30
0
11
87.1
21
18
31
0
39
0
210
0
220
0
230
1
0
LINE
5
18B
100
AcDbEntity
8
2
62
256
6
ByLayer
370
13
48
1
60
0
100
AcDbLine
10
66.5875
20
22
30
0
11
87.1
21
22
31
0
39
0
210
0
220
0
230
1
0
LINE
5
18C
100
AcDbEntity
8
2
62
256
6
ByLayer
370
13
48
1
60
0
100
AcDbLine
10
85.1
20
9.25
30
0
11
85.1
21
30.75
31
0
39
0
210
0
220
0
230
1
0
SOLID
5
18D
100
AcDbEntity
8
2
62
256
6
ByLayer
370
18
48
1
60
0
100
AcDbTrace
10
85.1
20
18
30
0
11
85.560784
21
14.500002
31
0
12
84.639216
22
14.499998
32
0
13
84.639216
23
14.499998
33
0
39
0
210
0
220
0
230
1
0
SOLID
5
18E
100
AcDbEntity
8
2
62
256
6
ByLayer
370
18
48
1
60
0
100
AcDbTrace
10
85.1
20
22
30
0
11
84.639216
21
25.499998
31
0
12
85.560784
22
25.500002
32
0
13
85.560784
23
25.500002
33
0
39
0
210
0
220
0
230
1
0
ENDBLK
5
190
100
AcDbEntity
8
0
100
AcDbBlockEnd
0
BLOCK
5
195
100
AcDbEntity
8
0
100
AcDbBlockBegin
2
*D5
70
1
10
0
20
0
30
0
3
*D5
0
LINE
5
197
100
AcDbEntity
8
0
62
256
6
ByLayer
370
-2
48
1
60
0
100
AcDbLine
10
45
20
16.7375
30
0
11
45
21
-17.425
31
0
39
0
210
0
220
0
230
1
0
LINE
5
198
100
AcDbEntity
8
0
62
256
6
ByLayer
370
-2
48
1
60
0
100
AcDbLine
10
65
20
16.4125
30
0
11
65
21
-17.425
31
0
39
0
210
0
220
0
230
1
0
LINE
5
199
100
AcDbEntity
8
0
62
256
6
ByLayer
370
-2
48
1
60
0
100
AcDbLine
10
48.5
20
-15.425
30
0
11
61.5
21
-15.425
31
0
39
0
210
0
220
0
230
1
0
SOLID
5
19A
100
AcDbEntity
8
0
62
256
6
ByLayer
370
-1
48
1
60
0
100
AcDbTrace
10
48.5
20
-14.841667
30
0
11
48.5
21
-16.008333
31
0
12
45
22
-15.425
32
0
13
45
23
-15.425
33
0
39
0
210
0
220
0
230
1
0
SOLID
5
19B
100
AcDbEntity
8
0
62
256
6
ByLayer
370
-1
48
1
60
0
100
AcDbTrace
10
61.5
20
-16.008333
30
0
11
61.5
21
-14.841667
31
0
12
65
22
-15.425
32
0
13
65
23
-15.425
33
0
39
0
210
0
220
0
230
1
0
MTEXT
5
19C
100
AcDbEntity
8
0
62
256
6
ByLayer
370
18
48
1
60
0
100
AcDbMText
10
55
20
-8.425
30
0
210
0
220
0
230
1
1
\A1;20
40
3.5
41
0
44
1
50
0
71
5
72
5
7
iso_b_vert
0
POINT
5
19D
100
AcDbEntity
8
Defpoints
62
0
6
ByLayer
370
-1
48
1
60
0
100
AcDbPoint
10
45
20
18.325
30
0
39
0
210
0
220
0
230
1
50
360
0
POINT
5
19E
100
AcDbEntity
8
Defpoints
62
0
6
ByLayer
370
-1
48
1
60
0
100
AcDbPoint
10
65
20
18
30
0
39
0
210
0
220
0
230
1
50
360
0
POINT
5
19F
100
AcDbEntity
8
Defpoints
62
0
6
ByLayer
370
-1
48
1
60
0
100
AcDbPoint
10
65
20
-15.425
30
0
39
0
210
0
220
0
230
1
50
360
0
ENDBLK
5
196
100
AcDbEntity
8
0
100
AcDbBlockEnd
0
BLOCK
5
1A7
100
AcDbEntity
8
0
100
AcDbBlockBegin
2
_U2
70
0
10
0
20
0
30
0
3
_U2
0
MTEXT
5
1A1
100
AcDbEntity
8
2
62
256
6
ByLayer
370
18
48
1
60
0
100
AcDbMText
10
53.095034
20
-14.392366
30
0
210
0
220
0
230
1
1
\W0.6740;20
40
3.5
41
0
44
1.084337
50
0
71
7
72
5
7
iso_b_vert
0
LINE
5
1A2
100
AcDbEntity
8
2
62
256
6
ByLayer
370
13
48
1
60
0
100
AcDbLine
10
45
20
16.7375
30
0
11
45
21
-17.425
31
0
39
0
210
0
220
0
230
1
0
LINE
5
1A3
100
AcDbEntity
8
2
62
256
6
ByLayer
370
13
48
1
60
0
100
AcDbLine
10
65
20
16.4125
30
0
11
65
21
-17.425
31
0
39
0
210
0
220
0
230
1
0
LINE
5
1A4
100
AcDbEntity
8
2
62
256
6
ByLayer
370
13
48
1
60
0
100
AcDbLine
10
45
20
-15.425
30
0
11
65
21
-15.425
31
0
39
0
210
0
220
0
230
1
0
SOLID
5
1A5
100
AcDbEntity
8
2
62
256
6
ByLayer
370
18
48
1
60
0
100
AcDbTrace
10
45
20
-15.425
30
0
11
48.499998
21
-14.964216
31
0
12
48.500002
22
-15.885784
32
0
13
48.500002
23
-15.885784
33
0
39
0
210
0
220
0
230
1
0
SOLID
5
1A6
100
AcDbEntity
8
2
62
256
6
ByLayer
370
18
48
1
60
0
100
AcDbTrace
10
65
20
-15.425
30
0
11
61.500002
21
-15.885784
31
0
12
61.499998
22
-14.964216
32
0
13
61.499998
23
-14.964216
33
0
39
0
210
0
220
0
230
1
0
ENDBLK
5
1A8
100
AcDbEntity
8
0
100
AcDbBlockEnd
0
BLOCK
5
1AD
100
AcDbEntity
8
0
100
AcDbBlockBegin
2
*D7
70
1
10
0
20
0
30
0
3
*D7
0
LINE
5
1AF
100
AcDbEntity
8
0
62
256
6
ByLayer
370
-2
48
1
60
0
100
AcDbLine
10
0
20
1.5875
30
0
11
0
21
40.25
31
0
39
0
210
0
220
0
230
1
0
LINE
5
1B0
100
AcDbEntity
8
0
62
256
6
ByLayer
370
-2
48
1
60
0
100
AcDbLine
10
65
20
23.5875
30
0
11
65
21
40.25
31
0
39
0
210
0
220
0
230
1
0
LINE
5
1B1
100
AcDbEntity
8
0
62
256
6
ByLayer
370
-2
48
1
60
0
100
AcDbLine
10
3.5
20
38.25
30
0
11
61.5
21
38.25
31
0
39
0
210
0
220
0
230
1
0
SOLID
5
1B2
100
AcDbEntity
8
0
62
256
6
ByLayer
370
-1
48
1
60
0
100
AcDbTrace
10
3.5
20
38.833333
30
0
11
3.5
21
37.666667
31
0
12
0
22
38.25
32
0
13
0
23
38.25
33
0
39
0
210
0
220
0
230
1
0
SOLID
5
1B3
100
AcDbEntity
8
0
62
256
6
ByLayer
370
-1
48
1
60
0
100
AcDbTrace
10
61.5
20
37.666667
30
0
11
61.5
21
38.833333
31
0
12
65
22
38.25
32
0
13
65
23
38.25
33
0
39
0
210
0
220
0
230
1
0
MTEXT
5
1B4
100
AcDbEntity
8
0
62
256
6
ByLayer
370
18
48
1
60
0
100
AcDbMText
10
32.5
20
45.25
30
0
210
0
220
0
230
1
1
\A1;65
40
3.5
41
0
44
1
50
0
71
5
72
5
7
iso_b_vert
0
POINT
5
1B5
100
AcDbEntity
8
Defpoints
62
0
6
ByLayer
370
-1
48
1
60
0
100
AcDbPoint
10
0
20
0
30
0
39
0
210
0
220
0
230
1
50
360
0
POINT
5
1B6
100
AcDbEntity
8
Defpoints
62
0
6
ByLayer
370
-1
48
1
60
0
100
AcDbPoint
10
65
20
22
30
0
39
0
210
0
220
0
230
1
50
360
0
POINT
5
1B7
100
AcDbEntity
8
Defpoints
62
0
6
ByLayer
370
-1
48
1
60
0
100
AcDbPoint
10
65
20
38.25
30
0
39
0
210
0
220
0
230
1
50
360
0
ENDBLK
5
1AE
100
AcDbEntity
8
0
100
AcDbBlockEnd
0
BLOCK
5
1BF
100
AcDbEntity
8
0
100
AcDbBlockBegin
2
_U3
70
0
10
0
20
0
30
0
3
_U3
0
MTEXT
5
1B9
100
AcDbEntity
8
2
62
256
6
ByLayer
370
18
48
1
60
0
100
AcDbMText
10
30.595034
20
39.282634
30
0
210
0
220
0
230
1
1
\W0.6740;65
40
3.5
41
0
44
1.084337
50
0
71
7
72
5
7
iso_b_vert
0
LINE
5
1BA
100
AcDbEntity
8
2
62
256
6
ByLayer
370
13
48
1
60
0
100
AcDbLine
10
0
20
1.5875
30
0
11
0
21
40.25
31
0
39
0
210
0
220
0
230
1
0
LINE
5
1BB
100
AcDbEntity
8
2
62
256
6
ByLayer
370
13
48
1
60
0
100
AcDbLine
10
65
20
23.5875
30
0
11
65
21
40.25
31
0
39
0
210
0
220
0
230
1
0
LINE
5
1BC
100
AcDbEntity
8
2
62
256
6
ByLayer
370
13
48
1
60
0
100
AcDbLine
10
0
20
38.25
30
0
11
65
21
38.25
31
0
39
0
210
0
220
0
230
1
0
SOLID
5
1BD
100
AcDbEntity
8
2
62
256
6
ByLayer
370
18
48
1
60
0
100
AcDbTrace
10
0
20
38.25
30
0
11
3.499998
21
38.710784
31
0
12
3.500002
22
37.789216
32
0
13
3.500002
23
37.789216
33
0
39
0
210
0
220
0
230
1
0
SOLID
5
1BE
100
AcDbEntity
8
2
62
256
6
ByLayer
370
18
48
1
60
0
100
AcDbTrace
10
65
20
38.25
30
0
11
61.500002
21
37.789216
31
0
12
61.499998
22
38.710784
32
0
13
61.499998
23
38.710784
33
0
39
0
210
0
220
0
230
1
0
ENDBLK
5
1C0
100
AcDbEntity
8
0
100
AcDbBlockEnd
0
ENDSEC
0
SECTION
2
ENTITIES
0
ARC
5
F4
100
AcDbEntity
8
1
62
256
6
ByLayer
370
18
48
1
60
0
100
AcDbCircle
39
0
10
15.279208
20
17.2
30
0
40
1.2
210
0
220
0
230
1
100
AcDbArc
50
270
51
299.528892
0
ARC
5
F5
100
AcDbEntity
8
SK1
62
256
6
ByLayer
370
18
48
1
60
0
100
AcDbCircle
39
0
10
-0.6
20
11.8
30
0
40
0.999999999999996
210
0
220
0
230
1
100
AcDbArc
50
293.578178
51
306.869898
0
ARC
5
F6
100
AcDbEntity
8
SK1
62
256
6
ByLayer
370
18
48
1
60
0
100
AcDbCircle
39
0
10
-0.6
20
-11.8
30
0
40
0.999999999999996
210
0
220
0
230
1
100
AcDbArc
50
53.130102
51
66.421822
0
ARC
5
F9
100
AcDbEntity
8
1
62
256
6
ByLayer
370
18
48
1
60
0
100
AcDbCircle
39
0
10
45
20
16.725
30
0
40
1.6
210
0
220
0
230
1
100
AcDbArc
50
90
51
180
0
ARC
5
FB
100
AcDbEntity
8
1
62
256
6
ByLayer
370
18
48
1
60
0
100
AcDbCircle
39
0
10
24.4
20
17.15
30
0
40
1
210
0
220
0
230
1
100
AcDbArc
50
270
51
0
0
ARC
5
FC
100
AcDbEntity
8
1
62
256
6
ByLayer
370
18
48
1
60
0
100
AcDbCircle
39
0
10
64.7
20
18.3
30
0
40
0.3
210
0
220
0
230
1
100
AcDbArc
50
267.5
51
0
0
ARC
5
FD
100
AcDbEntity
8
1
62
256
6
ByLayer
370
18
48
1
60
0
100
AcDbCircle
39
0
10
64.7
20
21.7
30
0
40
0.3
210
0
220
0
230
1
100
AcDbArc
50
0
51
92.5
0
ARC
5
FE
100
AcDbEntity
8
1
62
256
6
ByLayer
370
18
48
1
60
0
100
AcDbCircle
39
0
10
40.3
20
21.7
30
0
40
0.3
210
0
220
0
230
1
100
AcDbArc
50
87.5
51
180
0
ARC
5
FF
100
AcDbEntity
8
1
62
256
6
ByLayer
370
18
48
1
60
0
100
AcDbCircle
39
0
10
57.55644
20
20.667299
30
0
40
0.100000000000298
210
0
220
0
230
1
100
AcDbArc
50
190.000001
51
218.049181
0
ARC
5
100
100
AcDbEntity
8
1
62
256
6
ByLayer
370
18
48
1
60
0
100
AcDbCircle
39
0
10
57.55644
20
19.332701
30
0
40
0.100000000000298
210
0
220
0
230
1
100
AcDbArc
50
141.950819
51
169.999999
0
CIRCLE
5
F7
100
AcDbEntity
8
1
62
256
6
ByLayer
370
18
48
1
60
0
100
AcDbCircle
10
36.65
20
9.85
30
0
40
2.55
39
0
210
0
220
0
230
1
0
CIRCLE
5
F8
100
AcDbEntity
8
1
62
256
6
ByLayer
370
18
48
1
60
0
100
AcDbCircle
10
36.65
20
9.85
30
0
40
3.3
39
0
210
0
220
0
230
1
0
CIRCLE
5
FA
100
AcDbEntity
8
1
62
256
6
ByLayer
370
18
48
1
60
0
100
AcDbCircle
10
36.65
20
9.85
30
0
40
5.75
39
0
210
0
220
0
230
1
0
ELLIPSE
5
101
100
AcDbEntity
8
1
62
256
6
ByLayer
370
18
48
1
60
0
100
AcDbEllipse
10
55.685182
20
20
30
0
11
4.89842541528951E-17
21
0.8
31
0
210
0
220
0
230
1
40
0.988597
41
0
42
6.28318530717959
0
ELLIPSE
5
102
100
AcDbEntity
8
1
62
256
6
ByLayer
370
18
48
1
60
0
100
AcDbEllipse
10
15.13963
20
0
30
0
11
9.7968508305784E-16
21
15.999999999999
31
0
210
0
220
0
230
1
40
0.008727
41
1.07390430714477
42
2.06768834644503
0
ELLIPSE
5
103
100
AcDbEntity
8
1
62
256
6
ByLayer
370
18
48
1
60
0
100
AcDbEllipse
10
-0.928203
20
0
30
0
11
7.49393430382631
21
15.7933993222007
31
0
210
0
220
0
230
1
40
0.341999
41
-1.08757920120049
42
-0.161466571197707
0
ELLIPSE
5
104
100
AcDbEntity
8
1
62
256
6
ByLayer
370
18
48
1
60
0
100
AcDbEllipse
10
12.928203
20
0
30
0
11
7.49393430382534
21
-15.7933993222001
31
0
210
0
220
0
230
1
40
0.341999
41
-2.98012608239207
42
-2.05401345238926
0
ELLIPSE
5
105
100
AcDbEntity
8
1
62
256
6
ByLayer
370
18
48
1
60
0
100
AcDbEllipse
10
12.928203
20
0
30
0
11
7.49393430382473
21
15.7933993221994
31
0
210
0
220
0
230
1
40
0.341999
41
2.05401345238922
42
2.98012608239207
0
ELLIPSE
5
106
100
AcDbEntity
8
1
62
256
6
ByLayer
370
18
48
1
60
0
100
AcDbEllipse
10
-0.928203
20
0
30
0
11
7.49393430382615
21
-15.7933993222006
31
0
210
0
220
0
230
1
40
0.341999
41
0.161466571197714
42
1.08757920120049
0
ELLIPSE
5
107
100
AcDbEntity
8
1
62
256
6
ByLayer
370
18
48
1
60
0
100
AcDbEllipse
10
57.434518
20
21.358749
30
0
11
0.0104483933357587
21
-0.0994526568016828
31
0
210
0
220
0
230
1
40
1
41
-1.6754713082112
42
-1.50093838192104
0
ELLIPSE
5
108
100
AcDbEntity
8
1
62
256
6
ByLayer
370
18
48
1
60
0
100
AcDbEllipse
10
57.434518
20
18.641251
30
0
11
0.0104483933357589
21
0.0994526568016828
31
0
210
0
220
0
230
1
40
1
41
1.50093838192104
42
1.6754713082112
0
POINT
5
70
100
AcDbEntity
8
80
62
256
6
ByLayer
370
18
48
1
60
0
100
AcDbPoint
10
0
20
0
30
0
39
0
210
0
220
0
230
1
50
360
0
POINT
5
72
100
AcDbEntity
8
81
62
256
6
ByLayer
370
18
48
1
60
0
100
AcDbPoint
10
65
20
22
30
0
39
0
210
0
220
0
230
1
50
360
0
POINT
5
74
100
AcDbEntity
8
1
62
256
6
ByLayer
370
18
48
1
60
1
100
AcDbPoint
10
65
20
22
30
0
39
0
210
0
220
0
230
1
50
360
0
POINT
5
76
100
AcDbEntity
8
1
62
256
6
ByLayer
370
18
48
1
60
1
100
AcDbPoint
10
0
20
0
30
0
39
0
210
0
220
0
230
1
50
360
0
POINT
5
77
100
AcDbEntity
8
1
62
256
6
ByLayer
370
18
48
1
60
1
100
AcDbPoint
10
65
20
18
30
0
39
0
210
0
220
0
230
1
50
360
0
POINT
5
78
100
AcDbEntity
8
1
62
256
6
ByLayer
370
18
48
1
60
1
100
AcDbPoint
10
65
20
22
30
0
39
0
210
0
220
0
230
1
50
360
0
POINT
5
79
100
AcDbEntity
8
1
62
256
6
ByLayer
370
18
48
1
60
1
100
AcDbPoint
10
45
20
18.325
30
0
39
0
210
0
220
0
230
1
50
360
0
POINT
5
7A
100
AcDbEntity
8
1
62
256
6
ByLayer
370
18
48
1
60
1
100
AcDbPoint
10
65
20
18
30
0
39
0
210
0
220
0
230
1
50
360
0
POINT
5
7B
100
AcDbEntity
8
1
62
256
6
ByLayer
370
18
48
1
60
1
100
AcDbPoint
10
0
20
0
30
0
39
0
210
0
220
0
230
1
50
360
0
POINT
5
7C
100
AcDbEntity
8
1
62
256
6
ByLayer
370
18
48
1
60
1
100
AcDbPoint
10
65
20
22
30
0
39
0
210
0
220
0
230
1
50
360
0
SPLINE
5
109
100
AcDbEntity
8
SK1
62
256
6
ByLayer
370
18
48
1
60
0
100
AcDbSpline
70
4
71
2
72
6
73
3
40
0
40
0
40
0
40
1
40
1
40
1
41
1
10
-0.394913799811292
20
10.7561253011184
30
0
41
1
10
-0.944976888870357
20
10.7424218878285
30
0
41
1
10
-1.4950399779393
20
10.7287184519682
30
0
0
SPLINE
5
10A
100
AcDbEntity
8
SK1
62
256
6
ByLayer
370
18
48
1
60
0
100
AcDbSpline
70
4
71
2
72
6
73
3
40
0
40
0
40
0
40
1
40
1
40
1
41
1
10
-1.4950399779393
20
-10.7287185965104
30
0
41
1
10
-0.944976888870357
20
-10.742422032064
30
0
41
1
10
-0.394913799811292
20
-10.7561254450469
30
0
0
SPLINE
5
10B
100
AcDbEntity
8
SK1
62
256
6
ByLayer
370
18
48
1
60
0
100
AcDbSpline
70
4
71
2
72
6
73
3
40
0
40
0
40
0
40
1
40
1
40
1
41
1
10
-18
20
10.6101496008039
30
0
41
1
10
-18.4999993598728
20
10.3216388688797
30
0
41
1
10
-19
20
10.0331225704842
30
0
0
SPLINE
5
10C
100
AcDbEntity
8
SK1
62
256
6
ByLayer
370
18
48
1
60
0
100
AcDbSpline
70
4
71
2
72
6
73
3
40
0
40
0
40
0
40
1
40
1
40
1
41
1
10
-19
20
-10.033122704642
30
0
41
1
10
-18.499999359849
20
-10.3216390035828
30
0
41
1
10
-18
20
-10.6101497360692
30
0
0
SPLINE
5
10D
100
AcDbEntity
8
SK1
62
256
6
ByLayer
370
18
48
1
60
0
100
AcDbSpline
70
4
71
3
72
13
73
9
40
0
40
0
40
0
40
0
40
0.239503299986072
40
0.368422974046453
40
0.500068382752372
40
0.631702431366343
40
0.760590771380856
40
1
40
1
40
1
40
1
41
1
10
-1.4950399779393
20
10.8252677308309
30
0
41
1
10
-1.52110932222989
20
10.8248656203855
30
0
41
1
10
-1.55883875866955
20
10.8310353403565
30
0
41
1
10
-1.60627575626165
20
10.8540692579953
30
0
41
1
10
-1.63886251160179
20
10.8792258274844
30
0
41
1
10
-1.66563496160413
20
10.9104942540852
30
0
41
1
10
-1.69103211703248
20
10.9566935764512
30
0
41
1
10
-1.69909125944702
20
10.994051696625
30
0
41
1
10
-1.7
20
11.020099440279
30
0
0
SPLINE
5
10E
100
AcDbEntity
8
SK1
62
256
6
ByLayer
370
18
48
1
60
0
100
AcDbSpline
70
4
71
3
72
13
73
9
40
0
40
0
40
0
40
0
40
0.239409228197305
40
0.368297568070461
40
0.499931616633788
40
0.631577025391789
40
0.760496699593568
40
1
40
1
40
1
40
1
41
1
10
-1.7
20
-11.0200995388071
30
0
41
1
10
-1.69909125944079
20
-10.9940517952282
30
0
41
1
10
-1.69103211702638
20
-10.9566936751655
30
0
41
1
10
-1.66563496159546
20
-10.9104943529528
30
0
41
1
10
-1.63886251159008
20
-10.8792259264472
30
0
41
1
10
-1.60627575624898
20
-10.854069357026
30
0
41
1
10
-1.55883875865177
20
-10.8310354394285
30
0
41
1
10
-1.5211093222206
20
-10.8248657194289
30
0
41
1
10
-1.4950399779393
20
-10.825267829839
30
0
0
SPLINE
5
10F
100
AcDbEntity
8
SK1
62
256
6
ByLayer
370
18
48
1
60
0
100
AcDbSpline
70
4
71
2
72
6
73
3
40
0
40
0
40
0
40
1
40
1
40
1
41
1
10
-1.7
20
11.0168487405457
30
0
41
1
10
-9.84999999929856
20
10.8122283432519
30
0
41
1
10
-18
20
10.607607381218
30
0
0
SPLINE
5
110
100
AcDbEntity
8
SK1
62
256
6
ByLayer
370
18
48
1
60
0
100
AcDbSpline
70
4
71
2
72
6
73
3
40
0
40
0
40
0
40
1
40
1
40
1
41
1
10
-18
20
-10.6076075596898
30
0
41
1
10
-9.84999999929849
20
-10.812228522059
30
0
41
1
10
-1.7
20
-11.0168489196732
30
0
0
SPLINE
5
111
100
AcDbEntity
8
1
62
256
6
ByLayer
370
18
48
1
60
0
100
AcDbSpline
70
4
71
3
72
8
73
4
40
0
40
0
40
0
40
0
40
1
40
1
40
1
40
1
41
1
10
17.8236022061691
20
21.675
30
0
41
1
10
17.4266038199721
20
20.1671081022734
30
0
41
1
10
17.0308575516232
20
18.658878483089
30
0
41
1
10
16.6376355741082
20
17.15
30
0
0
SPLINE
5
112
100
AcDbEntity
8
1
62
256
6
ByLayer
370
18
48
1
60
0
100
AcDbSpline
70
4
71
3
72
22
73
18
40
0
40
0
40
0
40
0
40
0.25000000000001
40
0.25000000000001
40
0.375000000000009
40
0.375000000000009
40
0.437500000000008
40
0.437500000000008
40
0.500000000000007
40
0.500000000000007
40
0.750000000000014
40
0.750000000000014
40
0.875000000000014
40
0.875000000000014
40
0.937500000000007
40
0.937500000000007
40
1
40
1
40
1
40
1
41
1
10
16.6376355741082
20
17.15
30
0
41
1
10
16.620735683445
20
17.0851514339321
30
0
41
1
10
16.6037437832109
20
17.0214270636805
30
0
41
1
10
16.5781141831039
20
16.9274511647199
30
0
41
1
10
16.5695473433732
20
16.896396212071
30
0
41
1
10
16.5566610238913
20
16.8502266219444
30
0
41
1
10
16.5523595731469
20
16.8349056803618
30
0
41
1
10
16.5437445377808
20
16.8044043337517
30
0
41
1
10
16.5394380201747
20
16.7892494900298
30
0
41
1
10
16.5180992224063
20
16.7146125567823
30
0
41
1
10
16.501472546169
20
16.6579089583369
30
0
41
1
10
16.4772087244897
20
16.5772974576693
30
0
41
1
10
16.4692343705978
20
16.5511726241131
30
0
41
1
10
16.4574530717835
20
16.5131434667778
30
0
41
1
10
16.4535514480506
20
16.5006459950553
30
0
41
1
10
16.4458591391685
20
16.4762012486999
30
0
41
1
10
16.4420633430243
20
16.4642372413704
30
0
41
1
10
16.4383186059721
20
16.4525331199087
30
0
0
SPLINE
5
113
100
AcDbEntity
8
1
62
256
6
ByLayer
370
18
48
1
60
0
100
AcDbSpline
70
4
71
3
72
37
73
33
40
0
40
0
40
0
40
0
40
0.03125
40
0.03125
40
0.0625
40
0.125
40
0.125
40
0.249999999999998
40
0.249999999999998
40
0.281249999999997
40
0.281249999999997
40
0.312499999999996
40
0.312499999999996
40
0.374999999999988
40
0.374999999999988
40
0.499999999999966
40
0.499999999999966
40
0.531249999999964
40
0.531249999999964
40
0.562499999999962
40
0.624999999999962
40
0.687499999999962
40
0.687499999999962
40
0.718749999999962
40
0.718749999999962
40
0.749999999999962
40
0.749999999999962
40
0.874999999999978
40
0.874999999999978
40
0.937499999999989
40
0.937499999999989
40
1
40
1
40
1
40
1
41
1
10
23.6979991993593
20
16.15
30
0
41
1
10
23.7161596625569
20
16.15
30
0
41
1
10
23.7343436715721
20
16.1503025762776
30
0
41
1
10
23.7705404692685
20
16.1515196643775
30
0
41
1
10
23.8246748030338
20
16.1542634146374
30
0
41
1
10
23.8783209647337
20
16.1597933881372
30
0
41
1
10
23.9849379288975
20
16.1747079219338
30
0
41
1
10
24.0551208774945
20
16.1897592794783
30
0
41
1
10
24.1415829778381
20
16.2158024637559
30
0
41
1
10
24.1588116390368
20
16.2213750019034
30
0
41
1
10
24.1931357597246
20
16.2332803218201
30
0
41
1
10
24.2102683325627
20
16.2396289977521
30
0
41
1
10
24.2610060787218
20
16.2596878790594
30
0
41
1
10
24.2940493017973
20
16.2744353258394
30
0
41
1
10
24.3907724756647
20
16.3229089218058
30
0
41
1
10
24.4520714248128
20
16.3608215019205
30
0
41
1
10
24.5242042253867
20
16.4161083927451
30
0
41
1
10
24.5384465541441
20
16.4276015592398
30
0
41
1
10
24.5661892927071
20
16.4511913425105
30
0
41
1
10
24.6067111080115
20
16.4874857382757
30
0
41
1
10
24.6688047152749
20
16.5525094185346
30
0
41
1
10
24.7125622959425
20
16.6094566175086
30
0
41
1
10
24.7430477949145
20
16.6541098054288
30
0
41
1
10
24.7528200581636
20
16.6693186563508
30
0
41
1
10
24.7715554404667
20
16.7004102576541
30
0
41
1
10
24.7805452052648
20
16.7163445309867
30
0
41
1
10
24.8230509325826
20
16.7971584961779
30
0
41
1
10
24.8488697960024
20
16.8644367321645
30
0
41
1
10
24.8752531168167
20
16.9693159907482
30
0
41
1
10
24.8819729542626
20
17.0049415512714
30
0
41
1
10
24.8910147230196
20
17.0776041037324
30
0
41
1
10
24.8932370625239
20
17.1138738724258
30
0
41
1
10
24.8932370625239
20
17.15
30
0
0
SPLINE
5
114
100
AcDbEntity
8
1
62
256
6
ByLayer
370
18
48
1
60
0
100
AcDbSpline
70
4
71
3
72
33
73
29
40
0
40
0
40
0
40
0
40
0.124999999999997
40
0.124999999999997
40
0.187499999999995
40
0.187499999999995
40
0.249999999999994
40
0.312499999999992
40
0.312499999999992
40
0.343749999999993
40
0.343749999999993
40
0.374999999999994
40
0.374999999999994
40
0.500000000000002
40
0.500000000000002
40
0.562500000000007
40
0.562500000000007
40
0.593750000000006
40
0.593750000000006
40
0.625000000000006
40
0.625000000000006
40
0.750000000000007
40
0.750000000000007
40
0.812500000000007
40
0.812500000000007
40
0.875000000000007
40
0.875000000000007
40
1
40
1
40
1
40
1
41
1
10
25.2792156108743
20
17.15
30
0
41
1
10
25.2792156108743
20
17.0832436260867
30
0
41
1
10
25.2724024636134
20
17.017099031744
30
0
41
1
10
25.2519070702788
20
16.918804833698
30
0
41
1
10
25.243288334735
20
16.8860488117296
30
0
41
1
10
25.2229298975619
20
16.8222481913133
30
0
41
1
10
25.1994237772517
20
16.7598760962957
30
0
41
1
10
25.1697769675525
20
16.7002908544577
30
0
41
1
10
25.1452277297467
20
16.6566521540257
30
0
41
1
10
25.1366582573285
20
16.6422812788688
30
0
41
1
10
25.1187359240042
20
16.6138950568287
30
0
41
1
10
25.1093565962302
20
16.5998444499673
30
0
41
1
10
25.0609510550854
20
16.5311735123727
30
0
41
1
10
25.0172761539375
20
16.4809191664987
30
0
41
1
10
24.9446575523051
20
16.412259099656
30
0
41
1
10
24.9192581400242
20
16.3905010109515
30
0
41
1
10
24.879331242548
20
16.3595926841259
30
0
41
1
10
24.8657552067244
20
16.3496106169166
30
0
41
1
10
24.8382758559521
20
16.3304211683923
30
0
41
1
10
24.8243435742832
20
16.3211910993284
30
0
41
1
10
24.7537383245528
20
16.2768276981421
30
0
41
1
10
24.6942590621149
20
16.2470074317023
30
0
41
1
10
24.600599587541
20
16.2106842391689
30
0
41
1
10
24.5685154439817
20
16.1999671223374
30
0
41
1
10
24.5040980234737
20
16.1817637186531
30
0
41
1
10
24.4716360317391
20
16.1742157749747
30
0
41
1
10
24.3735131192457
20
16.1560926942454
30
0
41
1
10
24.3071055833143
20
16.15
30
0
41
1
10
24.2397368307141
20
16.15
30
0
0
SPLINE
5
115
100
AcDbEntity
8
1
62
256
6
ByLayer
370
18
48
1
60
0
100
AcDbSpline
70
4
71
3
72
10
73
6
40
0
40
0
40
0
40
0
40
0.5
40
0.5
40
1
40
1
40
1
40
1
41
1
10
56.774406808652
20
19.5
30
0
41
1
10
56.7503619374064
20
19.3039994010941
30
0
41
1
10
56.7261380106098
20
19.1080500112188
30
0
41
1
10
56.6770350754956
20
18.7163385816477
30
0
41
1
10
56.6521735621212
20
18.5205715384819
30
0
41
1
10
56.6266284544953
20
18.325
30
0
0
SPLINE
5
116
100
AcDbEntity
8
1
62
256
6
ByLayer
370
18
48
1
60
0
100
AcDbSpline
70
4
71
3
72
8
73
4
40
0
40
0
40
0
40
0
40
1
40
1
40
1
40
1
41
1
10
56.933039795462
20
19.5840772376136
30
0
41
1
10
56.8802128688877
20
19.5558111996547
30
0
41
1
10
56.8273535334488
20
19.5276986550821
30
0
41
1
10
56.774406808652
20
19.5
30
0
0
SPLINE
5
117
100
AcDbEntity
8
1
62
256
6
ByLayer
370
18
48
1
60
0
100
AcDbSpline
70
4
71
3
72
20
73
16
40
0
40
0
40
0
40
0
40
0.250000000000057
40
0.250000000000057
40
0.375000000000047
40
0.375000000000047
40
0.500000000000038
40
0.500000000000038
40
0.625000000000028
40
0.625000000000028
40
0.750000000000019
40
0.750000000000019
40
0.875000000000009
40
0.875000000000009
40
1
40
1
40
1
40
1
41
1
10
57
20
19.7250311307314
30
0
41
1
10
57
20
19.7094958819082
30
0
41
1
10
56.9984050459487
20
19.6943684079368
30
0
41
1
10
56.9936571096376
20
19.6722794185904
30
0
41
1
10
56.9916895717912
20
19.6651134158443
30
0
41
1
10
56.9870887035604
20
19.6514438932602
30
0
41
1
10
56.9844457620998
20
19.6448943918016
30
0
41
1
10
56.9784667668225
20
19.6323726527538
30
0
41
1
10
56.9751283008422
20
19.6264174806153
30
0
41
1
10
56.9679840522906
20
19.6154842294121
30
0
41
1
10
56.9641534857343
20
19.6104500648764
30
0
41
1
10
56.9559769729611
20
19.6012441397309
30
0
41
1
10
56.9516060515023
20
19.5970596501623
30
0
41
1
10
56.9425740123838
20
19.5897898375514
30
0
41
1
10
56.9378909441321
20
19.5866729357043
30
0
41
1
10
56.933039795462
20
19.5840772376136
30
0
0
SPLINE
5
118
100
AcDbEntity
8
1
62
256
6
ByLayer
370
18
48
1
60
0
100
AcDbSpline
70
4
71
3
72
20
73
16
40
0
40
0
40
0
40
0
40
0.249999999999973
40
0.249999999999973
40
0.374999999999978
40
0.374999999999978
40
0.499999999999982
40
0.499999999999982
40
0.624999999999987
40
0.624999999999987
40
0.749999999999991
40
0.749999999999991
40
0.874999999999996
40
0.874999999999996
40
1
40
1
40
1
40
1
41
1
10
56.9330397954621
20
20.4159227623864
30
0
41
1
10
56.9427422487556
20
20.410731282759
30
0
41
1
10
56.9517092968703
20
20.4035295253539
30
0
41
1
10
56.964047082971
20
20.3896850163107
30
0
41
1
10
56.9679371835433
20
20.3845799203337
30
0
41
1
10
56.9750781767345
20
20.3736667010934
30
0
41
1
10
56.9783611160119
20
20.3678241997689
30
0
41
1
10
56.9843397653764
20
20.3553511564102
30
0
41
1
10
56.9870434392174
20
20.3486770600966
30
0
41
1
10
56.9916642630196
20
20.334975103544
30
0
41
1
10
56.9936086504077
20
20.3279014713725
30
0
41
1
10
56.9967642469955
20
20.3133082123662
30
0
41
1
10
56.9979798151933
20
20.3057306632174
30
0
41
1
10
56.9995937631251
20
20.2904457315629
30
0
41
1
10
57.0000000000112
20
20.2827395802012
30
0
41
1
10
57.0000000000113
20
20.2749688692703
30
0
0
SPLINE
5
119
100
AcDbEntity
8
1
62
256
6
ByLayer
370
18
48
1
60
0
100
AcDbSpline
70
4
71
3
72
8
73
4
40
0
40
0
40
0
40
0
40
1
40
1
40
1
40
1
41
1
10
56.774406808652
20
20.5
30
0
41
1
10
56.8273598960423
20
20.4722980163781
30
0
41
1
10
56.8802175315189
20
20.444186305517
30
0
41
1
10
56.9330397954622
20
20.4159227623864
30
0
0
SPLINE
5
11A
100
AcDbEntity
8
1
62
256
6
ByLayer
370
18
48
1
60
0
100
AcDbSpline
70
4
71
3
72
10
73
6
40
0
40
0
40
0
40
0
40
0.5
40
0.5
40
1
40
1
40
1
40
1
41
1
10
56.6266284544952
20
21.675
30
0
41
1
10
56.6521732818724
20
21.4794306070828
30
0
41
1
10
56.6770347883834
20
21.2836636945738
30
0
41
1
10
56.7261379246104
20
20.8919506890017
30
0
41
1
10
56.7503619959425
20
20.6960001217519
30
0
41
1
10
56.774406808652
20
20.5
30
0
0
SPLINE
5
11B
100
AcDbEntity
8
1
62
256
6
ByLayer
370
18
48
1
60
0
100
AcDbSpline
70
4
71
3
72
13
73
9
40
0
40
0
40
0
40
0
40
0.5
40
0.5
40
0.625
40
0.625
40
0.75
40
1
40
1
40
1
40
1
41
1
10
16.4383186059721
20
16.15
30
0
41
1
10
16.5121868517612
20
16.15
30
0
41
1
10
16.6054614019386
20
16.15
30
0
41
1
10
16.7424200101403
20
16.15
30
0
41
1
10
16.7708348485301
20
16.15
30
0
41
1
10
16.8295591876068
20
16.15
30
0
41
1
10
16.9204654300023
20
16.15
30
0
41
1
10
17.0193367636654
20
16.15
30
0
41
1
10
17.0883773188371
20
16.15
30
0
0
SPLINE
5
11C
100
AcDbEntity
8
1
62
256
6
ByLayer
370
18
48
1
60
0
100
AcDbSpline
70
4
71
3
72
8
73
4
40
0
40
0
40
0
40
0
40
1
40
1
40
1
40
1
41
1
10
16.6199724445573
20
-13.7787873924369
30
0
41
1
10
16.5560411809434
20
-13.8258535148689
30
0
41
1
10
16.495405863353
20
-13.8734386883264
30
0
41
1
10
16.4383186059721
20
-13.9207719368861
30
0
0
SPLINE
5
11D
100
AcDbEntity
8
1
62
256
6
ByLayer
370
18
48
1
60
0
100
AcDbSpline
70
4
71
3
72
27
73
23
40
0
40
0
40
0
40
0
40
0.0126887616410999
40
0.0126887616410999
40
0.0253775232821998
40
0.0253775232821998
40
0.0507550465643997
40
0.1015100931288
40
0.203020186257599
40
0.203020186257599
40
0.406040372515197
40
0.406040372515197
40
0.507550465643997
40
0.507550465643997
40
0.609060558772797
40
0.710570651901596
40
0.710570651901596
40
0.812080745030395
40
0.812080745030395
40
0.913590838159195
40
0.913590838159195
40
1
40
1
40
1
40
1
41
1
10
16.4383186059721
20
16.15
30
0
41
1
10
16.436663845211
20
16.15
30
0
41
1
10
16.434965834857
20
16.15
30
0
41
1
10
16.4314857055727
20
16.15
30
0
41
1
10
16.4297113360734
20
16.15
30
0
41
1
10
16.4242586502106
20
16.15
30
0
41
1
10
16.4128715151747
20
16.15
30
0
41
1
10
16.3831301714677
20
16.15
30
0
41
1
10
16.3528579161424
20
16.15
30
0
41
1
10
16.2875881820903
20
16.15
30
0
41
1
10
16.2377176315059
20
16.15
30
0
41
1
10
16.160211158034
20
16.15
30
0
41
1
10
16.1339336933148
20
16.15
30
0
41
1
10
16.0818978774413
20
16.15
30
0
41
1
10
16.0303789474202
20
16.15
30
0
41
1
10
15.9833913903222
20
16.15
30
0
41
1
10
15.9408073196652
20
16.15
30
0
41
1
10
15.9217286446354
20
16.15
30
0
41
1
10
15.8903670989901
20
16.15
30
0
41
1
10
15.8781132776296
20
16.15
30
0
41
1
10
15.8636131905182
20
16.15
30
0
41
1
10
15.8601705687829
20
16.15
30
0
41
1
10
15.8601586059717
20
16.15
30
0
0
SPLINE
5
11E
100
AcDbEntity
8
1
62
256
6
ByLayer
370
18
48
1
60
0
100
AcDbSpline
70
4
71
3
72
20
73
16
40
0
40
0
40
0
40
0
40
0.250000000000001
40
0.250000000000001
40
0.375
40
0.375
40
0.437500000000001
40
0.437500000000001
40
0.500000000000001
40
0.500000000000001
40
0.750000000000004
40
0.750000000000004
40
0.875000000000002
40
0.875000000000002
40
1
40
1
40
1
40
1
41
1
10
16.2117961165841
20
16.15
30
0
41
1
10
16.2223590615274
20
16.15
30
0
41
1
10
16.2380876081677
20
16.1570618047586
30
0
41
1
10
16.2658977348966
20
16.1770298814891
30
0
41
1
10
16.2758798970654
20
16.1852700447989
30
0
41
1
10
16.291548310813
20
16.2000276464371
30
0
41
1
10
16.2968998394086
20
16.2053616568097
30
0
41
1
10
16.3076766121431
20
16.2167384176546
30
0
41
1
10
16.3131093269794
20
16.222786786114
30
0
41
1
10
16.3403486001662
20
16.2548091144788
30
0
41
1
10
16.3623636489014
20
16.2860467118214
30
0
41
1
10
16.3932824326487
20
16.3419111665241
30
0
41
1
10
16.4032702707178
20
16.3621290881172
30
0
41
1
10
16.4218727157772
20
16.4052305706165
30
0
41
1
10
16.4305179345452
20
16.428152234257
30
0
41
1
10
16.4383186059721
20
16.4525331199087
30
0
0
SPLINE
5
11F
100
AcDbEntity
8
1
62
256
6
ByLayer
370
18
48
1
60
0
100
AcDbSpline
70
4
71
3
72
28
73
24
40
0
40
0
40
0
40
0
40
0.125
40
0.125
40
0.25
40
0.25
40
0.375000000000001
40
0.375000000000001
40
0.437500000000001
40
0.437500000000001
40
0.500000000000001
40
0.500000000000001
40
0.625000000000001
40
0.625000000000001
40
0.750000000000001
40
0.750000000000001
40
0.812500000000001
40
0.812500000000001
40
0.875
40
0.875
40
0.9375
40
0.9375
40
1
40
1
40
1
40
1
41
1
10
15.2792076144252
20
-15.5102219048535
30
0
41
1
10
15.3036876104775
20
-15.4492228351586
30
0
41
1
10
15.3318039065811
20
-15.3835095532046
30
0
41
1
10
15.3963966396086
20
-15.2445402147746
30
0
41
1
10
15.432888219511
20
-15.1712792700501
30
0
41
1
10
15.5148367562374
20
-15.0199147031931
30
0
41
1
10
15.5603123442413
20
-14.9418124831016
30
0
41
1
10
15.6349403846912
20
-14.8237242184425
30
0
41
1
10
15.6608788767122
20
-14.7842084155391
30
0
41
1
10
15.714635085075
20
-14.7054591469131
30
0
41
1
10
15.7424571948128
20
-14.6662195086593
30
0
41
1
10
15.8282793886781
20
-14.5497323960198
30
0
41
1
10
15.8887022261885
20
-14.4737175442584
30
0
41
1
10
16.0119163295737
20
-14.3295094364486
30
0
41
1
10
16.074717877759
20
-14.261319788226
30
0
41
1
10
16.1659909688996
20
-14.1682499930402
30
0
41
1
10
16.1959092595361
20
-14.13876082715
30
0
41
1
10
16.2536937774656
20
-14.0834222684611
30
0
41
1
10
16.2815627874617
20
-14.0575701238463
30
0
41
1
10
16.3339805562779
20
-14.0101445081266
30
0
41
1
10
16.3585358837917
20
-13.9885647906234
30
0
41
1
10
16.4026981445088
20
-13.9505180070132
30
0
41
1
10
16.4223220059693
20
-13.9340353353884
30
0
41
1
10
16.4383186059721
20
-13.9207719368861
30
0
0
SPLINE
5
120
100
AcDbEntity
8
1
62
256
6
ByLayer
370
18
48
1
60
0
100
AcDbSpline
70
4
71
3
72
10
73
6
40
0
40
0
40
0
40
0
40
0.5
40
0.5
40
1
40
1
40
1
40
1
41
1
10
17.0883773188371
20
16.15
30
0
41
1
10
16.9719925184005
20
15.5884953981566
30
0
41
1
10
16.8591555639327
20
15.0270568219582
30
0
41
1
10
16.6419728453537
20
13.903882475756
30
0
41
1
10
16.5376295266053
20
13.3421474866486
30
0
41
1
10
16.4383186059721
20
12.7799898291346
30
0
0
SPLINE
5
121
100
AcDbEntity
8
1
62
256
6
ByLayer
370
18
48
1
60
0
100
AcDbSpline
70
4
71
3
72
28
73
24
40
0
40
0
40
0
40
0
40
0.125
40
0.125
40
0.25
40
0.25
40
0.375
40
0.375
40
0.5
40
0.5
40
0.625
40
0.625
40
0.65625
40
0.65625
40
0.6875
40
0.6875
40
0.750000000000001
40
0.750000000000001
40
0.875000000000001
40
0.875000000000001
40
0.9375
40
0.9375
40
1
40
1
40
1
40
1
41
1
10
15.2792076144252
20
9.76457026075579
30
0
41
1
10
15.3139483293911
20
9.88283902253346
30
0
41
1
10
15.3524118305332
20
9.99974749201866
30
0
41
1
10
15.4363468997559
20
10.2322765784366
30
0
41
1
10
15.4818213335564
20
10.3478990783224
30
0
41
1
10
15.5787560366599
20
10.579622184971
30
0
41
1
10
15.6302182948737
20
10.6957246885394
30
0
41
1
10
15.737442542392
20
10.9304441114704
30
0
41
1
10
15.7932067745195
20
11.0490613501479
30
0
41
1
10
15.9066271354913
20
11.2910766336744
30
0
41
1
10
15.964288644619
20
11.4144704826887
30
0
41
1
10
16.0355293921681
20
11.5732886652373
30
0
41
1
10
16.0497334414159
20
11.6052820188309
30
0
41
1
10
16.0779928031529
20
11.6697723921663
30
0
41
1
10
16.092031068405
20
11.7022315107205
30
0
41
1
10
16.1336622832034
20
11.8000394477977
30
0
41
1
10
16.1608174466566
20
11.8659187431287
30
0
41
1
10
16.2396490687749
20
12.0659274949167
30
0
41
1
10
16.2887442324525
20
12.2023999665701
30
0
41
1
10
16.353184834807
20
12.4135161391457
30
0
41
1
10
16.3731217424489
20
12.4849608220872
30
0
41
1
10
16.4090086612271
20
12.6304094051623
30
0
41
1
10
16.4249664003861
20
12.7044085681109
30
0
41
1
10
16.4383186059721
20
12.7799898291346
30
0
0
SPLINE
5
122
100
AcDbEntity
8
1
62
256
6
ByLayer
370
18
48
1
60
0
100
AcDbSpline
70
4
71
3
72
27
73
23
40
0
40
0
40
0
40
0
40
0.0624999999999993
40
0.0624999999999993
40
0.124999999999999
40
0.124999999999999
40
0.249999999999996
40
0.249999999999996
40
0.281249999999996
40
0.281249999999996
40
0.312499999999996
40
0.374999999999997
40
0.374999999999997
40
0.499999999999997
40
0.499999999999997
40
0.624999999999998
40
0.624999999999998
40
0.749999999999998
40
0.749999999999998
40
0.874999999999999
40
0.874999999999999
40
1
40
1
40
1
40
1
41
1
10
16.4383186059721
20
-12.7799898291346
30
0
41
1
10
16.4249768219987
20
-12.7044675605084
30
0
41
1
10
16.4090109311547
20
-12.6304050445783
30
0
41
1
10
16.3730419491812
20
-12.4846510122083
30
0
41
1
10
16.3530315699735
20
-12.4129636103939
30
0
41
1
10
16.2882584036959
20
-12.2009100813248
30
0
41
1
10
16.2387889736954
20
-12.063536633701
30
0
41
1
10
16.1724584333133
20
-11.8955094159702
30
0
41
1
10
16.1589486598248
20
-11.8620530843164
30
0
41
1
10
16.1316607711442
20
-11.7957610778626
30
0
41
1
10
16.0903034717626
20
-11.6971938715068
30
0
41
1
10
16.0479902299468
20
-11.6010182607692
30
0
41
1
10
15.9628329298597
20
-11.4113288814101
30
0
41
1
10
15.9053797391151
20
-11.288409538996
30
0
41
1
10
15.7923217918577
20
-11.0471784988703
30
0
41
1
10
15.7367122390411
20
-10.9288705931022
30
0
41
1
10
15.629743151234
20
-10.6946591362605
30
0
41
1
10
15.5783817736067
20
-10.5787550673206
30
0
41
1
10
15.4816073819259
20
-10.3473598965415
30
0
41
1
10
15.4361926521076
20
-10.2318667681401
30
0
41
1
10
15.3523510334628
20
-9.99956150932547
30
0
41
1
10
15.3139214207371
20
-9.88274741666999
30
0
41
1
10
15.2792076144252
20
-9.76457026075579
30
0
0
SPLINE
5
123
100
AcDbEntity
8
1
62
256
6
ByLayer
370
18
48
1
60
0
100
AcDbSpline
70
4
71
3
72
8
73
4
40
0
40
0
40
0
40
0
40
1
40
1
40
1
40
1
41
1
10
16.4383186059721
20
-12.7799898291346
30
0
41
1
10
16.4971585531311
20
-13.1130582032094
30
0
41
1
10
16.557765192975
20
-13.4459708038916
30
0
41
1
10
16.6199724445573
20
-13.7787873924369
30
0
0
SPLINE
5
124
100
AcDbEntity
8
1
62
256
6
ByLayer
370
18
48
1
60
0
100
AcDbSpline
70
4
71
3
72
28
73
24
40
0
40
0
40
0
40
0
40
0.124999999999996
40
0.124999999999996
40
0.249999999999992
40
0.374999999999988
40
0.374999999999988
40
0.406249999999986
40
0.406249999999986
40
0.437499999999985
40
0.499999999999985
40
0.499999999999985
40
0.624999999999985
40
0.624999999999985
40
0.749999999999985
40
0.749999999999985
40
0.781249999999987
40
0.781249999999987
40
0.812499999999989
40
0.812499999999989
40
0.874999999999992
40
0.874999999999992
40
1
40
1
40
1
40
1
41
1
10
18.9914254457522
20
-13
30
0
41
1
10
18.8779426431105
20
-13
30
0
41
1
10
18.7657749017934
20
-13.0048186496063
30
0
41
1
10
18.5439240402652
20
-13.0235525047337
30
0
41
1
10
18.3245584567944
20
-13.0513853509608
30
0
41
1
10
18.1099958234241
20
-13.0967873534744
30
0
41
1
10
17.9773748851308
20
-13.130574893224
30
0
41
1
10
17.950887245419
20
-13.1376139672761
30
0
41
1
10
17.8982537160195
20
-13.1521796843608
30
0
41
1
10
17.8198901454935
20
-13.1747363509224
30
0
41
1
10
17.7432393775752
20
-13.1993595104134
30
0
41
1
10
17.5921144031456
20
-13.2512302053148
30
0
41
1
10
17.4942617032974
20
-13.2893040621635
30
0
41
1
10
17.303915767042
20
-13.3719048111913
30
0
41
1
10
17.211423848133
20
-13.4164333245895
30
0
41
1
10
17.0989754236963
20
-13.475900093384
30
0
41
1
10
17.076644353205
20
-13.4879841007547
30
0
41
1
10
17.0322959291292
20
-13.5125290186119
30
0
41
1
10
17.0102690542811
20
-13.5249961042192
30
0
41
1
10
16.9449490159373
20
-13.5627823585281
30
0
41
1
10
16.9023166803029
20
-13.5885398378678
30
0
41
1
10
16.7770115940547
20
-13.6674162005763
30
0
41
1
10
16.6969246531432
20
-13.7221352653555
30
0
41
1
10
16.6199724445573
20
-13.7787873924369
30
0
0
SPLINE
5
125
100
AcDbEntity
8
1
62
256
6
ByLayer
370
18
48
1
60
0
100
AcDbSpline
70
4
71
3
72
14
73
10
40
0
40
0
40
0
40
0
40
0.25
40
0.25
40
0.5
40
0.5
40
0.75
40
0.75
40
1
40
1
40
1
40
1
41
1
10
15.2792076144252
20
9.76457026075579
30
0
41
1
10
15.2302567841735
20
9.59792561663875
30
0
41
1
10
15.1899623895735
20
9.42830375262423
30
0
41
1
10
15.123472624005
20
9.08329948686711
30
0
41
1
10
15.0972893454058
20
8.90791637286597
30
0
41
1
10
15.0565733092934
20
8.55152350264601
30
0
41
1
10
15.0420475604012
20
8.37051334648703
30
0
41
1
10
15.0226494176028
20
8.00295859155187
30
0
41
1
10
15.0177814202999
20
7.8164137547428
30
0
41
1
10
15.0168856700887
20
7.62713148998151
30
0
0
SPLINE
5
126
100
AcDbEntity
8
1
62
256
6
ByLayer
370
18
48
1
60
0
100
AcDbSpline
70
4
71
3
72
16
73
12
40
0
40
0
40
0
40
0
40
0.249423080457533
40
0.249423080457533
40
0.498846160915066
40
0.498846160915066
40
0.748269241372599
40
0.748269241372599
40
0.997692321830132
40
0.997692321830132
40
1
40
1
40
1
40
1
41
1
10
15.2792076144252
20
-15.5102219048535
30
0
41
1
10
15.2464771809127
20
-15.5917793524412
30
0
41
1
10
15.2209480890886
20
-15.662971291349
30
0
41
1
10
15.1798709860919
20
-15.7850111663419
30
0
41
1
10
15.1643403762961
20
-15.8358591141257
30
0
41
1
10
15.1404826577962
20
-15.9173902942854
30
0
41
1
10
15.1321631932172
20
-15.9480737665842
30
0
41
1
10
15.1211764550497
20
-15.989244498231
30
0
41
1
10
15.1185112070444
20
-15.9997323492338
30
0
41
1
10
15.1184427768199
20
-15.999997376925
30
0
41
1
10
15.1184424091075
20
-15.9999987876365
30
0
41
1
10
15.1184421502649
20
-15.999999753653
30
0
0
SPLINE
5
127
100
AcDbEntity
8
1
62
256
6
ByLayer
370
18
48
1
60
0
100
AcDbSpline
70
4
71
3
72
14
73
10
40
0
40
0
40
0
40
0
40
0.25
40
0.25
40
0.5
40
0.5
40
0.75
40
0.75
40
1
40
1
40
1
40
1
41
1
10
15.0168856700887
20
-7.62713148998151
30
0
41
1
10
15.0177814202999
20
-7.8164137547428
30
0
41
1
10
15.0226494176028
20
-8.00295859155187
30
0
41
1
10
15.0420475604012
20
-8.37051334648703
30
0
41
1
10
15.0565733092934
20
-8.55152350264601
30
0
41
1
10
15.0972893454058
20
-8.90791637286597
30
0
41
1
10
15.123472624005
20
-9.08329948686711
30
0
41
1
10
15.1899623895735
20
-9.42830375262423
30
0
41
1
10
15.2302567841735
20
-9.59792561663878
30
0
41
1
10
15.2792076144252
20
-9.76457026075579
30
0
0
SPLINE
5
128
100
AcDbEntity
8
1
62
256
6
ByLayer
370
18
48
1
60
0
100
AcDbSpline
70
4
71
3
72
24
73
20
40
0
40
0
40
0
40
0
40
0.0625000000000002
40
0.0625000000000002
40
0.125
40
0.125
40
0.249999999999998
40
0.249999999999998
40
0.374999999999995
40
0.374999999999995
40
0.437499999999994
40
0.437499999999994
40
0.499999999999994
40
0.499999999999994
40
0.624999999999996
40
0.624999999999996
40
0.749999999999998
40
0.749999999999998
40
1
40
1
40
1
40
1
41
1
10
7.07679491924324
20
15.2769622091385
30
0
41
1
10
7.08626323279276
20
15.2769622091385
30
0
41
1
10
7.09555909908858
20
15.2766767665958
30
0
41
1
10
7.11383636157848
20
15.2755844637371
30
0
41
1
10
7.12288968289403
20
15.2747681865974
30
0
41
1
10
7.14908346306851
20
15.2716451329302
30
0
41
1
10
7.16496872151981
20
15.268738812049
30
0
41
1
10
7.1945315827696
20
15.261747480553
30
0
41
1
10
7.20768429079325
20
15.2577843892056
30
0
41
1
10
7.2257383204562
20
15.2513732657938
30
0
41
1
10
7.2314739307844
20
15.2491554094552
30
0
41
1
10
7.24245955537376
20
15.24457767362
30
0
41
1
10
7.24772142874491
20
15.2422111791404
30
0
41
1
10
7.26269940300645
20
15.2350027269099
30
0
41
1
10
7.27167180250146
20
15.2300336355428
30
0
41
1
10
7.28809973591254
20
15.2198327834235
30
0
41
1
10
7.29554986762537
20
15.214600303678
30
0
41
1
10
7.31604838234085
20
15.198560277361
30
0
41
1
10
7.32728622413825
20
15.1873822623297
30
0
41
1
10
7.33660254037864
20
15.1759383782004
30
0
0
SPLINE
5
129
100
AcDbEntity
8
1
62
256
6
ByLayer
370
18
48
1
60
0
100
AcDbSpline
70
4
71
3
72
26
73
22
40
0
40
0
40
0
40
0
40
0.249999999999999
40
0.249999999999999
40
0.375000000000001
40
0.375000000000001
40
0.500000000000003
40
0.500000000000003
40
0.625000000000005
40
0.625000000000005
40
0.687500000000004
40
0.687500000000004
40
0.750000000000003
40
0.750000000000003
40
0.812500000000002
40
0.812500000000002
40
0.875000000000002
40
0.875000000000002
40
0.937500000000001
40
0.937500000000001
40
1
40
1
40
1
40
1
41
1
10
7.33660254037858
20
5.06861858311177
30
0
41
1
10
7.32728982767756
20
5.03436773122377
30
0
41
1
10
7.31614231629348
20
5.00076260618602
30
0
41
1
10
7.29568810990139
20
4.95169735098642
30
0
41
1
10
7.28824166023676
20
4.9355683494027
30
0
41
1
10
7.27177247547104
20
4.90388358540412
30
0
41
1
10
7.26270511696598
20
4.88825374454379
30
0
41
1
10
7.24272264769479
20
4.8581790589264
30
0
41
1
10
7.23183787729363
20
4.84374619181003
30
0
41
1
10
7.21365687999148
20
4.82335822863098
30
0
41
1
10
7.2072802857497
20
4.81677720791066
30
0
41
1
10
7.19399447938264
20
4.804341084284
30
0
41
1
10
7.18706371265944
20
4.79845918233451
30
0
41
1
10
7.17251656377681
20
4.78749730730044
30
0
41
1
10
7.1649012897748
20
4.78241603395364
30
0
41
1
10
7.148819916848
20
4.77324997167185
30
0
41
1
10
7.14036005789447
20
4.76918729638879
30
0
41
1
10
7.12304490820168
20
4.76256082995423
30
0
41
1
10
7.11412407245967
20
4.75995494840856
30
0
41
1
10
7.09567030488512
20
4.75638866313565
30
0
41
1
10
7.08624924967634
20
4.75546271781752
30
0
41
1
10
7.07679491924327
20
4.75546271781752
30
0
0
SPLINE
5
12A
100
AcDbEntity
8
1
62
256
6
ByLayer
370
18
48
1
60
0
100
AcDbSpline
70
4
71
3
72
24
73
20
40
0
40
0
40
0
40
0
40
0.0624999999999991
40
0.0624999999999991
40
0.124999999999998
40
0.124999999999998
40
0.250000000000003
40
0.250000000000003
40
0.375000000000008
40
0.375000000000008
40
0.437500000000011
40
0.437500000000011
40
0.500000000000015
40
0.500000000000015
40
0.625000000000012
40
0.625000000000012
40
0.750000000000009
40
0.750000000000009
40
1
40
1
40
1
40
1
41
1
10
4.92320508075687
20
4.75546271781758
30
0
41
1
10
4.91373676720735
20
4.75546271781758
30
0
41
1
10
4.90444090091157
20
4.75637996187979
30
0
41
1
10
4.88616363842166
20
4.75988683311402
30
0
41
1
10
4.87711031710609
20
4.76250659424693
30
0
41
1
10
4.85091653693161
20
4.77251545749058
30
0
41
1
10
4.8350312784803
20
4.78181464126988
30
0
41
1
10
4.80546841723051
20
4.8040815994184
30
0
41
1
10
4.79231570920686
20
4.81666025178743
30
0
41
1
10
4.77426167954391
20
4.83690641005074
30
0
41
1
10
4.76852606921571
20
4.84389474378378
30
0
41
1
10
4.75754044462636
20
4.8582824684799
30
0
41
1
10
4.7522785712552
20
4.86570247833646
30
0
41
1
10
4.73730059699366
20
4.88824517182357
30
0
41
1
10
4.72832819749866
20
4.90370784583433
30
0
41
1
10
4.71190026408757
20
4.93527762356774
30
0
41
1
10
4.70445013237475
20
4.95138709271157
30
0
41
1
10
4.68395161765923
20
5.00049514204591
30
0
41
1
10
4.67271377586187
20
5.03435447791105
30
0
41
1
10
4.66339745962148
20
5.06861858311171
30
0
0
SPLINE
5
12B
100
AcDbEntity
8
1
62
256
6
ByLayer
370
18
48
1
60
0
100
AcDbSpline
70
4
71
3
72
26
73
22
40
0
40
0
40
0
40
0
40
0.25000000000001
40
0.25000000000001
40
0.375000000000012
40
0.375000000000012
40
0.500000000000015
40
0.500000000000015
40
0.625000000000017
40
0.625000000000017
40
0.687500000000014
40
0.687500000000014
40
0.750000000000011
40
0.750000000000011
40
0.812500000000009
40
0.812500000000009
40
0.875000000000006
40
0.875000000000006
40
0.937500000000003
40
0.937500000000003
40
1
40
1
40
1
40
1
41
1
10
4.66339745962154
20
15.1759383782004
30
0
41
1
10
4.67271017232255
20
15.1873778358497
30
0
41
1
10
4.68385768370663
20
15.198472208594
30
0
41
1
10
4.70431189009872
20
15.214499313942
30
0
41
1
10
4.71175833976335
20
15.2197385738514
30
0
41
1
10
4.7282275245291
20
15.2299771164901
30
0
41
1
10
4.73729488303417
20
15.2349999859553
30
0
41
1
10
4.75727735230532
20
15.2446169343317
30
0
41
1
10
4.76816212270651
20
15.249207392375
30
0
41
1
10
4.78634312000864
20
15.2556634144466
30
0
41
1
10
4.79271971425041
20
15.2577422915747
30
0
41
1
10
4.80600552061748
20
15.261662728963
30
0
41
1
10
4.81293628734068
20
15.263512783028
30
0
41
1
10
4.82748343622333
20
15.2669545926744
30
0
41
1
10
4.83509871022531
20
15.2685467526768
30
0
41
1
10
4.85118008315214
20
15.271414727144
30
0
41
1
10
4.85963994210564
20
15.2726836076142
30
0
41
1
10
4.87695509179844
20
15.2747512708819
30
0
41
1
10
4.88587592754044
20
15.2755632425517
30
0
41
1
10
4.90432969511502
20
15.276674061237
30
0
41
1
10
4.9137507503238
20
15.2769622091386
30
0
41
1
10
4.92320508075684
20
15.2769622091386
30
0
0
SPLINE
5
12C
100
AcDbEntity
8
1
62
256
6
ByLayer
370
18
48
1
60
0
100
AcDbSpline
70
4
71
3
72
24
73
20
40
0
40
0
40
0
40
0
40
0.0625000000000029
40
0.0625000000000029
40
0.125000000000006
40
0.125000000000006
40
0.250000000000007
40
0.250000000000007
40
0.375000000000009
40
0.375000000000009
40
0.437500000000011
40
0.437500000000011
40
0.500000000000012
40
0.500000000000012
40
0.625000000000008
40
0.625000000000008
40
0.750000000000004
40
0.750000000000004
40
1
40
1
40
1
40
1
41
1
10
4.92320508075687
20
-15.2769622091385
30
0
41
1
10
4.91373676720735
20
-15.2769622091385
30
0
41
1
10
4.90444090091154
20
-15.2766767665958
30
0
41
1
10
4.88616363842164
20
-15.2755844637371
30
0
41
1
10
4.87711031710609
20
-15.2747681865974
30
0
41
1
10
4.85091653693161
20
-15.2716451329302
30
0
41
1
10
4.8350312784803
20
-15.268738812049
30
0
41
1
10
4.80546841723051
20
-15.261747480553
30
0
41
1
10
4.79231570920686
20
-15.2577843892056
30
0
41
1
10
4.77426167954391
20
-15.2513732657938
30
0
41
1
10
4.76852606921571
20
-15.2491554094552
30
0
41
1
10
4.75754044462636
20
-15.24457767362
30
0
41
1
10
4.7522785712552
20
-15.2422111791405
30
0
41
1
10
4.73730059699366
20
-15.2350027269099
30
0
41
1
10
4.72832819749863
20
-15.2300336355428
30
0
41
1
10
4.71190026408757
20
-15.2198327834236
30
0
41
1
10
4.70445013237475
20
-15.214600303678
30
0
41
1
10
4.68395161765923
20
-15.198560277361
30
0
41
1
10
4.67271377586187
20
-15.1873822623297
30
0
41
1
10
4.66339745962148
20
-15.1759383782004
30
0
0
SPLINE
5
12D
100
AcDbEntity
8
1
62
256
6
ByLayer
370
18
48
1
60
0
100
AcDbSpline
70
4
71
3
72
26
73
22
40
0
40
0
40
0
40
0
40
0.250000000000004
40
0.250000000000004
40
0.375000000000008
40
0.375000000000008
40
0.500000000000011
40
0.500000000000011
40
0.625000000000014
40
0.625000000000014
40
0.687500000000012
40
0.687500000000012
40
0.750000000000009
40
0.750000000000009
40
0.812500000000007
40
0.812500000000007
40
0.875000000000005
40
0.875000000000005
40
0.937500000000002
40
0.937500000000002
40
1
40
1
40
1
40
1
41
1
10
4.66339745962154
20
-5.06861858311171
30
0
41
1
10
4.67271017232255
20
-5.03436773122371
30
0
41
1
10
4.68385768370663
20
-5.00076260618599
30
0
41
1
10
4.70431189009872
20
-4.95169735098636
30
0
41
1
10
4.71175833976335
20
-4.93556834940267
30
0
41
1
10
4.72822752452907
20
-4.90388358540409
30
0
41
1
10
4.73729488303417
20
-4.88825374454376
30
0
41
1
10
4.75727735230532
20
-4.85817905892637
30
0
41
1
10
4.76816212270649
20
-4.84374619181
30
0
41
1
10
4.78634312000864
20
-4.82335822863095
30
0
41
1
10
4.79271971425041
20
-4.8167772079106
30
0
41
1
10
4.80600552061748
20
-4.80434108428395
30
0
41
1
10
4.81293628734068
20
-4.79845918233445
30
0
41
1
10
4.82748343622333
20
-4.78749730730041
30
0
41
1
10
4.83509871022531
20
-4.78241603395361
30
0
41
1
10
4.85118008315214
20
-4.77324997167182
30
0
41
1
10
4.85963994210564
20
-4.76918729638874
30
0
41
1
10
4.87695509179844
20
-4.7625608299542
30
0
41
1
10
4.88587592754044
20
-4.75995494840851
30
0
41
1
10
4.904329695115
20
-4.75638866313562
30
0
41
1
10
4.9137507503238
20
-4.75546271781749
30
0
41
1
10
4.92320508075687
20
-4.75546271781747
30
0
0
SPLINE
5
12E
100
AcDbEntity
8
1
62
256
6
ByLayer
370
18
48
1
60
0
100
AcDbSpline
70
4
71
3
72
24
73
20
40
0
40
0
40
0
40
0
40
0.0625000000000009
40
0.0625000000000009
40
0.125000000000002
40
0.125000000000002
40
0.250000000000002
40
0.250000000000002
40
0.375000000000001
40
0.375000000000001
40
0.437500000000001
40
0.437500000000001
40
0.500000000000001
40
0.500000000000001
40
0.625000000000001
40
0.625000000000001
40
0.750000000000001
40
0.750000000000001
40
1
40
1
40
1
40
1
41
1
10
7.07679491924324
20
-4.75546271781758
30
0
41
1
10
7.08626323279276
20
-4.75546271781758
30
0
41
1
10
7.09555909908858
20
-4.75637996187979
30
0
41
1
10
7.11383636157848
20
-4.75988683311402
30
0
41
1
10
7.12288968289403
20
-4.76250659424696
30
0
41
1
10
7.14908346306851
20
-4.77251545749061
30
0
41
1
10
7.16496872151984
20
-4.7818146412699
30
0
41
1
10
7.19453158276963
20
-4.80408159941842
30
0
41
1
10
7.20768429079328
20
-4.81666025178745
30
0
41
1
10
7.22573832045623
20
-4.83690641005077
30
0
41
1
10
7.23147393078443
20
-4.84389474378381
30
0
41
1
10
7.24245955537378
20
-4.85828246847993
30
0
41
1
10
7.24772142874494
20
-4.86570247833652
30
0
41
1
10
7.26269940300648
20
-4.88824517182363
30
0
41
1
10
7.27167180250149
20
-4.90370784583439
30
0
41
1
10
7.28809973591257
20
-4.9352776235678
30
0
41
1
10
7.2955498676254
20
-4.95138709271166
30
0
41
1
10
7.31604838234091
20
-5.00049514204599
30
0
41
1
10
7.32728622413836
20
-5.03435447791145
30
0
41
1
10
7.33660254037872
20
-5.06861858311211
30
0
0
SPLINE
5
12F
100
AcDbEntity
8
1
62
256
6
ByLayer
370
18
48
1
60
0
100
AcDbSpline
70
4
71
3
72
26
73
22
40
0
40
0
40
0
40
0
40
0.249999999999995
40
0.249999999999995
40
0.374999999999995
40
0.374999999999995
40
0.499999999999994
40
0.499999999999994
40
0.624999999999994
40
0.624999999999994
40
0.687499999999995
40
0.687499999999995
40
0.749999999999996
40
0.749999999999996
40
0.812499999999997
40
0.812499999999997
40
0.874999999999998
40
0.874999999999998
40
0.937499999999999
40
0.937499999999999
40
1
40
1
40
1
40
1
41
1
10
7.33660254037869
20
-15.1759383782002
30
0
41
1
10
7.32728982767767
20
-15.1873778358496
30
0
41
1
10
7.31614231629351
20
-15.198472208594
30
0
41
1
10
7.29568810990142
20
-15.214499313942
30
0
41
1
10
7.28824166023679
20
-15.2197385738514
30
0
41
1
10
7.27177247547107
20
-15.22997711649
30
0
41
1
10
7.262705116966
20
-15.2349999859553
30
0
41
1
10
7.24272264769482
20
-15.2446169343317
30
0
41
1
10
7.23183787729363
20
-15.249207392375
30
0
41
1
10
7.2136568799915
20
-15.2556634144465
30
0
41
1
10
7.20728028574973
20
-15.2577422915747
30
0
41
1
10
7.19399447938267
20
-15.261662728963
30
0
41
1
10
7.18706371265947
20
-15.263512783028
30
0
41
1
10
7.17251656377684
20
-15.2669545926744
30
0
41
1
10
7.16490128977483
20
-15.2685467526768
30
0
41
1
10
7.148819916848
20
-15.271414727144
30
0
41
1
10
7.1403600578945
20
-15.2726836076142
30
0
41
1
10
7.12304490820168
20
-15.2747512708819
30
0
41
1
10
7.11412407245967
20
-15.2755632425517
30
0
41
1
10
7.09567030488512
20
-15.276674061237
30
0
41
1
10
7.08624924967634
20
-15.2769622091386
30
0
41
1
10
7.07679491924327
20
-15.2769622091386
30
0
0
SPLINE
5
130
100
AcDbEntity
8
SK1
62
256
6
ByLayer
370
18
48
1
60
0
100
AcDbSpline
70
4
71
3
72
8
73
4
40
0
40
0
40
0
40
0
40
1
40
1
40
1
40
1
41
1
10
-0.394913799811292
20
10.7863826978029
30
0
41
1
10
-0.394913799811292
20
10.7772102101423
30
0
41
1
10
-0.394913799811292
20
10.767131757724
30
0
41
1
10
-0.394913799811292
20
10.7561716978029
30
0
0
SPLINE
5
131
100
AcDbEntity
8
SK1
62
256
6
ByLayer
370
13
48
1
60
0
100
AcDbSpline
70
4
71
3
72
17
73
13
40
0
40
0
40
0
40
0
40
0.0281908533254101
40
0.114664343624791
40
0.201137833924172
40
0.374084814522934
40
0.547031795121696
40
0.633505285421077
40
0.719978775720458
40
0.89292575631922
40
0.979399246618601
40
1
40
1
40
1
40
1
41
1
10
-0.394913799811292
20
10.7561711443775
30
0
41
1
10
-0.394913799811292
20
10.7416120996023
30
0
41
1
10
-0.394913799811292
20
10.6760666838488
30
0
41
1
10
-0.394913799811292
20
10.5176015241825
30
0
41
1
10
-0.394913799811292
20
10.1419122155822
30
0
41
1
10
-0.394913799811292
20
9.49397590704038
30
0
41
1
10
-0.394913799811292
20
8.63424142104822
30
0
41
1
10
-0.394913799811292
20
7.82801077124961
30
0
41
1
10
-0.394913799811292
20
6.94587050581816
30
0
41
1
10
-0.394913799811292
20
5.95443994194233
30
0
41
1
10
-0.394913799811292
20
5.06372374199364
30
0
41
1
10
-0.394913799811292
20
4.70990996410777
30
0
41
1
10
-0.394913799811292
20
4.64134914436013
30
0
0
SPLINE
5
132
100
AcDbEntity
8
SK1
62
256
6
ByLayer
370
13
48
1
60
0
100
AcDbSpline
70
4
71
3
72
17
73
13
40
0
40
0
40
0
40
0
40
0.0206008114845737
40
0.107074291437999
40
0.280021251344849
40
0.366494731298274
40
0.452968211251699
40
0.625915171158549
40
0.798862131065399
40
0.885335611018824
40
0.971809090972249
40
1
40
1
40
1
40
1
41
1
10
-0.394913799811292
20
-4.64134848730563
30
0
41
1
10
-0.394913799811292
20
-4.70990950240184
30
0
41
1
10
-0.394913799811292
20
-5.06372344169986
30
0
41
1
10
-0.394913799811292
20
-5.95443982150175
30
0
41
1
10
-0.394913799811292
20
-6.94587050303235
30
0
41
1
10
-0.394913799811292
20
-7.82801067908787
30
0
41
1
10
-0.394913799811292
20
-8.63424165383259
30
0
41
1
10
-0.394913799811292
20
-9.49397564760932
30
0
41
1
10
-0.394913799811292
20
-10.1419126962119
30
0
41
1
10
-0.394913799811292
20
-10.5176014399701
30
0
41
1
10
-0.394913799811292
20
-10.6760668753199
30
0
41
1
10
-0.394913799811292
20
-10.741612401652
30
0
41
1
10
-0.394913799811306
20
-10.7561714873123
30
0
0
SPLINE
5
133
100
AcDbEntity
8
SK1
62
256
6
ByLayer
370
18
48
1
60
0
100
AcDbSpline
70
4
71
3
72
8
73
4
40
0
40
0
40
0
40
0
40
1
40
1
40
1
40
1
41
1
10
-0.394913799811306
20
-10.7561718177346
30
0
41
1
10
-0.394913799811306
20
-10.7671318776112
30
0
41
1
10
-0.394913799811306
20
-10.7772103303635
30
0
41
1
10
-0.394913799811292
20
-10.7863828177394
30
0
0
SPLINE
5
134
100
AcDbEntity
8
SK1
62
256
6
ByLayer
370
18
48
1
60
0
100
AcDbSpline
70
4
71
3
72
36
73
32
40
0
40
0
40
0
40
0
40
0.250000000000009
40
0.250000000000009
40
0.375000000000013
40
0.375000000000013
40
0.500000000000016
40
0.500000000000016
40
0.625000000000019
40
0.625000000000019
40
0.687500000000018
40
0.687500000000018
40
0.750000000000018
40
0.750000000000018
40
0.812500000000017
40
0.812500000000017
40
0.843750000000014
40
0.843750000000014
40
0.875000000000011
40
0.875000000000011
40
0.906250000000009
40
0.906250000000009
40
0.921875000000008
40
0.921875000000008
40
0.937500000000006
40
0.937500000000006
40
0.953125000000005
40
0.953125000000005
40
0.968750000000004
40
0.968750000000004
40
1
40
1
40
1
40
1
41
1
10
-0.200000000000003
20
-5.33617165766907
30
0
41
1
10
-0.200315036908975
20
-5.27289521367564
30
0
41
1
10
-0.201789875664204
20
-5.20909745628526
30
0
41
1
10
-0.206624587173891
20
-5.11250115776278
30
0
41
1
10
-0.208678726715377
20
-5.08015186615313
30
0
41
1
10
-0.21396377316492
20
-5.01511877685402
30
0
41
1
10
-0.21719280977581
20
-4.98240206952661
30
0
41
1
10
-0.225317789620732
20
-4.91677347333891
30
0
41
1
10
-0.230191721451277
20
-4.88386769345621
30
0
41
1
10
-0.239523041011836
20
-4.83438451823684
30
0
41
1
10
-0.242981263754075
20
-4.81784570689231
30
0
41
1
10
-0.250820187075689
20
-4.78490372523328
30
0
41
1
10
-0.255194249132046
20
-4.76849148766289
30
0
41
1
10
-0.265341062182387
20
-4.73587605207916
30
0
41
1
10
-0.271083459937017
20
-4.71966709939039
30
0
41
1
10
-0.281609047729475
20
-4.69567298808659
30
0
41
1
10
-0.285461791842167
20
-4.6876968242268
30
0
41
1
10
-0.294043491658428
20
-4.6721963164303
30
0
41
1
10
-0.298764108881429
20
-4.66464732333566
30
0
41
1
10
-0.309721117058857
20
-4.65026872536157
30
0
41
1
10
-0.315847861838719
20
-4.64354733439694
30
0
41
1
10
-0.326745887820323
20
-4.63511696599338
30
0
41
1
10
-0.330584548634334
20
-4.63265939381191
30
0
41
1
10
-0.338813417399322
20
-4.62868790402121
30
0
41
1
10
-0.343173056238456
20
-4.6272155817847
30
0
41
1
10
-0.351980615732828
20
-4.62559605054793
30
0
41
1
10
-0.356492604281144
20
-4.62544479071906
30
0
41
1
10
-0.365142247836943
20
-4.62634244958329
30
0
41
1
10
-0.369383299461418
20
-4.62738999635829
30
0
41
1
10
-0.381287419818449
20
-4.63171844250411
30
0
41
1
10
-0.388425258622917
20
-4.63618835793983
30
0
41
1
10
-0.394913799811292
20
-4.64134848730546
30
0
0
SPLINE
5
135
100
AcDbEntity
8
SK1
62
256
6
ByLayer
370
18
48
1
60
0
100
AcDbSpline
70
4
71
3
72
38
73
34
40
0
40
0
40
0
40
0
40
0.0156250000000001
40
0.0156250000000001
40
0.0312500000000001
40
0.0312500000000001
40
0.0468750000000002
40
0.0468750000000002
40
0.0625000000000003
40
0.0625000000000003
40
0.0781250000000003
40
0.0781250000000003
40
0.0937500000000004
40
0.0937500000000004
40
0.125
40
0.125
40
0.15625
40
0.15625
40
0.1875
40
0.1875
40
0.25
40
0.25
40
0.3125
40
0.3125
40
0.375
40
0.375
40
0.5
40
0.5
40
0.625
40
0.625
40
0.75
40
0.75
40
1
40
1
40
1
40
1
41
1
10
-0.394913799811292
20
-10.7863828177394
30
0
41
1
10
-0.391653760520185
20
-10.7868073974503
30
0
41
1
10
-0.388248787569935
20
-10.7872931954185
30
0
41
1
10
-0.38104474111573
20
-10.7884335693737
30
0
41
1
10
-0.377204200362598
20
-10.7890960220832
30
0
41
1
10
-0.369217304814953
20
-10.7906171798377
30
0
41
1
10
-0.365072240206047
20
-10.7914740808883
30
0
41
1
10
-0.356374930614621
20
-10.7934464855686
30
0
41
1
10
-0.351831659317668
20
-10.7945648569913
30
0
41
1
10
-0.342969526903474
20
-10.7969321132109
30
0
41
1
10
-0.338551791726502
20
-10.7982071558628
30
0
41
1
10
-0.330303438066082
20
-10.8007493496092
30
0
41
1
10
-0.326369654867122
20
-10.8020461167561
30
0
41
1
10
-0.315536517292372
20
-10.8058045642772
30
0
41
1
10
-0.309326332727906
20
-10.8082174869319
30
0
41
1
10
-0.298446200707715
20
-10.8127210422056
30
0
41
1
10
-0.293734896847099
20
-10.8148292922467
30
0
41
1
10
-0.285156710198265
20
-10.8188587541708
30
0
41
1
10
-0.281308084304015
20
-10.8207758502489
30
0
41
1
10
-0.270808032640431
20
-10.8262193711045
30
0
41
1
10
-0.265079336283279
20
-10.8294898497133
30
0
41
1
10
-0.254957395207768
20
-10.8355789099845
30
0
41
1
10
-0.250594351467868
20
-10.8383909645595
30
0
41
1
10
-0.242775853961447
20
-10.8436594160096
30
0
41
1
10
-0.239322535162287
20
-10.8461181112255
30
0
41
1
10
-0.230013012871851
20
-10.8530063957256
30
0
41
1
10
-0.225170221794073
20
-10.856962537247
30
0
41
1
10
-0.217103926423263
20
-10.8639154388083
30
0
41
1
10
-0.213901863970477
20
-10.8669066874342
30
0
41
1
10
-0.208648832379311
20
-10.8720738307053
30
0
41
1
10
-0.206604004109451
20
-10.8742481192771
30
0
41
1
10
-0.201788333226148
20
-10.8796826575044
30
0
41
1
10
-0.200314798330851
20
-10.8818612008295
30
0
41
1
10
-0.200000000000003
20
-10.8828072437538
30
0
0
SPLINE
5
136
100
AcDbEntity
8
SK1
62
256
6
ByLayer
370
18
48
1
60
0
100
AcDbSpline
70
4
71
3
72
30
73
26
40
0
40
0
40
0
40
0
40
0.146364699107248
40
0.146364699107248
40
0.288637249256044
40
0.288637249256044
40
0.43090979940484
40
0.43090979940484
40
0.573182349553636
40
0.573182349553636
40
0.644318624628032
40
0.644318624628032
40
0.715454899702429
40
0.715454899702429
40
0.786591174776826
40
0.786591174776826
40
0.822159312314022
40
0.822159312314022
40
0.857727449851218
40
0.857727449851218
40
0.893295587388414
40
0.893295587388414
40
0.92886372492561
40
0.92886372492561
40
1
40
1
40
1
40
1
41
1
10
-0.227816434489767
20
10.8548826471131
30
0
41
1
10
-0.230376916588071
20
10.8528278745423
30
0
41
1
10
-0.23322085145918
20
10.8506285009895
30
0
41
1
10
-0.239531834141488
20
10.8459675871965
30
0
41
1
10
-0.242990287729214
20
10.8435098262164
30
0
41
1
10
-0.250829509162742
20
10.8382377057441
30
0
41
1
10
-0.255203622748127
20
10.8354242429045
30
0
41
1
10
-0.265350305450426
20
10.8293335169385
30
0
41
1
10
-0.271092516939362
20
10.8260627858261
30
0
41
1
10
-0.281617658957231
20
10.8206200367945
30
0
41
1
10
-0.285470142006773
20
10.8187061746377
30
0
41
1
10
-0.294050968040168
20
10.8146863407048
30
0
41
1
10
-0.29877110330996
20
10.8125793071682
30
0
41
1
10
-0.309727185477641
20
10.8080590642197
30
0
41
1
10
-0.315854674148497
20
10.8056853782479
30
0
41
1
10
-0.326751827399363
20
10.8019180767803
30
0
41
1
10
-0.330590319508559
20
10.8006572352284
30
0
41
1
10
-0.3388193569767
20
10.7981283892307
30
0
41
1
10
-0.343178718210837
20
10.7968736830311
30
0
41
1
10
-0.351986317586707
20
10.7945259507966
30
0
41
1
10
-0.356497925187341
20
10.7934172166753
30
0
41
1
10
-0.365146941171417
20
10.7914582979728
30
0
41
1
10
-0.369387457526784
20
10.7905830468156
30
0
41
1
10
-0.381289694858736
20
10.7883210861532
30
0
41
1
10
-0.388426507712168
20
10.787227586153
30
0
41
1
10
-0.394913799811292
20
10.7863826978029
30
0
0
SPLINE
5
137
100
AcDbEntity
8
SK1
62
256
6
ByLayer
370
18
48
1
60
0
100
AcDbSpline
70
4
71
3
72
38
73
34
40
0
40
0
40
0
40
0
40
0.0156249999999998
40
0.0156249999999998
40
0.0312499999999995
40
0.0312499999999995
40
0.0468749999999993
40
0.0468749999999993
40
0.0624999999999991
40
0.0624999999999991
40
0.0781249999999988
40
0.0781249999999988
40
0.0937499999999986
40
0.0937499999999986
40
0.124999999999998
40
0.124999999999998
40
0.156249999999998
40
0.156249999999998
40
0.187499999999998
40
0.187499999999998
40
0.249999999999998
40
0.249999999999998
40
0.312499999999998
40
0.312499999999998
40
0.374999999999999
40
0.374999999999999
40
0.5
40
0.5
40
0.625
40
0.625
40
0.750000000000001
40
0.750000000000001
40
1
40
1
40
1
40
1
41
1
10
-0.394913799811292
20
4.64134914436011
30
0
41
1
10
-0.39165318919423
20
4.63875608233846
30
0
41
1
10
-0.388247644464386
20
4.63635905357208
30
0
41
1
10
-0.381042481174973
20
4.6320995470027
30
0
41
1
10
-0.377201381196457
20
4.63022186752829
30
0
41
1
10
-0.369213525336733
20
4.62734082823926
30
0
41
1
10
-0.365068062021678
20
4.62632645462108
30
0
41
1
10
-0.356370248565028
20
4.62544187206512
30
0
41
1
10
-0.351826851563416
20
4.62560736428983
30
0
41
1
10
-0.342964741225885
20
4.62727285800153
30
0
41
1
10
-0.338547041295882
20
4.6287905488239
30
0
41
1
10
-0.330298737873164
20
4.6328263706809
30
0
41
1
10
-0.326364934955137
20
4.63537991970733
30
0
41
1
10
-0.315531464191878
20
4.64386259141477
30
0
41
1
10
-0.309321048903229
20
4.65073469454796
30
0
41
1
10
-0.298440053614058
20
4.6651370301698
30
0
41
1
10
-0.293728422559809
20
4.67271763549797
30
0
41
1
10
-0.285149710641136
20
4.68831331247333
30
0
41
1
10
-0.281300680936298
20
4.69633189696827
30
0
41
1
10
-0.270799710556361
20
4.72041012361524
30
0
41
1
10
-0.265070718767532
20
4.73666607870942
30
0
41
1
10
-0.254948515158304
20
4.76936595895617
30
0
41
1
10
-0.250585513465339
20
4.78581541608034
30
0
41
1
10
-0.24276732672277
20
4.81882524209507
30
0
41
1
10
-0.239314267493143
20
4.83541616500196
30
0
41
1
10
-0.230005515013176
20
4.88501617585194
30
0
41
1
10
-0.225163636448798
20
4.91788495786889
30
0
41
1
10
-0.217099280693432
20
4.98329719794708
30
0
41
1
10
-0.213898213829594
20
5.01583953785894
30
0
41
1
10
-0.20864682267235
20
5.08063396121401
30
0
41
1
10
-0.206602645472998
20
5.1128857104508
30
0
41
1
10
-0.201788314269933
20
5.20924017881703
30
0
41
1
10
-0.200314800742902
20
5.27294373858308
30
0
41
1
10
-0.200000000000003
20
5.33617277211951
30
0
0
SPLINE
5
138
100
AcDbEntity
8
SK1
62
256
6
ByLayer
370
18
48
1
60
0
100
AcDbSpline
70
4
71
3
72
51
73
47
40
0
40
0
40
0
40
0
40
0.124999999999999
40
0.124999999999999
40
0.249999999999997
40
0.249999999999997
40
0.374999999999996
40
0.374999999999996
40
0.437499999999995
40
0.437499999999995
40
0.499999999999994
40
0.499999999999994
40
0.562499999999993
40
0.562499999999993
40
0.624999999999992
40
0.624999999999992
40
0.687499999999991
40
0.687499999999991
40
0.74999999999999
40
0.74999999999999
40
0.76562499999999
40
0.76562499999999
40
0.781249999999991
40
0.781249999999991
40
0.812499999999993
40
0.812499999999993
40
0.843749999999994
40
0.843749999999994
40
0.859374999999995
40
0.859374999999995
40
0.874999999999996
40
0.874999999999996
40
0.890624999999997
40
0.898437499999997
40
0.898437499999997
40
0.906249999999997
40
0.906249999999997
40
0.921874999999998
40
0.921874999999998
40
0.937499999999999
40
0.937499999999999
40
0.96875
40
0.96875
40
0.984375
40
0.984375
40
1
40
1
40
1
40
1
41
1
10
-1.30710678118655
20
3.31451661882926
30
0
41
1
10
-1.29142986997667
20
3.3897630763625
30
0
41
1
10
-1.27470678566338
20
3.46427410813732
30
0
41
1
10
-1.23877915534886
20
3.61180951708161
30
0
41
1
10
-1.21957882703769
20
3.68483461732913
30
0
41
1
10
-1.17811208044556
20
3.82934535289559
30
0
41
1
10
-1.15585567945416
20
3.90083274551358
30
0
41
1
10
-1.11943756194687
20
4.00681611681387
30
0
41
1
10
-1.10678144688855
20
4.04195283320607
30
0
41
1
10
-1.08030614075895
20
4.11162708010295
30
0
41
1
10
-1.0664847287134
20
4.14617704758263
30
0
41
1
10
-1.03740732877088
20
4.21463704338331
30
0
41
1
10
-1.02215411448117
20
4.24854782318411
30
0
41
1
10
-0.989810534632497
20
4.31562720626889
30
0
41
1
10
-0.972703118936394
20
4.3488316390202
30
0
41
1
10
-0.936235844758912
20
4.41390614485465
30
0
41
1
10
-0.916870779376708
20
4.44582238792879
30
0
41
1
10
-0.874845150953732
20
4.50797334116768
30
0
41
1
10
-0.852227053599194
20
4.53822671358751
30
0
41
1
10
-0.820553631186371
20
4.57441330787634
30
0
41
1
10
-0.814043724021886
20
4.58156684750043
30
0
41
1
10
-0.800609998002358
20
4.59567874151736
30
0
41
1
10
-0.793669891873009
20
4.60265230200582
30
0
41
1
10
-0.772270499685675
20
4.62306727311523
30
0
41
1
10
-0.757231647480637
20
4.63603379142552
30
0
41
1
10
-0.724940396994398
20
4.66015250963079
30
0
41
1
10
-0.707546163600384
20
4.67137767327185
30
0
41
1
10
-0.679832616693702
20
4.68564152883172
30
0
41
1
10
-0.670305694635132
20
4.68998135172839
30
0
41
1
10
-0.650546741946187
20
4.69765260580627
30
0
41
1
10
-0.64022216499869
20
4.70100461325833
30
0
41
1
10
-0.619253175912249
20
4.70631884291771
30
0
41
1
10
-0.603294335310665
20
4.70928016936773
30
0
41
1
10
-0.586953973627345
20
4.71055934574198
30
0
41
1
10
-0.575971256180566
20
4.71101914305441
30
0
41
1
10
-0.570446527115436
20
4.71104969942959
30
0
41
1
10
-0.554075802154358
20
4.71055195258873
30
0
41
1
10
-0.543321725827369
20
4.70944141268532
30
0
41
1
10
-0.522108041141607
20
4.70578341121956
30
0
41
1
10
-0.51156617868763
20
4.70320510552418
30
0
41
1
10
-0.48118048269788
20
4.69375600670261
30
0
41
1
10
-0.462414422633373
20
4.68523355319658
30
0
41
1
10
-0.435788278906472
20
4.67016153959389
30
0
41
1
10
-0.427196329503332
20
4.66475992808148
30
0
41
1
10
-0.41064685578408
20
4.65344243596107
30
0
41
1
10
-0.402660711616647
20
4.64751002192168
30
0
41
1
10
-0.394913799811292
20
4.64134914436013
30
0
0
SPLINE
5
139
100
AcDbEntity
8
SK1
62
256
6
ByLayer
370
18
48
1
60
0
100
AcDbSpline
70
4
71
3
72
49
73
45
40
0
40
0
40
0
40
0
40
0.0312499999999989
40
0.0312499999999989
40
0.0468749999999988
40
0.0468749999999988
40
0.0624999999999987
40
0.0624999999999987
40
0.0781249999999985
40
0.0781249999999985
40
0.0859374999999984
40
0.0859374999999984
40
0.0937499999999982
40
0.109374999999998
40
0.109374999999998
40
0.124999999999998
40
0.124999999999998
40
0.140624999999997
40
0.140624999999997
40
0.156249999999997
40
0.156249999999997
40
0.187499999999996
40
0.187499999999996
40
0.203124999999996
40
0.203124999999996
40
0.218749999999996
40
0.218749999999996
40
0.249999999999997
40
0.249999999999997
40
0.312499999999998
40
0.312499999999998
40
0.374999999999999
40
0.374999999999999
40
0.4375
40
0.4375
40
0.500000000000001
40
0.500000000000001
40
0.625
40
0.625
40
0.75
40
0.75
40
0.875
40
0.875
40
1
40
1
40
1
40
1
41
1
10
-0.394913799811292
20
-4.64134848730561
30
0
41
1
10
-0.410472906339265
20
-4.65372214729592
30
0
41
1
10
-0.426942829143144
20
-4.66516143545468
30
0
41
1
10
-0.453665922887112
20
-4.68027682446794
30
0
41
1
10
-0.46296699066589
20
-4.68499077617696
30
0
41
1
10
-0.482040652820245
20
-4.69338840362659
30
0
41
1
10
-0.49183103531746
20
-4.69708841757182
30
0
41
1
10
-0.512007846856022
20
-4.70331959628982
30
0
41
1
10
-0.522393850510127
20
-4.70585160410928
30
0
41
1
10
-0.538509027232791
20
-4.7086003971155
30
0
41
1
10
-0.543976580029963
20
-4.70933923526332
30
0
41
1
10
-0.554868580612819
20
-4.71041558869646
30
0
41
1
10
-0.571225704249983
20
-4.71144475460159
30
0
41
1
10
-0.587640507307086
20
-4.71070982968027
30
0
41
1
10
-0.609578781712301
20
-4.70814275449186
30
0
41
1
10
-0.620374827492924
20
-4.70608282011185
30
0
41
1
10
-0.641350213090249
20
-4.70066349410453
30
0
41
1
10
-0.651584949943015
20
-4.69729749278468
30
0
41
1
10
-0.671613199750624
20
-4.68941827906221
30
0
41
1
10
-0.681210585475682
20
-4.68498433991073
30
0
41
1
10
-0.708965296078389
20
-4.67052822129415
30
0
41
1
10
-0.726125293179763
20
-4.65935713023322
30
0
41
1
10
-0.750492243423082
20
-4.64101614114151
30
0
41
1
10
-0.758331050800265
20
-4.63466996063099
30
0
41
1
10
-0.773435300259308
20
-4.62169082720084
30
0
41
1
10
-0.780721313355443
20
-4.61504174878664
30
0
41
1
10
-0.801920392594155
20
-4.59469556410733
30
0
41
1
10
-0.81518147456859
20
-4.58060351558976
30
0
41
1
10
-0.85306861391787
20
-4.53715229328867
30
0
41
1
10
-0.875849179816711
20
-4.50661286524704
30
0
41
1
10
-0.918270620990725
20
-4.4436195297605
30
0
41
1
10
-0.937648218653877
20
-4.41151284912419
30
0
41
1
10
-0.973982716029639
20
-4.346410546671
30
0
41
1
10
-0.990922443825184
20
-4.31341024355515
30
0
41
1
10
-1.02300701475589
20
-4.24668344942171
30
0
41
1
10
-1.03814572296365
20
-4.21295529145058
30
0
41
1
10
-1.08144833641846
20
-4.110828328325
30
0
41
1
10
-1.10752892291299
20
-4.04149516781195
30
0
41
1
10
-1.15587378854893
20
-3.90075641540054
30
0
41
1
10
-1.1781266476619
20
-3.82929955489214
30
0
41
1
10
-1.21961966811575
20
-3.68468606745111
30
0
41
1
10
-1.23882094986982
20
-3.61164482751008
30
0
41
1
10
-1.27473665787787
20
-3.46414251617398
30
0
41
1
10
-1.2914467565532
20
-3.38968077243681
30
0
41
1
10
-1.30710678118655
20
-3.3145152459299
30
0
0
SPLINE
5
13A
100
AcDbEntity
8
SK1
62
256
6
ByLayer
370
18
48
1
60
0
100
AcDbSpline
70
4
71
3
72
39
73
35
40
0
40
0
40
0
40
0
40
0.0234567247526929
40
0.0514886794485471
40
0.0795206341444012
40
0.107552588840255
40
0.163616498231964
40
0.219680407623672
40
0.247712362319526
40
0.27574431701538
40
0.331808226407089
40
0.359840181102943
40
0.387872135798797
40
0.415904090494651
40
0.443936045190505
40
0.471967999886359
40
0.485983977234286
40
0.499999954582213
40
0.51401593193014
40
0.528031909278067
40
0.556063863973922
40
0.584095818669776
40
0.61212777336563
40
0.640159728061484
40
0.668191682757338
40
0.724255592149046
40
0.752287546844901
40
0.780319501540755
40
0.836383410932463
40
0.892447320324171
40
0.920479275020025
40
0.948511229715879
40
0.976543184411734
40
1
40
1
40
1
40
1
41
1
10
-19
20
-10.0331238561702
30
0
41
1
10
-19
20
-10.0359545743905
30
0
41
1
10
-19
20
-10.0171751038185
30
0
41
1
10
-19
20
-9.9112384954864
30
0
41
1
10
-19
20
-9.7189181452959
30
0
41
1
10
-19
20
-9.36252651571962
30
0
41
1
10
-19
20
-8.74965879408046
30
0
41
1
10
-19
20
-7.93503539480022
30
0
41
1
10
-19
20
-7.16669627657109
30
0
41
1
10
-19
20
-6.32708816497822
30
0
41
1
10
-19
20
-5.39691150719781
30
0
41
1
10
-19
20
-4.35855334822477
30
0
41
1
10
-19
20
-3.54050720156599
30
0
41
1
10
-19
20
-2.68380947355118
30
0
41
1
10
-19
20
-1.79728161122435
30
0
41
1
10
-19
20
-1.05021119288873
30
0
41
1
10
-19
20
-0.444754022193024
30
0
41
1
10
-19
20
1.751603804E-07
30
0
41
1
10
-19
20
0.444753991208074
30
0
41
1
10
-19
20
1.0502111192676
30
0
41
1
10
-19
20
1.79728192772168
30
0
41
1
10
-19
20
2.6838095858885
30
0
41
1
10
-19
20
3.54050705744922
30
0
41
1
10
-19
20
4.35855354299241
30
0
41
1
10
-19
20
5.39691159718635
30
0
41
1
10
-19
20
6.32708816044823
30
0
41
1
10
-19
20
7.16669631785615
30
0
41
1
10
-19
20
7.9350351787146
30
0
41
1
10
-19
20
8.74965901233355
30
0
41
1
10
-19
20
9.36252604803423
30
0
41
1
10
-19
20
9.71891823175801
30
0
41
1
10
-19
20
9.91123825969146
30
0
41
1
10
-19
20
10.0171748818688
30
0
41
1
10
-19
20
10.0359545216747
30
0
41
1
10
-19
20
10.0331237416051
30
0
0
SPLINE
5
13B
100
AcDbEntity
8
SK1
62
256
6
ByLayer
370
18
48
1
60
0
100
AcDbSpline
70
4
71
3
72
9
73
5
40
0
40
0
40
0
40
0
40
0.518667901138461
40
1
40
1
40
1
40
1
41
1
10
-1.49503997793931
20
10.8252683823144
30
0
41
1
10
-1.49503997793931
20
10.8252040301927
30
0
41
1
10
-1.49503997793928
20
10.8074035780956
30
0
41
1
10
-1.4950399779393
20
10.7587880254963
30
0
41
1
10
-1.4950399779393
20
10.7287503823143
30
0
0
SPLINE
5
13C
100
AcDbEntity
8
SK1
62
256
6
ByLayer
370
13
48
1
60
0
100
AcDbSpline
70
4
71
3
72
19
73
15
40
0
40
0
40
0
40
0
40
0.0232344806933778
40
0.094510056734391
40
0.165785632775404
40
0.308336784857431
40
0.450887936939457
40
0.52216351298047
40
0.593439089021484
40
0.73599024110351
40
0.807265817144524
40
0.878541393185537
40
0.94981696922655
40
1
40
1
40
1
40
1
41
1
10
-1.49503997793931
20
10.7287503823142
30
0
41
1
10
-1.49503997793931
20
10.7142230482571
30
0
41
1
10
-1.49503997793931
20
10.6488155776695
30
0
41
1
10
-1.4950399779393
20
10.4906675023526
30
0
41
1
10
-1.4950399779393
20
10.1156289513023
30
0
41
1
10
-1.4950399779393
20
9.46887528495321
30
0
41
1
10
-1.4950399779393
20
8.61066206691208
30
0
41
1
10
-1.4950399779393
20
7.80570924310555
30
0
41
1
10
-1.4950399779393
20
6.92500328929282
30
0
41
1
10
-1.4950399779393
20
5.93563839600924
30
0
41
1
10
-1.4950399779393
20
4.83747557076666
30
0
41
1
10
-1.4950399779393
20
3.96252944300574
30
0
41
1
10
-1.4950399779393
20
3.12815554972912
30
0
41
1
10
-1.4950399779393
20
2.57901008145927
30
0
41
1
10
-1.4950399779393
20
2.34849338234218
30
0
0
SPLINE
5
13D
100
AcDbEntity
8
SK1
62
256
6
ByLayer
370
13
48
1
60
0
100
AcDbSpline
70
4
71
3
72
19
73
15
40
0
40
0
40
0
40
0
40
0.0501831328083958
40
0.121458725251142
40
0.192734317693889
40
0.264009910136635
40
0.406561095022128
40
0.477836687464875
40
0.549112279907621
40
0.691663464793114
40
0.834214649678607
40
0.905490242121353
40
0.9767658345641
40
1
40
1
40
1
40
1
41
1
10
-1.4950399779393
20
-2.3484920325788
30
0
41
1
10
-1.4950399779393
20
-2.57900913866001
30
0
41
1
10
-1.4950399779393
20
-3.12815500226569
30
0
41
1
10
-1.4950399779393
20
-3.96252951444396
30
0
41
1
10
-1.4950399779393
20
-4.83747546310531
30
0
41
1
10
-1.4950399779393
20
-5.93563827659562
30
0
41
1
10
-1.4950399779393
20
-6.92500328675371
30
0
41
1
10
-1.4950399779393
20
-7.80570915265955
30
0
41
1
10
-1.4950399779393
20
-8.61066229913334
30
0
41
1
10
-1.4950399779393
20
-9.46887502691081
30
0
41
1
10
-1.4950399779393
20
-10.1156294314955
30
0
41
1
10
-1.4950399779393
20
-10.4906674180643
30
0
41
1
10
-1.4950399779393
20
-10.6488154173842
30
0
41
1
10
-1.4950399779393
20
-10.7142228393446
30
0
41
1
10
-1.49503997793931
20
-10.7287500326024
30
0
0
SPLINE
5
13E
100
AcDbEntity
8
SK1
62
256
6
ByLayer
370
18
48
1
60
0
100
AcDbSpline
70
4
71
3
72
9
73
5
40
0
40
0
40
0
40
0
40
0.480964940638472
40
1
40
1
40
1
40
1
41
1
10
-1.4950399779393
20
-10.728750703429
30
0
41
1
10
-1.49503997793931
20
-10.7587883479925
30
0
41
1
10
-1.49503997793931
20
-10.8074409903012
30
0
41
1
10
-1.49503997793931
20
-10.8252313194992
30
0
41
1
10
-1.49503997793931
20
-10.8252687034291
30
0
0
SPLINE
5
13F
100
AcDbEntity
8
SK1
62
256
6
ByLayer
370
18
48
1
60
0
100
AcDbSpline
70
4
71
3
72
50
73
46
40
0
40
0
40
0
40
0
40
0.124999999999993
40
0.124999999999993
40
0.249999999999987
40
0.249999999999987
40
0.312499999999983
40
0.312499999999983
40
0.343749999999981
40
0.343749999999981
40
0.374999999999979
40
0.374999999999979
40
0.406249999999978
40
0.406249999999978
40
0.421874999999977
40
0.421874999999977
40
0.437499999999976
40
0.437499999999976
40
0.453124999999976
40
0.453124999999976
40
0.460937499999976
40
0.460937499999976
40
0.468749999999976
40
0.468749999999976
40
0.476562499999977
40
0.476562499999977
40
0.484374999999977
40
0.484374999999977
40
0.499999999999978
40
0.499999999999978
40
0.515624999999979
40
0.515624999999979
40
0.531249999999981
40
0.531249999999981
40
0.562499999999983
40
0.562499999999983
40
0.624999999999986
40
0.624999999999986
40
0.687499999999989
40
0.687499999999989
40
0.749999999999991
40
0.749999999999991
40
0.874999999999996
40
0.874999999999996
40
1
40
1
40
1
40
1
41
1
10
-1.7
20
2.34765420370229
30
0
41
1
10
-1.6998034368002
20
2.30204296329814
30
0
41
1
10
-1.69915039367987
20
2.25635328938307
30
0
41
1
10
-1.69653309873968
20
2.16478330538484
30
0
41
1
10
-1.69459916908717
20
2.11890560637775
30
0
41
1
10
-1.68995560549762
20
2.04988104532177
30
0
41
1
10
-1.68811440381067
20
2.026837939378
30
0
41
1
10
-1.68462315938689
20
1.99219601544965
30
0
41
1
10
-1.68333613778455
20
1.98063568355289
30
0
41
1
10
-1.68041145611024
20
1.95748001200514
30
0
41
1
10
-1.67877301232556
20
1.94586360536206
30
0
41
1
10
-1.67497483096689
20
1.92276974286997
30
0
41
1
10
-1.67282618887015
20
1.91127637950416
30
0
41
1
10
-1.66887115205898
20
1.8941928758147
30
0
41
1
10
-1.66742423583295
20
1.88851124598514
30
0
41
1
10
-1.66416551260078
20
1.87735964831145
30
0
41
1
10
-1.662359861196
20
1.8718764964907
30
0
41
1
10
-1.65807410816048
20
1.86126309906433
30
0
41
1
10
-1.65558240733868
20
1.8560666599372
30
0
41
1
10
-1.65094843729229
20
1.84951261814737
30
0
41
1
10
-1.64926857345709
20
1.84756086938978
30
0
41
1
10
-1.64547058536634
20
1.84443339232337
30
0
41
1
10
-1.64342437159498
20
1.84335697758959
30
0
41
1
10
-1.63925809788927
20
1.8424625676509
30
0
41
1
10
-1.63716436135068
20
1.84265099543569
30
0
41
1
10
-1.6332492271918
20
1.8439380266808
30
0
41
1
10
-1.63139685760363
20
1.84502279335263
30
0
41
1
10
-1.62620205615828
20
1.84900379634971
30
0
41
1
10
-1.62321157089434
20
1.85255132027478
30
0
41
1
10
-1.61769248369454
20
1.86030187295179
30
0
41
1
10
-1.61521688012277
20
1.86447571968583
30
0
41
1
10
-1.61056317312595
20
1.87313396792089
30
0
41
1
10
-1.6083915023864
20
1.8776251804901
30
0
41
1
10
-1.60217434005762
20
1.89140717435808
30
0
41
1
10
-1.59841255627542
20
1.90102400468518
30
0
41
1
10
-1.587822149377
20
1.9302989986453
30
0
41
1
10
-1.58166446065891
20
1.9503889844722
30
0
41
1
10
-1.57011438927675
20
1.99102269015194
30
0
41
1
10
-1.564757186142
20
2.01158981154214
30
0
41
1
10
-1.55453695277318
20
2.05299657334311
30
0
41
1
10
-1.54968042595411
20
2.07384054331874
30
0
41
1
10
-1.53563332649338
20
2.13663479390587
30
0
41
1
10
-1.52695339101722
20
2.17884887827933
30
0
41
1
10
-1.51042221129256
20
2.26350502578163
30
0
41
1
10
-1.50258018333608
20
2.30596680519997
30
0
41
1
10
-1.4950399779393
20
2.34849338234218
30
0
0
SPLINE
5
140
100
AcDbEntity
8
SK1
62
256
6
ByLayer
370
18
48
1
60
0
100
AcDbSpline
70
4
71
3
72
50
73
46
40
0
40
0
40
0
40
0
40
0.124999999999993
40
0.124999999999993
40
0.249999999999986
40
0.249999999999986
40
0.312499999999982
40
0.312499999999982
40
0.374999999999977
40
0.374999999999977
40
0.437499999999973
40
0.437499999999973
40
0.46874999999997
40
0.46874999999997
40
0.484374999999968
40
0.484374999999968
40
0.499999999999967
40
0.499999999999967
40
0.507812499999967
40
0.507812499999967
40
0.515624999999967
40
0.515624999999967
40
0.523437499999968
40
0.523437499999968
40
0.531249999999968
40
0.531249999999968
40
0.539062499999969
40
0.539062499999969
40
0.546874999999969
40
0.546874999999969
40
0.562499999999971
40
0.562499999999971
40
0.578124999999972
40
0.578124999999972
40
0.593749999999973
40
0.593749999999973
40
0.624999999999975
40
0.624999999999975
40
0.687499999999979
40
0.687499999999979
40
0.749999999999983
40
0.749999999999983
40
0.874999999999992
40
0.874999999999992
40
1
40
1
40
1
40
1
41
1
10
-1.49503997793988
20
-2.3484920325786
30
0
41
1
10
-1.50264486299135
20
-2.30560072837358
30
0
41
1
10
-1.51055569104386
20
-2.26278077026905
30
0
41
1
10
-1.5272377941365
20
-2.17743187773848
30
0
41
1
10
-1.53599602067253
20
-2.13489523766006
30
0
41
1
10
-1.55020424476854
20
-2.07156115964614
30
0
41
1
10
-1.55512152574804
20
-2.05052989285036
30
0
41
1
10
-1.56549038663996
20
-2.0087292593407
30
0
41
1
10
-1.57093965450312
20
-1.9879376472413
30
0
41
1
10
-1.58270783684462
20
-1.94692992432044
30
0
41
1
10
-1.58898554423647
20
-1.92669096647967
30
0
41
1
10
-1.59982985491632
20
-1.89736086048552
30
0
41
1
10
-1.60367776004783
20
-1.88777253140711
30
0
41
1
10
-1.61012801536764
20
-1.87403352849674
30
0
41
1
10
-1.61238739824751
20
-1.86957502492965
30
0
41
1
10
-1.61725988408107
20
-1.86105354384
30
0
41
1
10
-1.61988012527918
20
-1.85696555156221
30
0
41
1
10
-1.62422190548617
20
-1.85152626087802
30
0
41
1
10
-1.62574025018971
20
-1.84982698790452
30
0
41
1
10
-1.62899704637212
20
-1.84678183261011
30
0
41
1
10
-1.63073797021957
20
-1.84543674111649
30
0
41
1
10
-1.63444006998854
20
-1.84343334345596
30
0
41
1
10
-1.6364310452875
20
-1.84277379291592
30
0
41
1
10
-1.64049371863734
20
-1.84257528778565
30
0
41
1
10
-1.64263141831242
20
-1.84306719353074
30
0
41
1
10
-1.6466167007513
20
-1.84520272843358
30
0
41
1
10
-1.64851494362384
20
-1.84684788948113
30
0
41
1
10
-1.65189818459372
20
-1.85070880506405
30
0
41
1
10
-1.65343748347131
20
-1.85296435164068
30
0
41
1
10
-1.65758301818303
20
-1.86005243113519
30
0
41
1
10
-1.65983641715788
20
-1.86533039904762
30
0
41
1
10
-1.66377295358205
20
-1.87606716402044
30
0
41
1
10
-1.66545095510661
20
-1.88154764100148
30
0
41
1
10
-1.66849020043533
20
-1.89263136704571
30
0
41
1
10
-1.66984560772775
20
-1.89823686093516
30
0
41
1
10
-1.67358927825892
20
-1.91517885650296
30
0
41
1
10
-1.67566088610396
20
-1.92664763316904
30
0
41
1
10
-1.68112003269373
20
-1.96089400109636
30
0
41
1
10
-1.68380553438459
20
-1.9837178331704
30
0
41
1
10
-1.68832630630219
20
-2.02935224085806
30
0
41
1
10
-1.69012636136873
20
-2.05216278261108
30
0
41
1
10
-1.69467464365059
20
-2.12057478489859
30
0
41
1
10
-1.69658414869913
20
-2.16620101192839
30
0
41
1
10
-1.69916210808094
20
-2.25713844148177
30
0
41
1
10
-1.6998052211259
20
-2.30245581760673
30
0
41
1
10
-1.7
20
-2.34765294685576
30
0
0
SPLINE
5
141
100
AcDbEntity
8
SK1
62
256
6
ByLayer
370
18
48
1
60
0
100
AcDbSpline
70
4
71
3
72
10
73
6
40
0
40
0
40
0
40
0
40
0.5
40
0.5
40
1
40
1
40
1
40
1
41
1
10
-1.30710678118655
20
-3.3145152459299
30
0
41
1
10
-1.33975739597588
20
-3.15779769861589
30
0
41
1
10
-1.37201250439205
20
-2.99910289734024
30
0
41
1
10
-1.43497554121926
20
-2.67729808228725
30
0
41
1
10
-1.46566312449342
20
-2.51417653001474
30
0
41
1
10
-1.4950399779393
20
-2.34849203258926
30
0
0
SPLINE
5
142
100
AcDbEntity
8
SK1
62
256
6
ByLayer
370
18
48
1
60
0
100
AcDbSpline
70
4
71
3
72
10
73
6
40
0
40
0
40
0
40
0
40
0.5
40
0.5
40
1
40
1
40
1
40
1
41
1
10
-1.4950399779393
20
2.34849338234218
30
0
41
1
10
-1.46566316358729
20
2.51417790895556
30
0
41
1
10
-1.4349756098799
20
2.6772994834665
30
0
41
1
10
-1.37201258068184
20
2.99910431043691
30
0
41
1
10
-1.33975744342438
20
3.15779909733413
30
0
41
1
10
-1.30710678118653
20
3.31451661882926
30
0
0
SPLINE
5
143
100
AcDbEntity
8
SK1
62
256
6
ByLayer
370
18
48
1
60
0
100
AcDbSpline
70
4
71
3
72
20
73
16
40
0
40
0
40
0
40
0
40
0.0618285640670633
40
0.125322966046997
40
0.188817368026931
40
0.252311770006865
40
0.379300573966732
40
0.5062893779266
40
0.569783779906533
40
0.633278181886467
40
0.760266985846335
40
0.823761387826268
40
0.887255789806202
40
0.950750191786136
40
1
40
1
40
1
40
1
41
1
10
-1.7
20
11.0168587088415
30
0
41
1
10
-1.69999999999999
20
11.0254727809187
30
0
41
1
10
-1.69999999999999
20
11.0077567930489
30
0
41
1
10
-1.7
20
10.8874544346102
30
0
41
1
10
-1.7
20
10.6806097131649
30
0
41
1
10
-1.7
20
10.3009819355762
30
0
41
1
10
-1.7
20
9.64588812329171
30
0
41
1
10
-1.7
20
8.77694672660428
30
0
41
1
10
-1.7
20
7.96298250837995
30
0
41
1
10
-1.7
20
7.07216160324032
30
0
41
1
10
-1.7
20
6.06822933336571
30
0
41
1
10
-1.7
20
4.95534741364133
30
0
41
1
10
-1.7
20
4.06639719899749
30
0
41
1
10
-1.7
20
3.19422498243512
30
0
41
1
10
-1.7
20
2.6085619558728
30
0
41
1
10
-1.7
20
2.34765420370229
30
0
0
SPLINE
5
144
100
AcDbEntity
8
SK1
62
256
6
ByLayer
370
18
48
1
60
0
100
AcDbSpline
70
4
71
3
72
20
73
16
40
0
40
0
40
0
40
0
40
0.0492498069252301
40
0.112744110625625
40
0.176238414326019
40
0.239732718026413
40
0.366721325427202
40
0.430215629127597
40
0.493709932827991
40
0.62069854022878
40
0.747687147629569
40
0.811181451329964
40
0.874675755030358
40
0.938170058730753
40
1
40
1
40
1
40
1
41
1
10
-1.7
20
-2.34765294686034
30
0
41
1
10
-1.7
20
-2.60856107921731
30
0
41
1
10
-1.7
20
-3.19422443293118
30
0
41
1
10
-1.7
20
-4.06639725254811
30
0
41
1
10
-1.7
20
-4.95534732741851
30
0
41
1
10
-1.7
20
-6.06822920671002
30
0
41
1
10
-1.7
20
-7.07216159896134
30
0
41
1
10
-1.7
20
-7.96298240583451
30
0
41
1
10
-1.7
20
-8.77694696279681
30
0
41
1
10
-1.7
20
-9.64588785545641
30
0
41
1
10
-1.7
20
-10.3009824188478
30
0
41
1
10
-1.7
20
-10.6806096294116
30
0
41
1
10
-1.7
20
-10.8874546409424
30
0
41
1
10
-1.7
20
-11.007758100462
30
0
41
1
10
-1.70000000000002
20
-11.0254732754455
30
0
41
1
10
-1.70000000000002
20
-11.0168581573795
30
0
0
SPLINE
5
145
100
AcDbEntity
8
SK1
62
256
6
ByLayer
370
18
48
1
60
0
100
AcDbSpline
70
4
71
3
72
28
73
24
40
0
40
0
40
0
40
0
40
0.125
40
0.125
40
0.25
40
0.25
40
0.375
40
0.375
40
0.40625
40
0.40625
40
0.4375
40
0.4375
40
0.5
40
0.5
40
0.625
40
0.625
40
0.75
40
0.75
40
0.8125
40
0.8125
40
0.875
40
0.875
40
1
40
1
40
1
40
1
41
1
10
-1.7
20
-2.34765294686034
30
0
41
1
10
-1.73205415669226
20
-2.16038584160381
30
0
41
1
10
-1.76222065032135
20
-1.97131662577766
30
0
41
1
10
-1.81699375220627
20
-1.58898156364668
30
0
41
1
10
-1.84157210171965
20
-1.39570674274961
30
0
41
1
10
-1.88287055486933
20
-1.00413788392149
30
0
41
1
10
-1.89960742958058
20
-0.805850441666081
30
0
41
1
10
-1.91396022727268
20
-0.554216735189272
30
0
41
1
10
-1.91649855456244
20
-0.503699732728535
30
0
41
1
10
-1.92087575570552
20
-0.402270484700296
30
0
41
1
10
-1.92271432260526
20
-0.351352531619966
30
0
41
1
10
-1.92711759702395
20
-0.1991732695476
30
0
41
1
10
-1.92858996592999
20
-0.098096875673491
30
0
41
1
10
-1.92851257349817
20
0.203996833737762
30
0
41
1
10
-1.92249647820374
20
0.403884260844393
30
0
41
1
10
-1.89992814454848
20
0.800898512891649
30
0
41
1
10
-1.88342776895729
20
0.998033489767096
30
0
41
1
10
-1.85255630843314
20
1.29195216882439
30
0
41
1
10
-1.84124169681192
20
1.38962690798928
30
0
41
1
10
-1.81682576986775
20
1.58441982262914
30
0
41
1
10
-1.80370973774758
20
1.68162305605506
30
0
41
1
10
-1.76234965181258
20
1.97058473862921
30
0
41
1
10
-1.73206310969364
20
2.16033448890278
30
0
41
1
10
-1.7
20
2.34765420370229
30
0
0
SPLINE
5
146
100
AcDbEntity
8
SK1
62
256
6
ByLayer
370
18
48
1
60
0
100
AcDbSpline
70
4
71
3
72
39
73
35
40
0
40
0
40
0
40
0
40
0.0271657225957027
40
0.0549795254626788
40
0.0827933283296549
40
0.110607131196631
40
0.166234736930583
40
0.221862342664535
40
0.249676145531511
40
0.277489948398487
40
0.33311755413244
40
0.360931356999416
40
0.388745159866392
40
0.416558962733368
40
0.444372765600344
40
0.47218656846732
40
0.486093469900808
40
0.500000371334296
40
0.513907272767784
40
0.527814174201272
40
0.555627977068248
40
0.583441779935224
40
0.6112555828022
40
0.639069385669176
40
0.666883188536153
40
0.722510794270105
40
0.750324597137081
40
0.778138400004057
40
0.833766005738009
40
0.889393611471961
40
0.917207414338937
40
0.945021217205913
40
0.972835020072889
40
1
40
1
40
1
40
1
41
1
10
-18
20
10.6076106354784
30
0
41
1
10
-18
20
10.6159562137781
30
0
41
1
10
-18
20
10.5989384254937
30
0
41
1
10
-18
20
10.4823597514038
30
0
41
1
10
-18
20
10.2815422565791
30
0
41
1
10
-18
20
9.91155641668578
30
0
41
1
10
-18
20
9.27398520146792
30
0
41
1
10
-18
20
8.42758364438683
30
0
41
1
10
-18
20
7.63255231230303
30
0
41
1
10
-18
20
6.76298285981449
30
0
41
1
10
-18
20
5.78965656162174
30
0
41
1
10
-18
20
4.70769937196641
30
0
41
1
10
-18
20
3.84817166067387
30
0
41
1
10
-18
20
2.9411794741566
30
0
41
1
10
-18
20
1.9909558545304
30
0
41
1
10
-18
20
1.17129189084349
30
0
41
1
10
-18
20
0.501599059707559
30
0
41
1
10
-18
20
7.85940131E-08
30
0
41
1
10
-18
20
-0.501599044412444
30
0
41
1
10
-18
20
-1.17129192458174
30
0
41
1
10
-18
20
-1.99095571595876
30
0
41
1
10
-18
20
-2.94117931205881
30
0
41
1
10
-18
20
-3.84817175180621
30
0
41
1
10
-18
20
-4.70769924070134
30
0
41
1
10
-18
20
-5.78965645018161
30
0
41
1
10
-18
20
-6.76298285919094
30
0
41
1
10
-18
20
-7.63255223517845
30
0
41
1
10
-18
20
-8.42758387223572
30
0
41
1
10
-18
20
-9.27398495420746
30
0
41
1
10
-18
20
-9.91155689348966
30
0
41
1
10
-18
20
-10.2815421717017
30
0
41
1
10
-18
20
-10.482359969962
30
0
41
1
10
-18
20
-10.5989377402285
30
0
41
1
10
-18
20
-10.6159558337172
30
0
41
1
10
-18
20
-10.607611386018
30
0
0
SPLINE
5
147
100
AcDbEntity
8
1
62
256
6
ByLayer
370
18
48
1
60
0
100
AcDbSpline
70
4
71
3
72
18
73
14
40
0
40
0
40
0
40
0
40
0.106502320877564
40
0.209819720888456
40
0.309970050664625
40
0.406972922400383
40
0.500849920825789
40
0.591624858696226
40
0.679324076625914
40
0.763976789997911
40
0.845615488386064
40
0.924276395492476
40
1
40
1
40
1
40
1
41
1
10
57.59011863841
20
20.483085351823
30
0
41
1
10
57.5885415273357
20
20.4837643036506
30
0
41
1
10
57.5854344682343
20
20.4851019034492
30
0
41
1
10
57.5809243323185
20
20.4874049623887
30
0
41
1
10
57.5766153234623
20
20.4898663474787
30
0
41
1
10
57.572512622517
20
20.4924901579403
30
0
41
1
10
57.5686149102103
20
20.4952524658372
30
0
41
1
10
57.5649224452295
20
20.4981370391756
30
0
41
1
10
57.5614353720448
20
20.5011268528404
30
0
41
1
10
57.5581528367139
20
20.5042043544701
30
0
41
1
10
57.5550778698624
20
20.5073584152507
30
0
41
1
10
57.5521996835922
20
20.5105579925821
30
0
41
1
10
57.5504035869187
20
20.5127918768383
30
0
41
1
10
57.54952262475
20
20.5138875681493
30
0
0
SPLINE
5
148
100
AcDbEntity
8
1
62
256
6
ByLayer
370
18
48
1
60
0
100
AcDbSpline
70
4
71
3
72
16
73
12
40
0
40
0
40
0
40
0
40
0.117319552192531
40
0.233085853411073
40
0.347299362420247
40
0.459960556948128
40
0.571069934744742
40
0.680628014712972
40
0.788635338118847
40
0.895092469888328
40
1
40
1
40
1
40
1
41
1
10
57.74894541545
20
20.427732523702
30
0
41
1
10
57.7426777667126
20
20.4295553268701
30
0
41
1
10
57.730225449707
20
20.433176800223
30
0
41
1
10
57.7117192560249
20
20.4388914087642
30
0
41
1
10
57.6934972967186
20
20.4447568898136
30
0
41
1
10
57.6755628433777
20
20.4507866733875
30
0
41
1
10
57.6579151153779
20
20.4569662690683
30
0
41
1
10
57.6405540288848
20
20.4632869201774
30
0
41
1
10
57.623480658135
20
20.4697449449494
30
0
41
1
10
57.6066908752588
20
20.4763120560555
30
0
41
1
10
57.5956156516797
20
20.4808386486787
30
0
41
1
10
57.59011863841
20
20.48308535183
30
0
0
SPLINE
5
149
100
AcDbEntity
8
1
62
256
6
ByLayer
370
18
48
1
60
0
100
AcDbSpline
70
4
71
2
72
10
73
7
40
0
40
0
40
0
40
0.5
40
0.5
40
0.75
40
0.75
40
1
40
1
40
1
41
1
10
57.7489454154435
20
20.427732523738
30
0
41
1
10
57.8165392416659
20
20.4082378364849
30
0
41
1
10
57.864235482769
20
20.3565142889902
30
0
41
1
10
57.8902224727208
20
20.328333047074
30
0
41
1
10
57.9068593747304
20
20.2924776461038
30
0
41
1
10
57.9248252361523
20
20.2537581077733
30
0
41
1
10
57.928946197083
20
20.210735586972
30
0
0
SPLINE
5
14A
100
AcDbEntity
8
1
62
256
6
ByLayer
370
18
48
1
60
0
100
AcDbSpline
70
4
71
2
72
6
73
3
40
0
40
0
40
0
40
1
40
1
40
1
41
1
10
57.9289461971205
20
20.210735587058
30
0
41
1
10
57.9378374892931
20
20.1155165540399
30
0
41
1
10
57.9378609595315
20
20.0200000006976
30
0
0
SPLINE
5
14B
100
AcDbEntity
8
1
62
256
6
ByLayer
370
18
48
1
60
0
100
AcDbSpline
70
4
71
3
72
17
73
13
40
0
40
0
40
0
40
0
40
0.100317411817084
40
0.200541310293526
40
0.300680278273627
40
0.40074292044765
40
0.500737861201934
40
0.600673742442856
40
0.700559221399303
40
0.800402968404953
40
0.900213664663637
40
1
40
1
40
1
40
1
41
1
10
57.92894619712
20
19.789264412942
30
0
41
1
10
57.9295231228817
20
19.7956087701754
30
0
41
1
10
57.9306764366097
20
19.8082915705938
30
0
41
1
10
57.9321818251213
20
19.8273460527877
30
0
41
1
10
57.9335216262512
20
19.8464085209795
30
0
41
1
10
57.9346798037513
20
19.8654803042831
30
0
41
1
10
57.9356607269913
20
19.8845589293337
30
0
41
1
10
57.9364629358429
20
19.9036429412488
30
0
41
1
10
57.9370879043616
20
19.9227306135196
30
0
41
1
10
57.937531197509
20
19.9418202936691
30
0
41
1
10
57.9378090731845
20
19.9609103103435
30
0
41
1
10
57.9378436654889
20
19.9736372874275
30
0
41
1
10
57.93786095953
20
19.9799999993024
30
0
0
SPLINE
5
14C
100
AcDbEntity
8
1
62
256
6
ByLayer
370
18
48
1
60
0
100
AcDbSpline
70
4
71
3
72
38
73
34
40
0
40
0
40
0
40
0
40
0.0320161803202297
40
0.0634137556517445
40
0.0941938978135402
40
0.124357850632156
40
0.153906935795951
40
0.182842559298688
40
0.21116621854077
40
0.238879510169593
40
0.265984138747591
40
0.292481926351472
40
0.318374823219169
40
0.343664919578632
40
0.368354458810696
40
0.392445852120303
40
0.41594169491625
40
0.438844785127738
40
0.461158143719561
40
0.482885037706452
40
0.504029006008656
40
0.551366811163467
40
0.597409666800776
40
0.642207857911426
40
0.685815975457808
40
0.728293199080107
40
0.769703557232121
40
0.810116149643935
40
0.849605314211513
40
0.888250718111325
40
0.926137351649956
40
0.963355403684997
40
1
40
1
40
1
40
1
41
1
10
57.74894541544
20
19.572267476262
30
0
41
1
10
57.7515736233648
20
19.5730485607148
30
0
41
1
10
57.756779257937
20
19.5745956377906
30
0
41
1
10
57.7644507904023
20
19.577231715862
30
0
41
1
10
57.7719249095622
20
19.5800558999428
30
0
41
1
10
57.7791975153458
20
19.583078910145
30
0
41
1
10
57.7862696764354
20
19.5862816340918
30
0
41
1
10
57.7931411178642
20
19.5896529401733
30
0
41
1
10
57.7998119140361
20
19.5931798787034
30
0
41
1
10
57.8062820488634
20
19.5968502562548
30
0
41
1
10
57.8125515300024
20
19.600651992735
30
0
41
1
10
57.8186203592458
20
19.6045733110595
30
0
41
1
10
57.8244885401635
20
19.6086027081727
30
0
41
1
10
57.8301560763678
20
19.6127289801844
30
0
41
1
10
57.8356229711881
20
19.6169412313228
30
0
41
1
10
57.840889230658
20
19.6212288838923
30
0
41
1
10
57.8459548524164
20
19.6255816889976
30
0
41
1
10
57.8508198658027
20
19.6299897234822
30
0
41
1
10
57.8554841879108
20
19.6344434298673
30
0
41
1
10
57.8599481402181
20
19.6389334948112
30
0
41
1
10
57.8660095567999
20
19.645358030493
30
0
41
1
10
57.8734588192032
20
19.6539468168096
30
0
41
1
10
57.8820027422796
20
19.6650200836322
30
0
41
1
10
57.8898489226435
20
19.6764694413074
30
0
41
1
10
57.8969976055379
20
19.6882493808283
30
0
41
1
10
57.9034486190906
20
19.7003153813828
30
0
41
1
10
57.9092017357358
20
19.7126233474438
30
0
41
1
10
57.9142571546107
20
19.7251298346291
30
0
41
1
10
57.9186132961071
20
19.7377925471705
30
0
41
1
10
57.9222748801839
20
19.7505689765116
30
0
41
1
10
57.9252236999947
20
19.7634219116356
30
0
41
1
10
57.9275246334318
20
19.7762999416636
30
0
41
1
10
57.928474801506
20
19.7849653481022
30
0
41
1
10
57.92894619708
20
19.789264413028
30
0
0
SPLINE
5
14D
100
AcDbEntity
8
1
62
256
6
ByLayer
370
18
48
1
60
0
100
AcDbSpline
70
4
71
2
72
6
73
3
40
0
40
0
40
0
40
1
40
1
40
1
41
1
10
57.748945415452
20
19.572267476298
30
0
41
1
10
57.6679467190157
20
19.549015243328
30
0
41
1
10
57.5901186384125
20
19.51691464817
30
0
0
SPLINE
5
14E
100
AcDbEntity
8
1
62
256
6
ByLayer
370
18
48
1
60
0
100
AcDbSpline
70
4
71
2
72
6
73
3
40
0
40
0
40
0
40
1
40
1
40
1
41
1
10
57.5901186384115
20
19.516914648177
30
0
41
1
10
57.565819759419
20
19.5067453291368
30
0
41
1
10
57.5495226247505
20
19.486112431851
30
0
0
LINE
5
7D
100
AcDbEntity
8
1
62
256
6
ByLayer
370
18
48
1
60
0
100
AcDbLine
10
0
20
-15.7
30
0
11
0.3
21
-16
31
0
39
0
210
0
220
0
230
1
0
LINE
5
7E
100
AcDbEntity
8
1
62
256
6
ByLayer
370
18
48
1
60
0
100
AcDbLine
10
0.3
20
16
30
0
11
0
21
15.7
31
0
39
0
210
0
220
0
230
1
0
LINE
5
7F
100
AcDbEntity
8
1
62
256
6
ByLayer
370
18
48
1
60
0
100
AcDbLine
10
15.279208
20
16
30
0
11
0.3
21
16
31
0
39
0
210
0
220
0
230
1
0
LINE
5
80
100
AcDbEntity
8
1
62
256
6
ByLayer
370
18
48
1
60
0
100
AcDbLine
10
0.3
20
-16
30
0
11
15.120396
21
-16
31
0
39
0
210
0
220
0
230
1
0
LINE
5
81
100
AcDbEntity
8
81
62
256
6
ByLayer
370
18
48
1
60
0
100
AcDbLine
10
65
20
22
30
0
11
70
21
22
31
0
39
0
210
0
220
0
230
1
0
LINE
5
82
100
AcDbEntity
8
80
62
256
6
ByLayer
370
18
48
1
60
0
100
AcDbLine
10
0
20
0
30
0
11
-5
21
0
31
0
39
0
210
0
220
0
230
1
0
LINE
5
83
100
AcDbEntity
8
1
62
256
6
ByLayer
370
18
48
1
60
0
100
AcDbLine
10
56.626608
20
21.675
30
0
11
57.805434
21
21.675
31
0
39
0
210
0
220
0
230
1
0
LINE
5
84
100
AcDbEntity
8
1
62
256
6
ByLayer
370
18
48
1
60
0
100
AcDbLine
10
56.626608
20
18.325
30
0
11
57.805434
21
18.325
31
0
39
0
210
0
220
0
230
1
0
LINE
5
85
100
AcDbEntity
8
1
62
256
6
ByLayer
370
18
48
1
60
0
100
AcDbLine
10
57.805434
20
21.675
30
0
11
60.716396
21
21.675
31
0
39
0
210
0
220
0
230
1
0
LINE
5
86
100
AcDbEntity
8
1
62
256
6
ByLayer
370
18
48
1
60
0
100
AcDbLine
10
57.8053
20
21.599984
30
0
11
57.805434
21
21.675
31
0
39
0
210
0
220
0
230
1
0
LINE
5
87
100
AcDbEntity
8
1
62
256
6
ByLayer
370
18
48
1
60
0
100
AcDbLine
10
57.805434
20
18.325
30
0
11
60.716396
21
18.325
31
0
39
0
210
0
220
0
230
1
0
LINE
5
88
100
AcDbEntity
8
1
62
256
6
ByLayer
370
18
48
1
60
0
100
AcDbLine
10
57.805434
20
18.325
30
0
11
57.8053
21
18.400016
31
0
39
0
210
0
220
0
230
1
0
LINE
5
89
100
AcDbEntity
8
1
62
256
6
ByLayer
370
18
48
1
60
0
100
AcDbLine
10
17.823602
20
21.675
30
0
11
21.2
21
21.675
31
0
39
0
210
0
220
0
230
1
0
LINE
5
8A
100
AcDbEntity
8
1
62
256
6
ByLayer
370
13
48
1
60
0
100
AcDbLine
10
16.637636
20
17.15
30
0
11
21.2
21
17.15
31
0
39
0
210
0
220
0
230
1
0
LINE
5
8B
100
AcDbEntity
8
1
62
256
6
ByLayer
370
13
48
1
60
0
100
AcDbLine
10
21.2
20
17.15
30
0
11
21.2
21
16.15
31
0
39
0
210
0
220
0
230
1
0
LINE
5
8C
100
AcDbEntity
8
1
62
256
6
ByLayer
370
18
48
1
60
0
100
AcDbLine
10
21.2
20
21.675
30
0
11
24.893237
21
21.675
31
0
39
0
210
0
220
0
230
1
0
LINE
5
8D
100
AcDbEntity
8
1
62
256
6
ByLayer
370
13
48
1
60
0
100
AcDbLine
10
21.2
20
17.15
30
0
11
21.2
21
21.675
31
0
39
0
210
0
220
0
230
1
0
LINE
5
8E
100
AcDbEntity
8
1
62
256
6
ByLayer
370
13
48
1
60
0
100
AcDbLine
10
21.2
20
17.15
30
0
11
24.893237
21
17.15
31
0
39
0
210
0
220
0
230
1
0
LINE
5
8F
100
AcDbEntity
8
1
62
256
6
ByLayer
370
18
48
1
60
0
100
AcDbLine
10
25.279309
20
21.675
30
0
11
24.893237
21
21.675
31
0
39
0
210
0
220
0
230
1
0
LINE
5
90
100
AcDbEntity
8
1
62
256
6
ByLayer
370
18
48
1
60
0
100
AcDbLine
10
24.893237
20
17.15
30
0
11
24.893237
21
21.675
31
0
39
0
210
0
220
0
230
1
0
LINE
5
91
100
AcDbEntity
8
1
62
256
6
ByLayer
370
18
48
1
60
0
100
AcDbLine
10
25.4
20
21.675
30
0
11
25.279216
21
21.675
31
0
39
0
210
0
220
0
230
1
0
LINE
5
92
100
AcDbEntity
8
1
62
256
6
ByLayer
370
18
48
1
60
0
100
AcDbLine
10
25.279216
20
21.675
30
0
11
25.279216
21
17.15
31
0
39
0
210
0
220
0
230
1
0
LINE
5
93
100
AcDbEntity
8
1
62
256
6
ByLayer
370
13
48
1
60
0
100
AcDbLine
10
25.4
20
17.15
30
0
11
25.279216
21
17.15
31
0
39
0
210
0
220
0
230
1
0
LINE
5
94
100
AcDbEntity
8
1
62
256
6
ByLayer
370
18
48
1
60
0
100
AcDbLine
10
56.626628
20
18.325
30
0
11
53.5
21
18.325
31
0
39
0
210
0
220
0
230
1
0
LINE
5
95
100
AcDbEntity
8
1
62
256
6
ByLayer
370
18
48
1
60
0
100
AcDbLine
10
56.626628
20
21.675
30
0
11
53.5
21
21.675
31
0
39
0
210
0
220
0
230
1
0
LINE
5
96
100
AcDbEntity
8
1
62
256
6
ByLayer
370
18
48
1
60
0
100
AcDbLine
10
57
20
20.274969
30
0
11
57
21
19.725031
31
0
39
0
210
0
220
0
230
1
0
LINE
5
97
100
AcDbEntity
8
1
62
256
6
ByLayer
370
18
48
1
60
0
100
AcDbLine
10
22.399843
20
16.15
30
0
11
21.400157
21
16.15
31
0
39
0
210
0
220
0
230
1
0
LINE
5
98
100
AcDbEntity
8
1
62
256
6
ByLayer
370
18
48
1
60
0
100
AcDbLine
10
22.399843
20
-13
30
0
11
21.400157
21
-13
31
0
39
0
210
0
220
0
230
1
0
LINE
5
99
100
AcDbEntity
8
1
62
256
6
ByLayer
370
18
48
1
60
0
100
AcDbLine
10
53.5
20
18.325
30
0
11
46.216445
21
18.325
31
0
39
0
210
0
220
0
230
1
0
LINE
5
9A
100
AcDbEntity
8
1
62
256
6
ByLayer
370
18
48
1
60
0
100
AcDbLine
10
53.5
20
21.675
30
0
11
46.216445
21
21.675
31
0
39
0
210
0
220
0
230
1
0
LINE
5
9B
100
AcDbEntity
8
1
62
256
6
ByLayer
370
18
48
1
60
0
100
AcDbLine
10
53.5
20
21.675
30
0
11
53.5
21
18.325
31
0
39
0
210
0
220
0
230
1
0
LINE
5
9C
100
AcDbEntity
8
1
62
256
6
ByLayer
370
18
48
1
60
0
100
AcDbLine
10
19.016733
20
16.15
30
0
11
21.4
21
16.15
31
0
39
0
210
0
220
0
230
1
0
LINE
5
9D
100
AcDbEntity
8
1
62
256
6
ByLayer
370
18
48
1
60
0
100
AcDbLine
10
21.4
20
-13
30
0
11
19.016733
21
-13
31
0
39
0
210
0
220
0
230
1
0
LINE
5
9E
100
AcDbEntity
8
1
62
256
6
ByLayer
370
18
48
1
60
0
100
AcDbLine
10
21.4
20
16.15
30
0
11
21.4
21
-13
31
0
39
0
210
0
220
0
230
1
0
LINE
5
9F
100
AcDbEntity
8
1
62
256
6
ByLayer
370
18
48
1
60
0
100
AcDbLine
10
22.4
20
16.15
30
0
11
24.4
21
16.15
31
0
39
0
210
0
220
0
230
1
0
LINE
5
A0
100
AcDbEntity
8
1
62
256
6
ByLayer
370
18
48
1
60
0
100
AcDbLine
10
31.9
20
-13
30
0
11
22.4
21
-13
31
0
39
0
210
0
220
0
230
1
0
LINE
5
A1
100
AcDbEntity
8
1
62
256
6
ByLayer
370
18
48
1
60
0
100
AcDbLine
10
31.9
20
-13
30
0
11
43.4
21
4.1
31
0
39
0
210
0
220
0
230
1
0
LINE
5
A2
100
AcDbEntity
8
1
62
256
6
ByLayer
370
18
48
1
60
0
100
AcDbLine
10
46.216445
20
18.325
30
0
11
45
21
18.325
31
0
39
0
210
0
220
0
230
1
0
LINE
5
A3
100
AcDbEntity
8
1
62
256
6
ByLayer
370
18
48
1
60
0
100
AcDbLine
10
46.216445
20
21.675
30
0
11
25.4
21
21.675
31
0
39
0
210
0
220
0
230
1
0
LINE
5
A4
100
AcDbEntity
8
1
62
256
6
ByLayer
370
18
48
1
60
0
100
AcDbLine
10
43.4
20
16.725
30
0
11
43.4
21
4.1
31
0
39
0
210
0
220
0
230
1
0
LINE
5
A5
100
AcDbEntity
8
1
62
256
6
ByLayer
370
18
48
1
60
0
100
AcDbLine
10
22.4
20
-13
30
0
11
22.4
21
16.15
31
0
39
0
210
0
220
0
230
1
0
LINE
5
A6
100
AcDbEntity
8
1
62
256
6
ByLayer
370
18
48
1
60
0
100
AcDbLine
10
46.216445
20
18.325
30
0
11
46.216445
21
21.675
31
0
39
0
210
0
220
0
230
1
0
LINE
5
A7
100
AcDbEntity
8
1
62
256
6
ByLayer
370
18
48
1
60
0
100
AcDbLine
10
25.4
20
17.15
30
0
11
25.4
21
21.675
31
0
39
0
210
0
220
0
230
1
0
LINE
5
A8
100
AcDbEntity
8
1
62
256
6
ByLayer
370
13
48
1
60
0
100
AcDbLine
10
16.438319
20
16.15
30
0
11
16.438319
21
12.77999
31
0
39
0
210
0
220
0
230
1
0
LINE
5
A9
100
AcDbEntity
8
1
62
256
6
ByLayer
370
13
48
1
60
0
100
AcDbLine
10
16.438319
20
-12.77999
30
0
11
16.438319
21
-13.920772
31
0
39
0
210
0
220
0
230
1
0
LINE
5
AA
100
AcDbEntity
8
1
62
256
6
ByLayer
370
13
48
1
60
0
100
AcDbLine
10
19.016733
20
16.15
30
0
11
19.016733
21
-13
31
0
39
0
210
0
220
0
230
1
0
LINE
5
AB
100
AcDbEntity
8
1
62
256
6
ByLayer
370
18
48
1
60
0
100
AcDbLine
10
19.016733
20
16.15
30
0
11
17.088377
21
16.15
31
0
39
0
210
0
220
0
230
1
0
LINE
5
AC
100
AcDbEntity
8
1
62
256
6
ByLayer
370
18
48
1
60
0
100
AcDbLine
10
18.991425
20
-13
30
0
11
19.016733
21
-13
31
0
39
0
210
0
220
0
230
1
0
LINE
5
AD
100
AcDbEntity
8
1
62
256
6
ByLayer
370
13
48
1
60
0
100
AcDbLine
10
7.076795
20
-4.755463
30
0
11
7.076795
21
-15.276962
31
0
39
0
210
0
220
0
230
1
0
LINE
5
AE
100
AcDbEntity
8
1
62
256
6
ByLayer
370
13
48
1
60
0
100
AcDbLine
10
7.336603
20
-5.068619
30
0
11
7.336603
21
-15.175938
31
0
39
0
210
0
220
0
230
1
0
LINE
5
AF
100
AcDbEntity
8
1
62
256
6
ByLayer
370
13
48
1
60
0
100
AcDbLine
10
4.663397
20
15.175938
30
0
11
4.663397
21
5.068619
31
0
39
0
210
0
220
0
230
1
0
LINE
5
B0
100
AcDbEntity
8
1
62
256
6
ByLayer
370
13
48
1
60
0
100
AcDbLine
10
4.923205
20
15.276962
30
0
11
4.923205
21
4.755463
31
0
39
0
210
0
220
0
230
1
0
LINE
5
B1
100
AcDbEntity
8
1
62
256
6
ByLayer
370
13
48
1
60
0
100
AcDbLine
10
7.076795
20
15.276962
30
0
11
7.076795
21
4.755463
31
0
39
0
210
0
220
0
230
1
0
LINE
5
B2
100
AcDbEntity
8
1
62
256
6
ByLayer
370
13
48
1
60
0
100
AcDbLine
10
7.336603
20
15.175938
30
0
11
7.336603
21
5.068619
31
0
39
0
210
0
220
0
230
1
0
LINE
5
B3
100
AcDbEntity
8
1
62
256
6
ByLayer
370
13
48
1
60
0
100
AcDbLine
10
4.663397
20
-5.068619
30
0
11
4.663397
21
-15.175938
31
0
39
0
210
0
220
0
230
1
0
LINE
5
B4
100
AcDbEntity
8
1
62
256
6
ByLayer
370
13
48
1
60
0
100
AcDbLine
10
4.923205
20
-4.755463
30
0
11
4.923205
21
-15.276962
31
0
39
0
210
0
220
0
230
1
0
LINE
5
B5
100
AcDbEntity
8
1
62
256
6
ByLayer
370
18
48
1
60
0
100
AcDbLine
10
0
20
-15.7
30
0
11
0
21
15.7
31
0
39
0
210
0
220
0
230
1
0
LINE
5
B6
100
AcDbEntity
8
1
62
256
6
ByLayer
370
13
48
1
60
0
100
AcDbLine
10
15.016886
20
-7.627131
30
0
11
15.016886
21
7.627131
31
0
39
0
210
0
220
0
230
1
0
LINE
5
B7
100
AcDbEntity
8
1
62
256
6
ByLayer
370
13
48
1
60
0
100
AcDbLine
10
15.279208
20
16
30
0
11
15.279208
21
9.76457
31
0
39
0
210
0
220
0
230
1
0
LINE
5
B8
100
AcDbEntity
8
1
62
256
6
ByLayer
370
13
48
1
60
0
100
AcDbLine
10
15.279208
20
-9.76457
30
0
11
15.279208
21
-15.510222
31
0
39
0
210
0
220
0
230
1
0
LINE
5
B9
100
AcDbEntity
8
1
62
256
6
ByLayer
370
18
48
1
60
0
100
AcDbLine
10
0.3
20
-16
30
0
11
0.3
21
16
31
0
39
0
210
0
220
0
230
1
0
LINE
5
BA
100
AcDbEntity
8
1
62
256
6
ByLayer
370
18
48
1
60
0
100
AcDbLine
10
7.076795
20
4.755463
30
0
11
4.923205
21
4.755463
31
0
39
0
210
0
220
0
230
1
0
LINE
5
BB
100
AcDbEntity
8
1
62
256
6
ByLayer
370
18
48
1
60
0
100
AcDbLine
10
4.923205
20
15.276962
30
0
11
7.076795
21
15.276962
31
0
39
0
210
0
220
0
230
1
0
LINE
5
BC
100
AcDbEntity
8
1
62
256
6
ByLayer
370
18
48
1
60
0
100
AcDbLine
10
4.923205
20
-4.755463
30
0
11
7.076795
21
-4.755463
31
0
39
0
210
0
220
0
230
1
0
LINE
5
BD
100
AcDbEntity
8
1
62
256
6
ByLayer
370
18
48
1
60
0
100
AcDbLine
10
7.076795
20
-15.276962
30
0
11
4.923205
21
-15.276962
31
0
39
0
210
0
220
0
230
1
0
LINE
5
BE
100
AcDbEntity
8
SK1
62
256
6
ByLayer
370
18
48
1
60
0
100
AcDbLine
10
-0.2
20
-5.336172
30
0
11
-0.2
21
-10.883485
31
0
39
0
210
0
220
0
230
1
0
LINE
5
C0
100
AcDbEntity
8
SK1
62
256
6
ByLayer
370
18
48
1
60
0
100
AcDbLine
10
-0.2
20
10.883485
30
0
11
-0.2
21
5.336173
31
0
39
0
210
0
220
0
230
1
0
LINE
5
C1
100
AcDbEntity
8
SK1
62
256
6
ByLayer
370
13
48
1
60
0
100
AcDbLine
10
-1.307107
20
3.314517
30
0
11
-1.307107
21
-3.314515
31
0
39
0
210
0
220
0
230
1
0
LINE
5
C2
100
AcDbEntity
8
1
62
256
6
ByLayer
370
18
48
1
60
0
100
AcDbLine
10
58.63
20
21.6
30
0
11
60.58649
21
21.6
31
0
39
0
210
0
220
0
230
1
0
LINE
5
C3
100
AcDbEntity
8
1
62
256
6
ByLayer
370
18
48
1
60
0
100
AcDbLine
10
58.63
20
18.4
30
0
11
60.58649
21
18.4
31
0
39
0
210
0
220
0
230
1
0
LINE
5
C4
100
AcDbEntity
8
1
62
256
6
ByLayer
370
18
48
1
60
0
100
AcDbLine
10
65
20
18.3
30
0
11
65
21
21.7
31
0
39
0
210
0
220
0
230
1
0
LINE
5
C5
100
AcDbEntity
8
1
62
256
6
ByLayer
370
18
48
1
60
0
100
AcDbLine
10
64.686914
20
18.000286
30
0
11
61
21
18.16126
31
0
39
0
210
0
220
0
230
1
0
LINE
5
C6
100
AcDbEntity
8
1
62
256
6
ByLayer
370
18
48
1
60
0
100
AcDbLine
10
61
20
21.83874
30
0
11
60.58649
21
21.6
31
0
39
0
210
0
220
0
230
1
0
LINE
5
C7
100
AcDbEntity
8
1
62
256
6
ByLayer
370
18
48
1
60
0
100
AcDbLine
10
64.686914
20
21.999714
30
0
11
61
21
21.83874
31
0
39
0
210
0
220
0
230
1
0
LINE
5
C8
100
AcDbEntity
8
1
62
256
6
ByLayer
370
18
48
1
60
0
100
AcDbLine
10
61
20
18.16126
30
0
11
60.58649
21
18.4
31
0
39
0
210
0
220
0
230
1
0
LINE
5
C9
100
AcDbEntity
8
1
62
256
6
ByLayer
370
18
48
1
60
0
100
AcDbLine
10
40
20
21.674978
30
0
11
40
21
21.7
31
0
39
0
210
0
220
0
230
1
0
LINE
5
CA
100
AcDbEntity
8
1
62
256
6
ByLayer
370
18
48
1
60
0
100
AcDbLine
10
44
20
21.83874
30
0
11
44.283603
21
21.675002
31
0
39
0
210
0
220
0
230
1
0
LINE
5
CB
100
AcDbEntity
8
1
62
256
6
ByLayer
370
18
48
1
60
0
100
AcDbLine
10
40.313086
20
21.999714
30
0
11
44
21
21.83874
31
0
39
0
210
0
220
0
230
1
0
LINE
5
CC
100
AcDbEntity
8
1
62
256
6
ByLayer
370
13
48
1
60
0
100
AcDbLine
10
57
20
20.02
30
0
11
57.937861
21
20.02
31
0
39
0
210
0
220
0
230
1
0
LINE
5
CD
100
AcDbEntity
8
1
62
256
6
ByLayer
370
13
48
1
60
0
100
AcDbLine
10
57
20
19.98
30
0
11
57.937861
21
19.98
31
0
39
0
210
0
220
0
230
1
0
LINE
5
CE
100
AcDbEntity
8
1
62
256
6
ByLayer
370
13
48
1
60
0
100
AcDbLine
10
56.999918
20
19.789264
30
0
11
57.928946
21
19.789264
31
0
39
0
210
0
220
0
230
1
0
LINE
5
CF
100
AcDbEntity
8
1
62
256
6
ByLayer
370
13
48
1
60
0
100
AcDbLine
10
56.999918
20
20.210736
30
0
11
57.928946
21
20.210736
31
0
39
0
210
0
220
0
230
1
0
LINE
5
D0
100
AcDbEntity
8
1
62
256
6
ByLayer
370
13
48
1
60
0
100
AcDbLine
10
56.910754
20
20.427733
30
0
11
57.748945
21
20.427733
31
0
39
0
210
0
220
0
230
1
0
LINE
5
D1
100
AcDbEntity
8
1
62
256
6
ByLayer
370
13
48
1
60
0
100
AcDbLine
10
56.910754
20
19.572267
30
0
11
57.748945
21
19.572267
31
0
39
0
210
0
220
0
230
1
0
LINE
5
D2
100
AcDbEntity
8
1
62
256
6
ByLayer
370
13
48
1
60
0
100
AcDbLine
10
57.590119
20
19.516915
30
0
11
56.80632
21
19.516915
31
0
39
0
210
0
220
0
230
1
0
LINE
5
D3
100
AcDbEntity
8
1
62
256
6
ByLayer
370
13
48
1
60
0
100
AcDbLine
10
57.590119
20
20.483085
30
0
11
56.80632
21
20.483085
31
0
39
0
210
0
220
0
230
1
0
LINE
5
D4
100
AcDbEntity
8
1
62
256
6
ByLayer
370
13
48
1
60
0
100
AcDbLine
10
56.772685
20
20.513888
30
0
11
57.549523
21
20.513888
31
0
39
0
210
0
220
0
230
1
0
LINE
5
D5
100
AcDbEntity
8
1
62
256
6
ByLayer
370
13
48
1
60
0
100
AcDbLine
10
56.772606
20
19.486112
30
0
11
57.549523
21
19.486112
31
0
39
0
210
0
220
0
230
1
0
LINE
5
D6
100
AcDbEntity
8
1
62
256
6
ByLayer
370
13
48
1
60
0
100
AcDbLine
10
56.761059
20
19.394335
30
0
11
57.477691
21
19.394335
31
0
39
0
210
0
220
0
230
1
0
LINE
5
D7
100
AcDbEntity
8
1
62
256
6
ByLayer
370
13
48
1
60
0
100
AcDbLine
10
56.761215
20
20.605665
30
0
11
57.477691
21
20.605665
31
0
39
0
210
0
220
0
230
1
0
LINE
5
D8
100
AcDbEntity
8
1
62
256
6
ByLayer
370
13
48
1
60
0
100
AcDbLine
10
56.755478
20
19.350066
30
0
11
57.457959
21
19.350066
31
0
39
0
210
0
220
0
230
1
0
LINE
5
D9
100
AcDbEntity
8
1
62
256
6
ByLayer
370
13
48
1
60
0
100
AcDbLine
10
56.755788
20
20.649934
30
0
11
57.457959
21
20.649934
31
0
39
0
210
0
220
0
230
1
0
LINE
5
DA
100
AcDbEntity
8
1
62
256
6
ByLayer
370
18
48
1
60
0
100
AcDbLine
10
56.63593
20
18.4
30
0
11
57.334518
21
18.4
31
0
39
0
210
0
220
0
230
1
0
LINE
5
DB
100
AcDbEntity
8
1
62
256
6
ByLayer
370
13
48
1
60
0
100
AcDbLine
10
56.666297
20
18.641251
30
0
11
57.334518
21
18.641251
31
0
39
0
210
0
220
0
230
1
0
LINE
5
DC
100
AcDbEntity
8
1
62
256
6
ByLayer
370
13
48
1
60
0
100
AcDbLine
10
56.668513
20
18.658616
30
0
11
57.336037
21
18.658616
31
0
39
0
210
0
220
0
230
1
0
LINE
5
DD
100
AcDbEntity
8
1
62
256
6
ByLayer
370
13
48
1
60
0
100
AcDbLine
10
56.668967
20
21.341384
30
0
11
57.336037
21
21.341384
31
0
39
0
210
0
220
0
230
1
0
LINE
5
DE
100
AcDbEntity
8
1
62
256
6
ByLayer
370
13
48
1
60
0
100
AcDbLine
10
56.66675
20
21.358749
30
0
11
57.334518
21
21.358749
31
0
39
0
210
0
220
0
230
1
0
LINE
5
DF
100
AcDbEntity
8
1
62
256
6
ByLayer
370
18
48
1
60
0
100
AcDbLine
10
56.636081
20
21.6
30
0
11
57.334518
21
21.6
31
0
39
0
210
0
220
0
230
1
0
LINE
5
E0
100
AcDbEntity
8
1
62
256
6
ByLayer
370
18
48
1
60
0
100
AcDbLine
10
58.63
20
21.6
30
0
11
57.334518
21
21.6
31
0
39
0
210
0
220
0
230
1
0
LINE
5
E1
100
AcDbEntity
8
1
62
256
6
ByLayer
370
18
48
1
60
0
100
AcDbLine
10
57.334518
20
21.6
30
0
11
57.334518
21
21.358749
31
0
39
0
210
0
220
0
230
1
0
LINE
5
E2
100
AcDbEntity
8
1
62
256
6
ByLayer
370
18
48
1
60
0
100
AcDbLine
10
57.336037
20
21.341384
30
0
11
57.457959
21
20.649934
31
0
39
0
210
0
220
0
230
1
0
LINE
5
E3
100
AcDbEntity
8
1
62
256
6
ByLayer
370
18
48
1
60
0
100
AcDbLine
10
57.477691
20
20.605665
30
0
11
57.549523
21
20.513888
31
0
39
0
210
0
220
0
230
1
0
LINE
5
E4
100
AcDbEntity
8
1
62
256
6
ByLayer
370
18
48
1
60
0
100
AcDbLine
10
57.937861
20
19.98
30
0
11
57.937861
21
20.02
31
0
39
0
210
0
220
0
230
1
0
LINE
5
E5
100
AcDbEntity
8
1
62
256
6
ByLayer
370
18
48
1
60
0
100
AcDbLine
10
57.477691
20
19.394335
30
0
11
57.549523
21
19.486112
31
0
39
0
210
0
220
0
230
1
0
LINE
5
E6
100
AcDbEntity
8
1
62
256
6
ByLayer
370
18
48
1
60
0
100
AcDbLine
10
57.336037
20
18.658616
30
0
11
57.457959
21
19.350066
31
0
39
0
210
0
220
0
230
1
0
LINE
5
E7
100
AcDbEntity
8
1
62
256
6
ByLayer
370
18
48
1
60
0
100
AcDbLine
10
57.334518
20
18.4
30
0
11
57.334518
21
18.641251
31
0
39
0
210
0
220
0
230
1
0
LINE
5
E8
100
AcDbEntity
8
1
62
256
6
ByLayer
370
18
48
1
60
0
100
AcDbLine
10
58.63
20
18.4
30
0
11
57.334518
21
18.4
31
0
39
0
210
0
220
0
230
1
0
LINE
5
E9
100
AcDbEntity
8
1
62
256
6
ByLayer
370
18
48
1
60
0
100
AcDbLine
10
58.63
20
18.4
30
0
11
58.63
21
21.6
31
0
39
0
210
0
220
0
230
1
0
LINE
5
EA
100
AcDbEntity
8
SK2
62
256
6
ByLayer
370
18
48
1
60
0
100
AcDbLine
10
-28.975
20
-16
30
0
11
-28.975
21
16
31
0
39
0
210
0
220
0
230
1
0
LINE
5
EC
100
AcDbEntity
8
SK2
62
256
6
ByLayer
370
18
48
1
60
0
100
AcDbLine
10
-1.2875
20
16
30
0
11
-30.975
21
16
31
0
39
0
210
0
220
0
230
1
0
LINE
5
ED
100
AcDbEntity
8
SK2
62
256
6
ByLayer
370
18
48
1
60
0
100
AcDbLine
10
-1.2875
20
-16
30
0
11
-30.975
21
-16
31
0
39
0
210
0
220
0
230
1
0
LINE
5
EE
100
AcDbEntity
8
1
62
256
6
ByLayer
370
18
48
1
60
1
100
AcDbLine
10
-28.975
20
16
30
0
11
-28.514216
21
12.500002
31
0
39
0
210
0
220
0
230
1
0
LINE
5
EF
100
AcDbEntity
8
1
62
256
6
ByLayer
370
18
48
1
60
1
100
AcDbLine
10
-28.514216
20
12.500002
30
0
11
-29.435784
21
12.499998
31
0
39
0
210
0
220
0
230
1
0
LINE
5
F0
100
AcDbEntity
8
1
62
256
6
ByLayer
370
18
48
1
60
1
100
AcDbLine
10
-29.435784
20
12.499998
30
0
11
-28.975
21
16
31
0
39
0
210
0
220
0
230
1
0
LINE
5
F1
100
AcDbEntity
8
1
62
256
6
ByLayer
370
18
48
1
60
1
100
AcDbLine
10
-28.975
20
-16
30
0
11
-29.435784
21
-12.500002
31
0
39
0
210
0
220
0
230
1
0
LINE
5
F2
100
AcDbEntity
8
1
62
256
6
ByLayer
370
18
48
1
60
1
100
AcDbLine
10
-29.435784
20
-12.500002
30
0
11
-28.514216
21
-12.499998
31
0
39
0
210
0
220
0
230
1
0
LINE
5
F3
100
AcDbEntity
8
1
62
256
6
ByLayer
370
18
48
1
60
1
100
AcDbLine
10
-28.514216
20
-12.499998
30
0
11
-28.975
21
-16
31
0
39
0
210
0
220
0
230
1
0
LINE
5
153
100
AcDbEntity
8
1
62
256
6
ByLayer
370
18
48
1
60
1
100
AcDbLine
10
-28.975
20
16
30
0
11
-28.514216
21
12.500002
31
0
39
0
210
0
220
0
230
1
0
LINE
5
154
100
AcDbEntity
8
1
62
256
6
ByLayer
370
18
48
1
60
1
100
AcDbLine
10
-28.514216
20
12.500002
30
0
11
-29.435784
21
12.499998
31
0
39
0
210
0
220
0
230
1
0
LINE
5
155
100
AcDbEntity
8
1
62
256
6
ByLayer
370
18
48
1
60
1
100
AcDbLine
10
-29.435784
20
12.499998
30
0
11
-28.975
21
16
31
0
39
0
210
0
220
0
230
1
0
LINE
5
157
100
AcDbEntity
8
1
62
256
6
ByLayer
370
18
48
1
60
1
100
AcDbLine
10
-28.975
20
-16
30
0
11
-29.435784
21
-12.500002
31
0
39
0
210
0
220
0
230
1
0
LINE
5
158
100
AcDbEntity
8
1
62
256
6
ByLayer
370
18
48
1
60
1
100
AcDbLine
10
-29.435784
20
-12.500002
30
0
11
-28.514216
21
-12.499998
31
0
39
0
210
0
220
0
230
1
0
LINE
5
159
100
AcDbEntity
8
1
62
256
6
ByLayer
370
18
48
1
60
1
100
AcDbLine
10
-28.514216
20
-12.499998
30
0
11
-28.975
21
-16
31
0
39
0
210
0
220
0
230
1
0
MTEXT
5
14F
100
AcDbEntity
8
SK2
62
256
6
ByLayer
370
18
48
1
60
0
100
AcDbMText
10
-30.539634
20
-4.530622
30
0
210
0
220
0
230
1
1
%%c
40
3.5
41
0
44
1.084337
50
90
71
7
72
5
7
iso_b_vert
0
MTEXT
5
152
100
AcDbEntity
8
SK2
62
256
6
ByLayer
370
18
48
1
60
0
100
AcDbMText
10
-30.539634
20
2.442034
30
0
210
0
220
0
230
1
1
\W0.6740;32
40
3.5
41
0
44
1.084337
50
90
71
7
72
5
7
iso_b_vert
0
MTEXT
5
15B
100
AcDbEntity
8
SK6
62
256
6
ByLayer
370
18
48
1
60
0
100
AcDbMText
10
-9.3145
20
-51.290947
30
0
210
0
220
0
230
1
1
\W0.7454;C2R-CC3-RH20CB
40
3.5
41
0
44
1.084337
50
0
71
7
72
5
7
iso_b_vert
0
HATCH
5
156
100
AcDbEntity
8
SK2
62
256
6
ByLayer
370
13
48
1
60
0
100
AcDbHatch
10
0
20
0
30
0
210
0
220
0
230
1
2
ANSI31
70
0
71
0
91
1
92
5
93
3
72
1
10
-28.9750000000001
20
16
11
-28.5142162584473
21
12.5000016925532
72
1
10
-28.5142162584473
20
12.5000016925532
11
-29.4357837415528
21
12.4999983074468
72
1
10
-29.4357837415528
20
12.4999983074468
11
-28.9750000000001
21
16
97
0
75
0
76
1
52
0
41
0.0062
77
0
78
1
53
45
43
0
44
0
45
-0.0139193969876572
46
0.0139193969876572
79
0
47
0
98
1
10
0
20
0
0
HATCH
5
15A
100
AcDbEntity
8
SK2
62
256
6
ByLayer
370
13
48
1
60
0
100
AcDbHatch
10
0
20
0
30
0
210
0
220
0
230
1
2
ANSI31
70
0
71
0
91
1
92
5
93
3
72
1
10
-28.9750000000001
20
-16
11
-29.4357837415528
21
-12.5000016925532
72
1
10
-29.4357837415528
20
-12.5000016925532
11
-28.5142162584473
21
-12.4999983074468
72
1
10
-28.5142162584473
20
-12.4999983074468
11
-28.9750000000001
21
-16
97
0
75
0
76
1
52
0
41
0.0062
77
0
78
1
53
45
43
0
44
0
45
-0.0139193969876572
46
0.0139193969876572
79
0
47
0
98
1
10
0
20
0
0
DIMENSION
5
15E
100
AcDbEntity
8
2
62
256
6
ByLayer
370
18
48
1
60
0
100
AcDbDimension
2
_U0
10
96.1
20
0
30
0
11
96.1
21
11
31
0
70
32
71
1
72
1
41
1
210
0
220
0
230
1
3
Standard
100
AcDbAlignedDimension
13
65
23
22
33
0
14
0
24
0
34
0
50
90
100
AcDbRotatedDimension
1001
ACAD
1000
DSTYLE
1002
{
1070
   371
1070
    13
1070
   372
1070
    13
1070
   170
1070
     0
1070
   144
1040
1.0
1070
   277
1070
     2
1070
   284
1070
     8
1070
   278
1070
    46
1070
   146
1040
1.0
1070
   345
1005
16
1070
   347
1005
16
1070
   346
1005
16
1070
   344
1005
0
1070
   343
1005
0
1070
   172
1070
     1
1070
    76
1070
     0
1070
    75
1070
     0
1070
   282
1070
     0
1070
   281
1070
     0
1070
    71
1070
     0
1070
    74
1070
     0
1070
   279
1070
     0
1070
   173
1070
     1
1070
   340
1005
150
1070
   271
1070
     1
1070
   272
1070
     2
1070
    77
1070
     1
1070
    73
1070
     0
1070
   171
1070
     3
1070
   274
1070
     4
1070
   177
1070
     2
1070
   176
1070
     2
1070
   178
1070
     2
1070
    78
1070
     8
1070
    48
1040
-0.1
1070
    41
1040
3.5
1070
   147
1040
1.75
1070
    42
1040
1.5875
1070
    44
1040
2.0
1070
   140
1040
3.5
1002
}
1001
ACAD_DSTYLE_DIM_LINETYPE
1070
   380
1005
16
1001
ACAD_DSTYLE_DIM_EXT1_LINETYPE
1070
   381
1005
16
1001
ACAD_DSTYLE_DIM_EXT2_LINETYPE
1070
   382
1005
16
0
DIMENSION
5
178
100
AcDbEntity
8
2
62
256
6
ByLayer
370
18
48
1
60
0
100
AcDbDimension
2
_U1
10
85.1
20
22
30
0
11
85.1
21
20
31
0
70
32
71
1
72
1
41
1
210
0
220
0
230
1
3
Standard
100
AcDbAlignedDimension
13
65
23
18
33
0
14
65
24
22
34
0
50
90
100
AcDbRotatedDimension
1001
ACAD
1000
DSTYLE
1002
{
1070
   371
1070
    13
1070
   372
1070
    13
1070
   170
1070
     0
1070
   144
1040
1.0
1070
   277
1070
     2
1070
   284
1070
     8
1070
   278
1070
    46
1070
   146
1040
1.0
1070
   345
1005
16
1070
   347
1005
16
1070
   346
1005
16
1070
   344
1005
0
1070
   343
1005
0
1070
   172
1070
     1
1070
    76
1070
     0
1070
    75
1070
     0
1070
   282
1070
     0
1070
   281
1070
     0
1070
    71
1070
     0
1070
    74
1070
     0
1070
   279
1070
     0
1070
   173
1070
     1
1070
   340
1005
150
1070
   271
1070
     1
1070
   272
1070
     2
1070
    77
1070
     1
1070
    73
1070
     0
1070
   171
1070
     3
1070
   274
1070
     4
1070
   177
1070
     2
1070
   176
1070
     2
1070
   178
1070
     2
1070
    78
1070
     8
1070
    48
1040
-0.1
1070
    41
1040
3.5
1070
   147
1040
1.75
1070
    42
1040
1.5875
1070
    44
1040
2.0
1070
   140
1040
3.5
1002
}
1001
ACAD_DSTYLE_DIM_LINETYPE
1070
   380
1005
16
1001
ACAD_DSTYLE_DIM_EXT1_LINETYPE
1070
   381
1005
16
1001
ACAD_DSTYLE_DIM_EXT2_LINETYPE
1070
   382
1005
16
0
DIMENSION
5
191
100
AcDbEntity
8
2
62
256
6
ByLayer
370
18
48
1
60
0
100
AcDbDimension
2
_U2
10
65
20
-15.425
30
0
11
55
21
-15.425
31
0
70
32
71
1
72
1
41
1
210
0
220
0
230
1
3
Standard
100
AcDbAlignedDimension
13
45
23
18.325
33
0
14
65
24
18
34
0
50
0
100
AcDbRotatedDimension
1001
ACAD
1000
DSTYLE
1002
{
1070
   371
1070
    13
1070
   372
1070
    13
1070
   170
1070
     0
1070
   144
1040
1.0
1070
   277
1070
     2
1070
   284
1070
     8
1070
   278
1070
    46
1070
   146
1040
1.0
1070
   345
1005
16
1070
   347
1005
16
1070
   346
1005
16
1070
   344
1005
0
1070
   343
1005
0
1070
   172
1070
     1
1070
    76
1070
     0
1070
    75
1070
     0
1070
   282
1070
     0
1070
   281
1070
     0
1070
    71
1070
     0
1070
    74
1070
     0
1070
   279
1070
     0
1070
   173
1070
     1
1070
   340
1005
150
1070
   271
1070
     1
1070
   272
1070
     2
1070
    77
1070
     1
1070
    73
1070
     1
1070
   171
1070
     3
1070
   274
1070
     4
1070
   177
1070
     2
1070
   176
1070
     2
1070
   178
1070
     2
1070
    78
1070
     8
1070
    48
1040
-0.1
1070
    41
1040
3.5
1070
   147
1040
1.75
1070
    42
1040
1.5875
1070
    44
1040
2.0
1070
   140
1040
3.5
1002
}
1001
ACAD_DSTYLE_DIM_LINETYPE
1070
   380
1005
16
1001
ACAD_DSTYLE_DIM_EXT1_LINETYPE
1070
   381
1005
16
1001
ACAD_DSTYLE_DIM_EXT2_LINETYPE
1070
   382
1005
16
0
DIMENSION
5
1A9
100
AcDbEntity
8
2
62
256
6
ByLayer
370
18
48
1
60
0
100
AcDbDimension
2
_U3
10
65
20
38.25
30
0
11
32.5
21
38.25
31
0
70
32
71
1
72
1
41
1
210
0
220
0
230
1
3
Standard
100
AcDbAlignedDimension
13
0
23
0
33
0
14
65
24
22
34
0
50
0
100
AcDbRotatedDimension
1001
ACAD
1000
DSTYLE
1002
{
1070
   371
1070
    13
1070
   372
1070
    13
1070
   170
1070
     0
1070
   144
1040
1.0
1070
   277
1070
     2
1070
   284
1070
     8
1070
   278
1070
    46
1070
   146
1040
1.0
1070
   345
1005
16
1070
   347
1005
16
1070
   346
1005
16
1070
   344
1005
0
1070
   343
1005
0
1070
   172
1070
     1
1070
    76
1070
     0
1070
    75
1070
     0
1070
   282
1070
     0
1070
   281
1070
     0
1070
    71
1070
     0
1070
    74
1070
     0
1070
   279
1070
     0
1070
   173
1070
     1
1070
   340
1005
150
1070
   271
1070
     1
1070
   272
1070
     2
1070
    77
1070
     1
1070
    73
1070
     1
1070
   171
1070
     3
1070
   274
1070
     4
1070
   177
1070
     2
1070
   176
1070
     2
1070
   178
1070
     2
1070
    78
1070
     8
1070
    48
1040
-0.1
1070
    41
1040
3.5
1070
   147
1040
1.75
1070
    42
1040
1.5875
1070
    44
1040
2.0
1070
   140
1040
3.5
1002
}
1001
ACAD_DSTYLE_DIM_LINETYPE
1070
   380
1005
16
1001
ACAD_DSTYLE_DIM_EXT1_LINETYPE
1070
   381
1005
16
1001
ACAD_DSTYLE_DIM_EXT2_LINETYPE
1070
   382
1005
16
0
ENDSEC
0
SECTION
2
OBJECTS
0
DICTIONARY
5
230
330
0
100
AcDbDictionary
280
0
281
1
3
ACAD_GROUP
350
231
3
ACAD_MLINESTYLE
350
232
0
DICTIONARY
5
231
330
0
100
AcDbDictionary
280
0
281
1
0
DICTIONARY
5
232
330
0
100
AcDbDictionary
280
0
281
1
3
Standard
350
18
0
MLINESTYLE
5
18
330
232
100
AcDbMlineStyle
2
Standard
70
0
3

62
256
51
90
52
90
71
2
49
-0.5
62
256
6
ByLayer
49
0.5
62
256
6
ByLayer
0
RASTERVARIABLES
5
21f
330

100
AcDbRasterVariables
90
0
70
1
71
1
72
1
0
ENDSEC
0
EOF
