0
SECTION
2
HEADER
9
$ACADVER
1
AC1015
9
$DWGCODEPAGE
3
ANSI_1252
9
$HANDSEED
5
24c
9
$ANGBASE
50
0
9
$ANGDIR
70
0
9
$ATTMODE
70
1
9
$AUNITS
70
0
9
$AUPREC
70
0
9
$CECOLOR
62
256
9
$CELTSCALE
40
1
9
$CELTYPE
6
ByLayer
9
$CELWEIGHT
370
18
9
$CLAYER
8
0
9
$CMLJUST
70
0
9
$CMLSCALE
40
1
9
$CMLSTYLE
2
Standard
9
$DIMSTYLE
2
Standard
9
$TEXTSIZE
40
0.2
9
$TEXTSTYLE
7
Standard
9
$LUNITS
70
2
9
$LUPREC
70
4
9
$EXTNAMES
290
1
9
$INSUNITS
70
4
9
$LTSCALE
40
1
9
$LWDISPLAY
290
1
9
$PDMODE
70
0
9
$PDSIZE
40
0
9
$PLINEGEN
70
0
0
ENDSEC
0
SECTION
2
CLASSES
0
CLASS
1
RASTERVARIABLES
2
AcDbRasterVariables
3
ISM
90
0
280
0
281
0
0
ENDSEC
0
SECTION
2
TABLES
0
TABLE
2
VPORT
5
242
100
AcDbSymbolTable
0
VPORT
5
1
100
AcDbSymbolTableRecord
100
AcDbViewportTableRecord
2
*Active
70
0
10
0
20
0
11
1
21
1
12
-1
22
1
13
0
23
0
14
0.5
24
0.5
15
10
25
10
16
0
26
0
36
1
17
0
27
0
37
0
0
ENDTAB
0
TABLE
2
LTYPE
5
243
100
AcDbSymbolTable
0
LTYPE
5
14
100
AcDbSymbolTableRecord
100
AcDbLinetypeTableRecord
70
0
2
ByBlock
3

72
65
73
0
40
0
0
LTYPE
5
15
100
AcDbSymbolTableRecord
100
AcDbLinetypeTableRecord
70
0
2
ByLayer
3

72
65
73
0
40
0
0
LTYPE
5
16
100
AcDbSymbolTableRecord
100
AcDbLinetypeTableRecord
70
0
2
Continuous
3
Solid line
72
65
73
0
40
0
0
LTYPE
5
6E
100
AcDbSymbolTableRecord
100
AcDbLinetypeTableRecord
70
0
2
CENTER
3
____ _ ____ _ ____ _ ____
72
65
73
4
40
47.5
49
22
74
0
49
-8.5
74
0
49
8.5
74
0
49
-8.5
74
0
0
LTYPE
5
6F
100
AcDbSymbolTableRecord
100
AcDbLinetypeTableRecord
70
0
2
DASHED
3
__ __ __ __ __ __ __ __ __
72
65
73
2
40
25.72
49
12.86
74
0
49
-12.86
74
0
0
ENDTAB
0
TABLE
2
LAYER
5
244
100
AcDbSymbolTable
0
LAYER
5
10
100
AcDbSymbolTableRecord
100
AcDbLayerTableRecord
2
0
70
0
62
7
6
Continuous
290
1
370
-3
390
0
0
LAYER
5
71
100
AcDbSymbolTableRecord
100
AcDbLayerTableRecord
2
81
70
0
62
-3
6
Continuous
290
1
370
-3
390
0
0
LAYER
5
73
100
AcDbSymbolTableRecord
100
AcDbLayerTableRecord
2
80
70
0
62
-6
6
Continuous
290
1
370
-3
390
0
0
LAYER
5
75
100
AcDbSymbolTableRecord
100
AcDbLayerTableRecord
2
1
70
0
62
4
6
Continuous
290
1
370
-3
390
0
0
LAYER
5
126
100
AcDbSymbolTableRecord
100
AcDbLayerTableRecord
2
Defpoints
70
0
62
7
6
Continuous
290
0
370
-3
390
0
0
LAYER
5
133
100
AcDbSymbolTableRecord
100
AcDbLayerTableRecord
2
2
70
0
62
7
6
Continuous
290
1
370
-3
390
0
0
LAYER
5
22f
100
AcDbSymbolTableRecord
100
AcDbLayerTableRecord
2
SK1
70
0
62
4
6
Continuous
290
1
370
-3
390
0
0
LAYER
5
230
100
AcDbSymbolTableRecord
100
AcDbLayerTableRecord
2
SK6
70
0
62
5
6
Continuous
290
1
370
-3
390
0
0
LAYER
5
231
100
AcDbSymbolTableRecord
100
AcDbLayerTableRecord
2
SK2
70
0
62
7
6
Continuous
290
1
370
-3
390
0
0
ENDTAB
0
TABLE
2
STYLE
5
245
100
AcDbSymbolTable
0
STYLE
5
11
100
AcDbSymbolTableRecord
100
AcDbTextStyleTableRecord
2
Standard
3
txt
70
0
71
0
40
0
41
1
42
0
50
0
0
STYLE
5
11F
100
AcDbSymbolTableRecord
100
AcDbTextStyleTableRecord
2
iso_b_vert
3
simplex.shx
70
0
71
0
40
0
41
1
42
0
50
0
0
STYLE
5
120
100
AcDbSymbolTableRecord
100
AcDbTextStyleTableRecord
2
DWGDirectTextStyle
3
simplex
70
0
71
0
40
0
41
1
42
0
50
0
0
ENDTAB
0
TABLE
2
DIMSTYLE
5
246
100
AcDbSymbolTable
100
AcDbDimStyleTable
0
DIMSTYLE
105
27
100
AcDbSymbolTableRecord
100
AcDbDimStyleTableRecord
2
Standard
70
0
3
<>
41
0.18
42
0.0625
44
0.18
140
0.18
147
0.09
73
0
74
0
77
1
271
2
275
0
278
52
280
0
340
11
0
ENDTAB
0
TABLE
2
VIEW
5
247
100
AcDbSymbolTable
0
ENDTAB
0
TABLE
2
UCS
5
248
100
AcDbSymbolTable
0
ENDTAB
0
TABLE
2
APPID
5
249
100
AcDbSymbolTable
0
APPID
5
12
100
AcDbSymbolTableRecord
100
AcDbRegAppTableRecord
2
ACAD
70
0
0
APPID
5
122
100
AcDbSymbolTableRecord
100
AcDbRegAppTableRecord
2
ACAD_DSTYLE_DIMBREAK
70
0
0
APPID
5
1EE
100
AcDbSymbolTableRecord
100
AcDbRegAppTableRecord
2
ACAD_DSTYLE_DIM_LINETYPE
70
0
0
APPID
5
1EF
100
AcDbSymbolTableRecord
100
AcDbRegAppTableRecord
2
ACAD_DSTYLE_DIM_EXT1_LINETYPE
70
0
0
APPID
5
1F0
100
AcDbSymbolTableRecord
100
AcDbRegAppTableRecord
2
ACAD_DSTYLE_DIM_EXT2_LINETYPE
70
0
0
APPID
5
22B
100
AcDbSymbolTableRecord
100
AcDbRegAppTableRecord
2
ACAD_MLEADERVER
70
0
0
ENDTAB
0
TABLE
2
BLOCK_RECORD
5
24a
100
AcDbSymbolTable
0
BLOCK_RECORD
5
1F
100
AcDbSymbolTableRecord
100
AcDbBlockTableRecord
2
*Model_Space
340
0
70
0
0
BLOCK_RECORD
5
1B
100
AcDbSymbolTableRecord
100
AcDbBlockTableRecord
2
*Paper_Space
340
0
70
0
0
BLOCK_RECORD
5
23
100
AcDbSymbolTableRecord
100
AcDbBlockTableRecord
2
*Paper_Space0
340
0
70
0
0
BLOCK_RECORD
5
127
100
AcDbSymbolTableRecord
100
AcDbBlockTableRecord
2
*D1
340
0
70
0
0
BLOCK_RECORD
5
134
100
AcDbSymbolTableRecord
100
AcDbBlockTableRecord
2
_U0
340
0
70
0
0
BLOCK_RECORD
5
140
100
AcDbSymbolTableRecord
100
AcDbBlockTableRecord
2
*D3
340
0
70
0
0
BLOCK_RECORD
5
14D
100
AcDbSymbolTableRecord
100
AcDbBlockTableRecord
2
_U1
340
0
70
0
0
BLOCK_RECORD
5
159
100
AcDbSymbolTableRecord
100
AcDbBlockTableRecord
2
*D5
340
0
70
0
0
BLOCK_RECORD
5
166
100
AcDbSymbolTableRecord
100
AcDbBlockTableRecord
2
_U2
340
0
70
0
0
BLOCK_RECORD
5
172
100
AcDbSymbolTableRecord
100
AcDbBlockTableRecord
2
*D7
340
0
70
0
0
BLOCK_RECORD
5
17E
100
AcDbSymbolTableRecord
100
AcDbBlockTableRecord
2
_U3
340
0
70
0
0
BLOCK_RECORD
5
18A
100
AcDbSymbolTableRecord
100
AcDbBlockTableRecord
2
*D9
340
0
70
0
0
BLOCK_RECORD
5
196
100
AcDbSymbolTableRecord
100
AcDbBlockTableRecord
2
_U4
340
0
70
0
0
BLOCK_RECORD
5
1A2
100
AcDbSymbolTableRecord
100
AcDbBlockTableRecord
2
*D11
340
0
70
0
0
BLOCK_RECORD
5
1AE
100
AcDbSymbolTableRecord
100
AcDbBlockTableRecord
2
_U5
340
0
70
0
0
BLOCK_RECORD
5
1BA
100
AcDbSymbolTableRecord
100
AcDbBlockTableRecord
2
*D13
340
0
70
0
0
BLOCK_RECORD
5
1C7
100
AcDbSymbolTableRecord
100
AcDbBlockTableRecord
2
_U6
340
0
70
0
0
ENDTAB
0
ENDSEC
0
SECTION
2
BLOCKS
0
BLOCK
5
20
100
AcDbEntity
8
0
100
AcDbBlockBegin
2
*Model_Space
70
0
10
0
20
0
30
0
3
*Model_Space
0
ENDBLK
5
21
100
AcDbEntity
8
0
100
AcDbBlockEnd
0
BLOCK
5
1C
100
AcDbEntity
8
0
100
AcDbBlockBegin
2
*Paper_Space
70
0
10
0
20
0
30
0
3
*Paper_Space
0
ENDBLK
5
1D
100
AcDbEntity
8
0
100
AcDbBlockEnd
0
BLOCK
5
24
100
AcDbEntity
8
0
100
AcDbBlockBegin
2
*Paper_Space0
70
0
10
0
20
0
30
0
3
*Paper_Space0
0
ENDBLK
5
25
100
AcDbEntity
8
0
100
AcDbBlockEnd
0
BLOCK
5
128
100
AcDbEntity
8
0
100
AcDbBlockBegin
2
*D1
70
1
10
0
20
0
30
0
3
*D1
0
LINE
5
12A
100
AcDbEntity
8
0
62
256
6
ByLayer
370
-2
48
1
60
0
100
AcDbLine
10
46.695468
20
13.0375
30
0
11
80.207968
21
13.0375
31
0
39
0
210
0
220
0
230
1
0
LINE
5
12B
100
AcDbEntity
8
0
62
256
6
ByLayer
370
-2
48
1
60
0
100
AcDbLine
10
1.5875
20
-12.4625
30
0
11
80.207968
21
-12.4625
31
0
39
0
210
0
220
0
230
1
0
LINE
5
12C
100
AcDbEntity
8
0
62
256
6
ByLayer
370
-2
48
1
60
0
100
AcDbLine
10
78.207968
20
9.5375
30
0
11
78.207968
21
-8.9625
31
0
39
0
210
0
220
0
230
1
0
SOLID
5
12D
100
AcDbEntity
8
0
62
256
6
ByLayer
370
-1
48
1
60
0
100
AcDbTrace
10
78.791301
20
9.5375
30
0
11
77.624634
21
9.5375
31
0
12
78.207968
22
13.0375
32
0
13
78.207968
23
13.0375
33
0
39
0
210
0
220
0
230
1
0
SOLID
5
12E
100
AcDbEntity
8
0
62
256
6
ByLayer
370
-1
48
1
60
0
100
AcDbTrace
10
77.624634
20
-8.9625
30
0
11
78.791301
21
-8.9625
31
0
12
78.207968
22
-12.4625
32
0
13
78.207968
23
-12.4625
33
0
39
0
210
0
220
0
230
1
0
MTEXT
5
12F
100
AcDbEntity
8
0
62
256
6
ByLayer
370
18
48
1
60
0
100
AcDbMText
10
71.207968
20
0.2875
30
0
210
0
220
0
230
1
1
\A1;25.5
40
3.5
41
0
44
1
50
90
71
5
72
5
7
iso_b_vert
0
POINT
5
130
100
AcDbEntity
8
Defpoints
62
0
6
ByLayer
370
-1
48
1
60
0
100
AcDbPoint
10
45.107968
20
13.0375
30
0
39
0
210
0
220
0
230
1
50
360
0
POINT
5
131
100
AcDbEntity
8
Defpoints
62
0
6
ByLayer
370
-1
48
1
60
0
100
AcDbPoint
10
0
20
-12.4625
30
0
39
0
210
0
220
0
230
1
50
360
0
POINT
5
132
100
AcDbEntity
8
Defpoints
62
0
6
ByLayer
370
-1
48
1
60
0
100
AcDbPoint
10
78.207968
20
-12.4625
30
0
39
0
210
0
220
0
230
1
50
360
0
ENDBLK
5
129
100
AcDbEntity
8
0
100
AcDbBlockEnd
0
BLOCK
5
13B
100
AcDbEntity
8
0
100
AcDbBlockBegin
2
_U0
70
0
10
0
20
0
30
0
3
_U0
0
MTEXT
5
135
100
AcDbEntity
8
2
62
256
6
ByLayer
370
18
48
1
60
0
100
AcDbMText
10
77.518334
20
-3.662199
30
0
210
0
220
0
230
1
1
\W0.7346;25.5
40
3.5
41
0
44
1.084337
50
90
71
7
72
5
7
iso_b_vert
0
LINE
5
136
100
AcDbEntity
8
2
62
256
6
ByLayer
370
13
48
1
60
0
100
AcDbLine
10
46.695468
20
13.0375
30
0
11
80.207968
21
13.0375
31
0
39
0
210
0
220
0
230
1
0
LINE
5
137
100
AcDbEntity
8
2
62
256
6
ByLayer
370
13
48
1
60
0
100
AcDbLine
10
1.5875
20
-12.4625
30
0
11
80.207968
21
-12.4625
31
0
39
0
210
0
220
0
230
1
0
LINE
5
138
100
AcDbEntity
8
2
62
256
6
ByLayer
370
13
48
1
60
0
100
AcDbLine
10
78.207968
20
13.0375
30
0
11
78.207968
21
-12.4625
31
0
39
0
210
0
220
0
230
1
0
SOLID
5
139
100
AcDbEntity
8
2
62
256
6
ByLayer
370
18
48
1
60
0
100
AcDbTrace
10
78.207968
20
13.0375
30
0
11
78.668751
21
9.537502
31
0
12
77.747184
22
9.537498
32
0
13
77.747184
23
9.537498
33
0
39
0
210
0
220
0
230
1
0
SOLID
5
13A
100
AcDbEntity
8
2
62
256
6
ByLayer
370
18
48
1
60
0
100
AcDbTrace
10
78.207968
20
-12.4625
30
0
11
77.747184
21
-8.962502
31
0
12
78.668751
22
-8.962498
32
0
13
78.668751
23
-8.962498
33
0
39
0
210
0
220
0
230
1
0
ENDBLK
5
13C
100
AcDbEntity
8
0
100
AcDbBlockEnd
0
BLOCK
5
141
100
AcDbEntity
8
0
100
AcDbBlockBegin
2
*D3
70
1
10
0
20
0
30
0
3
*D3
0
LINE
5
143
100
AcDbEntity
8
0
62
256
6
ByLayer
370
-2
48
1
60
0
100
AcDbLine
10
46.695468
20
8.0375
30
0
11
68.207968
21
8.0375
31
0
39
0
210
0
220
0
230
1
0
LINE
5
144
100
AcDbEntity
8
0
62
256
6
ByLayer
370
-2
48
1
60
0
100
AcDbLine
10
46.695468
20
13.0375
30
0
11
68.207968
21
13.0375
31
0
39
0
210
0
220
0
230
1
0
LINE
5
145
100
AcDbEntity
8
0
62
256
6
ByLayer
370
-2
48
1
60
0
100
AcDbLine
10
66.207968
20
4.5375
30
0
11
66.207968
21
1.0375
31
0
39
0
210
0
220
0
230
1
0
LINE
5
146
100
AcDbEntity
8
0
62
256
6
ByLayer
370
-2
48
1
60
0
100
AcDbLine
10
66.207968
20
16.5375
30
0
11
66.207968
21
20.0375
31
0
39
0
210
0
220
0
230
1
0
SOLID
5
147
100
AcDbEntity
8
0
62
256
6
ByLayer
370
-1
48
1
60
0
100
AcDbTrace
10
66.791301
20
4.5375
30
0
11
65.624634
21
4.5375
31
0
12
66.207968
22
8.0375
32
0
13
66.207968
23
8.0375
33
0
39
0
210
0
220
0
230
1
0
SOLID
5
148
100
AcDbEntity
8
0
62
256
6
ByLayer
370
-1
48
1
60
0
100
AcDbTrace
10
65.624634
20
16.5375
30
0
11
66.791301
21
16.5375
31
0
12
66.207968
22
13.0375
32
0
13
66.207968
23
13.0375
33
0
39
0
210
0
220
0
230
1
0
MTEXT
5
149
100
AcDbEntity
8
0
62
256
6
ByLayer
370
18
48
1
60
0
100
AcDbMText
10
59.207968
20
10.5375
30
0
210
0
220
0
230
1
1
\A1;5
40
3.5
41
0
44
1
50
90
71
5
72
5
7
iso_b_vert
0
POINT
5
14A
100
AcDbEntity
8
Defpoints
62
0
6
ByLayer
370
-1
48
1
60
0
100
AcDbPoint
10
45.107968
20
8.0375
30
0
39
0
210
0
220
0
230
1
50
360
0
POINT
5
14B
100
AcDbEntity
8
Defpoints
62
0
6
ByLayer
370
-1
48
1
60
0
100
AcDbPoint
10
45.107968
20
13.0375
30
0
39
0
210
0
220
0
230
1
50
360
0
POINT
5
14C
100
AcDbEntity
8
Defpoints
62
0
6
ByLayer
370
-1
48
1
60
0
100
AcDbPoint
10
66.207968
20
13.0375
30
0
39
0
210
0
220
0
230
1
50
360
0
ENDBLK
5
142
100
AcDbEntity
8
0
100
AcDbBlockEnd
0
BLOCK
5
154
100
AcDbEntity
8
0
100
AcDbBlockBegin
2
_U1
70
0
10
0
20
0
30
0
3
_U1
0
MTEXT
5
14E
100
AcDbEntity
8
2
62
256
6
ByLayer
370
18
48
1
60
0
100
AcDbMText
10
65.518334
20
9.912267
30
0
210
0
220
0
230
1
1
\W0.5404;5
40
3.5
41
0
44
1.084337
50
90
71
7
72
5
7
iso_b_vert
0
LINE
5
14F
100
AcDbEntity
8
2
62
256
6
ByLayer
370
13
48
1
60
0
100
AcDbLine
10
46.695468
20
8.0375
30
0
11
68.207968
21
8.0375
31
0
39
0
210
0
220
0
230
1
0
LINE
5
150
100
AcDbEntity
8
2
62
256
6
ByLayer
370
13
48
1
60
0
100
AcDbLine
10
46.695468
20
13.0375
30
0
11
68.207968
21
13.0375
31
0
39
0
210
0
220
0
230
1
0
LINE
5
151
100
AcDbEntity
8
2
62
256
6
ByLayer
370
13
48
1
60
0
100
AcDbLine
10
66.207968
20
-0.7125
30
0
11
66.207968
21
21.7875
31
0
39
0
210
0
220
0
230
1
0
SOLID
5
152
100
AcDbEntity
8
2
62
256
6
ByLayer
370
18
48
1
60
0
100
AcDbTrace
10
66.207968
20
8.0375
30
0
11
66.668751
21
4.537502
31
0
12
65.747184
22
4.537498
32
0
13
65.747184
23
4.537498
33
0
39
0
210
0
220
0
230
1
0
SOLID
5
153
100
AcDbEntity
8
2
62
256
6
ByLayer
370
18
48
1
60
0
100
AcDbTrace
10
66.207968
20
13.0375
30
0
11
65.747184
21
16.537498
31
0
12
66.668751
22
16.537502
32
0
13
66.668751
23
16.537502
33
0
39
0
210
0
220
0
230
1
0
ENDBLK
5
155
100
AcDbEntity
8
0
100
AcDbBlockEnd
0
BLOCK
5
15A
100
AcDbEntity
8
0
100
AcDbBlockBegin
2
*D5
70
1
10
0
20
0
30
0
3
*D5
0
LINE
5
15C
100
AcDbEntity
8
0
62
256
6
ByLayer
370
-2
48
1
60
0
100
AcDbLine
10
-1.5875
20
-12.4625
30
0
11
-97.6
21
-12.4625
31
0
39
0
210
0
220
0
230
1
0
LINE
5
15D
100
AcDbEntity
8
0
62
256
6
ByLayer
370
-2
48
1
60
0
100
AcDbLine
10
-1.5875
20
12.5375
30
0
11
-97.6
21
12.5375
31
0
39
0
210
0
220
0
230
1
0
LINE
5
15E
100
AcDbEntity
8
0
62
256
6
ByLayer
370
-2
48
1
60
0
100
AcDbLine
10
-95.6
20
-8.9625
30
0
11
-95.6
21
9.0375
31
0
39
0
210
0
220
0
230
1
0
SOLID
5
15F
100
AcDbEntity
8
0
62
256
6
ByLayer
370
-1
48
1
60
0
100
AcDbTrace
10
-96.183333
20
-8.9625
30
0
11
-95.016667
21
-8.9625
31
0
12
-95.6
22
-12.4625
32
0
13
-95.6
23
-12.4625
33
0
39
0
210
0
220
0
230
1
0
SOLID
5
160
100
AcDbEntity
8
0
62
256
6
ByLayer
370
-1
48
1
60
0
100
AcDbTrace
10
-95.016667
20
9.0375
30
0
11
-96.183333
21
9.0375
31
0
12
-95.6
22
12.5375
32
0
13
-95.6
23
12.5375
33
0
39
0
210
0
220
0
230
1
0
MTEXT
5
161
100
AcDbEntity
8
0
62
256
6
ByLayer
370
18
48
1
60
0
100
AcDbMText
10
-102.6
20
0.0375
30
0
210
0
220
0
230
1
1
\A1;25
40
3.5
41
0
44
1
50
90
71
5
72
5
7
iso_b_vert
0
POINT
5
162
100
AcDbEntity
8
Defpoints
62
0
6
ByLayer
370
-1
48
1
60
0
100
AcDbPoint
10
0
20
-12.4625
30
0
39
0
210
0
220
0
230
1
50
360
0
POINT
5
163
100
AcDbEntity
8
Defpoints
62
0
6
ByLayer
370
-1
48
1
60
0
100
AcDbPoint
10
0
20
12.5375
30
0
39
0
210
0
220
0
230
1
50
360
0
POINT
5
164
100
AcDbEntity
8
Defpoints
62
0
6
ByLayer
370
-1
48
1
60
0
100
AcDbPoint
10
-95.6
20
12.5375
30
0
39
0
210
0
220
0
230
1
50
360
0
ENDBLK
5
15B
100
AcDbEntity
8
0
100
AcDbBlockEnd
0
BLOCK
5
16D
100
AcDbEntity
8
0
100
AcDbBlockBegin
2
_U2
70
0
10
0
20
0
30
0
3
_U2
0
MTEXT
5
167
100
AcDbEntity
8
SK2
62
256
6
ByLayer
370
18
48
1
60
0
100
AcDbMText
10
-96.289634
20
-1.895466
30
0
210
0
220
0
230
1
1
\W0.6740;25
40
3.5
41
0
44
1.084337
50
90
71
7
72
5
7
iso_b_vert
0
LINE
5
168
100
AcDbEntity
8
SK2
62
256
6
ByLayer
370
13
48
1
60
0
100
AcDbLine
10
-1.5875
20
-12.4625
30
0
11
-97.6
21
-12.4625
31
0
39
0
210
0
220
0
230
1
0
LINE
5
169
100
AcDbEntity
8
SK2
62
256
6
ByLayer
370
13
48
1
60
0
100
AcDbLine
10
-1.5875
20
12.5375
30
0
11
-97.6
21
12.5375
31
0
39
0
210
0
220
0
230
1
0
LINE
5
16A
100
AcDbEntity
8
SK2
62
256
6
ByLayer
370
13
48
1
60
0
100
AcDbLine
10
-95.6
20
-12.4625
30
0
11
-95.6
21
12.5375
31
0
39
0
210
0
220
0
230
1
0
SOLID
5
16B
100
AcDbEntity
8
SK2
62
256
6
ByLayer
370
18
48
1
60
0
100
AcDbTrace
10
-95.6
20
-12.4625
30
0
11
-96.060784
21
-8.962502
31
0
12
-95.139216
22
-8.962498
32
0
13
-95.139216
23
-8.962498
33
0
39
0
210
0
220
0
230
1
0
SOLID
5
16C
100
AcDbEntity
8
SK2
62
256
6
ByLayer
370
18
48
1
60
0
100
AcDbTrace
10
-95.6
20
12.5375
30
0
11
-95.139216
21
9.037502
31
0
12
-96.060784
22
9.037498
32
0
13
-96.060784
23
9.037498
33
0
39
0
210
0
220
0
230
1
0
ENDBLK
5
16E
100
AcDbEntity
8
0
100
AcDbBlockEnd
0
BLOCK
5
173
100
AcDbEntity
8
0
100
AcDbBlockBegin
2
*D7
70
1
10
0
20
0
30
0
3
*D7
0
LINE
5
175
100
AcDbEntity
8
0
62
256
6
ByLayer
370
-2
48
1
60
0
100
AcDbLine
10
20.107968
20
6.775
30
0
11
20.107968
21
-24.2125
31
0
39
0
210
0
220
0
230
1
0
LINE
5
176
100
AcDbEntity
8
0
62
256
6
ByLayer
370
-2
48
1
60
0
100
AcDbLine
10
45.107968
20
11.45
30
0
11
45.107968
21
-24.2125
31
0
39
0
210
0
220
0
230
1
0
LINE
5
177
100
AcDbEntity
8
0
62
256
6
ByLayer
370
-2
48
1
60
0
100
AcDbLine
10
23.607968
20
-22.2125
30
0
11
41.607968
21
-22.2125
31
0
39
0
210
0
220
0
230
1
0
SOLID
5
178
100
AcDbEntity
8
0
62
256
6
ByLayer
370
-1
48
1
60
0
100
AcDbTrace
10
23.607968
20
-21.629167
30
0
11
23.607968
21
-22.795833
31
0
12
20.107968
22
-22.2125
32
0
13
20.107968
23
-22.2125
33
0
39
0
210
0
220
0
230
1
0
SOLID
5
179
100
AcDbEntity
8
0
62
256
6
ByLayer
370
-1
48
1
60
0
100
AcDbTrace
10
41.607968
20
-22.795833
30
0
11
41.607968
21
-21.629167
31
0
12
45.107968
22
-22.2125
32
0
13
45.107968
23
-22.2125
33
0
39
0
210
0
220
0
230
1
0
MTEXT
5
17A
100
AcDbEntity
8
0
62
256
6
ByLayer
370
18
48
1
60
0
100
AcDbMText
10
32.607968
20
-15.2125
30
0
210
0
220
0
230
1
1
\A1;25
40
3.5
41
0
44
1
50
0
71
5
72
5
7
iso_b_vert
0
POINT
5
17B
100
AcDbEntity
8
Defpoints
62
0
6
ByLayer
370
-1
48
1
60
0
100
AcDbPoint
10
20.107968
20
8.3625
30
0
39
0
210
0
220
0
230
1
50
360
0
POINT
5
17C
100
AcDbEntity
8
Defpoints
62
0
6
ByLayer
370
-1
48
1
60
0
100
AcDbPoint
10
45.107968
20
13.0375
30
0
39
0
210
0
220
0
230
1
50
360
0
POINT
5
17D
100
AcDbEntity
8
Defpoints
62
0
6
ByLayer
370
-1
48
1
60
0
100
AcDbPoint
10
45.107968
20
-22.2125
30
0
39
0
210
0
220
0
230
1
50
360
0
ENDBLK
5
174
100
AcDbEntity
8
0
100
AcDbBlockEnd
0
BLOCK
5
185
100
AcDbEntity
8
0
100
AcDbBlockBegin
2
_U3
70
0
10
0
20
0
30
0
3
_U3
0
MTEXT
5
17F
100
AcDbEntity
8
2
62
256
6
ByLayer
370
18
48
1
60
0
100
AcDbMText
10
30.703001
20
-21.179866
30
0
210
0
220
0
230
1
1
\W0.6740;25
40
3.5
41
0
44
1.084337
50
0
71
7
72
5
7
iso_b_vert
0
LINE
5
180
100
AcDbEntity
8
2
62
256
6
ByLayer
370
13
48
1
60
0
100
AcDbLine
10
20.107968
20
6.775
30
0
11
20.107968
21
-24.2125
31
0
39
0
210
0
220
0
230
1
0
LINE
5
181
100
AcDbEntity
8
2
62
256
6
ByLayer
370
13
48
1
60
0
100
AcDbLine
10
45.107968
20
11.45
30
0
11
45.107968
21
-24.2125
31
0
39
0
210
0
220
0
230
1
0
LINE
5
182
100
AcDbEntity
8
2
62
256
6
ByLayer
370
13
48
1
60
0
100
AcDbLine
10
20.107968
20
-22.2125
30
0
11
45.107968
21
-22.2125
31
0
39
0
210
0
220
0
230
1
0
SOLID
5
183
100
AcDbEntity
8
2
62
256
6
ByLayer
370
18
48
1
60
0
100
AcDbTrace
10
20.107968
20
-22.2125
30
0
11
23.607966
21
-21.751716
31
0
12
23.607969
22
-22.673284
32
0
13
23.607969
23
-22.673284
33
0
39
0
210
0
220
0
230
1
0
SOLID
5
184
100
AcDbEntity
8
2
62
256
6
ByLayer
370
18
48
1
60
0
100
AcDbTrace
10
45.107968
20
-22.2125
30
0
11
41.607969
21
-22.673284
31
0
12
41.607966
22
-21.751716
32
0
13
41.607966
23
-21.751716
33
0
39
0
210
0
220
0
230
1
0
ENDBLK
5
186
100
AcDbEntity
8
0
100
AcDbBlockEnd
0
BLOCK
5
18B
100
AcDbEntity
8
0
100
AcDbBlockBegin
2
*D9
70
1
10
0
20
0
30
0
3
*D9
0
LINE
5
18D
100
AcDbEntity
8
0
62
256
6
ByLayer
370
-2
48
1
60
0
100
AcDbLine
10
-84
20
-14.05
30
0
11
-84
21
-40.2125
31
0
39
0
210
0
220
0
230
1
0
LINE
5
18E
100
AcDbEntity
8
0
62
256
6
ByLayer
370
-2
48
1
60
0
100
AcDbLine
10
45.107968
20
11.45
30
0
11
45.107968
21
-40.2125
31
0
39
0
210
0
220
0
230
1
0
LINE
5
18F
100
AcDbEntity
8
0
62
256
6
ByLayer
370
-2
48
1
60
0
100
AcDbLine
10
-80.5
20
-38.2125
30
0
11
41.607968
21
-38.2125
31
0
39
0
210
0
220
0
230
1
0
SOLID
5
190
100
AcDbEntity
8
0
62
256
6
ByLayer
370
-1
48
1
60
0
100
AcDbTrace
10
-80.5
20
-37.629167
30
0
11
-80.5
21
-38.795833
31
0
12
-84
22
-38.2125
32
0
13
-84
23
-38.2125
33
0
39
0
210
0
220
0
230
1
0
SOLID
5
191
100
AcDbEntity
8
0
62
256
6
ByLayer
370
-1
48
1
60
0
100
AcDbTrace
10
41.607968
20
-38.795833
30
0
11
41.607968
21
-37.629167
31
0
12
45.107968
22
-38.2125
32
0
13
45.107968
23
-38.2125
33
0
39
0
210
0
220
0
230
1
0
MTEXT
5
192
100
AcDbEntity
8
0
62
256
6
ByLayer
370
18
48
1
60
0
100
AcDbMText
10
-19.446016
20
-31.2125
30
0
210
0
220
0
230
1
1
\A1;129.1
40
3.5
41
0
44
1
50
0
71
5
72
5
7
iso_b_vert
0
POINT
5
193
100
AcDbEntity
8
Defpoints
62
0
6
ByLayer
370
-1
48
1
60
0
100
AcDbPoint
10
-84
20
-12.4625
30
0
39
0
210
0
220
0
230
1
50
360
0
POINT
5
194
100
AcDbEntity
8
Defpoints
62
0
6
ByLayer
370
-1
48
1
60
0
100
AcDbPoint
10
45.107968
20
13.0375
30
0
39
0
210
0
220
0
230
1
50
360
0
POINT
5
195
100
AcDbEntity
8
Defpoints
62
0
6
ByLayer
370
-1
48
1
60
0
100
AcDbPoint
10
45.107968
20
-38.2125
30
0
39
0
210
0
220
0
230
1
50
360
0
ENDBLK
5
18C
100
AcDbEntity
8
0
100
AcDbBlockEnd
0
BLOCK
5
19D
100
AcDbEntity
8
0
100
AcDbBlockBegin
2
_U4
70
0
10
0
20
0
30
0
3
_U4
0
MTEXT
5
197
100
AcDbEntity
8
SK2
62
256
6
ByLayer
370
18
48
1
60
0
100
AcDbMText
10
-23.800582
20
-37.179866
30
0
210
0
220
0
230
1
1
\W0.6725;129.1
40
3.5
41
0
44
1.084337
50
0
71
7
72
5
7
iso_b_vert
0
LINE
5
198
100
AcDbEntity
8
SK2
62
256
6
ByLayer
370
13
48
1
60
0
100
AcDbLine
10
-84
20
-14.05
30
0
11
-84
21
-40.2125
31
0
39
0
210
0
220
0
230
1
0
LINE
5
199
100
AcDbEntity
8
SK2
62
256
6
ByLayer
370
13
48
1
60
0
100
AcDbLine
10
45.107968
20
11.45
30
0
11
45.107968
21
-40.2125
31
0
39
0
210
0
220
0
230
1
0
LINE
5
19A
100
AcDbEntity
8
SK2
62
256
6
ByLayer
370
13
48
1
60
0
100
AcDbLine
10
-84
20
-38.2125
30
0
11
45.107968
21
-38.2125
31
0
39
0
210
0
220
0
230
1
0
SOLID
5
19B
100
AcDbEntity
8
SK2
62
256
6
ByLayer
370
18
48
1
60
0
100
AcDbTrace
10
-84
20
-38.2125
30
0
11
-80.500002
21
-37.751716
31
0
12
-80.499998
22
-38.673284
32
0
13
-80.499998
23
-38.673284
33
0
39
0
210
0
220
0
230
1
0
SOLID
5
19C
100
AcDbEntity
8
SK2
62
256
6
ByLayer
370
18
48
1
60
0
100
AcDbTrace
10
45.107968
20
-38.2125
30
0
11
41.607969
21
-38.673284
31
0
12
41.607966
22
-37.751716
32
0
13
41.607966
23
-37.751716
33
0
39
0
210
0
220
0
230
1
0
ENDBLK
5
19E
100
AcDbEntity
8
0
100
AcDbBlockEnd
0
BLOCK
5
1A3
100
AcDbEntity
8
0
100
AcDbBlockBegin
2
*D11
70
1
10
0
20
0
30
0
3
*D11
0
LINE
5
1A5
100
AcDbEntity
8
0
62
256
6
ByLayer
370
-2
48
1
60
0
100
AcDbLine
10
0
20
-14.05
30
0
11
0
21
-32.2125
31
0
39
0
210
0
220
0
230
1
0
LINE
5
1A6
100
AcDbEntity
8
0
62
256
6
ByLayer
370
-2
48
1
60
0
100
AcDbLine
10
45.107968
20
11.45
30
0
11
45.107968
21
-32.2125
31
0
39
0
210
0
220
0
230
1
0
LINE
5
1A7
100
AcDbEntity
8
0
62
256
6
ByLayer
370
-2
48
1
60
0
100
AcDbLine
10
3.5
20
-30.2125
30
0
11
41.607968
21
-30.2125
31
0
39
0
210
0
220
0
230
1
0
SOLID
5
1A8
100
AcDbEntity
8
0
62
256
6
ByLayer
370
-1
48
1
60
0
100
AcDbTrace
10
3.5
20
-29.629167
30
0
11
3.5
21
-30.795833
31
0
12
0
22
-30.2125
32
0
13
0
23
-30.2125
33
0
39
0
210
0
220
0
230
1
0
SOLID
5
1A9
100
AcDbEntity
8
0
62
256
6
ByLayer
370
-1
48
1
60
0
100
AcDbTrace
10
41.607968
20
-30.795833
30
0
11
41.607968
21
-29.629167
31
0
12
45.107968
22
-30.2125
32
0
13
45.107968
23
-30.2125
33
0
39
0
210
0
220
0
230
1
0
MTEXT
5
1AA
100
AcDbEntity
8
0
62
256
6
ByLayer
370
18
48
1
60
0
100
AcDbMText
10
22.553984
20
-23.2125
30
0
210
0
220
0
230
1
1
\A1;45.1
40
3.5
41
0
44
1
50
0
71
5
72
5
7
iso_b_vert
0
POINT
5
1AB
100
AcDbEntity
8
Defpoints
62
0
6
ByLayer
370
-1
48
1
60
0
100
AcDbPoint
10
0
20
-12.4625
30
0
39
0
210
0
220
0
230
1
50
360
0
POINT
5
1AC
100
AcDbEntity
8
Defpoints
62
0
6
ByLayer
370
-1
48
1
60
0
100
AcDbPoint
10
45.107968
20
13.0375
30
0
39
0
210
0
220
0
230
1
50
360
0
POINT
5
1AD
100
AcDbEntity
8
Defpoints
62
0
6
ByLayer
370
-1
48
1
60
0
100
AcDbPoint
10
45.107968
20
-30.2125
30
0
39
0
210
0
220
0
230
1
50
360
0
ENDBLK
5
1A4
100
AcDbEntity
8
0
100
AcDbBlockEnd
0
BLOCK
5
1B5
100
AcDbEntity
8
0
100
AcDbBlockBegin
2
_U5
70
0
10
0
20
0
30
0
3
_U5
0
MTEXT
5
1AF
100
AcDbEntity
8
2
62
256
6
ByLayer
370
18
48
1
60
0
100
AcDbMText
10
18.885451
20
-29.179866
30
0
210
0
220
0
230
1
1
\W0.7531;45.1
40
3.5
41
0
44
1.084337
50
0
71
7
72
5
7
iso_b_vert
0
LINE
5
1B0
100
AcDbEntity
8
2
62
256
6
ByLayer
370
13
48
1
60
0
100
AcDbLine
10
0
20
-14.05
30
0
11
0
21
-32.2125
31
0
39
0
210
0
220
0
230
1
0
LINE
5
1B1
100
AcDbEntity
8
2
62
256
6
ByLayer
370
13
48
1
60
0
100
AcDbLine
10
45.107968
20
11.45
30
0
11
45.107968
21
-32.2125
31
0
39
0
210
0
220
0
230
1
0
LINE
5
1B2
100
AcDbEntity
8
2
62
256
6
ByLayer
370
13
48
1
60
0
100
AcDbLine
10
0
20
-30.2125
30
0
11
45.107968
21
-30.2125
31
0
39
0
210
0
220
0
230
1
0
SOLID
5
1B3
100
AcDbEntity
8
2
62
256
6
ByLayer
370
18
48
1
60
0
100
AcDbTrace
10
0
20
-30.2125
30
0
11
3.499998
21
-29.751716
31
0
12
3.500002
22
-30.673284
32
0
13
3.500002
23
-30.673284
33
0
39
0
210
0
220
0
230
1
0
SOLID
5
1B4
100
AcDbEntity
8
2
62
256
6
ByLayer
370
18
48
1
60
0
100
AcDbTrace
10
45.107968
20
-30.2125
30
0
11
41.607969
21
-30.673284
31
0
12
41.607966
22
-29.751716
32
0
13
41.607966
23
-29.751716
33
0
39
0
210
0
220
0
230
1
0
ENDBLK
5
1B6
100
AcDbEntity
8
0
100
AcDbBlockEnd
0
BLOCK
5
1BB
100
AcDbEntity
8
0
100
AcDbBlockBegin
2
*D13
70
1
10
0
20
0
30
0
3
*D13
0
LINE
5
1BD
100
AcDbEntity
8
0
62
256
6
ByLayer
370
-2
48
1
60
0
100
AcDbLine
10
-84
20
-14.05
30
0
11
-84
21
-24.2125
31
0
39
0
210
0
220
0
230
1
0
LINE
5
1BE
100
AcDbEntity
8
0
62
256
6
ByLayer
370
-2
48
1
60
0
100
AcDbLine
10
-81
20
-14.05
30
0
11
-81
21
-24.2125
31
0
39
0
210
0
220
0
230
1
0
LINE
5
1BF
100
AcDbEntity
8
0
62
256
6
ByLayer
370
-2
48
1
60
0
100
AcDbLine
10
-87.5
20
-22.2125
30
0
11
-91
21
-22.2125
31
0
39
0
210
0
220
0
230
1
0
LINE
5
1C0
100
AcDbEntity
8
0
62
256
6
ByLayer
370
-2
48
1
60
0
100
AcDbLine
10
-77.5
20
-22.2125
30
0
11
-74
21
-22.2125
31
0
39
0
210
0
220
0
230
1
0
SOLID
5
1C1
100
AcDbEntity
8
0
62
256
6
ByLayer
370
-1
48
1
60
0
100
AcDbTrace
10
-87.5
20
-22.795833
30
0
11
-87.5
21
-21.629167
31
0
12
-84
22
-22.2125
32
0
13
-84
23
-22.2125
33
0
39
0
210
0
220
0
230
1
0
SOLID
5
1C2
100
AcDbEntity
8
0
62
256
6
ByLayer
370
-1
48
1
60
0
100
AcDbTrace
10
-77.5
20
-21.629167
30
0
11
-77.5
21
-22.795833
31
0
12
-81
22
-22.2125
32
0
13
-81
23
-22.2125
33
0
39
0
210
0
220
0
230
1
0
MTEXT
5
1C3
100
AcDbEntity
8
0
62
256
6
ByLayer
370
18
48
1
60
0
100
AcDbMText
10
-82.5
20
-15.2125
30
0
210
0
220
0
230
1
1
\A1;3
40
3.5
41
0
44
1
50
0
71
5
72
5
7
iso_b_vert
0
POINT
5
1C4
100
AcDbEntity
8
Defpoints
62
0
6
ByLayer
370
-1
48
1
60
0
100
AcDbPoint
10
-84
20
-12.4625
30
0
39
0
210
0
220
0
230
1
50
360
0
POINT
5
1C5
100
AcDbEntity
8
Defpoints
62
0
6
ByLayer
370
-1
48
1
60
0
100
AcDbPoint
10
-81
20
-12.4625
30
0
39
0
210
0
220
0
230
1
50
360
0
POINT
5
1C6
100
AcDbEntity
8
Defpoints
62
0
6
ByLayer
370
-1
48
1
60
0
100
AcDbPoint
10
-81
20
-22.2125
30
0
39
0
210
0
220
0
230
1
50
360
0
ENDBLK
5
1BC
100
AcDbEntity
8
0
100
AcDbBlockEnd
0
BLOCK
5
1CE
100
AcDbEntity
8
0
100
AcDbBlockBegin
2
_U6
70
0
10
0
20
0
30
0
3
_U6
0
MTEXT
5
1C8
100
AcDbEntity
8
SK2
62
256
6
ByLayer
370
18
48
1
60
0
100
AcDbMText
10
-83.097233
20
-21.179866
30
0
210
0
220
0
230
1
1
\W0.5404;3
40
3.5
41
0
44
1.084337
50
0
71
7
72
5
7
iso_b_vert
0
LINE
5
1C9
100
AcDbEntity
8
SK2
62
256
6
ByLayer
370
13
48
1
60
0
100
AcDbLine
10
-84
20
-14.05
30
0
11
-84
21
-24.2125
31
0
39
0
210
0
220
0
230
1
0
LINE
5
1CA
100
AcDbEntity
8
SK2
62
256
6
ByLayer
370
13
48
1
60
0
100
AcDbLine
10
-81
20
-14.05
30
0
11
-81
21
-24.2125
31
0
39
0
210
0
220
0
230
1
0
LINE
5
1CB
100
AcDbEntity
8
SK2
62
256
6
ByLayer
370
13
48
1
60
0
100
AcDbLine
10
-92.75
20
-22.2125
30
0
11
-72.25
21
-22.2125
31
0
39
0
210
0
220
0
230
1
0
SOLID
5
1CC
100
AcDbEntity
8
SK2
62
256
6
ByLayer
370
18
48
1
60
0
100
AcDbTrace
10
-84
20
-22.2125
30
0
11
-87.499998
21
-22.673284
31
0
12
-87.500002
22
-21.751716
32
0
13
-87.500002
23
-21.751716
33
0
39
0
210
0
220
0
230
1
0
SOLID
5
1CD
100
AcDbEntity
8
SK2
62
256
6
ByLayer
370
18
48
1
60
0
100
AcDbTrace
10
-81
20
-22.2125
30
0
11
-77.500002
21
-21.751716
31
0
12
-77.499998
22
-22.673284
32
0
13
-77.499998
23
-22.673284
33
0
39
0
210
0
220
0
230
1
0
ENDBLK
5
1CF
100
AcDbEntity
8
0
100
AcDbBlockEnd
0
ENDSEC
0
SECTION
2
ENTITIES
0
ARC
5
D7
100
AcDbEntity
8
1
62
256
6
ByLayer
370
18
48
1
60
0
100
AcDbCircle
39
0
10
20.107968
20
6.7625
30
0
40
1.6
210
0
220
0
230
1
100
AcDbArc
50
90
51
180
0
ARC
5
D9
100
AcDbEntity
8
1
62
256
6
ByLayer
370
18
48
1
60
0
100
AcDbCircle
39
0
10
11.757968
20
1.3875
30
0
40
2.1768
210
0
220
0
230
1
100
AcDbArc
50
90
51
150
0
ARC
5
DA
100
AcDbEntity
8
1
62
256
6
ByLayer
370
18
48
1
60
0
100
AcDbCircle
39
0
10
11.757968
20
1.3875
30
0
40
2.1768
210
0
220
0
230
1
100
AcDbArc
50
330
51
30
0
ARC
5
DB
100
AcDbEntity
8
1
62
256
6
ByLayer
370
18
48
1
60
0
100
AcDbCircle
39
0
10
11.757968
20
1.3875
30
0
40
2.1768
210
0
220
0
230
1
100
AcDbArc
50
30
51
90
0
ARC
5
DC
100
AcDbEntity
8
1
62
256
6
ByLayer
370
18
48
1
60
0
100
AcDbCircle
39
0
10
11.757968
20
1.3875
30
0
40
2.1768
210
0
220
0
230
1
100
AcDbArc
50
150
51
210
0
ARC
5
DD
100
AcDbEntity
8
1
62
256
6
ByLayer
370
18
48
1
60
0
100
AcDbCircle
39
0
10
11.757968
20
1.3875
30
0
40
2.1768
210
0
220
0
230
1
100
AcDbArc
50
210
51
270
0
ARC
5
DE
100
AcDbEntity
8
1
62
256
6
ByLayer
370
18
48
1
60
0
100
AcDbCircle
39
0
10
11.757968
20
1.3875
30
0
40
2.1768
210
0
220
0
230
1
100
AcDbArc
50
270
51
330
0
ARC
5
E1
100
AcDbEntity
8
1
62
256
6
ByLayer
370
18
48
1
60
0
100
AcDbCircle
39
0
10
11.757968
20
1.3875
30
0
40
2.8067
210
0
220
0
230
1
100
AcDbArc
50
180
51
240
0
ARC
5
E2
100
AcDbEntity
8
1
62
256
6
ByLayer
370
18
48
1
60
0
100
AcDbCircle
39
0
10
11.757968
20
1.3875
30
0
40
2.8067
210
0
220
0
230
1
100
AcDbArc
50
60
51
120
0
ARC
5
E3
100
AcDbEntity
8
1
62
256
6
ByLayer
370
18
48
1
60
0
100
AcDbCircle
39
0
10
11.757968
20
1.3875
30
0
40
2.8067
210
0
220
0
230
1
100
AcDbArc
50
300
51
360
0
ARC
5
E4
100
AcDbEntity
8
1
62
256
6
ByLayer
370
18
48
1
60
0
100
AcDbCircle
39
0
10
11.757968
20
1.3875
30
0
40
2.8067
210
0
220
0
230
1
100
AcDbArc
50
240
51
300
0
ARC
5
E5
100
AcDbEntity
8
1
62
256
6
ByLayer
370
18
48
1
60
0
100
AcDbCircle
39
0
10
11.757968
20
1.3875
30
0
40
2.8067
210
0
220
0
230
1
100
AcDbArc
50
360
51
60
0
ARC
5
E6
100
AcDbEntity
8
1
62
256
6
ByLayer
370
18
48
1
60
0
100
AcDbCircle
39
0
10
11.757968
20
1.3875
30
0
40
2.8067
210
0
220
0
230
1
100
AcDbArc
50
120
51
180
0
ARC
5
E7
100
AcDbEntity
8
1
62
256
6
ByLayer
370
18
48
1
60
0
100
AcDbCircle
39
0
10
44.807968
20
8.3375
30
0
40
0.3
210
0
220
0
230
1
100
AcDbArc
50
267.5
51
0
0
ARC
5
E8
100
AcDbEntity
8
1
62
256
6
ByLayer
370
18
48
1
60
0
100
AcDbCircle
39
0
10
44.807968
20
12.7375
30
0
40
0.3
210
0
220
0
230
1
100
AcDbArc
50
0
51
92.5
0
ARC
5
E9
100
AcDbEntity
8
1
62
256
6
ByLayer
370
18
48
1
60
0
100
AcDbCircle
39
0
10
20.407968
20
8.3375
30
0
40
0.3
210
0
220
0
230
1
100
AcDbArc
50
180
51
272.5
0
ARC
5
EA
100
AcDbEntity
8
1
62
256
6
ByLayer
370
18
48
1
60
0
100
AcDbCircle
39
0
10
20.407968
20
12.7375
30
0
40
0.3
210
0
220
0
230
1
100
AcDbArc
50
87.5
51
180
0
ARC
5
EB
100
AcDbEntity
8
1
62
256
6
ByLayer
370
18
48
1
60
0
100
AcDbCircle
39
0
10
37.664407
20
11.204799
30
0
40
0.100000000001339
210
0
220
0
230
1
100
AcDbArc
50
190.000001
51
218.049181
0
ARC
5
EC
100
AcDbEntity
8
1
62
256
6
ByLayer
370
18
48
1
60
0
100
AcDbCircle
39
0
10
37.664407
20
9.870201
30
0
40
0.100000000001339
210
0
220
0
230
1
100
AcDbArc
50
141.950819
51
169.999999
0
ARC
5
ED
100
AcDbEntity
8
SK1
62
256
6
ByLayer
370
18
48
1
60
0
100
AcDbCircle
39
0
10
-1.227723
20
14.0625
30
0
40
1.6
210
0
220
0
230
1
100
AcDbArc
50
270
51
302.461745
0
CIRCLE
5
D8
100
AcDbEntity
8
1
62
256
6
ByLayer
370
18
48
1
60
0
100
AcDbCircle
10
11.757968
20
1.3875
30
0
40
5.75
39
0
210
0
220
0
230
1
0
CIRCLE
5
DF
100
AcDbEntity
8
1
62
256
6
ByLayer
370
13
48
1
60
0
100
AcDbCircle
10
11.757968
20
1.3875
30
0
40
4.55
39
0
210
0
220
0
230
1
0
CIRCLE
5
E0
100
AcDbEntity
8
1
62
256
6
ByLayer
370
18
48
1
60
0
100
AcDbCircle
10
11.757968
20
1.3875
30
0
40
5.35
39
0
210
0
220
0
230
1
0
ELLIPSE
5
EE
100
AcDbEntity
8
1
62
256
6
ByLayer
370
18
48
1
60
0
100
AcDbEllipse
10
34.945987
20
10.5375
30
0
11
1.32555782140126
21
1.55283182094483E-15
31
0
210
0
220
0
230
1
40
0.754399
41
0
42
6.28318530717959
0
ELLIPSE
5
EF
100
AcDbEntity
8
1
62
256
6
ByLayer
370
18
48
1
60
0
100
AcDbEllipse
10
37.454322
20
12.396249
30
0
11
0.0995846460791009
21
0.00910486196022913
31
0
210
0
220
0
230
1
40
1
41
3.05041776748531
42
-3.05823461563245
0
ELLIPSE
5
F0
100
AcDbEntity
8
1
62
256
6
ByLayer
370
18
48
1
60
0
100
AcDbEllipse
10
37.454322
20
8.678751
30
0
11
0.0995846460791009
21
-0.00910486196022913
31
0
210
0
220
0
230
1
40
1
41
3.05823461563245
42
-3.05041776748531
0
POINT
5
70
100
AcDbEntity
8
81
62
256
6
ByLayer
370
18
48
1
60
0
100
AcDbPoint
10
45.107968
20
13.0375
30
0
39
0
210
0
220
0
230
1
50
360
0
POINT
5
72
100
AcDbEntity
8
80
62
256
6
ByLayer
370
18
48
1
60
0
100
AcDbPoint
10
0
20
0
30
0
39
0
210
0
220
0
230
1
50
360
0
POINT
5
74
100
AcDbEntity
8
1
62
256
6
ByLayer
370
18
48
1
60
1
100
AcDbPoint
10
45.107968
20
13.0375
30
0
39
0
210
0
220
0
230
1
50
360
0
POINT
5
76
100
AcDbEntity
8
1
62
256
6
ByLayer
370
18
48
1
60
1
100
AcDbPoint
10
0
20
-12.4625
30
0
39
0
210
0
220
0
230
1
50
360
0
POINT
5
77
100
AcDbEntity
8
1
62
256
6
ByLayer
370
18
48
1
60
1
100
AcDbPoint
10
45.107968
20
8.0375
30
0
39
0
210
0
220
0
230
1
50
360
0
POINT
5
78
100
AcDbEntity
8
1
62
256
6
ByLayer
370
18
48
1
60
1
100
AcDbPoint
10
45.107968
20
13.0375
30
0
39
0
210
0
220
0
230
1
50
360
0
POINT
5
79
100
AcDbEntity
8
1
62
256
6
ByLayer
370
18
48
1
60
1
100
AcDbPoint
10
0
20
-12.4625
30
0
39
0
210
0
220
0
230
1
50
360
0
POINT
5
7A
100
AcDbEntity
8
1
62
256
6
ByLayer
370
18
48
1
60
1
100
AcDbPoint
10
0
20
12.5375
30
0
39
0
210
0
220
0
230
1
50
360
0
POINT
5
7B
100
AcDbEntity
8
1
62
256
6
ByLayer
370
18
48
1
60
1
100
AcDbPoint
10
20.107968
20
8.3625
30
0
39
0
210
0
220
0
230
1
50
360
0
POINT
5
7C
100
AcDbEntity
8
1
62
256
6
ByLayer
370
18
48
1
60
1
100
AcDbPoint
10
45.107968
20
13.0375
30
0
39
0
210
0
220
0
230
1
50
360
0
POINT
5
7D
100
AcDbEntity
8
1
62
256
6
ByLayer
370
18
48
1
60
1
100
AcDbPoint
10
-84
20
-12.4625
30
0
39
0
210
0
220
0
230
1
50
360
0
POINT
5
7E
100
AcDbEntity
8
1
62
256
6
ByLayer
370
18
48
1
60
1
100
AcDbPoint
10
45.107968
20
13.0375
30
0
39
0
210
0
220
0
230
1
50
360
0
POINT
5
7F
100
AcDbEntity
8
1
62
256
6
ByLayer
370
18
48
1
60
1
100
AcDbPoint
10
0
20
-12.4625
30
0
39
0
210
0
220
0
230
1
50
360
0
POINT
5
80
100
AcDbEntity
8
1
62
256
6
ByLayer
370
18
48
1
60
1
100
AcDbPoint
10
45.107968
20
13.0375
30
0
39
0
210
0
220
0
230
1
50
360
0
POINT
5
81
100
AcDbEntity
8
1
62
256
6
ByLayer
370
18
48
1
60
1
100
AcDbPoint
10
-84
20
-12.4625
30
0
39
0
210
0
220
0
230
1
50
360
0
POINT
5
82
100
AcDbEntity
8
1
62
256
6
ByLayer
370
18
48
1
60
1
100
AcDbPoint
10
-81
20
-12.4625
30
0
39
0
210
0
220
0
230
1
50
360
0
SPLINE
5
F1
100
AcDbEntity
8
1
62
256
6
ByLayer
370
18
48
1
60
0
100
AcDbSpline
70
4
71
3
72
14
73
10
40
0
40
0
40
0
40
0
40
0.25
40
0.25
40
0.5
40
0.5
40
0.75
40
0.75
40
1
40
1
40
1
40
1
41
1
10
36.8302153477877
20
10.0375
30
0
41
1
10
36.8140608278055
20
9.93469877373005
30
0
41
1
10
36.7976759289779
20
9.83195790488926
30
0
41
1
10
36.7642385696737
20
9.62665106306193
30
0
41
1
10
36.7471947246829
20
9.52411290466694
30
0
41
1
10
36.7120993217926
20
9.31940891789188
30
0
41
1
10
36.6940589447693
20
9.21723718282814
30
0
41
1
10
36.6562654432225
20
9.01352036644045
30
0
41
1
10
36.6365593250571
20
8.91195808660353
30
0
41
1
10
36.6151139307407
20
8.81103216671127
30
0
0
SPLINE
5
F2
100
AcDbEntity
8
1
62
256
6
ByLayer
370
18
48
1
60
0
100
AcDbSpline
70
4
71
3
72
8
73
4
40
0
40
0
40
0
40
0
40
1
40
1
40
1
40
1
41
1
10
37.02712577928
20
10.1215772376137
30
0
41
1
10
36.9616721404867
20
10.0927343063335
30
0
41
1
10
36.8961025793965
20
10.0644085401366
30
0
41
1
10
36.8302153477877
20
10.0375
30
0
0
SPLINE
5
F3
100
AcDbEntity
8
1
62
256
6
ByLayer
370
18
48
1
60
0
100
AcDbSpline
70
4
71
3
72
18
73
14
40
0
40
0
40
0
40
0
40
0.250000000000033
40
0.250000000000033
40
0.500000000000065
40
0.500000000000065
40
0.625000000000049
40
0.625000000000049
40
0.750000000000033
40
0.750000000000033
40
0.875000000000016
40
0.875000000000016
40
1
40
1
40
1
40
1
41
1
10
37.1079675788577
20
10.2625311307314
30
0
41
1
10
37.1079675788577
20
10.2467066707605
30
0
41
1
10
37.1059820634279
20
10.2313259354211
30
0
41
1
10
37.0981161574225
20
10.2014348946635
30
0
41
1
10
37.0924216759353
20
10.1876741512117
30
0
41
1
10
37.0814223162421
20
10.1688746660172
30
0
41
1
10
37.0773940441613
20
10.1630189291369
30
0
41
1
10
37.0687590323546
20
10.1522311583368
30
0
41
1
10
37.0641365664651
20
10.1472727290416
30
0
41
1
10
37.0542858359855
20
10.1382208978465
30
0
41
1
10
37.0490910285897
20
10.134167496056
30
0
41
1
10
37.0383871450721
20
10.1271203164928
30
0
41
1
10
37.0328489567552
20
10.1240992244377
30
0
41
1
10
37.02712577928
20
10.1215772376137
30
0
0
SPLINE
5
F4
100
AcDbEntity
8
1
62
256
6
ByLayer
370
18
48
1
60
0
100
AcDbSpline
70
4
71
3
72
20
73
16
40
0
40
0
40
0
40
0
40
0.249999999999976
40
0.249999999999976
40
0.37499999999998
40
0.37499999999998
40
0.499999999999984
40
0.499999999999984
40
0.624999999999988
40
0.624999999999988
40
0.749999999999992
40
0.749999999999992
40
0.874999999999996
40
0.874999999999996
40
1
40
1
40
1
40
1
41
1
10
37.0271257792797
20
10.9534227623865
30
0
41
1
10
37.0385771767406
20
10.9483765666957
30
0
41
1
10
37.0492453454356
20
10.941387719873
30
0
41
1
10
37.0640159096366
20
10.9278494779288
30
0
41
1
10
37.0687115475182
20
10.9228222726242
30
0
41
1
10
37.0773490077083
20
10.9120431644952
30
0
41
1
10
37.0813341354952
20
10.9062546142989
30
0
41
1
10
37.0886149272941
20
10.8938528991704
30
0
41
1
10
37.0919343358607
20
10.8871714878333
30
0
41
1
10
37.0976335769424
20
10.873368374
30
0
41
1
10
37.1000349899854
20
10.8662308118808
30
0
41
1
10
37.1039382341002
20
10.8514820096556
30
0
41
1
10
37.105446487266
20
10.8438164905141
30
0
41
1
10
37.1074607871041
20
10.8282425880657
30
0
41
1
10
37.1079675788693
20
10.8203893156453
30
0
41
1
10
37.1079675788694
20
10.8124688692701
30
0
0
SPLINE
5
F5
100
AcDbEntity
8
1
62
256
6
ByLayer
370
18
48
1
60
0
100
AcDbSpline
70
4
71
3
72
8
73
4
40
0
40
0
40
0
40
0
40
1
40
1
40
1
40
1
41
1
10
36.8302153477877
20
11.0375
30
0
41
1
10
36.8960855537289
20
11.0105984131964
30
0
41
1
10
36.9616597633983
20
10.982271147779
30
0
41
1
10
37.0271257792797
20
10.9534227623865
30
0
0
SPLINE
5
F6
100
AcDbEntity
8
1
62
256
6
ByLayer
370
18
48
1
60
0
100
AcDbSpline
70
4
71
3
72
14
73
10
40
0
40
0
40
0
40
0
40
0.25
40
0.25
40
0.5
40
0.5
40
0.75
40
0.75
40
1
40
1
40
1
40
1
41
1
10
36.6151139307407
20
12.2639678332887
30
0
41
1
10
36.6365734255518
20
12.1629755539081
30
0
41
1
10
36.6562887773647
20
12.0613594397069
30
0
41
1
10
36.6940979055921
20
11.8575472157428
30
0
41
1
10
36.7121469669501
20
11.755319050249
30
0
41
1
10
36.7472441871745
20
11.5505927027452
30
0
41
1
10
36.7642807682042
20
11.4480925232909
30
0
41
1
10
36.7976960072878
20
11.2429161212579
30
0
41
1
10
36.8140706345093
20
11.140238820133
30
0
41
1
10
36.8302153477877
20
11.0375
30
0
0
SPLINE
5
F7
100
AcDbEntity
8
1
62
256
6
ByLayer
370
18
48
1
60
0
100
AcDbSpline
70
4
71
3
72
37
73
33
40
0
40
0
40
0
40
0
40
0.125000000000007
40
0.125000000000007
40
0.250000000000015
40
0.250000000000015
40
0.375000000000022
40
0.375000000000022
40
0.437500000000027
40
0.437500000000027
40
0.500000000000032
40
0.500000000000032
40
0.562500000000036
40
0.562500000000036
40
0.625000000000041
40
0.625000000000041
40
0.687500000000046
40
0.687500000000046
40
0.718750000000044
40
0.718750000000044
40
0.750000000000042
40
0.750000000000042
40
0.812500000000035
40
0.812500000000035
40
0.843750000000031
40
0.843750000000031
40
0.875000000000027
40
0.906250000000023
40
0.906250000000023
40
0.937500000000019
40
0.937500000000019
40
1
40
1
40
1
40
1
41
1
10
8.95126757885768
20
1.38750000000002
30
0
41
1
10
8.95126757885768
20
1.35105915125962
30
0
41
1
10
8.9526927924336
20
1.31458155559957
30
0
41
1
10
8.9584673030061
20
1.24195289977504
30
0
41
1
10
8.96282190846358
20
1.20572126672172
30
0
41
1
10
8.97470234576855
20
1.13392044783635
30
0
41
1
10
8.98224192061792
20
1.09825035143811
30
0
41
1
10
8.99628816746844
20
1.04564856749349
30
0
41
1
10
9.00142877585296
20
1.02826004335472
30
0
41
1
10
9.01274379177528
20
0.993813600050572
30
0
41
1
10
9.01891910820581
20
0.976758780178102
30
0
41
1
10
9.03237426168693
20
0.943269794811499
30
0
41
1
10
9.03966121685491
20
0.926807676454217
30
0
41
1
10
9.05556400327293
20
0.894561744142862
30
0
41
1
10
9.06420510963881
20
0.87874386540318
30
0
41
1
10
9.08283297774162
20
0.848441335325276
30
0
41
1
10
9.09283961007966
20
0.833900605444398
30
0
41
1
10
9.10914375738497
20
0.81324676515996
30
0
41
1
10
9.11479542403455
20
0.806556194632236
30
0
41
1
10
9.12659795603429
20
0.793624621881861
30
0
41
1
10
9.132779955872
20
0.787356558701617
30
0
41
1
10
9.15188510188059
20
0.769640178797999
30
0
41
1
10
9.16538763655828
20
0.759214971163289
30
0
41
1
10
9.18706896529335
20
0.746211438798667
30
0
41
1
10
9.19459404531793
20
0.742296632124322
30
0
41
1
10
9.20984460958607
20
0.735640608080502
30
0
41
1
10
9.22529090565158
20
0.730138189253893
30
0
41
1
10
9.24113636422018
20
0.727037210180043
30
0
41
1
10
9.25718954329207
20
0.725206392034437
30
0
41
1
10
9.26524798154534
20
0.724944969701767
30
0
41
1
10
9.28893281084399
20
0.726040491577379
30
0
41
1
10
9.30430824868969
20
0.72923321703388
30
0
41
1
10
9.31931093655891
20
0.734629241423647
30
0
0
SPLINE
5
F8
100
AcDbEntity
8
1
62
256
6
ByLayer
370
18
48
1
60
0
100
AcDbSpline
70
4
71
3
72
35
73
31
40
0
40
0
40
0
40
0
40
0.124999999999997
40
0.124999999999997
40
0.249999999999994
40
0.249999999999994
40
0.374999999999991
40
0.374999999999991
40
0.437499999999993
40
0.437499999999993
40
0.499999999999994
40
0.499999999999994
40
0.624999999999998
40
0.624999999999998
40
0.687499999999998
40
0.687499999999998
40
0.718750000000003
40
0.718750000000003
40
0.750000000000008
40
0.750000000000008
40
0.812500000000003
40
0.812500000000003
40
0.843750000000002
40
0.843750000000002
40
0.875000000000002
40
0.906250000000001
40
0.906250000000001
40
0.937500000000001
40
0.937500000000001
40
1
40
1
40
1
40
1
41
1
10
10.3546175788577
20
-1.04317350080177
30
0
41
1
10
10.3230772295705
20
-1.02496367165051
30
0
41
1
10
10.2921831527375
20
-1.00548128927966
30
0
41
1
10
10.2321791955767
20
-0.96417139612123
30
0
41
1
10
10.2030591854605
20
-0.942348024696258
30
0
41
1
10
10.1467682215716
20
-0.896124353830487
30
0
41
1
10
10.119684517697
20
-0.87179407393171
30
0
41
1
10
10.0811899883867
20
-0.833376341521188
30
0
41
1
10
10.0687042516215
20
-0.82023842442598
30
0
41
1
10
10.0445178023306
20
-0.793212166982613
30
0
41
1
10
10.0328186258134
20
-0.779322647524623
30
0
41
1
10
9.99933932579981
20
-0.736653432281315
30
0
41
1
10
9.97898358292801
20
-0.706691339520205
30
0
41
1
10
9.95350739861857
20
-0.659600606772273
30
0
41
1
10
9.9458246934893
20
-0.643453890284036
30
0
41
1
10
9.93605075868527
20
-0.618823233237038
30
0
41
1
10
9.93308303524552
20
-0.610543095682033
30
0
41
1
10
9.92780727465404
20
-0.59382656710568
30
0
41
1
10
9.925493745561
20
-0.585360692694223
30
0
41
1
10
9.91976797675051
20
-0.560023478954406
30
0
41
1
10
9.91752871135196
20
-0.543161733796666
30
0
41
1
10
9.91715590833698
20
-0.517949909236563
30
0
41
1
10
9.91754286562647
20
-0.509498304941474
30
0
41
1
10
9.91942734595452
20
-0.493016102604741
30
0
41
1
10
9.92240352391548
20
-0.476939315107614
30
0
41
1
10
9.92764833851663
20
-0.461713646017529
30
0
41
1
10
9.93409140361931
20
-0.446941071257299
30
0
41
1
10
9.937890380678
20
-0.439856649743717
30
0
41
1
10
9.95066350315989
20
-0.419956639869923
30
0
41
1
10
9.96109358299884
20
-0.408271347089595
30
0
41
1
10
9.97323659539313
20
-0.3980032240502
30
0
0
SPLINE
5
F9
100
AcDbEntity
8
1
62
256
6
ByLayer
370
18
48
1
60
0
100
AcDbSpline
70
4
71
3
72
50
73
46
40
0
40
0
40
0
40
0
40
0.0312499999999998
40
0.0312499999999998
40
0.0624999999999997
40
0.0624999999999997
40
0.0937499999999996
40
0.0937499999999996
40
0.124999999999999
40
0.124999999999999
40
0.156249999999999
40
0.156249999999999
40
0.187499999999999
40
0.187499999999999
40
0.218749999999999
40
0.218749999999999
40
0.249999999999999
40
0.249999999999999
40
0.312499999999999
40
0.312499999999999
40
0.374999999999998
40
0.374999999999998
40
0.437499999999998
40
0.437499999999998
40
0.499999999999998
40
0.499999999999998
40
0.624999999999999
40
0.624999999999999
40
0.687500000000001
40
0.687500000000001
40
0.750000000000003
40
0.750000000000003
40
0.812500000000005
40
0.812500000000005
40
0.843750000000004
40
0.843750000000004
40
0.875000000000004
40
0.875000000000004
40
0.906250000000003
40
0.906250000000003
40
0.937500000000002
40
0.937500000000002
40
0.968750000000001
40
0.968750000000001
40
1
40
1
40
1
40
1
41
1
10
9.33931093655889
20
0.736001038234491
30
0
41
1
10
9.35297888738089
20
0.736938520801942
30
0
41
1
10
9.36667358464146
20
0.736414880640808
30
0
41
1
10
9.39411490162124
20
0.733033410938276
30
0
41
1
10
9.40784785809865
20
0.730162439879194
30
0
41
1
10
9.4349312099281
20
0.722589802342526
30
0
41
1
10
9.44837834956917
20
0.717862681261693
30
0
41
1
10
9.47481286201989
20
0.706964209874798
30
0
41
1
10
9.48782276447881
20
0.700789315637309
30
0
41
1
10
9.51350429819078
20
0.687208630899136
30
0
41
1
10
9.52615081473343
20
0.679812145122639
30
0
41
1
10
9.55096116712085
20
0.664068752645278
30
0
41
1
10
9.56315067744515
20
0.655707511568778
30
0
41
1
10
9.58715798539171
20
0.638114794411109
30
0
41
1
10
9.59897941483828
20
0.628877488047095
30
0
41
1
10
9.62213861090268
20
0.609737643245552
30
0
41
1
10
9.63349762307931
20
0.59981984284849
30
0
41
1
10
9.66698129111049
20
0.569110136410416
30
0
41
1
10
9.68856957949592
20
0.54730506863919
30
0
41
1
10
9.72998561638553
20
0.501870307529231
30
0
41
1
10
9.74984883849493
20
0.478213671979347
30
0
41
1
10
9.78804759947175
20
0.42916604536768
30
0
41
1
10
9.80633976394989
20
0.40381855884192
30
0
41
1
10
9.84111269780354
20
0.351970101110908
30
0
41
1
10
9.8576420422001
20
0.325405413895794
30
0
41
1
10
9.90464942684073
20
0.243848911630238
30
0
41
1
10
9.93205601194114
20
0.187983872921251
30
0
41
1
10
9.96692360478554
20
0.101780475224899
30
0
41
1
10
9.97751214734001
20
0.0725450904283775
30
0
41
1
10
9.99600139671045
20
0.0141715706834589
30
0
41
1
10
10.0039542923881
20
-0.0150689202423564
30
0
41
1
10
10.0169393902508
20
-0.073723230669799
30
0
41
1
10
10.0219807715168
20
-0.103135982949596
30
0
41
1
10
10.026816349157
20
-0.147466842202078
30
0
41
1
10
10.0279690577685
20
-0.162324412716686
30
0
41
1
10
10.0291879990698
20
-0.191705227622208
30
0
41
1
10
10.0292618764623
20
-0.206267377064194
30
0
41
1
10
10.0281858887306
20
-0.235113199249867
30
0
41
1
10
10.0270375256737
20
-0.249397165406606
30
0
41
1
10
10.0232815435844
20
-0.277648053509949
30
0
41
1
10
10.0206636874186
20
-0.291666621088069
30
0
41
1
10
10.0136414869944
20
-0.319093215687587
30
0
41
1
10
10.0092830999658
20
-0.332344302810526
30
0
41
1
10
9.99852547271755
20
-0.357750678430904
30
0
41
1
10
9.99213199650049
20
-0.369909077096082
30
0
41
1
10
9.98442460628058
20
-0.38136861437934
30
0
0
SPLINE
5
FA
100
AcDbEntity
8
1
62
256
6
ByLayer
370
18
48
1
60
0
100
AcDbSpline
70
4
71
3
72
8
73
4
40
0
40
0
40
0
40
0
40
1
40
1
40
1
40
1
41
1
10
9.31931093655891
20
0.734629241423647
30
0
41
1
10
9.32597735995452
20
0.735086490341331
30
0
41
1
10
9.33264402472074
20
0.735543755814604
30
0
41
1
10
9.33931093655889
20
0.736001038234491
30
0
0
SPLINE
5
FB
100
AcDbEntity
8
1
62
256
6
ByLayer
370
18
48
1
60
0
100
AcDbSpline
70
4
71
3
72
8
73
4
40
0
40
0
40
0
40
0
40
1
40
1
40
1
40
1
41
1
10
9.97323659539313
20
-0.3980032240502
30
0
41
1
10
9.97696579626952
20
-0.392458556496052
30
0
41
1
10
9.98069513216876
20
-0.386913688186638
30
0
41
1
10
9.98442460628016
20
-0.381368614379937
30
0
0
SPLINE
5
FC
100
AcDbEntity
8
1
62
256
6
ByLayer
370
18
48
1
60
0
100
AcDbSpline
70
4
71
3
72
35
73
31
40
0
40
0
40
0
40
0
40
0.125000000000001
40
0.125000000000001
40
0.250000000000001
40
0.250000000000001
40
0.375000000000002
40
0.375000000000002
40
0.500000000000003
40
0.500000000000003
40
0.5625
40
0.5625
40
0.624999999999997
40
0.624999999999997
40
0.687499999999995
40
0.687499999999995
40
0.718749999999997
40
0.718749999999997
40
0.749999999999998
40
0.749999999999998
40
0.812499999999996
40
0.812499999999996
40
0.843749999999995
40
0.843749999999995
40
0.874999999999994
40
0.906249999999992
40
0.906249999999992
40
0.937499999999991
40
0.937499999999991
40
1
40
1
40
1
40
1
41
1
10
13.1613175788577
20
3.81817350080181
30
0
41
1
10
13.1297779381757
20
3.83638292083967
30
0
41
1
10
13.0974991883505
20
3.85337697738643
30
0
41
1
10
13.0316748484344
20
3.88471050481417
30
0
41
1
10
12.9982159439465
20
3.89901520056478
30
0
41
1
10
12.9301006087787
20
3.92463155624799
30
0
41
1
10
12.8954293163252
20
3.93594645116721
30
0
41
1
10
12.8252050755651
20
3.95483031592647
30
0
41
1
10
12.7896341726004
20
3.96241564107495
30
0
41
1
10
12.7359280604146
20
3.9700634658829
30
0
41
1
10
12.7179947625356
20
3.97198377228514
30
0
41
1
10
12.6820606215122
20
3.97432798716267
30
0
41
1
10
12.6641034104087
20
3.97474469202385
30
0
41
1
10
12.6286116050424
20
3.97375746632827
30
0
41
1
10
12.6110271016553
20
3.97236146704901
30
0
41
1
10
12.5849680337401
20
3.96855973069654
30
0
41
1
10
12.5763349865292
20
3.96700611890452
30
0
41
1
10
12.5591947525001
20
3.96323502144432
30
0
41
1
10
12.5506797247245
20
3.96101111797586
30
0
41
1
10
12.5258280496865
20
3.95332476797759
30
0
41
1
10
12.5100268369396
20
3.94683535358152
30
0
41
1
10
12.4878266863461
20
3.93447685616266
30
0
41
1
10
12.4806983660682
20
3.92991503959823
30
0
41
1
10
12.4674207847381
20
3.92009908909577
30
0
41
1
10
12.4550144202362
20
3.9095351848969
30
0
41
1
10
12.4444389012925
20
3.89741000149698
30
0
41
1
10
12.4348415210586
20
3.88445504520632
30
0
41
1
10
12.4305660689861
20
3.8775853656835
30
0
41
1
10
12.4196492151555
20
3.85649643111995
30
0
41
1
10
12.4147225604112
20
3.84157065641085
30
0
41
1
10
12.4118932376919
20
3.8258739826266
30
0
0
SPLINE
5
FD
100
AcDbEntity
8
1
62
256
6
ByLayer
370
18
48
1
60
0
100
AcDbSpline
70
4
71
3
72
35
73
31
40
0
40
0
40
0
40
0
40
0.125000000000008
40
0.125000000000008
40
0.250000000000016
40
0.250000000000016
40
0.375000000000024
40
0.375000000000024
40
0.437500000000024
40
0.437500000000024
40
0.500000000000024
40
0.500000000000024
40
0.625000000000017
40
0.625000000000017
40
0.687500000000013
40
0.687500000000013
40
0.718750000000009
40
0.718750000000009
40
0.750000000000005
40
0.750000000000005
40
0.812500000000001
40
0.812500000000001
40
0.843750000000001
40
0.843750000000001
40
0.875
40
0.90625
40
0.90625
40
0.9375
40
0.9375
40
1
40
1
40
1
40
1
41
1
10
10.3546175788577
20
3.81817350080178
30
0
41
1
10
10.3861579281448
20
3.83638332995307
30
0
41
1
10
10.4184772046207
20
3.85339719413148
30
0
41
1
10
10.4842546001039
20
3.88470719878114
30
0
41
1
10
10.5177141992123
20
3.89901418158772
30
0
41
1
10
10.5858905543826
20
3.92465175088614
30
0
41
1
10
10.6205030467935
20
3.93594178652071
30
0
41
1
10
10.6730210436719
20
3.95007016060495
30
0
41
1
10
10.6906416820118
20
3.95431416728096
30
0
41
1
10
10.7261403321724
20
3.96174711807254
30
0
41
1
10
10.744018597128
20
3.96493414241078
30
0
41
1
10
10.7977108714951
20
3.97259345910183
30
0
41
1
10
10.8338366764126
20
3.97524100316116
30
0
41
1
10
10.8873565394099
20
3.97375865959066
30
0
41
1
10
10.905181358641
20
3.97233871915827
30
0
41
1
10
10.9313991007576
20
3.96848786646999
30
0
41
1
10
10.940053771947
20
3.96691792158273
30
0
41
1
10
10.9571685906529
20
3.96312859999105
30
0
41
1
10
10.965657017505
20
3.9608992377523
30
0
41
1
10
10.9904625726701
20
3.95318929212849
30
0
41
1
10
11.0061849050281
20
3.94669768027055
30
0
41
1
10
11.0282053870804
20
3.93441462487209
30
0
41
1
10
11.0353312124579
20
3.92985370788165
30
0
41
1
10
11.0486629782278
20
3.91998059887626
30
0
41
1
10
11.0610977956311
20
3.90936475940734
30
0
41
1
10
11.0716612045522
20
3.89720978217954
30
0
41
1
10
11.0812330970225
20
3.8842436367423
30
0
41
1
10
11.085468897495
20
3.87741141534428
30
0
41
1
10
11.0963162503403
20
3.85639956185241
30
0
41
1
10
11.1012209708193
20
3.8415242013582
30
0
41
1
10
11.1040419200234
20
3.8258739826266
30
0
0
SPLINE
5
FE
100
AcDbEntity
8
1
62
256
6
ByLayer
370
18
48
1
60
0
100
AcDbSpline
70
4
71
3
72
52
73
48
40
0
40
0
40
0
40
0
40
0.0156249999999997
40
0.0156249999999997
40
0.0312499999999994
40
0.0312499999999994
40
0.0625000000000024
40
0.0625000000000024
40
0.0937500000000054
40
0.0937500000000054
40
0.125000000000008
40
0.125000000000008
40
0.187500000000018
40
0.187500000000018
40
0.218750000000021
40
0.218750000000021
40
0.250000000000024
40
0.250000000000024
40
0.312500000000022
40
0.312500000000022
40
0.37500000000002
40
0.37500000000002
40
0.437500000000018
40
0.437500000000018
40
0.500000000000016
40
0.500000000000016
40
0.562500000000014
40
0.562500000000014
40
0.625000000000012
40
0.625000000000012
40
0.68750000000001
40
0.68750000000001
40
0.750000000000008
40
0.750000000000008
40
0.812500000000006
40
0.812500000000006
40
0.843750000000005
40
0.843750000000005
40
0.875000000000004
40
0.875000000000004
40
0.906250000000003
40
0.906250000000003
40
0.937500000000002
40
0.937500000000002
40
0.968750000000001
40
0.968750000000001
40
1
40
1
40
1
40
1
41
1
10
11.1128539091367
20
3.80786757614481
30
0
41
1
10
11.1158685528325
20
3.80170745734685
30
0
41
1
10
11.1192127303607
20
3.79571241873651
30
0
41
1
10
11.12649233876
20
3.7840173354227
30
0
41
1
10
11.1304374562247
20
3.77830725601197
30
0
41
1
10
11.1429315647657
20
3.76176543961827
30
0
41
1
10
11.1521681340507
20
3.75145133423212
30
0
41
1
10
11.172085066735
20
3.73194420626501
30
0
41
1
10
11.1827686810569
20
3.72275375527153
30
0
41
1
10
11.2053686938972
20
3.70531303649446
30
0
41
1
10
11.2172497085445
20
3.6970972339148
30
0
41
1
10
11.2540177301029
20
3.67395819268566
30
0
41
1
10
11.2802493509445
20
3.66038106004092
30
0
41
1
10
11.3209837064159
20
3.64240525378975
30
0
41
1
10
11.3348149118255
20
3.63680405245304
30
0
41
1
10
11.3629412759786
20
3.62630093027011
30
0
41
1
10
11.3772507431586
20
3.6213959581633
30
0
41
1
10
11.4205696591028
20
3.60772454919939
30
0
41
1
10
11.4500452474152
20
3.59996091323225
30
0
41
1
10
11.5100729051284
20
3.58676715447498
30
0
41
1
10
11.5405748926272
20
3.58135854131171
30
0
41
1
10
11.601961989384
20
3.57278297277867
30
0
41
1
10
11.6329459173961
20
3.56959850827843
30
0
41
1
10
11.6953511332627
20
3.56535251302188
30
0
41
1
10
11.7266261267998
20
3.5642998811156
30
0
41
1
10
11.7893195974507
20
3.56430011890444
30
0
41
1
10
11.8205783367206
20
3.56535300340261
30
0
41
1
10
11.882918905484
20
3.56959284645927
30
0
41
1
10
11.9139884163909
20
3.57278365887467
30
0
41
1
10
11.975460719731
20
3.58137402120997
30
0
41
1
10
12.0059859879038
20
3.5867912332244
30
0
41
1
10
12.065983080445
20
3.59998452043644
30
0
41
1
10
12.0955215460816
20
3.60776701835155
30
0
41
1
10
12.1533469343276
20
3.62603025940365
30
0
41
1
10
12.1814568668254
20
3.63644542921463
30
0
41
1
10
12.2222100586157
20
3.65443668870245
30
0
41
1
10
12.2355784660697
20
3.66084384426225
30
0
41
1
10
12.2615999542123
20
3.67448661436788
30
0
41
1
10
12.2742686922705
20
3.68172651626588
30
0
41
1
10
12.2988217414717
20
3.69718768811526
30
0
41
1
10
12.310680630468
20
3.70539556552197
30
0
41
1
10
12.3332517113274
20
3.72282515624747
30
0
41
1
10
12.3440198730002
20
3.7320898939638
30
0
41
1
10
12.364078497674
20
3.75177750021984
30
0
41
1
10
12.3732933412223
20
3.76211831849767
30
0
41
1
10
12.3897773507138
20
3.78400488229633
30
0
41
1
10
12.3970519361602
20
3.79554728740905
30
0
41
1
10
12.4030812485789
20
3.80786757614547
30
0
0
SPLINE
5
FF
100
AcDbEntity
8
1
62
256
6
ByLayer
370
18
48
1
60
0
100
AcDbSpline
70
4
71
3
72
8
73
4
40
0
40
0
40
0
40
0
40
1
40
1
40
1
40
1
41
1
10
12.4030812485789
20
3.80786757614547
30
0
41
1
10
12.4060186863057
20
3.81386993237206
30
0
41
1
10
12.4089560151727
20
3.81987206615474
30
0
41
1
10
12.4118932376919
20
3.8258739826266
30
0
0
SPLINE
5
100
100
AcDbEntity
8
1
62
256
6
ByLayer
370
18
48
1
60
0
100
AcDbSpline
70
4
71
3
72
8
73
4
40
0
40
0
40
0
40
0
40
1
40
1
40
1
40
1
41
1
10
11.1040419200234
20
3.8258739826266
30
0
41
1
10
11.1069791425427
20
3.81987206615474
30
0
41
1
10
11.1099164714097
20
3.81386993237206
30
0
41
1
10
11.1128539091364
20
3.80786757614547
30
0
0
SPLINE
5
101
100
AcDbEntity
8
1
62
256
6
ByLayer
370
18
48
1
60
0
100
AcDbSpline
70
4
71
3
72
52
73
48
40
0
40
0
40
0
40
0
40
0.0156249999999941
40
0.0156249999999941
40
0.0312499999999883
40
0.0312499999999883
40
0.0624999999999862
40
0.0624999999999862
40
0.0937499999999842
40
0.0937499999999842
40
0.124999999999982
40
0.124999999999982
40
0.187499999999982
40
0.187499999999982
40
0.218749999999982
40
0.218749999999982
40
0.249999999999982
40
0.249999999999982
40
0.312499999999984
40
0.312499999999984
40
0.374999999999986
40
0.374999999999986
40
0.437499999999987
40
0.437499999999987
40
0.499999999999988
40
0.499999999999988
40
0.56249999999999
40
0.56249999999999
40
0.624999999999991
40
0.624999999999991
40
0.687499999999993
40
0.687499999999993
40
0.749999999999994
40
0.749999999999994
40
0.812499999999996
40
0.812499999999996
40
0.843749999999996
40
0.843749999999996
40
0.874999999999997
40
0.874999999999997
40
0.906249999999998
40
0.906249999999998
40
0.937499999999999
40
0.937499999999999
40
0.968749999999999
40
0.968749999999999
40
1
40
1
40
1
40
1
41
1
10
14.1766242211557
20
0.736001038234548
30
0
41
1
10
14.1697820799384
20
0.736470339609582
30
0
41
1
10
14.1629181354411
20
0.736571716220624
30
0
41
1
10
14.1491500919923
20
0.736114932074116
30
0
41
1
10
14.1422324594327
20
0.735553399834174
30
0
41
1
10
14.1216597719405
20
0.733004092636833
30
0
41
1
10
14.1081092100163
20
0.730162041685304
30
0
41
1
10
14.0812570752998
20
0.722667035998796
30
0
41
1
10
14.0679561041062
20
0.718009980088539
30
0
41
1
10
14.0415519921649
20
0.707158154231564
30
0
41
1
10
14.0284963910947
20
0.700976795014014
30
0
41
1
10
13.9900733827919
20
0.680704274912131
30
0
41
1
10
13.9651994305902
20
0.664775591203266
30
0
41
1
10
13.9292647479874
20
0.638486507683808
30
0
41
1
10
13.9174983626334
20
0.62930893310255
30
0
41
1
10
13.8943392099274
20
0.610202348321252
30
0
41
1
10
13.882936645888
20
0.600262472282139
30
0
41
1
10
13.8494374004476
20
0.569582895092054
30
0
41
1
10
13.8279761003182
20
0.547938104805638
30
0
41
1
10
13.7865361412063
20
0.502549507674956
30
0
41
1
10
13.7666011510583
20
0.478838318216674
30
0
41
1
10
13.7284809424784
20
0.429963317227219
30
0
41
1
10
13.7102311513177
20
0.404722680709853
30
0
41
1
10
13.6753514036279
20
0.352801176069022
30
0
41
1
10
13.6588023008877
20
0.326242553115861
30
0
41
1
10
13.6274557714934
20
0.271948295986277
30
0
41
1
10
13.6127382265811
20
0.244350991439234
30
0
41
1
10
13.5852397539945
20
0.188242553675394
30
0
41
1
10
13.5724683231515
20
0.159740161739137
30
0
41
1
10
13.5491716434915
20
0.102208404249865
30
0
41
1
10
13.5386004526273
20
0.0730641405476717
30
0
41
1
10
13.5200276282418
20
0.0145084906477848
30
0
41
1
10
13.5119982363229
20
-0.0149638199399362
30
0
41
1
10
13.4989019729065
20
-0.0741736956706518
30
0
41
1
10
13.4938668082986
20
-0.103725196217965
30
0
41
1
10
13.489071100166
20
-0.148014125337539
30
0
41
1
10
13.4879356559197
20
-0.162795083580733
30
0
41
1
10
13.4867398973379
20
-0.192151738409365
30
0
41
1
10
13.4866754672734
20
-0.206743138350646
30
0
41
1
10
13.4877887102666
20
-0.235737288623938
30
0
41
1
10
13.4889674961138
20
-0.250111326458722
30
0
41
1
10
13.49277642403
20
-0.278373251236644
30
0
41
1
10
13.4954158414153
20
-0.292331121655479
30
0
41
1
10
13.5024364962358
20
-0.31954620331598
30
0
41
1
10
13.5067844857862
20
-0.332696901059563
30
0
41
1
10
13.5174968012917
20
-0.357915753934776
30
0
41
1
10
13.5238555246169
20
-0.36998693228972
30
0
41
1
10
13.5315105514352
20
-0.381368614379937
30
0
0
SPLINE
5
102
100
AcDbEntity
8
1
62
256
6
ByLayer
370
18
48
1
60
0
100
AcDbSpline
70
4
71
3
72
8
73
4
40
0
40
0
40
0
40
0
40
1
40
1
40
1
40
1
41
1
10
13.5315105514352
20
-0.381368614379937
30
0
41
1
10
13.5352400255466
20
-0.386913688186638
30
0
41
1
10
13.5389693614458
20
-0.392458556496052
30
0
41
1
10
13.5426985623222
20
-0.3980032240502
30
0
0
SPLINE
5
103
100
AcDbEntity
8
1
62
256
6
ByLayer
370
18
48
1
60
0
100
AcDbSpline
70
4
71
3
72
35
73
31
40
0
40
0
40
0
40
0
40
0.124999999999997
40
0.124999999999997
40
0.249999999999993
40
0.249999999999993
40
0.37499999999999
40
0.37499999999999
40
0.499999999999986
40
0.499999999999986
40
0.562499999999982
40
0.562499999999982
40
0.624999999999979
40
0.624999999999979
40
0.687499999999975
40
0.687499999999975
40
0.718749999999977
40
0.718749999999977
40
0.74999999999998
40
0.74999999999998
40
0.812499999999983
40
0.812499999999983
40
0.843749999999987
40
0.843749999999987
40
0.874999999999992
40
0.906249999999996
40
0.906249999999996
40
0.9375
40
0.9375
40
1
40
1
40
1
40
1
41
1
10
13.1613175788577
20
-1.04317350080177
30
0
41
1
10
13.1928572195396
20
-1.02496408076391
30
0
41
1
10
13.2237138791351
20
-1.00550689168625
30
0
41
1
10
13.2837616798357
20
-0.964168104845442
30
0
41
1
10
13.3128793619931
20
-0.94234419145144
30
0
41
1
10
13.369121444351
20
-0.896162758650462
30
0
41
1
10
13.396256077019
20
-0.871793986063238
30
0
41
1
10
13.4477221040022
20
-0.820419941983204
30
0
41
1
10
13.4720766397591
20
-0.793407298954435
30
0
41
1
10
13.5055529064194
20
-0.750720353867024
30
0
41
1
10
13.5161825894863
20
-0.736149815531292
30
0
41
1
10
13.5361798096338
20
-0.706202043980625
30
0
41
1
10
13.5455192921813
20
-0.690858995414402
30
0
41
1
10
13.5624102323328
20
-0.659628577493265
30
0
41
1
10
13.5699935131868
20
-0.643701951207476
30
0
41
1
10
13.5797306468847
20
-0.619233268217755
30
0
41
1
10
13.5827017032106
20
-0.610980024125013
30
0
41
1
10
13.5880059540245
20
-0.594250597298895
30
0
41
1
10
13.590337511013
20
-0.585764415197104
30
0
41
1
10
13.5961067741711
20
-0.560399058288482
30
0
41
1
10
13.5983873828219
20
-0.543470099441009
30
0
41
1
10
13.5987846854013
20
-0.518064956349747
30
0
41
1
10
13.5983981965081
20
-0.509610741620577
30
0
41
1
10
13.5965361246757
20
-0.493204043636609
30
0
41
1
10
13.5935906975273
20
-0.477177864709915
30
0
41
1
10
13.5883777401493
20
-0.461956604946522
30
0
41
1
10
13.5819571090136
20
-0.447167551708844
30
0
41
1
10
13.5781455180672
20
-0.440030061839991
30
0
41
1
10
13.5653403919118
20
-0.420031321811479
30
0
41
1
10
13.5548776192146
20
-0.408301826292785
30
0
41
1
10
13.5426985623222
20
-0.3980032240502
30
0
0
SPLINE
5
104
100
AcDbEntity
8
1
62
256
6
ByLayer
370
18
48
1
60
0
100
AcDbSpline
70
4
71
3
72
35
73
31
40
0
40
0
40
0
40
0
40
0.125000000000001
40
0.125000000000001
40
0.250000000000002
40
0.250000000000002
40
0.375000000000003
40
0.375000000000003
40
0.437500000000005
40
0.437500000000005
40
0.500000000000007
40
0.500000000000007
40
0.62500000000001
40
0.62500000000001
40
0.687500000000012
40
0.687500000000012
40
0.71875000000001
40
0.71875000000001
40
0.750000000000009
40
0.750000000000009
40
0.812500000000002
40
0.812500000000002
40
0.843750000000001
40
0.843750000000001
40
0.875000000000001
40
0.906250000000001
40
0.906250000000001
40
0.9375
40
0.9375
40
1
40
1
40
1
40
1
41
1
10
14.5646675788577
20
1.38750000000002
30
0
41
1
10
14.5646675788577
20
1.35108034169747
30
0
41
1
10
14.5632423792148
20
1.31458409514821
30
0
41
1
10
14.5574689408924
20
1.24196419734011
30
0
41
1
10
14.5531293519002
20
1.20583384310859
30
0
41
1
10
14.5412439606187
20
1.1339726029444
30
0
41
1
10
14.5337151720825
20
1.09835228741105
30
0
41
1
10
14.5196917045144
20
1.04580618091626
30
0
41
1
10
14.5145568029397
20
1.02842425714505
30
0
41
1
10
14.50324460207
20
0.993965048910098
30
0
41
1
10
14.4970655136316
20
0.976888505113891
30
0
41
1
10
14.4768525392781
20
0.926559973179508
30
0
41
1
10
14.4610824772324
20
0.893950336359069
30
0
41
1
10
14.4330387985445
20
0.848341947181638
30
0
41
1
10
14.4228966844427
20
0.833615171125814
30
0
41
1
10
14.4064528771301
20
0.812835366767075
30
0
41
1
10
14.4007659293805
20
0.80612517409935
30
0
41
1
10
14.388926871266
20
0.793197967114651
30
0
41
1
10
14.382751973507
20
0.786961454941945
30
0
41
1
10
14.3636721871524
20
0.769334186825972
30
0
41
1
10
14.350189120193
20
0.758964053526142
30
0
41
1
10
14.3285414411557
20
0.746035284364496
30
0
41
1
10
14.3210286584886
20
0.74214459705982
30
0
41
1
10
14.3058124123907
20
0.735535503728499
30
0
41
1
10
14.2904014170264
20
0.730074555700298
30
0
41
1
10
14.2745931935042
20
0.727003863838007
30
0
41
1
10
14.2585782359312
20
0.725197434515025
30
0
41
1
10
14.2505434584
20
0.724945234399456
30
0
41
1
10
14.2269229830728
20
0.726057078017533
30
0
41
1
10
14.2115881827549
20
0.729247145731421
30
0
41
1
10
14.1966242211564
20
0.734629241423619
30
0
0
SPLINE
5
105
100
AcDbEntity
8
1
62
256
6
ByLayer
370
18
48
1
60
0
100
AcDbSpline
70
4
71
3
72
8
73
4
40
0
40
0
40
0
40
0
40
1
40
1
40
1
40
1
41
1
10
14.1966242211564
20
0.734629241423619
30
0
41
1
10
14.1899577977608
20
0.735086490341331
30
0
41
1
10
14.1832911329946
20
0.735543755814604
30
0
41
1
10
14.1766242211564
20
0.736001038234491
30
0
0
SPLINE
5
106
100
AcDbEntity
8
1
62
256
6
ByLayer
370
18
48
1
60
0
100
AcDbSpline
70
4
71
3
72
52
73
48
40
0
40
0
40
0
40
0
40
0.0156250000000006
40
0.0156250000000006
40
0.0312500000000011
40
0.0312500000000011
40
0.0625000000000004
40
0.0625000000000004
40
0.0937499999999998
40
0.0937499999999998
40
0.124999999999999
40
0.124999999999999
40
0.1875
40
0.1875
40
0.21875
40
0.21875
40
0.25
40
0.25
40
0.3125
40
0.3125
40
0.375
40
0.375
40
0.4375
40
0.4375
40
0.5
40
0.5
40
0.5625
40
0.5625
40
0.625
40
0.625
40
0.6875
40
0.6875
40
0.75
40
0.75
40
0.8125
40
0.8125
40
0.84375
40
0.84375
40
0.875
40
0.875
40
0.90625
40
0.90625
40
0.9375
40
0.9375
40
0.96875
40
0.96875
40
1
40
1
40
1
40
1
41
1
10
12.4030812485786
20
-1.03286757614478
30
0
41
1
10
12.4000666048828
20
-1.02670745734685
30
0
41
1
10
12.3967224273546
20
-1.02071241873651
30
0
41
1
10
12.3894428189553
20
-1.00901733542267
30
0
41
1
10
12.3854977014907
20
-1.00330725601196
30
0
41
1
10
12.3730035929496
20
-0.986765439618267
30
0
41
1
10
12.3637670236647
20
-0.976451334232081
30
0
41
1
10
12.3438500909804
20
-0.956944206265007
30
0
41
1
10
12.3331664766585
20
-0.947753755271521
30
0
41
1
10
12.3105664638182
20
-0.930313036494425
30
0
41
1
10
12.2986854491708
20
-0.922097233914769
30
0
41
1
10
12.2619174276124
20
-0.898958192685654
30
0
41
1
10
12.2356858067708
20
-0.885381060040885
30
0
41
1
10
12.1949514512994
20
-0.867405253789713
30
0
41
1
10
12.1811202458899
20
-0.861804052453039
30
0
41
1
10
12.1529938817367
20
-0.851300930270099
30
0
41
1
10
12.1386844145567
20
-0.846395958163299
30
0
41
1
10
12.0953654986125
20
-0.832724549199384
30
0
41
1
10
12.0658899103002
20
-0.824960913232246
30
0
41
1
10
12.005862252587
20
-0.81176715447495
30
0
41
1
10
11.9753602650881
20
-0.80635854131171
30
0
41
1
10
11.9139731683313
20
-0.797782972778634
30
0
41
1
10
11.8829892403192
20
-0.794598508278426
30
0
41
1
10
11.8205840244526
20
-0.790352513021872
30
0
41
1
10
11.7893090309156
20
-0.789299881115596
30
0
41
1
10
11.7266155602646
20
-0.789300118904436
30
0
41
1
10
11.6953568209948
20
-0.790353003402601
30
0
41
1
10
11.6330162522313
20
-0.794592846459238
30
0
41
1
10
11.6019467413244
20
-0.797783658874664
30
0
41
1
10
11.5404744379843
20
-0.806374021209933
30
0
41
1
10
11.5099491698116
20
-0.811791233224398
30
0
41
1
10
11.4499520772703
20
-0.824984520436431
30
0
41
1
10
11.4204136116337
20
-0.832767018351547
30
0
41
1
10
11.3625882233878
20
-0.851030259403643
30
0
41
1
10
11.3344782908899
20
-0.861445429214626
30
0
41
1
10
11.2937250990997
20
-0.879436688702441
30
0
41
1
10
11.2803566916457
20
-0.88584384426224
30
0
41
1
10
11.254335203503
20
-0.899486614367873
30
0
41
1
10
11.2416664654448
20
-0.906726516265877
30
0
41
1
10
11.2171134162436
20
-0.922187688115258
30
0
41
1
10
11.2052545272473
20
-0.930395565521962
30
0
41
1
10
11.1826834463879
20
-0.94782515624749
30
0
41
1
10
11.1719152847151
20
-0.957089893963769
30
0
41
1
10
11.1518566600413
20
-0.976777500219839
30
0
41
1
10
11.1426418164931
20
-0.987118318497636
30
0
41
1
10
11.1261578070016
20
-1.0090048822963
30
0
41
1
10
11.1188832215552
20
-1.02054728740902
30
0
41
1
10
11.1128539091364
20
-1.03286757614546
30
0
0
SPLINE
5
107
100
AcDbEntity
8
1
62
256
6
ByLayer
370
18
48
1
60
0
100
AcDbSpline
70
4
71
3
72
8
73
4
40
0
40
0
40
0
40
0
40
1
40
1
40
1
40
1
41
1
10
11.1128539091364
20
-1.03286757614546
30
0
41
1
10
11.1099164714097
20
-1.03886993237205
30
0
41
1
10
11.1069791425427
20
-1.04487206615474
30
0
41
1
10
11.1040419200234
20
-1.05087398262657
30
0
0
SPLINE
5
108
100
AcDbEntity
8
1
62
256
6
ByLayer
370
18
48
1
60
0
100
AcDbSpline
70
4
71
3
72
35
73
31
40
0
40
0
40
0
40
0
40
0.12500000000001
40
0.12500000000001
40
0.25000000000002
40
0.25000000000002
40
0.37500000000003
40
0.37500000000003
40
0.50000000000004
40
0.50000000000004
40
0.562500000000045
40
0.562500000000045
40
0.625000000000049
40
0.625000000000049
40
0.687500000000054
40
0.687500000000054
40
0.71875000000005
40
0.71875000000005
40
0.750000000000047
40
0.750000000000047
40
0.812500000000036
40
0.812500000000036
40
0.843750000000031
40
0.843750000000031
40
0.875000000000026
40
0.906250000000021
40
0.906250000000021
40
0.937500000000017
40
0.937500000000017
40
1
40
1
40
1
40
1
41
1
10
10.3546175788577
20
-1.04317350080177
30
0
41
1
10
10.3861572195396
20
-1.06138292083963
30
0
41
1
10
10.4184359693648
20
-1.07837697738643
30
0
41
1
10
10.4842603092809
20
-1.10971050481413
30
0
41
1
10
10.5177192137688
20
-1.12401520056474
30
0
41
1
10
10.5858345489366
20
-1.14963155624795
30
0
41
1
10
10.6205058413901
20
-1.16094645116718
30
0
41
1
10
10.6907300821502
20
-1.17983031592647
30
0
41
1
10
10.7263009851149
20
-1.18741564107495
30
0
41
1
10
10.7800070973007
20
-1.1950634658829
30
0
41
1
10
10.7979403951797
20
-1.19698377228514
30
0
41
1
10
10.8338745362031
20
-1.19932798716263
30
0
41
1
10
10.8518317473066
20
-1.19974469202384
30
0
41
1
10
10.8873235526729
20
-1.19875746632823
30
0
41
1
10
10.90490805606
20
-1.19736146704901
30
0
41
1
10
10.9309671239752
20
-1.19355973069654
30
0
41
1
10
10.9396001711861
20
-1.19200611890452
30
0
41
1
10
10.9567404052152
20
-1.18823502144428
30
0
41
1
10
10.9652554329908
20
-1.18601111797585
30
0
41
1
10
10.9901071080288
20
-1.17832476797759
30
0
41
1
10
11.0059083207757
20
-1.17183535358151
30
0
41
1
10
11.0281084713692
20
-1.15947685616265
30
0
41
1
10
11.0352367916471
20
-1.15491503959822
30
0
41
1
10
11.0485143729773
20
-1.14509908909577
30
0
41
1
10
11.0609207374792
20
-1.13453518489686
30
0
41
1
10
11.0714962564229
20
-1.12241000149694
30
0
41
1
10
11.0810936366568
20
-1.10945504520632
30
0
41
1
10
11.0853690887293
20
-1.10258536568349
30
0
41
1
10
11.0962859425599
20
-1.08149643111992
30
0
41
1
10
11.1012125973041
20
-1.06657065641082
30
0
41
1
10
11.1040419200234
20
-1.05087398262657
30
0
0
SPLINE
5
109
100
AcDbEntity
8
1
62
256
6
ByLayer
370
18
48
1
60
0
100
AcDbSpline
70
4
71
3
72
35
73
31
40
0
40
0
40
0
40
0
40
0.125000000000001
40
0.125000000000001
40
0.250000000000001
40
0.250000000000001
40
0.375000000000002
40
0.375000000000002
40
0.437500000000003
40
0.437500000000003
40
0.500000000000004
40
0.500000000000004
40
0.625
40
0.625
40
0.687499999999998
40
0.687499999999998
40
0.71875
40
0.71875
40
0.750000000000001
40
0.750000000000001
40
0.812499999999997
40
0.812499999999997
40
0.843749999999998
40
0.843749999999998
40
0.874999999999999
40
0.906250000000001
40
0.906250000000001
40
0.937500000000002
40
0.937500000000002
40
1
40
1
40
1
40
1
41
1
10
13.1613175788577
20
-1.04317350080177
30
0
41
1
10
13.1297772295705
20
-1.06138332995303
30
0
41
1
10
13.0974579530947
20
-1.07839719413144
30
0
41
1
10
13.0316805576114
20
-1.10970719878111
30
0
41
1
10
12.9982209585031
20
-1.12401418158768
30
0
41
1
10
12.9300446033327
20
-1.14965175088611
30
0
41
1
10
12.8954321109219
20
-1.16094178652068
30
0
41
1
10
12.8429141140434
20
-1.17507016060492
30
0
41
1
10
12.8252934757035
20
-1.17931416728092
30
0
41
1
10
12.7897948255429
20
-1.1867471180725
30
0
41
1
10
12.7719165605874
20
-1.18993414241075
30
0
41
1
10
12.7182242862203
20
-1.1975934591018
30
0
41
1
10
12.6820984813027
20
-1.20024100316115
30
0
41
1
10
12.6285786183055
20
-1.19875865959062
30
0
41
1
10
12.6107537990743
20
-1.19733871915824
30
0
41
1
10
12.5845360569577
20
-1.19348786646998
30
0
41
1
10
12.5758813857683
20
-1.1919179215827
30
0
41
1
10
12.5587665670624
20
-1.18812859999102
30
0
41
1
10
12.5502781402103
20
-1.1858992377523
30
0
41
1
10
12.5254725850453
20
-1.17818929212845
30
0
41
1
10
12.5097502526873
20
-1.17169768027054
30
0
41
1
10
12.487729770635
20
-1.15941462487208
30
0
41
1
10
12.4806039452574
20
-1.15485370788164
30
0
41
1
10
12.4672721794875
20
-1.14498059887626
30
0
41
1
10
12.4548373620842
20
-1.13436475940733
30
0
41
1
10
12.4442739531632
20
-1.12220978217954
30
0
41
1
10
12.4347020606928
20
-1.10924363674226
30
0
41
1
10
12.4304662602203
20
-1.10241141534425
30
0
41
1
10
12.419618907375
20
-1.08139956185241
30
0
41
1
10
12.4147141868961
20
-1.06652420135819
30
0
41
1
10
12.4118932376919
20
-1.05087398262657
30
0
0
SPLINE
5
10A
100
AcDbEntity
8
1
62
256
6
ByLayer
370
18
48
1
60
0
100
AcDbSpline
70
4
71
3
72
8
73
4
40
0
40
0
40
0
40
0
40
1
40
1
40
1
40
1
41
1
10
12.4118932376919
20
-1.05087398262657
30
0
41
1
10
12.4089560151727
20
-1.04487206615474
30
0
41
1
10
12.4060186863057
20
-1.03886993237205
30
0
41
1
10
12.4030812485789
20
-1.03286757614546
30
0
0
SPLINE
5
10B
100
AcDbEntity
8
1
62
256
6
ByLayer
370
18
48
1
60
0
100
AcDbSpline
70
4
71
3
72
52
73
48
40
0
40
0
40
0
40
0
40
0.0156249999999998
40
0.0156249999999998
40
0.0312499999999994
40
0.0312499999999994
40
0.0624999999999977
40
0.0624999999999977
40
0.0937499999999959
40
0.0937499999999959
40
0.124999999999994
40
0.124999999999994
40
0.187499999999994
40
0.187499999999994
40
0.218749999999994
40
0.218749999999994
40
0.249999999999993
40
0.249999999999993
40
0.312499999999993
40
0.312499999999993
40
0.374999999999993
40
0.374999999999993
40
0.437499999999993
40
0.437499999999993
40
0.499999999999994
40
0.499999999999994
40
0.562499999999994
40
0.562499999999994
40
0.624999999999994
40
0.624999999999994
40
0.687499999999994
40
0.687499999999994
40
0.749999999999994
40
0.749999999999994
40
0.812499999999994
40
0.812499999999994
40
0.843749999999995
40
0.843749999999995
40
0.874999999999996
40
0.874999999999996
40
0.906249999999997
40
0.906249999999997
40
0.937499999999998
40
0.937499999999998
40
0.968749999999999
40
0.968749999999999
40
1
40
1
40
1
40
1
41
1
10
13.5315105514348
20
3.15636861437935
30
0
41
1
10
13.5276830539133
20
3.15067779695644
30
0
41
1
10
13.5241632869442
20
3.14478413495712
30
0
41
1
10
13.5176748518947
20
3.13263226749677
30
0
41
1
10
13.5147023367997
20
3.12636065584616
30
0
41
1
10
13.5066237578486
20
3.10726953225509
30
0
41
1
10
13.5023097652093
20
3.0941133759174
30
0
41
1
10
13.495374563177
20
3.06711124226382
30
0
41
1
10
13.4927572063054
20
3.05326373536008
30
0
41
1
10
13.4889531072043
20
3.02497119072601
30
0
41
1
10
13.4877785207816
20
3.0105740289288
30
0
41
1
10
13.4861235340371
20
2.96716246759777
30
0
41
1
10
13.487481202677
20
2.93765665124417
30
0
41
1
10
13.4922808755457
20
2.89339176147354
30
0
41
1
10
13.4943456956012
20
2.87861298555558
30
0
41
1
10
13.4993129070483
20
2.84900327859137
30
0
41
1
10
13.502219810189
20
2.83415843044543
30
0
41
1
10
13.5120394806928
20
2.78980744429145
30
0
41
1
10
13.5200537688757
20
2.7603990180379
30
0
41
1
10
13.538641467477
20
2.70181666214992
30
0
41
1
10
13.5492084648278
20
2.6726968595284
30
0
41
1
10
13.5724753530047
20
2.61524629000584
30
0
41
1
10
13.5852094898561
20
2.58682118898827
30
0
41
1
10
13.6127349580329
20
2.53065368909088
30
0
41
1
10
13.6274608488298
20
2.50304243423145
30
0
41
1
10
13.6588077900864
20
2.4487484148907
30
0
41
1
10
13.675348984444
20
2.42220399484182
30
0
41
1
10
13.7101910806209
20
2.37033540013465
30
0
41
1
10
13.7284891606848
20
2.34502382061382
30
0
41
1
10
13.7666647843649
20
2.29608242545979
30
0
41
1
10
13.7866188616735
20
2.27235537377209
30
0
41
1
10
13.8280431298291
20
2.2269930110842
30
0
41
1
10
13.8495522035468
20
2.20530319841163
30
0
41
1
10
13.8942813283763
20
2.16435656373298
30
0
41
1
10
13.9173560962663
20
2.14522023299665
30
0
41
1
10
13.953313579924
20
2.11892256336492
30
0
41
1
10
13.9655465431317
20
2.1105487606815
30
0
41
1
10
13.9903722726926
20
2.09483487595853
30
0
41
1
10
14.0029765806862
20
2.08748337791522
30
0
41
1
10
14.0286428728806
20
2.07395039949131
30
0
41
1
10
14.0416805477242
20
2.06778423906326
30
0
41
1
10
14.0680605564997
20
2.05695190501086
30
0
41
1
10
14.0814681355579
20
2.05225877230831
30
0
41
1
10
14.1085474150522
20
2.04473129690385
30
0
41
1
10
14.1221102481508
20
2.04192141743809
30
0
41
1
10
14.1493065731478
20
2.03858912836154
30
0
41
1
10
14.1629398819194
20
2.03806035511931
30
0
41
1
10
14.1766242211565
20
2.03899896176552
30
0
0
SPLINE
5
10C
100
AcDbEntity
8
1
62
256
6
ByLayer
370
18
48
1
60
0
100
AcDbSpline
70
4
71
3
72
8
73
4
40
0
40
0
40
0
40
0
40
1
40
1
40
1
40
1
41
1
10
14.1766242211565
20
2.03899896176552
30
0
41
1
10
14.1832911329946
20
2.0394562441854
30
0
41
1
10
14.1899577977608
20
2.03991350965868
30
0
41
1
10
14.1966242211564
20
2.04037075857639
30
0
0
SPLINE
5
10D
100
AcDbEntity
8
1
62
256
6
ByLayer
370
18
48
1
60
0
100
AcDbSpline
70
4
71
3
72
35
73
31
40
0
40
0
40
0
40
0
40
0.124999999999996
40
0.124999999999996
40
0.249999999999991
40
0.249999999999991
40
0.374999999999987
40
0.374999999999987
40
0.499999999999983
40
0.499999999999983
40
0.56249999999998
40
0.56249999999998
40
0.624999999999978
40
0.624999999999978
40
0.687499999999976
40
0.687499999999976
40
0.718749999999982
40
0.718749999999982
40
0.749999999999988
40
0.749999999999988
40
0.812499999999992
40
0.812499999999992
40
0.843749999999995
40
0.843749999999995
40
0.874999999999998
40
0.906250000000002
40
0.906250000000002
40
0.937500000000005
40
0.937500000000005
40
1
40
1
40
1
40
1
41
1
10
14.5646675788577
20
1.38750000000002
30
0
41
1
10
14.5646675788577
20
1.42391884007571
30
0
41
1
10
14.5632454886279
20
1.46037008570016
30
0
41
1
10
14.5574689494125
20
1.53304239996868
30
0
41
1
10
14.5531277270819
20
1.56917100911332
30
0
41
1
10
14.5412544742721
20
1.64096879759751
30
0
41
1
10
14.5337178144865
20
1.67665246510393
30
0
41
1
10
14.5149596007097
20
1.74691037394325
30
0
41
1
10
14.5037432335018
20
1.7815083421205
30
0
41
1
10
14.4835133879763
20
1.83184311201586
30
0
41
1
10
14.4762097731642
20
1.84833395675386
30
0
41
1
10
14.4602728522884
20
1.88062594318202
30
0
41
1
10
14.4516551237322
20
1.89638569660943
30
0
41
1
10
14.4330542585175
20
1.92662888883498
30
0
41
1
10
14.4230530359845
20
1.94115951584152
30
0
41
1
10
14.4067311017671
20
1.96182646247877
30
0
41
1
10
14.4010691108822
20
1.96852609477949
30
0
41
1
10
14.3892331276669
20
1.98148442414541
30
0
41
1
10
14.3830496568799
20
1.98774670277876
30
0
41
1
10
14.363967245
20
2.00542570968912
30
0
41
1
10
14.3504466409039
20
2.01586525414052
30
0
41
1
10
14.3286437928898
20
2.0289118998129
30
0
41
1
10
14.3211289837186
20
2.03280429797766
30
0
41
1
10
14.3059893305561
20
2.03939504545915
30
0
41
1
10
14.2906375796944
20
2.04485753252459
30
0
41
1
10
14.2748490625841
20
2.04795339655044
30
0
41
1
10
14.2588310512145
20
2.04978749349746
30
0
41
1
10
14.2507440081956
20
2.05005530384349
30
0
41
1
10
14.2270220282096
20
2.04896510930843
30
0
41
1
10
14.2116326007682
20
2.04576883011808
30
0
41
1
10
14.1966242211564
20
2.04037075857639
30
0
0
SPLINE
5
10E
100
AcDbEntity
8
1
62
256
6
ByLayer
370
18
48
1
60
0
100
AcDbSpline
70
4
71
3
72
35
73
31
40
0
40
0
40
0
40
0
40
0.124999999999995
40
0.124999999999995
40
0.24999999999999
40
0.24999999999999
40
0.374999999999986
40
0.374999999999986
40
0.437499999999984
40
0.437499999999984
40
0.499999999999983
40
0.499999999999983
40
0.624999999999986
40
0.624999999999986
40
0.687499999999988
40
0.687499999999988
40
0.718749999999992
40
0.718749999999992
40
0.749999999999995
40
0.749999999999995
40
0.812499999999983
40
0.812499999999983
40
0.843749999999987
40
0.843749999999987
40
0.874999999999992
40
0.906249999999996
40
0.906249999999996
40
0.9375
40
0.9375
40
1
40
1
40
1
40
1
41
1
10
13.1613175788577
20
3.81817350080181
30
0
41
1
10
13.1928579281448
20
3.79996367165054
30
0
41
1
10
13.2237520049778
20
3.78048128927969
30
0
41
1
10
13.2837559621386
20
3.73917139612126
30
0
41
1
10
13.3128759722548
20
3.71734802469632
30
0
41
1
10
13.3691669361437
20
3.67112435383055
30
0
41
1
10
13.3962506400183
20
3.64679407393174
30
0
41
1
10
13.4347451693287
20
3.60837634152122
30
0
41
1
10
13.4472309060938
20
3.59523842442601
30
0
41
1
10
13.4714173553847
20
3.56821216698265
30
0
41
1
10
13.4831165319019
20
3.55432264752466
30
0
41
1
10
13.5165958319155
20
3.51165343228135
30
0
41
1
10
13.5369515747873
20
3.48169133952024
30
0
41
1
10
13.5624277590968
20
3.43460060677231
30
0
41
1
10
13.570110464226
20
3.4184538902841
30
0
41
1
10
13.57988439903
20
3.39382323323707
30
0
41
1
10
13.5828521224698
20
3.38554309568207
30
0
41
1
10
13.5881278830613
20
3.36882656710571
30
0
41
1
10
13.5904414121544
20
3.36036069269426
30
0
41
1
10
13.5961671809648
20
3.33502347895444
30
0
41
1
10
13.5984064463634
20
3.3181617337967
30
0
41
1
10
13.5987792493784
20
3.2929499092366
30
0
41
1
10
13.5983922920889
20
3.28449830494148
30
0
41
1
10
13.5965078117608
20
3.26801610260475
30
0
41
1
10
13.5935316337999
20
3.25193931510765
30
0
41
1
10
13.5882868191987
20
3.23671364601756
30
0
41
1
10
13.581843754096
20
3.22194107125731
30
0
41
1
10
13.5780447770374
20
3.21485664974372
30
0
41
1
10
13.5652716545555
20
3.19495663986996
30
0
41
1
10
13.5548415747165
20
3.18327134708963
30
0
41
1
10
13.5426985623222
20
3.17300322405023
30
0
0
SPLINE
5
10F
100
AcDbEntity
8
1
62
256
6
ByLayer
370
18
48
1
60
0
100
AcDbSpline
70
4
71
3
72
8
73
4
40
0
40
0
40
0
40
0
40
1
40
1
40
1
40
1
41
1
10
13.5426985623222
20
3.17300322405023
30
0
41
1
10
13.5389693614458
20
3.16745855649609
30
0
41
1
10
13.5352400255466
20
3.16191368818664
30
0
41
1
10
13.5315105514352
20
3.15636861437997
30
0
0
SPLINE
5
110
100
AcDbEntity
8
1
62
256
6
ByLayer
370
18
48
1
60
0
100
AcDbSpline
70
4
71
3
72
8
73
4
40
0
40
0
40
0
40
0
40
1
40
1
40
1
40
1
41
1
10
9.98442460628016
20
3.15636861437997
30
0
41
1
10
9.98069513216876
20
3.16191368818664
30
0
41
1
10
9.97696579626952
20
3.16745855649609
30
0
41
1
10
9.97323659539313
20
3.17300322405023
30
0
0
SPLINE
5
111
100
AcDbEntity
8
1
62
256
6
ByLayer
370
18
48
1
60
0
100
AcDbSpline
70
4
71
3
72
35
73
31
40
0
40
0
40
0
40
0
40
0.124999999999997
40
0.124999999999997
40
0.249999999999994
40
0.249999999999994
40
0.374999999999991
40
0.374999999999991
40
0.499999999999988
40
0.499999999999988
40
0.562499999999986
40
0.562499999999986
40
0.624999999999985
40
0.624999999999985
40
0.687499999999984
40
0.687499999999984
40
0.718749999999985
40
0.718749999999985
40
0.749999999999986
40
0.749999999999986
40
0.812499999999986
40
0.812499999999986
40
0.843749999999991
40
0.843749999999991
40
0.874999999999996
40
0.906250000000002
40
0.906250000000002
40
0.937500000000007
40
0.937500000000007
40
1
40
1
40
1
40
1
41
1
10
10.3546175788577
20
3.81817350080178
30
0
41
1
10
10.3230779381757
20
3.79996408076394
30
0
41
1
10
10.2922212785803
20
3.78050689168626
30
0
41
1
10
10.2321734778796
20
3.73916810484548
30
0
41
1
10
10.2030557957223
20
3.71734419145147
30
0
41
1
10
10.1468137133643
20
3.6711627586505
30
0
41
1
10
10.1196790806964
20
3.64679398606327
30
0
41
1
10
10.0682130537131
20
3.59541994198324
30
0
41
1
10
10.0438585179562
20
3.56840729895447
30
0
41
1
10
10.010382251296
20
3.52572035386706
30
0
41
1
10
9.99975256822907
20
3.51114981553133
30
0
41
1
10
9.97975534808154
20
3.48120204398063
30
0
41
1
10
9.97041586553408
20
3.46585899541444
30
0
41
1
10
9.9535249253826
20
3.43462857749327
30
0
41
1
10
9.94594164452855
20
3.41870195120751
30
0
41
1
10
9.93620451083069
20
3.39423326821779
30
0
41
1
10
9.93323345450474
20
3.38598002412505
30
0
41
1
10
9.92792920369087
20
3.36925059729893
30
0
41
1
10
9.92559764670233
20
3.36076441519714
30
0
41
1
10
9.9198283835442
20
3.33539905828849
30
0
41
1
10
9.91754777489342
20
3.31847009944104
30
0
41
1
10
9.91715047231401
20
3.29306495634978
30
0
41
1
10
9.91753696120728
20
3.28461074162058
30
0
41
1
10
9.91939903303961
20
3.26820404363662
30
0
41
1
10
9.92234446018804
20
3.25217786470995
30
0
41
1
10
9.92755741756608
20
3.23695660494656
30
0
41
1
10
9.93397804870173
20
3.22216755170888
30
0
41
1
10
9.93778963964812
20
3.21503006184
30
0
41
1
10
9.9505947658036
20
3.19503132181151
30
0
41
1
10
9.96105753850071
20
3.18330182629279
30
0
41
1
10
9.97323659539313
20
3.17300322405023
30
0
0
SPLINE
5
112
100
AcDbEntity
8
1
62
256
6
ByLayer
370
18
48
1
60
0
100
AcDbSpline
70
4
71
3
72
39
73
35
40
0
40
0
40
0
40
0
40
0.124999999999999
40
0.124999999999999
40
0.249999999999999
40
0.249999999999999
40
0.374999999999998
40
0.374999999999998
40
0.437499999999995
40
0.437499999999995
40
0.499999999999992
40
0.499999999999992
40
0.562499999999989
40
0.562499999999989
40
0.624999999999986
40
0.624999999999986
40
0.687499999999983
40
0.687499999999983
40
0.718749999999987
40
0.718749999999987
40
0.749999999999991
40
0.749999999999991
40
0.812499999999991
40
0.812499999999991
40
0.843749999999992
40
0.843749999999992
40
0.874999999999994
40
0.874999999999994
40
0.906249999999995
40
0.906249999999995
40
0.937499999999997
40
0.968749999999998
40
0.968749999999998
40
1
40
1
40
1
40
1
41
1
10
8.95126757885768
20
1.38750000000002
30
0
41
1
10
8.95126757885765
20
1.42392487228591
30
0
41
1
10
8.9526914338976
20
1.46038509469861
30
0
41
1
10
8.95846109795633
20
1.53298529795453
30
0
41
1
10
8.96281115483615
20
1.56919641599421
30
0
41
1
10
8.97468212369483
20
1.64097461901545
30
0
41
1
10
8.98221214838861
20
1.67661874246375
30
0
41
1
10
8.99624848681083
20
1.72921248199577
30
0
41
1
10
9.00138368545691
20
1.74659147396199
30
0
41
1
10
9.01268029387904
20
1.78100419869801
30
0
41
1
10
9.01885101873162
20
1.79806075244574
30
0
41
1
10
9.03231148558132
20
1.83158485042921
30
0
41
1
10
9.03960295543104
20
1.84806693333036
30
0
41
1
10
9.05552077573503
20
1.88035781174884
30
0
41
1
10
9.06410938929963
20
1.8960840237944
30
0
41
1
10
9.08266872230871
20
1.92630763675575
30
0
41
1
10
9.09265101047674
20
1.94083823488839
30
0
41
1
10
9.10895173495157
20
1.96152081568636
30
0
41
1
10
9.1146078797633
20
1.96822827372227
30
0
41
1
10
9.12643592130468
20
1.98120759716258
30
0
41
1
10
9.1326026628056
20
1.9874678330676
30
0
41
1
10
9.15164181260087
20
2.00515610276955
30
0
41
1
10
9.16514111491907
20
2.01561835172166
30
0
41
1
10
9.18693497527232
20
2.0287174460675
30
0
41
1
10
9.19442689874523
20
2.03261868685749
30
0
41
1
10
9.20958267639946
20
2.03925647600485
30
0
41
1
10
9.21728794451195
20
2.04201927561138
30
0
41
1
10
9.23296620558025
20
2.04635809607842
30
0
41
1
10
9.24100445920499
20
2.04793951792635
30
0
41
1
10
9.25701787343345
20
2.04978210350672
30
0
41
1
10
9.27291131025123
20
2.05032315766155
30
0
41
1
10
9.28857144066163
20
2.04838363920575
30
0
41
1
10
9.3041173891927
20
2.04524189284373
30
0
41
1
10
9.31180912636819
20
2.04306893846984
30
0
41
1
10
9.31931093655891
20
2.04037075857639
30
0
0
SPLINE
5
113
100
AcDbEntity
8
1
62
256
6
ByLayer
370
18
48
1
60
0
100
AcDbSpline
70
4
71
3
72
8
73
4
40
0
40
0
40
0
40
0
40
1
40
1
40
1
40
1
41
1
10
9.33931093655889
20
2.03899896176552
30
0
41
1
10
9.33264402472074
20
2.03945624418543
30
0
41
1
10
9.32597735995452
20
2.03991350965868
30
0
41
1
10
9.31931093655891
20
2.04037075857639
30
0
0
SPLINE
5
114
100
AcDbEntity
8
1
62
256
6
ByLayer
370
18
48
1
60
0
100
AcDbSpline
70
4
71
3
72
50
73
46
40
0
40
0
40
0
40
0
40
0.0312500000000033
40
0.0312500000000033
40
0.0468750000000041
40
0.0468750000000041
40
0.0625000000000049
40
0.0625000000000049
40
0.125000000000004
40
0.125000000000004
40
0.156250000000004
40
0.156250000000004
40
0.187500000000004
40
0.187500000000004
40
0.250000000000003
40
0.250000000000003
40
0.281250000000004
40
0.281250000000004
40
0.312500000000005
40
0.312500000000005
40
0.375000000000007
40
0.375000000000007
40
0.500000000000006
40
0.500000000000006
40
0.562500000000005
40
0.562500000000005
40
0.625000000000004
40
0.625000000000004
40
0.687500000000003
40
0.687500000000003
40
0.750000000000002
40
0.750000000000002
40
0.812500000000001
40
0.812500000000001
40
0.843750000000001
40
0.843750000000001
40
0.875000000000001
40
0.875000000000001
40
0.90625
40
0.90625
40
0.9375
40
0.9375
40
0.96875
40
0.96875
40
1
40
1
40
1
40
1
41
1
10
9.98442460628016
20
3.15636861437997
30
0
41
1
10
9.99212275093154
20
3.1449228236354
30
0
41
1
10
9.99852618866933
20
3.13275405452205
30
0
41
1
10
10.0066138770056
20
3.11364568520568
30
0
41
1
10
10.0090542187987
20
3.10713218716103
30
0
41
1
10
10.0134704196557
20
3.09384154822123
30
0
41
1
10
10.0154503578249
20
3.08704493715649
30
0
41
1
10
10.0241950899266
20
3.05280640596655
30
0
41
1
10
10.0276646064672
20
3.02447052693049
30
0
41
1
10
10.029267335373
20
2.98092734754877
30
0
41
1
10
10.0291792981549
20
2.96618949864148
30
0
41
1
10
10.0279329323937
20
2.93677099963651
30
0
41
1
10
10.0267788556846
20
2.92205451242504
30
0
41
1
10
10.0219367556457
20
2.87787223400852
30
0
41
1
10
10.0168819282326
20
2.84837341384164
30
0
41
1
10
10.0070329087388
20
2.8040216729147
30
0
41
1
10
10.0033590575834
20
2.78918796128923
30
0
41
1
10
9.99533233329632
20
2.75963480876604
30
0
41
1
10
9.99099401722265
20
2.74496210736012
30
0
41
1
10
9.97708415654765
20
2.70122586506469
30
0
41
1
10
9.96662319238789
20
2.67244221932205
30
0
41
1
10
9.93204945340148
20
2.58707002010388
30
0
41
1
10
9.90480085265924
20
2.53144031339113
30
0
41
1
10
9.85778572333092
20
2.44983070867068
30
0
41
1
10
9.8412337213783
20
2.42321612064922
30
0
41
1
10
9.80637407962556
20
2.37122686486137
30
0
41
1
10
9.7880619945995
20
2.34585308614447
30
0
41
1
10
9.74985438803634
20
2.29679280601996
30
0
41
1
10
9.7298814914412
20
2.2730075676134
30
0
41
1
10
9.68841207750199
20
2.2275300927983
30
0
41
1
10
9.66688072463307
20
2.2057873468934
30
0
41
1
10
9.62209361681852
20
2.16473127900974
30
0
41
1
10
9.59898826413368
20
2.14554371366597
30
0
41
1
10
9.56298226442846
20
2.1191745318097
30
0
41
1
10
9.55073219096656
20
2.11077740056754
30
0
41
1
10
9.52586982564364
20
2.09501828074633
30
0
41
1
10
9.51324679772034
20
2.08764537857164
30
0
41
1
10
9.48754210368639
20
2.07407229692765
30
0
41
1
10
9.47448317511137
20
2.06788670539589
30
0
41
1
10
9.44806080958679
20
2.05701988985757
30
0
41
1
10
9.43463244588563
20
2.0523115677195
30
0
41
1
10
9.40750618270044
20
2.04475748061361
30
0
41
1
10
9.39391981563298
20
2.04193710516699
30
0
41
1
10
9.36667622406679
20
2.03859092752379
30
0
41
1
10
9.35301918406074
20
2.03805871525523
30
0
41
1
10
9.33931093655889
20
2.03899896176552
30
0
0
SPLINE
5
115
100
AcDbEntity
8
1
62
256
6
ByLayer
370
18
48
1
60
0
100
AcDbSpline
70
4
71
3
72
18
73
14
40
0
40
0
40
0
40
0
40
0.106502320877206
40
0.209819720887498
40
0.309970050663255
40
0.406972922398857
40
0.500849920824684
40
0.59162485869537
40
0.679324076625518
40
0.763976789998232
40
0.845615488386581
40
0.924276395492957
40
1
40
1
40
1
40
1
41
1
10
37.6980862172677
20
11.020585351823
30
0
41
1
10
37.6965091061935
20
11.0212643036506
30
0
41
1
10
37.693402047092
20
11.0226019034492
30
0
41
1
10
37.6888919111762
20
11.0249049623887
30
0
41
1
10
37.6845829023201
20
11.0273663474788
30
0
41
1
10
37.6804802013749
20
11.0299901579404
30
0
41
1
10
37.6765824890681
20
11.0327524658373
30
0
41
1
10
37.6728900240873
20
11.0356370391757
30
0
41
1
10
37.6694029509027
20
11.0386268528404
30
0
41
1
10
37.6661204155717
20
11.0417043544701
30
0
41
1
10
37.6630454487202
20
11.0448584152507
30
0
41
1
10
37.6601672624499
20
11.0480579925822
30
0
41
1
10
37.6583711657764
20
11.0502918768383
30
0
41
1
10
37.6574902036077
20
11.0513875681493
30
0
0
SPLINE
5
116
100
AcDbEntity
8
1
62
256
6
ByLayer
370
18
48
1
60
0
100
AcDbSpline
70
4
71
3
72
16
73
12
40
0
40
0
40
0
40
0
40
0.117319552095943
40
0.233085853241627
40
0.347299362202325
40
0.459960556706273
40
0.571069934503132
40
0.680628014495735
40
0.788635337949899
40
0.895092469791786
40
1
40
1
40
1
40
1
41
1
10
37.8569129943077
20
10.965232523702
30
0
41
1
10
37.8506453455753
20
10.9670553268686
30
0
41
1
10
37.8381930285787
20
10.9706768002187
30
0
41
1
10
37.8196868349079
20
10.976391408756
30
0
41
1
10
37.8014648756093
20
10.9822568898025
30
0
41
1
10
37.7835304222722
20
10.9882866733747
30
0
41
1
10
37.7658826942723
20
10.994466269055
30
0
41
1
10
37.7485216077755
20
11.000786920165
30
0
41
1
10
37.731448237018
20
11.0072449449395
30
0
41
1
10
37.7146584541305
20
11.0138120560499
30
0
41
1
10
37.7035832305425
20
11.0183386486767
30
0
41
1
10
37.6980862172677
20
11.02058535183
30
0
0
SPLINE
5
117
100
AcDbEntity
8
1
62
256
6
ByLayer
370
18
48
1
60
0
100
AcDbSpline
70
4
71
2
72
10
73
7
40
0
40
0
40
0
40
0.5
40
0.5
40
0.75
40
0.75
40
1
40
1
40
1
41
1
10
37.8569129942982
20
10.965232523738
30
0
41
1
10
37.9245068205207
20
10.9457378364851
30
0
41
1
10
37.9722030616238
20
10.8940142889902
30
0
41
1
10
37.9981900515755
20
10.865833047074
30
0
41
1
10
38.0148269535851
20
10.8299776461037
30
0
41
1
10
38.032792815007
20
10.7912581077733
30
0
41
1
10
38.0369137759377
20
10.748235586972
30
0
0
SPLINE
5
118
100
AcDbEntity
8
1
62
256
6
ByLayer
370
18
48
1
60
0
100
AcDbSpline
70
4
71
2
72
6
73
3
40
0
40
0
40
0
40
1
40
1
40
1
41
1
10
38.0369137759757
20
10.748235587058
30
0
41
1
10
38.0458050681477
20
10.6530165540331
30
0
41
1
10
38.0458285383862
20
10.5575000006976
30
0
0
SPLINE
5
119
100
AcDbEntity
8
1
62
256
6
ByLayer
370
18
48
1
60
0
100
AcDbSpline
70
4
71
3
72
17
73
13
40
0
40
0
40
0
40
0
40
0.100317411816942
40
0.200541310293295
40
0.300680278273316
40
0.400742920447481
40
0.500737861201728
40
0.600673742442649
40
0.700559221399153
40
0.800402968404846
40
0.900213664663546
40
1
40
1
40
1
40
1
41
1
10
38.0369137759777
20
10.326764412942
30
0
41
1
10
38.0374907017394
20
10.3331087701754
30
0
41
1
10
38.0386440154674
20
10.3457915705938
30
0
41
1
10
38.0401494039791
20
10.3648460527878
30
0
41
1
10
38.0414892051089
20
10.3839085209795
30
0
41
1
10
38.0426473826089
20
10.4029803042831
30
0
41
1
10
38.043628305849
20
10.4220589293337
30
0
41
1
10
38.0444305147006
20
10.4411429412488
30
0
41
1
10
38.0450554832193
20
10.4602306135195
30
0
41
1
10
38.0454987763667
20
10.4793202936691
30
0
41
1
10
38.0457766520422
20
10.4984103103435
30
0
41
1
10
38.0458112443465
20
10.5111372874275
30
0
41
1
10
38.0458285383877
20
10.5174999993024
30
0
0
SPLINE
5
11A
100
AcDbEntity
8
1
62
256
6
ByLayer
370
18
48
1
60
0
100
AcDbSpline
70
4
71
3
72
38
73
34
40
0
40
0
40
0
40
0
40
0.0320161803190693
40
0.0634137556494418
40
0.0941938978101542
40
0.124357850627719
40
0.153906935790679
40
0.182842559292626
40
0.211166218534067
40
0.238879510162465
40
0.265984138740209
40
0.292481926343987
40
0.318374823211786
40
0.343664919571535
40
0.368354458804056
40
0.392445852114292
40
0.415941694911063
40
0.438844785123634
40
0.461158143716729
40
0.482885037704952
40
0.5040290060088
40
0.551366811163281
40
0.597409666800366
40
0.642207857910829
40
0.685815975457092
40
0.728293199079296
40
0.769703557231246
40
0.810116149643018
40
0.849605314210593
40
0.888250718110505
40
0.926137351649327
40
0.963355403684616
40
1
40
1
40
1
40
1
41
1
10
37.8569129942977
20
10.109767476262
30
0
41
1
10
37.8595412022224
20
10.1105485607147
30
0
41
1
10
37.8647468367944
20
10.1120956377905
30
0
41
1
10
37.8724183692594
20
10.1147317158617
30
0
41
1
10
37.8798924884189
20
10.1175558999423
30
0
41
1
10
37.8871650942024
20
10.1205789101444
30
0
41
1
10
37.8942372552918
20
10.123781634091
30
0
41
1
10
37.9011086967204
20
10.1271529401724
30
0
41
1
10
37.9077794928923
20
10.1306798787024
30
0
41
1
10
37.9142496277194
20
10.1343502562536
30
0
41
1
10
37.9205191088583
20
10.1381519927337
30
0
41
1
10
37.9265879381018
20
10.1420733110581
30
0
41
1
10
37.9324561190195
20
10.1461027081713
30
0
41
1
10
37.9381236552239
20
10.150228980183
30
0
41
1
10
37.9435905500443
20
10.1544412313214
30
0
41
1
10
37.9488568095144
20
10.158728883891
30
0
41
1
10
37.953922431273
20
10.1630816889965
30
0
41
1
10
37.9587874446595
20
10.1674897234812
30
0
41
1
10
37.9634517667679
20
10.1719434298666
30
0
41
1
10
37.9679157190755
20
10.1764334948107
30
0
41
1
10
37.9739771356575
20
10.1828580304927
30
0
41
1
10
37.9814263980609
20
10.1914468168094
30
0
41
1
10
37.9899703211373
20
10.2025200836319
30
0
41
1
10
37.9978165015012
20
10.2139694413071
30
0
41
1
10
38.0049651843955
20
10.2257493808279
30
0
41
1
10
38.0114161979483
20
10.2378153813823
30
0
41
1
10
38.0171693145935
20
10.2501233474433
30
0
41
1
10
38.0222247334684
20
10.2626298346286
30
0
41
1
10
38.0265808749648
20
10.2752925471701
30
0
41
1
10
38.0302424590416
20
10.2880689765113
30
0
41
1
10
38.0331912788524
20
10.3009219116354
30
0
41
1
10
38.0354922122894
20
10.3137999416634
30
0
41
1
10
38.0364423803637
20
10.3224653481022
30
0
41
1
10
38.0369137759377
20
10.326764413028
30
0
0
SPLINE
5
11B
100
AcDbEntity
8
1
62
256
6
ByLayer
370
18
48
1
60
0
100
AcDbSpline
70
4
71
2
72
6
73
3
40
0
40
0
40
0
40
1
40
1
40
1
41
1
10
37.8569129943067
20
10.109767476298
30
0
41
1
10
37.7759142978673
20
10.0865152433268
30
0
41
1
10
37.6980862172672
20
10.05441464817
30
0
0
SPLINE
5
11C
100
AcDbEntity
8
1
62
256
6
ByLayer
370
18
48
1
60
0
100
AcDbSpline
70
4
71
2
72
6
73
3
40
0
40
0
40
0
40
1
40
1
40
1
41
1
10
37.6980862172662
20
10.054414648177
30
0
41
1
10
37.6737873382729
20
10.0442453291365
30
0
41
1
10
37.6574902036057
20
10.023612431851
30
0
0
SPLINE
5
11D
100
AcDbEntity
8
SK1
62
256
6
ByLayer
370
18
48
1
60
0
100
AcDbSpline
70
4
71
3
72
26
73
22
40
0
40
0
40
0
40
0
40
0.124999999999997
40
0.124999999999997
40
0.249999999999994
40
0.249999999999994
40
0.374999999999991
40
0.374999999999991
40
0.437499999999992
40
0.437499999999992
40
0.499999999999993
40
0.499999999999993
40
0.624999999999994
40
0.624999999999994
40
0.687499999999995
40
0.687499999999995
40
0.749999999999995
40
0.749999999999995
40
0.874999999999997
40
0.874999999999997
40
1
40
1
40
1
40
1
41
1
10
-6.00000000000003
20
-11.9625
30
0
41
1
10
-6.02979849161392
20
-11.9625
30
0
41
1
10
-6.06266231607952
20
-11.9633245400553
30
0
41
1
10
-6.13432357705491
20
-11.9677442524973
30
0
41
1
10
-6.17312158274527
20
-11.9713365402054
30
0
41
1
10
-6.2565550446721
20
-11.982641858504
30
0
41
1
10
-6.30119089838763
20
-11.9903493295442
30
0
41
1
10
-6.37251458974163
20
-12.0062781962711
30
0
41
1
10
-6.39708168552636
20
-12.012338963684
30
0
41
1
10
-6.44713189941476
20
-12.0260280126151
30
0
41
1
10
-6.47265602100796
20
-12.0336625503743
30
0
41
1
10
-6.55060091039093
20
-12.0592271426089
30
0
41
1
10
-6.60439717362576
20
-12.0798047667303
30
0
41
1
10
-6.68731011156771
20
-12.117326970533
30
0
41
1
10
-6.71531692963703
20
-12.1309466044708
30
0
41
1
10
-6.77196865458393
20
-12.1606840953904
30
0
41
1
10
-6.80072441251548
20
-12.1768743527075
30
0
41
1
10
-6.88650825648318
20
-12.2288676713168
30
0
41
1
10
-6.94328374837298
20
-12.268167920665
30
0
41
1
10
-7.05463208656752
20
-12.3571656382884
30
0
41
1
10
-7.10921215962006
20
-12.4068527877143
30
0
41
1
10
-7.1618950038623
20
-12.4625
30
0
0
LINE
5
83
100
AcDbEntity
8
80
62
256
6
ByLayer
370
18
48
1
60
0
100
AcDbLine
10
0
20
0
30
0
11
-5
21
0
31
0
39
0
210
0
220
0
230
1
0
LINE
5
84
100
AcDbEntity
8
81
62
256
6
ByLayer
370
18
48
1
60
0
100
AcDbLine
10
45.107968
20
13.0375
30
0
11
50.107968
21
13.0375
31
0
39
0
210
0
220
0
230
1
0
LINE
5
85
100
AcDbEntity
8
1
62
256
6
ByLayer
370
18
48
1
60
0
100
AcDbLine
10
0
20
12.7125
30
0
11
0
21
-11.9625
31
0
39
0
210
0
220
0
230
1
0
LINE
5
86
100
AcDbEntity
8
1
62
256
6
ByLayer
370
18
48
1
60
0
100
AcDbLine
10
36.519807
20
8.3625
30
0
11
33.607968
21
8.3625
31
0
39
0
210
0
220
0
230
1
0
LINE
5
87
100
AcDbEntity
8
1
62
256
6
ByLayer
370
18
48
1
60
0
100
AcDbLine
10
33.607968
20
12.7125
30
0
11
36.519807
21
12.7125
31
0
39
0
210
0
220
0
230
1
0
LINE
5
88
100
AcDbEntity
8
1
62
256
6
ByLayer
370
18
48
1
60
0
100
AcDbLine
10
37.107968
20
10.812469
30
0
11
37.107968
21
10.262531
31
0
39
0
210
0
220
0
230
1
0
LINE
5
89
100
AcDbEntity
8
1
62
256
6
ByLayer
370
18
48
1
60
0
100
AcDbLine
10
36.519807
20
12.7125
30
0
11
36.615114
21
12.263968
31
0
39
0
210
0
220
0
230
1
0
LINE
5
8A
100
AcDbEntity
8
1
62
256
6
ByLayer
370
18
48
1
60
0
100
AcDbLine
10
36.615114
20
8.811032
30
0
11
36.519807
21
8.3625
31
0
39
0
210
0
220
0
230
1
0
LINE
5
8B
100
AcDbEntity
8
1
62
256
6
ByLayer
370
18
48
1
60
0
100
AcDbLine
10
18.507968
20
6.7625
30
0
11
18.507968
21
-2.381213
31
0
39
0
210
0
220
0
230
1
0
LINE
5
8C
100
AcDbEntity
8
1
62
256
6
ByLayer
370
18
48
1
60
0
100
AcDbLine
10
24.774508
20
8.3625
30
0
11
20.107968
21
8.3625
31
0
39
0
210
0
220
0
230
1
0
LINE
5
8D
100
AcDbEntity
8
1
62
256
6
ByLayer
370
18
48
1
60
0
100
AcDbLine
10
18.507968
20
-2.381213
30
0
11
8.148573
21
-11.9625
31
0
39
0
210
0
220
0
230
1
0
LINE
5
8E
100
AcDbEntity
8
1
62
256
6
ByLayer
370
18
48
1
60
0
100
AcDbLine
10
24.774508
20
12.7125
30
0
11
0
21
12.7125
31
0
39
0
210
0
220
0
230
1
0
LINE
5
8F
100
AcDbEntity
8
1
62
256
6
ByLayer
370
18
48
1
60
0
100
AcDbLine
10
8.148573
20
-11.9625
30
0
11
0
21
-11.9625
31
0
39
0
210
0
220
0
230
1
0
LINE
5
90
100
AcDbEntity
8
1
62
256
6
ByLayer
370
18
48
1
60
0
100
AcDbLine
10
33.607968
20
8.3625
30
0
11
24.774508
21
8.3625
31
0
39
0
210
0
220
0
230
1
0
LINE
5
91
100
AcDbEntity
8
1
62
256
6
ByLayer
370
18
48
1
60
0
100
AcDbLine
10
24.774508
20
12.7125
30
0
11
33.607968
21
12.7125
31
0
39
0
210
0
220
0
230
1
0
LINE
5
92
100
AcDbEntity
8
1
62
256
6
ByLayer
370
18
48
1
60
0
100
AcDbLine
10
33.607968
20
12.7125
30
0
11
33.607968
21
8.3625
31
0
39
0
210
0
220
0
230
1
0
LINE
5
93
100
AcDbEntity
8
1
62
256
6
ByLayer
370
18
48
1
60
0
100
AcDbLine
10
24.774508
20
8.3625
30
0
11
24.774508
21
12.7125
31
0
39
0
210
0
220
0
230
1
0
LINE
5
94
100
AcDbEntity
8
1
62
256
6
ByLayer
370
18
48
1
60
0
100
AcDbLine
10
37.914294
20
12.7125
30
0
11
40.362247
21
12.7125
31
0
39
0
210
0
220
0
230
1
0
LINE
5
95
100
AcDbEntity
8
1
62
256
6
ByLayer
370
18
48
1
60
0
100
AcDbLine
10
37.914294
20
8.3625
30
0
11
40.362247
21
8.3625
31
0
39
0
210
0
220
0
230
1
0
LINE
5
96
100
AcDbEntity
8
1
62
256
6
ByLayer
370
18
48
1
60
0
100
AcDbLine
10
36.519838
20
12.7125
30
0
11
37.914294
21
12.7125
31
0
39
0
210
0
220
0
230
1
0
LINE
5
97
100
AcDbEntity
8
1
62
256
6
ByLayer
370
18
48
1
60
0
100
AcDbLine
10
37.91416
20
12.637491
30
0
11
37.914294
21
12.7125
31
0
39
0
210
0
220
0
230
1
0
LINE
5
98
100
AcDbEntity
8
1
62
256
6
ByLayer
370
18
48
1
60
0
100
AcDbLine
10
36.519838
20
8.3625
30
0
11
37.914294
21
8.3625
31
0
39
0
210
0
220
0
230
1
0
LINE
5
99
100
AcDbEntity
8
1
62
256
6
ByLayer
370
18
48
1
60
0
100
AcDbLine
10
37.914294
20
8.3625
30
0
11
37.91416
21
8.437509
31
0
39
0
210
0
220
0
230
1
0
LINE
5
9A
100
AcDbEntity
8
1
62
256
6
ByLayer
370
18
48
1
60
0
100
AcDbLine
10
38.737968
20
8.4375
30
0
11
40.232269
21
8.4375
31
0
39
0
210
0
220
0
230
1
0
LINE
5
9B
100
AcDbEntity
8
1
62
256
6
ByLayer
370
18
48
1
60
0
100
AcDbLine
10
38.737968
20
12.6375
30
0
11
40.232269
21
12.6375
31
0
39
0
210
0
220
0
230
1
0
LINE
5
9C
100
AcDbEntity
8
1
62
256
6
ByLayer
370
18
48
1
60
0
100
AcDbLine
10
45.107968
20
8.3375
30
0
11
45.107968
21
12.7375
31
0
39
0
210
0
220
0
230
1
0
LINE
5
9D
100
AcDbEntity
8
1
62
256
6
ByLayer
370
18
48
1
60
0
100
AcDbLine
10
40.607968
20
8.22059
30
0
11
40.232269
21
8.4375
31
0
39
0
210
0
220
0
230
1
0
LINE
5
9E
100
AcDbEntity
8
1
62
256
6
ByLayer
370
18
48
1
60
0
100
AcDbLine
10
40.607968
20
12.85441
30
0
11
40.232269
21
12.6375
31
0
39
0
210
0
220
0
230
1
0
LINE
5
9F
100
AcDbEntity
8
1
62
256
6
ByLayer
370
18
48
1
60
0
100
AcDbLine
10
44.794882
20
13.037214
30
0
11
40.607968
21
12.85441
31
0
39
0
210
0
220
0
230
1
0
LINE
5
A0
100
AcDbEntity
8
1
62
256
6
ByLayer
370
18
48
1
60
0
100
AcDbLine
10
44.794882
20
8.037786
30
0
11
40.607968
21
8.22059
31
0
39
0
210
0
220
0
230
1
0
LINE
5
A1
100
AcDbEntity
8
1
62
256
6
ByLayer
370
18
48
1
60
0
100
AcDbLine
10
20.107968
20
8.3375
30
0
11
20.107968
21
8.362525
31
0
39
0
210
0
220
0
230
1
0
LINE
5
A2
100
AcDbEntity
8
1
62
256
6
ByLayer
370
18
48
1
60
0
100
AcDbLine
10
20.107968
20
12.712475
30
0
11
20.107968
21
12.7375
31
0
39
0
210
0
220
0
230
1
0
LINE
5
A3
100
AcDbEntity
8
1
62
256
6
ByLayer
370
18
48
1
60
0
100
AcDbLine
10
24.607968
20
8.22059
30
0
11
24.853757
21
8.362497
31
0
39
0
210
0
220
0
230
1
0
LINE
5
A4
100
AcDbEntity
8
1
62
256
6
ByLayer
370
18
48
1
60
0
100
AcDbLine
10
24.607968
20
12.85441
30
0
11
24.853757
21
12.712503
31
0
39
0
210
0
220
0
230
1
0
LINE
5
A5
100
AcDbEntity
8
1
62
256
6
ByLayer
370
18
48
1
60
0
100
AcDbLine
10
20.421053
20
13.037214
30
0
11
24.607968
21
12.85441
31
0
39
0
210
0
220
0
230
1
0
LINE
5
A6
100
AcDbEntity
8
1
62
256
6
ByLayer
370
18
48
1
60
0
100
AcDbLine
10
20.421053
20
8.037786
30
0
11
24.607968
21
8.22059
31
0
39
0
210
0
220
0
230
1
0
LINE
5
A7
100
AcDbEntity
8
1
62
256
6
ByLayer
370
13
48
1
60
0
100
AcDbLine
10
37.107967
20
10.5175
30
0
11
38.045829
21
10.5175
31
0
39
0
210
0
220
0
230
1
0
LINE
5
A8
100
AcDbEntity
8
1
62
256
6
ByLayer
370
13
48
1
60
0
100
AcDbLine
10
37.107967
20
10.5575
30
0
11
38.045829
21
10.5575
31
0
39
0
210
0
220
0
230
1
0
LINE
5
A9
100
AcDbEntity
8
1
62
256
6
ByLayer
370
13
48
1
60
0
100
AcDbLine
10
37.107885
20
10.326764
30
0
11
38.036914
21
10.326764
31
0
39
0
210
0
220
0
230
1
0
LINE
5
AA
100
AcDbEntity
8
1
62
256
6
ByLayer
370
13
48
1
60
0
100
AcDbLine
10
37.107885
20
10.748236
30
0
11
38.036914
21
10.748236
31
0
39
0
210
0
220
0
230
1
0
LINE
5
AB
100
AcDbEntity
8
1
62
256
6
ByLayer
370
13
48
1
60
0
100
AcDbLine
10
36.999449
20
10.965233
30
0
11
37.856913
21
10.965233
31
0
39
0
210
0
220
0
230
1
0
LINE
5
AC
100
AcDbEntity
8
1
62
256
6
ByLayer
370
13
48
1
60
0
100
AcDbLine
10
36.999449
20
10.109767
30
0
11
37.856913
21
10.109767
31
0
39
0
210
0
220
0
230
1
0
LINE
5
AD
100
AcDbEntity
8
1
62
256
6
ByLayer
370
13
48
1
60
0
100
AcDbLine
10
37.698086
20
11.020585
30
0
11
36.869828
21
11.020585
31
0
39
0
210
0
220
0
230
1
0
LINE
5
AE
100
AcDbEntity
8
1
62
256
6
ByLayer
370
13
48
1
60
0
100
AcDbLine
10
37.698086
20
10.054415
30
0
11
36.869828
21
10.054415
31
0
39
0
210
0
220
0
230
1
0
LINE
5
AF
100
AcDbEntity
8
1
62
256
6
ByLayer
370
13
48
1
60
0
100
AcDbLine
10
36.827869
20
11.051388
30
0
11
37.65749
21
11.051388
31
0
39
0
210
0
220
0
230
1
0
LINE
5
B0
100
AcDbEntity
8
1
62
256
6
ByLayer
370
13
48
1
60
0
100
AcDbLine
10
36.827948
20
10.023612
30
0
11
37.65749
21
10.023612
31
0
39
0
210
0
220
0
230
1
0
LINE
5
B1
100
AcDbEntity
8
1
62
256
6
ByLayer
370
13
48
1
60
0
100
AcDbLine
10
36.812717
20
11.143165
30
0
11
37.585659
21
11.143165
31
0
39
0
210
0
220
0
230
1
0
LINE
5
B2
100
AcDbEntity
8
1
62
256
6
ByLayer
370
13
48
1
60
0
100
AcDbLine
10
36.813183
20
9.931835
30
0
11
37.585659
21
9.931835
31
0
39
0
210
0
220
0
230
1
0
LINE
5
B3
100
AcDbEntity
8
1
62
256
6
ByLayer
370
13
48
1
60
0
100
AcDbLine
10
36.806119
20
9.887566
30
0
11
37.565926
21
9.887566
31
0
39
0
210
0
220
0
230
1
0
LINE
5
B4
100
AcDbEntity
8
1
62
256
6
ByLayer
370
13
48
1
60
0
100
AcDbLine
10
36.805499
20
11.187434
30
0
11
37.565926
21
11.187434
31
0
39
0
210
0
220
0
230
1
0
LINE
5
B5
100
AcDbEntity
8
1
62
256
6
ByLayer
370
13
48
1
60
0
100
AcDbLine
10
36.590692
20
8.696116
30
0
11
37.355842
21
8.696116
31
0
39
0
210
0
220
0
230
1
0
LINE
5
B6
100
AcDbEntity
8
1
62
256
6
ByLayer
370
18
48
1
60
0
100
AcDbLine
10
36.535724
20
12.6375
30
0
11
37.354322
21
12.6375
31
0
39
0
210
0
220
0
230
1
0
LINE
5
B7
100
AcDbEntity
8
1
62
256
6
ByLayer
370
13
48
1
60
0
100
AcDbLine
10
36.586896
20
12.396249
30
0
11
37.354322
21
12.396249
31
0
39
0
210
0
220
0
230
1
0
LINE
5
B8
100
AcDbEntity
8
1
62
256
6
ByLayer
370
13
48
1
60
0
100
AcDbLine
10
36.590692
20
12.378884
30
0
11
37.355842
21
12.378884
31
0
39
0
210
0
220
0
230
1
0
LINE
5
B9
100
AcDbEntity
8
1
62
256
6
ByLayer
370
13
48
1
60
0
100
AcDbLine
10
36.586896
20
8.678751
30
0
11
37.354322
21
8.678751
31
0
39
0
210
0
220
0
230
1
0
LINE
5
BA
100
AcDbEntity
8
1
62
256
6
ByLayer
370
18
48
1
60
0
100
AcDbLine
10
36.535724
20
8.4375
30
0
11
37.354322
21
8.4375
31
0
39
0
210
0
220
0
230
1
0
LINE
5
BB
100
AcDbEntity
8
1
62
256
6
ByLayer
370
18
48
1
60
0
100
AcDbLine
10
38.737968
20
8.4375
30
0
11
38.737968
21
12.6375
31
0
39
0
210
0
220
0
230
1
0
LINE
5
BC
100
AcDbEntity
8
1
62
256
6
ByLayer
370
18
48
1
60
0
100
AcDbLine
10
37.354322
20
12.6375
30
0
11
38.737968
21
12.6375
31
0
39
0
210
0
220
0
230
1
0
LINE
5
BD
100
AcDbEntity
8
1
62
256
6
ByLayer
370
18
48
1
60
0
100
AcDbLine
10
37.354322
20
12.396249
30
0
11
37.354322
21
12.6375
31
0
39
0
210
0
220
0
230
1
0
LINE
5
BE
100
AcDbEntity
8
1
62
256
6
ByLayer
370
18
48
1
60
0
100
AcDbLine
10
37.565926
20
11.187434
30
0
11
37.355842
21
12.378884
31
0
39
0
210
0
220
0
230
1
0
LINE
5
BF
100
AcDbEntity
8
1
62
256
6
ByLayer
370
18
48
1
60
0
100
AcDbLine
10
37.65749
20
11.051388
30
0
11
37.585659
21
11.143165
31
0
39
0
210
0
220
0
230
1
0
LINE
5
C0
100
AcDbEntity
8
1
62
256
6
ByLayer
370
18
48
1
60
0
100
AcDbLine
10
38.045829
20
10.5175
30
0
11
38.045829
21
10.5575
31
0
39
0
210
0
220
0
230
1
0
LINE
5
C1
100
AcDbEntity
8
1
62
256
6
ByLayer
370
18
48
1
60
0
100
AcDbLine
10
37.65749
20
10.023612
30
0
11
37.585659
21
9.931835
31
0
39
0
210
0
220
0
230
1
0
LINE
5
C2
100
AcDbEntity
8
1
62
256
6
ByLayer
370
18
48
1
60
0
100
AcDbLine
10
37.565926
20
9.887566
30
0
11
37.355842
21
8.696116
31
0
39
0
210
0
220
0
230
1
0
LINE
5
C3
100
AcDbEntity
8
1
62
256
6
ByLayer
370
18
48
1
60
0
100
AcDbLine
10
37.354322
20
8.678751
30
0
11
37.354322
21
8.4375
31
0
39
0
210
0
220
0
230
1
0
LINE
5
C4
100
AcDbEntity
8
1
62
256
6
ByLayer
370
18
48
1
60
0
100
AcDbLine
10
37.354322
20
8.4375
30
0
11
38.737968
21
8.4375
31
0
39
0
210
0
220
0
230
1
0
LINE
5
C5
100
AcDbEntity
8
SK1
62
256
6
ByLayer
370
18
48
1
60
0
100
AcDbLine
10
-81
20
12.4625
30
0
11
-10.84207
21
12.4625
31
0
39
0
210
0
220
0
230
1
0
LINE
5
C7
100
AcDbEntity
8
SK1
62
256
6
ByLayer
370
18
48
1
60
0
100
AcDbLine
10
-81
20
12.4625
30
0
11
-84
21
9.4625
31
0
39
0
210
0
220
0
230
1
0
LINE
5
C8
100
AcDbEntity
8
SK1
62
256
6
ByLayer
370
18
48
1
60
0
100
AcDbLine
10
-84
20
9.4625
30
0
11
-84
21
-9.4625
31
0
39
0
210
0
220
0
230
1
0
LINE
5
C9
100
AcDbEntity
8
SK1
62
256
6
ByLayer
370
18
48
1
60
0
100
AcDbLine
10
-81
20
-12.4625
30
0
11
-84
21
-9.4625
31
0
39
0
210
0
220
0
230
1
0
LINE
5
CA
100
AcDbEntity
8
SK1
62
256
6
ByLayer
370
18
48
1
60
0
100
AcDbLine
10
-81
20
-12.4625
30
0
11
-10.84207
21
-12.4625
31
0
39
0
210
0
220
0
230
1
0
LINE
5
CB
100
AcDbEntity
8
SK1
62
256
6
ByLayer
370
18
48
1
60
0
100
AcDbLine
10
-5.904684
20
-11.9625
30
0
11
-6
21
-11.9625
31
0
39
0
210
0
220
0
230
1
0
LINE
5
CC
100
AcDbEntity
8
SK1
62
256
6
ByLayer
370
18
48
1
60
0
100
AcDbLine
10
-10.84207
20
12.4625
30
0
11
-5.904684
21
12.4625
31
0
39
0
210
0
220
0
230
1
0
LINE
5
CD
100
AcDbEntity
8
SK1
62
256
6
ByLayer
370
18
48
1
60
0
100
AcDbLine
10
-10.84207
20
12.4625
30
0
11
-10.84207
21
-12.4625
31
0
39
0
210
0
220
0
230
1
0
LINE
5
CE
100
AcDbEntity
8
SK1
62
256
6
ByLayer
370
18
48
1
60
0
100
AcDbLine
10
-10.84207
20
-12.4625
30
0
11
-7.161895
21
-12.4625
31
0
39
0
210
0
220
0
230
1
0
LINE
5
CF
100
AcDbEntity
8
SK1
62
256
6
ByLayer
370
18
48
1
60
0
100
AcDbLine
10
-3.827688
20
-11.9625
30
0
11
-5.904684
21
-11.9625
31
0
39
0
210
0
220
0
230
1
0
LINE
5
D0
100
AcDbEntity
8
SK1
62
256
6
ByLayer
370
18
48
1
60
0
100
AcDbLine
10
-5.904684
20
12.4625
30
0
11
-3.827688
21
12.4625
31
0
39
0
210
0
220
0
230
1
0
LINE
5
D1
100
AcDbEntity
8
SK1
62
256
6
ByLayer
370
13
48
1
60
0
100
AcDbLine
10
-5.904684
20
-11.9625
30
0
11
-5.904684
21
12.4625
31
0
39
0
210
0
220
0
230
1
0
LINE
5
D2
100
AcDbEntity
8
SK1
62
256
6
ByLayer
370
18
48
1
60
0
100
AcDbLine
10
0
20
12.7125
30
0
11
0
21
-11.9625
31
0
39
0
210
0
220
0
230
1
0
LINE
5
D3
100
AcDbEntity
8
SK1
62
256
6
ByLayer
370
18
48
1
60
0
100
AcDbLine
10
0
20
12.7125
30
0
11
-0.368945
21
12.7125
31
0
39
0
210
0
220
0
230
1
0
LINE
5
D4
100
AcDbEntity
8
SK1
62
256
6
ByLayer
370
18
48
1
60
0
100
AcDbLine
10
-3.827688
20
12.4625
30
0
11
-1.227723
21
12.4625
31
0
39
0
210
0
220
0
230
1
0
LINE
5
D5
100
AcDbEntity
8
SK1
62
256
6
ByLayer
370
18
48
1
60
0
100
AcDbLine
10
-3.827688
20
12.4625
30
0
11
-3.827688
21
-11.9625
31
0
39
0
210
0
220
0
230
1
0
LINE
5
D6
100
AcDbEntity
8
SK1
62
256
6
ByLayer
370
18
48
1
60
0
100
AcDbLine
10
0
20
-11.9625
30
0
11
-3.827688
21
-11.9625
31
0
39
0
210
0
220
0
230
1
0
MTEXT
5
11E
100
AcDbEntity
8
SK6
62
256
6
ByLayer
370
18
48
1
60
0
100
AcDbMText
10
-51.760516
20
-53.994482
30
0
210
0
220
0
230
1
1
\W0.7688;C2R-QS25-RJ25CB
40
3.5
41
0
44
1.084337
50
0
71
7
72
5
7
iso_b_vert
0
DIMENSION
5
123
100
AcDbEntity
8
2
62
256
6
ByLayer
370
18
48
1
60
0
100
AcDbDimension
2
_U0
10
78.207968
20
-12.4625
30
0
11
78.207968
21
0.2875
31
0
70
32
71
1
72
1
41
1
210
0
220
0
230
1
3
Standard
100
AcDbAlignedDimension
13
45.107968
23
13.0375
33
0
14
0
24
-12.4625
34
0
50
90
100
AcDbRotatedDimension
1001
ACAD
1000
DSTYLE
1002
{
1070
   371
1070
    13
1070
   372
1070
    13
1070
   170
1070
     0
1070
   144
1040
1.0
1070
   277
1070
     2
1070
   284
1070
     8
1070
   278
1070
    46
1070
   146
1040
1.0
1070
   345
1005
16
1070
   347
1005
16
1070
   346
1005
16
1070
   344
1005
0
1070
   343
1005
0
1070
   172
1070
     1
1070
    76
1070
     0
1070
    75
1070
     0
1070
   282
1070
     0
1070
   281
1070
     0
1070
    71
1070
     0
1070
    74
1070
     0
1070
   279
1070
     0
1070
   173
1070
     1
1070
   340
1005
11F
1070
   271
1070
     2
1070
   272
1070
     2
1070
    77
1070
     1
1070
    73
1070
     0
1070
   171
1070
     3
1070
   274
1070
     4
1070
   177
1070
     2
1070
   176
1070
     2
1070
   178
1070
     2
1070
    78
1070
     8
1070
    48
1040
-0.1
1070
    41
1040
3.5
1070
   147
1040
1.75
1070
    42
1040
1.5875
1070
    44
1040
2.0
1070
   140
1040
3.5
1002
}
1001
ACAD_DSTYLE_DIM_LINETYPE
1070
   380
1005
16
1001
ACAD_DSTYLE_DIM_EXT1_LINETYPE
1070
   381
1005
16
1001
ACAD_DSTYLE_DIM_EXT2_LINETYPE
1070
   382
1005
16
0
DIMENSION
5
13D
100
AcDbEntity
8
2
62
256
6
ByLayer
370
18
48
1
60
0
100
AcDbDimension
2
_U1
10
66.207968
20
13.0375
30
0
11
66.207968
21
10.5375
31
0
70
32
71
1
72
1
41
1
210
0
220
0
230
1
3
Standard
100
AcDbAlignedDimension
13
45.107968
23
8.0375
33
0
14
45.107968
24
13.0375
34
0
50
90
100
AcDbRotatedDimension
1001
ACAD
1000
DSTYLE
1002
{
1070
   371
1070
    13
1070
   372
1070
    13
1070
   170
1070
     0
1070
   144
1040
1.0
1070
   277
1070
     2
1070
   284
1070
     8
1070
   278
1070
    46
1070
   146
1040
1.0
1070
   345
1005
16
1070
   347
1005
16
1070
   346
1005
16
1070
   344
1005
0
1070
   343
1005
0
1070
   172
1070
     1
1070
    76
1070
     0
1070
    75
1070
     0
1070
   282
1070
     0
1070
   281
1070
     0
1070
    71
1070
     0
1070
    74
1070
     0
1070
   279
1070
     0
1070
   173
1070
     1
1070
   340
1005
11F
1070
   271
1070
     2
1070
   272
1070
     2
1070
    77
1070
     1
1070
    73
1070
     0
1070
   171
1070
     3
1070
   274
1070
     4
1070
   177
1070
     2
1070
   176
1070
     2
1070
   178
1070
     2
1070
    78
1070
     8
1070
    48
1040
-0.1
1070
    41
1040
3.5
1070
   147
1040
1.75
1070
    42
1040
1.5875
1070
    44
1040
2.0
1070
   140
1040
3.5
1002
}
1001
ACAD_DSTYLE_DIM_LINETYPE
1070
   380
1005
16
1001
ACAD_DSTYLE_DIM_EXT1_LINETYPE
1070
   381
1005
16
1001
ACAD_DSTYLE_DIM_EXT2_LINETYPE
1070
   382
1005
16
0
DIMENSION
5
156
100
AcDbEntity
8
SK2
62
256
6
ByLayer
370
18
48
1
60
0
100
AcDbDimension
2
_U2
10
-95.6
20
12.5375
30
0
11
-95.6
21
0.0375
31
0
70
32
71
1
72
1
41
1
210
0
220
0
230
1
3
Standard
100
AcDbAlignedDimension
13
0
23
-12.4625
33
0
14
0
24
12.5375
34
0
50
90
100
AcDbRotatedDimension
1001
ACAD
1000
DSTYLE
1002
{
1070
   371
1070
    13
1070
   372
1070
    13
1070
   170
1070
     0
1070
   144
1040
1.0
1070
   277
1070
     2
1070
   284
1070
     8
1070
   278
1070
    46
1070
   146
1040
1.0
1070
   345
1005
16
1070
   347
1005
16
1070
   346
1005
16
1070
   344
1005
0
1070
   343
1005
0
1070
   172
1070
     1
1070
    76
1070
     0
1070
    75
1070
     0
1070
   282
1070
     0
1070
   281
1070
     0
1070
    71
1070
     0
1070
    74
1070
     0
1070
   279
1070
     0
1070
   173
1070
     1
1070
   340
1005
11F
1070
   271
1070
     2
1070
   272
1070
     2
1070
    77
1070
     1
1070
    73
1070
     0
1070
   171
1070
     3
1070
   274
1070
     4
1070
   177
1070
     2
1070
   176
1070
     2
1070
   178
1070
     2
1070
    78
1070
     8
1070
    48
1040
-0.1
1070
    41
1040
3.5
1070
   147
1040
1.75
1070
    42
1040
1.5875
1070
    44
1040
2.0
1070
   140
1040
3.5
1002
}
1001
ACAD_DSTYLE_DIM_LINETYPE
1070
   380
1005
16
1001
ACAD_DSTYLE_DIM_EXT1_LINETYPE
1070
   381
1005
16
1001
ACAD_DSTYLE_DIM_EXT2_LINETYPE
1070
   382
1005
16
0
DIMENSION
5
16F
100
AcDbEntity
8
2
62
256
6
ByLayer
370
18
48
1
60
0
100
AcDbDimension
2
_U3
10
45.107968
20
-22.2125
30
0
11
32.607968
21
-22.2125
31
0
70
32
71
1
72
1
41
1
210
0
220
0
230
1
3
Standard
100
AcDbAlignedDimension
13
20.107968
23
8.3625
33
0
14
45.107968
24
13.0375
34
0
50
0
100
AcDbRotatedDimension
1001
ACAD
1000
DSTYLE
1002
{
1070
   371
1070
    13
1070
   372
1070
    13
1070
   170
1070
     0
1070
   144
1040
1.0
1070
   277
1070
     2
1070
   284
1070
     8
1070
   278
1070
    46
1070
   146
1040
1.0
1070
   345
1005
16
1070
   347
1005
16
1070
   346
1005
16
1070
   344
1005
0
1070
   343
1005
0
1070
   172
1070
     1
1070
    76
1070
     0
1070
    75
1070
     0
1070
   282
1070
     0
1070
   281
1070
     0
1070
    71
1070
     0
1070
    74
1070
     0
1070
   279
1070
     0
1070
   173
1070
     1
1070
   340
1005
11F
1070
   271
1070
     1
1070
   272
1070
     2
1070
    77
1070
     1
1070
    73
1070
     1
1070
   171
1070
     3
1070
   274
1070
     4
1070
   177
1070
     2
1070
   176
1070
     2
1070
   178
1070
     2
1070
    78
1070
     8
1070
    48
1040
-0.1
1070
    41
1040
3.5
1070
   147
1040
1.75
1070
    42
1040
1.5875
1070
    44
1040
2.0
1070
   140
1040
3.5
1002
}
1001
ACAD_DSTYLE_DIM_LINETYPE
1070
   380
1005
16
1001
ACAD_DSTYLE_DIM_EXT1_LINETYPE
1070
   381
1005
16
1001
ACAD_DSTYLE_DIM_EXT2_LINETYPE
1070
   382
1005
16
0
DIMENSION
5
187
100
AcDbEntity
8
SK2
62
256
6
ByLayer
370
18
48
1
60
0
100
AcDbDimension
2
_U4
10
45.107968
20
-38.2125
30
0
11
-19.446016
21
-38.2125
31
0
70
32
71
1
72
1
41
1
210
0
220
0
230
1
3
Standard
100
AcDbAlignedDimension
13
-84
23
-12.4625
33
0
14
45.107968
24
13.0375
34
0
50
0
100
AcDbRotatedDimension
1001
ACAD
1000
DSTYLE
1002
{
1070
   371
1070
    13
1070
   372
1070
    13
1070
   170
1070
     0
1070
   144
1040
1.0
1070
   277
1070
     2
1070
   284
1070
     8
1070
   278
1070
    46
1070
   146
1040
1.0
1070
   345
1005
16
1070
   347
1005
16
1070
   346
1005
16
1070
   344
1005
0
1070
   343
1005
0
1070
   172
1070
     1
1070
    76
1070
     0
1070
    75
1070
     0
1070
   282
1070
     0
1070
   281
1070
     0
1070
    71
1070
     0
1070
    74
1070
     0
1070
   279
1070
     0
1070
   173
1070
     1
1070
   340
1005
11F
1070
   271
1070
     1
1070
   272
1070
     2
1070
    77
1070
     1
1070
    73
1070
     1
1070
   171
1070
     3
1070
   274
1070
     4
1070
   177
1070
     2
1070
   176
1070
     2
1070
   178
1070
     2
1070
    78
1070
     8
1070
    48
1040
-0.1
1070
    41
1040
3.5
1070
   147
1040
1.75
1070
    42
1040
1.5875
1070
    44
1040
2.0
1070
   140
1040
3.5
1002
}
1001
ACAD_DSTYLE_DIM_LINETYPE
1070
   380
1005
16
1001
ACAD_DSTYLE_DIM_EXT1_LINETYPE
1070
   381
1005
16
1001
ACAD_DSTYLE_DIM_EXT2_LINETYPE
1070
   382
1005
16
0
DIMENSION
5
19F
100
AcDbEntity
8
2
62
256
6
ByLayer
370
18
48
1
60
0
100
AcDbDimension
2
_U5
10
45.107968
20
-30.2125
30
0
11
22.553984
21
-30.2125
31
0
70
32
71
1
72
1
41
1
210
0
220
0
230
1
3
Standard
100
AcDbAlignedDimension
13
0
23
-12.4625
33
0
14
45.107968
24
13.0375
34
0
50
0
100
AcDbRotatedDimension
1001
ACAD
1000
DSTYLE
1002
{
1070
   371
1070
    13
1070
   372
1070
    13
1070
   170
1070
     0
1070
   144
1040
1.0
1070
   277
1070
     2
1070
   284
1070
     8
1070
   278
1070
    46
1070
   146
1040
1.0
1070
   345
1005
16
1070
   347
1005
16
1070
   346
1005
16
1070
   344
1005
0
1070
   343
1005
0
1070
   172
1070
     1
1070
    76
1070
     0
1070
    75
1070
     0
1070
   282
1070
     0
1070
   281
1070
     0
1070
    71
1070
     0
1070
    74
1070
     0
1070
   279
1070
     0
1070
   173
1070
     1
1070
   340
1005
11F
1070
   271
1070
     1
1070
   272
1070
     2
1070
    77
1070
     1
1070
    73
1070
     1
1070
   171
1070
     3
1070
   274
1070
     4
1070
   177
1070
     2
1070
   176
1070
     2
1070
   178
1070
     2
1070
    78
1070
     8
1070
    48
1040
-0.1
1070
    41
1040
3.5
1070
   147
1040
1.75
1070
    42
1040
1.5875
1070
    44
1040
2.0
1070
   140
1040
3.5
1002
}
1001
ACAD_DSTYLE_DIM_LINETYPE
1070
   380
1005
16
1001
ACAD_DSTYLE_DIM_EXT1_LINETYPE
1070
   381
1005
16
1001
ACAD_DSTYLE_DIM_EXT2_LINETYPE
1070
   382
1005
16
0
DIMENSION
5
1B7
100
AcDbEntity
8
SK2
62
256
6
ByLayer
370
18
48
1
60
0
100
AcDbDimension
2
_U6
10
-81
20
-22.2125
30
0
11
-82.5
21
-22.2125
31
0
70
32
71
1
72
1
41
1
210
0
220
0
230
1
3
Standard
100
AcDbAlignedDimension
13
-84
23
-12.4625
33
0
14
-81
24
-12.4625
34
0
50
0
100
AcDbRotatedDimension
1001
ACAD
1000
DSTYLE
1002
{
1070
   371
1070
    13
1070
   372
1070
    13
1070
   170
1070
     0
1070
   144
1040
1.0
1070
   277
1070
     2
1070
   284
1070
     8
1070
   278
1070
    46
1070
   146
1040
1.0
1070
   345
1005
16
1070
   347
1005
16
1070
   346
1005
16
1070
   344
1005
0
1070
   343
1005
0
1070
   172
1070
     1
1070
    76
1070
     0
1070
    75
1070
     0
1070
   282
1070
     0
1070
   281
1070
     0
1070
    71
1070
     0
1070
    74
1070
     0
1070
   279
1070
     0
1070
   173
1070
     1
1070
   340
1005
11F
1070
   271
1070
     2
1070
   272
1070
     2
1070
    77
1070
     1
1070
    73
1070
     1
1070
   171
1070
     3
1070
   274
1070
     4
1070
   177
1070
     2
1070
   176
1070
     2
1070
   178
1070
     2
1070
    78
1070
     8
1070
    48
1040
-0.1
1070
    41
1040
3.5
1070
   147
1040
1.75
1070
    42
1040
1.5875
1070
    44
1040
2.0
1070
   140
1040
3.5
1002
}
1001
ACAD_DSTYLE_DIM_LINETYPE
1070
   380
1005
16
1001
ACAD_DSTYLE_DIM_EXT1_LINETYPE
1070
   381
1005
16
1001
ACAD_DSTYLE_DIM_EXT2_LINETYPE
1070
   382
1005
16
0
ENDSEC
0
SECTION
2
OBJECTS
0
DICTIONARY
5
23f
330
0
100
AcDbDictionary
280
0
281
1
3
ACAD_GROUP
350
240
3
ACAD_MLINESTYLE
350
241
0
DICTIONARY
5
240
330
0
100
AcDbDictionary
280
0
281
1
0
DICTIONARY
5
241
330
0
100
AcDbDictionary
280
0
281
1
3
Standard
350
18
0
MLINESTYLE
5
18
330
241
100
AcDbMlineStyle
2
Standard
70
0
3

62
256
51
90
52
90
71
2
49
-0.5
62
256
6
ByLayer
49
0.5
62
256
6
ByLayer
0
RASTERVARIABLES
5
22e
330

100
AcDbRasterVariables
90
0
70
1
71
1
72
1
0
ENDSEC
0
EOF
