0
SECTION
2
HEADER
9
$ACADVER
1
AC1015
9
$DWGCODEPAGE
3
ANSI_1252
9
$HANDSEED
5
2c0
9
$ANGBASE
50
0
9
$ANGDIR
70
0
9
$ATTMODE
70
1
9
$AUNITS
70
0
9
$AUPREC
70
0
9
$CECOLOR
62
256
9
$CELTSCALE
40
1
9
$CELTYPE
6
ByLayer
9
$CELWEIGHT
370
18
9
$CLAYER
8
0
9
$CMLJUST
70
0
9
$CMLSCALE
40
1
9
$CMLSTYLE
2
Standard
9
$DIMSTYLE
2
Standard
9
$TEXTSIZE
40
0.2
9
$TEXTSTYLE
7
Standard
9
$LUNITS
70
2
9
$LUPREC
70
4
9
$EXTNAMES
290
1
9
$INSUNITS
70
4
9
$LTSCALE
40
1
9
$LWDISPLAY
290
1
9
$PDMODE
70
0
9
$PDSIZE
40
0
9
$PLINEGEN
70
0
0
ENDSEC
0
SECTION
2
CLASSES
0
CLASS
1
RASTERVARIABLES
2
AcDbRasterVariables
3
ISM
90
0
280
0
281
0
0
ENDSEC
0
SECTION
2
TABLES
0
TABLE
2
VPORT
5
2b6
100
AcDbSymbolTable
0
VPORT
5
1
100
AcDbSymbolTableRecord
100
AcDbViewportTableRecord
2
*Active
70
0
10
0
20
0
11
1
21
1
12
-1
22
1
13
0
23
0
14
0.5
24
0.5
15
10
25
10
16
0
26
0
36
1
17
0
27
0
37
0
0
ENDTAB
0
TABLE
2
LTYPE
5
2b7
100
AcDbSymbolTable
0
LTYPE
5
14
100
AcDbSymbolTableRecord
100
AcDbLinetypeTableRecord
70
0
2
ByBlock
3

72
65
73
0
40
0
0
LTYPE
5
15
100
AcDbSymbolTableRecord
100
AcDbLinetypeTableRecord
70
0
2
ByLayer
3

72
65
73
0
40
0
0
LTYPE
5
16
100
AcDbSymbolTableRecord
100
AcDbLinetypeTableRecord
70
0
2
Continuous
3
Solid line
72
65
73
0
40
0
0
LTYPE
5
6E
100
AcDbSymbolTableRecord
100
AcDbLinetypeTableRecord
70
0
2
CENTER
3
____ _ ____ _ ____ _ ____
72
65
73
4
40
47.5
49
22
74
0
49
-8.5
74
0
49
8.5
74
0
49
-8.5
74
0
0
LTYPE
5
6F
100
AcDbSymbolTableRecord
100
AcDbLinetypeTableRecord
70
0
2
DASHED
3
__ __ __ __ __ __ __ __ __
72
65
73
2
40
25.72
49
12.86
74
0
49
-12.86
74
0
0
ENDTAB
0
TABLE
2
LAYER
5
2b8
100
AcDbSymbolTable
0
LAYER
5
10
100
AcDbSymbolTableRecord
100
AcDbLayerTableRecord
2
0
70
0
62
7
6
Continuous
290
1
370
-3
390
0
0
LAYER
5
71
100
AcDbSymbolTableRecord
100
AcDbLayerTableRecord
2
80
70
0
62
-6
6
Continuous
290
1
370
-3
390
0
0
LAYER
5
73
100
AcDbSymbolTableRecord
100
AcDbLayerTableRecord
2
81
70
0
62
-3
6
Continuous
290
1
370
-3
390
0
0
LAYER
5
75
100
AcDbSymbolTableRecord
100
AcDbLayerTableRecord
2
1
70
0
62
4
6
Continuous
290
1
370
-3
390
0
0
LAYER
5
115
100
AcDbSymbolTableRecord
100
AcDbLayerTableRecord
2
4
70
0
62
-2
6
CENTER
290
1
370
-3
390
0
0
LAYER
5
1D2
100
AcDbSymbolTableRecord
100
AcDbLayerTableRecord
2
Defpoints
70
0
62
7
6
Continuous
290
0
370
-3
390
0
0
LAYER
5
1FC
100
AcDbSymbolTableRecord
100
AcDbLayerTableRecord
2
2
70
0
62
7
6
Continuous
290
1
370
-3
390
0
0
LAYER
5
2a2
100
AcDbSymbolTableRecord
100
AcDbLayerTableRecord
2
SK1
70
0
62
4
6
Continuous
290
1
370
-3
390
0
0
LAYER
5
2a3
100
AcDbSymbolTableRecord
100
AcDbLayerTableRecord
2
SK4
70
0
62
2
6
CENTER
290
1
370
-3
390
0
0
LAYER
5
2a4
100
AcDbSymbolTableRecord
100
AcDbLayerTableRecord
2
SK6
70
0
62
5
6
Continuous
290
1
370
-3
390
0
0
LAYER
5
2a5
100
AcDbSymbolTableRecord
100
AcDbLayerTableRecord
2
SK2
70
0
62
7
6
Continuous
290
1
370
-3
390
0
0
ENDTAB
0
TABLE
2
STYLE
5
2b9
100
AcDbSymbolTable
0
STYLE
5
11
100
AcDbSymbolTableRecord
100
AcDbTextStyleTableRecord
2
Standard
3
txt
70
0
71
0
40
0
41
1
42
0
50
0
0
STYLE
5
1C4
100
AcDbSymbolTableRecord
100
AcDbTextStyleTableRecord
2
iso_b_vert
3
simplex.shx
70
0
71
0
40
0
41
1
42
0
50
0
0
STYLE
5
1C5
100
AcDbSymbolTableRecord
100
AcDbTextStyleTableRecord
2
DWGDirectTextStyle
3
simplex
70
0
71
0
40
0
41
1
42
0
50
0
0
ENDTAB
0
TABLE
2
DIMSTYLE
5
2ba
100
AcDbSymbolTable
100
AcDbDimStyleTable
0
DIMSTYLE
105
27
100
AcDbSymbolTableRecord
100
AcDbDimStyleTableRecord
2
Standard
70
0
3
<>
41
0.18
42
0.0625
44
0.18
140
0.18
147
0.09
73
0
74
0
77
1
271
2
275
0
278
52
280
0
340
11
0
ENDTAB
0
TABLE
2
VIEW
5
2bb
100
AcDbSymbolTable
0
ENDTAB
0
TABLE
2
UCS
5
2bc
100
AcDbSymbolTable
0
ENDTAB
0
TABLE
2
APPID
5
2bd
100
AcDbSymbolTable
0
APPID
5
12
100
AcDbSymbolTableRecord
100
AcDbRegAppTableRecord
2
ACAD
70
0
0
APPID
5
1C7
100
AcDbSymbolTableRecord
100
AcDbRegAppTableRecord
2
ACAD_DSTYLE_DIMBREAK
70
0
0
APPID
5
261
100
AcDbSymbolTableRecord
100
AcDbRegAppTableRecord
2
ACAD_DSTYLE_DIM_LINETYPE
70
0
0
APPID
5
262
100
AcDbSymbolTableRecord
100
AcDbRegAppTableRecord
2
ACAD_DSTYLE_DIM_EXT1_LINETYPE
70
0
0
APPID
5
263
100
AcDbSymbolTableRecord
100
AcDbRegAppTableRecord
2
ACAD_DSTYLE_DIM_EXT2_LINETYPE
70
0
0
APPID
5
29E
100
AcDbSymbolTableRecord
100
AcDbRegAppTableRecord
2
ACAD_MLEADERVER
70
0
0
ENDTAB
0
TABLE
2
BLOCK_RECORD
5
2be
100
AcDbSymbolTable
0
BLOCK_RECORD
5
1F
100
AcDbSymbolTableRecord
100
AcDbBlockTableRecord
2
*Model_Space
340
0
70
0
0
BLOCK_RECORD
5
1B
100
AcDbSymbolTableRecord
100
AcDbBlockTableRecord
2
*Paper_Space
340
0
70
0
0
BLOCK_RECORD
5
23
100
AcDbSymbolTableRecord
100
AcDbBlockTableRecord
2
*Paper_Space0
340
0
70
0
0
BLOCK_RECORD
5
1C9
100
AcDbSymbolTableRecord
100
AcDbBlockTableRecord
2
_Closed
340
0
70
0
0
BLOCK_RECORD
5
1D3
100
AcDbSymbolTableRecord
100
AcDbBlockTableRecord
2
*D2
340
0
70
0
0
BLOCK_RECORD
5
1E0
100
AcDbSymbolTableRecord
100
AcDbBlockTableRecord
2
_U0
340
0
70
0
0
BLOCK_RECORD
5
1F0
100
AcDbSymbolTableRecord
100
AcDbBlockTableRecord
2
*D4
340
0
70
0
0
BLOCK_RECORD
5
1FD
100
AcDbSymbolTableRecord
100
AcDbBlockTableRecord
2
_U1
340
0
70
0
0
BLOCK_RECORD
5
20D
100
AcDbSymbolTableRecord
100
AcDbBlockTableRecord
2
*D6
340
0
70
0
0
BLOCK_RECORD
5
219
100
AcDbSymbolTableRecord
100
AcDbBlockTableRecord
2
_U2
340
0
70
0
0
BLOCK_RECORD
5
229
100
AcDbSymbolTableRecord
100
AcDbBlockTableRecord
2
*D8
340
0
70
0
0
BLOCK_RECORD
5
236
100
AcDbSymbolTableRecord
100
AcDbBlockTableRecord
2
_U3
340
0
70
0
0
ENDTAB
0
ENDSEC
0
SECTION
2
BLOCKS
0
BLOCK
5
20
100
AcDbEntity
8
0
100
AcDbBlockBegin
2
*Model_Space
70
0
10
0
20
0
30
0
3
*Model_Space
0
ENDBLK
5
21
100
AcDbEntity
8
0
100
AcDbBlockEnd
0
BLOCK
5
1C
100
AcDbEntity
8
0
100
AcDbBlockBegin
2
*Paper_Space
70
0
10
0
20
0
30
0
3
*Paper_Space
0
ENDBLK
5
1D
100
AcDbEntity
8
0
100
AcDbBlockEnd
0
BLOCK
5
24
100
AcDbEntity
8
0
100
AcDbBlockBegin
2
*Paper_Space0
70
0
10
0
20
0
30
0
3
*Paper_Space0
0
ENDBLK
5
25
100
AcDbEntity
8
0
100
AcDbBlockEnd
0
BLOCK
5
1CA
100
AcDbEntity
8
0
100
AcDbBlockBegin
2
_Closed
70
0
10
0
20
0
30
0
3
_Closed
0
LINE
5
1CC
100
AcDbEntity
8
0
62
256
6
ByLayer
370
-2
48
1
60
0
100
AcDbLine
10
-1
20
0.166667
30
0
11
0
21
0
31
0
39
0
210
0
220
0
230
1
0
LINE
5
1CD
100
AcDbEntity
8
0
62
256
6
ByLayer
370
-2
48
1
60
0
100
AcDbLine
10
0
20
0
30
0
11
-1
21
-0.166667
31
0
39
0
210
0
220
0
230
1
0
LINE
5
1CE
100
AcDbEntity
8
0
62
256
6
ByLayer
370
-2
48
1
60
0
100
AcDbLine
10
-1
20
0.166667
30
0
11
-1
21
-0.166667
31
0
39
0
210
0
220
0
230
1
0
LINE
5
1CF
100
AcDbEntity
8
0
62
256
6
ByLayer
370
-2
48
1
60
0
100
AcDbLine
10
0
20
0
30
0
11
-1
21
0
31
0
39
0
210
0
220
0
230
1
0
ENDBLK
5
1CB
100
AcDbEntity
8
0
100
AcDbBlockEnd
0
BLOCK
5
1D4
100
AcDbEntity
8
0
100
AcDbBlockBegin
2
*D2
70
1
10
0
20
0
30
0
3
*D2
0
LINE
5
1D6
100
AcDbEntity
8
0
62
256
6
ByLayer
370
-2
48
1
60
0
100
AcDbLine
10
-3.6625
20
20
30
0
11
19.832804
21
20
31
0
39
0
210
0
220
0
230
1
0
LINE
5
1D7
100
AcDbEntity
8
0
62
256
6
ByLayer
370
-2
48
1
60
0
100
AcDbLine
10
1.0875
20
-20
30
0
11
19.832804
21
-20
31
0
39
0
210
0
220
0
230
1
0
LINE
5
1D8
100
AcDbEntity
8
0
62
256
6
ByLayer
370
-2
48
1
60
0
100
AcDbLine
10
16.657804
20
16.825
30
0
11
16.657804
21
-16.825
31
0
39
0
210
0
220
0
230
1
0
SOLID
5
1D9
100
AcDbEntity
8
0
62
256
6
ByLayer
370
-1
48
1
60
0
100
AcDbTrace
10
17.18697
20
16.825
30
0
11
16.128637
21
16.825
31
0
12
16.657804
22
20
32
0
13
16.657804
23
20
33
0
39
0
210
0
220
0
230
1
0
SOLID
5
1DA
100
AcDbEntity
8
0
62
256
6
ByLayer
370
-1
48
1
60
0
100
AcDbTrace
10
16.128637
20
-16.825
30
0
11
17.18697
21
-16.825
31
0
12
16.657804
22
-20
32
0
13
16.657804
23
-20
33
0
39
0
210
0
220
0
230
1
0
MTEXT
5
1DB
100
AcDbEntity
8
0
62
256
6
ByLayer
370
18
48
1
60
0
100
AcDbMText
10
9.351303
20
9.167885
30
0
210
0
220
0
230
1
1
\A1;40
40
3.50012
41
0
44
1
50
90
71
5
72
5
7
iso_b_vert
0
POINT
5
1DC
100
AcDbEntity
8
Defpoints
62
0
6
ByLayer
370
-1
48
1
60
0
100
AcDbPoint
10
-5.25
20
20
30
0
39
0
210
0
220
0
230
1
50
360
0
POINT
5
1DD
100
AcDbEntity
8
Defpoints
62
0
6
ByLayer
370
-1
48
1
60
0
100
AcDbPoint
10
-0.5
20
-20
30
0
39
0
210
0
220
0
230
1
50
360
0
POINT
5
1DE
100
AcDbEntity
8
Defpoints
62
0
6
ByLayer
370
-1
48
1
60
0
100
AcDbPoint
10
16.657804
20
-20
30
0
39
0
210
0
220
0
230
1
50
360
0
ENDBLK
5
1D5
100
AcDbEntity
8
0
100
AcDbBlockEnd
0
BLOCK
5
1EB
100
AcDbEntity
8
0
100
AcDbBlockBegin
2
_U0
70
0
10
0
20
0
30
0
3
_U0
0
MTEXT
5
1E1
100
AcDbEntity
8
SK2
62
256
6
ByLayer
370
18
48
1
60
0
100
AcDbMText
10
15.968147
20
7.051113
30
0
210
0
220
0
230
1
1
\W0.6920;40
40
3.50012
41
0
44
1.084337
50
90
71
7
72
5
7
iso_b_vert
0
LINE
5
1E2
100
AcDbEntity
8
SK2
62
256
6
ByLayer
370
13
48
1
60
0
100
AcDbLine
10
1.0875
20
20
30
0
11
19.832804
21
20
31
0
39
0
210
0
220
0
230
1
0
LINE
5
1E3
100
AcDbEntity
8
SK2
62
256
6
ByLayer
370
13
48
1
60
0
100
AcDbLine
10
1.0875
20
-20
30
0
11
19.832804
21
-20
31
0
39
0
210
0
220
0
230
1
0
LINE
5
1E4
100
AcDbEntity
8
SK2
62
256
6
ByLayer
370
13
48
1
60
0
100
AcDbLine
10
16.657804
20
20
30
0
11
16.657804
21
-20
31
0
39
0
210
0
220
0
230
1
0
LINE
5
1E5
100
AcDbEntity
8
SK2
62
256
6
ByLayer
370
13
48
1
60
0
100
AcDbLine
10
16.657804
20
20
30
0
11
17.0758
21
16.825002
31
0
39
0
210
0
220
0
230
1
0
LINE
5
1E6
100
AcDbEntity
8
SK2
62
256
6
ByLayer
370
13
48
1
60
0
100
AcDbLine
10
16.657804
20
20
30
0
11
16.239807
21
16.824998
31
0
39
0
210
0
220
0
230
1
0
LINE
5
1E7
100
AcDbEntity
8
SK2
62
256
6
ByLayer
370
13
48
1
60
0
100
AcDbLine
10
17.0758
20
16.825002
30
0
11
16.239807
21
16.824998
31
0
39
0
210
0
220
0
230
1
0
LINE
5
1E8
100
AcDbEntity
8
SK2
62
256
6
ByLayer
370
13
48
1
60
0
100
AcDbLine
10
16.657804
20
-20
30
0
11
16.239807
21
-16.825002
31
0
39
0
210
0
220
0
230
1
0
LINE
5
1E9
100
AcDbEntity
8
SK2
62
256
6
ByLayer
370
13
48
1
60
0
100
AcDbLine
10
16.657804
20
-20
30
0
11
17.0758
21
-16.824998
31
0
39
0
210
0
220
0
230
1
0
LINE
5
1EA
100
AcDbEntity
8
SK2
62
256
6
ByLayer
370
13
48
1
60
0
100
AcDbLine
10
16.239807
20
-16.825002
30
0
11
17.0758
21
-16.824998
31
0
39
0
210
0
220
0
230
1
0
ENDBLK
5
1EC
100
AcDbEntity
8
0
100
AcDbBlockEnd
0
BLOCK
5
1F1
100
AcDbEntity
8
0
100
AcDbBlockBegin
2
*D4
70
1
10
0
20
0
30
0
3
*D4
0
LINE
5
1F3
100
AcDbEntity
8
0
62
256
6
ByLayer
370
-2
48
1
60
0
100
AcDbLine
10
1.5875
20
0
30
0
11
30.143023
21
0
31
0
39
0
210
0
220
0
230
1
0
LINE
5
1F4
100
AcDbEntity
8
0
62
256
6
ByLayer
370
-2
48
1
60
0
100
AcDbLine
10
-15.425884
20
-66
30
0
11
30.143023
21
-66
31
0
39
0
210
0
220
0
230
1
0
LINE
5
1F5
100
AcDbEntity
8
0
62
256
6
ByLayer
370
-2
48
1
60
0
100
AcDbLine
10
26.968023
20
-3.175
30
0
11
26.968023
21
-62.825
31
0
39
0
210
0
220
0
230
1
0
SOLID
5
1F6
100
AcDbEntity
8
0
62
256
6
ByLayer
370
-1
48
1
60
0
100
AcDbTrace
10
27.49719
20
-3.175
30
0
11
26.438856
21
-3.175
31
0
12
26.968023
22
0
32
0
13
26.968023
23
0
33
0
39
0
210
0
220
0
230
1
0
SOLID
5
1F7
100
AcDbEntity
8
0
62
256
6
ByLayer
370
-1
48
1
60
0
100
AcDbTrace
10
26.438856
20
-62.825
30
0
11
27.49719
21
-62.825
31
0
12
26.968023
22
-66
32
0
13
26.968023
23
-66
33
0
39
0
210
0
220
0
230
1
0
MTEXT
5
1F8
100
AcDbEntity
8
0
62
256
6
ByLayer
370
18
48
1
60
0
100
AcDbMText
10
19.661523
20
-35.166059
30
0
210
0
220
0
230
1
1
\A1;66
40
3.50012
41
0
44
1
50
90
71
5
72
5
7
iso_b_vert
0
POINT
5
1F9
100
AcDbEntity
8
Defpoints
62
0
6
ByLayer
370
-1
48
1
60
0
100
AcDbPoint
10
0
20
0
30
0
39
0
210
0
220
0
230
1
50
360
0
POINT
5
1FA
100
AcDbEntity
8
Defpoints
62
0
6
ByLayer
370
-1
48
1
60
0
100
AcDbPoint
10
-17.013384
20
-66
30
0
39
0
210
0
220
0
230
1
50
360
0
POINT
5
1FB
100
AcDbEntity
8
Defpoints
62
0
6
ByLayer
370
-1
48
1
60
0
100
AcDbPoint
10
26.968023
20
-66
30
0
39
0
210
0
220
0
230
1
50
360
0
ENDBLK
5
1F2
100
AcDbEntity
8
0
100
AcDbBlockEnd
0
BLOCK
5
208
100
AcDbEntity
8
0
100
AcDbBlockBegin
2
_U1
70
0
10
0
20
0
30
0
3
_U1
0
MTEXT
5
1FE
100
AcDbEntity
8
2
62
256
6
ByLayer
370
18
48
1
60
0
100
AcDbMText
10
26.278366
20
-37.098557
30
0
210
0
220
0
230
1
1
\W0.6337;66
40
3.50012
41
0
44
1.084337
50
90
71
7
72
5
7
iso_b_vert
0
LINE
5
1FF
100
AcDbEntity
8
2
62
256
6
ByLayer
370
13
48
1
60
0
100
AcDbLine
10
1.5875
20
0
30
0
11
30.143023
21
0
31
0
39
0
210
0
220
0
230
1
0
LINE
5
200
100
AcDbEntity
8
2
62
256
6
ByLayer
370
13
48
1
60
0
100
AcDbLine
10
-15.425884
20
-66
30
0
11
30.143023
21
-66
31
0
39
0
210
0
220
0
230
1
0
LINE
5
201
100
AcDbEntity
8
2
62
256
6
ByLayer
370
13
48
1
60
0
100
AcDbLine
10
26.968023
20
0
30
0
11
26.968023
21
-66
31
0
39
0
210
0
220
0
230
1
0
LINE
5
202
100
AcDbEntity
8
2
62
256
6
ByLayer
370
13
48
1
60
0
100
AcDbLine
10
26.968023
20
0
30
0
11
27.38602
21
-3.174998
31
0
39
0
210
0
220
0
230
1
0
LINE
5
203
100
AcDbEntity
8
2
62
256
6
ByLayer
370
13
48
1
60
0
100
AcDbLine
10
26.968023
20
0
30
0
11
26.550026
21
-3.175002
31
0
39
0
210
0
220
0
230
1
0
LINE
5
204
100
AcDbEntity
8
2
62
256
6
ByLayer
370
13
48
1
60
0
100
AcDbLine
10
27.38602
20
-3.174998
30
0
11
26.550026
21
-3.175002
31
0
39
0
210
0
220
0
230
1
0
LINE
5
205
100
AcDbEntity
8
2
62
256
6
ByLayer
370
13
48
1
60
0
100
AcDbLine
10
26.968023
20
-66
30
0
11
26.550026
21
-62.825002
31
0
39
0
210
0
220
0
230
1
0
LINE
5
206
100
AcDbEntity
8
2
62
256
6
ByLayer
370
13
48
1
60
0
100
AcDbLine
10
26.968023
20
-66
30
0
11
27.38602
21
-62.824998
31
0
39
0
210
0
220
0
230
1
0
LINE
5
207
100
AcDbEntity
8
2
62
256
6
ByLayer
370
13
48
1
60
0
100
AcDbLine
10
26.550026
20
-62.825002
30
0
11
27.38602
21
-62.824998
31
0
39
0
210
0
220
0
230
1
0
ENDBLK
5
209
100
AcDbEntity
8
0
100
AcDbBlockEnd
0
BLOCK
5
20E
100
AcDbEntity
8
0
100
AcDbBlockBegin
2
*D6
70
1
10
0
20
0
30
0
3
*D6
0
LINE
5
210
100
AcDbEntity
8
0
62
256
6
ByLayer
370
-2
48
1
60
0
100
AcDbLine
10
-4.4825
20
-25.25
30
0
11
12.203241
21
-25.25
31
0
39
0
210
0
220
0
230
1
0
LINE
5
211
100
AcDbEntity
8
0
62
256
6
ByLayer
370
-2
48
1
60
0
100
AcDbLine
10
-15.425884
20
-66
30
0
11
12.203241
21
-66
31
0
39
0
210
0
220
0
230
1
0
LINE
5
212
100
AcDbEntity
8
0
62
256
6
ByLayer
370
-2
48
1
60
0
100
AcDbLine
10
9.028241
20
-28.425
30
0
11
9.028241
21
-62.825
31
0
39
0
210
0
220
0
230
1
0
SOLID
5
213
100
AcDbEntity
8
0
62
256
6
ByLayer
370
-1
48
1
60
0
100
AcDbTrace
10
9.557408
20
-28.425
30
0
11
8.499075
21
-28.425
31
0
12
9.028241
22
-25.25
32
0
13
9.028241
23
-25.25
33
0
39
0
210
0
220
0
230
1
0
SOLID
5
214
100
AcDbEntity
8
0
62
256
6
ByLayer
370
-1
48
1
60
0
100
AcDbTrace
10
8.499075
20
-62.825
30
0
11
9.557408
21
-62.825
31
0
12
9.028241
22
-66
32
0
13
9.028241
23
-66
33
0
39
0
210
0
220
0
230
1
0
MTEXT
5
215
100
AcDbEntity
8
0
62
256
6
ByLayer
370
18
48
1
60
0
100
AcDbMText
10
1.721741
20
-44.857665
30
0
210
0
220
0
230
1
1
\A1;40.75
40
3.50012
41
0
44
1
50
90
71
5
72
5
7
iso_b_vert
0
POINT
5
216
100
AcDbEntity
8
Defpoints
62
0
6
ByLayer
370
-1
48
1
60
0
100
AcDbPoint
10
-6.07
20
-25.25
30
0
39
0
210
0
220
0
230
1
50
360
0
POINT
5
217
100
AcDbEntity
8
Defpoints
62
0
6
ByLayer
370
-1
48
1
60
0
100
AcDbPoint
10
-17.013384
20
-66
30
0
39
0
210
0
220
0
230
1
50
360
0
POINT
5
218
100
AcDbEntity
8
Defpoints
62
0
6
ByLayer
370
-1
48
1
60
0
100
AcDbPoint
10
9.028241
20
-66
30
0
39
0
210
0
220
0
230
1
50
360
0
ENDBLK
5
20F
100
AcDbEntity
8
0
100
AcDbBlockEnd
0
BLOCK
5
224
100
AcDbEntity
8
0
100
AcDbBlockBegin
2
_U2
70
0
10
0
20
0
30
0
3
_U2
0
MTEXT
5
21A
100
AcDbEntity
8
SK2
62
256
6
ByLayer
370
18
48
1
60
0
100
AcDbMText
10
8.338584
20
-50.298215
30
0
210
0
220
0
230
1
1
\W0.7564;40.75
40
3.50012
41
0
44
1.084337
50
90
71
7
72
5
7
iso_b_vert
0
LINE
5
21B
100
AcDbEntity
8
SK2
62
256
6
ByLayer
370
13
48
1
60
0
100
AcDbLine
10
-4.4825
20
-25.25
30
0
11
12.203241
21
-25.25
31
0
39
0
210
0
220
0
230
1
0
LINE
5
21C
100
AcDbEntity
8
SK2
62
256
6
ByLayer
370
13
48
1
60
0
100
AcDbLine
10
-15.425884
20
-66
30
0
11
12.203241
21
-66
31
0
39
0
210
0
220
0
230
1
0
LINE
5
21D
100
AcDbEntity
8
SK2
62
256
6
ByLayer
370
13
48
1
60
0
100
AcDbLine
10
9.028241
20
-25.25
30
0
11
9.028241
21
-66
31
0
39
0
210
0
220
0
230
1
0
LINE
5
21E
100
AcDbEntity
8
SK2
62
256
6
ByLayer
370
13
48
1
60
0
100
AcDbLine
10
9.028241
20
-25.25
30
0
11
9.446238
21
-28.424998
31
0
39
0
210
0
220
0
230
1
0
LINE
5
21F
100
AcDbEntity
8
SK2
62
256
6
ByLayer
370
13
48
1
60
0
100
AcDbLine
10
9.028241
20
-25.25
30
0
11
8.610245
21
-28.425002
31
0
39
0
210
0
220
0
230
1
0
LINE
5
220
100
AcDbEntity
8
SK2
62
256
6
ByLayer
370
13
48
1
60
0
100
AcDbLine
10
9.446238
20
-28.424998
30
0
11
8.610245
21
-28.425002
31
0
39
0
210
0
220
0
230
1
0
LINE
5
221
100
AcDbEntity
8
SK2
62
256
6
ByLayer
370
13
48
1
60
0
100
AcDbLine
10
9.028241
20
-66
30
0
11
8.610245
21
-62.825002
31
0
39
0
210
0
220
0
230
1
0
LINE
5
222
100
AcDbEntity
8
SK2
62
256
6
ByLayer
370
13
48
1
60
0
100
AcDbLine
10
9.028241
20
-66
30
0
11
9.446238
21
-62.824998
31
0
39
0
210
0
220
0
230
1
0
LINE
5
223
100
AcDbEntity
8
SK2
62
256
6
ByLayer
370
13
48
1
60
0
100
AcDbLine
10
8.610245
20
-62.825002
30
0
11
9.446238
21
-62.824998
31
0
39
0
210
0
220
0
230
1
0
ENDBLK
5
225
100
AcDbEntity
8
0
100
AcDbBlockEnd
0
BLOCK
5
22A
100
AcDbEntity
8
0
100
AcDbBlockBegin
2
*D8
70
1
10
0
20
0
30
0
3
*D8
0
LINE
5
22C
100
AcDbEntity
8
0
62
256
6
ByLayer
370
-2
48
1
60
0
100
AcDbLine
10
-17.013384
20
-67.5875
30
0
11
-17.013384
21
-78.133151
31
0
39
0
210
0
220
0
230
1
0
LINE
5
22D
100
AcDbEntity
8
0
62
256
6
ByLayer
370
-2
48
1
60
0
100
AcDbLine
10
0
20
-1.5875
30
0
11
0
21
-78.133151
31
0
39
0
210
0
220
0
230
1
0
LINE
5
22E
100
AcDbEntity
8
0
62
256
6
ByLayer
370
-2
48
1
60
0
100
AcDbLine
10
-20.188384
20
-74.958151
30
0
11
-23.363384
21
-74.958151
31
0
39
0
210
0
220
0
230
1
0
LINE
5
22F
100
AcDbEntity
8
0
62
256
6
ByLayer
370
-2
48
1
60
0
100
AcDbLine
10
3.175
20
-74.958151
30
0
11
6.35
21
-74.958151
31
0
39
0
210
0
220
0
230
1
0
SOLID
5
230
100
AcDbEntity
8
0
62
256
6
ByLayer
370
-1
48
1
60
0
100
AcDbTrace
10
-20.188384
20
-75.487318
30
0
11
-20.188384
21
-74.428985
31
0
12
-17.013384
22
-74.958151
32
0
13
-17.013384
23
-74.958151
33
0
39
0
210
0
220
0
230
1
0
SOLID
5
231
100
AcDbEntity
8
0
62
256
6
ByLayer
370
-1
48
1
60
0
100
AcDbTrace
10
3.175
20
-74.428985
30
0
11
3.175
21
-75.487318
31
0
12
0
22
-74.958151
32
0
13
0
23
-74.958151
33
0
39
0
210
0
220
0
230
1
0
MTEXT
5
232
100
AcDbEntity
8
0
62
256
6
ByLayer
370
18
48
1
60
0
100
AcDbMText
10
-9.215492
20
-67.651651
30
0
210
0
220
0
230
1
1
\A1;17
40
3.50012
41
0
44
1
50
0
71
5
72
5
7
iso_b_vert
0
POINT
5
233
100
AcDbEntity
8
Defpoints
62
0
6
ByLayer
370
-1
48
1
60
0
100
AcDbPoint
10
-17.013384
20
-66
30
0
39
0
210
0
220
0
230
1
50
360
0
POINT
5
234
100
AcDbEntity
8
Defpoints
62
0
6
ByLayer
370
-1
48
1
60
0
100
AcDbPoint
10
0
20
0
30
0
39
0
210
0
220
0
230
1
50
360
0
POINT
5
235
100
AcDbEntity
8
Defpoints
62
0
6
ByLayer
370
-1
48
1
60
0
100
AcDbPoint
10
0
20
-74.958151
30
0
39
0
210
0
220
0
230
1
50
360
0
ENDBLK
5
22B
100
AcDbEntity
8
0
100
AcDbBlockEnd
0
BLOCK
5
241
100
AcDbEntity
8
0
100
AcDbBlockBegin
2
_U3
70
0
10
0
20
0
30
0
3
_U3
0
MTEXT
5
237
100
AcDbEntity
8
2
62
256
6
ByLayer
370
18
48
1
60
0
100
AcDbMText
10
-10.682542
20
-73.925482
30
0
210
0
220
0
230
1
1
\W0.5560;17
40
3.50012
41
0
44
1.084337
50
0
71
7
72
5
7
iso_b_vert
0
LINE
5
238
100
AcDbEntity
8
2
62
256
6
ByLayer
370
13
48
1
60
0
100
AcDbLine
10
-17.013384
20
-67.5875
30
0
11
-17.013384
21
-78.133151
31
0
39
0
210
0
220
0
230
1
0
LINE
5
239
100
AcDbEntity
8
2
62
256
6
ByLayer
370
13
48
1
60
0
100
AcDbLine
10
0
20
-1.5875
30
0
11
0
21
-78.133151
31
0
39
0
210
0
220
0
230
1
0
LINE
5
23A
100
AcDbEntity
8
2
62
256
6
ByLayer
370
13
48
1
60
0
100
AcDbLine
10
-17.013384
20
-74.958151
30
0
11
0
21
-74.958151
31
0
39
0
210
0
220
0
230
1
0
LINE
5
23B
100
AcDbEntity
8
2
62
256
6
ByLayer
370
13
48
1
60
0
100
AcDbLine
10
-17.013384
20
-74.958151
30
0
11
-13.838386
21
-74.540155
31
0
39
0
210
0
220
0
230
1
0
LINE
5
23C
100
AcDbEntity
8
2
62
256
6
ByLayer
370
13
48
1
60
0
100
AcDbLine
10
-17.013384
20
-74.958151
30
0
11
-13.838383
21
-75.376148
31
0
39
0
210
0
220
0
230
1
0
LINE
5
23D
100
AcDbEntity
8
2
62
256
6
ByLayer
370
13
48
1
60
0
100
AcDbLine
10
-13.838386
20
-74.540155
30
0
11
-13.838383
21
-75.376148
31
0
39
0
210
0
220
0
230
1
0
LINE
5
23E
100
AcDbEntity
8
2
62
256
6
ByLayer
370
13
48
1
60
0
100
AcDbLine
10
0
20
-74.958151
30
0
11
-3.174998
21
-75.376148
31
0
39
0
210
0
220
0
230
1
0
LINE
5
23F
100
AcDbEntity
8
2
62
256
6
ByLayer
370
13
48
1
60
0
100
AcDbLine
10
0
20
-74.958151
30
0
11
-3.175002
21
-74.540155
31
0
39
0
210
0
220
0
230
1
0
LINE
5
240
100
AcDbEntity
8
2
62
256
6
ByLayer
370
13
48
1
60
0
100
AcDbLine
10
-3.174998
20
-75.376148
30
0
11
-3.175002
21
-74.540155
31
0
39
0
210
0
220
0
230
1
0
ENDBLK
5
242
100
AcDbEntity
8
0
100
AcDbBlockEnd
0
ENDSEC
0
SECTION
2
ENTITIES
0
ARC
5
117
100
AcDbEntity
8
SK1
62
256
6
ByLayer
370
18
48
1
60
0
100
AcDbCircle
39
0
10
0.240519
20
5.25
30
0
40
0.204499999999988
210
0
220
0
230
-1
100
AcDbArc
50
300
51
60
0
ARC
5
118
100
AcDbEntity
8
SK1
62
256
6
ByLayer
370
18
48
1
60
0
100
AcDbCircle
39
0
10
-0.174981
20
4.60077
30
0
40
0.149999999999843
210
0
220
0
230
-1
100
AcDbArc
50
120
51
180
0
ARC
5
119
100
AcDbEntity
8
SK1
62
256
6
ByLayer
370
18
48
1
60
0
100
AcDbCircle
39
0
10
-0.174981
20
4.39923
30
0
40
0.150000000000217
210
0
220
0
230
-1
100
AcDbArc
50
180
51
240
0
ARC
5
11A
100
AcDbEntity
8
SK1
62
256
6
ByLayer
370
18
48
1
60
0
100
AcDbCircle
39
0
10
0.240519
20
3.75
30
0
40
0.204500000000003
210
0
220
0
230
-1
100
AcDbArc
50
300
51
60
0
ARC
5
11B
100
AcDbEntity
8
SK1
62
256
6
ByLayer
370
18
48
1
60
0
100
AcDbCircle
39
0
10
-0.174981
20
3.10077
30
0
40
0.14999999999964
210
0
220
0
230
-1
100
AcDbArc
50
120
51
180
0
ARC
5
11C
100
AcDbEntity
8
SK1
62
256
6
ByLayer
370
18
48
1
60
0
100
AcDbCircle
39
0
10
-0.174981
20
2.89923
30
0
40
0.150000000000768
210
0
220
0
230
-1
100
AcDbArc
50
180
51
240
0
ARC
5
11D
100
AcDbEntity
8
SK1
62
256
6
ByLayer
370
18
48
1
60
0
100
AcDbCircle
39
0
10
0.240519
20
2.25
30
0
40
0.204499999999997
210
0
220
0
230
-1
100
AcDbArc
50
300
51
60
0
ARC
5
11E
100
AcDbEntity
8
SK1
62
256
6
ByLayer
370
18
48
1
60
0
100
AcDbCircle
39
0
10
-0.174981
20
1.60077
30
0
40
0.150000000000713
210
0
220
0
230
-1
100
AcDbArc
50
120
51
180
0
ARC
5
11F
100
AcDbEntity
8
SK1
62
256
6
ByLayer
370
18
48
1
60
0
100
AcDbCircle
39
0
10
-0.174981
20
1.39923
30
0
40
0.150000000000799
210
0
220
0
230
-1
100
AcDbArc
50
180
51
240
0
ARC
5
120
100
AcDbEntity
8
SK1
62
256
6
ByLayer
370
18
48
1
60
0
100
AcDbCircle
39
0
10
0.240519
20
0.75
30
0
40
0.204500000000015
210
0
220
0
230
-1
100
AcDbArc
50
300
51
60
0
ARC
5
121
100
AcDbEntity
8
SK1
62
256
6
ByLayer
370
18
48
1
60
0
100
AcDbCircle
39
0
10
-0.174981
20
0.10077
30
0
40
0.150000000000333
210
0
220
0
230
-1
100
AcDbArc
50
120
51
180
0
ARC
5
122
100
AcDbEntity
8
SK1
62
256
6
ByLayer
370
18
48
1
60
0
100
AcDbCircle
39
0
10
-0.174981
20
-0.10077
30
0
40
0.150000000000783
210
0
220
0
230
-1
100
AcDbArc
50
180
51
240
0
ARC
5
123
100
AcDbEntity
8
SK1
62
256
6
ByLayer
370
18
48
1
60
0
100
AcDbCircle
39
0
10
0.240519
20
-0.75
30
0
40
0.204499999999974
210
0
220
0
230
-1
100
AcDbArc
50
300
51
60
0
ARC
5
124
100
AcDbEntity
8
SK1
62
256
6
ByLayer
370
18
48
1
60
0
100
AcDbCircle
39
0
10
-0.174981
20
-1.39923
30
0
40
0.150000000000321
210
0
220
0
230
-1
100
AcDbArc
50
120
51
180
0
ARC
5
125
100
AcDbEntity
8
SK1
62
256
6
ByLayer
370
18
48
1
60
0
100
AcDbCircle
39
0
10
-0.174981
20
-1.60077
30
0
40
0.150000000000789
210
0
220
0
230
-1
100
AcDbArc
50
180
51
240
0
ARC
5
126
100
AcDbEntity
8
SK1
62
256
6
ByLayer
370
18
48
1
60
0
100
AcDbCircle
39
0
10
0.240519
20
-2.25
30
0
40
0.204499999999988
210
0
220
0
230
-1
100
AcDbArc
50
300
51
60
0
ARC
5
127
100
AcDbEntity
8
SK1
62
256
6
ByLayer
370
18
48
1
60
0
100
AcDbCircle
39
0
10
-0.174981
20
-2.89923
30
0
40
0.149999999999603
210
0
220
0
230
-1
100
AcDbArc
50
120
51
180
0
ARC
5
128
100
AcDbEntity
8
SK1
62
256
6
ByLayer
370
18
48
1
60
0
100
AcDbCircle
39
0
10
-0.174981
20
-3.10077
30
0
40
0.150000000000321
210
0
220
0
230
-1
100
AcDbArc
50
180
51
240
0
ARC
5
129
100
AcDbEntity
8
SK1
62
256
6
ByLayer
370
18
48
1
60
0
100
AcDbCircle
39
0
10
0.240519
20
-3.75
30
0
40
0.204499999999996
210
0
220
0
230
-1
100
AcDbArc
50
300
51
60
0
ARC
5
12A
100
AcDbEntity
8
SK1
62
256
6
ByLayer
370
18
48
1
60
0
100
AcDbCircle
39
0
10
-0.174981
20
-4.39923
30
0
40
0.150000000000425
210
0
220
0
230
-1
100
AcDbArc
50
120
51
180
0
ARC
5
12B
100
AcDbEntity
8
SK1
62
256
6
ByLayer
370
18
48
1
60
0
100
AcDbCircle
39
0
10
-0.174981
20
-4.60077
30
0
40
0.149999999999661
210
0
220
0
230
-1
100
AcDbArc
50
180
51
240
0
ARC
5
12C
100
AcDbEntity
8
SK1
62
256
6
ByLayer
370
18
48
1
60
0
100
AcDbCircle
39
0
10
0.240519
20
-5.25
30
0
40
0.20449999999999
210
0
220
0
230
-1
100
AcDbArc
50
300
51
60
0
ARC
5
12D
100
AcDbEntity
8
1
62
256
6
ByLayer
370
18
48
1
60
0
100
AcDbCircle
39
0
10
1.97
20
-21.85
30
0
40
1.6
210
0
220
0
230
-1
100
AcDbArc
50
0
51
90
0
ARC
5
12E
100
AcDbEntity
8
SK1
62
256
6
ByLayer
370
18
48
1
60
0
100
AcDbCircle
39
0
10
-0.174981
20
-16.60077
30
0
40
0.149999999999715
210
0
220
0
230
-1
100
AcDbArc
50
180
51
240
0
ARC
5
12F
100
AcDbEntity
8
SK1
62
256
6
ByLayer
370
18
48
1
60
0
100
AcDbCircle
39
0
10
0.240519
20
-17.25
30
0
40
0.204499999999997
210
0
220
0
230
-1
100
AcDbArc
50
300
51
60
0
ARC
5
130
100
AcDbEntity
8
SK1
62
256
6
ByLayer
370
18
48
1
60
0
100
AcDbCircle
39
0
10
-0.174981
20
-17.89923
30
0
40
0.150000000000329
210
0
220
0
230
-1
100
AcDbArc
50
120
51
180
0
ARC
5
131
100
AcDbEntity
8
SK1
62
256
6
ByLayer
370
18
48
1
60
0
100
AcDbCircle
39
0
10
-0.174981
20
-18.10077
30
0
40
0.149999999999716
210
0
220
0
230
-1
100
AcDbArc
50
180
51
240
0
ARC
5
132
100
AcDbEntity
8
SK1
62
256
6
ByLayer
370
18
48
1
60
0
100
AcDbCircle
39
0
10
0.240519
20
-18.75
30
0
40
0.204500000000007
210
0
220
0
230
-1
100
AcDbArc
50
300
51
60
0
ARC
5
133
100
AcDbEntity
8
1
62
256
6
ByLayer
370
18
48
1
60
0
100
AcDbCircle
39
0
10
15.667299
20
-58.55644
30
0
40
0.0999999999822871
210
0
220
0
230
-1
100
AcDbArc
50
100.000001
51
128.049181
0
ARC
5
134
100
AcDbEntity
8
1
62
256
6
ByLayer
370
18
48
1
60
0
100
AcDbCircle
39
0
10
14.332701
20
-58.55644
30
0
40
0.0999999999828669
210
0
220
0
230
-1
100
AcDbArc
50
51.950819
51
79.999999
0
ARC
5
135
100
AcDbEntity
8
1
62
256
6
ByLayer
370
18
48
1
60
0
100
AcDbCircle
39
0
10
-16.7
20
-41.3
30
0
40
0.3
210
0
220
0
230
1
100
AcDbArc
50
103.850465
51
182.5
0
ARC
5
136
100
AcDbEntity
8
1
62
256
6
ByLayer
370
18
48
1
60
0
100
AcDbCircle
39
0
10
-13.3
20
-65.7
30
0
40
0.3
210
0
220
0
230
1
100
AcDbArc
50
270
51
2.5
0
ARC
5
137
100
AcDbEntity
8
1
62
256
6
ByLayer
370
18
48
1
60
0
100
AcDbCircle
39
0
10
16.7
20
-65.7
30
0
40
0.3
210
0
220
0
230
-1
100
AcDbArc
50
270
51
2.5
0
ELLIPSE
5
138
100
AcDbEntity
8
1
62
256
6
ByLayer
370
18
48
1
60
0
100
AcDbEllipse
10
132.5
20
4.822744
30
0
11
3.26784400617098E-14
21
-177.899017425533
31
0
210
0
220
0
230
-1
40
0.8391
41
1.42942301757442
42
1.50647759054602
0
ELLIPSE
5
139
100
AcDbEntity
8
1
62
256
6
ByLayer
370
18
48
1
60
0
100
AcDbEllipse
10
132.5
20
1.711296
30
0
11
3.26784400808754E-14
21
-177.899017529869
31
0
210
0
220
0
230
-1
40
0.8391
41
1.42964816245625
42
1.51675916671251
0
ELLIPSE
5
13A
100
AcDbEntity
8
1
62
256
6
ByLayer
370
18
48
1
60
0
100
AcDbEllipse
10
132.5
20
-66.098825
30
0
11
4.22238164204065E-14
21
-229.863342281993
31
0
210
0
220
0
230
-1
40
0.649408
41
1.64525201374226
42
1.71194449124603
0
ELLIPSE
5
13B
100
AcDbEntity
8
1
62
256
6
ByLayer
370
18
48
1
60
0
100
AcDbEllipse
10
132.50002
20
-60.470389
30
0
11
4.22238192545729E-14
21
-229.863357710986
31
0
210
0
220
0
230
-1
40
0.649408
41
1.58223698314727
42
1.60862210312763
0
ELLIPSE
5
13C
100
AcDbEntity
8
1
62
256
6
ByLayer
370
18
48
1
60
0
100
AcDbEllipse
10
158.047736
20
2457.804705
30
0
11
-32.4873037871347
21
-14272.0609073814
31
0
210
0
220
0
230
-1
40
0.012036
41
1.39360338022224
42
1.39437202535922
0
ELLIPSE
5
13D
100
AcDbEntity
8
1
62
256
6
ByLayer
370
18
48
1
60
0
100
AcDbEllipse
10
132.52827
20
-248.647929
30
0
11
-26.4923128132612
21
1234.89887486534
31
0
210
0
220
0
230
-1
40
0.118985
41
-1.40359097212194
42
-1.4016150700385
0
ELLIPSE
5
13E
100
AcDbEntity
8
1
62
256
6
ByLayer
370
18
48
1
60
0
100
AcDbEllipse
10
170.4414
20
754.221493
30
0
11
-35.1188693368651
21
-5048.91222441759
31
0
210
0
220
0
230
-1
40
0.036422
41
1.40877789211718
42
1.40900054294472
0
ELLIPSE
5
13F
100
AcDbEntity
8
1
62
256
6
ByLayer
370
18
48
1
60
0
100
AcDbEllipse
10
232.649828
20
-60.470389
30
0
11
6.95621399171177E-14
21
-378.691158999748
31
0
210
0
220
0
230
-1
40
0.649407
41
1.5777269584657
42
1.59375289724007
0
ELLIPSE
5
140
100
AcDbEntity
8
1
62
256
6
ByLayer
370
18
48
1
60
0
100
AcDbEllipse
10
232.649992
20
-66.098825
30
0
11
6.9562163005718E-14
21
-378.691284692385
31
0
210
0
220
0
230
-1
40
0.649408
41
1.61596409418401
42
1.65629233443952
0
ELLIPSE
5
141
100
AcDbEntity
8
1
62
256
6
ByLayer
370
18
48
1
60
0
100
AcDbEllipse
10
-16.358749
20
-58.434518
30
0
11
-0.00732492232599026
21
-0.0997313673801617
31
0
210
0
220
0
230
-1
40
1
41
3.06827776987498
42
-3.0403746127205
0
ELLIPSE
5
142
100
AcDbEntity
8
1
62
256
6
ByLayer
370
18
48
1
60
0
100
AcDbEllipse
10
-13.641251
20
-58.434518
30
0
11
-0.0998309313700534
21
-0.0058124928758015
31
0
210
0
220
0
230
-1
40
1
41
1.45442110932536
42
1.62895403506075
0
POINT
5
70
100
AcDbEntity
8
80
62
256
6
ByLayer
370
18
48
1
60
0
100
AcDbPoint
10
0
20
0
30
0
39
0
210
0
220
0
230
1
50
360
0
POINT
5
72
100
AcDbEntity
8
81
62
256
6
ByLayer
370
18
48
1
60
0
100
AcDbPoint
10
-17.013384
20
-66
30
0
39
0
210
0
220
0
230
1
50
360
0
SPLINE
5
143
100
AcDbEntity
8
1
62
256
6
ByLayer
370
18
48
1
60
0
100
AcDbSpline
70
4
71
3
72
10
73
6
40
0
40
0
40
0
40
0
40
0.5
40
0.5
40
1
40
1
40
1
40
1
41
1
10
-14.8809274691358
20
15.1190725308643
30
0
41
1
10
-14.6422850408712
20
14.480975030377
30
0
41
1
10
-14.3859132360921
20
13.7860211803303
30
0
41
1
10
-13.842597355909
20
12.2840354992217
30
0
41
1
10
-13.555646026963
20
11.4770027091767
30
0
41
1
10
-13.2558026977373
20
10.6135198841349
30
0
0
SPLINE
5
144
100
AcDbEntity
8
1
62
256
6
ByLayer
370
18
48
1
60
0
100
AcDbSpline
70
4
71
3
72
22
73
18
40
0
40
0
40
0
40
0
40
0.250000000000002
40
0.250000000000002
40
0.312500000000001
40
0.312500000000001
40
0.375000000000001
40
0.375000000000001
40
0.499999999999999
40
0.499999999999999
40
0.624999999999998
40
0.624999999999998
40
0.687499999999998
40
0.687499999999998
40
0.749999999999997
40
0.749999999999997
40
1
40
1
40
1
40
1
41
1
10
-13.2558026977373
20
10.613519884135
30
0
41
1
10
-13.1622612408884
20
10.3441410667808
30
0
41
1
10
-13.0758941305861
20
10.0275321638023
30
0
41
1
10
-12.9779177062138
20
9.57364500136768
30
0
41
1
10
-12.9588289086571
20
9.47991827188974
30
0
41
1
10
-12.9217212979677
20
9.28641143971944
30
0
41
1
10
-12.9036822646448
20
9.18646396157664
30
0
41
1
10
-12.8519949647794
20
8.88170035950512
30
0
41
1
10
-12.8205033449103
20
8.67068671584497
30
0
41
1
10
-12.7635715484083
20
8.23324650486376
30
0
41
1
10
-12.7381305872505
20
8.00682062172507
30
0
41
1
10
-12.7047906316216
20
7.65526555765268
30
0
41
1
10
-12.6944561518846
20
7.53573615828756
30
0
41
1
10
-12.6756013998254
20
7.29422228649034
30
0
41
1
10
-12.6671160636068
20
7.17276638409572
30
0
41
1
10
-12.62934454716
20
6.56206388813388
30
0
41
1
10
-12.613836779957
20
6.06271106911731
30
0
41
1
10
-12.613836779957
20
5.55216789572154
30
0
0
SPLINE
5
145
100
AcDbEntity
8
1
62
256
6
ByLayer
370
18
48
1
60
0
100
AcDbSpline
70
4
71
3
72
20
73
16
40
0
40
0
40
0
40
0
40
0.249999999999994
40
0.249999999999994
40
0.374999999999992
40
0.374999999999992
40
0.437499999999992
40
0.437499999999992
40
0.499999999999991
40
0.499999999999991
40
0.749999999999996
40
0.749999999999996
40
0.874999999999998
40
0.874999999999998
40
1
40
1
40
1
40
1
41
1
10
-13.2309015839514
20
-10.8888105502247
30
0
41
1
10
-13.1582100289809
20
-10.6678383121731
30
0
41
1
10
-13.0897863598944
20
-10.4202373084781
30
0
41
1
10
-12.9939841526561
20
-10.010057477525
30
0
41
1
10
-12.9631958541048
20
-9.86682695347983
30
0
41
1
10
-12.9188528724817
20
-9.64200092721651
30
0
41
1
10
-12.9043789493097
20
-9.56539294908762
30
0
41
1
10
-12.8760719006396
20
-9.40877429528931
30
0
41
1
10
-12.8622235897724
20
-9.32865235667532
30
0
41
1
10
-12.7953387798769
20
-8.92358390157901
30
0
41
1
10
-12.7487555182493
20
-8.58240927602805
30
0
41
1
10
-12.6896775494106
20
-8.04535005292041
30
0
41
1
10
-12.6717936914211
20
-7.86208812157784
30
0
41
1
10
-12.6398332055306
20
-7.48681992623114
30
0
41
1
10
-12.6257490493915
20
-7.29447145126892
30
0
41
1
10
-12.613836779957
20
-7.09999999999908
30
0
0
SPLINE
5
146
100
AcDbEntity
8
1
62
256
6
ByLayer
370
18
48
1
60
0
100
AcDbSpline
70
4
71
3
72
10
73
6
40
0
40
0
40
0
40
0
40
0.5
40
0.5
40
1
40
1
40
1
40
1
41
1
10
-14.7539030656918
20
-15.3708958298821
30
0
41
1
10
-14.5263160414876
20
-14.7200755801086
30
0
41
1
10
-14.2841951432284
20
-14.0207739660165
30
0
41
1
10
-13.7751313578942
20
-12.52659059664
30
0
41
1
10
-13.5081830057564
20
-11.7317075878681
30
0
41
1
10
-13.2309015839514
20
-10.8888105502247
30
0
0
SPLINE
5
147
100
AcDbEntity
8
1
62
256
6
ByLayer
370
18
48
1
60
0
100
AcDbSpline
70
4
71
3
72
24
73
20
40
0
40
0
40
0
40
0
40
0.125000000000002
40
0.125000000000002
40
0.187500000000003
40
0.187500000000003
40
0.250000000000003
40
0.250000000000003
40
0.500000000000003
40
0.500000000000003
40
0.562500000000003
40
0.562500000000003
40
0.625000000000002
40
0.625000000000002
40
0.750000000000002
40
0.750000000000002
40
0.875000000000001
40
0.875000000000001
40
1
40
1
40
1
40
1
41
1
10
-15.285747017093
20
-20.2437356627743
30
0
41
1
10
-15.2818860404149
20
-19.9850694678135
30
0
41
1
10
-15.2756916249823
20
-19.7292223552283
30
0
41
1
10
-15.2628366750034
20
-19.3496781324634
30
0
41
1
10
-15.2579555441866
20
-19.223869930922
30
0
41
1
10
-15.2469620498928
20
-18.9736927439415
30
0
41
1
10
-15.2408238807152
20
-18.8488957498435
30
0
41
1
10
-15.2073498099275
20
-18.2363010818604
30
0
41
1
10
-15.171769482456
20
-17.7790397804842
30
0
41
1
10
-15.1153846319395
20
-17.2478404918024
30
0
41
1
10
-15.103464372195
20
-17.1433489993089
30
0
41
1
10
-15.078527316443
20
-16.9400264405563
30
0
41
1
10
-15.0655615498257
20
-16.8415635858263
30
0
41
1
10
-15.0251621235918
20
-16.5555251551862
30
0
41
1
10
-14.9962321243493
20
-16.3772633663291
30
0
41
1
10
-14.9341804219208
20
-16.0452315264133
30
0
41
1
10
-14.9010596985852
20
-15.8914597447425
30
0
41
1
10
-14.8302320917948
20
-15.6092326334443
30
0
41
1
10
-14.7929957611703
20
-15.4826874310272
30
0
41
1
10
-14.7539030656918
20
-15.3708958298821
30
0
0
SPLINE
5
148
100
AcDbEntity
8
1
62
256
6
ByLayer
370
18
48
1
60
0
100
AcDbSpline
70
4
71
3
72
80
73
76
40
0
40
0
40
0
40
0
40
0.03125
40
0.03125
40
0.0625
40
0.0625
40
0.09375
40
0.09375
40
0.125
40
0.125
40
0.15625
40
0.15625
40
0.171875
40
0.171875
40
0.187500000000001
40
0.187500000000001
40
0.218750000000001
40
0.218750000000001
40
0.234375000000001
40
0.234375000000001
40
0.250000000000001
40
0.250000000000001
40
0.281250000000001
40
0.281250000000001
40
0.296875000000001
40
0.296875000000001
40
0.312500000000001
40
0.312500000000001
40
0.343750000000001
40
0.343750000000001
40
0.375000000000001
40
0.375000000000001
40
0.406250000000001
40
0.406250000000001
40
0.437500000000001
40
0.437500000000001
40
0.468750000000001
40
0.468750000000001
40
0.500000000000001
40
0.500000000000001
40
0.531250000000001
40
0.531250000000001
40
0.562500000000001
40
0.562500000000001
40
0.593750000000001
40
0.593750000000001
40
0.625000000000001
40
0.625000000000001
40
0.656250000000001
40
0.656250000000001
40
0.671875000000001
40
0.671875000000001
40
0.687500000000001
40
0.687500000000001
40
0.718750000000001
40
0.718750000000001
40
0.734375000000001
40
0.734375000000001
40
0.750000000000001
40
0.750000000000001
40
0.78125
40
0.78125
40
0.796875
40
0.796875
40
0.8125
40
0.8125
40
0.84375
40
0.84375
40
0.875
40
0.875
40
0.90625
40
0.90625
40
0.9375
40
0.9375
40
1
40
1
40
1
40
1
41
1
10
-16.5571104328991
20
-7.89718373531295
30
0
41
1
10
-16.5629521580267
20
-7.91622713001416
30
0
41
1
10
-16.5687276149092
20
-7.926340761235
30
0
41
1
10
-16.5801342009852
20
-7.9285868936241
30
0
41
1
10
-16.5856661526144
20
-7.92065440098977
30
0
41
1
10
-16.5963235091122
20
-7.8874912718845
30
0
41
1
10
-16.6014634593826
20
-7.86226339584471
30
0
41
1
10
-16.6113801748959
20
-7.79393359727183
30
0
41
1
10
-16.6160793675871
20
-7.75124363550867
30
0
41
1
10
-16.6248467975643
20
-7.65087910230602
30
0
41
1
10
-16.6289436770092
20
-7.59301186751401
30
0
41
1
10
-16.6346866104271
20
-7.49435741053091
30
0
41
1
10
-16.6365350747661
20
-7.45942039780815
30
0
41
1
10
-16.6400360654001
20
-7.38683955848401
30
0
41
1
10
-16.6416977416663
20
-7.34905096468987
30
0
41
1
10
-16.6464321213327
20
-7.23127415935664
30
0
41
1
10
-16.6492557933205
20
-7.14690436016289
30
0
41
1
10
-16.6530242985026
20
-7.01137106916798
30
0
41
1
10
-16.6542056499439
20
-6.96450609265128
30
0
41
1
10
-16.6563761395024
20
-6.86934816773919
30
0
41
1
10
-16.657370186839
20
-6.8209095285282
30
0
41
1
10
-16.6600934065389
20
-6.67306921478513
30
0
41
1
10
-16.6615657039647
20
-6.57115983600065
30
0
41
1
10
-16.6632790059646
20
-6.41318373270713
30
0
41
1
10
-16.6637686070741
20
-6.35941540354187
30
0
41
1
10
-16.6645677286501
20
-6.25173157624766
30
0
41
1
10
-16.6648787622363
20
-6.1977716312237
30
0
41
1
10
-16.66555578438
20
-6.03554609701942
30
0
41
1
10
-16.6656679416702
20
-5.92693707536398
30
0
41
1
10
-16.665208544835
20
-5.70879026508118
30
0
41
1
10
-16.6646275164136
20
-5.59902187170215
30
0
41
1
10
-16.6627989961682
20
-5.38652748804509
30
0
41
1
10
-16.6615518898593
20
-5.28277344468987
30
0
41
1
10
-16.6583539724822
20
-5.0802888507952
30
0
41
1
10
-16.65638582988
20
-4.98115961105208
30
0
41
1
10
-16.6518271012394
20
-4.79507510380776
30
0
41
1
10
-16.6492261938762
20
-4.70720546965012
30
0
41
1
10
-16.6433243543192
20
-4.54183690748431
30
0
41
1
10
-16.6399936723996
20
-4.46393272692674
30
0
41
1
10
-16.6327879101882
20
-4.32405362809232
30
0
41
1
10
-16.6288955587109
20
-4.261390092792
30
0
41
1
10
-16.6204786680466
20
-4.15057813690072
30
0
41
1
10
-16.6159110429378
20
-4.10218054993643
30
0
41
1
10
-16.6063785340515
20
-4.02337848642975
30
0
41
1
10
-16.6013956817917
20
-3.99254287325658
30
0
41
1
10
-16.5909684230075
20
-3.94787485443072
30
0
41
1
10
-16.5854710962442
20
-3.93406617802543
30
0
41
1
10
-16.5743159216765
20
-3.92473254016065
30
0
41
1
10
-16.5686475719037
20
-3.92896334389118
30
0
41
1
10
-16.5600138449804
20
-3.94849328146313
30
0
41
1
10
-16.5571141023244
20
-3.95721137196009
30
0
41
1
10
-16.551272229446
20
-3.97917090413622
30
0
41
1
10
-16.5483275879653
20
-3.99245016179881
30
0
41
1
10
-16.5395972251773
20
-4.03836645072394
30
0
41
1
10
-16.5338597779875
20
-4.07721410248047
30
0
41
1
10
-16.5254045124668
20
-4.14763305950552
30
0
41
1
10
-16.5226114480182
20
-4.17314069073919
30
0
41
1
10
-16.5170832598362
20
-4.22831412707961
30
0
41
1
10
-16.5143391274591
20
-4.2581033678849
30
0
41
1
10
-16.5063474163815
20
-4.35222644809619
30
0
41
1
10
-16.5012981629632
20
-4.42162482742242
30
0
41
1
10
-16.4941755504548
20
-4.53548196191184
30
0
41
1
10
-16.4918769191183
20
-4.57506910720392
30
0
41
1
10
-16.4874410918887
20
-4.65757626847423
30
0
41
1
10
-16.4852947857038
20
-4.70070772903034
30
0
41
1
10
-16.479208803334
20
-4.8332660420929
30
0
41
1
10
-16.4756070712976
20
-4.92593417168638
30
0
41
1
10
-16.4693419475853
20
-5.11963342577616
30
0
41
1
10
-16.4666667013797
20
-5.22125132780616
30
0
41
1
10
-16.4623994579872
20
-5.43069788483967
30
0
41
1
10
-16.460835009254
20
-5.53684495689171
30
0
41
1
10
-16.4588329430223
20
-5.75189542388944
30
0
41
1
10
-16.4583957567571
20
-5.86113998046332
30
0
41
1
10
-16.458864339912
20
-6.19106039079318
30
0
41
1
10
-16.4614859401444
20
-6.40460663079924
30
0
41
1
10
-16.4663385695716
20
-6.61160851593988
30
0
0
SPLINE
5
149
100
AcDbEntity
8
1
62
256
6
ByLayer
370
18
48
1
60
0
100
AcDbSpline
70
4
71
3
72
21
73
17
40
0
40
0
40
0
40
0
40
0.250000000000007
40
0.250000000000007
40
0.312500000000008
40
0.312500000000008
40
0.375000000000008
40
0.375000000000008
40
0.500000000000008
40
0.625000000000007
40
0.625000000000007
40
0.687500000000006
40
0.687500000000006
40
0.750000000000005
40
0.750000000000005
40
1
40
1
40
1
40
1
41
1
10
-16.668222177643
20
-51.7777018864083
30
0
41
1
10
-16.6576916206942
20
-51.3492136507727
30
0
41
1
10
-16.644617331508
20
-50.9642265279012
30
0
41
1
10
-16.6240398475123
20
-50.5355633621858
30
0
41
1
10
-16.619709764504
20
-50.4524978794954
30
0
41
1
10
-16.6105812581674
20
-50.2918125446069
30
0
41
1
10
-16.6057730924103
20
-50.214094582048
30
0
41
1
10
-16.5907984319463
20
-49.9923745668914
30
0
41
1
10
-16.5692516886671
20
-49.7249139924268
30
0
41
1
10
-16.5442055617225
20
-49.5122930526709
30
0
41
1
10
-16.5239451641877
20
-49.373791350263
30
0
41
1
10
-16.5169268779825
20
-49.331031396467
30
0
41
1
10
-16.5024495294528
20
-49.2531612365117
30
0
41
1
10
-16.4950246156024
20
-49.2182073808375
30
0
41
1
10
-16.456949976235
20
-49.0628924368579
30
0
41
1
10
-16.4234610110336
20
-49
30
0
41
1
10
-16.3866239092191
20
-49
30
0
0
SPLINE
5
14A
100
AcDbEntity
8
1
62
256
6
ByLayer
370
18
48
1
60
0
100
AcDbSpline
70
4
71
3
72
14
73
10
40
0
40
0
40
0
40
0
40
0.25
40
0.25
40
0.5
40
0.5
40
0.75
40
0.75
40
1
40
1
40
1
40
1
41
1
10
-16.76673561641
20
-57.5061871441522
30
0
41
1
10
-16.7667393917152
20
-57.5373883925499
30
0
41
1
10
-16.7667103941908
20
-57.5681126207579
30
0
41
1
10
-16.7665883070767
20
-57.6286426627125
30
0
41
1
10
-16.7664935236575
20
-57.6587741700005
30
0
41
1
10
-16.7662410803545
20
-57.7160372737137
30
0
41
1
10
-16.7660842902656
20
-57.7432215028101
30
0
41
1
10
-16.7657048455835
20
-57.7946960123288
30
0
41
1
10
-16.7654810635169
20
-57.8189516155741
30
0
41
1
10
-16.7652309060551
20
-57.8406582798638
30
0
0
SPLINE
5
14B
100
AcDbEntity
8
1
62
256
6
ByLayer
370
18
48
1
60
0
100
AcDbSpline
70
4
71
3
72
8
73
4
40
0
40
0
40
0
40
0
40
1
40
1
40
1
40
1
41
1
10
-16.765671211611
20
-46.2352227755626
30
0
41
1
10
-16.7654566453906
20
-46.391834724329
30
0
41
1
10
-16.7653567653413
20
-46.5490961171163
30
0
41
1
10
-16.7653773800605
20
-46.70700862211
30
0
0
SPLINE
5
14C
100
AcDbEntity
8
1
62
256
6
ByLayer
370
18
48
1
60
0
100
AcDbSpline
70
4
71
3
72
8
73
4
40
0
40
0
40
0
40
0
40
1
40
1
40
1
40
1
41
1
10
-16.7702824641666
20
-43.1255710920715
30
0
41
1
10
-16.7695270339385
20
-43.3513661259421
30
0
41
1
10
-16.7689515601503
20
-43.585712094824
30
0
41
1
10
-16.7686775478609
20
-43.8285731001893
30
0
0
SPLINE
5
14D
100
AcDbEntity
8
1
62
256
6
ByLayer
370
18
48
1
60
0
100
AcDbSpline
70
4
71
3
72
24
73
20
40
0
40
0
40
0
40
0
40
0.144258450677475
40
0.144258450677475
40
0.216387676016212
40
0.216387676016212
40
0.28851690135495
40
0.28851690135495
40
0.432775352032415
40
0.432775352032415
40
0.577033802709881
40
0.577033802709881
40
0.721292253387346
40
0.721292253387346
40
0.793421478726079
40
0.793421478726079
40
0.865550704064812
40
0.865550704064812
40
1
40
1
40
1
40
1
41
1
10
-16.7702824641666
20
-41.25
30
0
41
1
10
-16.7702824641666
20
-41.1509589839815
30
0
41
1
10
-16.7703605819089
20
-41.0535721621957
30
0
41
1
10
-16.7705820099089
20
-40.9098717019576
30
0
41
1
10
-16.7706731712032
20
-40.8623711233658
30
0
41
1
10
-16.7708876145256
20
-40.7681872994202
30
0
41
1
10
-16.77101145372
20
-40.7213742628154
30
0
41
1
10
-16.7714167583478
20
-40.5851957345241
30
0
41
1
10
-16.7717339313215
20
-40.4990759643593
30
0
41
1
10
-16.7724146979671
20
-40.3360830327331
30
0
41
1
10
-16.772780603611
20
-40.2589000977635
30
0
41
1
10
-16.7734732427163
20
-40.1205388394544
30
0
41
1
10
-16.7738036272941
20
-40.0584457798013
30
0
41
1
10
-16.7742326664677
20
-39.9761879359652
30
0
41
1
10
-16.7743642499688
20
-39.9506400624925
30
0
41
1
10
-16.7745929459751
20
-39.9043327030996
30
0
41
1
10
-16.7746909162509
20
-39.8834120667481
30
0
41
1
10
-16.7749175606733
20
-39.8297928238091
30
0
41
1
10
-16.7749996713401
20
-39.8023898994184
30
0
41
1
10
-16.7749999890322
20
-39.7831525206893
30
0
0
SPLINE
5
14E
100
AcDbEntity
8
1
62
256
6
ByLayer
370
18
48
1
60
0
100
AcDbSpline
70
4
71
3
72
34
73
30
40
0
40
0
40
0
40
0
40
0.0706498398448402
40
0.0706498398448402
40
0.144320082005171
40
0.144320082005171
40
0.181155203085337
40
0.181155203085337
40
0.217990324165502
40
0.217990324165502
40
0.291660566325831
40
0.291660566325831
40
0.328495687405996
40
0.328495687405996
40
0.365330808486161
40
0.365330808486161
40
0.43900105064649
40
0.43900105064649
40
0.512671292806819
40
0.512671292806819
40
0.660011777127478
40
0.660011777127478
40
0.807352261448136
40
0.807352261448136
40
0.881022503608465
40
0.881022503608465
40
0.954692745768794
40
0.954692745768794
40
1
40
1
40
1
40
1
41
1
10
-16.7749996129733
20
-8.35370686145475
30
0
41
1
10
-16.7749929138036
20
-8.40067689091123
30
0
41
1
10
-16.7748995345102
20
-8.45550509256947
30
0
41
1
10
-16.7745814957101
20
-8.5799105737714
30
0
41
1
10
-16.7743533183773
20
-8.64991103175348
30
0
41
1
10
-16.7739553264487
20
-8.76451380309246
30
0
41
1
10
-16.7738133155863
20
-8.8043228614101
30
0
41
1
10
-16.7735173597493
20
-8.88722955319514
30
0
41
1
10
-16.7733629670813
20
-8.9304609396093
30
0
41
1
10
-16.7729004776579
20
-9.06283247390888
30
0
41
1
10
-16.7725910223305
20
-9.1552737864817
30
0
41
1
10
-16.7721621851654
20
-9.30009520947229
30
0
41
1
10
-16.7720250563017
20
-9.34940065035536
30
0
41
1
10
-16.7717679709478
20
-9.45011437222178
30
0
41
1
10
-16.7716475670048
20
-9.50176257013007
30
0
41
1
10
-16.7713247581848
20
-9.65758045281419
30
0
41
1
10
-16.7711599283351
20
-9.76285459142017
30
0
41
1
10
-16.7709515636148
20
-9.9761183311461
30
0
41
1
10
-16.7709081316459
20
-10.0846695548891
30
0
41
1
10
-16.7709774424651
20
-10.4109028864879
30
0
41
1
10
-16.7712902660162
20
-10.6224841839066
30
0
41
1
10
-16.7722794100343
20
-11.0316862231954
30
0
41
1
10
-16.772927143123
20
-11.2188988737582
30
0
41
1
10
-16.7738350961708
20
-11.4736813563738
30
0
41
1
10
-16.7741188673686
20
-11.552267651459
30
0
41
1
10
-16.774589738703
20
-11.6959911308438
30
0
41
1
10
-16.7747778848388
20
-11.7613527504027
30
0
41
1
10
-16.7749579164368
20
-11.856070411331
30
0
41
1
10
-16.774996316389
20
-11.8892441116081
30
0
41
1
10
-16.7749995955659
20
-11.9193564367023
30
0
0
SPLINE
5
14F
100
AcDbEntity
8
1
62
256
6
ByLayer
370
18
48
1
60
0
100
AcDbSpline
70
2053
71
3
72
110
73
106
40
0
40
0
40
0
40
0
40
0.0312500000000014
40
0.0312500000000014
40
0.0468750000000021
40
0.0468750000000021
40
0.0625000000000028
40
0.0625000000000028
40
0.0937500000000041
40
0.0937500000000041
40
0.101562500000004
40
0.101562500000004
40
0.109375000000005
40
0.109375000000005
40
0.125000000000005
40
0.125000000000005
40
0.156250000000007
40
0.156250000000007
40
0.164062500000007
40
0.164062500000007
40
0.171875000000007
40
0.171875000000007
40
0.187500000000008
40
0.203125000000009
40
0.203125000000009
40
0.210937500000009
40
0.210937500000009
40
0.218750000000009
40
0.218750000000009
40
0.250000000000009
40
0.250000000000009
40
0.265625000000009
40
0.265625000000009
40
0.28125000000001
40
0.28125000000001
40
0.31250000000001
40
0.31250000000001
40
0.32812500000001
40
0.32812500000001
40
0.34375000000001
40
0.34375000000001
40
0.37500000000001
40
0.37500000000001
40
0.39062500000001
40
0.39062500000001
40
0.40625000000001
40
0.42187500000001
40
0.42187500000001
40
0.43750000000001
40
0.43750000000001
40
0.46875000000001
40
0.46875000000001
40
0.48437500000001
40
0.48437500000001
40
0.50000000000001
40
0.50000000000001
40
0.53125000000001
40
0.53125000000001
40
0.53906250000001
40
0.53906250000001
40
0.54687500000001
40
0.54687500000001
40
0.562500000000009
40
0.578125000000009
40
0.578125000000009
40
0.585937500000009
40
0.585937500000009
40
0.593750000000009
40
0.593750000000009
40
0.625000000000008
40
0.625000000000008
40
0.640625000000008
40
0.640625000000008
40
0.656250000000008
40
0.656250000000008
40
0.687500000000007
40
0.687500000000007
40
0.703125000000006
40
0.703125000000006
40
0.718750000000006
40
0.718750000000006
40
0.750000000000005
40
0.750000000000005
40
0.781250000000004
40
0.781250000000004
40
0.796875000000004
40
0.796875000000004
40
0.812500000000003
40
0.812500000000003
40
0.843750000000003
40
0.843750000000003
40
0.859375000000003
40
0.859375000000003
40
0.875000000000002
40
0.875000000000002
40
0.906250000000002
40
0.906250000000002
40
0.921875000000002
40
0.921875000000002
40
0.937500000000001
40
0.953125000000001
40
0.953125000000001
40
0.968750000000001
40
0.968750000000001
40
1
40
1
40
1
40
1
41
1
10
-15.8473356658884
20
-7.36729208785471
30
0
41
1
10
-15.8473356658884
20
-6.91845405389049
30
0
41
1
10
-15.8423902392266
20
-6.47721768517539
30
0
41
1
10
-15.8276892831329
20
-5.82629589427103
30
0
41
1
10
-15.8215627938301
20
-5.61115787828481
30
0
41
1
10
-15.8067294155606
20
-5.18463964139013
30
0
41
1
10
-15.7979872007892
20
-4.97289143090757
30
0
41
1
10
-15.7683027599731
20
-4.35736459933591
30
0
41
1
10
-15.7438077333466
20
-3.96836368503324
30
0
41
1
10
-15.706747841461
20
-3.50858218654631
30
0
41
1
10
-15.6990104162647
20
-3.41796137590668
30
0
41
1
10
-15.6828564355081
20
-3.23943431122783
30
0
41
1
10
-15.6744156835647
20
-3.1513030885225
30
0
41
1
10
-15.6482805067285
20
-2.89354028273843
30
0
41
1
10
-15.6297443132105
20
-2.73006289520677
30
0
41
1
10
-15.5706838821639
20
-2.26395137851554
30
0
41
1
10
-15.5267420733069
20
-1.98540879715264
30
0
41
1
10
-15.4652424863965
20
-1.67845911484119
30
0
41
1
10
-15.4525972007778
20
-1.61910955887268
30
0
41
1
10
-15.4269029410437
20
-1.50587372158111
30
0
41
1
10
-15.4138214791673
20
-1.45181557946083
30
0
41
1
10
-15.3738634778584
20
-1.29718157737952
30
0
41
1
10
-15.3186851805033
20
-1.11107555702173
30
0
41
1
10
-15.2595407295105
20
-0.964523794037206
30
0
41
1
10
-15.2136056403965
20
-0.869645002994844
30
0
41
1
10
-15.1980308520625
20
-0.8405289596638
30
0
41
1
10
-15.1663361685852
20
-0.787406468761219
30
0
41
1
10
-15.1502415932359
20
-0.763460801679855
30
0
41
1
10
-15.0692525188324
20
-0.65772831507482
30
0
41
1
10
-15.0021669860629
20
-0.616413769557198
30
0
41
1
10
-14.8980100952639
20
-0.617752271231495
30
0
41
1
10
-14.862702382553
20
-0.628824703250615
30
0
41
1
10
-14.7908857242917
20
-0.672880672518943
30
0
41
1
10
-14.7547909275481
20
-0.705659503710194
30
0
41
1
10
-14.6467717167749
20
-0.834606449744115
30
0
41
1
10
-14.5747742166196
20
-0.961291839431198
30
0
41
1
10
-14.4672669429021
20
-1.21306448658524
30
0
41
1
10
-14.4313394856464
20
-1.3079387917301
30
0
41
1
10
-14.3611357519913
20
-1.51517782461514
30
0
41
1
10
-14.3267550371631
20
-1.62767444185863
30
0
41
1
10
-14.2259197569699
20
-1.99127115204516
30
0
41
1
10
-14.1617400227493
20
-2.26821686032025
30
0
41
1
10
-14.0711242805405
20
-2.73797692199779
30
0
41
1
10
-14.0422393874343
20
-2.90184305229928
30
0
41
1
10
-13.9875993078455
20
-3.24144982238869
30
0
41
1
10
-13.9359488284135
20
-3.59365685490545
30
0
41
1
10
-13.8905317931092
20
-3.97097283919967
30
0
41
1
10
-13.8484431229029
20
-4.36116750873344
30
0
41
1
10
-13.8289833705507
20
-4.56382288916154
30
0
41
1
10
-13.7770611151697
20
-5.17926351863514
30
0
41
1
10
-13.75066492249
20
-5.60164646882723
30
0
41
1
10
-13.7237887228345
20
-6.25320115346696
30
0
41
1
10
-13.7169593204773
20
-6.47349333364861
30
0
41
1
10
-13.707787922252
20
-6.91999578631314
30
0
41
1
10
-13.7055210316688
20
-7.14247481065539
30
0
41
1
10
-13.7054584334868
20
-7.80767541047643
30
0
41
1
10
-13.7143520988414
20
-8.24818152082301
30
0
41
1
10
-13.736684861438
20
-8.7950490571171
30
0
41
1
10
-13.7417327726117
20
-8.90453933675201
30
0
41
1
10
-13.7528845123738
20
-9.12142378358436
30
0
41
1
10
-13.7589802520805
20
-9.2287416479324
30
0
41
1
10
-13.7787797970064
20
-9.54739310130338
30
0
41
1
10
-13.8092060909034
20
-9.96347177310841
30
0
41
1
10
-13.8473386484402
20
-10.3623225334937
30
0
41
1
10
-13.8787679200734
20
-10.6549429750274
30
0
41
1
10
-13.8897166566105
20
-10.7513949413809
30
0
41
1
10
-13.9125572517208
20
-10.9420887837972
30
0
41
1
10
-13.9244639499403
20
-11.0364145222808
30
0
41
1
10
-13.9856618832107
20
-11.4973635658383
30
0
41
1
10
-14.040369633011
20
-11.8363910223566
30
0
41
1
10
-14.1299260972986
20
-12.3018196117586
30
0
41
1
10
-14.1610372167384
20
-12.4497242887319
30
0
41
1
10
-14.2256991668545
20
-12.7306625604549
30
0
41
1
10
-14.2588836352481
20
-12.8620484367953
30
0
41
1
10
-14.3600075673904
20
-13.2270648628761
30
0
41
1
10
-14.4297941929865
20
-13.4331202442771
30
0
41
1
10
-14.5373441123264
20
-13.6859443957864
30
0
41
1
10
-14.573841746632
20
-13.7609883073517
30
0
41
1
10
-14.6462863692405
20
-13.8889991336226
30
0
41
1
10
-14.6823659236673
20
-13.9423701777164
30
0
41
1
10
-14.7900878813321
20
-14.071253628946
30
0
41
1
10
-14.8612064789871
20
-14.1158418460838
30
0
41
1
10
-15.0017729601559
20
-14.1186734041235
30
0
41
1
10
-15.0689857643013
20
-14.0768194058165
30
0
41
1
10
-15.165368304202
20
-13.9515639888421
30
0
41
1
10
-15.1967639736153
20
-13.8993241490136
30
0
41
1
10
-15.2581253984253
20
-13.77336635514
30
0
41
1
10
-15.2882180279582
20
-13.6991829079496
30
0
41
1
10
-15.3746167851594
20
-13.4483888437772
30
0
41
1
10
-15.4275732235811
20
-13.2432128539391
30
0
41
1
10
-15.5008219723088
20
-12.8789902340016
30
0
41
1
10
-15.524201290165
20
-12.7481080473192
30
0
41
1
10
-15.5689477862146
20
-12.4666466955837
30
0
41
1
10
-15.5899453910832
20
-12.3183893885918
30
0
41
1
10
-15.6491143894089
20
-11.8521026093484
30
0
41
1
10
-15.6835191287315
20
-11.5126176445969
30
0
41
1
10
-15.7282817405753
20
-10.9595967503327
30
0
41
1
10
-15.742083483173
20
-10.7671694117067
30
0
41
1
10
-15.7668928545352
20
-10.37579542625
30
0
41
1
10
-15.7890745382057
20
-9.97613793996956
30
0
41
1
10
-15.8063224021991
20
-9.5602154672479
30
0
41
1
10
-15.821170174627
20
-9.13607263239604
30
0
41
1
10
-15.8274082059591
20
-8.91925693024635
30
0
41
1
10
-15.8423903193319
20
-8.26023462043619
30
0
41
1
10
-15.8473356658884
20
-7.8161301218189
30
0
41
1
10
-15.8473356658884
20
-7.36729208785471
30
0
0
SPLINE
5
150
100
AcDbEntity
8
1
62
256
6
ByLayer
370
18
48
1
60
0
100
AcDbSpline
70
2053
71
3
72
110
73
106
40
0
40
0
40
0
40
0
40
0.0312499999999984
40
0.0312499999999984
40
0.0468749999999976
40
0.0468749999999976
40
0.0624999999999968
40
0.0624999999999968
40
0.0937499999999952
40
0.0937499999999952
40
0.101562499999995
40
0.101562499999995
40
0.109374999999995
40
0.109374999999995
40
0.124999999999994
40
0.124999999999994
40
0.156249999999993
40
0.156249999999993
40
0.164062499999993
40
0.164062499999993
40
0.171874999999993
40
0.171874999999993
40
0.187499999999993
40
0.203124999999992
40
0.203124999999992
40
0.210937499999993
40
0.210937499999993
40
0.218749999999993
40
0.218749999999993
40
0.249999999999993
40
0.249999999999993
40
0.265624999999993
40
0.265624999999993
40
0.281249999999993
40
0.281249999999993
40
0.312499999999993
40
0.312499999999993
40
0.328124999999993
40
0.328124999999993
40
0.343749999999993
40
0.343749999999993
40
0.374999999999993
40
0.374999999999993
40
0.390624999999994
40
0.390624999999994
40
0.406249999999994
40
0.421874999999994
40
0.421874999999994
40
0.437499999999994
40
0.437499999999994
40
0.468749999999994
40
0.468749999999994
40
0.484374999999994
40
0.484374999999994
40
0.499999999999995
40
0.499999999999995
40
0.531249999999995
40
0.531249999999995
40
0.539062499999995
40
0.539062499999995
40
0.546874999999995
40
0.546874999999995
40
0.562499999999995
40
0.578124999999995
40
0.578124999999995
40
0.585937499999995
40
0.585937499999995
40
0.593749999999995
40
0.593749999999995
40
0.624999999999996
40
0.624999999999996
40
0.640624999999996
40
0.640624999999996
40
0.656249999999996
40
0.656249999999996
40
0.687499999999997
40
0.687499999999997
40
0.703124999999997
40
0.703124999999997
40
0.718749999999997
40
0.718749999999997
40
0.749999999999997
40
0.749999999999997
40
0.781249999999998
40
0.781249999999998
40
0.796874999999998
40
0.796874999999998
40
0.812499999999998
40
0.812499999999998
40
0.843749999999999
40
0.843749999999999
40
0.859374999999999
40
0.859374999999999
40
0.874999999999999
40
0.874999999999999
40
0.906249999999999
40
0.906249999999999
40
0.921874999999999
40
0.921874999999999
40
0.937499999999999
40
0.953125
40
0.953125
40
0.96875
40
0.96875
40
1
40
1
40
1
40
1
41
1
10
-15.8473356658884
20
7.36729208785471
30
0
41
1
10
-15.8473356658884
20
7.8161301218189
30
0
41
1
10
-15.8423902392266
20
8.25736649053397
30
0
41
1
10
-15.8276892831329
20
8.90828828143836
30
0
41
1
10
-15.8215627938301
20
9.12342629742457
30
0
41
1
10
-15.8067294155606
20
9.54994453431925
30
0
41
1
10
-15.7979872007892
20
9.76169274480182
30
0
41
1
10
-15.7683027599731
20
10.3772195763735
30
0
41
1
10
-15.7438077333466
20
10.7662204906761
30
0
41
1
10
-15.7067478414609
20
11.2260019891631
30
0
41
1
10
-15.6990104162647
20
11.3166227998027
30
0
41
1
10
-15.6828564355081
20
11.4951498644815
30
0
41
1
10
-15.6744156835647
20
11.5832810871869
30
0
41
1
10
-15.6482805067285
20
11.8410438929709
30
0
41
1
10
-15.6297443132105
20
12.0045212805026
30
0
41
1
10
-15.5706838821639
20
12.4706327971938
30
0
41
1
10
-15.5267420733069
20
12.7491753785567
30
0
41
1
10
-15.4652424863965
20
13.0561250608682
30
0
41
1
10
-15.4525972007778
20
13.1154746168367
30
0
41
1
10
-15.4269029410437
20
13.2287104541283
30
0
41
1
10
-15.4138214791673
20
13.2827685962486
30
0
41
1
10
-15.3738634778584
20
13.4374025983299
30
0
41
1
10
-15.3186851805033
20
13.6235086186876
30
0
41
1
10
-15.2595407295105
20
13.7700603816722
30
0
41
1
10
-15.2136056403965
20
13.8649391727145
30
0
41
1
10
-15.1980308520625
20
13.8940552160456
30
0
41
1
10
-15.1663361685852
20
13.9471777069482
30
0
41
1
10
-15.1502415932359
20
13.9711233740295
30
0
41
1
10
-15.0692525188324
20
14.0768558606346
30
0
41
1
10
-15.0021669860629
20
14.1181704061522
30
0
41
1
10
-14.8980100952639
20
14.1168319044779
30
0
41
1
10
-14.862702382553
20
14.1057594724587
30
0
41
1
10
-14.7908857242917
20
14.0617035031904
30
0
41
1
10
-14.754790927548
20
14.0289246719992
30
0
41
1
10
-14.6467717167748
20
13.8999777259652
30
0
41
1
10
-14.5747742166196
20
13.7732923362782
30
0
41
1
10
-14.467266942902
20
13.5215196891241
30
0
41
1
10
-14.4313394856464
20
13.4266453839793
30
0
41
1
10
-14.3611357519913
20
13.2194063510942
30
0
41
1
10
-14.326755037163
20
13.1069097338508
30
0
41
1
10
-14.2259197569698
20
12.7433130236642
30
0
41
1
10
-14.1617400227493
20
12.4663673153891
30
0
41
1
10
-14.0711242805405
20
11.9966072537116
30
0
41
1
10
-14.0422393874342
20
11.8327411234101
30
0
41
1
10
-13.9875993078454
20
11.4931343533207
30
0
41
1
10
-13.935948469087
20
11.1409279402537
30
0
41
1
10
-13.8905317931092
20
10.7636113365097
30
0
41
1
10
-13.8484431229029
20
10.3734166669759
30
0
41
1
10
-13.8289833705507
20
10.1707612865478
30
0
41
1
10
-13.7770611151697
20
9.55532065707425
30
0
41
1
10
-13.75066492249
20
9.13293770688216
30
0
41
1
10
-13.7237887228345
20
8.48138302224243
30
0
41
1
10
-13.7169593204774
20
8.26109084206075
30
0
41
1
10
-13.707787922252
20
7.81458838939625
30
0
41
1
10
-13.7055210316688
20
7.59210936505397
30
0
41
1
10
-13.7054584334868
20
6.92690876523295
30
0
41
1
10
-13.7143520988414
20
6.48640265488638
30
0
41
1
10
-13.736684861438
20
5.93953511859229
30
0
41
1
10
-13.7417327726117
20
5.83004483895738
30
0
41
1
10
-13.7528845123738
20
5.61316039212502
30
0
41
1
10
-13.7589802520805
20
5.50584252777699
30
0
41
1
10
-13.7787797970064
20
5.187191074406
30
0
41
1
10
-13.809205843971
20
4.77111219767568
30
0
41
1
10
-13.8473386484401
20
4.37226164221565
30
0
41
1
10
-13.8787679200733
20
4.07964120068198
30
0
41
1
10
-13.8897166566104
20
3.98318923432848
30
0
41
1
10
-13.9125572517207
20
3.79249539191215
30
0
41
1
10
-13.9244639499403
20
3.69816965342864
30
0
41
1
10
-13.9856618832107
20
3.23722060987109
30
0
41
1
10
-14.0403696330109
20
2.89819315335279
30
0
41
1
10
-14.1299260972986
20
2.43276456395083
30
0
41
1
10
-14.1610372167383
20
2.28485988697742
30
0
41
1
10
-14.2256991668545
20
2.00392161525451
30
0
41
1
10
-14.2588836352481
20
1.87253573891402
30
0
41
1
10
-14.3600075673904
20
1.50751931283321
30
0
41
1
10
-14.4297941929865
20
1.3014639314323
30
0
41
1
10
-14.5373441123264
20
1.04863977992295
30
0
41
1
10
-14.5738417466319
20
0.973595868357648
30
0
41
1
10
-14.6462863692405
20
0.845585042086753
30
0
41
1
10
-14.6823659236673
20
0.792213997992974
30
0
41
1
10
-14.7900878813321
20
0.663330546763348
30
0
41
1
10
-14.8612064789871
20
0.618742329625547
30
0
41
1
10
-15.0017729601559
20
0.615910771585845
30
0
41
1
10
-15.0689857643012
20
0.657764769892879
30
0
41
1
10
-15.1653683042019
20
0.783020186867248
30
0
41
1
10
-15.1967639736153
20
0.835260026695721
30
0
41
1
10
-15.2581253984253
20
0.961217820569431
30
0
41
1
10
-15.2882180279582
20
1.03540126775977
30
0
41
1
10
-15.3746167851594
20
1.28619533193219
30
0
41
1
10
-15.427573223581
20
1.49137132177026
30
0
41
1
10
-15.5008219723088
20
1.85559394170778
30
0
41
1
10
-15.5242012901649
20
1.98647612839019
30
0
41
1
10
-15.5689477862145
20
2.26793748012565
30
0
41
1
10
-15.5899453910832
20
2.4161947871176
30
0
41
1
10
-15.6491143894089
20
2.88248156636095
30
0
41
1
10
-15.6835191287315
20
3.22196653111249
30
0
41
1
10
-15.7282817405753
20
3.77498742537665
30
0
41
1
10
-15.7420834831729
20
3.96741476400274
30
0
41
1
10
-15.7668928545352
20
4.35878874945942
30
0
41
1
10
-15.7890745382057
20
4.7584462357398
30
0
41
1
10
-15.8063224021991
20
5.17436870846149
30
0
41
1
10
-15.821170174627
20
5.59851154331335
30
0
41
1
10
-15.8274082059591
20
5.81532724546304
30
0
41
1
10
-15.8423903193319
20
6.47434955527319
30
0
41
1
10
-15.8473356658884
20
6.91845405389049
30
0
41
1
10
-15.8473356658884
20
7.36729208785471
30
0
0
SPLINE
5
151
100
AcDbEntity
8
1
62
256
6
ByLayer
370
18
48
1
60
0
100
AcDbSpline
70
4
71
3
72
18
73
14
40
0
40
0
40
0
40
0
40
0.124999999999995
40
0.124999999999995
40
0.24999999999999
40
0.24999999999999
40
0.374999999999985
40
0.374999999999985
40
0.49999999999998
40
0.49999999999998
40
0.74999999999999
40
0.74999999999999
40
1
40
1
40
1
40
1
41
1
10
-1.97000000000011
20
-10.5219466619723
30
0
41
1
10
-2.00255294844203
20
-10.5219466619723
30
0
41
1
10
-2.03424082660877
20
-10.5278245163216
30
0
41
1
10
-2.09072648128179
20
-10.5469448225359
30
0
41
1
10
-2.11599204396714
20
-10.5601292340882
30
0
41
1
10
-2.15994161002578
20
-10.5891193354253
30
0
41
1
10
-2.17918701939158
20
-10.6052279465907
30
0
41
1
10
-2.21328094065211
20
-10.6387004872495
30
0
41
1
10
-2.22802661797812
20
-10.6559488040721
30
0
41
1
10
-2.26745629869384
20
-10.7085606968842
30
0
41
1
10
-2.28748151435315
20
-10.7449863413768
30
0
41
1
10
-2.31848457939304
20
-10.8172611896431
30
0
41
1
10
-2.32947741486842
20
-10.8532121261898
30
0
41
1
10
-2.33686832210924
20
-10.8888105502251
30
0
0
SPLINE
5
152
100
AcDbEntity
8
SK1
62
256
6
ByLayer
370
18
48
1
60
0
100
AcDbSpline
70
4
71
3
72
8
73
4
40
0
40
0
40
0
40
0
40
1
40
1
40
1
40
1
41
1
10
-0.342769052838264
20
-9.92710219507396
30
0
41
1
10
-0.200228104510074
20
-10.0093982499618
30
0
41
1
10
-0.0693189021619105
20
-10.0849787131769
30
0
41
1
10
0.0469703231316885
20
-10.152118328704
30
0
0
SPLINE
5
153
100
AcDbEntity
8
SK1
62
256
6
ByLayer
370
18
48
1
60
0
100
AcDbSpline
70
4
71
3
72
8
73
4
40
0
40
0
40
0
40
0
40
1
40
1
40
1
40
1
41
1
10
-0.126148905032608
20
-5.55216789572145
30
0
41
1
10
-0.0001260536854772
20
-5.62492722287075
30
0
41
1
10
0.125290129204359
20
-5.69733628982294
30
0
41
1
10
0.249980947161618
20
-5.76932656713603
30
0
0
SPLINE
5
154
100
AcDbEntity
8
SK1
62
256
6
ByLayer
370
18
48
1
60
0
100
AcDbSpline
70
4
71
3
72
10
73
6
40
0
40
0
40
0
40
0
40
0.5
40
0.5
40
1
40
1
40
1
40
1
41
1
10
0.324980947161663
20
-5.89923037770376
30
0
41
1
10
0.324980947161663
20
-5.86925980150139
30
0
41
1
10
0.31541920583507
20
-5.84050503820618
30
0
41
1
10
0.287575493106886
20
-5.79678996467396
30
0
41
1
10
0.269423016056436
20
-5.78055145084602
30
0
41
1
10
0.249980947161646
20
-5.76932656713601
30
0
0
SPLINE
5
155
100
AcDbEntity
8
SK1
62
256
6
ByLayer
370
18
48
1
60
0
100
AcDbSpline
70
4
71
3
72
10
73
6
40
0
40
0
40
0
40
0
40
0.5
40
0.5
40
1
40
1
40
1
40
1
41
1
10
0.249980947161703
20
-6.23067343286391
30
0
41
1
10
0.269221301634246
20
-6.21956500902988
30
0
41
1
10
0.287683543961578
20
-6.20323581555743
30
0
41
1
10
0.315955426925655
20
-6.1584531740433
30
0
41
1
10
0.324980948528605
20
-6.12971339378615
30
0
41
1
10
0.324980947161663
20
-6.10076961521222
30
0
0
SPLINE
5
156
100
AcDbEntity
8
SK1
62
256
6
ByLayer
370
18
48
1
60
0
100
AcDbSpline
70
4
71
3
72
8
73
4
40
0
40
0
40
0
40
0
40
1
40
1
40
1
40
1
41
1
10
0.249980947161618
20
-6.23067343286397
30
0
41
1
10
0.0532711848777012
20
-6.34424386707082
30
0
41
1
10
-0.144388484030259
20
-6.45836273012276
30
0
41
1
10
-0.342769052838406
20
-6.57289780492613
30
0
0
SPLINE
5
157
100
AcDbEntity
8
SK1
62
256
6
ByLayer
370
18
48
1
60
0
100
AcDbSpline
70
4
71
3
72
18
73
14
40
0
40
0
40
0
40
0
40
0.249999999999983
40
0.249999999999983
40
0.374999999999982
40
0.374999999999982
40
0.49999999999998
40
0.49999999999998
40
0.624999999999979
40
0.624999999999979
40
0.749999999999977
40
0.749999999999977
40
1
40
1
40
1
40
1
41
1
10
-0.342769052839571
20
-6.57289780491911
30
0
41
1
10
-0.370516593263915
20
-6.58891785485204
30
0
41
1
10
-0.397303986572183
20
-6.61292698995092
30
0
41
1
10
-0.427069711749226
20
-6.6639379843231
30
0
41
1
10
-0.434841942706129
20
-6.68302567681894
30
0
41
1
10
-0.444310147221273
20
-6.72323929480854
30
0
41
1
10
-0.445902567674096
20
-6.7442018249715
30
0
41
1
10
-0.443169313479899
20
-6.78389511560462
30
0
41
1
10
-0.438900918789187
20
-6.80280522841377
30
0
41
1
10
-0.426637846290532
20
-6.83662304318065
30
0
41
1
10
-0.418504222063262
20
-6.85201367673574
30
0
41
1
10
-0.390918604963161
20
-6.89234207927842
30
0
41
1
10
-0.367782685192367
20
-6.91266056770314
30
0
41
1
10
-0.342769052829709
20
-6.92710219507944
30
0
0
SPLINE
5
158
100
AcDbEntity
8
SK1
62
256
6
ByLayer
370
18
48
1
60
0
100
AcDbSpline
70
4
71
3
72
8
73
4
40
0
40
0
40
0
40
0
40
1
40
1
40
1
40
1
41
1
10
-0.342769052829794
20
-6.92710219507885
30
0
41
1
10
-0.141559860419505
20
-7.04327037648034
30
0
41
1
10
0.0563906484607344
20
-7.15755715606858
30
0
41
1
10
0.249980947161618
20
-7.26932656713603
30
0
0
SPLINE
5
159
100
AcDbEntity
8
SK1
62
256
6
ByLayer
370
18
48
1
60
0
100
AcDbSpline
70
4
71
3
72
12
73
8
40
0
40
0
40
0
40
0
40
0.250000000000002
40
0.250000000000002
40
0.500000000000004
40
0.500000000000004
40
1
40
1
40
1
40
1
41
1
10
0.324980947162771
20
-7.39923037770149
30
0
41
1
10
0.324980947162516
20
-7.38337657086745
30
0
41
1
10
0.322450175692978
20
-7.36837825477238
30
0
41
1
10
0.31411165491005
20
-7.34142317214577
30
0
41
1
10
0.308330050423791
20
-7.32935310050169
30
0
41
1
10
0.287609551001026
20
-7.29688749110628
30
0
41
1
10
0.269931169711441
20
-7.28084483349556
30
0
41
1
10
0.249980947161618
20
-7.26932656713603
30
0
0
SPLINE
5
15A
100
AcDbEntity
8
SK1
62
256
6
ByLayer
370
18
48
1
60
0
100
AcDbSpline
70
4
71
3
72
12
73
8
40
0
40
0
40
0
40
0
40
0.500000000000018
40
0.500000000000018
40
0.750000000000009
40
0.750000000000009
40
1
40
1
40
1
40
1
41
1
10
0.249980947161959
20
-7.73067343286519
30
0
41
1
10
0.269423441542244
20
-7.71944830350108
30
0
41
1
10
0.289029564075861
20
-7.70196041488734
30
0
41
1
10
0.310297262082116
20
-7.66692217929645
30
0
41
1
10
0.315981866199223
20
-7.65376622660901
30
0
41
1
10
0.323277724085671
20
-7.62718865316549
30
0
41
1
10
0.324980946025562
20
-7.61364114856781
30
0
41
1
10
0.324980947161663
20
-7.60076963553595
30
0
0
SPLINE
5
15B
100
AcDbEntity
8
SK1
62
256
6
ByLayer
370
18
48
1
60
0
100
AcDbSpline
70
4
71
3
72
8
73
4
40
0
40
0
40
0
40
0
40
1
40
1
40
1
40
1
41
1
10
0.249980947161618
20
-7.73067343286397
30
0
41
1
10
0.0525430838767136
20
-7.84466423637974
30
0
41
1
10
-0.145053884700019
20
-7.95874689937855
30
0
41
1
10
-0.342769052838406
20
-8.07289780492613
30
0
0
SPLINE
5
15C
100
AcDbEntity
8
SK1
62
256
6
ByLayer
370
18
48
1
60
0
100
AcDbSpline
70
4
71
3
72
20
73
16
40
0
40
0
40
0
40
0
40
0.124999999999996
40
0.124999999999996
40
0.249999999999991
40
0.249999999999991
40
0.374999999999987
40
0.374999999999987
40
0.499999999999983
40
0.499999999999983
40
0.624999999999978
40
0.624999999999978
40
0.749999999999974
40
0.749999999999974
40
1
40
1
40
1
40
1
41
1
10
-0.342769052838463
20
-8.07289780491899
30
0
41
1
10
-0.358292509144548
20
-8.08186027659571
30
0
41
1
10
-0.373840112708223
20
-8.0935961735581
30
0
41
1
10
-0.402117274927349
20
-8.12302489792023
30
0
41
1
10
-0.414983786794949
20
-8.14098160453818
30
0
41
1
10
-0.434460540703299
20
-8.18137308670541
30
0
41
1
10
-0.440646639176208
20
-8.2030162989677
30
0
41
1
10
-0.44601531082543
20
-8.24454042772553
30
0
41
1
10
-0.445321800639732
20
-8.26441983775575
30
0
41
1
10
-0.439548347043996
20
-8.300392829608
30
0
41
1
10
-0.434428159406963
20
-8.31691561693782
30
0
41
1
10
-0.421597423724734
20
-8.34637979558781
30
0
41
1
10
-0.413807258685097
20
-8.35960033832481
30
0
41
1
10
-0.387312012959086
20
-8.3954483504375
30
0
41
1
10
-0.366333953146238
20
-8.41349699353788
30
0
41
1
10
-0.342769052838492
20
-8.42710219507401
30
0
0
SPLINE
5
15D
100
AcDbEntity
8
SK1
62
256
6
ByLayer
370
18
48
1
60
0
100
AcDbSpline
70
4
71
3
72
8
73
4
40
0
40
0
40
0
40
0
40
1
40
1
40
1
40
1
41
1
10
-0.342769052838406
20
-8.42710219507387
30
0
41
1
10
-0.136066482638881
20
-8.54644197962077
30
0
41
1
10
0.062536339194196
20
-8.66110537226791
30
0
41
1
10
0.249980947161618
20
-8.76932656713606
30
0
0
SPLINE
5
15E
100
AcDbEntity
8
SK1
62
256
6
ByLayer
370
18
48
1
60
0
100
AcDbSpline
70
4
71
3
72
10
73
6
40
0
40
0
40
0
40
0
40
0.5
40
0.5
40
1
40
1
40
1
40
1
41
1
10
0.324980947161663
20
-8.89923037769213
30
0
41
1
10
0.324980947159133
20
-8.86655406122375
30
0
41
1
10
0.315260525494267
20
-8.84047279882148
30
0
41
1
10
0.28846912336104
20
-8.79798193556155
30
0
41
1
10
0.270641110941739
20
-8.78125471825555
30
0
41
1
10
0.249980947161816
20
-8.76932656713572
30
0
0
SPLINE
5
15F
100
AcDbEntity
8
SK1
62
256
6
ByLayer
370
18
48
1
60
0
100
AcDbSpline
70
4
71
3
72
14
73
10
40
0
40
0
40
0
40
0
40
0.25
40
0.25
40
0.5
40
0.5
40
0.75
40
0.75
40
1
40
1
40
1
40
1
41
1
10
0.249980947161077
20
-9.23067343286613
30
0
41
1
10
0.260244164922426
20
-9.224747961329
30
0
41
1
10
0.270778577522549
20
-9.21705150636515
30
0
41
1
10
0.290763328836391
20
-9.19717036212276
30
0
41
1
10
0.299849915215702
20
-9.18511528382064
30
0
41
1
10
0.313591135543021
20
-9.15987685939754
30
0
41
1
10
0.318241784056994
20
-9.14694235130659
30
0
41
1
10
0.323900489139646
20
-9.12264559791507
30
0
41
1
10
0.324980945088157
20
-9.1114286884023
30
0
41
1
10
0.324980947161663
20
-9.10076965147607
30
0
0
SPLINE
5
160
100
AcDbEntity
8
SK1
62
256
6
ByLayer
370
18
48
1
60
0
100
AcDbSpline
70
4
71
3
72
8
73
4
40
0
40
0
40
0
40
0
40
1
40
1
40
1
40
1
41
1
10
0.249980947161333
20
-9.23067343286414
30
0
41
1
10
0.0525671006114692
20
-9.34465037031146
30
0
41
1
10
-0.145035952120594
20
-9.45873654599899
30
0
41
1
10
-0.342769052838406
20
-9.57289780492613
30
0
0
SPLINE
5
161
100
AcDbEntity
8
SK1
62
256
6
ByLayer
370
18
48
1
60
0
100
AcDbSpline
70
4
71
3
72
18
73
14
40
0
40
0
40
0
40
0
40
0.124999999999994
40
0.124999999999994
40
0.249999999999987
40
0.249999999999987
40
0.374999999999981
40
0.374999999999981
40
0.499999999999974
40
0.499999999999974
40
0.749999999999987
40
0.749999999999987
40
1
40
1
40
1
40
1
41
1
10
-0.342769052837838
20
-9.5728978049236
30
0
41
1
10
-0.361659745428625
20
-9.58380435137585
30
0
41
1
10
-0.381427263361957
20
-9.5994346114386
30
0
41
1
10
-0.415201412962347
20
-9.64040468492163
30
0
41
1
10
-0.428156283128999
20
-9.66518180396037
30
0
41
1
10
-0.442739500660707
20
-9.71115740671527
30
0
41
1
10
-0.445111268805192
20
-9.73216305181919
30
0
41
1
10
-0.444921672841446
20
-9.76989222185932
30
0
41
1
10
-0.442344734563505
20
-9.78660417650852
30
0
41
1
10
-0.4302071274534
20
-9.83277421407414
30
0
41
1
10
-0.416682839154959
20
-9.85712203954071
30
0
41
1
10
-0.383930349616662
20
-9.89812835961129
30
0
41
1
10
-0.364451801694344
20
-9.9145836541858
30
0
41
1
10
-0.34276905283869
20
-9.92710219507438
30
0
0
SPLINE
5
162
100
AcDbEntity
8
SK1
62
256
6
ByLayer
370
18
48
1
60
0
100
AcDbSpline
70
4
71
3
72
8
73
4
40
0
40
0
40
0
40
0
40
1
40
1
40
1
40
1
41
1
10
-0.342769052838293
20
9.92710219507393
30
0
41
1
10
-0.200228104510046
20
10.0093982499618
30
0
41
1
10
-0.0693189021619105
20
10.0849787131769
30
0
41
1
10
0.0469703231316885
20
10.152118328704
30
0
0
SPLINE
5
163
100
AcDbEntity
8
SK1
62
256
6
ByLayer
370
18
48
1
60
0
100
AcDbSpline
70
4
71
3
72
18
73
14
40
0
40
0
40
0
40
0
40
0.125000000000006
40
0.125000000000006
40
0.250000000000013
40
0.250000000000013
40
0.375000000000019
40
0.375000000000019
40
0.500000000000026
40
0.500000000000026
40
0.750000000000013
40
0.750000000000013
40
1
40
1
40
1
40
1
41
1
10
-0.342769052837781
20
9.57289780492357
30
0
41
1
10
-0.361659745428568
20
9.58380435137582
30
0
41
1
10
-0.381427263361871
20
9.59943461143854
30
0
41
1
10
-0.415201412962261
20
9.64040468492158
30
0
41
1
10
-0.428156283128942
20
9.66518180396031
30
0
41
1
10
-0.442739500660679
20
9.71115740671522
30
0
41
1
10
-0.445111268805164
20
9.73216305181913
30
0
41
1
10
-0.444921672841446
20
9.76989222185927
30
0
41
1
10
-0.442344734563505
20
9.78660417650846
30
0
41
1
10
-0.4302071274534
20
9.83277421407408
30
0
41
1
10
-0.416682839154959
20
9.85712203954068
30
0
41
1
10
-0.383930349616662
20
9.89812835961126
30
0
41
1
10
-0.364451801694372
20
9.91458365418578
30
0
41
1
10
-0.342769052838719
20
9.92710219507438
30
0
0
SPLINE
5
164
100
AcDbEntity
8
SK1
62
256
6
ByLayer
370
18
48
1
60
0
100
AcDbSpline
70
4
71
3
72
8
73
4
40
0
40
0
40
0
40
0
40
1
40
1
40
1
40
1
41
1
10
0.249980947161618
20
9.23067343286397
30
0
41
1
10
0.0525671006116681
20
9.34465037031134
30
0
41
1
10
-0.145035952120452
20
9.45873654599893
30
0
41
1
10
-0.342769052838349
20
9.5728978049261
30
0
0
SPLINE
5
165
100
AcDbEntity
8
SK1
62
256
6
ByLayer
370
18
48
1
60
0
100
AcDbSpline
70
4
71
3
72
14
73
10
40
0
40
0
40
0
40
0
40
0.25
40
0.25
40
0.5
40
0.5
40
0.75
40
0.75
40
1
40
1
40
1
40
1
41
1
10
0.324980947166523
20
9.1007696222826
30
0
41
1
10
0.324980947167489
20
9.11136059578072
30
0
41
1
10
0.323881994656631
20
9.1227497724874
30
0
41
1
10
0.318229425941382
20
9.14697051270775
30
0
41
1
10
0.313571777695841
20
9.15991639605673
30
0
41
1
10
0.299850214227632
20
9.18511074688462
30
0
41
1
10
0.290682009752601
20
9.19725898448246
30
0
41
1
10
0.270776707340446
20
9.21704560963474
30
0
41
1
10
0.260190127137889
20
9.2247791600609
30
0
41
1
10
0.249980947161561
20
9.23067343286823
30
0
0
SPLINE
5
166
100
AcDbEntity
8
SK1
62
256
6
ByLayer
370
18
48
1
60
0
100
AcDbSpline
70
4
71
3
72
12
73
8
40
0
40
0
40
0
40
0
40
0.500000000000033
40
0.500000000000033
40
0.750000000000016
40
0.750000000000016
40
1
40
1
40
1
40
1
41
1
10
0.249980947162186
20
8.76932656713527
30
0
41
1
10
0.270604914733156
20
8.78123382036412
30
0
41
1
10
0.288263389710124
20
8.79770683350705
30
0
41
1
10
0.308536328216064
20
8.82978294689866
30
0
41
1
10
0.314161023968097
20
8.84158814262517
30
0
41
1
10
0.322390682705617
20
8.86818056431358
30
0
41
1
10
0.324980951347356
20
8.8828859838309
30
0
41
1
10
0.324980947161691
20
8.89923041611752
30
0
0
SPLINE
5
167
100
AcDbEntity
8
SK1
62
256
6
ByLayer
370
18
48
1
60
0
100
AcDbSpline
70
4
71
3
72
8
73
4
40
0
40
0
40
0
40
0
40
1
40
1
40
1
40
1
41
1
10
-0.342769052838378
20
8.42710219507387
30
0
41
1
10
-0.136066482638853
20
8.54644197962077
30
0
41
1
10
0.0625363391942244
20
8.66110537226791
30
0
41
1
10
0.249980947161646
20
8.76932656713603
30
0
0
SPLINE
5
168
100
AcDbEntity
8
SK1
62
256
6
ByLayer
370
18
48
1
60
0
100
AcDbSpline
70
4
71
3
72
20
73
16
40
0
40
0
40
0
40
0
40
0.125000000000004
40
0.125000000000004
40
0.250000000000007
40
0.250000000000007
40
0.375000000000011
40
0.375000000000011
40
0.500000000000015
40
0.500000000000015
40
0.625000000000018
40
0.625000000000018
40
0.750000000000022
40
0.750000000000022
40
1
40
1
40
1
40
1
41
1
10
-0.342769052838463
20
8.07289780491899
30
0
41
1
10
-0.358292509144519
20
8.08186027659571
30
0
41
1
10
-0.373840112708194
20
8.09359617355813
30
0
41
1
10
-0.402117274927321
20
8.12302489792023
30
0
41
1
10
-0.414983786794949
20
8.14098160453821
30
0
41
1
10
-0.43446054070327
20
8.18137308670541
30
0
41
1
10
-0.440646639176208
20
8.2030162989677
30
0
41
1
10
-0.44601531082543
20
8.24454042772555
30
0
41
1
10
-0.445321800639732
20
8.26441983775578
30
0
41
1
10
-0.439548347043996
20
8.30039282960803
30
0
41
1
10
-0.434428159406963
20
8.31691561693782
30
0
41
1
10
-0.421597423724705
20
8.34637979558784
30
0
41
1
10
-0.413807258685068
20
8.35960033832484
30
0
41
1
10
-0.387312012959057
20
8.3954483504375
30
0
41
1
10
-0.36633395314621
20
8.4134969935379
30
0
41
1
10
-0.342769052838463
20
8.42710219507401
30
0
0
SPLINE
5
169
100
AcDbEntity
8
SK1
62
256
6
ByLayer
370
18
48
1
60
0
100
AcDbSpline
70
4
71
3
72
8
73
4
40
0
40
0
40
0
40
0
40
1
40
1
40
1
40
1
41
1
10
0.249980947161618
20
7.73067343286397
30
0
41
1
10
0.0525430838767136
20
7.84466423637974
30
0
41
1
10
-0.145053884699991
20
7.95874689937855
30
0
41
1
10
-0.342769052838378
20
8.07289780492613
30
0
0
SPLINE
5
16A
100
AcDbEntity
8
SK1
62
256
6
ByLayer
370
18
48
1
60
0
100
AcDbSpline
70
4
71
3
72
12
73
8
40
0
40
0
40
0
40
0
40
0.25
40
0.25
40
0.5
40
0.5
40
1
40
1
40
1
40
1
41
1
10
0.324980947161748
20
7.60076962228356
30
0
41
1
10
0.324980947162828
20
7.61355284176679
30
0
41
1
10
0.323278187877406
20
7.62715829572269
30
0
41
1
10
0.316025131018847
20
7.65363711598729
30
0
41
1
10
0.310349374009064
20
7.66682045254663
30
0
41
1
10
0.289065322062783
20
7.70193309425636
30
0
41
1
10
0.269481467385646
20
7.71941480226343
30
0
41
1
10
0.249980947161674
20
7.73067343286408
30
0
0
SPLINE
5
16B
100
AcDbEntity
8
SK1
62
256
6
ByLayer
370
18
48
1
60
0
100
AcDbSpline
70
4
71
3
72
10
73
6
40
0
40
0
40
0
40
0
40
0.5
40
0.5
40
1
40
1
40
1
40
1
41
1
10
0.249980947159941
20
7.2693265671343
30
0
41
1
10
0.269739875690192
20
7.28073438983972
30
0
41
1
10
0.287604165308892
20
7.29692770850383
30
0
41
1
10
0.315076899640502
20
7.3398759381873
30
0
41
1
10
0.324980951061235
20
7.36726670859454
30
0
41
1
10
0.324980947161691
20
7.39923039600365
30
0
0
SPLINE
5
16C
100
AcDbEntity
8
SK1
62
256
6
ByLayer
370
18
48
1
60
0
100
AcDbSpline
70
4
71
3
72
8
73
4
40
0
40
0
40
0
40
0
40
1
40
1
40
1
40
1
41
1
10
-0.342769052838378
20
6.92710219507387
30
0
41
1
10
-0.14155986042573
20
7.04327037647676
30
0
41
1
10
0.0563906484568122
20
7.1575571560663
30
0
41
1
10
0.249980947159884
20
7.26932656713504
30
0
0
SPLINE
5
16D
100
AcDbEntity
8
SK1
62
256
6
ByLayer
370
18
48
1
60
0
100
AcDbSpline
70
4
71
3
72
18
73
14
40
0
40
0
40
0
40
0
40
0.25
40
0.25
40
0.375000000000005
40
0.375000000000005
40
0.50000000000001
40
0.50000000000001
40
0.625000000000015
40
0.625000000000015
40
0.75000000000002
40
0.75000000000002
40
1
40
1
40
1
40
1
41
1
10
-0.342769052839543
20
6.57289780491914
30
0
41
1
10
-0.370516593263062
20
6.58891785485156
30
0
41
1
10
-0.397303986570591
20
6.61292698994956
30
0
41
1
10
-0.427069711747379
20
6.66393798431926
30
0
41
1
10
-0.434841942704452
20
6.68302567681425
30
0
41
1
10
-0.444310147220421
20
6.72323929480251
30
0
41
1
10
-0.445902567673841
20
6.74420182496479
30
0
41
1
10
-0.443169313481093
20
6.78389511559723
30
0
41
1
10
-0.438900918791148
20
6.8028052284063
30
0
41
1
10
-0.426637846293971
20
6.83662304317312
30
0
41
1
10
-0.418504222067469
20
6.85201367672838
30
0
41
1
10
-0.390918604969414
20
6.89234207927171
30
0
41
1
10
-0.367782685199927
20
6.91266056769709
30
0
41
1
10
-0.342769052838577
20
6.92710219507433
30
0
0
SPLINE
5
16E
100
AcDbEntity
8
SK1
62
256
6
ByLayer
370
18
48
1
60
0
100
AcDbSpline
70
4
71
3
72
8
73
4
40
0
40
0
40
0
40
0
40
1
40
1
40
1
40
1
41
1
10
0.249980947161618
20
6.23067343286397
30
0
41
1
10
0.0532711848777296
20
6.34424386707082
30
0
41
1
10
-0.144388484030259
20
6.45836273012276
30
0
41
1
10
-0.342769052838406
20
6.57289780492613
30
0
0
SPLINE
5
16F
100
AcDbEntity
8
SK1
62
256
6
ByLayer
370
18
48
1
60
0
100
AcDbSpline
70
4
71
3
72
10
73
6
40
0
40
0
40
0
40
0
40
0.5
40
0.5
40
1
40
1
40
1
40
1
41
1
10
0.324980947161691
20
6.10076962229394
30
0
41
1
10
0.324980947162118
20
6.12931852219359
30
0
41
1
10
0.315985583490715
20
6.1583535544857
30
0
41
1
10
0.287820516916696
20
6.20307039555914
30
0
41
1
10
0.269391712225257
20
6.21946662242931
30
0
41
1
10
0.249980947161618
20
6.23067343286397
30
0
0
SPLINE
5
170
100
AcDbEntity
8
SK1
62
256
6
ByLayer
370
18
48
1
60
0
100
AcDbSpline
70
4
71
3
72
10
73
6
40
0
40
0
40
0
40
0
40
0.5
40
0.5
40
1
40
1
40
1
40
1
41
1
10
0.249980947161646
20
5.76932656713603
30
0
41
1
10
0.269347069078094
20
5.78050760283764
30
0
41
1
10
0.287503923385998
20
5.79667268399612
30
0
41
1
10
0.31550710425006
20
5.84064795806293
30
0
41
1
10
0.324980950420439
20
5.86885663496986
30
0
41
1
10
0.324980947161691
20
5.89923039379707
30
0
0
SPLINE
5
171
100
AcDbEntity
8
SK1
62
256
6
ByLayer
370
18
48
1
60
0
100
AcDbSpline
70
4
71
3
72
8
73
4
40
0
40
0
40
0
40
0
40
1
40
1
40
1
40
1
41
1
10
-0.126148905032494
20
5.55216789572151
30
0
41
1
10
-0.000126053685392
20
5.62492722287081
30
0
41
1
10
0.125290129204387
20
5.69733628982294
30
0
41
1
10
0.249980947161618
20
5.76932656713603
30
0
0
SPLINE
5
172
100
AcDbEntity
8
1
62
256
6
ByLayer
370
18
48
1
60
0
100
AcDbSpline
70
4
71
3
72
25
73
21
40
0
40
0
40
0
40
0
40
0.124999999999999
40
0.124999999999999
40
0.249999999999998
40
0.249999999999998
40
0.374999999999996
40
0.374999999999996
40
0.437499999999997
40
0.437499999999997
40
0.499999999999997
40
0.562499999999997
40
0.562499999999997
40
0.624999999999998
40
0.624999999999998
40
0.749999999999998
40
0.749999999999998
40
0.874999999999999
40
0.874999999999999
40
1
40
1
40
1
40
1
41
1
10
-1.97000000000003
20
-17.3149584592244
30
0
41
1
10
-2.0798484204613
20
-17.3149584592244
30
0
41
1
10
-2.18760632326993
20
-17.3242083296078
30
0
41
1
10
-2.39914966504605
20
-17.3602849492816
30
0
41
1
10
-2.5039900605002
20
-17.387621022321
30
0
41
1
10
-2.70103102730639
20
-17.4576809115191
30
0
41
1
10
-2.79402476777304
20
-17.5003430667145
30
0
41
1
10
-2.92539209097527
20
-17.5755542341263
30
0
41
1
10
-2.96767110753768
20
-17.602457525216
30
0
41
1
10
-3.04777926394951
20
-17.6588137137509
30
0
41
1
10
-3.123903536944
20
-17.7179766403883
30
0
41
1
10
-3.19231230210636
20
-17.7825753209229
30
0
41
1
10
-3.25687570933999
20
-17.849883145146
30
0
41
1
10
-3.28731339866275
20
-17.8850236587282
30
0
41
1
10
-3.3712011013084
20
-17.9924919383399
30
0
41
1
10
-3.4178837752296
20
-18.0673732095141
30
0
41
1
10
-3.4935216373338
20
-18.2233420789746
30
0
41
1
10
-3.5224387556286
20
-18.3049709600562
30
0
41
1
10
-3.56046473309718
20
-18.4685393114191
30
0
41
1
10
-3.57000000000002
20
-18.5511166914247
30
0
41
1
10
-3.57000000000002
20
-18.6344920917852
30
0
0
SPLINE
5
173
100
AcDbEntity
8
1
62
256
6
ByLayer
370
18
48
1
60
0
100
AcDbSpline
70
4
71
3
72
18
73
14
40
0
40
0
40
0
40
0
40
0.249999999999998
40
0.249999999999998
40
0.374999999999998
40
0.374999999999998
40
0.499999999999998
40
0.499999999999998
40
0.749999999999999
40
0.749999999999999
40
0.874999999999999
40
0.874999999999999
40
1
40
1
40
1
40
1
41
1
10
-2.89050022118084
20
-15.3708958298821
30
0
41
1
10
-2.90306494869196
20
-15.5088903335765
30
0
41
1
10
-2.95568097999987
20
-15.6654473281714
30
0
41
1
10
-3.05992169579125
20
-15.9277863655348
30
0
41
1
10
-3.09890887586943
20
-16.02021950583
30
0
41
1
10
-3.17904418900051
20
-16.2131413339432
30
0
41
1
10
-3.2201336295422
20
-16.3134874581849
30
0
41
1
10
-3.34015536983756
20
-16.6267955420085
30
0
41
1
10
-3.41597348677897
20
-16.8518643223092
30
0
41
1
10
-3.50193749775897
20
-17.2184150871308
30
0
41
1
10
-3.52598205496045
20
-17.3454542071953
30
0
41
1
10
-3.56015381085828
20
-17.6107180732145
30
0
41
1
10
-3.57000000000002
20
-17.7473782706065
30
0
41
1
10
-3.57000000000002
20
-17.8863717273283
30
0
0
SPLINE
5
174
100
AcDbEntity
8
1
62
256
6
ByLayer
370
18
48
1
60
0
100
AcDbSpline
70
4
71
3
72
14
73
10
40
0
40
0
40
0
40
0
40
0.125
40
0.125
40
0.25
40
0.25
40
0.5
40
0.5
40
1
40
1
40
1
40
1
41
1
10
-2.33686832210807
20
-10.8888105502248
30
0
41
1
10
-2.38049319087716
20
-11.0989304348777
30
0
41
1
10
-2.41659995675028
20
-11.306444177727
30
0
41
1
10
-2.48229845583717
20
-11.7158322389435
30
0
41
1
10
-2.51160871323057
20
-11.9177205068844
30
0
41
1
10
-2.59321847171697
20
-12.5147426874957
30
0
41
1
10
-2.63930227230628
20
-12.9012977520069
30
0
41
1
10
-2.76475830531612
20
-14.0232706661023
30
0
41
1
10
-2.83141296397275
20
-14.7219588174503
30
0
41
1
10
-2.89050022118081
20
-15.3708958298821
30
0
0
SPLINE
5
175
100
AcDbEntity
8
SK1
62
256
6
ByLayer
370
18
48
1
60
0
100
AcDbSpline
70
4
71
3
72
12
73
8
40
0
40
0
40
0
40
0
40
0.249999999999999
40
0.249999999999999
40
0.499999999999998
40
0.499999999999998
40
1
40
1
40
1
40
1
41
1
10
0.324980947161635
20
-10.3992303777079
30
0
41
1
10
0.324980947162118
20
-10.382160386372
30
0
41
1
10
0.322272682190061
20
-10.36771321376
30
0
41
1
10
0.314112329532719
20
-10.3415186347891
30
0
41
1
10
0.3085602667025
20
-10.3298545571438
30
0
41
1
10
0.288558618445961
20
-10.2981073391071
30
0
41
1
10
0.271062951512931
20
-10.2814982680233
30
0
41
1
10
0.249980947161646
20
-10.2693265671361
30
0
0
SPLINE
5
176
100
AcDbEntity
8
SK1
62
256
6
ByLayer
370
18
48
1
60
0
100
AcDbSpline
70
4
71
3
72
14
73
10
40
0
40
0
40
0
40
0
40
0.25
40
0.25
40
0.5
40
0.5
40
0.75
40
0.75
40
1
40
1
40
1
40
1
41
1
10
0.249980947161589
20
-10.730673432864
30
0
41
1
10
0.261170454548648
20
-10.7242131677621
30
0
41
1
10
0.273714893758125
20
-10.7149334060329
30
0
41
1
10
0.296507637462582
20
-10.6902851252668
30
0
41
1
10
0.305604265762241
20
-10.6757872382091
30
0
41
1
10
0.317090744544714
20
-10.6507185917273
30
0
41
1
10
0.320295416587868
20
-10.6394071207653
30
0
41
1
10
0.324248578481218
20
-10.6188893781669
30
0
41
1
10
0.324980944492779
20
-10.6094813158657
30
0
41
1
10
0.324980947161635
20
-10.6007696682495
30
0
0
SPLINE
5
177
100
AcDbEntity
8
SK1
62
256
6
ByLayer
370
18
48
1
60
0
100
AcDbSpline
70
4
71
3
72
8
73
4
40
0
40
0
40
0
40
0
40
1
40
1
40
1
40
1
41
1
10
0.249980947161618
20
-10.7306734328639
30
0
41
1
10
0.052631100579589
20
-10.8446134199126
30
0
41
1
10
-0.144956402685182
20
-10.958690618111
30
0
41
1
10
-0.342769052838378
20
-11.0728978049261
30
0
0
SPLINE
5
178
100
AcDbEntity
8
SK1
62
256
6
ByLayer
370
18
48
1
60
0
100
AcDbSpline
70
4
71
3
72
22
73
18
40
0
40
0
40
0
40
0
40
0.0625000000000023
40
0.0625000000000023
40
0.125000000000004
40
0.125000000000004
40
0.187500000000007
40
0.187500000000007
40
0.250000000000009
40
0.250000000000009
40
0.375000000000004
40
0.375000000000004
40
0.499999999999998
40
0.499999999999998
40
0.749999999999999
40
0.749999999999999
40
1
40
1
40
1
40
1
41
1
10
-0.342769052838349
20
-11.0728978049261
30
0
41
1
10
-0.354050595451241
20
-11.0794112065905
30
0
41
1
10
-0.366209629257355
20
-11.0878490587058
30
0
41
1
10
-0.390520771895751
20
-11.1100338146446
30
0
41
1
10
-0.402179577389632
20
-11.1236871566761
30
0
41
1
10
-0.420239075387002
20
-11.1510567178538
30
0
41
1
10
-0.426716865430251
20
-11.1644252779558
30
0
41
1
10
-0.436131893586463
20
-11.188940397959
30
0
41
1
10
-0.439120072139275
20
-11.2000710535235
30
0
41
1
10
-0.445319628398323
20
-11.231641555031
30
0
41
1
10
-0.445676858959729
20
-11.2496418556063
30
0
41
1
10
-0.443105753875813
20
-11.2823802755193
30
0
41
1
10
-0.440018994658686
20
-11.2971638179408
30
0
41
1
10
-0.427264174779736
20
-11.3381142409963
30
0
41
1
10
-0.414383428423548
20
-11.3604758779005
30
0
41
1
10
-0.382981648139633
20
-11.398788943257
30
0
41
1
10
-0.364323351058289
20
-11.4146578151945
30
0
41
1
10
-0.342769052838378
20
-11.4271021950739
30
0
0
SPLINE
5
179
100
AcDbEntity
8
SK1
62
256
6
ByLayer
370
18
48
1
60
0
100
AcDbSpline
70
4
71
3
72
8
73
4
40
0
40
0
40
0
40
0
40
1
40
1
40
1
40
1
41
1
10
-0.342769052838378
20
-11.4271021950739
30
0
41
1
10
-0.140428826570911
20
-11.5439233791773
30
0
41
1
10
0.0572098387455355
20
-11.6580301158001
30
0
41
1
10
0.249980947161646
20
-11.7693265671361
30
0
0
SPLINE
5
17A
100
AcDbEntity
8
SK1
62
256
6
ByLayer
370
18
48
1
60
0
100
AcDbSpline
70
4
71
3
72
12
73
8
40
0
40
0
40
0
40
0
40
0.250000000000006
40
0.250000000000006
40
0.500000000000012
40
0.500000000000012
40
1
40
1
40
1
40
1
41
1
10
0.324980947161635
20
-11.8992303777034
30
0
41
1
10
0.324980947161606
20
-11.882281072652
30
0
41
1
10
0.322258331788362
20
-11.8676586519617
30
0
41
1
10
0.314110184966523
20
-11.841520265274
30
0
41
1
10
0.308588305166722
20
-11.8299276392252
30
0
41
1
10
0.288794763919782
20
-11.7984256267748
30
0
41
1
10
0.271268222819231
20
-11.7816167814671
30
0
41
1
10
0.24998094716176
20
-11.7693265671359
30
0
0
SPLINE
5
17B
100
AcDbEntity
8
SK1
62
256
6
ByLayer
370
18
48
1
60
0
100
AcDbSpline
70
4
71
3
72
18
73
14
40
0
40
0
40
0
40
0
40
0.125000000000004
40
0.125000000000004
40
0.250000000000008
40
0.250000000000008
40
0.375000000000013
40
0.375000000000013
40
0.500000000000017
40
0.500000000000017
40
0.750000000000009
40
0.750000000000009
40
1
40
1
40
1
40
1
41
1
10
0.249980947105968
20
-12.2306734328961
30
0
41
1
10
0.255633945171468
20
-12.2274096729445
30
0
41
1
10
0.261545722398694
20
-12.2235307522799
30
0
41
1
10
0.274089073361125
20
-12.2136471429456
30
0
41
1
10
0.280558475671313
20
-12.207688162703
30
0
41
1
10
0.292389202618978
20
-12.1945432345727
30
0
41
1
10
0.297726742185972
20
-12.1873734755297
30
0
41
1
10
0.306407273047256
20
-12.1735286661001
30
0
41
1
10
0.309705607901094
20
-12.1670655127171
30
0
41
1
10
0.317845872191242
20
-12.1484469794848
30
0
41
1
10
0.320694136903256
20
-12.1377750261149
30
0
41
1
10
0.324336623178056
20
-12.1179339928977
30
0
41
1
10
0.324980944532342
20
-12.1090654184484
30
0
41
1
10
0.324980947161635
20
-12.1007696698376
30
0
0
SPLINE
5
17C
100
AcDbEntity
8
SK1
62
256
6
ByLayer
370
18
48
1
60
0
100
AcDbSpline
70
4
71
3
72
8
73
4
40
0
40
0
40
0
40
0
40
1
40
1
40
1
40
1
41
1
10
0.249980947106678
20
-12.2306734328957
30
0
41
1
10
0.0527632893804935
20
-12.3445371006728
30
0
41
1
10
-0.144826582216581
20
-12.4586156662285
30
0
41
1
10
-0.342769052838349
20
-12.5728978049261
30
0
0
SPLINE
5
17D
100
AcDbEntity
8
SK1
62
256
6
ByLayer
370
18
48
1
60
0
100
AcDbSpline
70
4
71
3
72
22
73
18
40
0
40
0
40
0
40
0
40
0.0625000000000027
40
0.0625000000000027
40
0.125000000000005
40
0.125000000000005
40
0.187500000000008
40
0.187500000000008
40
0.250000000000011
40
0.250000000000011
40
0.37500000000001
40
0.37500000000001
40
0.500000000000009
40
0.500000000000009
40
0.750000000000004
40
0.750000000000004
40
1
40
1
40
1
40
1
41
1
10
-0.342769052838349
20
-12.5728978049261
30
0
41
1
10
-0.35460818183941
20
-12.5797331292418
30
0
41
1
10
-0.367641788104038
20
-12.5887969509659
30
0
41
1
10
-0.39393382083739
20
-12.6135796136967
30
0
41
1
10
-0.406050000047856
20
-12.6287545713996
30
0
41
1
10
-0.42357679683775
20
-12.6573133731199
30
0
41
1
10
-0.429373222380718
20
-12.6705238773507
30
0
41
1
10
-0.437772772863894
20
-12.6945624553124
30
0
41
1
10
-0.440407220383804
20
-12.705598953901
30
0
41
1
10
-0.445588571768383
20
-12.736119363009
30
0
41
1
10
-0.445625738411934
20
-12.7535773835824
30
0
41
1
10
-0.442516530023767
20
-12.7857570881226
30
0
41
1
10
-0.439280452881746
20
-12.8000626434377
30
0
41
1
10
-0.42642100081514
20
-12.8396056103106
30
0
41
1
10
-0.413679423890926
20
-12.8615037472977
30
0
41
1
10
-0.382525012517618
20
-12.8991707316469
30
0
41
1
10
-0.363925974973853
20
-12.9148872403836
30
0
41
1
10
-0.342769052839543
20
-12.9271021950732
30
0
0
SPLINE
5
17E
100
AcDbEntity
8
SK1
62
256
6
ByLayer
370
18
48
1
60
0
100
AcDbSpline
70
4
71
3
72
8
73
4
40
0
40
0
40
0
40
0
40
1
40
1
40
1
40
1
41
1
10
-0.342769052839486
20
-12.9271021950733
30
0
41
1
10
-0.13909345017305
20
-13.0446943591001
30
0
41
1
10
0.0585614418590694
20
-13.1588104642215
30
0
41
1
10
0.249980947161646
20
-13.2693265671361
30
0
0
SPLINE
5
17F
100
AcDbEntity
8
SK1
62
256
6
ByLayer
370
18
48
1
60
0
100
AcDbSpline
70
4
71
3
72
12
73
8
40
0
40
0
40
0
40
0
40
0.25
40
0.25
40
0.5
40
0.5
40
1
40
1
40
1
40
1
41
1
10
0.324980947161635
20
-13.3992303777037
30
0
41
1
10
0.324980947161635
20
-13.382332687634
30
0
41
1
10
0.322317549925145
20
-13.3679129498827
30
0
41
1
10
0.314174146943344
20
-13.3416620797113
30
0
41
1
10
0.308592611466139
20
-13.32992807673
30
0
41
1
10
0.288720362393804
20
-13.2983200786429
30
0
41
1
10
0.271353500686445
20
-13.2816660166669
30
0
41
1
10
0.249980947161646
20
-13.2693265671361
30
0
0
SPLINE
5
180
100
AcDbEntity
8
SK1
62
256
6
ByLayer
370
18
48
1
60
0
100
AcDbSpline
70
4
71
3
72
18
73
14
40
0
40
0
40
0
40
0
40
0.125000000000004
40
0.125000000000004
40
0.250000000000007
40
0.250000000000007
40
0.375000000000011
40
0.375000000000011
40
0.500000000000014
40
0.500000000000014
40
0.750000000000007
40
0.750000000000007
40
1
40
1
40
1
40
1
41
1
10
0.249980947185264
20
-13.7306734328503
30
0
41
1
10
0.255879787461311
20
-13.7272677358276
30
0
41
1
10
0.262132384433102
20
-13.723150251631
30
0
41
1
10
0.275412231696293
20
-13.712510163469
30
0
41
1
10
0.282361551212887
20
-13.7059304146114
30
0
41
1
10
0.294715763793505
20
-13.6916154260128
30
0
41
1
10
0.299993431987844
20
-13.6840478259869
30
0
41
1
10
0.308106196543719
20
-13.6703472663303
30
0
41
1
10
0.311189532503988
20
-13.6639225594934
30
0
41
1
10
0.318524863889877
20
-13.6461505958498
30
0
41
1
10
0.321129814062118
20
-13.6358528996718
30
0
41
1
10
0.324389075210092
20
-13.6171262393291
30
0
41
1
10
0.324980944658819
20
-13.6086863494071
30
0
41
1
10
0.324980947161635
20
-13.600769669718
30
0
0
SPLINE
5
181
100
AcDbEntity
8
SK1
62
256
6
ByLayer
370
18
48
1
60
0
100
AcDbSpline
70
4
71
3
72
8
73
4
40
0
40
0
40
0
40
0
40
1
40
1
40
1
40
1
41
1
10
0.249980947183303
20
-13.7306734328514
30
0
41
1
10
0.0530000040877781
20
-13.8444004333729
30
0
41
1
10
-0.14459542232197
20
-13.9584822060012
30
0
41
1
10
-0.342769052838378
20
-14.0728978049261
30
0
0
SPLINE
5
182
100
AcDbEntity
8
SK1
62
256
6
ByLayer
370
18
48
1
60
0
100
AcDbSpline
70
4
71
3
72
24
73
20
40
0
40
0
40
0
40
0
40
0.062500000000001
40
0.062500000000001
40
0.0937500000000025
40
0.0937500000000025
40
0.125000000000004
40
0.125000000000004
40
0.187500000000009
40
0.187500000000009
40
0.250000000000014
40
0.250000000000014
40
0.375000000000015
40
0.375000000000015
40
0.500000000000016
40
0.500000000000016
40
0.750000000000008
40
0.750000000000008
40
1
40
1
40
1
40
1
41
1
10
-0.342769052834711
20
-14.072897804918
30
0
41
1
10
-0.355492163966915
20
-14.0802434965545
30
0
41
1
10
-0.370101104686682
20
-14.0905168173619
30
0
41
1
10
-0.391579881066718
20
-14.1117885239882
30
0
41
1
10
-0.398484982044238
20
-14.1197537295974
30
0
41
1
10
-0.410274648123931
20
-14.1355431801381
30
0
41
1
10
-0.415157671611155
20
-14.1432678560081
30
0
41
1
10
-0.427372229456637
20
-14.1652254088806
30
0
41
1
10
-0.432321891040033
20
-14.1780120112318
30
0
41
1
10
-0.439549508736462
20
-14.2014461443951
30
0
41
1
10
-0.441681157637191
20
-14.2118967014105
30
0
41
1
10
-0.44578820076282
20
-14.2412797940188
30
0
41
1
10
-0.445442817618073
20
-14.2583164448053
30
0
41
1
10
-0.441818702447733
20
-14.2892602049515
30
0
41
1
10
-0.438463981017151
20
-14.3031082300083
30
0
41
1
10
-0.425407582488674
20
-14.3414669139582
30
0
41
1
10
-0.412753784859831
20
-14.3628334233235
30
0
41
1
10
-0.381951448311042
20
-14.3996431149244
30
0
41
1
10
-0.363680833357279
20
-14.4150287729628
30
0
41
1
10
-0.342769052840311
20
-14.4271021950737
30
0
0
SPLINE
5
183
100
AcDbEntity
8
SK1
62
256
6
ByLayer
370
18
48
1
60
0
100
AcDbSpline
70
4
71
3
72
8
73
4
40
0
40
0
40
0
40
0
40
1
40
1
40
1
40
1
41
1
10
-0.34276905283977
20
-14.4271021950731
30
0
41
1
10
-0.13695146537151
20
-14.5459310346019
30
0
41
1
10
0.0607307434435427
20
-14.6600629110752
30
0
41
1
10
0.249980947161646
20
-14.7693265671361
30
0
0
SPLINE
5
184
100
AcDbEntity
8
SK1
62
256
6
ByLayer
370
18
48
1
60
0
100
AcDbSpline
70
4
71
3
72
12
73
8
40
0
40
0
40
0
40
0
40
0.249999999999995
40
0.249999999999995
40
0.49999999999999
40
0.49999999999999
40
1
40
1
40
1
40
1
41
1
10
0.324980947162885
20
-14.8992303777025
30
0
41
1
10
0.324980947162743
20
-14.8822327202223
30
0
41
1
10
0.322303765072348
20
-14.8679024610084
30
0
41
1
10
0.314253239814207
20
-14.8418833678346
30
0
41
1
10
0.30877923218921
20
-14.8302966226743
30
0
41
1
10
0.289069242120036
20
-14.7987354246533
30
0
41
1
10
0.271567465529529
20
-14.781789549324
30
0
41
1
10
0.249980947163237
20
-14.7693265671343
30
0
0
SPLINE
5
185
100
AcDbEntity
8
SK1
62
256
6
ByLayer
370
18
48
1
60
0
100
AcDbSpline
70
4
71
3
72
18
73
14
40
0
40
0
40
0
40
0
40
0.125000000000008
40
0.125000000000008
40
0.250000000000017
40
0.250000000000017
40
0.375000000000025
40
0.375000000000025
40
0.500000000000034
40
0.500000000000034
40
0.750000000000017
40
0.750000000000017
40
1
40
1
40
1
40
1
41
1
10
0.24998094716932
20
-15.2306734328595
30
0
41
1
10
0.256081154466187
20
-15.227151476534
30
0
41
1
10
0.26271744572216
20
-15.2227905443193
30
0
41
1
10
0.277142436186722
20
-15.2109958839184
30
0
41
1
10
0.285001470129544
20
-15.2032301173287
30
0
41
1
10
0.297781574311472
20
-15.1875029750968
30
0
41
1
10
0.302626773518853
20
-15.1799265663383
30
0
41
1
10
0.310060604035897
20
-15.1664412681964
30
0
41
1
10
0.312734553913799
20
-15.1604407626017
30
0
41
1
10
0.319279714209984
20
-15.1434857839011
30
0
41
1
10
0.321537832798242
20
-15.1339462395638
30
0
41
1
10
0.324437343072731
20
-15.1163386422425
30
0
41
1
10
0.324980944828582
20
-15.1083205516147
30
0
41
1
10
0.324980947162771
20
-15.1007696686656
30
0
0
SPLINE
5
186
100
AcDbEntity
8
SK1
62
256
6
ByLayer
370
18
48
1
60
0
100
AcDbSpline
70
4
71
3
72
8
73
4
40
0
40
0
40
0
40
0
40
1
40
1
40
1
40
1
41
1
10
0.249980947168893
20
-15.2306734328598
30
0
41
1
10
0.0534841279736327
20
-15.344120924317
30
0
41
1
10
-0.144124364079005
20
-15.4582102403978
30
0
41
1
10
-0.342769052838378
20
-15.5728978049261
30
0
0
SPLINE
5
187
100
AcDbEntity
8
SK1
62
256
6
ByLayer
370
18
48
1
60
0
100
AcDbSpline
70
4
71
3
72
26
73
22
40
0
40
0
40
0
40
0
40
0.0312499999999991
40
0.0312499999999991
40
0.0624999999999982
40
0.0624999999999982
40
0.0937499999999973
40
0.0937499999999973
40
0.124999999999996
40
0.124999999999996
40
0.1875
40
0.1875
40
0.250000000000004
40
0.250000000000004
40
0.375000000000003
40
0.375000000000003
40
0.500000000000003
40
0.500000000000003
40
0.750000000000001
40
0.750000000000001
40
1
40
1
40
1
40
1
41
1
10
-0.342769052838378
20
-15.5728978049261
30
0
41
1
10
-0.349594124357793
20
-15.576838261805
30
0
41
1
10
-0.356954877171063
20
-15.5815885538065
30
0
41
1
10
-0.372789901199951
20
-15.5937177583002
30
0
41
1
10
-0.381285818620313
20
-15.6011915260059
30
0
41
1
10
-0.397454220776638
20
-15.6183542733494
30
0
41
1
10
-0.40460987167404
20
-15.6275380928634
30
0
41
1
10
-0.415901574081119
20
-15.6443416507405
30
0
41
1
10
-0.42028878649171
20
-15.652186781863
30
0
41
1
10
-0.430951862660209
20
-15.6737574524048
30
0
41
1
10
-0.435119125430191
20
-15.6860916729491
30
0
41
1
10
-0.441074256374037
20
-15.7083938363465
30
0
41
1
10
-0.442799242142485
20
-15.7184741707155
30
0
41
1
10
-0.445882914634154
20
-15.7469103630901
30
0
41
1
10
-0.445142323119427
20
-15.763216131862
30
0
41
1
10
-0.4410224923447
20
-15.7929385564271
30
0
41
1
10
-0.437545776439322
20
-15.8063404779236
30
0
41
1
10
-0.424260602356384
20
-15.8435596603405
30
0
41
1
10
-0.411612191613727
20
-15.8644703135801
30
0
41
1
10
-0.381069122415511
20
-15.9004060928585
30
0
41
1
10
-0.363218614943691
20
-15.9152956348876
30
0
41
1
10
-0.342769052838378
20
-15.9271021950739
30
0
0
SPLINE
5
188
100
AcDbEntity
8
SK1
62
256
6
ByLayer
370
18
48
1
60
0
100
AcDbSpline
70
4
71
3
72
8
73
4
40
0
40
0
40
0
40
0
40
1
40
1
40
1
40
1
41
1
10
-0.342769052838378
20
-15.9271021950739
30
0
41
1
10
-0.132896815745397
20
-16.048271987655
30
0
41
1
10
0.0648365548912579
20
-16.1624334024198
30
0
41
1
10
0.249980947161646
20
-16.2693265671361
30
0
0
SPLINE
5
189
100
AcDbEntity
8
SK1
62
256
6
ByLayer
370
18
48
1
60
0
100
AcDbSpline
70
4
71
3
72
12
73
8
40
0
40
0
40
0
40
0
40
0.250000000000001
40
0.250000000000001
40
0.500000000000001
40
0.500000000000001
40
1
40
1
40
1
40
1
41
1
10
0.324980947161635
20
-16.3992303777037
30
0
41
1
10
0.324980947161635
20
-16.3824490524555
30
0
41
1
10
0.322353063383275
20
-16.3681078840145
30
0
41
1
10
0.3142916343526
20
-16.3419618637763
30
0
41
1
10
0.308805749579392
20
-16.3303458305286
30
0
41
1
10
0.289084674083313
20
-16.2987466783825
30
0
41
1
10
0.271705523985588
20
-16.2818692574134
30
0
41
1
10
0.249980947161618
20
-16.2693265671361
30
0
0
SPLINE
5
18A
100
AcDbEntity
8
SK1
62
256
6
ByLayer
370
18
48
1
60
0
100
AcDbSpline
70
4
71
3
72
8
73
4
40
0
40
0
40
0
40
0
40
1
40
1
40
1
40
1
41
1
10
0.32498099999998
20
-16.4252096600956
30
0
41
1
10
0.05016120303506
20
-16.6530211087934
30
0
41
1
10
-0.224835038364716
20
-16.8807075453505
30
0
41
1
10
-0.500000000000028
20
-17.1082744424172
30
0
0
SPLINE
5
18B
100
AcDbEntity
8
SK1
62
256
6
ByLayer
370
18
48
1
60
0
100
AcDbSpline
70
4
71
3
72
8
73
4
40
0
40
0
40
0
40
0
40
1
40
1
40
1
40
1
41
1
10
0.0469703231319727
20
-10.1521183287042
30
0
41
1
10
0.115112466683087
20
-10.1914602136266
30
0
41
1
10
0.182784534593111
20
-10.230530700251
30
0
41
1
10
0.249980947161618
20
-10.2693265671361
30
0
0
SPLINE
5
18C
100
AcDbEntity
8
SK1
62
256
6
ByLayer
370
18
48
1
60
0
100
AcDbSpline
70
4
71
3
72
9
73
5
40
0
40
0
40
0
40
0
40
0.999292586041592
40
1
40
1
40
1
40
1
41
1
10
-0.342769052838264
20
18.9271021950739
30
0
41
1
10
0.0434394769975199
20
19.1500797937379
30
0
41
1
10
0.237878022121748
20
19.2623389401063
30
0
41
1
10
0.237740711892035
20
19.2622596640081
30
0
41
1
10
0.237739845780011
20
19.2622591639582
30
0
0
SPLINE
5
18D
100
AcDbEntity
8
SK1
62
256
6
ByLayer
370
18
48
1
60
0
100
AcDbSpline
70
4
71
3
72
30
73
26
40
0
40
0
40
0
40
0
40
0.015624999999996
40
0.015624999999996
40
0.0312499999999921
40
0.0312499999999921
40
0.0390624999999921
40
0.0390624999999921
40
0.0468749999999921
40
0.0468749999999921
40
0.0624999999999934
40
0.0624999999999934
40
0.0937499999999934
40
0.0937499999999934
40
0.124999999999993
40
0.124999999999993
40
0.187499999999993
40
0.187499999999993
40
0.249999999999994
40
0.249999999999994
40
0.499999999999996
40
0.499999999999996
40
0.749999999999998
40
0.749999999999998
40
1
40
1
40
1
40
1
41
1
10
-0.342769052844488
20
18.5728978049296
30
0
41
1
10
-0.347171951280075
20
18.5754398195269
30
0
41
1
10
-0.351960418968957
20
18.5784059956171
30
0
41
1
10
-0.362777228869419
20
18.5859371497908
30
0
41
1
10
-0.368887800440802
20
18.5905116721255
30
0
41
1
10
-0.379817395547889
20
18.6002003847112
30
0
41
1
10
-0.383684111845866
20
18.6038737992161
30
0
41
1
10
-0.391157562605258
20
18.611590679319
30
0
41
1
10
-0.394657280740915
20
18.6155242596522
30
0
41
1
10
-0.403675823340734
20
18.6263537691197
30
0
41
1
10
-0.407992032601811
20
18.632462271674
30
0
41
1
10
-0.418659317700474
20
18.6487351879591
30
0
41
1
10
-0.422837359929787
20
18.6569874846892
30
0
41
1
10
-0.429873212522096
20
18.6723064010643
30
0
41
1
10
-0.432448702746342
20
18.6790960893603
30
0
41
1
10
-0.438742659264307
20
18.697999306862
30
0
41
1
10
-0.441072721492361
20
18.7087665577519
30
0
41
1
10
-0.444156752008126
20
18.7287007453874
30
0
41
1
10
-0.444833293181205
20
18.737793336681
30
0
41
1
10
-0.445598279075085
20
18.7805244811046
30
0
41
1
10
-0.438596852656047
20
18.8064686815959
30
0
41
1
10
-0.41959181437565
20
18.8517667571323
30
0
41
1
10
-0.407057571212363
20
18.8706572738759
30
0
41
1
10
-0.377955530591606
20
18.9029851967484
30
0
41
1
10
-0.361336931577256
20
18.9163820252857
30
0
41
1
10
-0.342769052838293
20
18.9271021950739
30
0
0
SPLINE
5
18E
100
AcDbEntity
8
SK1
62
256
6
ByLayer
370
18
48
1
60
0
100
AcDbSpline
70
4
71
3
72
8
73
4
40
0
40
0
40
0
40
0
40
1
40
1
40
1
40
1
41
1
10
0.249980947164119
20
18.2306734328626
30
0
41
1
10
0.0602000624355696
20
18.3402434777476
30
0
41
1
10
-0.137660453241665
20
18.4544782997359
30
0
41
1
10
-0.342769052844517
20
18.5728978049297
30
0
0
SPLINE
5
18F
100
AcDbEntity
8
SK1
62
256
6
ByLayer
370
18
48
1
60
0
100
AcDbSpline
70
4
71
3
72
22
73
18
40
0
40
0
40
0
40
0
40
0.500000000000006
40
0.500000000000006
40
0.625000000000008
40
0.625000000000008
40
0.75000000000001
40
0.75000000000001
40
0.812500000000011
40
0.812500000000011
40
0.843750000000004
40
0.843750000000004
40
0.874999999999997
40
0.874999999999997
40
0.937499999999998
40
0.937499999999998
40
1
40
1
40
1
40
1
41
1
10
0.32498094716172
20
18.1007696736903
30
0
41
1
10
0.324980942713665
20
18.1137518803149
30
0
41
1
10
0.323786972692858
20
18.1278012981292
30
0
41
1
10
0.316461247037807
20
18.1508365404435
30
0
41
1
10
0.314676140574107
20
18.1557309360371
30
0
41
1
10
0.309877142831425
20
18.1666369849616
30
0
41
1
10
0.307015946514014
20
18.1725080306412
30
0
41
1
10
0.299937942812278
20
18.1838699189831
30
0
41
1
10
0.297061244389283
20
18.1881873513923
30
0
41
1
10
0.290809955665566
20
18.1961373598805
30
0
41
1
10
0.288344686571122
20
18.1990897237154
30
0
41
1
10
0.282576626494148
20
18.2053705283389
30
0
41
1
10
0.279276769685652
20
18.2086541663267
30
0
41
1
10
0.27023552933224
20
18.2169304518466
30
0
41
1
10
0.265307390124008
20
18.2206340696716
30
0
41
1
10
0.256901453626028
20
18.2265288472598
30
0
41
1
10
0.253317987424737
20
18.2287467917697
30
0
41
1
10
0.249980947164147
20
18.2306734328625
30
0
0
SPLINE
5
190
100
AcDbEntity
8
SK1
62
256
6
ByLayer
370
18
48
1
60
0
100
AcDbSpline
70
4
71
3
72
12
73
8
40
0
40
0
40
0
40
0
40
0.499999999999999
40
0.499999999999999
40
0.75
40
0.75
40
1
40
1
40
1
40
1
41
1
10
0.249980947161703
20
17.7693265671361
30
0
41
1
10
0.272414825236695
20
17.7822787726816
30
0
41
1
10
0.289849679960611
20
17.7996215327343
30
0
41
1
10
0.309329969157915
20
17.8313737108875
30
0
41
1
10
0.31467252235413
20
17.8429531170883
30
0
41
1
10
0.322455514656241
20
17.8686997670906
30
0
41
1
10
0.32498094716172
20
17.8827821226977
30
0
41
1
10
0.32498094716172
20
17.8992303777037
30
0
0
SPLINE
5
191
100
AcDbEntity
8
SK1
62
256
6
ByLayer
370
18
48
1
60
0
100
AcDbSpline
70
4
71
3
72
8
73
4
40
0
40
0
40
0
40
0
40
1
40
1
40
1
40
1
41
1
10
-0.342769052838264
20
17.4271021950739
30
0
41
1
10
-0.122384349147353
20
17.5543413630751
30
0
41
1
10
0.0754822092164034
20
17.6685796738101
30
0
41
1
10
0.249980947161731
20
17.7693265671361
30
0
0
SPLINE
5
192
100
AcDbEntity
8
SK1
62
256
6
ByLayer
370
18
48
1
60
0
100
AcDbSpline
70
4
71
3
72
28
73
24
40
0
40
0
40
0
40
0
40
0.0312500000000019
40
0.0312500000000019
40
0.0468749999999989
40
0.0468749999999989
40
0.0624999999999959
40
0.0624999999999959
40
0.093749999999993
40
0.093749999999993
40
0.12499999999999
40
0.12499999999999
40
0.187499999999991
40
0.187499999999991
40
0.249999999999992
40
0.249999999999992
40
0.374999999999992
40
0.374999999999992
40
0.499999999999991
40
0.499999999999991
40
0.749999999999995
40
0.749999999999995
40
1
40
1
40
1
40
1
41
1
10
-0.342769052838264
20
17.0728978049261
30
0
41
1
10
-0.350219788009241
20
17.0771994888827
30
0
41
1
10
-0.358549452454525
20
17.0825539799039
30
0
41
1
10
-0.37286421803546
20
17.093979869987
30
0
41
1
10
-0.377987963333538
20
17.0984317564579
30
0
41
1
10
-0.388166271881602
20
17.1083280814276
30
0
41
1
10
-0.39318354258549
20
17.1137579495875
30
0
41
1
10
-0.406502037973297
20
17.1297408233558
30
0
41
1
10
-0.412744887295219
20
17.1393052009069
30
0
41
1
10
-0.422483911889913
20
17.1561710776415
30
0
41
1
10
-0.42601649971698
20
17.1635944235195
30
0
41
1
10
-0.434672051565286
20
17.1840851392542
30
0
41
1
10
-0.437986803453384
20
17.1957274100747
30
0
41
1
10
-0.442636637049816
20
17.2170226031547
30
0
41
1
10
-0.443877476648453
20
17.2266145363653
30
0
41
1
10
-0.445780954070017
20
17.2535938389764
30
0
41
1
10
-0.444634637795815
20
17.269194360565
30
0
41
1
10
-0.439866649629693
20
17.2978762065492
30
0
41
1
10
-0.436160069704812
20
17.3109072275389
30
0
41
1
10
-0.422428671235508
20
17.3468944380384
30
0
41
1
10
-0.409842691366492
20
17.3669156018501
30
0
41
1
10
-0.37994559813302
20
17.4013274297263
30
0
41
1
10
-0.362582983642852
20
17.4156626167902
30
0
41
1
10
-0.342769052838293
20
17.4271021950739
30
0
0
SPLINE
5
193
100
AcDbEntity
8
SK1
62
256
6
ByLayer
370
18
48
1
60
0
100
AcDbSpline
70
4
71
3
72
8
73
4
40
0
40
0
40
0
40
0
40
1
40
1
40
1
40
1
41
1
10
0.249980947157042
20
16.7306734328667
30
0
41
1
10
0.0547247618711708
20
16.8434046440024
30
0
41
1
10
-0.142923239003096
20
16.9575167705119
30
0
41
1
10
-0.342769052838293
20
17.0728978049261
30
0
0
SPLINE
5
194
100
AcDbEntity
8
SK1
62
256
6
ByLayer
370
18
48
1
60
0
100
AcDbSpline
70
4
71
3
72
20
73
16
40
0
40
0
40
0
40
0
40
0.249999999999999
40
0.249999999999999
40
0.499999999999998
40
0.499999999999998
40
0.624999999999997
40
0.624999999999997
40
0.749999999999997
40
0.749999999999997
40
0.812499999999996
40
0.812499999999996
40
0.874999999999996
40
0.874999999999996
40
1
40
1
40
1
40
1
41
1
10
0.32498094716172
20
16.6007696742417
30
0
41
1
10
0.324980944714127
20
16.6078374423781
30
0
41
1
10
0.324500996960751
20
16.6153798571388
30
0
41
1
10
0.321956071445726
20
16.6318825954065
30
0
41
1
10
0.319966113323687
20
16.6407981042996
30
0
41
1
10
0.314369069028942
20
16.6564624937186
30
0
41
1
10
0.312057921716672
20
16.662085122696
30
0
41
1
10
0.305703740350054
20
16.6746698177185
30
0
41
1
10
0.301711034698172
20
16.6816998750711
30
0
41
1
10
0.292329218117686
20
16.6943481376134
30
0
41
1
10
0.288588938352319
20
16.6989035673295
30
0
41
1
10
0.280264486169756
20
16.7077856175684
30
0
41
1
10
0.275807648856812
20
16.7119602336366
30
0
41
1
10
0.263376019538555
20
16.7224405493047
30
0
41
1
10
0.256236858595742
20
16.7270615807138
30
0
41
1
10
0.249980947157098
20
16.7306734328666
30
0
0
SPLINE
5
195
100
AcDbEntity
8
SK1
62
256
6
ByLayer
370
18
48
1
60
0
100
AcDbSpline
70
4
71
3
72
12
73
8
40
0
40
0
40
0
40
0
40
0.499999999999998
40
0.499999999999998
40
0.749999999999999
40
0.749999999999999
40
1
40
1
40
1
40
1
41
1
10
0.249980947162498
20
16.2693265671352
30
0
41
1
10
0.27179039097669
20
16.2819182553923
30
0
41
1
10
0.289240949627981
20
16.2989278931105
30
0
41
1
10
0.308904019991473
20
16.3305383497192
30
0
41
1
10
0.314354285966402
20
16.3421324331949
30
0
41
1
10
0.322353048377494
20
16.3681407231553
30
0
41
1
10
0.324980947161691
20
16.382518693589
30
0
41
1
10
0.32498094716172
20
16.3992303777035
30
0
0
SPLINE
5
196
100
AcDbEntity
8
SK1
62
256
6
ByLayer
370
18
48
1
60
0
100
AcDbSpline
70
4
71
3
72
8
73
4
40
0
40
0
40
0
40
0
40
1
40
1
40
1
40
1
41
1
10
-0.342769052838264
20
15.9271021950739
30
0
41
1
10
-0.132896815745312
20
16.048271987655
30
0
41
1
10
0.0648365548913432
20
16.1624334024198
30
0
41
1
10
0.249980947161731
20
16.2693265671361
30
0
0
SPLINE
5
197
100
AcDbEntity
8
SK1
62
256
6
ByLayer
370
18
48
1
60
0
100
AcDbSpline
70
4
71
3
72
26
73
22
40
0
40
0
40
0
40
0
40
0.0312499999999997
40
0.0312499999999997
40
0.0624999999999993
40
0.0624999999999993
40
0.093749999999999
40
0.093749999999999
40
0.124999999999999
40
0.124999999999999
40
0.187500000000004
40
0.187500000000004
40
0.250000000000009
40
0.250000000000009
40
0.37500000000001
40
0.37500000000001
40
0.500000000000012
40
0.500000000000012
40
0.750000000000006
40
0.750000000000006
40
1
40
1
40
1
40
1
41
1
10
-0.342769052838264
20
15.5728978049261
30
0
41
1
10
-0.349594124357708
20
15.576838261805
30
0
41
1
10
-0.356954877170978
20
15.5815885538065
30
0
41
1
10
-0.372789901199838
20
15.5937177583002
30
0
41
1
10
-0.381285818620199
20
15.6011915260059
30
0
41
1
10
-0.397454220776552
20
15.6183542733494
30
0
41
1
10
-0.404609871673955
20
15.6275380928634
30
0
41
1
10
-0.415901574081005
20
15.6443416507405
30
0
41
1
10
-0.420288786491597
20
15.6521867818629
30
0
41
1
10
-0.430951862660095
20
15.6737574524048
30
0
41
1
10
-0.435119125430106
20
15.686091672949
30
0
41
1
10
-0.441074256373923
20
15.7083938363465
30
0
41
1
10
-0.442799242142371
20
15.7184741707155
30
0
41
1
10
-0.445882914634069
20
15.7469103630901
30
0
41
1
10
-0.445142323119342
20
15.763216131862
30
0
41
1
10
-0.441022492344615
20
15.7929385564271
30
0
41
1
10
-0.437545776439236
20
15.8063404779236
30
0
41
1
10
-0.424260602356298
20
15.8435596603405
30
0
41
1
10
-0.411612191613614
20
15.8644703135801
30
0
41
1
10
-0.381069122415426
20
15.9004060928585
30
0
41
1
10
-0.363218614943605
20
15.9152956348876
30
0
41
1
10
-0.342769052838293
20
15.9271021950739
30
0
0
SPLINE
5
198
100
AcDbEntity
8
SK1
62
256
6
ByLayer
370
18
48
1
60
0
100
AcDbSpline
70
4
71
3
72
8
73
4
40
0
40
0
40
0
40
0
40
1
40
1
40
1
40
1
41
1
10
0.249980947159685
20
15.2306734328651
30
0
41
1
10
0.0534841279674936
20
15.3441209243206
30
0
41
1
10
-0.144124364082046
20
15.4582102403996
30
0
41
1
10
-0.342769052838293
20
15.5728978049261
30
0
0
SPLINE
5
199
100
AcDbEntity
8
SK1
62
256
6
ByLayer
370
18
48
1
60
0
100
AcDbSpline
70
4
71
3
72
18
73
14
40
0
40
0
40
0
40
0
40
0.250000000000006
40
0.250000000000006
40
0.500000000000011
40
0.500000000000011
40
0.625000000000008
40
0.625000000000008
40
0.750000000000006
40
0.750000000000006
40
0.875000000000003
40
0.875000000000003
40
1
40
1
40
1
40
1
41
1
10
0.324980947177011
20
15.1007696733176
30
0
41
1
10
0.324980944602714
20
15.1083379719955
30
0
41
1
10
0.324432712680647
20
15.116420417677
30
0
41
1
10
0.32149464679415
20
15.1341539514463
30
0
41
1
10
0.319182438023063
20
15.1438135323922
30
0
41
1
10
0.312597598822208
20
15.1607560309805
30
0
41
1
10
0.309874417347174
20
15.1668188717233
30
0
41
1
10
0.302439168977003
20
15.1802249766799
30
0
41
1
10
0.297509190612345
20
15.1878765947346
30
0
41
1
10
0.284807946299452
20
15.2034284034641
30
0
41
1
10
0.27692257905025
20
15.2111916961387
30
0
41
1
10
0.262620965309225
20
15.2228530278961
30
0
41
1
10
0.256002024866234
20
15.2271971620468
30
0
41
1
10
0.249980947147122
20
15.2306734328874
30
0
0
SPLINE
5
19A
100
AcDbEntity
8
SK1
62
256
6
ByLayer
370
18
48
1
60
0
100
AcDbSpline
70
4
71
3
72
12
73
8
40
0
40
0
40
0
40
0
40
0.499999999999999
40
0.499999999999999
40
0.749999999999999
40
0.749999999999999
40
1
40
1
40
1
40
1
41
1
10
0.249980947161703
20
14.7693265671361
30
0
41
1
10
0.271516642800975
20
14.7817602068106
30
0
41
1
10
0.289005300634472
20
14.7986536555468
30
0
41
1
10
0.308758860239408
20
14.8302537328973
30
0
41
1
10
0.314253887073931
20
14.8418692188385
30
0
41
1
10
0.322334268365751
20
14.8680173504829
30
0
41
1
10
0.32498094716172
20
14.8824182338689
30
0
41
1
10
0.32498094716172
20
14.8992303777037
30
0
0
SPLINE
5
19B
100
AcDbEntity
8
SK1
62
256
6
ByLayer
370
18
48
1
60
0
100
AcDbSpline
70
4
71
3
72
8
73
4
40
0
40
0
40
0
40
0
40
1
40
1
40
1
40
1
41
1
10
-0.342769052839685
20
14.4271021950731
30
0
41
1
10
-0.136951465371425
20
14.5459310346019
30
0
41
1
10
0.0607307434436279
20
14.6600629110752
30
0
41
1
10
0.249980947161703
20
14.7693265671361
30
0
0
SPLINE
5
19C
100
AcDbEntity
8
SK1
62
256
6
ByLayer
370
18
48
1
60
0
100
AcDbSpline
70
4
71
3
72
24
73
20
40
0
40
0
40
0
40
0
40
0.0624999999999906
40
0.0624999999999906
40
0.0937499999999886
40
0.0937499999999886
40
0.124999999999987
40
0.124999999999987
40
0.187499999999983
40
0.187499999999983
40
0.249999999999979
40
0.249999999999979
40
0.374999999999983
40
0.374999999999983
40
0.499999999999987
40
0.499999999999987
40
0.749999999999994
40
0.749999999999994
40
1
40
1
40
1
40
1
41
1
10
-0.342769052834598
20
14.072897804918
30
0
41
1
10
-0.355492163966829
20
14.0802434965545
30
0
41
1
10
-0.370101104686597
20
14.0905168173619
30
0
41
1
10
-0.391579881066661
20
14.1117885239882
30
0
41
1
10
-0.398484982044153
20
14.1197537295974
30
0
41
1
10
-0.410274648123874
20
14.1355431801381
30
0
41
1
10
-0.41515767161107
20
14.1432678560082
30
0
41
1
10
-0.427372229456552
20
14.1652254088806
30
0
41
1
10
-0.432321891039976
20
14.1780120112319
30
0
41
1
10
-0.439549508736377
20
14.2014461443951
30
0
41
1
10
-0.441681157637106
20
14.2118967014105
30
0
41
1
10
-0.445788200762735
20
14.2412797940188
30
0
41
1
10
-0.445442817617987
20
14.2583164448053
30
0
41
1
10
-0.441818702447648
20
14.2892602049515
30
0
41
1
10
-0.438463981017065
20
14.3031082300083
30
0
41
1
10
-0.425407582488589
20
14.3414669139582
30
0
41
1
10
-0.412753784859746
20
14.3628334233235
30
0
41
1
10
-0.381951448310957
20
14.3996431149244
30
0
41
1
10
-0.363680833357193
20
14.4150287729628
30
0
41
1
10
-0.342769052840225
20
14.4271021950737
30
0
0
SPLINE
5
19D
100
AcDbEntity
8
SK1
62
256
6
ByLayer
370
18
48
1
60
0
100
AcDbSpline
70
4
71
3
72
8
73
4
40
0
40
0
40
0
40
0
40
1
40
1
40
1
40
1
41
1
10
0.249980947161731
20
13.7306734328639
30
0
41
1
10
0.0530000040733682
20
13.8444004333812
30
0
41
1
10
-0.144595422329132
20
13.9584822060053
30
0
41
1
10
-0.342769052838293
20
14.0728978049261
30
0
0
SPLINE
5
19E
100
AcDbEntity
8
SK1
62
256
6
ByLayer
370
18
48
1
60
0
100
AcDbSpline
70
4
71
3
72
18
73
14
40
0
40
0
40
0
40
0
40
0.249999999999976
40
0.249999999999976
40
0.499999999999952
40
0.499999999999952
40
0.624999999999964
40
0.624999999999964
40
0.749999999999976
40
0.749999999999976
40
0.874999999999988
40
0.874999999999988
40
1
40
1
40
1
40
1
41
1
10
0.324980947162288
20
13.6007696670361
30
0
41
1
10
0.324980944779611
20
13.6087580826515
30
0
41
1
10
0.324375091817643
20
13.6172515822333
30
0
41
1
10
0.321101652115999
20
13.6359691257659
30
0
41
1
10
0.318480845447794
20
13.6462848088004
30
0
41
1
10
0.311140598526833
20
13.6640271324653
30
0
41
1
10
0.308065534855785
20
13.67042906028
30
0
41
1
10
0.299905142428827
20
13.684183591263
30
0
41
1
10
0.294738072321394
20
13.6915917814673
30
0
41
1
10
0.28230951572246
20
13.7059884988997
30
0
41
1
10
0.275307003668388
20
13.7125990917557
30
0
41
1
10
0.262137194402413
20
13.7231417450231
30
0
41
1
10
0.255819243409462
20
13.727302690991
30
0
41
1
10
0.249980947137743
20
13.7306734329128
30
0
0
SPLINE
5
19F
100
AcDbEntity
8
SK1
62
256
6
ByLayer
370
18
48
1
60
0
100
AcDbSpline
70
4
71
3
72
12
73
8
40
0
40
0
40
0
40
0
40
0.50000000000001
40
0.50000000000001
40
0.750000000000005
40
0.750000000000005
40
1
40
1
40
1
40
1
41
1
10
0.249980947161731
20
13.2693265671361
30
0
41
1
10
0.271365093900812
20
13.2816727100123
30
0
41
1
10
0.288886118499505
20
13.298502388523
30
0
41
1
10
0.308718668188703
20
13.3301698901522
30
0
41
1
10
0.31422032107335
20
13.3417949276563
30
0
41
1
10
0.322302273623137
20
13.3678797646459
30
0
41
1
10
0.32498094716172
20
13.3822418326898
30
0
41
1
10
0.32498094716172
20
13.3992303777037
30
0
0
SPLINE
5
1A0
100
AcDbEntity
8
SK1
62
256
6
ByLayer
370
18
48
1
60
0
100
AcDbSpline
70
4
71
3
72
8
73
4
40
0
40
0
40
0
40
0
40
1
40
1
40
1
40
1
41
1
10
-0.342769052839401
20
12.9271021950733
30
0
41
1
10
-0.139093450172965
20
13.0446943591001
30
0
41
1
10
0.0585614418591547
20
13.1588104642215
30
0
41
1
10
0.249980947161731
20
13.2693265671361
30
0
0
SPLINE
5
1A1
100
AcDbEntity
8
SK1
62
256
6
ByLayer
370
18
48
1
60
0
100
AcDbSpline
70
4
71
3
72
22
73
18
40
0
40
0
40
0
40
0
40
0.0625000000000003
40
0.0625000000000003
40
0.125000000000001
40
0.125000000000001
40
0.187500000000001
40
0.187500000000001
40
0.250000000000001
40
0.250000000000001
40
0.375000000000002
40
0.375000000000002
40
0.500000000000002
40
0.500000000000002
40
0.750000000000001
40
0.750000000000001
40
1
40
1
40
1
40
1
41
1
10
-0.342769052838293
20
12.5728978049261
30
0
41
1
10
-0.354608181839751
20
12.579733129242
30
0
41
1
10
-0.3676417881058
20
12.5887969509676
30
0
41
1
10
-0.393933820836594
20
12.6135796136962
30
0
41
1
10
-0.406050000047912
20
12.6287545713999
30
0
41
1
10
-0.423576796837182
20
12.6573133731191
30
0
41
1
10
-0.429373222380349
20
12.6705238773501
30
0
41
1
10
-0.437772772863468
20
12.6945624553113
30
0
41
1
10
-0.440407220383491
20
12.7055989538999
30
0
41
1
10
-0.445588571768269
20
12.7361193630082
30
0
41
1
10
-0.445625738411877
20
12.7535773835817
30
0
41
1
10
-0.442516530023795
20
12.7857570881221
30
0
41
1
10
-0.439280452881775
20
12.8000626434373
30
0
41
1
10
-0.426421000815225
20
12.8396056103103
30
0
41
1
10
-0.413679423890983
20
12.8615037472975
30
0
41
1
10
-0.382525012517618
20
12.8991707316468
30
0
41
1
10
-0.363925974973824
20
12.9148872403836
30
0
41
1
10
-0.342769052839458
20
12.9271021950732
30
0
0
SPLINE
5
1A2
100
AcDbEntity
8
SK1
62
256
6
ByLayer
370
18
48
1
60
0
100
AcDbSpline
70
4
71
3
72
8
73
4
40
0
40
0
40
0
40
0
40
1
40
1
40
1
40
1
41
1
10
0.249980947161731
20
12.2306734328639
30
0
41
1
10
0.0527632894172712
20
12.3445371006516
30
0
41
1
10
-0.144826582198107
20
12.4586156662179
30
0
41
1
10
-0.342769052838293
20
12.5728978049261
30
0
0
SPLINE
5
1A3
100
AcDbEntity
8
SK1
62
256
6
ByLayer
370
18
48
1
60
0
100
AcDbSpline
70
4
71
3
72
16
73
12
40
0
40
0
40
0
40
0
40
0.25
40
0.25
40
0.5
40
0.5
40
0.625
40
0.625
40
0.75
40
0.75
40
1
40
1
40
1
40
1
41
1
10
0.324980947189715
20
12.1007696222698
30
0
41
1
10
0.324980947191193
20
12.1091375518884
30
0
41
1
10
0.324309016993112
20
12.1181205982701
30
0
41
1
10
0.320686052162728
20
12.1377824738949
30
0
41
1
10
0.317786456289241
20
12.1486027991513
30
0
41
1
10
0.30968169493292
20
12.1671101461963
30
0
41
1
10
0.306333788099494
20
12.1736485913715
30
0
41
1
10
0.297771572636037
20
12.187299242956
30
0
41
1
10
0.292433481716614
20
12.1944924874515
30
0
41
1
10
0.274589605548385
20
12.214323171248
30
0
41
1
10
0.261321720492362
20
12.2241258343668
30
0
41
1
10
0.249980947142376
20
12.2306734329092
30
0
0
SPLINE
5
1A4
100
AcDbEntity
8
SK1
62
256
6
ByLayer
370
18
48
1
60
0
100
AcDbSpline
70
4
71
3
72
12
73
8
40
0
40
0
40
0
40
0
40
0.500000000000013
40
0.500000000000013
40
0.750000000000007
40
0.750000000000007
40
1
40
1
40
1
40
1
41
1
10
0.249980947161703
20
11.7693265671361
30
0
41
1
10
0.271180770286804
20
11.7815662907241
30
0
41
1
10
0.28859849031673
20
11.7981560037921
30
0
41
1
10
0.308577748339132
20
11.829889635649
30
0
41
1
10
0.314125680259338
20
11.8415504008793
30
0
41
1
10
0.322280802533015
20
11.8677503986238
30
0
41
1
10
0.324980952094307
20
11.8823349663461
30
0
41
1
10
0.32498094716172
20
11.899230421496
30
0
0
SPLINE
5
1A5
100
AcDbEntity
8
SK1
62
256
6
ByLayer
370
18
48
1
60
0
100
AcDbSpline
70
4
71
3
72
8
73
4
40
0
40
0
40
0
40
0
40
1
40
1
40
1
40
1
41
1
10
-0.342769052838293
20
11.4271021950739
30
0
41
1
10
-0.140428826570826
20
11.5439233791773
30
0
41
1
10
0.0572098387456208
20
11.6580301158001
30
0
41
1
10
0.249980947161703
20
11.7693265671361
30
0
0
SPLINE
5
1A6
100
AcDbEntity
8
SK1
62
256
6
ByLayer
370
18
48
1
60
0
100
AcDbSpline
70
4
71
3
72
22
73
18
40
0
40
0
40
0
40
0
40
0.0625000000000055
40
0.0625000000000055
40
0.125000000000011
40
0.125000000000011
40
0.187500000000016
40
0.187500000000016
40
0.250000000000022
40
0.250000000000022
40
0.375000000000019
40
0.375000000000019
40
0.500000000000016
40
0.500000000000016
40
0.750000000000008
40
0.750000000000008
40
1
40
1
40
1
40
1
41
1
10
-0.342769052838293
20
11.0728978049261
30
0
41
1
10
-0.354050595451156
20
11.0794112065905
30
0
41
1
10
-0.366209629257298
20
11.0878490587058
30
0
41
1
10
-0.390520771895638
20
11.1100338146446
30
0
41
1
10
-0.402179577389546
20
11.1236871566761
30
0
41
1
10
-0.420239075386917
20
11.1510567178538
30
0
41
1
10
-0.426716865430166
20
11.1644252779558
30
0
41
1
10
-0.436131893586378
20
11.188940397959
30
0
41
1
10
-0.43912007213919
20
11.2000710535235
30
0
41
1
10
-0.445319628398238
20
11.231641555031
30
0
41
1
10
-0.445676858959644
20
11.2496418556063
30
0
41
1
10
-0.443105753875727
20
11.2823802755193
30
0
41
1
10
-0.440018994658601
20
11.2971638179407
30
0
41
1
10
-0.427264174779651
20
11.3381142409963
30
0
41
1
10
-0.414383428423463
20
11.3604758779005
30
0
41
1
10
-0.382981648139548
20
11.398788943257
30
0
41
1
10
-0.364323351058204
20
11.4146578151945
30
0
41
1
10
-0.342769052838293
20
11.4271021950739
30
0
0
SPLINE
5
1A7
100
AcDbEntity
8
SK1
62
256
6
ByLayer
370
18
48
1
60
0
100
AcDbSpline
70
4
71
3
72
8
73
4
40
0
40
0
40
0
40
0
40
1
40
1
40
1
40
1
41
1
10
0.249980947161731
20
10.7306734328639
30
0
41
1
10
0.0526311005796742
20
10.8446134199126
30
0
41
1
10
-0.144956402685096
20
10.958690618111
30
0
41
1
10
-0.342769052838293
20
11.0728978049261
30
0
0
SPLINE
5
1A8
100
AcDbEntity
8
SK1
62
256
6
ByLayer
370
18
48
1
60
0
100
AcDbSpline
70
4
71
3
72
14
73
10
40
0
40
0
40
0
40
0
40
0.25
40
0.25
40
0.5
40
0.5
40
0.75
40
0.75
40
1
40
1
40
1
40
1
41
1
10
0.32498094716172
20
10.6007696222963
30
0
41
1
10
0.32498094716172
20
10.6094638429982
30
0
41
1
10
0.324257414918691
20
10.6188504811585
30
0
41
1
10
0.320279451864962
20
10.6394830025956
30
0
41
1
10
0.317087137316207
20
10.6507433672038
30
0
41
1
10
0.305544085308497
20
10.6759015823237
30
0
41
1
10
0.296574052598174
20
10.690224877575
30
0
41
1
10
0.273553804333773
20
10.7150959876526
30
0
41
1
10
0.261125044145871
20
10.7242393854777
30
0
41
1
10
0.249980947157809
20
10.7306734328728
30
0
0
SPLINE
5
1A9
100
AcDbEntity
8
SK1
62
256
6
ByLayer
370
18
48
1
60
0
100
AcDbSpline
70
4
71
3
72
12
73
8
40
0
40
0
40
0
40
0
40
0.5
40
0.5
40
0.75
40
0.75
40
1
40
1
40
1
40
1
41
1
10
0.249980947163351
20
10.269326567137
30
0
41
1
10
0.271072889936477
20
10.2815040059752
30
0
41
1
10
0.288435995715759
20
10.2979819796639
30
0
41
1
10
0.308444760829587
20
10.3296370448461
30
0
41
1
10
0.314074872656789
20
10.3414150937225
30
0
41
1
10
0.322278016727239
20
10.3677137080055
30
0
41
1
10
0.324980951859601
20
10.3821975796411
30
0
41
1
10
0.32498094716172
20
10.3992304190757
30
0
0
SPLINE
5
1AA
100
AcDbEntity
8
SK1
62
256
6
ByLayer
370
18
48
1
60
0
100
AcDbSpline
70
4
71
3
72
8
73
4
40
0
40
0
40
0
40
0
40
1
40
1
40
1
40
1
41
1
10
0.0469703231316885
20
10.152118328704
30
0
41
1
10
0.115112466683513
20
10.1914602136268
30
0
41
1
10
0.182784534594248
20
10.2305307002517
30
0
41
1
10
0.249980947163465
20
10.2693265671371
30
0
0
SPLINE
5
1AB
100
AcDbEntity
8
1
62
256
6
ByLayer
370
18
48
1
60
0
100
AcDbSpline
70
4
71
3
72
19
73
15
40
0
40
0
40
0
40
0
40
0.250000000000001
40
0.250000000000001
40
0.312500000000001
40
0.312500000000001
40
0.375000000000001
40
0.375000000000001
40
0.5
40
0.625
40
0.625
40
0.75
40
0.75
40
1
40
1
40
1
40
1
41
1
10
-13.0394519084719
20
-49
30
0
41
1
10
-13.0617953286975
20
-49
30
0
41
1
10
-13.0820818929953
20
-49.0630030365509
30
0
41
1
10
-13.1051276388508
20
-49.2179931234332
30
0
41
1
10
-13.1096207163494
20
-49.2528588388934
30
0
41
1
10
-13.118379617618
20
-49.3304895043959
30
0
41
1
10
-13.1226518115778
20
-49.3733625638149
30
0
41
1
10
-13.134966589545
20
-49.5121200895348
30
0
41
1
10
-13.1501700518476
20
-49.724986119994
30
0
41
1
10
-13.1632209983263
20
-49.9921273410432
30
0
41
1
10
-13.1753048975803
20
-50.2869559425168
30
0
41
1
10
-13.1808742142881
20
-50.4489812202076
30
0
41
1
10
-13.195883046675
20
-50.9642038800802
30
0
41
1
10
-13.2038160761103
20
-51.3494836606128
30
0
41
1
10
-13.2102011461772
20
-51.7777018864083
30
0
0
SPLINE
5
1AC
100
AcDbEntity
8
1
62
256
6
ByLayer
370
18
48
1
60
0
100
AcDbSpline
70
4
71
3
72
25
73
21
40
0
40
0
40
0
40
0
40
0.125
40
0.125
40
0.25
40
0.25
40
0.375000000000001
40
0.375000000000001
40
0.500000000000001
40
0.500000000000001
40
0.625000000000001
40
0.625000000000001
40
0.750000000000001
40
0.750000000000001
40
0.812500000000001
40
0.812500000000001
40
0.875000000000001
40
0.9375
40
0.9375
40
1
40
1
40
1
40
1
41
1
10
-10.770840572454
20
-25.2500000000001
30
0
41
1
10
-10.8762568615421
20
-25.2500000000001
30
0
41
1
10
-10.9801911782505
20
-25.260241667554
30
0
41
1
10
-11.1851740546802
20
-25.3006679949271
30
0
41
1
10
-11.2872544178664
20
-25.331386211603
30
0
41
1
10
-11.4809921067071
20
-25.4111446006575
30
0
41
1
10
-11.5731506479559
20
-25.4600413352362
30
0
41
1
10
-11.747993319627
20
-25.5759728893493
30
0
41
1
10
-11.8305411397255
20
-25.6432124411355
30
0
41
1
10
-11.9798458032838
20
-25.7916555446726
30
0
41
1
10
-12.0475176590309
20
-25.873800152792
30
0
41
1
10
-12.1639761432546
20
-26.0473031998229
30
0
41
1
10
-12.2134919833652
20
-26.1392636966102
30
0
41
1
10
-12.2743123485182
20
-26.2852470381303
30
0
41
1
10
-12.2922309381422
20
-26.33511204914
30
0
41
1
10
-12.3227755016574
20
-26.4353637064959
30
0
41
1
10
-12.3482512400003
20
-26.5366492896447
30
0
41
1
10
-12.3637194161893
20
-26.6399761893278
30
0
41
1
10
-12.3741034378169
20
-26.7443401416527
30
0
41
1
10
-12.3767447137149
20
-26.7973405398947
30
0
41
1
10
-12.3767447137149
20
-26.85
30
0
0
SPLINE
5
1AD
100
AcDbEntity
8
1
62
256
6
ByLayer
370
18
48
1
60
0
100
AcDbSpline
70
4
71
3
72
28
73
24
40
0
40
0
40
0
40
0
40
0.0625000000000011
40
0.0625000000000011
40
0.125000000000002
40
0.125000000000002
40
0.250000000000004
40
0.250000000000004
40
0.312500000000005
40
0.312500000000005
40
0.375000000000006
40
0.375000000000006
40
0.500000000000006
40
0.500000000000006
40
0.562500000000005
40
0.562500000000005
40
0.625000000000004
40
0.625000000000004
40
0.750000000000003
40
0.750000000000003
40
0.875000000000001
40
0.875000000000001
40
1
40
1
40
1
40
1
41
1
10
-3.57000000000002
20
-19.2871459442085
30
0
41
1
10
-3.57000000000002
20
-19.2450555881702
30
0
41
1
10
-3.56758898160595
20
-19.2025959063434
30
0
41
1
10
-3.55804676605138
20
-19.1187486532784
30
0
41
1
10
-3.55093307350288
20
-19.0772124818654
30
0
41
1
10
-3.52267905383675
20
-18.9537473434434
30
0
41
1
10
-3.49469049576516
20
-18.8729510492732
30
0
41
1
10
-3.43830544793752
20
-18.7541386820178
30
0
41
1
10
-3.41703120288233
20
-18.7148858130982
30
0
41
1
10
-3.37042981551113
20
-18.6388292442499
30
0
41
1
10
-3.34501552799097
20
-18.6018168356867
30
0
41
1
10
-3.26243523912538
20
-18.49382562494
30
0
41
1
10
-3.19900049723046
20
-18.4258598246391
30
0
41
1
10
-3.09016811472597
20
-18.3304863968314
30
0
41
1
10
-3.051684847958
20
-18.2999235971993
30
0
41
1
10
-2.97184057371581
20
-18.2425117494597
30
0
41
1
10
-2.93027699734572
20
-18.215478140467
30
0
41
1
10
-2.80061864366235
20
-18.1394383795524
30
0
41
1
10
-2.70721028387743
20
-18.0952841971875
30
0
41
1
10
-2.5074491723262
20
-18.0225100932201
30
0
41
1
10
-2.40430396983581
20
-17.9949883244004
30
0
41
1
10
-2.19151249979797
20
-17.9575986977754
30
0
41
1
10
-2.08089102002953
20
-17.9477925210688
30
0
41
1
10
-1.97000000000003
20
-17.9477925210688
30
0
0
SPLINE
5
1AE
100
AcDbEntity
8
1
62
256
6
ByLayer
370
18
48
1
60
0
100
AcDbSpline
70
2053
71
3
72
96
73
92
40
0
40
0
40
0
40
0
40
0.031249999999999
40
0.031249999999999
40
0.0468749999999988
40
0.0468749999999988
40
0.0624999999999985
40
0.0624999999999985
40
0.0781249999999982
40
0.0781249999999982
40
0.0937499999999979
40
0.0937499999999979
40
0.109374999999998
40
0.109374999999998
40
0.124999999999997
40
0.124999999999997
40
0.140624999999997
40
0.140624999999997
40
0.156249999999997
40
0.156249999999997
40
0.187499999999996
40
0.187499999999996
40
0.203124999999996
40
0.203124999999996
40
0.218749999999996
40
0.218749999999996
40
0.249999999999997
40
0.249999999999997
40
0.281249999999998
40
0.281249999999998
40
0.312499999999998
40
0.312499999999998
40
0.375
40
0.375
40
0.406250000000001
40
0.406250000000001
40
0.437500000000003
40
0.437500000000003
40
0.453125000000003
40
0.453125000000003
40
0.468750000000004
40
0.468750000000004
40
0.476562500000004
40
0.476562500000004
40
0.484375000000003
40
0.484375000000003
40
0.492187500000003
40
0.492187500000003
40
0.500000000000003
40
0.500000000000003
40
0.507812500000002
40
0.507812500000002
40
0.515625000000002
40
0.515625000000002
40
0.531250000000002
40
0.531250000000002
40
0.546875000000002
40
0.546875000000002
40
0.562500000000001
40
0.562500000000001
40
0.593750000000001
40
0.593750000000001
40
0.625000000000001
40
0.625000000000001
40
0.656250000000001
40
0.656250000000001
40
0.6875
40
0.6875
40
0.71875
40
0.71875
40
0.75
40
0.75
40
0.812499999999999
40
0.812499999999999
40
0.843749999999999
40
0.843749999999999
40
0.859374999999999
40
0.859374999999999
40
0.874999999999999
40
0.874999999999999
40
0.906249999999999
40
0.906249999999999
40
0.921874999999999
40
0.921874999999999
40
0.9375
40
0.9375
40
0.953125
40
0.953125
40
0.96875
40
0.96875
40
1
40
1
40
1
40
1
41
1
10
-14.7974578847917
20
-49.0040550569913
30
0
41
1
10
-14.6564304703569
20
-49.0040550569913
30
0
41
1
10
-14.5192663663408
20
-49.0047503592157
30
0
41
1
10
-14.3192026550563
20
-49.0078958413372
30
0
41
1
10
-14.254447899455
20
-49.0093138814849
30
0
41
1
10
-14.1309315304674
20
-49.0132026256943
30
0
41
1
10
-14.0717841554265
20
-49.0156785469578
30
0
41
1
10
-13.9586302297883
20
-49.0221864099259
30
0
41
1
10
-13.9049050976484
20
-49.0262234618617
30
0
41
1
10
-13.805607806012
20
-49.0360967943649
30
0
41
1
10
-13.7595910810704
20
-49.0419555389264
30
0
41
1
10
-13.6743923007465
20
-49.0559706615373
30
0
41
1
10
-13.635141625152
20
-49.0641731610064
30
0
41
1
10
-13.5649074489306
20
-49.082857728736
30
0
41
1
10
-13.5336394456994
20
-49.0933742286681
30
0
41
1
10
-13.4780484899499
20
-49.1170153970016
30
0
41
1
10
-13.453643343355
20
-49.1302026035728
30
0
41
1
10
-13.4116882733368
20
-49.159158989151
30
0
41
1
10
-13.3942375641206
20
-49.1748214481313
30
0
41
1
10
-13.3510448113622
20
-49.2254484858916
30
0
41
1
10
-13.3343880027942
20
-49.2640501899971
30
0
41
1
10
-13.324061750968
20
-49.3296015034363
30
0
41
1
10
-13.3231054386319
20
-49.352785756626
30
0
41
1
10
-13.3256311543911
20
-49.4009792019095
30
0
41
1
10
-13.3290901002028
20
-49.4260680078201
30
0
41
1
10
-13.3452344853199
20
-49.504257690584
30
0
41
1
10
-13.3636456228229
20
-49.5602778087669
30
0
41
1
10
-13.4128171006633
20
-49.6799316516078
30
0
41
1
10
-13.443747350964
20
-49.7438411346075
30
0
41
1
10
-13.515512783364
20
-49.8779336351225
30
0
41
1
10
-13.5560739707861
20
-49.9476682301013
30
0
41
1
10
-13.6893481976415
20
-50.1644852294839
30
0
41
1
10
-13.7932790880902
20
-50.3192225165608
30
0
41
1
10
-13.9692228277477
20
-50.5648143509492
30
0
41
1
10
-14.0314513866887
20
-50.6491538214265
30
0
41
1
10
-14.1632102760616
20
-50.8204831891861
30
0
41
1
10
-14.2325255641156
20
-50.9074660830124
30
0
41
1
10
-14.3449152905174
20
-51.0377735580714
30
0
41
1
10
-14.3837288631609
20
-51.081081162466
30
0
41
1
10
-14.4656518262981
20
-51.1664768610528
30
0
41
1
10
-14.508751444737
20
-51.2086731749806
30
0
41
1
10
-14.5785708233147
20
-51.2684734101629
30
0
41
1
10
-14.6027445161705
20
-51.2878366164348
30
0
41
1
10
-14.6539024614602
20
-51.3246128443412
30
0
41
1
10
-14.6810891178686
20
-51.3421761590113
30
0
41
1
10
-14.739116211022
20
-51.3730375605295
30
0
41
1
10
-14.7702466285244
20
-51.3864490182684
30
0
41
1
10
-14.8360752698792
20
-51.4047741472369
30
0
41
1
10
-14.870737736425
20
-51.4095125415324
30
0
41
1
10
-14.9408917981756
20
-51.4070013782061
30
0
41
1
10
-14.9751080325686
20
-51.3997998310152
30
0
41
1
10
-15.039151113604
20
-51.3773727618285
30
0
41
1
10
-15.0685384643769
20
-51.362587969498
30
0
41
1
10
-15.1520741266209
20
-51.3121606113917
30
0
41
1
10
-15.199265577946
20
-51.2724822226722
30
0
41
1
10
-15.2872041150946
20
-51.1900694126507
30
0
41
1
10
-15.3278145322843
20
-51.1467553292134
30
0
41
1
10
-15.4045724214379
20
-51.0596113824508
30
0
41
1
10
-15.440652978527
20
-51.0157594942589
30
0
41
1
10
-15.5445426271953
20
-50.8844827340944
30
0
41
1
10
-15.6080860528924
20
-50.7973707099384
30
0
41
1
10
-15.7282073483237
20
-50.6261283860339
30
0
41
1
10
-15.7846438560767
20
-50.5419360781279
30
0
41
1
10
-15.8912484752979
20
-50.3772207939722
30
0
41
1
10
-15.9415390990538
20
-50.2964172079929
30
0
41
1
10
-16.0343430191414
20
-50.1408474091858
30
0
41
1
10
-16.0769532790306
20
-50.0659364190143
30
0
41
1
10
-16.1538534990898
20
-49.9220388068356
30
0
41
1
10
-16.1881470987785
20
-49.8530502574047
30
0
41
1
10
-16.2469254012502
20
-49.7212185713104
30
0
41
1
10
-16.271503191906
20
-49.6581021134862
30
0
41
1
10
-16.3261897348549
20
-49.4804313175429
30
0
41
1
10
-16.3379426581372
20
-49.3786859164046
30
0
41
1
10
-16.2976397539717
20
-49.2515182480609
30
0
41
1
10
-16.2745278275514
20
-49.2142773841353
30
0
41
1
10
-16.2225429247996
20
-49.1659144618093
30
0
41
1
10
-16.2023068804514
20
-49.1510230934923
30
0
41
1
10
-16.155253541738
20
-49.1236019109638
30
0
41
1
10
-16.1282465048209
20
-49.111016245692
30
0
41
1
10
-16.0378037843413
20
-49.0773223856627
30
0
41
1
10
-15.9649805495317
20
-49.0600628753966
30
0
41
1
10
-15.8332585923985
20
-49.0401384477775
30
0
41
1
10
-15.7855133188828
20
-49.0345146950684
30
0
41
1
10
-15.6850097432676
20
-49.0252004947984
30
0
41
1
10
-15.6319163956815
20
-49.0214519853436
30
0
41
1
10
-15.5198000034787
20
-49.0153170346592
30
0
41
1
10
-15.460781394156
20
-49.012930880046
30
0
41
1
10
-15.3362554594494
20
-49.0091491452656
30
0
41
1
10
-15.2719076192978
20
-49.0077899105229
30
0
41
1
10
-15.0755476717625
20
-49.0047727708841
30
0
41
1
10
-14.9384852992266
20
-49.0040550569913
30
0
41
1
10
-14.7974578847917
20
-49.0040550569913
30
0
0
SPLINE
5
1AF
100
AcDbEntity
8
1
62
256
6
ByLayer
370
18
48
1
60
0
100
AcDbSpline
70
4
71
3
72
10
73
6
40
0
40
0
40
0
40
0
40
0.65293876687597
40
0.65293876687597
40
1
40
1
40
1
40
1
41
1
10
-13.2690936894164
20
-57.8458406655851
30
0
41
1
10
-13.5197255809986
20
-57.8836711522744
30
0
41
1
10
-13.7704015378081
20
-57.9212963547226
30
0
41
1
10
-14.1543508062438
20
-57.978780450676
30
0
41
1
10
-14.2876106889124
20
-57.9987029627777
30
0
41
1
10
-14.4208747878794
20
-58.0186055979964
30
0
0
SPLINE
5
1B0
100
AcDbEntity
8
1
62
256
6
ByLayer
370
18
48
1
60
0
100
AcDbSpline
70
4
71
3
72
10
73
6
40
0
40
0
40
0
40
0
40
0.5
40
0.5
40
1
40
1
40
1
40
1
41
1
10
-14.4208747878793
20
-58.0186055979964
30
0
41
1
10
-14.4469766837593
20
-58.0225038460335
30
0
41
1
10
-14.4713721700561
20
-58.0322563277993
30
0
41
1
10
-14.5112668459581
20
-58.0606211287805
30
0
41
1
10
-14.5267743267017
20
-58.0792575759209
30
0
41
1
10
-14.5357814543475
20
-58.1001689900899
30
0
0
SPLINE
5
1B1
100
AcDbEntity
8
1
62
256
6
ByLayer
370
18
48
1
60
0
100
AcDbSpline
70
4
71
3
72
8
73
4
40
0
40
0
40
0
40
0
40
1
40
1
40
1
40
1
41
1
10
-14.5357814543472
20
-58.10016899009
30
0
41
1
10
-14.5518538114469
20
-58.1374834069828
30
0
41
1
10
-14.5679443656766
20
-58.1747923185326
30
0
41
1
10
-14.5840461068822
20
-58.212097845585
30
0
0
SPLINE
5
1B2
100
AcDbEntity
8
1
62
256
6
ByLayer
370
18
48
1
60
0
100
AcDbSpline
70
4
71
3
72
10
73
6
40
0
40
0
40
0
40
0
40
0.5
40
0.5
40
1
40
1
40
1
40
1
41
1
10
-14.5840461068822
20
-58.212097845585
30
0
41
1
10
-14.5945440029669
20
-58.2364200317001
30
0
41
1
10
-14.6137556380548
20
-58.2574982476849
30
0
41
1
10
-14.6637432594082
20
-58.2871007496467
30
0
41
1
10
-14.6941379560092
20
-58.2952808450919
30
0
41
1
10
-14.7249999999982
20
-58.2952808450922
30
0
0
SPLINE
5
1B3
100
AcDbEntity
8
1
62
256
6
ByLayer
370
18
48
1
60
0
100
AcDbSpline
70
4
71
3
72
10
73
6
40
0
40
0
40
0
40
0
40
0.5
40
0.5
40
1
40
1
40
1
40
1
41
1
10
-15.2750000000001
20
-58.2952808450776
30
0
41
1
10
-15.3058573711104
20
-58.2952808450776
30
0
41
1
10
-15.3359921481026
20
-58.2871996571856
30
0
41
1
10
-15.3860602235518
20
-58.2576645611758
30
0
41
1
10
-15.4054540610705
20
-58.2364245170606
30
0
41
1
10
-15.415953893118
20
-58.2120978455849
30
0
0
SPLINE
5
1B4
100
AcDbEntity
8
1
62
256
6
ByLayer
370
18
48
1
60
0
100
AcDbSpline
70
4
71
3
72
8
73
4
40
0
40
0
40
0
40
0
40
1
40
1
40
1
40
1
41
1
10
-15.415953893118
20
-58.2120978455849
30
0
41
1
10
-15.4320557258476
20
-58.1747921064839
30
0
41
1
10
-15.4481462956943
20
-58.1374831582387
30
0
41
1
10
-15.464218545653
20
-58.10016899009
30
0
0
SPLINE
5
1B5
100
AcDbEntity
8
1
62
256
6
ByLayer
370
18
48
1
60
0
100
AcDbSpline
70
4
71
3
72
10
73
6
40
0
40
0
40
0
40
0
40
0.5
40
0.5
40
1
40
1
40
1
40
1
41
1
10
-15.4642185456529
20
-58.1001689900899
30
0
41
1
10
-15.4732327137461
20
-58.0792412304539
30
0
41
1
10
-15.4887163469487
20
-58.0606326222111
30
0
41
1
10
-15.5286482778275
20
-58.0322422458371
30
0
41
1
10
-15.5529879676932
20
-58.0225091252441
30
0
41
1
10
-15.5791252121208
20
-58.0186055979964
30
0
0
SPLINE
5
1B6
100
AcDbEntity
8
1
62
256
6
ByLayer
370
18
48
1
60
0
100
AcDbSpline
70
4
71
3
72
8
73
4
40
0
40
0
40
0
40
0
40
1
40
1
40
1
40
1
41
1
10
-15.5791252121208
20
-58.0186055979964
30
0
41
1
10
-15.9745491654203
20
-57.9595500927234
30
0
41
1
10
-16.3699440574796
20
-57.9003558928293
30
0
41
1
10
-16.7652309060552
20
-57.8406582798638
30
0
0
SPLINE
5
1B7
100
AcDbEntity
8
SK1
62
256
6
ByLayer
370
18
48
1
60
0
100
AcDbSpline
70
4
71
3
72
8
73
4
40
0
40
0
40
0
40
0
40
1
40
1
40
1
40
1
41
1
10
-0.500000000000028
20
-19.9458521689815
30
0
41
1
10
-0.265553351707069
20
-19.7113677540405
30
0
41
1
10
-0.0311071342645164
20
-19.4768829084489
30
0
41
1
10
0.203338636804716
20
-19.2423976166959
30
0
0
SPLINE
5
1B8
100
AcDbEntity
8
1
62
256
6
ByLayer
370
18
48
1
60
0
100
AcDbSpline
70
4
71
3
72
26
73
22
40
0
40
0
40
0
40
0
40
0.124999999999999
40
0.124999999999999
40
0.249999999999998
40
0.249999999999998
40
0.312499999999995
40
0.312499999999995
40
0.374999999999993
40
0.374999999999993
40
0.499999999999992
40
0.499999999999992
40
0.624999999999992
40
0.624999999999992
40
0.749999999999991
40
0.749999999999991
40
0.812499999999992
40
0.812499999999992
40
0.874999999999993
40
0.874999999999993
40
1
40
1
40
1
40
1
41
1
10
-9.875442826202
20
-25.2500000000001
30
0
41
1
10
-9.98021686785597
20
-25.25
30
0
41
1
10
-10.0865867843274
20
-25.260376865123
30
0
41
1
10
-10.2922416954136
20
-25.3009183710387
30
0
41
1
10
-10.3923898776878
20
-25.3309137206314
30
0
41
1
10
-10.5385298479578
20
-25.3907237298538
30
0
41
1
10
-10.5867507194167
20
-25.413272854946
30
0
41
1
10
-10.6798178955447
20
-25.4624895245476
30
0
41
1
10
-10.7248761903577
20
-25.4892205310227
30
0
41
1
10
-10.8557096322129
20
-25.5756600761415
30
0
41
1
10
-10.9372336652208
20
-25.6415995890502
30
0
41
1
10
-11.0880354028799
20
-25.7906371237802
30
0
41
1
10
-11.1553487580675
20
-25.8717778999868
30
0
41
1
10
-11.2737931405459
20
-26.0473094477826
30
0
41
1
10
-11.3237019755405
20
-26.140030662313
30
0
41
1
10
-11.3842122415941
20
-26.2847144152706
30
0
41
1
10
-11.402028805786
20
-26.3339655778235
30
0
41
1
10
-11.4328589828361
20
-26.4345560883183
30
0
41
1
10
-11.4459100066939
20
-26.4861663692362
30
0
41
1
10
-11.4769630707633
20
-26.6411271708376
30
0
41
1
10
-11.4872368526476
20
-26.7451909166036
30
0
41
1
10
-11.4872368526476
20
-26.85
30
0
0
SPLINE
5
1B9
100
AcDbEntity
8
1
62
256
6
ByLayer
370
18
48
1
60
0
100
AcDbSpline
70
4
71
3
72
8
73
4
40
0
40
0
40
0
40
0
40
1
40
1
40
1
40
1
41
1
10
-13.2325251144555
20
-55.95
30
0
41
1
10
-13.2325251144555
20
-55.9784999112607
30
0
41
1
10
-13.2325340736355
20
-56.0070038950007
30
0
41
1
10
-13.232551975786
20
-56.0354875127852
30
0
0
SPLINE
5
1BA
100
AcDbEntity
8
1
62
256
6
ByLayer
370
18
48
1
60
0
100
AcDbSpline
70
4
71
3
72
26
73
22
40
0
40
0
40
0
40
0
40
0.130813003146305
40
0.130813003146305
40
0.261626006292611
40
0.261626006292611
40
0.327032507865763
40
0.327032507865763
40
0.392439009438916
40
0.392439009438916
40
0.523252012585221
40
0.523252012585221
40
0.654065015731526
40
0.654065015731526
40
0.719471517304678
40
0.719471517304678
40
0.784878018877831
40
0.784878018877831
40
0.915691022024136
40
0.915691022024136
40
1
40
1
40
1
40
1
41
1
10
-11.4872368526477
20
-44.2132943644359
30
0
41
1
10
-11.5332652630254
20
-45.4329719826516
30
0
41
1
10
-11.587026367817
20
-46.6161116708743
30
0
41
1
10
-11.7070044638308
20
-48.9123913075046
30
0
41
1
10
-11.7732288087829
20
-50.0255212760885
30
0
41
1
10
-11.8797363592241
20
-51.6425846021125
30
0
41
1
10
-11.9164341620221
20
-52.1728096910162
30
0
41
1
10
-11.9918487863184
20
-53.2153465941505
30
0
41
1
10
-12.0306778954471
20
-53.7289890594291
30
0
41
1
10
-12.1480691835438
20
-55.2231336405117
30
0
41
1
10
-12.2278858492159
20
-56.1624393204859
30
0
41
1
10
-12.38704610936
20
-57.9308487852557
30
0
41
1
10
-12.4663987679857
20
-58.7599470477167
30
0
41
1
10
-12.5824348633349
20
-59.9196594063961
30
0
41
1
10
-12.6206143132945
20
-60.2922022758308
30
0
41
1
10
-12.6955153007359
20
-61.0085203063203
30
0
41
1
10
-12.7318833771174
20
-61.3489247505011
30
0
41
1
10
-12.8370257133891
20
-62.3163916327094
30
0
41
1
10
-12.9019225172785
20
-62.8907248926076
30
0
41
1
10
-12.9979148650263
20
-63.7210188542781
30
0
41
1
10
-13.0328279405417
20
-64.017578909131
30
0
41
1
10
-13.0646740980993
20
-64.2847659607905
30
0
0
SPLINE
5
1BB
100
AcDbEntity
8
1
62
256
6
ByLayer
370
18
48
1
60
0
100
AcDbSpline
70
4
71
2
72
6
73
3
40
0
40
0
40
0
40
1
40
1
40
1
41
1
10
-15.4830853518231
20
-58.5901186384115
30
0
41
1
10
-15.4932546708633
20
-58.565819759419
30
0
41
1
10
-15.5138875681491
20
-58.5495226247505
30
0
0
SPLINE
5
1BC
100
AcDbEntity
8
1
62
256
6
ByLayer
370
18
48
1
60
0
100
AcDbSpline
70
4
71
2
72
6
73
3
40
0
40
0
40
0
40
1
40
1
40
1
41
1
10
-15.4277325237021
20
-58.748945415452
30
0
41
1
10
-15.4509847566721
20
-58.6679467190156
30
0
41
1
10
-15.4830853518301
20
-58.5901186384125
30
0
0
SPLINE
5
1BD
100
AcDbEntity
8
1
62
256
6
ByLayer
370
18
48
1
60
0
100
AcDbSpline
70
4
71
3
72
17
73
13
40
0
40
0
40
0
40
0
40
0.099322040109297
40
0.192464810608013
40
0.279473698704618
40
0.36040446679547
40
0.435326506058277
40
0.504327396251931
40
0.64246247751228
40
0.769893028119701
40
0.888354161236976
40
1
40
1
40
1
40
1
41
1
10
-15.4277325237381
20
-58.74894541544
30
0
41
1
10
-15.4251415014167
20
-58.7570650488353
30
0
41
1
10
-15.4201206558941
20
-58.7727991568131
30
0
41
1
10
-15.4097292588096
20
-58.7950329040993
30
0
41
1
10
-15.3979831886721
20
-58.8152872768893
30
0
41
1
10
-15.3850529459853
20
-58.8335255248349
30
0
41
1
10
-15.3713377828762
20
-58.849763629035
30
0
41
1
10
-15.3520099934965
20
-58.86912493586
30
0
41
1
10
-15.3252334020887
20
-58.8899964028493
30
0
41
1
10
-15.288846468175
20
-58.9095135048889
30
0
41
1
10
-15.2506156870536
20
-58.9232553047825
30
0
41
1
10
-15.2237638550211
20
-58.9270870625708
30
0
41
1
10
-15.2107355869721
20
-58.92894619708
30
0
0
SPLINE
5
1BE
100
AcDbEntity
8
1
62
256
6
ByLayer
370
18
48
1
60
0
100
AcDbSpline
70
4
71
3
72
11
73
7
40
0
40
0
40
0
40
0
40
0.25062093258784
40
0.500737930149929
40
0.750485813119453
40
1
40
1
40
1
40
1
41
1
10
-15.2107355870581
20
-58.92894619712
30
0
41
1
10
-15.1948737148298
20
-58.930325150106
30
0
41
1
10
-15.1631818645687
20
-58.933080283354
30
0
41
1
10
-15.1154728957348
20
-58.9357889168488
30
0
41
1
10
-15.0677451000659
20
-58.9375412336491
30
0
41
1
10
-15.0359100666744
20
-58.9377544174989
30
0
41
1
10
-15.0200000006977
20
-58.93786095953
30
0
0
SPLINE
5
1BF
100
AcDbEntity
8
1
62
256
6
ByLayer
370
18
48
1
60
0
100
AcDbSpline
70
4
71
2
72
6
73
3
40
0
40
0
40
0
40
1
40
1
40
1
41
1
10
-14.7892644129421
20
-58.9289461971205
30
0
41
1
10
-14.8844834459602
20
-58.9378374892931
30
0
41
1
10
-14.9799999993025
20
-58.9378609595315
30
0
0
SPLINE
5
1C0
100
AcDbEntity
8
1
62
256
6
ByLayer
370
18
48
1
60
0
100
AcDbSpline
70
4
71
2
72
10
73
7
40
0
40
0
40
0
40
0.5
40
0.5
40
0.75
40
0.75
40
1
40
1
40
1
41
1
10
-14.5722674762621
20
-58.7489454154435
30
0
41
1
10
-14.5917621635151
20
-58.8165392416659
30
0
41
1
10
-14.6434857110099
20
-58.864235482769
30
0
41
1
10
-14.671666952926
20
-58.8902224727208
30
0
41
1
10
-14.7075223538963
20
-58.9068593747304
30
0
41
1
10
-14.7462418922268
20
-58.9248252361523
30
0
41
1
10
-14.7892644130281
20
-58.928946197083
30
0
0
SPLINE
5
1C1
100
AcDbEntity
8
1
62
256
6
ByLayer
370
18
48
1
60
0
100
AcDbSpline
70
4
71
3
72
10
73
6
40
0
40
0
40
0
40
0
40
0.347298896772191
40
0.680627573372102
40
1
40
1
40
1
40
1
41
1
10
-14.5722674762981
20
-58.74894541545
30
0
41
1
10
-14.5667211284517
20
-58.7304137365198
30
0
41
1
10
-14.5558515365502
20
-58.694095821957
30
0
41
1
10
-14.5373230401772
20
-58.6411378240455
30
0
41
1
10
-14.5236197764127
20
-58.6068808694764
30
0
41
1
10
-14.5169146481701
20
-58.59011863841
30
0
0
SPLINE
5
1C2
100
AcDbEntity
8
1
62
256
6
ByLayer
370
18
48
1
60
0
100
AcDbSpline
70
4
71
3
72
11
73
7
40
0
40
0
40
0
40
0
40
0.285233185357542
40
0.54663179965411
40
0.784675352493579
40
1
40
1
40
1
40
1
41
1
10
-14.5169146481771
20
-58.59011863841
30
0
41
1
10
-14.5149846236865
20
-58.5859192206157
30
0
41
1
10
-14.5112858508408
20
-58.5778712955346
30
0
41
1
10
-14.5037266797742
20
-58.5669493044874
30
0
41
1
10
-14.4955333753298
20
-58.5574717345489
30
0
41
1
10
-14.4891460538497
20
-58.552082304087
30
0
41
1
10
-14.4861124318508
20
-58.54952262475
30
0
0
LINE
5
74
100
AcDbEntity
8
1
62
256
6
ByLayer
370
18
48
1
60
0
100
AcDbLine
10
-16.775
20
-11.903739
30
0
11
-16.775
21
-39.784807
31
0
39
0
210
0
220
0
230
1
0
LINE
5
76
100
AcDbEntity
8
1
62
256
6
ByLayer
370
18
48
1
60
0
100
AcDbLine
10
-14.880927
20
15.119073
30
0
11
-16.775
21
13.225
31
0
39
0
210
0
220
0
230
1
0
LINE
5
77
100
AcDbEntity
8
1
62
256
6
ByLayer
370
18
48
1
60
0
100
AcDbLine
10
-16.775
20
13.225
30
0
11
-16.775
21
-8.37466
31
0
39
0
210
0
220
0
230
1
0
LINE
5
78
100
AcDbEntity
8
1
62
256
6
ByLayer
370
18
48
1
60
0
100
AcDbLine
10
-12.613837
20
5.552168
30
0
11
-12.613837
21
-7.1
31
0
39
0
210
0
220
0
230
1
0
LINE
5
79
100
AcDbEntity
8
1
62
256
6
ByLayer
370
18
48
1
60
0
100
AcDbLine
10
-15.290479
20
-33.76166
30
0
11
-15.290479
21
-23.315529
31
0
39
0
210
0
220
0
230
1
0
LINE
5
7A
100
AcDbEntity
8
1
62
256
6
ByLayer
370
18
48
1
60
0
100
AcDbLine
10
-16.386624
20
-49
30
0
11
-16.361427
21
-49
31
0
39
0
210
0
220
0
230
1
0
LINE
5
7B
100
AcDbEntity
8
1
62
256
6
ByLayer
370
18
48
1
60
0
100
AcDbLine
10
-16.770282
20
-43.125571
30
0
11
-16.770282
21
-41.25
31
0
39
0
210
0
220
0
230
1
0
LINE
5
7C
100
AcDbEntity
8
1
62
256
6
ByLayer
370
18
48
1
60
0
100
AcDbLine
10
-16.708356
20
-61.774181
30
0
11
-16.708356
21
-58.958878
31
0
39
0
210
0
220
0
230
1
0
LINE
5
7D
100
AcDbEntity
8
1
62
256
6
ByLayer
370
18
48
1
60
0
100
AcDbLine
10
-12.613837
20
-7.1
30
0
11
-1.5
21
-7.1
31
0
39
0
210
0
220
0
230
1
0
LINE
5
7E
100
AcDbEntity
8
1
62
256
6
ByLayer
370
18
48
1
60
0
100
AcDbLine
10
-1.5
20
-7.1
30
0
11
-1.5
21
-10.521947
31
0
39
0
210
0
220
0
230
1
0
LINE
5
7F
100
AcDbEntity
8
1
62
256
6
ByLayer
370
18
48
1
60
0
100
AcDbLine
10
-1.97
20
-10.521947
30
0
11
-1.5
21
-10.521947
31
0
39
0
210
0
220
0
230
1
0
LINE
5
80
100
AcDbEntity
8
1
62
256
6
ByLayer
370
18
48
1
60
0
100
AcDbLine
10
-13.230902
20
-10.888811
30
0
11
-2.336868
21
-10.888811
31
0
39
0
210
0
220
0
230
1
0
LINE
5
81
100
AcDbEntity
8
1
62
256
6
ByLayer
370
18
48
1
60
0
100
AcDbLine
10
-1.5
20
-10.61352
30
0
11
-0.5
21
-10.61352
31
0
39
0
210
0
220
0
230
1
0
LINE
5
82
100
AcDbEntity
8
1
62
256
6
ByLayer
370
18
48
1
60
0
100
AcDbLine
10
-1.5
20
-5.552168
30
0
11
-0.5
21
-5.552168
31
0
39
0
210
0
220
0
230
1
0
LINE
5
83
100
AcDbEntity
8
1
62
256
6
ByLayer
370
18
48
1
60
0
100
AcDbLine
10
-0.5
20
-5.552168
30
0
11
-0.5
21
-10.61352
31
0
39
0
210
0
220
0
230
1
0
LINE
5
84
100
AcDbEntity
8
SK1
62
256
6
ByLayer
370
18
48
1
60
0
100
AcDbLine
10
0.04697
20
-10.152118
30
0
11
-0.5
21
-10.61352
31
0
39
0
210
0
220
0
230
1
0
LINE
5
86
100
AcDbEntity
8
SK1
62
256
6
ByLayer
370
18
48
1
60
0
100
AcDbLine
10
-0.126149
20
-5.552168
30
0
11
-0.5
21
-5.552168
31
0
39
0
210
0
220
0
230
1
0
LINE
5
87
100
AcDbEntity
8
SK1
62
256
6
ByLayer
370
18
48
1
60
0
100
AcDbLine
10
0.324981
20
-6.10077
30
0
11
0.324981
21
-5.89923
31
0
39
0
210
0
220
0
230
1
0
LINE
5
88
100
AcDbEntity
8
SK1
62
256
6
ByLayer
370
18
48
1
60
0
100
AcDbLine
10
0.324981
20
-7.60077
30
0
11
0.324981
21
-7.39923
31
0
39
0
210
0
220
0
230
1
0
LINE
5
89
100
AcDbEntity
8
SK1
62
256
6
ByLayer
370
18
48
1
60
0
100
AcDbLine
10
0.324981
20
-9.10077
30
0
11
0.324981
21
-8.89923
31
0
39
0
210
0
220
0
230
1
0
LINE
5
8A
100
AcDbEntity
8
1
62
256
6
ByLayer
370
18
48
1
60
0
100
AcDbLine
10
-12.613837
20
5.552168
30
0
11
-0.5
21
5.552168
31
0
39
0
210
0
220
0
230
1
0
LINE
5
8B
100
AcDbEntity
8
1
62
256
6
ByLayer
370
18
48
1
60
0
100
AcDbLine
10
-0.5
20
5.552168
30
0
11
-0.5
21
-5.552168
31
0
39
0
210
0
220
0
230
1
0
LINE
5
8C
100
AcDbEntity
8
1
62
256
6
ByLayer
370
18
48
1
60
0
100
AcDbLine
10
-1.5
20
-7.1
30
0
11
-1.5
21
-5.552168
31
0
39
0
210
0
220
0
230
1
0
LINE
5
8D
100
AcDbEntity
8
SK1
62
256
6
ByLayer
370
18
48
1
60
0
100
AcDbLine
10
0.249981
20
4.730673
30
0
11
-0.342769
21
5.072898
31
0
39
0
210
0
220
0
230
1
0
LINE
5
8E
100
AcDbEntity
8
SK1
62
256
6
ByLayer
370
18
48
1
60
0
100
AcDbLine
10
0.324981
20
4.39923
30
0
11
0.324981
21
4.60077
31
0
39
0
210
0
220
0
230
1
0
LINE
5
8F
100
AcDbEntity
8
SK1
62
256
6
ByLayer
370
18
48
1
60
0
100
AcDbLine
10
-0.342769
20
3.927102
30
0
11
0.249981
21
4.269327
31
0
39
0
210
0
220
0
230
1
0
LINE
5
90
100
AcDbEntity
8
SK1
62
256
6
ByLayer
370
18
48
1
60
0
100
AcDbLine
10
0.249981
20
3.230673
30
0
11
-0.342769
21
3.572898
31
0
39
0
210
0
220
0
230
1
0
LINE
5
91
100
AcDbEntity
8
SK1
62
256
6
ByLayer
370
18
48
1
60
0
100
AcDbLine
10
0.324981
20
2.89923
30
0
11
0.324981
21
3.10077
31
0
39
0
210
0
220
0
230
1
0
LINE
5
92
100
AcDbEntity
8
SK1
62
256
6
ByLayer
370
18
48
1
60
0
100
AcDbLine
10
-0.342769
20
2.427102
30
0
11
0.249981
21
2.769327
31
0
39
0
210
0
220
0
230
1
0
LINE
5
93
100
AcDbEntity
8
SK1
62
256
6
ByLayer
370
18
48
1
60
0
100
AcDbLine
10
0.249981
20
1.730673
30
0
11
-0.342769
21
2.072898
31
0
39
0
210
0
220
0
230
1
0
LINE
5
94
100
AcDbEntity
8
SK1
62
256
6
ByLayer
370
18
48
1
60
0
100
AcDbLine
10
0.324981
20
1.39923
30
0
11
0.324981
21
1.60077
31
0
39
0
210
0
220
0
230
1
0
LINE
5
95
100
AcDbEntity
8
SK1
62
256
6
ByLayer
370
18
48
1
60
0
100
AcDbLine
10
-0.342769
20
0.927102
30
0
11
0.249981
21
1.269327
31
0
39
0
210
0
220
0
230
1
0
LINE
5
96
100
AcDbEntity
8
SK1
62
256
6
ByLayer
370
18
48
1
60
0
100
AcDbLine
10
0.249981
20
0.230673
30
0
11
-0.342769
21
0.572898
31
0
39
0
210
0
220
0
230
1
0
LINE
5
97
100
AcDbEntity
8
SK1
62
256
6
ByLayer
370
18
48
1
60
0
100
AcDbLine
10
0.324981
20
-0.10077
30
0
11
0.324981
21
0.10077
31
0
39
0
210
0
220
0
230
1
0
LINE
5
98
100
AcDbEntity
8
SK1
62
256
6
ByLayer
370
18
48
1
60
0
100
AcDbLine
10
0.249981
20
-0.230673
30
0
11
-0.342769
21
-0.572898
31
0
39
0
210
0
220
0
230
1
0
LINE
5
99
100
AcDbEntity
8
SK1
62
256
6
ByLayer
370
18
48
1
60
0
100
AcDbLine
10
-0.342769
20
-0.927102
30
0
11
0.249981
21
-1.269327
31
0
39
0
210
0
220
0
230
1
0
LINE
5
9A
100
AcDbEntity
8
SK1
62
256
6
ByLayer
370
18
48
1
60
0
100
AcDbLine
10
0.324981
20
-1.60077
30
0
11
0.324981
21
-1.39923
31
0
39
0
210
0
220
0
230
1
0
LINE
5
9B
100
AcDbEntity
8
SK1
62
256
6
ByLayer
370
18
48
1
60
0
100
AcDbLine
10
0.249981
20
-1.730673
30
0
11
-0.342769
21
-2.072898
31
0
39
0
210
0
220
0
230
1
0
LINE
5
9C
100
AcDbEntity
8
SK1
62
256
6
ByLayer
370
18
48
1
60
0
100
AcDbLine
10
-0.342769
20
-2.427102
30
0
11
0.249981
21
-2.769327
31
0
39
0
210
0
220
0
230
1
0
LINE
5
9D
100
AcDbEntity
8
SK1
62
256
6
ByLayer
370
18
48
1
60
0
100
AcDbLine
10
0.324981
20
-3.10077
30
0
11
0.324981
21
-2.89923
31
0
39
0
210
0
220
0
230
1
0
LINE
5
9E
100
AcDbEntity
8
SK1
62
256
6
ByLayer
370
18
48
1
60
0
100
AcDbLine
10
0.249981
20
-3.230673
30
0
11
-0.342769
21
-3.572898
31
0
39
0
210
0
220
0
230
1
0
LINE
5
9F
100
AcDbEntity
8
SK1
62
256
6
ByLayer
370
18
48
1
60
0
100
AcDbLine
10
-0.342769
20
-3.927102
30
0
11
0.249981
21
-4.269327
31
0
39
0
210
0
220
0
230
1
0
LINE
5
A0
100
AcDbEntity
8
SK1
62
256
6
ByLayer
370
18
48
1
60
0
100
AcDbLine
10
0.324981
20
-4.60077
30
0
11
0.324981
21
-4.39923
31
0
39
0
210
0
220
0
230
1
0
LINE
5
A1
100
AcDbEntity
8
SK1
62
256
6
ByLayer
370
18
48
1
60
0
100
AcDbLine
10
0.249981
20
-4.730673
30
0
11
-0.342769
21
-5.072898
31
0
39
0
210
0
220
0
230
1
0
LINE
5
A2
100
AcDbEntity
8
SK1
62
256
6
ByLayer
370
18
48
1
60
0
100
AcDbLine
10
-0.342769
20
-5.427102
30
0
11
-0.126149
21
-5.552168
31
0
39
0
210
0
220
0
230
1
0
LINE
5
A3
100
AcDbEntity
8
SK1
62
256
6
ByLayer
370
18
48
1
60
0
100
AcDbLine
10
-0.126149
20
5.552168
30
0
11
-0.5
21
5.552168
31
0
39
0
210
0
220
0
230
1
0
LINE
5
A4
100
AcDbEntity
8
SK1
62
256
6
ByLayer
370
18
48
1
60
0
100
AcDbLine
10
-0.342769
20
5.427102
30
0
11
-0.126149
21
5.552168
31
0
39
0
210
0
220
0
230
1
0
LINE
5
A5
100
AcDbEntity
8
1
62
256
6
ByLayer
370
18
48
1
60
0
100
AcDbLine
10
-0.5
20
10.61352
30
0
11
-0.5
21
5.552168
31
0
39
0
210
0
220
0
230
1
0
LINE
5
A6
100
AcDbEntity
8
SK1
62
256
6
ByLayer
370
18
48
1
60
0
100
AcDbLine
10
0.04697
20
10.152118
30
0
11
-0.5
21
10.61352
31
0
39
0
210
0
220
0
230
1
0
LINE
5
A7
100
AcDbEntity
8
SK1
62
256
6
ByLayer
370
18
48
1
60
0
100
AcDbLine
10
0.324981
20
8.89923
30
0
11
0.324981
21
9.10077
31
0
39
0
210
0
220
0
230
1
0
LINE
5
A8
100
AcDbEntity
8
SK1
62
256
6
ByLayer
370
18
48
1
60
0
100
AcDbLine
10
0.324981
20
7.39923
30
0
11
0.324981
21
7.60077
31
0
39
0
210
0
220
0
230
1
0
LINE
5
A9
100
AcDbEntity
8
SK1
62
256
6
ByLayer
370
18
48
1
60
0
100
AcDbLine
10
0.324981
20
5.89923
30
0
11
0.324981
21
6.10077
31
0
39
0
210
0
220
0
230
1
0
LINE
5
AA
100
AcDbEntity
8
1
62
256
6
ByLayer
370
18
48
1
60
0
100
AcDbLine
10
-13.255803
20
10.61352
30
0
11
-0.5
21
10.61352
31
0
39
0
210
0
220
0
230
1
0
LINE
5
AB
100
AcDbEntity
8
1
62
256
6
ByLayer
370
18
48
1
60
0
100
AcDbLine
10
-1.97
20
-17.314958
30
0
11
-1.97
21
-10.521947
31
0
39
0
210
0
220
0
230
1
0
LINE
5
AC
100
AcDbEntity
8
1
62
256
6
ByLayer
370
18
48
1
60
0
100
AcDbLine
10
-1.97
20
-17.314958
30
0
11
-1.5
21
-17.314958
31
0
39
0
210
0
220
0
230
1
0
LINE
5
AD
100
AcDbEntity
8
1
62
256
6
ByLayer
370
18
48
1
60
0
100
AcDbLine
10
-1.5
20
-10.521947
30
0
11
-1.5
21
-17.314958
31
0
39
0
210
0
220
0
230
1
0
LINE
5
AE
100
AcDbEntity
8
1
62
256
6
ByLayer
370
18
48
1
60
0
100
AcDbLine
10
-14.753903
20
-15.370896
30
0
11
-2.8905
21
-15.370896
31
0
39
0
210
0
220
0
230
1
0
LINE
5
AF
100
AcDbEntity
8
1
62
256
6
ByLayer
370
18
48
1
60
0
100
AcDbLine
10
-0.5
20
-10.61352
30
0
11
-0.5
21
-17.108274
31
0
39
0
210
0
220
0
230
1
0
LINE
5
B0
100
AcDbEntity
8
1
62
256
6
ByLayer
370
18
48
1
60
0
100
AcDbLine
10
-1.5
20
-17.108274
30
0
11
-0.5
21
-17.108274
31
0
39
0
210
0
220
0
230
1
0
LINE
5
B1
100
AcDbEntity
8
SK1
62
256
6
ByLayer
370
18
48
1
60
0
100
AcDbLine
10
0.324981
20
-10.60077
30
0
11
0.324981
21
-10.39923
31
0
39
0
210
0
220
0
230
1
0
LINE
5
B2
100
AcDbEntity
8
SK1
62
256
6
ByLayer
370
18
48
1
60
0
100
AcDbLine
10
0.324981
20
-12.10077
30
0
11
0.324981
21
-11.89923
31
0
39
0
210
0
220
0
230
1
0
LINE
5
B3
100
AcDbEntity
8
SK1
62
256
6
ByLayer
370
18
48
1
60
0
100
AcDbLine
10
0.324981
20
-13.60077
30
0
11
0.324981
21
-13.39923
31
0
39
0
210
0
220
0
230
1
0
LINE
5
B4
100
AcDbEntity
8
SK1
62
256
6
ByLayer
370
18
48
1
60
0
100
AcDbLine
10
0.324981
20
-15.10077
30
0
11
0.324981
21
-14.89923
31
0
39
0
210
0
220
0
230
1
0
LINE
5
B5
100
AcDbEntity
8
SK1
62
256
6
ByLayer
370
18
48
1
60
0
100
AcDbLine
10
0.324981
20
-16.42521
30
0
11
0.324981
21
-16.39923
31
0
39
0
210
0
220
0
230
1
0
LINE
5
B6
100
AcDbEntity
8
SK1
62
256
6
ByLayer
370
18
48
1
60
0
100
AcDbLine
10
0.237406
20
19.262594
30
0
11
-0.5
21
20
31
0
39
0
210
0
220
0
230
1
0
LINE
5
B7
100
AcDbEntity
8
SK1
62
256
6
ByLayer
370
18
48
1
60
0
100
AcDbLine
10
0.324981
20
17.89923
30
0
11
0.324981
21
18.10077
31
0
39
0
210
0
220
0
230
1
0
LINE
5
B8
100
AcDbEntity
8
SK1
62
256
6
ByLayer
370
18
48
1
60
0
100
AcDbLine
10
0.324981
20
16.39923
30
0
11
0.324981
21
16.60077
31
0
39
0
210
0
220
0
230
1
0
LINE
5
B9
100
AcDbEntity
8
SK1
62
256
6
ByLayer
370
18
48
1
60
0
100
AcDbLine
10
0.324981
20
14.89923
30
0
11
0.324981
21
15.10077
31
0
39
0
210
0
220
0
230
1
0
LINE
5
BA
100
AcDbEntity
8
SK1
62
256
6
ByLayer
370
18
48
1
60
0
100
AcDbLine
10
0.324981
20
13.39923
30
0
11
0.324981
21
13.60077
31
0
39
0
210
0
220
0
230
1
0
LINE
5
BB
100
AcDbEntity
8
SK1
62
256
6
ByLayer
370
18
48
1
60
0
100
AcDbLine
10
0.324981
20
11.89923
30
0
11
0.324981
21
12.10077
31
0
39
0
210
0
220
0
230
1
0
LINE
5
BC
100
AcDbEntity
8
SK1
62
256
6
ByLayer
370
18
48
1
60
0
100
AcDbLine
10
0.324981
20
10.39923
30
0
11
0.324981
21
10.60077
31
0
39
0
210
0
220
0
230
1
0
LINE
5
BD
100
AcDbEntity
8
1
62
256
6
ByLayer
370
18
48
1
60
0
100
AcDbLine
10
-0.5
20
20
30
0
11
-0.5
21
10.61352
31
0
39
0
210
0
220
0
230
1
0
LINE
5
BE
100
AcDbEntity
8
1
62
256
6
ByLayer
370
18
48
1
60
0
100
AcDbLine
10
-14.880927
20
15.119073
30
0
11
-10
21
20
31
0
39
0
210
0
220
0
230
1
0
LINE
5
BF
100
AcDbEntity
8
1
62
256
6
ByLayer
370
18
48
1
60
0
100
AcDbLine
10
-0.5
20
20
30
0
11
-10
21
20
31
0
39
0
210
0
220
0
230
1
0
LINE
5
C0
100
AcDbEntity
8
1
62
256
6
ByLayer
370
18
48
1
60
0
100
AcDbLine
10
-3.57
20
-20.243736
30
0
11
-3.57
21
-17.886372
31
0
39
0
210
0
220
0
230
1
0
LINE
5
C1
100
AcDbEntity
8
1
62
256
6
ByLayer
370
18
48
1
60
0
100
AcDbLine
10
-15.285747
20
-20.243736
30
0
11
-3.57
21
-20.243736
31
0
39
0
210
0
220
0
230
1
0
LINE
5
C2
100
AcDbEntity
8
1
62
256
6
ByLayer
370
18
48
1
60
0
100
AcDbLine
10
-12.376745
20
-26.85
30
0
11
-12.376745
21
-33.76166
31
0
39
0
210
0
220
0
230
1
0
LINE
5
C3
100
AcDbEntity
8
1
62
256
6
ByLayer
370
18
48
1
60
0
100
AcDbLine
10
-10.770841
20
-25.25
30
0
11
-6.07
21
-25.25
31
0
39
0
210
0
220
0
230
1
0
LINE
5
C4
100
AcDbEntity
8
1
62
256
6
ByLayer
370
18
48
1
60
0
100
AcDbLine
10
-15.290479
20
-33.76166
30
0
11
-12.376745
21
-33.76166
31
0
39
0
210
0
220
0
230
1
0
LINE
5
C5
100
AcDbEntity
8
1
62
256
6
ByLayer
370
18
48
1
60
0
100
AcDbLine
10
-3.764588
20
-23.315529
30
0
11
-15.290479
21
-23.315529
31
0
39
0
210
0
220
0
230
1
0
LINE
5
C6
100
AcDbEntity
8
1
62
256
6
ByLayer
370
18
48
1
60
0
100
AcDbLine
10
-6.07
20
-25.25
30
0
11
-3.764588
21
-23.315529
31
0
39
0
210
0
220
0
230
1
0
LINE
5
C7
100
AcDbEntity
8
1
62
256
6
ByLayer
370
18
48
1
60
0
100
AcDbLine
10
-16.361427
20
-49
30
0
11
-13.024184
21
-49
31
0
39
0
210
0
220
0
230
1
0
LINE
5
C8
100
AcDbEntity
8
1
62
256
6
ByLayer
370
18
48
1
60
0
100
AcDbLine
10
-16.55711
20
-7.897184
30
0
11
-16.39283
21
-7.897184
31
0
39
0
210
0
220
0
230
1
0
LINE
5
C9
100
AcDbEntity
8
1
62
256
6
ByLayer
370
18
48
1
60
0
100
AcDbLine
10
-0.5
20
-17.108228
30
0
11
-0.5
21
-17.73789
31
0
39
0
210
0
220
0
230
1
0
LINE
5
CA
100
AcDbEntity
8
1
62
256
6
ByLayer
370
18
48
1
60
0
100
AcDbLine
10
-0.5
20
-17.73789
30
0
11
-1.5
21
-17.73789
31
0
39
0
210
0
220
0
230
1
0
LINE
5
CB
100
AcDbEntity
8
1
62
256
6
ByLayer
370
18
48
1
60
0
100
AcDbLine
10
-1.5
20
-17.947793
30
0
11
-1.5
21
-17.73789
31
0
39
0
210
0
220
0
230
1
0
LINE
5
CC
100
AcDbEntity
8
1
62
256
6
ByLayer
370
18
48
1
60
0
100
AcDbLine
10
-1.5
20
-17.947793
30
0
11
-1.97
21
-17.947793
31
0
39
0
210
0
220
0
230
1
0
LINE
5
CD
100
AcDbEntity
8
1
62
256
6
ByLayer
370
18
48
1
60
0
100
AcDbLine
10
-3.57
20
-20.243759
30
0
11
-3.57
21
-23.152251
31
0
39
0
210
0
220
0
230
1
0
LINE
5
CE
100
AcDbEntity
8
1
62
256
6
ByLayer
370
18
48
1
60
0
100
AcDbLine
10
-3.57
20
-23.152251
30
0
11
-3.764588
21
-23.315529
31
0
39
0
210
0
220
0
230
1
0
LINE
5
CF
100
AcDbEntity
8
1
62
256
6
ByLayer
370
18
48
1
60
0
100
AcDbLine
10
-1.97
20
-20.25
30
0
11
-1.97
21
-17.947793
31
0
39
0
210
0
220
0
230
1
0
LINE
5
D0
100
AcDbEntity
8
1
62
256
6
ByLayer
370
18
48
1
60
0
100
AcDbLine
10
-1.5
20
-17.947793
30
0
11
-1.5
21
-20.25
31
0
39
0
210
0
220
0
230
1
0
LINE
5
D1
100
AcDbEntity
8
1
62
256
6
ByLayer
370
18
48
1
60
0
100
AcDbLine
10
-1.97
20
-20.25
30
0
11
-1.5
21
-20.25
31
0
39
0
210
0
220
0
230
1
0
LINE
5
D2
100
AcDbEntity
8
1
62
256
6
ByLayer
370
18
48
1
60
0
100
AcDbLine
10
-0.5
20
-17.73789
30
0
11
-0.5
21
-20
31
0
39
0
210
0
220
0
230
1
0
LINE
5
D3
100
AcDbEntity
8
1
62
256
6
ByLayer
370
18
48
1
60
0
100
AcDbLine
10
-1.5
20
-20
30
0
11
-0.5
21
-20
31
0
39
0
210
0
220
0
230
1
0
LINE
5
D4
100
AcDbEntity
8
1
62
256
6
ByLayer
370
18
48
1
60
0
100
AcDbLine
10
-16.668222
20
-51.777702
30
0
11
-13.210201
21
-51.777702
31
0
39
0
210
0
220
0
230
1
0
LINE
5
D5
100
AcDbEntity
8
1
62
256
6
ByLayer
370
18
48
1
60
0
100
AcDbLine
10
-14.725
20
-58.295281
30
0
11
-15.275
21
-58.295281
31
0
39
0
210
0
220
0
230
1
0
LINE
5
D6
100
AcDbEntity
8
SK1
62
256
6
ByLayer
370
18
48
1
60
0
100
AcDbLine
10
0.324981
20
-16.42521
30
0
11
0.324981
21
-16.60077
31
0
39
0
210
0
220
0
230
1
0
LINE
5
D7
100
AcDbEntity
8
SK1
62
256
6
ByLayer
370
18
48
1
60
0
100
AcDbLine
10
-0.342769
20
-17.072898
30
0
11
0.249981
21
-16.730673
31
0
39
0
210
0
220
0
230
1
0
LINE
5
D8
100
AcDbEntity
8
SK1
62
256
6
ByLayer
370
18
48
1
60
0
100
AcDbLine
10
0.249981
20
-17.769327
30
0
11
-0.342769
21
-17.427102
31
0
39
0
210
0
220
0
230
1
0
LINE
5
D9
100
AcDbEntity
8
SK1
62
256
6
ByLayer
370
18
48
1
60
0
100
AcDbLine
10
0.324981
20
-17.89923
30
0
11
0.324981
21
-18.10077
31
0
39
0
210
0
220
0
230
1
0
LINE
5
DA
100
AcDbEntity
8
SK1
62
256
6
ByLayer
370
18
48
1
60
0
100
AcDbLine
10
-0.342769
20
-18.572898
30
0
11
0.249981
21
-18.230673
31
0
39
0
210
0
220
0
230
1
0
LINE
5
DB
100
AcDbEntity
8
SK1
62
256
6
ByLayer
370
18
48
1
60
0
100
AcDbLine
10
0.203339
20
-19.242398
30
0
11
-0.342769
21
-18.927102
31
0
39
0
210
0
220
0
230
1
0
LINE
5
DC
100
AcDbEntity
8
1
62
256
6
ByLayer
370
18
48
1
60
0
100
AcDbLine
10
-11.487237
20
-26.85
30
0
11
-12.377948
21
-26.85
31
0
39
0
210
0
220
0
230
1
0
LINE
5
DD
100
AcDbEntity
8
1
62
256
6
ByLayer
370
18
48
1
60
0
100
AcDbLine
10
-13.232525
20
-53.43245
30
0
11
-13.232525
21
-55.95
31
0
39
0
210
0
220
0
230
1
0
LINE
5
DE
100
AcDbEntity
8
1
62
256
6
ByLayer
370
18
48
1
60
0
100
AcDbLine
10
-11.487237
20
-26.85
30
0
11
-11.487237
21
-44.213294
31
0
39
0
210
0
220
0
230
1
0
LINE
5
DF
100
AcDbEntity
8
1
62
256
6
ByLayer
370
18
48
1
60
0
100
AcDbLine
10
-13.234369
20
-58.959048
30
0
11
-13.234369
21
-61.873299
31
0
39
0
210
0
220
0
230
1
0
LINE
5
E0
100
AcDbEntity
8
1
62
256
6
ByLayer
370
18
48
1
60
0
100
AcDbLine
10
-13.234369
20
-58.959048
30
0
11
-13.400017
21
-58.958556
31
0
39
0
210
0
220
0
230
1
0
LINE
5
E1
100
AcDbEntity
8
1
62
256
6
ByLayer
370
18
48
1
60
0
100
AcDbLine
10
-13.232552
20
-56.035488
30
0
11
-13.258138
21
-56.035336
31
0
39
0
210
0
220
0
230
1
0
LINE
5
E2
100
AcDbEntity
8
1
62
256
6
ByLayer
370
18
48
1
60
0
100
AcDbLine
10
-16.599985
20
-58.958556
30
0
11
-16.708356
21
-58.958878
31
0
39
0
210
0
220
0
230
1
0
LINE
5
E3
100
AcDbEntity
8
1
62
256
6
ByLayer
370
18
48
1
60
0
100
AcDbLine
10
-13.25748
20
-55.95
30
0
11
-13.232525
21
-55.95
31
0
39
0
210
0
220
0
230
1
0
LINE
5
E4
100
AcDbEntity
8
1
62
256
6
ByLayer
370
18
48
1
60
0
100
AcDbLine
10
-16.6
20
-58.334518
30
0
11
-16.358749
21
-58.334518
31
0
39
0
210
0
220
0
230
1
0
LINE
5
E5
100
AcDbEntity
8
1
62
256
6
ByLayer
370
18
48
1
60
0
100
AcDbLine
10
-16.358749
20
-57.901527
30
0
11
-16.358749
21
-58.334518
31
0
39
0
210
0
220
0
230
1
0
LINE
5
E6
100
AcDbEntity
8
1
62
256
6
ByLayer
370
18
48
1
60
0
100
AcDbLine
10
-16.6
20
-57.865419
30
0
11
-16.6
21
-58.334518
31
0
39
0
210
0
220
0
230
1
0
LINE
5
E7
100
AcDbEntity
8
1
62
256
6
ByLayer
370
18
48
1
60
0
100
AcDbLine
10
-16.341384
20
-57.904119
30
0
11
-16.341384
21
-58.336037
31
0
39
0
210
0
220
0
230
1
0
LINE
5
E8
100
AcDbEntity
8
1
62
256
6
ByLayer
370
18
48
1
60
0
100
AcDbLine
10
-13.4
20
-58.334518
30
0
11
-13.641251
21
-58.334518
31
0
39
0
210
0
220
0
230
1
0
LINE
5
E9
100
AcDbEntity
8
1
62
256
6
ByLayer
370
18
48
1
60
0
100
AcDbLine
10
-13.641251
20
-57.901678
30
0
11
-13.641251
21
-58.334518
31
0
39
0
210
0
220
0
230
1
0
LINE
5
EA
100
AcDbEntity
8
1
62
256
6
ByLayer
370
18
48
1
60
0
100
AcDbLine
10
-13.4
20
-57.865419
30
0
11
-13.4
21
-58.334518
31
0
39
0
210
0
220
0
230
1
0
LINE
5
EB
100
AcDbEntity
8
1
62
256
6
ByLayer
370
18
48
1
60
0
100
AcDbLine
10
-16.6
20
-59.63
30
0
11
-13.4
21
-59.63
31
0
39
0
210
0
220
0
230
1
0
LINE
5
EC
100
AcDbEntity
8
1
62
256
6
ByLayer
370
18
48
1
60
0
100
AcDbLine
10
-16.341384
20
-58.336037
30
0
11
-15.649934
21
-58.457959
31
0
39
0
210
0
220
0
230
1
0
LINE
5
ED
100
AcDbEntity
8
1
62
256
6
ByLayer
370
18
48
1
60
0
100
AcDbLine
10
-15.605665
20
-58.477691
30
0
11
-15.513888
21
-58.549523
31
0
39
0
210
0
220
0
230
1
0
LINE
5
EE
100
AcDbEntity
8
1
62
256
6
ByLayer
370
18
48
1
60
0
100
AcDbLine
10
-15.02
20
-58.937861
30
0
11
-14.98
21
-58.937861
31
0
39
0
210
0
220
0
230
1
0
LINE
5
EF
100
AcDbEntity
8
1
62
256
6
ByLayer
370
18
48
1
60
0
100
AcDbLine
10
-14.394335
20
-58.477691
30
0
11
-14.486112
21
-58.549523
31
0
39
0
210
0
220
0
230
1
0
LINE
5
F0
100
AcDbEntity
8
1
62
256
6
ByLayer
370
18
48
1
60
0
100
AcDbLine
10
-13.658616
20
-58.336037
30
0
11
-14.350066
21
-58.457959
31
0
39
0
210
0
220
0
230
1
0
LINE
5
F1
100
AcDbEntity
8
1
62
256
6
ByLayer
370
18
48
1
60
0
100
AcDbLine
10
-13.4
20
-59.63
30
0
11
-13.4
21
-58.334518
31
0
39
0
210
0
220
0
230
1
0
LINE
5
F2
100
AcDbEntity
8
1
62
256
6
ByLayer
370
18
48
1
60
0
100
AcDbLine
10
-16.6
20
-59.63
30
0
11
-16.6
21
-58.334518
31
0
39
0
210
0
220
0
230
1
0
LINE
5
F3
100
AcDbEntity
8
1
62
256
6
ByLayer
370
18
48
1
60
0
100
AcDbLine
10
-13.658616
20
-57.90427
30
0
11
-13.658616
21
-58.336037
31
0
39
0
210
0
220
0
230
1
0
LINE
5
F4
100
AcDbEntity
8
1
62
256
6
ByLayer
370
18
48
1
60
0
100
AcDbLine
10
-14.350066
20
-58.007869
30
0
11
-14.350066
21
-58.457959
31
0
39
0
210
0
220
0
230
1
0
LINE
5
F5
100
AcDbEntity
8
1
62
256
6
ByLayer
370
18
48
1
60
0
100
AcDbLine
10
-15.649934
20
-58.007869
30
0
11
-15.649934
21
-58.457959
31
0
39
0
210
0
220
0
230
1
0
LINE
5
F6
100
AcDbEntity
8
1
62
256
6
ByLayer
370
18
48
1
60
0
100
AcDbLine
10
-15.605665
20
-58.014611
30
0
11
-15.605665
21
-58.477691
31
0
39
0
210
0
220
0
230
1
0
LINE
5
F7
100
AcDbEntity
8
1
62
256
6
ByLayer
370
18
48
1
60
0
100
AcDbLine
10
-14.394335
20
-58.014611
30
0
11
-14.394335
21
-58.477691
31
0
39
0
210
0
220
0
230
1
0
LINE
5
F8
100
AcDbEntity
8
1
62
256
6
ByLayer
370
18
48
1
60
0
100
AcDbLine
10
-14.486112
20
-58.045123
30
0
11
-14.486112
21
-58.549523
31
0
39
0
210
0
220
0
230
1
0
LINE
5
F9
100
AcDbEntity
8
1
62
256
6
ByLayer
370
18
48
1
60
0
100
AcDbLine
10
-15.513888
20
-58.044965
30
0
11
-15.513888
21
-58.549523
31
0
39
0
210
0
220
0
230
1
0
LINE
5
FA
100
AcDbEntity
8
1
62
256
6
ByLayer
370
18
48
1
60
0
100
AcDbLine
10
-14.516915
20
-58.590119
30
0
11
-14.516915
21
-58.072756
31
0
39
0
210
0
220
0
230
1
0
LINE
5
FB
100
AcDbEntity
8
1
62
256
6
ByLayer
370
18
48
1
60
0
100
AcDbLine
10
-15.483085
20
-58.590119
30
0
11
-15.483085
21
-58.07204
31
0
39
0
210
0
220
0
230
1
0
LINE
5
FC
100
AcDbEntity
8
1
62
256
6
ByLayer
370
18
48
1
60
0
100
AcDbLine
10
-14.572267
20
-58.184766
30
0
11
-14.572267
21
-58.748945
31
0
39
0
210
0
220
0
230
1
0
LINE
5
FD
100
AcDbEntity
8
1
62
256
6
ByLayer
370
18
48
1
60
0
100
AcDbLine
10
-15.427733
20
-58.184766
30
0
11
-15.427733
21
-58.748945
31
0
39
0
210
0
220
0
230
1
0
LINE
5
FE
100
AcDbEntity
8
1
62
256
6
ByLayer
370
18
48
1
60
0
100
AcDbLine
10
-15.210736
20
-58.295202
30
0
11
-15.210736
21
-58.928946
31
0
39
0
210
0
220
0
230
1
0
LINE
5
FF
100
AcDbEntity
8
1
62
256
6
ByLayer
370
18
48
1
60
0
100
AcDbLine
10
-14.789264
20
-58.295202
30
0
11
-14.789264
21
-58.928946
31
0
39
0
210
0
220
0
230
1
0
LINE
5
100
100
AcDbEntity
8
1
62
256
6
ByLayer
370
18
48
1
60
0
100
AcDbLine
10
-15.02
20
-58.295259
30
0
11
-15.02
21
-58.937861
31
0
39
0
210
0
220
0
230
1
0
LINE
5
101
100
AcDbEntity
8
1
62
256
6
ByLayer
370
18
48
1
60
0
100
AcDbLine
10
-14.98
20
-58.295259
30
0
11
-14.98
21
-58.937861
31
0
39
0
210
0
220
0
230
1
0
LINE
5
102
100
AcDbEntity
8
1
62
256
6
ByLayer
370
18
48
1
60
0
100
AcDbLine
10
-16.83874
20
-45
30
0
11
-16.767129
21
-45.124034
31
0
39
0
210
0
220
0
230
1
0
LINE
5
103
100
AcDbEntity
8
1
62
256
6
ByLayer
370
18
48
1
60
0
100
AcDbLine
10
-16.999714
20
-41.313086
30
0
11
-16.83874
21
-45
31
0
39
0
210
0
220
0
230
1
0
LINE
5
104
100
AcDbEntity
8
1
62
256
6
ByLayer
370
18
48
1
60
0
100
AcDbLine
10
-13.16126
20
-62
30
0
11
-13.4
21
-61.58649
31
0
39
0
210
0
220
0
230
1
0
LINE
5
105
100
AcDbEntity
8
1
62
256
6
ByLayer
370
18
48
1
60
0
100
AcDbLine
10
-13.000286
20
-65.686914
30
0
11
-13.16126
21
-62
31
0
39
0
210
0
220
0
230
1
0
LINE
5
106
100
AcDbEntity
8
1
62
256
6
ByLayer
370
18
48
1
60
0
100
AcDbLine
10
-16.7
20
-66
30
0
11
-13.3
21
-66
31
0
39
0
210
0
220
0
230
1
0
LINE
5
107
100
AcDbEntity
8
1
62
256
6
ByLayer
370
18
48
1
60
0
100
AcDbLine
10
-16.83874
20
-62
30
0
11
-16.6
21
-61.58649
31
0
39
0
210
0
220
0
230
1
0
LINE
5
108
100
AcDbEntity
8
1
62
256
6
ByLayer
370
18
48
1
60
0
100
AcDbLine
10
-16.999714
20
-65.686914
30
0
11
-16.83874
21
-62
31
0
39
0
210
0
220
0
230
1
0
LINE
5
109
100
AcDbEntity
8
1
62
256
6
ByLayer
370
18
48
1
60
0
100
AcDbLine
10
-13.4
20
-59.63
30
0
11
-13.4
21
-61.58649
31
0
39
0
210
0
220
0
230
1
0
LINE
5
10A
100
AcDbEntity
8
1
62
256
6
ByLayer
370
18
48
1
60
0
100
AcDbLine
10
-16.6
20
-59.63
30
0
11
-16.6
21
-61.58649
31
0
39
0
210
0
220
0
230
1
0
LINE
5
10B
100
AcDbEntity
8
SK1
62
256
6
ByLayer
370
18
48
1
60
0
100
AcDbLine
10
6.824981
20
5.9325
30
0
11
0.325106
21
5.9325
31
0
39
0
210
0
220
0
230
1
0
LINE
5
10C
100
AcDbEntity
8
SK1
62
256
6
ByLayer
370
18
48
1
60
0
100
AcDbLine
10
6.824981
20
5.9325
30
0
11
6.824981
21
-5.9325
31
0
39
0
210
0
220
0
230
1
0
LINE
5
10D
100
AcDbEntity
8
SK1
62
256
6
ByLayer
370
18
48
1
60
0
100
AcDbLine
10
0.325106
20
-5.9325
30
0
11
6.824981
21
-5.9325
31
0
39
0
210
0
220
0
230
1
0
LINE
5
10E
100
AcDbEntity
8
SK1
62
256
6
ByLayer
370
18
48
1
60
0
100
AcDbLine
10
7.824981
20
5.664551
30
0
11
7.824981
21
-5.664551
31
0
39
0
210
0
220
0
230
1
0
LINE
5
10F
100
AcDbEntity
8
SK1
62
256
6
ByLayer
370
18
48
1
60
0
100
AcDbLine
10
6.824981
20
-5.9325
30
0
11
7.824981
21
-5.664551
31
0
39
0
210
0
220
0
230
1
0
LINE
5
110
100
AcDbEntity
8
SK1
62
256
6
ByLayer
370
18
48
1
60
0
100
AcDbLine
10
7.824981
20
5.664551
30
0
11
6.824981
21
5.9325
31
0
39
0
210
0
220
0
230
1
0
LINE
5
111
100
AcDbEntity
8
80
62
256
6
ByLayer
370
18
48
1
60
0
100
AcDbLine
10
0
20
0
30
0
11
11.8174
21
0
31
0
39
0
210
0
220
0
230
1
0
LINE
5
112
100
AcDbEntity
8
SK4
62
256
6
ByLayer
370
13
48
0.05
60
0
100
AcDbLine
10
14
20
0
30
0
11
-22
21
0
31
0
39
0
210
0
220
0
230
1
0
LINE
5
114
100
AcDbEntity
8
4
62
256
6
ByLayer
370
13
48
0.05
60
0
100
AcDbLine
10
0
20
0
30
0
11
-23.7529
21
0
31
0
39
0
210
0
220
0
230
1
0
LINE
5
116
100
AcDbEntity
8
81
62
256
6
ByLayer
370
18
48
1
60
0
100
AcDbLine
10
-17.013384
20
-66
30
0
11
-17.013384
21
-72.38595
31
0
39
0
210
0
220
0
230
1
0
MTEXT
5
1C3
100
AcDbEntity
8
SK6
62
256
6
ByLayer
370
18
48
1
60
0
100
AcDbMText
10
-31.216281
20
-87.305775
30
0
210
0
220
0
230
1
1
\W0.7826;C2A-SL70-RGH40A-290AB
40
3.175
41
0
44
1.084337
50
0
71
7
72
5
7
iso_b_vert
0
DIMENSION
5
1C8
100
AcDbEntity
8
SK2
62
256
6
ByLayer
370
18
48
1
60
0
100
AcDbDimension
2
_U0
10
16.657804
20
-20
30
0
11
16.657804
21
9.167885
31
0
70
32
71
1
72
1
41
1
210
0
220
0
230
1
3
Standard
100
AcDbAlignedDimension
13
-5.25
23
20
33
0
14
-0.5
24
-20
34
0
50
90
100
AcDbRotatedDimension
1001
ACAD
1000
DSTYLE
1002
{
1070
   371
1070
    13
1070
   372
1070
    13
1070
   170
1070
     0
1070
   144
1040
1.0
1070
   277
1070
     2
1070
   284
1070
     8
1070
   278
1070
    46
1070
   146
1040
0.999966
1070
   345
1005
16
1070
   347
1005
16
1070
   346
1005
16
1070
   344
1005
1C9
1070
   343
1005
1C9
1070
   172
1070
     1
1070
    76
1070
     0
1070
    75
1070
     0
1070
   282
1070
     0
1070
   281
1070
     0
1070
    71
1070
     0
1070
    74
1070
     0
1070
   279
1070
     0
1070
   173
1070
     1
1070
   340
1005
1C4
1070
   271
1070
     1
1070
   272
1070
     2
1070
    77
1070
     1
1070
    73
1070
     0
1070
   171
1070
     3
1070
   274
1070
     4
1070
   177
1070
   150
1070
   176
1070
     9
1070
   178
1070
    43
1070
    78
1070
     8
1070
    48
1040
-0.1
1070
    41
1040
3.175
1070
   147
1040
1.75006
1070
    42
1040
1.5875
1070
    44
1040
3.175
1070
   140
1040
3.50012
1002
}
1001
ACAD_DSTYLE_DIM_LINETYPE
1070
   380
1005
16
1001
ACAD_DSTYLE_DIM_EXT1_LINETYPE
1070
   381
1005
16
1001
ACAD_DSTYLE_DIM_EXT2_LINETYPE
1070
   382
1005
16
0
DIMENSION
5
1ED
100
AcDbEntity
8
2
62
256
6
ByLayer
370
18
48
1
60
0
100
AcDbDimension
2
_U1
10
26.968023
20
-66
30
0
11
26.968023
21
-35.166059
31
0
70
32
71
1
72
1
41
1
210
0
220
0
230
1
3
Standard
100
AcDbAlignedDimension
13
0
23
0
33
0
14
-17.013384
24
-66
34
0
50
90
100
AcDbRotatedDimension
1001
ACAD
1000
DSTYLE
1002
{
1070
   371
1070
    13
1070
   372
1070
    13
1070
   170
1070
     0
1070
   144
1040
1.0
1070
   277
1070
     2
1070
   284
1070
     8
1070
   278
1070
    46
1070
   146
1040
0.999966
1070
   345
1005
16
1070
   347
1005
16
1070
   346
1005
16
1070
   344
1005
1C9
1070
   343
1005
1C9
1070
   172
1070
     1
1070
    76
1070
     0
1070
    75
1070
     0
1070
   282
1070
     0
1070
   281
1070
     0
1070
    71
1070
     0
1070
    74
1070
     0
1070
   279
1070
     0
1070
   173
1070
     1
1070
   340
1005
1C4
1070
   271
1070
     1
1070
   272
1070
     2
1070
    77
1070
     1
1070
    73
1070
     0
1070
   171
1070
     3
1070
   274
1070
     4
1070
   177
1070
   150
1070
   176
1070
     9
1070
   178
1070
    43
1070
    78
1070
     8
1070
    48
1040
-0.1
1070
    41
1040
3.175
1070
   147
1040
1.75006
1070
    42
1040
1.5875
1070
    44
1040
3.175
1070
   140
1040
3.50012
1002
}
1001
ACAD_DSTYLE_DIM_LINETYPE
1070
   380
1005
16
1001
ACAD_DSTYLE_DIM_EXT1_LINETYPE
1070
   381
1005
16
1001
ACAD_DSTYLE_DIM_EXT2_LINETYPE
1070
   382
1005
16
0
DIMENSION
5
20A
100
AcDbEntity
8
SK2
62
256
6
ByLayer
370
18
48
1
60
0
100
AcDbDimension
2
_U2
10
9.028241
20
-66
30
0
11
9.028241
21
-44.857665
31
0
70
32
71
1
72
1
41
1
210
0
220
0
230
1
3
Standard
100
AcDbAlignedDimension
13
-6.07
23
-25.25
33
0
14
-17.013384
24
-66
34
0
50
90
100
AcDbRotatedDimension
1001
ACAD
1000
DSTYLE
1002
{
1070
   371
1070
    13
1070
   372
1070
    13
1070
   170
1070
     0
1070
   144
1040
1.0
1070
   277
1070
     2
1070
   284
1070
     8
1070
   278
1070
    46
1070
   146
1040
0.999966
1070
   345
1005
16
1070
   347
1005
16
1070
   346
1005
16
1070
   344
1005
1C9
1070
   343
1005
1C9
1070
   172
1070
     1
1070
    76
1070
     0
1070
    75
1070
     0
1070
   282
1070
     0
1070
   281
1070
     0
1070
    71
1070
     0
1070
    74
1070
     0
1070
   279
1070
     0
1070
   173
1070
     1
1070
   340
1005
1C4
1070
   271
1070
     2
1070
   272
1070
     2
1070
    77
1070
     1
1070
    73
1070
     0
1070
   171
1070
     3
1070
   274
1070
     4
1070
   177
1070
   150
1070
   176
1070
     9
1070
   178
1070
    43
1070
    78
1070
     8
1070
    48
1040
-0.1
1070
    41
1040
3.175
1070
   147
1040
1.75006
1070
    42
1040
1.5875
1070
    44
1040
3.175
1070
   140
1040
3.50012
1002
}
1001
ACAD_DSTYLE_DIM_LINETYPE
1070
   380
1005
16
1001
ACAD_DSTYLE_DIM_EXT1_LINETYPE
1070
   381
1005
16
1001
ACAD_DSTYLE_DIM_EXT2_LINETYPE
1070
   382
1005
16
0
DIMENSION
5
226
100
AcDbEntity
8
2
62
256
6
ByLayer
370
18
48
1
60
0
100
AcDbDimension
2
_U3
10
0
20
-74.958151
30
0
11
-9.215492
21
-74.958151
31
0
70
32
71
1
72
1
41
1
210
0
220
0
230
1
3
Standard
100
AcDbAlignedDimension
13
-17.013384
23
-66
33
0
14
0
24
0
34
0
50
0
100
AcDbRotatedDimension
1001
ACAD
1000
DSTYLE
1002
{
1070
   371
1070
    13
1070
   372
1070
    13
1070
   170
1070
     0
1070
   144
1040
1.0
1070
   277
1070
     2
1070
   284
1070
     8
1070
   278
1070
    46
1070
   146
1040
0.999966
1070
   345
1005
16
1070
   347
1005
16
1070
   346
1005
16
1070
   344
1005
1C9
1070
   343
1005
1C9
1070
   172
1070
     1
1070
    76
1070
     0
1070
    75
1070
     0
1070
   282
1070
     0
1070
   281
1070
     0
1070
    71
1070
     0
1070
    74
1070
     0
1070
   279
1070
     0
1070
   173
1070
     1
1070
   340
1005
1C4
1070
   271
1070
     1
1070
   272
1070
     2
1070
    77
1070
     1
1070
    73
1070
     1
1070
   171
1070
     3
1070
   274
1070
     4
1070
   177
1070
   150
1070
   176
1070
     9
1070
   178
1070
    43
1070
    78
1070
     8
1070
    48
1040
-0.1
1070
    41
1040
3.175
1070
   147
1040
1.75006
1070
    42
1040
1.5875
1070
    44
1040
3.175
1070
   140
1040
3.50012
1002
}
1001
ACAD_DSTYLE_DIM_LINETYPE
1070
   380
1005
16
1001
ACAD_DSTYLE_DIM_EXT1_LINETYPE
1070
   381
1005
16
1001
ACAD_DSTYLE_DIM_EXT2_LINETYPE
1070
   382
1005
16
0
ENDSEC
0
SECTION
2
OBJECTS
0
DICTIONARY
5
2b3
330
0
100
AcDbDictionary
280
0
281
1
3
ACAD_GROUP
350
2b4
3
ACAD_MLINESTYLE
350
2b5
0
DICTIONARY
5
2b4
330
0
100
AcDbDictionary
280
0
281
1
0
DICTIONARY
5
2b5
330
0
100
AcDbDictionary
280
0
281
1
3
Standard
350
18
0
MLINESTYLE
5
18
330
2b5
100
AcDbMlineStyle
2
Standard
70
0
3

62
256
51
90
52
90
71
2
49
-0.5
62
256
6
ByLayer
49
0.5
62
256
6
ByLayer
0
RASTERVARIABLES
5
2a1
330

100
AcDbRasterVariables
90
0
70
1
71
1
72
1
0
ENDSEC
0
EOF
