  0
SECTION
  2
HEADER
  9
$ACADVER
  1
AC1015
  9
$ACADMAINTVER
 70
     6
  9
$DWGCODEPAGE
  3
ANSI_1250
  9
$INSBASE
 10
0.0
 20
0.0
 30
0.0
  9
$EXTMIN
 10
0.0
 20
0.0
 30
0.0
  9
$EXTMAX
 10
297.0
 20
210.0
 30
0.0
  9
$LIMMIN
 10
0.0
 20
0.0
  9
$LIMMAX
 10
297.0
 20
210.0
  9
$ORTHOMODE
 70
     0
  9
$REGENMODE
 70
     1
  9
$FILLMODE
 70
     1
  9
$QTEXTMODE
 70
     0
  9
$MIRRTEXT
 70
     1
  9
$LTSCALE
 40
1.0
  9
$ATTMODE
 70
     1
  9
$TEXTSIZE
 40
3.5
  9
$TRACEWID
 40
1.0
  9
$TEXTSTYLE
  7
Standard
  9
$CLAYER
  8
0
  9
$CELTYPE
  6
ByLayer
  9
$CECOLOR
 62
   256
  9
$CELTSCALE
 40
1.0
  9
$DISPSILH
 70
     0
  9
$DIMSCALE
 40
1.0
  9
$DIMASZ
 40
3.302
  9
$DIMEXO
 40
1.0
  9
$DIMDLI
 40
3.75
  9
$DIMRND
 40
0.0
  9
$DIMDLE
 40
0.0
  9
$DIMEXE
 40
1.0
  9
$DIMTP
 40
0.0
  9
$DIMTM
 40
0.0
  9
$DIMTXT
 40
3.5
  9
$DIMCEN
 40
2.5
  9
$DIMTSZ
 40
0.0
  9
$DIMTOL
 70
     0
  9
$DIMLIM
 70
     0
  9
$DIMTIH
 70
     1
  9
$DIMTOH
 70
     1
  9
$DIMSE1
 70
     0
  9
$DIMSE2
 70
     0
  9
$DIMTAD
 70
     1
  9
$DIMZIN
 70
     0
  9
$DIMBLK
  1

  9
$DIMASO
 70
     1
  9
$DIMSHO
 70
     1
  9
$DIMPOST
  1

  9
$DIMAPOST
  1

  9
$DIMALT
 70
     0
  9
$DIMALTD
 70
     3
  9
$DIMALTF
 40
0.0393700787
  9
$DIMLFAC
 40
1.0
  9
$DIMTOFL
 70
     1
  9
$DIMTVP
 40
0.0
  9
$DIMTIX
 70
     0
  9
$DIMSOXD
 70
     0
  9
$DIMSAH
 70
     0
  9
$DIMBLK1
  1

  9
$DIMBLK2
  1

  9
$DIMSTYLE
  2
ISO-25
  9
$DIMCLRD
 70
     0
  9
$DIMCLRE
 70
     0
  9
$DIMCLRT
 70
     0
  9
$DIMTFAC
 40
1.0
  9
$DIMGAP
 40
1.524
  9
$DIMJUST
 70
     0
  9
$DIMSD1
 70
     0
  9
$DIMSD2
 70
     0
  9
$DIMTOLJ
 70
     0
  9
$DIMTZIN
 70
     0
  9
$DIMALTZ
 70
     0
  9
$DIMALTTZ
 70
     0
  9
$DIMUPT
 70
     0
  9
$DIMDEC
 70
     2
  9
$DIMTDEC
 70
     2
  9
$DIMALTU
 70
     2
  9
$DIMALTTD
 70
     3
  9
$DIMTXSTY
  7
Standard
  9
$DIMAUNIT
 70
     0
  9
$DIMADEC
 70
     2
  9
$DIMALTRND
 40
0.0
  9
$DIMAZIN
 70
     0
  9
$DIMDSEP
 70
    44
  9
$DIMATFIT
 70
     3
  9
$DIMFRAC
 70
     0
  9
$DIMLDRBLK
  1

  9
$DIMLUNIT
 70
     2
  9
$DIMLWD
 70
    -2
  9
$DIMLWE
 70
    -2
  9
$DIMTMOVE
 70
     0
  9
$LUNITS
 70
     2
  9
$LUPREC
 70
     2
  9
$SKETCHINC
 40
1.0
  9
$FILLETRAD
 40
10.0
  9
$AUNITS
 70
     0
  9
$AUPREC
 70
     2
  9
$MENU
  1
.
  9
$ELEVATION
 40
0.0
  9
$PELEVATION
 40
0.0
  9
$THICKNESS
 40
0.0
  9
$LIMCHECK
 70
     0
  9
$CHAMFERA
 40
0.0
  9
$CHAMFERB
 40
0.0
  9
$CHAMFERC
 40
0.0
  9
$CHAMFERD
 40
0.0
  9
$SKPOLY
 70
     0
  9
$TDCREATE
 40
2459725.446251991
  9
$TDUCREATE
 40
2459725.362918657
  9
$TDUPDATE
 40
2459725.446253796
  9
$TDUUPDATE
 40
2459725.362920463
  9
$TDINDWG
 40
0.0000000116
  9
$TDUSRTIMER
 40
0.0000000116
  9
$USRTIMER
 70
     1
  9
$ANGBASE
 50
0.0
  9
$ANGDIR
 70
     0
  9
$PDMODE
 70
     0
  9
$PDSIZE
 40
-1.0
  9
$PLINEWID
 40
0.0
  9
$SPLFRAME
 70
     0
  9
$SPLINETYPE
 70
     6
  9
$SPLINESEGS
 70
     8
  9
$HANDSEED
  5
375
  9
$SURFTAB1
 70
     6
  9
$SURFTAB2
 70
     6
  9
$SURFTYPE
 70
     6
  9
$SURFU
 70
     6
  9
$SURFV
 70
     6
  9
$UCSBASE
  2

  9
$UCSNAME
  2

  9
$UCSORG
 10
0.0
 20
0.0
 30
0.0
  9
$UCSXDIR
 10
1.0
 20
0.0
 30
0.0
  9
$UCSYDIR
 10
0.0
 20
1.0
 30
0.0
  9
$UCSORTHOREF
  2

  9
$UCSORTHOVIEW
 70
     0
  9
$UCSORGTOP
 10
0.0
 20
0.0
 30
0.0
  9
$UCSORGBOTTOM
 10
0.0
 20
0.0
 30
0.0
  9
$UCSORGLEFT
 10
0.0
 20
0.0
 30
0.0
  9
$UCSORGRIGHT
 10
0.0
 20
0.0
 30
0.0
  9
$UCSORGFRONT
 10
0.0
 20
0.0
 30
0.0
  9
$UCSORGBACK
 10
0.0
 20
0.0
 30
0.0
  9
$PUCSBASE
  2

  9
$PUCSNAME
  2

  9
$PUCSORG
 10
0.0
 20
0.0
 30
0.0
  9
$PUCSXDIR
 10
1.0
 20
0.0
 30
0.0
  9
$PUCSYDIR
 10
0.0
 20
1.0
 30
0.0
  9
$PUCSORTHOREF
  2

  9
$PUCSORTHOVIEW
 70
     0
  9
$PUCSORGTOP
 10
0.0
 20
0.0
 30
0.0
  9
$PUCSORGBOTTOM
 10
0.0
 20
0.0
 30
0.0
  9
$PUCSORGLEFT
 10
0.0
 20
0.0
 30
0.0
  9
$PUCSORGRIGHT
 10
0.0
 20
0.0
 30
0.0
  9
$PUCSORGFRONT
 10
0.0
 20
0.0
 30
0.0
  9
$PUCSORGBACK
 10
0.0
 20
0.0
 30
0.0
  9
$USERI1
 70
     0
  9
$USERI2
 70
     0
  9
$USERI3
 70
     0
  9
$USERI4
 70
     0
  9
$USERI5
 70
     0
  9
$USERR1
 40
0.0
  9
$USERR2
 40
0.0
  9
$USERR3
 40
0.0
  9
$USERR4
 40
0.0
  9
$USERR5
 40
0.0
  9
$WORLDVIEW
 70
     1
  9
$SHADEDGE
 70
     3
  9
$SHADEDIF
 70
    70
  9
$TILEMODE
 70
     1
  9
$MAXACTVP
 70
    64
  9
$PINSBASE
 10
0.0
 20
0.0
 30
0.0
  9
$PLIMCHECK
 70
     0
  9
$PEXTMIN
 10
1.0000000000E+20
 20
1.0000000000E+20
 30
1.0000000000E+20
  9
$PEXTMAX
 10
-1.0000000000E+20
 20
-1.0000000000E+20
 30
-1.0000000000E+20
  9
$PLIMMIN
 10
0.0
 20
0.0
  9
$PLIMMAX
 10
420.0
 20
297.0
  9
$UNITMODE
 70
     0
  9
$VISRETAIN
 70
     1
  9
$PLINEGEN
 70
     0
  9
$PSLTSCALE
 70
     1
  9
$TREEDEPTH
 70
  3020
  9
$CMLSTYLE
  2
Standard
  9
$CMLJUST
 70
     0
  9
$CMLSCALE
 40
20.0
  9
$PROXYGRAPHICS
 70
     1
  9
$MEASUREMENT
 70
     1
  9
$CELWEIGHT
370
    -1
  9
$ENDCAPS
280
     0
  9
$JOINSTYLE
280
     0
  9
$LWDISPLAY
290
     1
  9
$INSUNITS
 70
     4
  9
$HYPERLINKBASE
  1

  9
$STYLESHEET
  1

  9
$XEDIT
290
     1
  9
$CEPSNTYPE
380
     0
  9
$PSTYLEMODE
290
     1
  9
$FINGERPRINTGUID
  2
{931CBA5F-F39F-417F-B33B-AFC4BFFC0592}
  9
$VERSIONGUID
  2
{FAEB1C32-E019-11D5-929B-00C0DF256EC4}
  9
$EXTNAMES
290
     1
  9
$PSVPSCALE
 40
0.0
  9
$OLESTARTUP
290
     0
  0
ENDSEC
  0
SECTION
  2
CLASSES
  0
CLASS
  1
ACDBDICTIONARYWDFLT
  2
AcDbDictionaryWithDefault
  3
ObjectDBX Classes
 90
        0
280
     0
281
     0
  0
CLASS
  1
VISUALSTYLE
  2
AcDbVisualStyle
  3
ObjectDBX Classes
 90
     4095
280
     0
281
     0
  0
CLASS
  1
MATERIAL
  2
AcDbMaterial
  3
ObjectDBX Classes
 90
     1153
280
     0
281
     0
  0
CLASS
  1
SCALE
  2
AcDbScale
  3
ObjectDBX Classes
 90
     1153
280
     0
281
     0
  0
CLASS
  1
TABLESTYLE
  2
AcDbTableStyle
  3
ObjectDBX Classes
 90
     4095
280
     0
281
     0
  0
CLASS
  1
MLEADERSTYLE
  2
AcDbMLeaderStyle
  3
ACDB_MLEADERSTYLE_CLASS
 90
     4095
280
     0
281
     0
  0
CLASS
  1
SUN
  2
AcDbSun
  3
SCENEOE
 90
     1153
280
     0
281
     0
  0
CLASS
  1
ACDBPLACEHOLDER
  2
AcDbPlaceHolder
  3
ObjectDBX Classes
 90
        0
280
     0
281
     0
  0
CLASS
  1
LAYOUT
  2
AcDbLayout
  3
ObjectDBX Classes
 90
        0
280
     0
281
     0
  0
ENDSEC
  0
SECTION
  2
TABLES
  0
TABLE
  2
VPORT
  5
8
330
0
100
AcDbSymbolTable
 70
     1
  0
VPORT
  5
29
330
8
100
AcDbSymbolTableRecord
100
AcDbViewportTableRecord
  2
*Active
 70
     0
 10
0.0
 20
0.0
 11
1.0
 21
1.0
 12
148.5
 22
105.0
 13
0.0
 23
0.0
 14
10.0
 24
10.0
 15
10.0
 25
10.0
 16
0.0
 26
0.0
 36
1.0
 17
0.0
 27
0.0
 37
0.0
 40
210.0
 41
1.4142857143
 42
50.0
 43
0.0
 44
0.0
 50
0.0
 51
0.0
 71
     0
 72
  2000
 73
     1
 74
     3
 75
     0
 76
     0
 77
     0
 78
     0
281
     0
 65
     1
110
0.0
120
0.0
130
0.0
111
1.0
121
0.0
131
0.0
112
0.0
122
1.0
132
0.0
 79
     0
146
0.0
  0
ENDTAB
  0
TABLE
  2
LTYPE
  5
5
330
0
100
AcDbSymbolTable
 70
     6
  0
LTYPE
  5
14
330
5
100
AcDbSymbolTableRecord
100
AcDbLinetypeTableRecord
  2
ByBlock
 70
     0
  3

 72
    65
 73
     0
 40
0.0
  0
LTYPE
  5
15
330
5
100
AcDbSymbolTableRecord
100
AcDbLinetypeTableRecord
  2
ByLayer
 70
     0
  3

 72
    65
 73
     0
 40
0.0
  0
LTYPE
  5
16
330
5
100
AcDbSymbolTableRecord
100
AcDbLinetypeTableRecord
  2
Continuous
 70
     0
  3
Solid line
 72
    65
 73
     0
 40
0.0
  0
LTYPE
  5
6E
330
5
100
AcDbSymbolTableRecord
100
AcDbLinetypeTableRecord
  2
HIDDEN
 70
     0
  3
Hidden __ __ __ __ __ __ __ __ __ __ __ __ __ __
 72
    65
 73
     2
 40
1.905
 49
1.27
 74
     0
 49
-0.635
 74
     0
  0
LTYPE
  5
6F
330
5
100
AcDbSymbolTableRecord
100
AcDbLinetypeTableRecord
  2
PHANTOM
 70
     0
  3
Phantom ______  __  __  ______  __  __  ______
 72
    65
 73
     6
 40
12.7
 49
6.35
 74
     0
 49
-1.27
 74
     0
 49
1.27
 74
     0
 49
-1.27
 74
     0
 49
1.27
 74
     0
 49
-1.27
 74
     0
  0
LTYPE
  5
70
330
5
100
AcDbSymbolTableRecord
100
AcDbLinetypeTableRecord
  2
CENTER
 70
     0
  3
Center ____ _ ____ _ ____ _ ____ _ ____ _ ____
 72
    65
 73
     4
 40
10.16
 49
6.35
 74
     0
 49
-1.27
 74
     0
 49
1.27
 74
     0
 49
-1.27
 74
     0
  0
LTYPE
  5
71
330
5
100
AcDbSymbolTableRecord
100
AcDbLinetypeTableRecord
  2
CENTERX2
 70
     0
  3
Center (2x) ________  __  ________  __  _____
 72
    65
 73
     4
 40
20.32
 49
12.7
 74
     0
 49
-2.54
 74
     0
 49
2.54
 74
     0
 49
-2.54
 74
     0
  0
LTYPE
  5
72
330
5
100
AcDbSymbolTableRecord
100
AcDbLinetypeTableRecord
  2
DOT2
 70
     0
  3
Dot (.5x) ........................................
 72
    65
 73
     2
 40
0.635
 49
0.0
 74
     0
 49
-0.635
 74
     0
  0
ENDTAB
  0
TABLE
  2
LAYER
  5
2
330
0
100
AcDbSymbolTable
 70
    12
  0
LAYER
  5
10
330
2
100
AcDbSymbolTableRecord
100
AcDbLayerTableRecord
  2
0
 70
     0
 62
     7
  6
Continuous
370
    -3
390
F
  0
LAYER
  5
73
330
2
100
AcDbSymbolTableRecord
100
AcDbLayerTableRecord
  2
SLD-0
 70
     0
 62
   179
  6
Continuous
370
    -3
390
F
  0
LAYER
  5
74
330
2
100
AcDbSymbolTableRecord
100
AcDbLayerTableRecord
  2
80
 70
     0
 62
    -6
  6
Continuous
290
     0
370
    -3
390
F
  0
LAYER
  5
75
330
2
100
AcDbSymbolTableRecord
100
AcDbLayerTableRecord
  2
81
 70
     0
 62
    -3
  6
Continuous
290
     0
370
    -3
390
F
  0
LAYER
  5
76
330
2
100
AcDbSymbolTableRecord
100
AcDbLayerTableRecord
  2
1
 70
     0
 62
     4
  6
Continuous
290
     0
370
    -3
390
F
  0
LAYER
  5
77
330
2
100
AcDbSymbolTableRecord
100
AcDbLayerTableRecord
  2
4
 70
     0
 62
    -2
  6
CENTER
290
     0
370
    -3
390
F
  0
LAYER
  5
78
330
2
100
AcDbSymbolTableRecord
100
AcDbLayerTableRecord
  2
2
 70
     0
 62
     7
  6
Continuous
290
     0
370
    -3
390
F
  0
LAYER
  5
79
330
2
100
AcDbSymbolTableRecord
100
AcDbLayerTableRecord
  2
SK3
 70
     0
 62
     1
  6
HIDDEN
290
     0
370
    -3
390
F
  0
LAYER
  5
7A
330
2
100
AcDbSymbolTableRecord
100
AcDbLayerTableRecord
  2
SK4
 70
     0
 62
     2
  6
CENTER
290
     0
370
    -3
390
F
  0
LAYER
  5
7B
330
2
100
AcDbSymbolTableRecord
100
AcDbLayerTableRecord
  2
SK2
 70
     0
 62
     7
  6
Continuous
290
     0
370
    -3
390
F
  0
LAYER
  5
7C
330
2
100
AcDbSymbolTableRecord
100
AcDbLayerTableRecord
  2
SK6
 70
     0
 62
     5
  6
Continuous
290
     0
370
    -3
390
F
  0
LAYER
  5
7D
330
2
100
AcDbSymbolTableRecord
100
AcDbLayerTableRecord
  2
SK1
 70
     0
 62
     4
  6
Continuous
370
    -3
390
F
  0
ENDTAB
  0
TABLE
  2
STYLE
  5
3
330
0
100
AcDbSymbolTable
 70
     3
  0
STYLE
  5
11
330
3
100
AcDbSymbolTableRecord
100
AcDbTextStyleTableRecord
  2
Standard
 70
     0
 40
0.0
 41
1.0
 50
0.0
 71
     0
 42
3.5
  3
txt
  4

  0
STYLE
  5
2AC
330
3
100
AcDbSymbolTableRecord
100
AcDbTextStyleTableRecord
  2
SLDTEXTSTYLE0
 70
     0
 40
0.0
 41
0.75
 50
0.0
 71
     0
 42
3.5
  3
TXT
  4

  0
STYLE
  5
2C4
330
3
100
AcDbSymbolTableRecord
100
AcDbTextStyleTableRecord
  2
SLDTEXTSTYLE1
 70
     0
 40
0.0
 41
0.6875
 50
0.0
 71
     0
 42
3.5
  3
TXT
  4

  0
ENDTAB
  0
TABLE
  2
VIEW
  5
6
330
0
100
AcDbSymbolTable
 70
     0
  0
ENDTAB
  0
TABLE
  2
UCS
  5
7
330
0
100
AcDbSymbolTable
 70
     0
  0
ENDTAB
  0
TABLE
  2
APPID
  5
9
330
0
100
AcDbSymbolTable
 70
     1
  0
APPID
  5
12
330
9
100
AcDbSymbolTableRecord
100
AcDbRegAppTableRecord
  2
ACAD
 70
     0
  0
ENDTAB
  0
TABLE
  2
DIMSTYLE
  5
A
330
0
100
AcDbSymbolTable
 70
     5
100
AcDbDimStyleTable
  0
DIMSTYLE
105
27
330
A
100
AcDbSymbolTableRecord
100
AcDbDimStyleTableRecord
  2
ISO-25
 70
     0
 41
2.5
 42
0.625
 43
3.75
 44
1.25
 73
     0
 74
     0
 77
     1
 78
     8
140
2.5
141
2.5
143
0.0393700787
147
0.625
171
     3
172
     1
178
     0
271
     2
272
     2
274
     3
278
    44
283
     0
284
     8
340
11
  0
DIMSTYLE
105
2AD
102
{ACAD_REACTORS
330
2AB
330
2C6
330
2D1
102
}
330
A
100
AcDbSymbolTableRecord
100
AcDbDimStyleTableRecord
  2
SLDDIMSTYLE0
 70
     0
 41
3.302
 44
0.0
 45
0.000000001
 73
     0
 74
     0
 77
     1
 78
    12
 79
     3
140
3.5
147
0.875
173
     1
178
     0
271
     2
272
     2
276
     2
284
    12
340
2AC
  0
DIMSTYLE
105
2B9
102
{ACAD_REACTORS
330
2B8
102
}
330
A
100
AcDbSymbolTableRecord
100
AcDbDimStyleTableRecord
  2
SLDDIMSTYLE1
 70
     0
 41
3.302
 44
0.0
 45
0.000000001
 73
     0
 74
     0
 77
     1
 78
    12
 79
     3
140
3.5
147
0.875
172
     1
173
     1
178
     0
271
     2
272
     2
276
     2
284
    12
289
     0
340
2AC
  0
DIMSTYLE
105
2DC
102
{ACAD_REACTORS
330
2DB
330
2EF
330
302
330
315
330
327
330
34D
330
360
102
}
330
A
100
AcDbSymbolTableRecord
100
AcDbDimStyleTableRecord
  2
SLDDIMSTYLE2
 70
     0
 41
3.302
 44
0.0
 45
0.000000001
 73
     0
 74
     0
 77
     1
 78
    12
 79
     3
140
3.5
143
0.0393700787
147
0.875
148
0.000000001
170
     1
173
     1
178
     0
271
     2
272
     2
276
     2
284
    12
340
2AC
  0
DIMSTYLE
105
33B
102
{ACAD_REACTORS
330
33A
102
}
330
A
100
AcDbSymbolTableRecord
100
AcDbDimStyleTableRecord
  2
SLDDIMSTYLE3
 70
     0
 41
3.302
 44
0.0
 45
0.000000001
 73
     0
 74
     0
 77
     1
 78
    12
 79
     3
140
3.5
143
0.0393700787
147
0.875
148
0.000000001
170
     1
173
     1
178
     0
271
     0
272
     2
276
     2
284
    12
340
2AC
  0
ENDTAB
  0
TABLE
  2
BLOCK_RECORD
  5
1
330
0
100
AcDbSymbolTable
 70
    13
  0
BLOCK_RECORD
  5
1F
330
1
100
AcDbSymbolTableRecord
100
AcDbBlockTableRecord
  2
*Model_Space
340
22
  0
BLOCK_RECORD
  5
1B
330
1
100
AcDbSymbolTableRecord
100
AcDbBlockTableRecord
  2
*Paper_Space
340
1E
  0
BLOCK_RECORD
  5
23
330
1
100
AcDbSymbolTableRecord
100
AcDbBlockTableRecord
  2
*Paper_Space0
340
26
  0
BLOCK_RECORD
  5
2AE
330
1
100
AcDbSymbolTableRecord
100
AcDbBlockTableRecord
  2
_D
340
0
  0
BLOCK_RECORD
  5
2BA
330
1
100
AcDbSymbolTableRecord
100
AcDbBlockTableRecord
  2
_D_1
340
0
  0
BLOCK_RECORD
  5
2C7
330
1
100
AcDbSymbolTableRecord
100
AcDbBlockTableRecord
  2
_D_2
340
0
  0
BLOCK_RECORD
  5
2D2
330
1
100
AcDbSymbolTableRecord
100
AcDbBlockTableRecord
  2
_D_3
340
0
  0
BLOCK_RECORD
  5
2DD
330
1
100
AcDbSymbolTableRecord
100
AcDbBlockTableRecord
  2
_D_4
340
0
  0
BLOCK_RECORD
  5
2F0
330
1
100
AcDbSymbolTableRecord
100
AcDbBlockTableRecord
  2
_D_5
340
0
  0
BLOCK_RECORD
  5
303
330
1
100
AcDbSymbolTableRecord
100
AcDbBlockTableRecord
  2
_D_6
340
0
  0
BLOCK_RECORD
  5
316
330
1
100
AcDbSymbolTableRecord
100
AcDbBlockTableRecord
  2
_D_7
340
0
  0
BLOCK_RECORD
  5
328
330
1
100
AcDbSymbolTableRecord
100
AcDbBlockTableRecord
  2
_D_8
340
0
  0
BLOCK_RECORD
  5
33C
330
1
100
AcDbSymbolTableRecord
100
AcDbBlockTableRecord
  2
_D_9
340
0
  0
BLOCK_RECORD
  5
34E
330
1
100
AcDbSymbolTableRecord
100
AcDbBlockTableRecord
  2
_D_10
340
0
  0
BLOCK_RECORD
  5
361
330
1
100
AcDbSymbolTableRecord
100
AcDbBlockTableRecord
  2
_D_11
340
0
  0
ENDTAB
  0
ENDSEC
  0
SECTION
  2
BLOCKS
  0
BLOCK
  5
20
330
1F
100
AcDbEntity
  8
0
100
AcDbBlockBegin
  2
*Model_Space
 70
     0
 10
0.0
 20
0.0
 30
0.0
  3
*Model_Space
  1

  0
ENDBLK
  5
21
330
1F
100
AcDbEntity
  8
0
100
AcDbBlockEnd
  0
BLOCK
  5
1C
330
1B
100
AcDbEntity
 67
     1
  8
0
100
AcDbBlockBegin
  2
*Paper_Space
 70
     0
 10
0.0
 20
0.0
 30
0.0
  3
*Paper_Space
  1

  0
ENDBLK
  5
1D
330
1B
100
AcDbEntity
 67
     1
  8
0
100
AcDbBlockEnd
  0
BLOCK
  5
24
330
23
100
AcDbEntity
  8
0
100
AcDbBlockBegin
  2
*Paper_Space0
 70
     0
 10
0.0
 20
0.0
 30
0.0
  3
*Paper_Space0
  1

  0
ENDBLK
  5
25
330
23
100
AcDbEntity
  8
0
100
AcDbBlockEnd
  0
BLOCK
  5
2AF
330
2AE
100
AcDbEntity
  8
0
100
AcDbBlockBegin
  2
_D
 70
     0
 10
0.0
 20
0.0
 30
0.0
  3
_D
  1

  0
SOLID
  5
2B1
330
2AE
100
AcDbEntity
  8
SK2
100
AcDbTrace
 10
-88.2136162028
 20
22.225
 30
0.0
 11
-88.7216162028
 21
18.923
 31
0.0
 12
-87.7056162028
 22
18.923
 32
0.0
 13
-87.7056162028
 23
18.923
 33
0.0
  0
SOLID
  5
2B2
330
2AE
100
AcDbEntity
  8
SK2
100
AcDbTrace
 10
-88.2136162028
 20
-22.225
 30
0.0
 11
-87.7056162028
 21
-18.923
 31
0.0
 12
-88.7216162028
 22
-18.923
 32
0.0
 13
-88.7216162028
 23
-18.923
 33
0.0
  0
LINE
  5
2B3
330
2AE
100
AcDbEntity
  8
SK2
100
AcDbLine
 10
-1.0
 20
22.225
 30
0.0
 11
-89.2136162028
 21
22.225
 31
0.0
  0
LINE
  5
2B4
330
2AE
100
AcDbEntity
  8
SK2
100
AcDbLine
 10
-1.0
 20
-22.225
 30
0.0
 11
-89.2136162028
 21
-22.225
 31
0.0
  0
LINE
  5
2B5
330
2AE
100
AcDbEntity
  8
SK2
100
AcDbLine
 10
-88.2136162028
 20
22.225
 30
0.0
 11
-88.2136162028
 21
-22.225
 31
0.0
  0
MTEXT
  5
2B6
330
2AE
100
AcDbEntity
  8
SK2
100
AcDbMText
 10
-92.725353292
 20
-9.2608304381
 30
0.0
 40
3.5
 41
0.0
 71
     1
 72
     1
  1
%%c
  7
SLDTEXTSTYLE0
 11
-7.044195017643634E-15
 21
1.0
 31
0.0
 73
     1
 44
1.0
  0
MTEXT
  5
2B7
330
2AE
100
AcDbEntity
  8
SK2
100
AcDbMText
 10
-92.7788254687
 20
-3.9823930397
 30
0.0
 40
3.5
 41
0.0
 71
     1
 72
     1
  1
44,45
  7
SLDTEXTSTYLE0
 11
-7.044195017643634E-15
 21
1.0
 31
0.0
 73
     1
 44
1.0
  0
ENDBLK
  5
2B0
330
2AE
100
AcDbEntity
  8
0
100
AcDbBlockEnd
  0
BLOCK
  5
2BB
330
2BA
100
AcDbEntity
  8
0
100
AcDbBlockBegin
  2
_D_1
 70
     0
 10
0.0
 20
0.0
 30
0.0
  3
_D_1
  1

  0
SOLID
  5
2BD
330
2BA
100
AcDbEntity
  8
SK2
100
AcDbTrace
 10
-75.6400401745
 20
-7.9375
 30
0.0
 11
-76.1480401745
 21
-11.2395
 31
0.0
 12
-75.1320401745
 22
-11.2395
 32
0.0
 13
-75.1320401745
 23
-11.2395
 33
0.0
  0
SOLID
  5
2BE
330
2BA
100
AcDbEntity
  8
SK2
100
AcDbTrace
 10
-75.6400401745
 20
7.9375
 30
0.0
 11
-75.1320401745
 21
11.2395
 31
0.0
 12
-76.1480401745
 22
11.2395
 32
0.0
 13
-76.1480401745
 23
11.2395
 33
0.0
  0
LINE
  5
2BF
330
2BA
100
AcDbEntity
  8
SK2
100
AcDbLine
 10
-64.3082382949
 20
-7.9375
 30
0.0
 11
-76.6400401745
 21
-7.9375
 31
0.0
  0
LINE
  5
2C0
330
2BA
100
AcDbEntity
  8
SK2
100
AcDbLine
 10
-64.3082382949
 20
7.9375
 30
0.0
 11
-76.6400401745
 21
7.9375
 31
0.0
  0
LINE
  5
2C1
330
2BA
100
AcDbEntity
  8
SK2
100
AcDbLine
 10
-75.6400401745
 20
-7.9375
 30
0.0
 11
-75.6400401745
 21
-14.2875
 31
0.0
  0
LINE
  5
2C2
330
2BA
100
AcDbEntity
  8
SK2
100
AcDbLine
 10
-75.6400401745
 20
-7.9375
 30
0.0
 11
-75.6400401745
 21
7.9375
 31
0.0
  0
LINE
  5
2C3
330
2BA
100
AcDbEntity
  8
SK2
100
AcDbLine
 10
-75.6400401745
 20
7.9375
 30
0.0
 11
-75.6400401745
 21
14.2875
 31
0.0
  0
MTEXT
  5
2C5
330
2BA
100
AcDbEntity
  8
SK2
100
AcDbMText
 10
-80.1517770891
 20
-13.2491974588
 30
0.0
 40
3.5
 41
0.0
 71
     1
 72
     1
  1
3/8 - 11 UNC
  7
SLDTEXTSTYLE1
 11
6.123233995736766E-17
 21
1.0
 31
0.0
 73
     1
 44
1.0
  0
ENDBLK
  5
2BC
330
2BA
100
AcDbEntity
  8
0
100
AcDbBlockEnd
  0
BLOCK
  5
2C8
330
2C7
100
AcDbEntity
  8
0
100
AcDbBlockBegin
  2
_D_2
 70
     0
 10
0.0
 20
0.0
 30
0.0
  3
_D_2
  1

  0
SOLID
  5
2CA
330
2C7
100
AcDbEntity
  8
SK2
100
AcDbTrace
 10
-99.0243052543
 20
30.5578899967
 30
0.0
 11
-99.5323052543
 21
27.2558899967
 31
0.0
 12
-98.5163052543
 22
27.2558899967
 32
0.0
 13
-98.5163052543
 23
27.2558899967
 33
0.0
  0
SOLID
  5
2CB
330
2C7
100
AcDbEntity
  8
SK2
100
AcDbTrace
 10
-99.0243052543
 20
-30.5579086614
 30
0.0
 11
-98.5163052543
 21
-27.2559086614
 31
0.0
 12
-99.5323052543
 22
-27.2559086614
 32
0.0
 13
-99.5323052543
 23
-27.2559086614
 33
0.0
  0
LINE
  5
2CC
330
2C7
100
AcDbEntity
  8
SK2
100
AcDbLine
 10
2.95
 20
30.5578899967
 30
0.0
 11
-100.0243052543
 21
30.5578899967
 31
0.0
  0
LINE
  5
2CD
330
2C7
100
AcDbEntity
  8
SK2
100
AcDbLine
 10
2.95
 20
-30.5579086614
 30
0.0
 11
-100.0243052543
 21
-30.5579086614
 31
0.0
  0
LINE
  5
2CE
330
2C7
100
AcDbEntity
  8
SK2
100
AcDbLine
 10
-99.0243052543
 20
30.5578899967
 30
0.0
 11
-99.0243052543
 21
-30.5579086614
 31
0.0
  0
MTEXT
  5
2CF
330
2C7
100
AcDbEntity
  8
SK2
100
AcDbMText
 10
-103.5360423435
 20
-7.9677751906
 30
0.0
 40
3.5
 41
0.0
 71
     1
 72
     1
  1
%%c
  7
SLDTEXTSTYLE0
 11
-1.715124499442883E-15
 21
1.0
 31
0.0
 73
     1
 44
1.0
  0
MTEXT
  5
2D0
330
2C7
100
AcDbEntity
  8
SK2
100
AcDbMText
 10
-103.5895145202
 20
-2.6893377922
 30
0.0
 40
3.5
 41
0.0
 71
     1
 72
     1
  1
63,5
  7
SLDTEXTSTYLE0
 11
-1.715124499442883E-15
 21
1.0
 31
0.0
 73
     1
 44
1.0
  0
ENDBLK
  5
2C9
330
2C7
100
AcDbEntity
  8
0
100
AcDbBlockEnd
  0
BLOCK
  5
2D3
330
2D2
100
AcDbEntity
  8
0
100
AcDbBlockBegin
  2
_D_3
 70
     0
 10
0.0
 20
0.0
 30
0.0
  3
_D_3
  1

  0
SOLID
  5
2D5
330
2D2
100
AcDbEntity
  8
SK2
100
AcDbTrace
 10
0.0
 20
38.9133375225
 30
0.0
 11
3.302
 21
38.4053375225
 31
0.0
 12
3.302
 22
39.4213375225
 32
0.0
 13
3.302
 23
39.4213375225
 33
0.0
  0
SOLID
  5
2D6
330
2D2
100
AcDbEntity
  8
SK2
100
AcDbTrace
 10
19.05
 20
38.9133375225
 30
0.0
 11
15.748
 21
39.4213375225
 31
0.0
 12
15.748
 22
38.4053375225
 32
0.0
 13
15.748
 23
38.4053375225
 33
0.0
  0
LINE
  5
2D7
330
2D2
100
AcDbEntity
  8
SK2
100
AcDbLine
 10
0.0
 20
23.225
 30
0.0
 11
0.0
 21
39.9133375225
 31
0.0
  0
LINE
  5
2D8
330
2D2
100
AcDbEntity
  8
SK2
100
AcDbLine
 10
19.05
 20
30.8048664484
 30
0.0
 11
19.05
 21
39.9133375225
 31
0.0
  0
LINE
  5
2D9
330
2D2
100
AcDbEntity
  8
SK2
100
AcDbLine
 10
0.0
 20
38.9133375225
 30
0.0
 11
19.05
 21
38.9133375225
 31
0.0
  0
MTEXT
  5
2DA
330
2D2
100
AcDbEntity
  8
SK2
100
AcDbMText
 10
3.9030017834
 20
43.4250744371
 30
0.0
 40
3.5
 41
0.0
 71
     1
 72
     1
  1
19,05
  7
SLDTEXTSTYLE0
 73
     1
 44
1.0
  0
ENDBLK
  5
2D4
330
2D2
100
AcDbEntity
  8
0
100
AcDbBlockEnd
  0
BLOCK
  5
2DE
330
2DD
100
AcDbEntity
  8
0
100
AcDbBlockBegin
  2
_D_4
 70
     0
 10
0.0
 20
0.0
 30
0.0
  3
_D_4
  1

  0
SOLID
  5
2E0
330
2DD
100
AcDbEntity
  8
SK2
100
AcDbTrace
 10
0.0
 20
52.3286228461
 30
0.0
 11
3.302
 21
51.8206228461
 31
0.0
 12
3.302
 22
52.8366228461
 32
0.0
 13
3.302
 23
52.8366228461
 33
0.0
  0
SOLID
  5
2E1
330
2DD
100
AcDbEntity
  8
SK2
100
AcDbTrace
 10
35.05
 20
52.3286228461
 30
0.0
 11
31.748
 21
52.8366228461
 31
0.0
 12
31.748
 22
51.8206228461
 32
0.0
 13
31.748
 23
51.8206228461
 33
0.0
  0
LINE
  5
2E2
330
2DD
100
AcDbEntity
  8
SK2
100
AcDbLine
 10
12.2306314108
 20
63.1215045622
 30
0.0
 11
11.1642251533
 21
63.1215045622
 31
0.0
  0
LINE
  5
2E3
330
2DD
100
AcDbEntity
  8
SK2
100
AcDbLine
 10
11.1642251533
 20
63.1215045622
 30
0.0
 11
11.1642251533
 21
57.5652545711
 31
0.0
  0
LINE
  5
2E4
330
2DD
100
AcDbEntity
  8
SK2
100
AcDbLine
 10
11.1642251533
 20
57.5652545711
 30
0.0
 11
12.2306314108
 21
57.5652545711
 31
0.0
  0
LINE
  5
2E5
330
2DD
100
AcDbEntity
  8
SK2
100
AcDbLine
 10
23.868131898
 20
63.1215045622
 30
0.0
 11
24.9345381555
 21
63.1215045622
 31
0.0
  0
LINE
  5
2E6
330
2DD
100
AcDbEntity
  8
SK2
100
AcDbLine
 10
24.9345381555
 20
63.1215045622
 30
0.0
 11
24.9345381555
 21
57.5652545711
 31
0.0
  0
LINE
  5
2E7
330
2DD
100
AcDbEntity
  8
SK2
100
AcDbLine
 10
24.9345381555
 20
57.5652545711
 30
0.0
 11
23.868131898
 21
57.5652545711
 31
0.0
  0
LINE
  5
2E8
330
2DD
100
AcDbEntity
  8
SK2
100
AcDbLine
 10
0.0
 20
23.225
 30
0.0
 11
0.0
 21
53.3286228461
 31
0.0
  0
LINE
  5
2E9
330
2DD
100
AcDbEntity
  8
SK2
100
AcDbLine
 10
35.05
 20
29.125
 30
0.0
 11
35.05
 21
53.3286228461
 31
0.0
  0
LINE
  5
2EA
330
2DD
100
AcDbEntity
  8
SK2
100
AcDbLine
 10
0.0
 20
52.3286228461
 30
0.0
 11
35.05
 21
52.3286228461
 31
0.0
  0
MTEXT
  5
2EB
330
2DD
100
AcDbEntity
  8
SK2
100
AcDbMText
 10
10.1172632991
 20
56.893832112
 30
0.0
 40
3.5
 41
0.0
 71
     1
 72
     1
  1

  7
SLDTEXTSTYLE0
 73
     1
 44
1.0
  0
MTEXT
  5
2EC
330
2DD
100
AcDbEntity
  8
SK2
100
AcDbMText
 10
12.2306314108
 20
62.0769914857
 30
0.0
 40
3.5
 41
0.0
 71
     1
 72
     1
  1
1,380
  7
SLDTEXTSTYLE0
 73
     1
 44
1.0
  0
MTEXT
  5
2ED
330
2DD
100
AcDbEntity
  8
SK2
100
AcDbMText
 10
12.2306309451
 20
56.8403599353
 30
0.0
 40
3.5
 41
0.0
 71
     1
 72
     1
  1
35,05
  7
SLDTEXTSTYLE0
 73
     1
 44
1.0
  0
MTEXT
  5
2EE
330
2DD
100
AcDbEntity
  8
SK2
100
AcDbMText
 10
27.313443598
 20
56.893832112
 30
0.0
 40
3.5
 41
0.0
 71
     1
 72
     1
  1

  7
SLDTEXTSTYLE0
 73
     1
 44
1.0
  0
ENDBLK
  5
2DF
330
2DD
100
AcDbEntity
  8
0
100
AcDbBlockEnd
  0
BLOCK
  5
2F1
330
2F0
100
AcDbEntity
  8
0
100
AcDbBlockBegin
  2
_D_5
 70
     0
 10
0.0
 20
0.0
 30
0.0
  3
_D_5
  1

  0
SOLID
  5
2F3
330
2F0
100
AcDbEntity
  8
SK2
100
AcDbTrace
 10
35.05
 20
52.3286228461
 30
0.0
 11
38.352
 21
51.8206228461
 31
0.0
 12
38.352
 22
52.8366228461
 32
0.0
 13
38.352
 23
52.8366228461
 33
0.0
  0
SOLID
  5
2F4
330
2F0
100
AcDbEntity
  8
SK2
100
AcDbTrace
 10
152.4
 20
52.3286228461
 30
0.0
 11
149.098
 21
52.8366228461
 31
0.0
 12
149.098
 22
51.8206228461
 32
0.0
 13
149.098
 23
51.8206228461
 33
0.0
  0
LINE
  5
2F5
330
2F0
100
AcDbEntity
  8
SK2
100
AcDbLine
 10
87.0382425091
 20
63.1215045622
 30
0.0
 11
85.9718362516
 21
63.1215045622
 31
0.0
  0
LINE
  5
2F6
330
2F0
100
AcDbEntity
  8
SK2
100
AcDbLine
 10
85.9718362516
 20
63.1215045622
 30
0.0
 11
85.9718362516
 21
57.5652545711
 31
0.0
  0
LINE
  5
2F7
330
2F0
100
AcDbEntity
  8
SK2
100
AcDbLine
 10
85.9718362516
 20
57.5652545711
 30
0.0
 11
87.0382425091
 21
57.5652545711
 31
0.0
  0
LINE
  5
2F8
330
2F0
100
AcDbEntity
  8
SK2
100
AcDbLine
 10
98.6757429964
 20
63.1215045622
 30
0.0
 11
99.7421492538
 21
63.1215045622
 31
0.0
  0
LINE
  5
2F9
330
2F0
100
AcDbEntity
  8
SK2
100
AcDbLine
 10
99.7421492538
 20
63.1215045622
 30
0.0
 11
99.7421492538
 21
57.5652545711
 31
0.0
  0
LINE
  5
2FA
330
2F0
100
AcDbEntity
  8
SK2
100
AcDbLine
 10
99.7421492538
 20
57.5652545711
 30
0.0
 11
98.6757429964
 21
57.5652545711
 31
0.0
  0
LINE
  5
2FB
330
2F0
100
AcDbEntity
  8
SK2
100
AcDbLine
 10
35.05
 20
29.125
 30
0.0
 11
35.05
 21
53.3286228461
 31
0.0
  0
LINE
  5
2FC
330
2F0
100
AcDbEntity
  8
SK2
100
AcDbLine
 10
152.4
 20
27.5
 30
0.0
 11
152.4
 21
53.3286228461
 31
0.0
  0
LINE
  5
2FD
330
2F0
100
AcDbEntity
  8
SK2
100
AcDbLine
 10
35.05
 20
52.3286228461
 30
0.0
 11
152.4
 21
52.3286228461
 31
0.0
  0
MTEXT
  5
2FE
330
2F0
100
AcDbEntity
  8
SK2
100
AcDbMText
 10
84.9248743974
 20
56.893832112
 30
0.0
 40
3.5
 41
0.0
 71
     1
 72
     1
  1

  7
SLDTEXTSTYLE0
 73
     1
 44
1.0
  0
MTEXT
  5
2FF
330
2F0
100
AcDbEntity
  8
SK2
100
AcDbMText
 10
87.0382425091
 20
62.0769914857
 30
0.0
 40
3.5
 41
0.0
 71
     1
 72
     1
  1
4,620
  7
SLDTEXTSTYLE0
 73
     1
 44
1.0
  0
MTEXT
  5
300
330
2F0
100
AcDbEntity
  8
SK2
100
AcDbMText
 10
85.7451863303
 20
56.8403599353
 30
0.0
 40
3.5
 41
0.0
 71
     1
 72
     1
  1
117,35
  7
SLDTEXTSTYLE0
 73
     1
 44
1.0
  0
MTEXT
  5
301
330
2F0
100
AcDbEntity
  8
SK2
100
AcDbMText
 10
102.1210546964
 20
56.893832112
 30
0.0
 40
3.5
 41
0.0
 71
     1
 72
     1
  1

  7
SLDTEXTSTYLE0
 73
     1
 44
1.0
  0
ENDBLK
  5
2F2
330
2F0
100
AcDbEntity
  8
0
100
AcDbBlockEnd
  0
BLOCK
  5
304
330
303
100
AcDbEntity
  8
0
100
AcDbBlockBegin
  2
_D_6
 70
     0
 10
0.0
 20
0.0
 30
0.0
  3
_D_6
  1

  0
SOLID
  5
306
330
303
100
AcDbEntity
  8
2
100
AcDbTrace
 10
0.0
 20
66.3351655111
 30
0.0
 11
3.302
 21
65.8271655111
 31
0.0
 12
3.302
 22
66.8431655111
 32
0.0
 13
3.302
 23
66.8431655111
 33
0.0
  0
SOLID
  5
307
330
303
100
AcDbEntity
  8
2
100
AcDbTrace
 10
152.4
 20
66.3351655111
 30
0.0
 11
149.098
 21
66.8431655111
 31
0.0
 12
149.098
 22
65.8271655111
 32
0.0
 13
149.098
 23
65.8271655111
 33
0.0
  0
LINE
  5
308
330
303
100
AcDbEntity
  8
2
100
AcDbLine
 10
68.7870365412
 20
77.1280472272
 30
0.0
 11
67.7206302838
 21
77.1280472272
 31
0.0
  0
LINE
  5
309
330
303
100
AcDbEntity
  8
2
100
AcDbLine
 10
67.7206302838
 20
77.1280472272
 30
0.0
 11
67.7206302838
 21
71.5717972361
 31
0.0
  0
LINE
  5
30A
330
303
100
AcDbEntity
  8
2
100
AcDbLine
 10
67.7206302838
 20
71.5717972361
 30
0.0
 11
68.7870365412
 21
71.5717972361
 31
0.0
  0
LINE
  5
30B
330
303
100
AcDbEntity
  8
2
100
AcDbLine
 10
80.4245370285
 20
77.1280472272
 30
0.0
 11
81.490943286
 21
77.1280472272
 31
0.0
  0
LINE
  5
30C
330
303
100
AcDbEntity
  8
2
100
AcDbLine
 10
81.490943286
 20
77.1280472272
 30
0.0
 11
81.490943286
 21
71.5717972361
 31
0.0
  0
LINE
  5
30D
330
303
100
AcDbEntity
  8
2
100
AcDbLine
 10
81.490943286
 20
71.5717972361
 30
0.0
 11
80.4245370285
 21
71.5717972361
 31
0.0
  0
LINE
  5
30E
330
303
100
AcDbEntity
  8
2
100
AcDbLine
 10
0.0
 20
23.225
 30
0.0
 11
0.0
 21
67.3351655111
 31
0.0
  0
LINE
  5
30F
330
303
100
AcDbEntity
  8
2
100
AcDbLine
 10
152.4
 20
27.5
 30
0.0
 11
152.4
 21
67.3351655111
 31
0.0
  0
LINE
  5
310
330
303
100
AcDbEntity
  8
2
100
AcDbLine
 10
0.0
 20
66.3351655111
 30
0.0
 11
152.4
 21
66.3351655111
 31
0.0
  0
MTEXT
  5
311
330
303
100
AcDbEntity
  8
2
100
AcDbMText
 10
66.6736684296
 20
70.900374777
 30
0.0
 40
3.5
 41
0.0
 71
     1
 72
     1
  1

  7
SLDTEXTSTYLE0
 73
     1
 44
1.0
  0
MTEXT
  5
312
330
303
100
AcDbEntity
  8
2
100
AcDbMText
 10
68.7870365412
 20
76.0835341507
 30
0.0
 40
3.5
 41
0.0
 71
     1
 72
     1
  1
6,000
  7
SLDTEXTSTYLE0
 73
     1
 44
1.0
  0
MTEXT
  5
313
330
303
100
AcDbEntity
  8
2
100
AcDbMText
 10
68.7870360756
 20
70.8469026003
 30
0.0
 40
3.5
 41
0.0
 71
     1
 72
     1
  1
152,4
  7
SLDTEXTSTYLE0
 73
     1
 44
1.0
  0
MTEXT
  5
314
330
303
100
AcDbEntity
  8
2
100
AcDbMText
 10
83.8698487285
 20
70.900374777
 30
0.0
 40
3.5
 41
0.0
 71
     1
 72
     1
  1

  7
SLDTEXTSTYLE0
 73
     1
 44
1.0
  0
ENDBLK
  5
305
330
303
100
AcDbEntity
  8
0
100
AcDbBlockEnd
  0
BLOCK
  5
317
330
316
100
AcDbEntity
  8
0
100
AcDbBlockBegin
  2
_D_7
 70
     0
 10
0.0
 20
0.0
 30
0.0
  3
_D_7
  1

  0
SOLID
  5
319
330
316
100
AcDbEntity
  8
SK2
100
AcDbTrace
 10
190.7188238759
 20
31.5
 30
0.0
 11
190.2108238759
 21
28.198
 31
0.0
 12
191.2268238759
 22
28.198
 32
0.0
 13
191.2268238759
 23
28.198
 33
0.0
  0
SOLID
  5
31A
330
316
100
AcDbEntity
  8
SK2
100
AcDbTrace
 10
190.7188238759
 20
-31.5
 30
0.0
 11
191.2268238759
 21
-28.198
 31
0.0
 12
190.2108238759
 22
-28.198
 32
0.0
 13
190.2108238759
 23
-28.198
 33
0.0
  0
LINE
  5
31B
330
316
100
AcDbEntity
  8
SK2
100
AcDbLine
 10
179.9259421599
 20
-6.2586854735
 30
0.0
 11
179.9259421599
 21
-7.325091731
 31
0.0
  0
LINE
  5
31C
330
316
100
AcDbEntity
  8
SK2
100
AcDbLine
 10
179.9259421599
 20
-7.325091731
 30
0.0
 11
185.4821921509
 21
-7.325091731
 31
0.0
  0
LINE
  5
31D
330
316
100
AcDbEntity
  8
SK2
100
AcDbLine
 10
185.4821921509
 20
-7.325091731
 30
0.0
 11
185.4821921509
 21
-6.2586854735
 31
0.0
  0
LINE
  5
31E
330
316
100
AcDbEntity
  8
SK2
100
AcDbLine
 10
179.9259421599
 20
5.3788150137
 30
0.0
 11
179.9259421599
 21
6.4452212712
 31
0.0
  0
LINE
  5
31F
330
316
100
AcDbEntity
  8
SK2
100
AcDbLine
 10
179.9259421599
 20
6.4452212712
 30
0.0
 11
185.4821921509
 21
6.4452212712
 31
0.0
  0
LINE
  5
320
330
316
100
AcDbEntity
  8
SK2
100
AcDbLine
 10
185.4821921509
 20
6.4452212712
 30
0.0
 11
185.4821921509
 21
5.3788150137
 31
0.0
  0
LINE
  5
321
330
316
100
AcDbEntity
  8
SK2
100
AcDbLine
 10
131.945776356
 20
31.5
 30
0.0
 11
191.7188238759
 21
31.5
 31
0.0
  0
LINE
  5
322
330
316
100
AcDbEntity
  8
SK2
100
AcDbLine
 10
131.945776356
 20
-31.5
 30
0.0
 11
191.7188238759
 21
-31.5
 31
0.0
  0
LINE
  5
323
330
316
100
AcDbEntity
  8
SK2
100
AcDbLine
 10
190.7188238759
 20
31.5
 30
0.0
 11
190.7188238759
 21
-31.5
 31
0.0
  0
MTEXT
  5
324
330
316
100
AcDbEntity
  8
SK2
100
AcDbMText
 10
180.9704552363
 20
-6.2586854735
 30
0.0
 40
3.5
 41
0.0
 71
     1
 72
     1
  1
2,480
  7
SLDTEXTSTYLE0
 11
-7.044195017643634E-15
 21
1.0
 31
0.0
 73
     1
 44
1.0
  0
MTEXT
  5
325
330
316
100
AcDbEntity
  8
SK2
100
AcDbMText
 10
186.2070867867
 20
-5.6652658211
 30
0.0
 40
3.5
 41
0.0
 71
     1
 72
     1
  1
%%c
  7
SLDTEXTSTYLE0
 11
-7.044195017643634E-15
 21
1.0
 31
0.0
 73
     1
 44
1.0
  0
MTEXT
  5
326
330
316
100
AcDbEntity
  8
SK2
100
AcDbMText
 10
186.2070867867
 20
-0.3868284227
 30
0.0
 40
3.5
 41
0.0
 71
     1
 72
     1
  1
63
  7
SLDTEXTSTYLE0
 11
-7.044195017643634E-15
 21
1.0
 31
0.0
 73
     1
 44
1.0
  0
ENDBLK
  5
318
330
316
100
AcDbEntity
  8
0
100
AcDbBlockEnd
  0
BLOCK
  5
329
330
328
100
AcDbEntity
  8
0
100
AcDbBlockBegin
  2
_D_8
 70
     0
 10
0.0
 20
0.0
 30
0.0
  3
_D_8
  1

  0
SOLID
  5
32B
330
328
100
AcDbEntity
  8
SK2
100
AcDbTrace
 10
126.9
 20
38.9133375225
 30
0.0
 11
130.202
 21
38.4053375225
 31
0.0
 12
130.202
 22
39.4213375225
 32
0.0
 13
130.202
 23
39.4213375225
 33
0.0
  0
SOLID
  5
32C
330
328
100
AcDbEntity
  8
SK2
100
AcDbTrace
 10
152.4
 20
38.9133375225
 30
0.0
 11
149.098
 21
39.4213375225
 31
0.0
 12
149.098
 22
38.4053375225
 32
0.0
 13
149.098
 23
38.4053375225
 33
0.0
  0
LINE
  5
32D
330
328
100
AcDbEntity
  8
SK2
100
AcDbLine
 10
133.9443253821
 20
49.7062192386
 30
0.0
 11
132.8779191247
 21
49.7062192386
 31
0.0
  0
LINE
  5
32E
330
328
100
AcDbEntity
  8
SK2
100
AcDbLine
 10
132.8779191247
 20
49.7062192386
 30
0.0
 11
132.8779191247
 21
44.1499692475
 31
0.0
  0
LINE
  5
32F
330
328
100
AcDbEntity
  8
SK2
100
AcDbLine
 10
132.8779191247
 20
44.1499692475
 30
0.0
 11
133.9443253821
 21
44.1499692475
 31
0.0
  0
LINE
  5
330
330
328
100
AcDbEntity
  8
SK2
100
AcDbLine
 10
145.5818258694
 20
49.7062192386
 30
0.0
 11
146.6482321269
 21
49.7062192386
 31
0.0
  0
LINE
  5
331
330
328
100
AcDbEntity
  8
SK2
100
AcDbLine
 10
146.6482321269
 20
49.7062192386
 30
0.0
 11
146.6482321269
 21
44.1499692475
 31
0.0
  0
LINE
  5
332
330
328
100
AcDbEntity
  8
SK2
100
AcDbLine
 10
146.6482321269
 20
44.1499692475
 30
0.0
 11
145.5818258694
 21
44.1499692475
 31
0.0
  0
LINE
  5
333
330
328
100
AcDbEntity
  8
SK2
100
AcDbLine
 10
126.9
 20
31.5
 30
0.0
 11
126.9
 21
39.9133375225
 31
0.0
  0
LINE
  5
334
330
328
100
AcDbEntity
  8
SK2
100
AcDbLine
 10
152.4
 20
27.5
 30
0.0
 11
152.4
 21
39.9133375225
 31
0.0
  0
LINE
  5
335
330
328
100
AcDbEntity
  8
SK2
100
AcDbLine
 10
126.9
 20
38.9133375225
 30
0.0
 11
152.4
 21
38.9133375225
 31
0.0
  0
MTEXT
  5
336
330
328
100
AcDbEntity
  8
SK2
100
AcDbMText
 10
131.8309572705
 20
43.4785467884
 30
0.0
 40
3.5
 41
0.0
 71
     1
 72
     1
  1

  7
SLDTEXTSTYLE0
 73
     1
 44
1.0
  0
MTEXT
  5
337
330
328
100
AcDbEntity
  8
SK2
100
AcDbMText
 10
133.9443253821
 20
48.6617061621
 30
0.0
 40
3.5
 41
0.0
 71
     1
 72
     1
  1
1,004
  7
SLDTEXTSTYLE0
 73
     1
 44
1.0
  0
MTEXT
  5
338
330
328
100
AcDbEntity
  8
SK2
100
AcDbMText
 10
135.2373806297
 20
43.4250746117
 30
0.0
 40
3.5
 41
0.0
 71
     1
 72
     1
  1
25,5
  7
SLDTEXTSTYLE0
 73
     1
 44
1.0
  0
MTEXT
  5
339
330
328
100
AcDbEntity
  8
SK2
100
AcDbMText
 10
149.0271375694
 20
43.4785467884
 30
0.0
 40
3.5
 41
0.0
 71
     1
 72
     1
  1

  7
SLDTEXTSTYLE0
 73
     1
 44
1.0
  0
ENDBLK
  5
32A
330
328
100
AcDbEntity
  8
0
100
AcDbBlockEnd
  0
BLOCK
  5
33D
330
33C
100
AcDbEntity
  8
0
100
AcDbBlockBegin
  2
_D_9
 70
     0
 10
0.0
 20
0.0
 30
0.0
  3
_D_9
  1

  0
SOLID
  5
33F
330
33C
100
AcDbEntity
  8
SK2
100
AcDbTrace
 10
169.998187345
 20
-19.9948176968
 30
0.0
 11
170.506187345
 21
-16.6928176968
 31
0.0
 12
169.490187345
 22
-16.6928176968
 32
0.0
 13
169.490187345
 23
-16.6928176968
 33
0.0
  0
SOLID
  5
340
330
33C
100
AcDbEntity
  8
SK2
100
AcDbTrace
 10
169.998187345
 20
19.9948176968
 30
0.0
 11
169.490187345
 21
16.6928176968
 31
0.0
 12
170.506187345
 22
16.6928176968
 32
0.0
 13
170.506187345
 23
16.6928176968
 33
0.0
  0
LINE
  5
341
330
33C
100
AcDbEntity
  8
SK2
100
AcDbLine
 10
159.205305629
 20
-6.2586854735
 30
0.0
 11
159.205305629
 21
-7.325091731
 31
0.0
  0
LINE
  5
342
330
33C
100
AcDbEntity
  8
SK2
100
AcDbLine
 10
159.205305629
 20
-7.325091731
 30
0.0
 11
164.76155562
 21
-7.325091731
 31
0.0
  0
LINE
  5
343
330
33C
100
AcDbEntity
  8
SK2
100
AcDbLine
 10
164.76155562
 20
-7.325091731
 30
0.0
 11
164.76155562
 21
-6.2586854735
 31
0.0
  0
LINE
  5
344
330
33C
100
AcDbEntity
  8
SK2
100
AcDbLine
 10
159.205305629
 20
5.3788150137
 30
0.0
 11
159.205305629
 21
6.4452212712
 31
0.0
  0
LINE
  5
345
330
33C
100
AcDbEntity
  8
SK2
100
AcDbLine
 10
159.205305629
 20
6.4452212712
 30
0.0
 11
164.76155562
 21
6.4452212712
 31
0.0
  0
LINE
  5
346
330
33C
100
AcDbEntity
  8
SK2
100
AcDbLine
 10
164.76155562
 20
6.4452212712
 30
0.0
 11
164.76155562
 21
5.3788150137
 31
0.0
  0
LINE
  5
347
330
33C
100
AcDbEntity
  8
SK2
100
AcDbLine
 10
137.539173101
 20
-19.9948176968
 30
0.0
 11
170.998187345
 21
-19.9948176968
 31
0.0
  0
LINE
  5
348
330
33C
100
AcDbEntity
  8
SK2
100
AcDbLine
 10
137.539173101
 20
19.9948176968
 30
0.0
 11
170.998187345
 21
19.9948176968
 31
0.0
  0
LINE
  5
349
330
33C
100
AcDbEntity
  8
SK2
100
AcDbLine
 10
169.998187345
 20
-19.9948176968
 30
0.0
 11
169.998187345
 21
19.9948176968
 31
0.0
  0
MTEXT
  5
34A
330
33C
100
AcDbEntity
  8
SK2
100
AcDbMText
 10
160.2498187055
 20
-6.2586854735
 30
0.0
 40
3.5
 41
0.0
 71
     1
 72
     1
  1
1,574
  7
SLDTEXTSTYLE0
 11
6.123233995736766E-17
 21
1.0
 31
0.0
 73
     1
 44
1.0
  0
MTEXT
  5
34B
330
33C
100
AcDbEntity
  8
SK2
100
AcDbMText
 10
165.4864502558
 20
-5.6652658211
 30
0.0
 40
3.5
 41
0.0
 71
     1
 72
     1
  1
%%c
  7
SLDTEXTSTYLE0
 11
6.123233995736766E-17
 21
1.0
 31
0.0
 73
     1
 44
1.0
  0
MTEXT
  5
34C
330
33C
100
AcDbEntity
  8
SK2
100
AcDbMText
 10
165.4864502558
 20
-0.3868284227
 30
0.0
 40
3.5
 41
0.0
 71
     1
 72
     1
  1
40
  7
SLDTEXTSTYLE0
 11
6.123233995736766E-17
 21
1.0
 31
0.0
 73
     1
 44
1.0
  0
ENDBLK
  5
33E
330
33C
100
AcDbEntity
  8
0
100
AcDbBlockEnd
  0
BLOCK
  5
34F
330
34E
100
AcDbEntity
  8
0
100
AcDbBlockBegin
  2
_D_10
 70
     0
 10
0.0
 20
0.0
 30
0.0
  3
_D_10
  1

  0
SOLID
  5
351
330
34E
100
AcDbEntity
  8
SK2
100
AcDbTrace
 10
0.0
 20
-46.6410201398
 30
0.0
 11
3.302
 21
-47.1490201398
 31
0.0
 12
3.302
 22
-46.1330201398
 32
0.0
 13
3.302
 23
-46.1330201398
 33
0.0
  0
SOLID
  5
352
330
34E
100
AcDbEntity
  8
SK2
100
AcDbTrace
 10
137.4
 20
-46.6410201398
 30
0.0
 11
134.098
 21
-46.1330201398
 31
0.0
 12
134.098
 22
-47.1490201398
 32
0.0
 13
134.098
 23
-47.1490201398
 33
0.0
  0
LINE
  5
353
330
34E
100
AcDbEntity
  8
SK2
100
AcDbLine
 10
62.3438656773
 20
-35.8481384238
 30
0.0
 11
61.2774594199
 21
-35.8481384238
 31
0.0
  0
LINE
  5
354
330
34E
100
AcDbEntity
  8
SK2
100
AcDbLine
 10
61.2774594199
 20
-35.8481384238
 30
0.0
 11
61.2774594199
 21
-41.4043884149
 31
0.0
  0
LINE
  5
355
330
34E
100
AcDbEntity
  8
SK2
100
AcDbLine
 10
61.2774594199
 20
-41.4043884149
 30
0.0
 11
62.3438656773
 21
-41.4043884149
 31
0.0
  0
LINE
  5
356
330
34E
100
AcDbEntity
  8
SK2
100
AcDbLine
 10
73.9813661646
 20
-35.8481384238
 30
0.0
 11
75.0477724221
 21
-35.8481384238
 31
0.0
  0
LINE
  5
357
330
34E
100
AcDbEntity
  8
SK2
100
AcDbLine
 10
75.0477724221
 20
-35.8481384238
 30
0.0
 11
75.0477724221
 21
-41.4043884149
 31
0.0
  0
LINE
  5
358
330
34E
100
AcDbEntity
  8
SK2
100
AcDbLine
 10
75.0477724221
 20
-41.4043884149
 30
0.0
 11
73.9813661646
 21
-41.4043884149
 31
0.0
  0
LINE
  5
359
330
34E
100
AcDbEntity
  8
SK2
100
AcDbLine
 10
0.0
 20
-23.225
 30
0.0
 11
0.0
 21
-47.6410201398
 31
0.0
  0
LINE
  5
35A
330
34E
100
AcDbEntity
  8
SK2
100
AcDbLine
 10
137.4
 20
-21.9851312608
 30
0.0
 11
137.4
 21
-47.6410201398
 31
0.0
  0
LINE
  5
35B
330
34E
100
AcDbEntity
  8
SK2
100
AcDbLine
 10
0.0
 20
-46.6410201398
 30
0.0
 11
137.4
 21
-46.6410201398
 31
0.0
  0
MTEXT
  5
35C
330
34E
100
AcDbEntity
  8
SK2
100
AcDbMText
 10
60.2304975657
 20
-42.075810874
 30
0.0
 40
3.5
 41
0.0
 71
     1
 72
     1
  1

  7
SLDTEXTSTYLE0
 73
     1
 44
1.0
  0
MTEXT
  5
35D
330
34E
100
AcDbEntity
  8
SK2
100
AcDbMText
 10
62.3438656773
 20
-36.8926515003
 30
0.0
 40
3.5
 41
0.0
 71
     1
 72
     1
  1
5,409
  7
SLDTEXTSTYLE0
 73
     1
 44
1.0
  0
MTEXT
  5
35E
330
34E
100
AcDbEntity
  8
SK2
100
AcDbMText
 10
62.3438652117
 20
-42.1292830506
 30
0.0
 40
3.5
 41
0.0
 71
     1
 72
     1
  1
137,4
  7
SLDTEXTSTYLE0
 73
     1
 44
1.0
  0
MTEXT
  5
35F
330
34E
100
AcDbEntity
  8
SK2
100
AcDbMText
 10
77.4266778646
 20
-42.075810874
 30
0.0
 40
3.5
 41
0.0
 71
     1
 72
     1
  1

  7
SLDTEXTSTYLE0
 73
     1
 44
1.0
  0
ENDBLK
  5
350
330
34E
100
AcDbEntity
  8
0
100
AcDbBlockEnd
  0
BLOCK
  5
362
330
361
100
AcDbEntity
  8
0
100
AcDbBlockBegin
  2
_D_11
 70
     0
 10
0.0
 20
0.0
 30
0.0
  3
_D_11
  1

  0
SOLID
  5
364
330
361
100
AcDbEntity
  8
SK2
100
AcDbTrace
 10
-68.25
 20
-60.6561756084
 30
0.0
 11
-64.948
 21
-61.1641756084
 31
0.0
 12
-64.948
 22
-60.1481756084
 32
0.0
 13
-64.948
 23
-60.1481756084
 33
0.0
  0
SOLID
  5
365
330
361
100
AcDbEntity
  8
SK2
100
AcDbTrace
 10
152.4
 20
-60.6561756084
 30
0.0
 11
149.098
 21
-60.1481756084
 31
0.0
 12
149.098
 22
-61.1641756084
 32
0.0
 13
149.098
 23
-61.1641756084
 33
0.0
  0
LINE
  5
366
330
361
100
AcDbEntity
  8
SK2
100
AcDbLine
 10
36.4938036276
 20
-49.8632938923
 30
0.0
 11
35.4273973701
 21
-49.8632938923
 31
0.0
  0
LINE
  5
367
330
361
100
AcDbEntity
  8
SK2
100
AcDbLine
 10
35.4273973701
 20
-49.8632938923
 30
0.0
 11
35.4273973701
 21
-55.4195438834
 31
0.0
  0
LINE
  5
368
330
361
100
AcDbEntity
  8
SK2
100
AcDbLine
 10
35.4273973701
 20
-55.4195438834
 30
0.0
 11
36.4938036276
 21
-55.4195438834
 31
0.0
  0
LINE
  5
369
330
361
100
AcDbEntity
  8
SK2
100
AcDbLine
 10
48.1313041149
 20
-49.8632938923
 30
0.0
 11
49.1977103723
 21
-49.8632938923
 31
0.0
  0
LINE
  5
36A
330
361
100
AcDbEntity
  8
SK2
100
AcDbLine
 10
49.1977103723
 20
-49.8632938923
 30
0.0
 11
49.1977103723
 21
-55.4195438834
 31
0.0
  0
LINE
  5
36B
330
361
100
AcDbEntity
  8
SK2
100
AcDbLine
 10
49.1977103723
 20
-55.4195438834
 30
0.0
 11
48.1313041149
 21
-55.4195438834
 31
0.0
  0
LINE
  5
36C
330
361
100
AcDbEntity
  8
SK2
100
AcDbLine
 10
-68.25
 20
-12.1476148288
 30
0.0
 11
-68.25
 21
-61.6561756084
 31
0.0
  0
LINE
  5
36D
330
361
100
AcDbEntity
  8
SK2
100
AcDbLine
 10
152.4
 20
-27.5
 30
0.0
 11
152.4
 21
-61.6561756084
 31
0.0
  0
LINE
  5
36E
330
361
100
AcDbEntity
  8
SK2
100
AcDbLine
 10
-68.25
 20
-60.6561756084
 30
0.0
 11
152.4
 21
-60.6561756084
 31
0.0
  0
MTEXT
  5
36F
330
361
100
AcDbEntity
  8
SK2
100
AcDbMText
 10
34.3804355159
 20
-56.0909663425
 30
0.0
 40
3.5
 41
0.0
 71
     1
 72
     1
  1

  7
SLDTEXTSTYLE0
 73
     1
 44
1.0
  0
MTEXT
  5
370
330
361
100
AcDbEntity
  8
SK2
100
AcDbMText
 10
36.4938036276
 20
-50.9078069688
 30
0.0
 40
3.5
 41
0.0
 71
     1
 72
     1
  1
8,687
  7
SLDTEXTSTYLE0
 73
     1
 44
1.0
  0
MTEXT
  5
371
330
361
100
AcDbEntity
  8
SK2
100
AcDbMText
 10
35.2007474488
 20
-56.1444385192
 30
0.0
 40
3.5
 41
0.0
 71
     1
 72
     1
  1
220,65
  7
SLDTEXTSTYLE0
 73
     1
 44
1.0
  0
MTEXT
  5
372
330
361
100
AcDbEntity
  8
SK2
100
AcDbMText
 10
51.5766158149
 20
-56.0909663425
 30
0.0
 40
3.5
 41
0.0
 71
     1
 72
     1
  1

  7
SLDTEXTSTYLE0
 73
     1
 44
1.0
  0
ENDBLK
  5
363
330
361
100
AcDbEntity
  8
0
100
AcDbBlockEnd
  0
ENDSEC
  0
SECTION
  2
ENTITIES
  0
LINE
  5
7E
330
1F
100
AcDbEntity
  8
1
  6
Continuous
370
    25
100
AcDbLine
 10
115.36
 20
-31.3
 30
0.0
 11
121.675
 21
-24.985
 31
0.0
  0
LINE
  5
7F
330
1F
100
AcDbEntity
  8
1
  6
Continuous
370
    25
100
AcDbLine
 10
121.675
 20
24.985
 30
0.0
 11
115.36
 21
31.3
 31
0.0
  0
LINE
  5
80
330
1F
100
AcDbEntity
  8
1
  6
Continuous
370
    25
100
AcDbLine
 10
115.36
 20
31.3
 30
0.0
 11
38.225
 21
31.3
 31
0.0
  0
LINE
  5
81
330
1F
100
AcDbEntity
  8
1
  6
Continuous
370
    25
100
AcDbLine
 10
38.225
 20
-31.3
 30
0.0
 11
115.36
 21
-31.3
 31
0.0
  0
LINE
  5
82
330
1F
100
AcDbEntity
  8
1
  6
Continuous
370
    25
100
AcDbLine
 10
126.9
 20
24.985
 30
0.0
 11
121.675
 21
24.985
 31
0.0
  0
LINE
  5
83
330
1F
100
AcDbEntity
  8
1
  6
Continuous
370
    25
100
AcDbLine
 10
121.675
 20
-24.985
 30
0.0
 11
126.9
 21
-24.985
 31
0.0
  0
LINE
  5
84
330
1F
100
AcDbEntity
  8
1
  6
Continuous
370
    25
100
AcDbLine
 10
1.8869952227
 20
22.225
 30
0.0
 11
0.0
 21
22.225
 31
0.0
  0
LINE
  5
85
330
1F
100
AcDbEntity
  8
1
  6
Continuous
370
    25
100
AcDbLine
 10
0.0
 20
-22.225
 30
0.0
 11
1.8869952227
 21
-22.225
 31
0.0
  0
LINE
  5
86
330
1F
100
AcDbEntity
  8
SK1
  6
Continuous
370
    25
100
AcDbLine
 10
0.0
 20
22.225
 30
0.0
 11
-67.1376006954
 21
12.4340074512
 31
0.0
  0
LINE
  5
87
330
1F
100
AcDbEntity
  8
SK1
  6
Continuous
370
    25
100
AcDbLine
 10
-67.1376006954
 20
-12.4340074512
 30
0.0
 11
0.0
 21
-22.225
 31
0.0
  0
LINE
  5
88
330
1F
100
AcDbEntity
  8
1
  6
Continuous
370
    25
100
AcDbLine
 10
34.288
 20
22.225
 30
0.0
 11
19.812
 21
22.225
 31
0.0
  0
LINE
  5
89
330
1F
100
AcDbEntity
  8
1
  6
Continuous
370
    25
100
AcDbLine
 10
19.812
 20
-22.225
 30
0.0
 11
34.288
 21
-22.225
 31
0.0
  0
LINE
  5
8A
330
1F
100
AcDbEntity
  8
1
  6
Continuous
370
    25
100
AcDbLine
 10
1.8869952227
 20
-22.225
 30
0.0
 11
2.1330363037
 21
-22.1102691597
 31
0.0
  0
LINE
  5
8B
330
1F
100
AcDbEntity
  8
1
  6
Continuous
370
    25
100
AcDbLine
 10
2.1330363037
 20
22.1102691597
 30
0.0
 11
1.8869952227
 21
22.225
 31
0.0
  0
LINE
  5
8C
330
1F
100
AcDbEntity
  8
1
  6
Continuous
370
    25
100
AcDbLine
 10
19.1541890204
 20
-22.41
 30
0.0
 11
19.4148114643
 21
-22.3367036346
 31
0.0
  0
LINE
  5
8D
330
1F
100
AcDbEntity
  8
1
  6
Continuous
370
    25
100
AcDbLine
 10
130.945776356
 20
31.5
 30
0.0
 11
127.9
 21
31.5
 31
0.0
  0
LINE
  5
8E
330
1F
100
AcDbEntity
  8
1
  6
Continuous
370
    25
100
AcDbLine
 10
127.9
 20
-31.5
 30
0.0
 11
130.945776356
 21
-31.5
 31
0.0
  0
LINE
  5
8F
330
1F
100
AcDbEntity
  8
1
  6
Continuous
370
    25
100
AcDbLine
 10
151.5324033831
 20
-28.0027214209
 30
0.0
 11
152.4
 21
-26.5
 31
0.0
  0
LINE
  5
90
330
1F
100
AcDbEntity
  8
1
  6
Continuous
370
    25
100
AcDbLine
 10
152.4
 20
26.5
 30
0.0
 11
151.5323804431
 21
28.0027611541
 31
0.0
  0
LINE
  5
91
330
1F
100
AcDbEntity
  8
1
  6
Continuous
370
    25
100
AcDbLine
 10
127.9
 20
31.5
 30
0.0
 11
126.9
 21
30.5
 31
0.0
  0
LINE
  5
92
330
1F
100
AcDbEntity
  8
1
  6
Continuous
370
    25
100
AcDbLine
 10
126.9
 20
-30.5
 30
0.0
 11
127.9
 21
-31.5
 31
0.0
  0
LINE
  5
93
330
1F
100
AcDbEntity
  8
1
  6
Continuous
370
    25
100
AcDbLine
 10
3.2
 20
-29.8048664484
 30
0.0
 11
3.2
 21
29.8048552742
 31
0.0
  0
LINE
  5
94
330
1F
100
AcDbEntity
  8
1
  6
Continuous
370
    25
100
AcDbLine
 10
3.95
 20
30.5578899967
 30
0.0
 11
3.95
 21
-30.5579086614
 31
0.0
  0
LINE
  5
95
330
1F
100
AcDbEntity
  8
1
  6
Continuous
370
    25
100
AcDbLine
 10
18.3
 20
30.5579086614
 30
0.0
 11
14.6411263546
 21
30.5579086614
 31
0.0
  0
LINE
  5
96
330
1F
100
AcDbEntity
  8
1
  6
Continuous
370
    25
100
AcDbLine
 10
18.3
 20
-30.5578899967
 30
0.0
 11
18.3
 21
30.5579086614
 31
0.0
  0
LINE
  5
97
330
1F
100
AcDbEntity
  8
1
  6
Continuous
370
    25
100
AcDbLine
 10
14.6411263546
 20
-30.5578899967
 30
0.0
 11
18.3
 21
-30.5578899967
 31
0.0
  0
LINE
  5
98
330
1F
100
AcDbEntity
  8
1
  6
Continuous
370
    25
100
AcDbLine
 10
14.6411263546
 20
30.5579086614
 30
0.0
 11
14.6411263546
 21
-30.5578899967
 31
0.0
  0
LINE
  5
99
330
1F
100
AcDbEntity
  8
1
  6
Continuous
370
    25
100
AcDbLine
 10
19.05
 20
29.8048664484
 30
0.0
 11
19.05
 21
-29.8048552742
 31
0.0
  0
LINE
  5
9A
330
1F
100
AcDbEntity
  8
1
  6
Continuous
370
    25
100
AcDbLine
 10
3.95
 20
-30.5579086614
 30
0.0
 11
7.5888736454
 21
-30.5579086614
 31
0.0
  0
LINE
  5
9B
330
1F
100
AcDbEntity
  8
1
  6
Continuous
370
    25
100
AcDbLine
 10
7.5888736454
 20
30.5578899967
 30
0.0
 11
3.95
 21
30.5578899967
 31
0.0
  0
LINE
  5
9C
330
1F
100
AcDbEntity
  8
1
  6
Continuous
370
    25
100
AcDbLine
 10
7.5888736454
 20
30.5578899967
 30
0.0
 11
7.5888736454
 21
-30.5579086614
 31
0.0
  0
LINE
  5
9D
330
1F
100
AcDbEntity
  8
1
  6
Continuous
370
    25
100
AcDbLine
 10
13.03
 20
25.319242438
 30
0.0
 11
13.03
 21
-27.8050456342
 31
0.0
  0
LINE
  5
9E
330
1F
100
AcDbEntity
  8
1
  6
Continuous
370
    25
100
AcDbLine
 10
13.03
 20
27.8050456342
 30
0.0
 11
13.03
 21
25.8117178836
 31
0.0
  0
LINE
  5
9F
330
1F
100
AcDbEntity
  8
1
  6
Continuous
370
    25
100
AcDbLine
 10
9.2
 20
27.8050456342
 30
0.0
 11
9.2
 21
25.8569131114
 31
0.0
  0
LINE
  5
A0
330
1F
100
AcDbEntity
  8
1
  6
Continuous
370
    25
100
AcDbLine
 10
9.2
 20
25.2705433174
 30
0.0
 11
9.2
 21
-27.8050456342
 31
0.0
  0
LINE
  5
A1
330
1F
100
AcDbEntity
  8
1
  6
Continuous
370
    25
100
AcDbLine
 10
115.36
 20
31.3
 30
0.0
 11
115.36
 21
-31.3
 31
0.0
  0
LINE
  5
A2
330
1F
100
AcDbEntity
  8
1
  6
Continuous
370
    25
100
AcDbLine
 10
121.675
 20
24.985
 30
0.0
 11
121.675
 21
-24.985
 31
0.0
  0
LINE
  5
A3
330
1F
100
AcDbEntity
  8
1
  6
Continuous
370
    25
100
AcDbLine
 10
35.05
 20
28.125
 30
0.0
 11
35.05
 21
-28.125
 31
0.0
  0
LINE
  5
A4
330
1F
100
AcDbEntity
  8
1
  6
Continuous
370
    25
100
AcDbLine
 10
9.95
 20
24.066859753
 30
0.0
 11
9.95
 21
-26.9870635676
 31
0.0
  0
LINE
  5
A5
330
1F
100
AcDbEntity
  8
1
  6
Continuous
370
    25
100
AcDbLine
 10
12.28
 20
24.0780506352
 30
0.0
 11
12.28
 21
-26.9870635676
 31
0.0
  0
LINE
  5
A6
330
1F
100
AcDbEntity
  8
1
  6
Continuous
370
    25
100
AcDbLine
 10
9.95
 20
-26.9870635676
 30
0.0
 11
12.28
 21
-26.9870635676
 31
0.0
  0
LINE
  5
A7
330
1F
100
AcDbEntity
  8
1
  6
Continuous
370
    25
100
AcDbLine
 10
0.0
 20
22.225
 30
0.0
 11
0.0
 21
-22.225
 31
0.0
  0
LINE
  5
A8
330
1F
100
AcDbEntity
  8
1
  6
Continuous
370
    25
100
AcDbLine
 10
1.8869952227
 20
22.225
 30
0.0
 11
1.8869952227
 21
-22.225
 31
0.0
  0
LINE
  5
A9
330
1F
100
AcDbEntity
  8
1
  6
Continuous
370
    25
100
AcDbLine
 10
9.2
 20
25.8569131114
 30
0.0
 11
9.2
 21
25.8264908709
 31
0.0
  0
LINE
  5
AA
330
1F
100
AcDbEntity
  8
1
  6
Continuous
370
    25
100
AcDbLine
 10
13.03
 20
25.7812977304
 30
0.0
 11
13.03
 21
25.8117178836
 31
0.0
  0
LINE
  5
AB
330
1F
100
AcDbEntity
  8
1
  6
Continuous
370
    25
100
AcDbLine
 10
9.95
 20
26.9870635676
 30
0.0
 11
9.95
 21
25.6032587904
 31
0.0
  0
LINE
  5
AC
330
1F
100
AcDbEntity
  8
1
  6
Continuous
370
    25
100
AcDbLine
 10
12.28
 20
26.9870635676
 30
0.0
 11
12.28
 21
25.5942620881
 31
0.0
  0
LINE
  5
AD
330
1F
100
AcDbEntity
  8
SK1
  6
Continuous
370
    25
100
AcDbLine
 10
-68.25
 20
-11.1476148288
 30
0.0
 11
-68.25
 21
11.1476148288
 31
0.0
  0
LINE
  5
AE
330
1F
100
AcDbEntity
  8
1
  6
Continuous
370
    25
100
AcDbLine
 10
9.95
 20
26.9870635676
 30
0.0
 11
12.28
 21
26.9870635676
 31
0.0
  0
LINE
  5
AF
330
1F
100
AcDbEntity
  8
1
  6
Continuous
370
    25
100
AcDbLine
 10
149.5132486541
 20
31.3218974283
 30
0.0
 11
131.1360527702
 21
31.3218974283
 31
0.0
  0
LINE
  5
B0
330
1F
100
AcDbEntity
  8
1
  6
Continuous
370
    25
100
AcDbLine
 10
149.5132486541
 20
31.3218974283
 30
0.0
 11
149.5132486541
 21
18.5577669894
 31
0.0
  0
LINE
  5
B1
330
1F
100
AcDbEntity
  8
1
  6
Continuous
370
    25
100
AcDbLine
 10
131.1360527702
 20
18.5577669894
 30
0.0
 11
149.5132486541
 21
18.5577669894
 31
0.0
  0
LINE
  5
B2
330
1F
100
AcDbEntity
  8
1
  6
Continuous
370
    25
100
AcDbLine
 10
149.5132486541
 20
12.7641304389
 30
0.0
 11
131.1360527702
 21
12.7641304389
 31
0.0
  0
LINE
  5
B3
330
1F
100
AcDbEntity
  8
1
  6
Continuous
370
    25
100
AcDbLine
 10
149.5132486541
 20
12.7641304389
 30
0.0
 11
149.5132486541
 21
-12.7641304389
 31
0.0
  0
LINE
  5
B4
330
1F
100
AcDbEntity
  8
1
  6
Continuous
370
    25
100
AcDbLine
 10
131.1360527702
 20
-12.7641304389
 30
0.0
 11
149.5132486541
 21
-12.7641304389
 31
0.0
  0
LINE
  5
B5
330
1F
100
AcDbEntity
  8
1
  6
Continuous
370
    25
100
AcDbLine
 10
149.5132486541
 20
-18.5577669894
 30
0.0
 11
131.1360527702
 21
-18.5577669894
 31
0.0
  0
LINE
  5
B6
330
1F
100
AcDbEntity
  8
1
  6
Continuous
370
    25
100
AcDbLine
 10
149.5132486541
 20
-18.5577669894
 30
0.0
 11
149.5132486541
 21
-31.3218974283
 31
0.0
  0
LINE
  5
B7
330
1F
100
AcDbEntity
  8
1
  6
Continuous
370
    25
100
AcDbLine
 10
131.1360527702
 20
-31.3218974283
 30
0.0
 11
149.5132486541
 21
-31.3218974283
 31
0.0
  0
LINE
  5
B8
330
1F
100
AcDbEntity
  8
1
  6
Continuous
370
    25
100
AcDbLine
 10
127.9
 20
0.0
 30
0.0
 11
127.9
 21
-31.5
 31
0.0
  0
LINE
  5
B9
330
1F
100
AcDbEntity
  8
1
  6
Continuous
370
    25
100
AcDbLine
 10
127.9
 20
31.5
 30
0.0
 11
127.9
 21
0.0
 31
0.0
  0
LINE
  5
BA
330
1F
100
AcDbEntity
  8
1
  6
Continuous
370
    25
100
AcDbLine
 10
151.4401813769
 20
-28.0467707641
 30
0.0
 11
151.4670733844
 21
-28.0
 31
0.0
  0
LINE
  5
BB
330
1F
100
AcDbEntity
  8
1
  6
Continuous
370
    25
100
AcDbLine
 10
149.5132486541
 20
-31.3218974283
 30
0.0
 11
151.4401813769
 21
-28.0467707641
 31
0.0
  0
LINE
  5
BC
330
1F
100
AcDbEntity
  8
1
  6
Continuous
370
    25
100
AcDbLine
 10
151.4401813769
 20
-16.2317501617
 30
0.0
 11
149.5132486541
 21
-18.5577669894
 31
0.0
  0
LINE
  5
BD
330
1F
100
AcDbEntity
  8
1
  6
Continuous
370
    25
100
AcDbLine
 10
151.4401813769
 20
-16.2317501617
 30
0.0
 11
151.4670733844
 21
-16.2083647797
 31
0.0
  0
LINE
  5
BE
330
1F
100
AcDbEntity
  8
1
  6
Continuous
370
    25
100
AcDbLine
 10
151.4401813769
 20
-11.8150206024
 30
0.0
 11
151.4670733844
 21
-11.7916352203
 31
0.0
  0
LINE
  5
BF
330
1F
100
AcDbEntity
  8
1
  6
Continuous
370
    25
100
AcDbLine
 10
149.5132486541
 20
-12.7641304389
 30
0.0
 11
151.4401813769
 21
-11.8150206024
 31
0.0
  0
LINE
  5
C0
330
1F
100
AcDbEntity
  8
1
  6
Continuous
370
    25
100
AcDbLine
 10
151.4401813769
 20
11.8150206024
 30
0.0
 11
149.5132486541
 21
12.7641304389
 31
0.0
  0
LINE
  5
C1
330
1F
100
AcDbEntity
  8
1
  6
Continuous
370
    25
100
AcDbLine
 10
151.4401813769
 20
11.8150206024
 30
0.0
 11
151.4670733844
 21
11.7916352203
 31
0.0
  0
LINE
  5
C2
330
1F
100
AcDbEntity
  8
1
  6
Continuous
370
    25
100
AcDbLine
 10
151.4401813769
 20
16.2317501617
 30
0.0
 11
151.4670733844
 21
16.2083647797
 31
0.0
  0
LINE
  5
C3
330
1F
100
AcDbEntity
  8
1
  6
Continuous
370
    25
100
AcDbLine
 10
149.5132486541
 20
18.5577669894
 30
0.0
 11
151.4401813769
 21
16.2317501617
 31
0.0
  0
LINE
  5
C4
330
1F
100
AcDbEntity
  8
1
  6
Continuous
370
    25
100
AcDbLine
 10
151.4401813769
 20
28.0467707641
 30
0.0
 11
149.5132486541
 21
31.3218974283
 31
0.0
  0
LINE
  5
C5
330
1F
100
AcDbEntity
  8
1
  6
Continuous
370
    25
100
AcDbLine
 10
151.4401813769
 20
28.0467707641
 30
0.0
 11
151.4670733844
 21
28.0
 31
0.0
  0
LINE
  5
C6
330
1F
100
AcDbEntity
  8
1
  6
Continuous
370
    25
100
AcDbLine
 10
152.4
 20
0.0
 30
0.0
 11
152.4
 21
-26.5
 31
0.0
  0
LINE
  5
C7
330
1F
100
AcDbEntity
  8
1
  6
Continuous
370
    25
100
AcDbLine
 10
152.4
 20
26.5
 30
0.0
 11
152.4
 21
0.0
 31
0.0
  0
LINE
  5
C8
330
1F
100
AcDbEntity
  8
1
  6
Continuous
370
    25
100
AcDbLine
 10
126.9
 20
0.0
 30
0.0
 11
126.9
 21
-30.5
 31
0.0
  0
LINE
  5
C9
330
1F
100
AcDbEntity
  8
1
  6
Continuous
370
    25
100
AcDbLine
 10
126.9
 20
30.5
 30
0.0
 11
126.9
 21
0.0
 31
0.0
  0
LINE
  5
CA
330
1F
100
AcDbEntity
  8
1
  6
Continuous
370
    25
100
AcDbLine
 10
151.4670733844
 20
16.2083647797
 30
0.0
 11
139.7
 21
16.2083647797
 31
0.0
  0
LINE
  5
CB
330
1F
100
AcDbEntity
  8
1
  6
Continuous
370
    25
100
AcDbLine
 10
151.4670733844
 20
-16.2083647797
 30
0.0
 11
139.7
 21
-16.2083647797
 31
0.0
  0
LINE
  5
CC
330
1F
100
AcDbEntity
  8
1
  6
Continuous
370
    25
100
AcDbLine
 10
151.4401813769
 20
16.2317501617
 30
0.0
 11
138.6110601932
 21
16.2317501617
 31
0.0
  0
LINE
  5
CD
330
1F
100
AcDbEntity
  8
1
  6
Continuous
370
    25
100
AcDbLine
 10
138.6110601932
 20
-16.2317501617
 30
0.0
 11
151.4401813769
 21
-16.2317501617
 31
0.0
  0
LINE
  5
CE
330
1F
100
AcDbEntity
  8
1
  6
Continuous
370
    25
100
AcDbLine
 10
38.225
 20
31.3
 30
0.0
 11
38.225
 21
-31.3
 31
0.0
  0
LINE
  5
CF
330
1F
100
AcDbEntity
  8
1
  6
Continuous
370
    25
100
AcDbLine
 10
19.812
 20
0.0
 30
0.0
 11
19.812
 21
-22.225
 31
0.0
  0
LINE
  5
D0
330
1F
100
AcDbEntity
  8
1
  6
Continuous
370
    25
100
AcDbLine
 10
19.812
 20
22.225
 30
0.0
 11
19.812
 21
0.0
 31
0.0
  0
LINE
  5
D1
330
1F
100
AcDbEntity
  8
1
  6
Continuous
370
    25
100
AcDbLine
 10
34.288
 20
-22.225
 30
0.0
 11
34.288
 21
22.225
 31
0.0
  0
LINE
  5
D2
330
1F
100
AcDbEntity
  8
1
  6
Continuous
370
    25
100
AcDbLine
 10
2.1330363037
 20
22.1102691597
 30
0.0
 11
2.1330363037
 21
-22.1102691597
 31
0.0
  0
LINE
  5
D3
330
1F
100
AcDbEntity
  8
SK1
  6
Continuous
370
    25
100
AcDbLine
 10
-67.1376006954
 20
0.0
 30
0.0
 11
-67.1376006954
 21
-12.4340074512
 31
0.0
  0
LINE
  5
D4
330
1F
100
AcDbEntity
  8
SK1
  6
Continuous
370
    25
100
AcDbLine
 10
-67.1376006954
 20
12.4340074512
 30
0.0
 11
-67.1376006954
 21
0.0
 31
0.0
  0
LINE
  5
D5
330
1F
100
AcDbEntity
  8
1
  6
Continuous
370
    25
100
AcDbLine
 10
139.7
 20
12.7641304389
 30
0.0
 11
139.7
 21
16.2083647797
 31
0.0
  0
LINE
  5
D6
330
1F
100
AcDbEntity
  8
1
  6
Continuous
370
    25
100
AcDbLine
 10
139.7
 20
-16.2083647797
 30
0.0
 11
139.7
 21
-12.7641304389
 31
0.0
  0
LINE
  5
D7
330
1F
100
AcDbEntity
  8
SK3
  6
HIDDEN
370
    18
100
AcDbLine
 10
5.7322709434
 20
-8.8686354442
 30
0.0
 11
5.5774881736
 21
-8.2929425536
 31
0.0
  0
LINE
  5
D8
330
1F
100
AcDbEntity
  8
SK3
  6
HIDDEN
370
    18
100
AcDbLine
 10
5.5774881736
 20
-8.2929425536
 30
0.0
 11
5.3288449556
 21
-7.7684025028
 31
0.0
  0
LINE
  5
D9
330
1F
100
AcDbEntity
  8
SK3
  6
HIDDEN
370
    18
100
AcDbLine
 10
5.3288449556
 20
-7.7684025028
 30
0.0
 11
5.0084343305
 21
-7.341622977
 31
0.0
  0
LINE
  5
DA
330
1F
100
AcDbEntity
  8
SK3
  6
HIDDEN
370
    18
100
AcDbLine
 10
5.0084343305
 20
-7.341622977
 30
0.0
 11
4.6447261885
 21
-7.0505252102
 31
0.0
  0
LINE
  5
DB
330
1F
100
AcDbEntity
  8
SK3
  6
HIDDEN
370
    18
100
AcDbLine
 10
4.6447261885
 20
-7.0505252102
 30
0.0
 11
4.270037594
 21
-6.9209745163
 31
0.0
  0
LINE
  5
DC
330
1F
100
AcDbEntity
  8
SK3
  6
HIDDEN
370
    18
100
AcDbLine
 10
4.270037594
 20
-6.9209745163
 30
0.0
 11
3.9176612731
 21
-6.964482043
 31
0.0
  0
LINE
  5
DD
330
1F
100
AcDbEntity
  8
SK3
  6
HIDDEN
370
    18
100
AcDbLine
 10
3.9176612731
 20
-6.964482043
 30
0.0
 11
3.6189074082
 21
-7.1771819557
 31
0.0
  0
LINE
  5
DE
330
1F
100
AcDbEntity
  8
SK3
  6
HIDDEN
370
    18
100
AcDbLine
 10
3.6189074082
 20
-7.1771819557
 30
0.0
 11
3.4003215912
 21
-7.5401749336
 31
0.0
  0
LINE
  5
DF
330
1F
100
AcDbEntity
  8
SK3
  6
HIDDEN
370
    18
100
AcDbLine
 10
3.4003215912
 20
-7.5401749336
 30
0.0
 11
3.2813261312
 21
-8.0212074577
 31
0.0
  0
LINE
  5
E0
330
1F
100
AcDbEntity
  8
SK3
  6
HIDDEN
370
    18
100
AcDbLine
 10
3.2813261312
 20
-8.0212074577
 30
0.0
 11
3.2724942972
 21
-8.5775376774
 31
0.0
  0
LINE
  5
E1
330
1F
100
AcDbEntity
  8
SK3
  6
HIDDEN
370
    18
100
AcDbLine
 10
3.2724942972
 20
-8.5775376774
 30
0.0
 11
3.3746108361
 21
-9.159733211
 31
0.0
  0
LINE
  5
E2
330
1F
100
AcDbEntity
  8
SK3
  6
HIDDEN
370
    18
100
AcDbLine
 10
3.3746108361
 20
-9.159733211
 30
0.0
 11
3.5786022456
 21
-9.7160634307
 31
0.0
  0
LINE
  5
E3
330
1F
100
AcDbEntity
  8
SK3
  6
HIDDEN
370
    18
100
AcDbLine
 10
3.5786022456
 20
-9.7160634307
 30
0.0
 11
3.8663429935
 21
-10.1970959548
 31
0.0
  0
LINE
  5
E4
330
1F
100
AcDbEntity
  8
SK3
  6
HIDDEN
370
    18
100
AcDbLine
 10
3.8663429935
 20
-10.1970959548
 30
0.0
 11
4.2122660518
 21
-10.5600889327
 31
0.0
  0
LINE
  5
E5
330
1F
100
AcDbEntity
  8
SK3
  6
HIDDEN
370
    18
100
AcDbLine
 10
4.2122660518
 20
-10.5600889327
 30
0.0
 11
4.5856346387
 21
-10.7727888454
 31
0.0
  0
LINE
  5
E6
330
1F
100
AcDbEntity
  8
SK3
  6
HIDDEN
370
    18
100
AcDbLine
 10
4.5856346387
 20
-10.7727888454
 30
0.0
 11
4.9532733166
 21
-10.8162963721
 31
0.0
  0
LINE
  5
E7
330
1F
100
AcDbEntity
  8
SK3
  6
HIDDEN
370
    18
100
AcDbLine
 10
4.9532733166
 20
-10.8162963721
 30
0.0
 11
5.2825157758
 21
-10.6867456782
 31
0.0
  0
LINE
  5
E8
330
1F
100
AcDbEntity
  8
SK3
  6
HIDDEN
370
    18
100
AcDbLine
 10
5.2825157758
 20
-10.6867456782
 30
0.0
 11
5.5441073788
 21
-10.3956479114
 31
0.0
  0
LINE
  5
E9
330
1F
100
AcDbEntity
  8
SK3
  6
HIDDEN
370
    18
100
AcDbLine
 10
5.5441073788
 20
-10.3956479114
 30
0.0
 11
5.7148045638
 21
-9.9688683857
 31
0.0
  0
LINE
  5
EA
330
1F
100
AcDbEntity
  8
SK3
  6
HIDDEN
370
    18
100
AcDbLine
 10
5.7148045638
 20
-9.9688683857
 30
0.0
 11
5.7794401368
 21
-9.4443283348
 31
0.0
  0
LINE
  5
EB
330
1F
100
AcDbEntity
  8
SK3
  6
HIDDEN
370
    18
100
AcDbLine
 10
5.7794401368
 20
-9.4443283348
 30
0.0
 11
5.7322709434
 21
-8.8686354442
 31
0.0
  0
LINE
  5
EC
330
1F
100
AcDbEntity
  8
SK3
  6
HIDDEN
370
    18
100
AcDbLine
 10
3.2
 20
-7.1668508159
 30
0.0
 11
3.2
 21
-11.3022369236
 31
0.0
  0
LINE
  5
ED
330
1F
100
AcDbEntity
  8
SK3
  6
HIDDEN
370
    18
100
AcDbLine
 10
5.7253406934
 20
-8.8621689747
 30
0.0
 11
5.7713306569
 21
-9.423469543
 31
0.0
  0
LINE
  5
EE
330
1F
100
AcDbEntity
  8
SK3
  6
HIDDEN
370
    18
100
AcDbLine
 10
5.7713306569
 20
-9.423469543
 30
0.0
 11
5.7083109733
 21
-9.9348960926
 31
0.0
  0
LINE
  5
EF
330
1F
100
AcDbEntity
  8
SK3
  6
HIDDEN
370
    18
100
AcDbLine
 10
5.7083109733
 20
-9.9348960926
 30
0.0
 11
5.5418812179
 21
-10.3510061302
 31
0.0
  0
LINE
  5
F0
330
1F
100
AcDbEntity
  8
SK3
  6
HIDDEN
370
    18
100
AcDbLine
 10
5.5418812179
 20
-10.3510061302
 30
0.0
 11
5.286829405
 21
-10.6348264529
 31
0.0
  0
LINE
  5
F1
330
1F
100
AcDbEntity
  8
SK3
  6
HIDDEN
370
    18
100
AcDbLine
 10
5.286829405
 20
-10.6348264529
 30
0.0
 11
4.9658180073
 21
-10.7611383794
 31
0.0
  0
LINE
  5
F2
330
1F
100
AcDbEntity
  8
SK3
  6
HIDDEN
370
    18
100
AcDbLine
 10
4.9658180073
 20
-10.7611383794
 30
0.0
 11
4.6073702963
 21
-10.7187185409
 31
0.0
  0
LINE
  5
F3
330
1F
100
AcDbEntity
  8
SK3
  6
HIDDEN
370
    18
100
AcDbLine
 10
4.6073702963
 20
-10.7187185409
 30
0.0
 11
4.2433359241
 21
-10.511336126
 31
0.0
  0
LINE
  5
F4
330
1F
100
AcDbEntity
  8
SK3
  6
HIDDEN
370
    18
100
AcDbLine
 10
4.2433359241
 20
-10.511336126
 30
0.0
 11
3.9060609422
 21
-10.1574179725
 31
0.0
  0
LINE
  5
F5
330
1F
100
AcDbEntity
  8
SK3
  6
HIDDEN
370
    18
100
AcDbLine
 10
3.9060609422
 20
-10.1574179725
 30
0.0
 11
3.625513713
 21
-9.6884112615
 31
0.0
  0
LINE
  5
F6
330
1F
100
AcDbEntity
  8
SK3
  6
HIDDEN
370
    18
100
AcDbLine
 10
3.625513713
 20
-9.6884112615
 30
0.0
 11
3.4266220888
 21
-9.1459892974
 31
0.0
  0
LINE
  5
F7
330
1F
100
AcDbEntity
  8
SK3
  6
HIDDEN
370
    18
100
AcDbLine
 10
3.4266220888
 20
-9.1459892974
 30
0.0
 11
3.3270584633
 21
-8.578348652
 31
0.0
  0
LINE
  5
F8
330
1F
100
AcDbEntity
  8
SK3
  6
HIDDEN
370
    18
100
AcDbLine
 10
3.3270584633
 20
-8.578348652
 30
0.0
 11
3.3356695015
 21
-8.0359266879
 31
0.0
  0
LINE
  5
F9
330
1F
100
AcDbEntity
  8
SK3
  6
HIDDEN
370
    18
100
AcDbLine
 10
3.3356695015
 20
-8.0359266879
 30
0.0
 11
3.4516900749
 21
-7.5669199769
 31
0.0
  0
LINE
  5
FA
330
1F
100
AcDbEntity
  8
SK3
  6
HIDDEN
370
    18
100
AcDbLine
 10
3.4516900749
 20
-7.5669199769
 30
0.0
 11
3.6648112465
 21
-7.2130018234
 31
0.0
  0
LINE
  5
FB
330
1F
100
AcDbEntity
  8
SK3
  6
HIDDEN
370
    18
100
AcDbLine
 10
3.6648112465
 20
-7.2130018234
 30
0.0
 11
3.9560962648
 21
-7.0056194085
 31
0.0
  0
LINE
  5
FC
330
1F
100
AcDbEntity
  8
SK3
  6
HIDDEN
370
    18
100
AcDbLine
 10
3.9560962648
 20
-7.0056194085
 30
0.0
 11
4.2996631777
 21
-6.96319957
 31
0.0
  0
LINE
  5
FD
330
1F
100
AcDbEntity
  8
SK3
  6
HIDDEN
370
    18
100
AcDbLine
 10
4.2996631777
 20
-6.96319957
 30
0.0
 11
4.6649845573
 21
-7.0895114965
 31
0.0
  0
LINE
  5
FE
330
1F
100
AcDbEntity
  8
SK3
  6
HIDDEN
370
    18
100
AcDbLine
 10
4.6649845573
 20
-7.0895114965
 30
0.0
 11
5.0195999957
 21
-7.3733318192
 31
0.0
  0
LINE
  5
FF
330
1F
100
AcDbEntity
  8
SK3
  6
HIDDEN
370
    18
100
AcDbLine
 10
5.0195999957
 20
-7.3733318192
 30
0.0
 11
5.3320003552
 21
-7.7894418568
 31
0.0
  0
LINE
  5
100
330
1F
100
AcDbEntity
  8
SK3
  6
HIDDEN
370
    18
100
AcDbLine
 10
5.3320003552
 20
-7.7894418568
 30
0.0
 11
5.5744274928
 21
-8.3008684064
 31
0.0
  0
LINE
  5
101
330
1F
100
AcDbEntity
  8
SK3
  6
HIDDEN
370
    18
100
AcDbLine
 10
5.5744274928
 20
-8.3008684064
 30
0.0
 11
5.7253406934
 21
-8.8621689747
 31
0.0
  0
LINE
  5
102
330
1F
100
AcDbEntity
  8
SK3
  6
HIDDEN
370
    18
100
AcDbLine
 10
16.3488925452
 20
-5.9198440145
 30
0.0
 11
16.1979793445
 21
-5.3585434462
 31
0.0
  0
LINE
  5
103
330
1F
100
AcDbEntity
  8
SK3
  6
HIDDEN
370
    18
100
AcDbLine
 10
16.1979793445
 20
-5.3585434462
 30
0.0
 11
15.955552207
 21
-4.8471168966
 31
0.0
  0
LINE
  5
104
330
1F
100
AcDbEntity
  8
SK3
  6
HIDDEN
370
    18
100
AcDbLine
 10
15.955552207
 20
-4.8471168966
 30
0.0
 11
15.6431518475
 21
-4.431006859
 31
0.0
  0
LINE
  5
105
330
1F
100
AcDbEntity
  8
SK3
  6
HIDDEN
370
    18
100
AcDbLine
 10
15.6431518475
 20
-4.431006859
 30
0.0
 11
15.2885364091
 21
-4.1471865363
 31
0.0
  0
LINE
  5
106
330
1F
100
AcDbEntity
  8
SK3
  6
HIDDEN
370
    18
100
AcDbLine
 10
15.2885364091
 20
-4.1471865363
 30
0.0
 11
14.9232150295
 21
-4.0208746098
 31
0.0
  0
LINE
  5
107
330
1F
100
AcDbEntity
  8
SK3
  6
HIDDEN
370
    18
100
AcDbLine
 10
14.9232150295
 20
-4.0208746098
 30
0.0
 11
14.5796481166
 21
-4.0632944483
 31
0.0
  0
LINE
  5
108
330
1F
100
AcDbEntity
  8
SK3
  6
HIDDEN
370
    18
100
AcDbLine
 10
14.5796481166
 20
-4.0632944483
 30
0.0
 11
14.2883630983
 21
-4.2706768632
 31
0.0
  0
LINE
  5
109
330
1F
100
AcDbEntity
  8
SK3
  6
HIDDEN
370
    18
100
AcDbLine
 10
14.2883630983
 20
-4.2706768632
 30
0.0
 11
14.0752419267
 21
-4.6245950166
 31
0.0
  0
LINE
  5
10A
330
1F
100
AcDbEntity
  8
SK3
  6
HIDDEN
370
    18
100
AcDbLine
 10
14.0752419267
 20
-4.6245950166
 30
0.0
 11
13.9592213533
 21
-5.0936017277
 31
0.0
  0
LINE
  5
10B
330
1F
100
AcDbEntity
  8
SK3
  6
HIDDEN
370
    18
100
AcDbLine
 10
13.9592213533
 20
-5.0936017277
 30
0.0
 11
13.950610315
 21
-5.6360236918
 31
0.0
  0
LINE
  5
10C
330
1F
100
AcDbEntity
  8
SK3
  6
HIDDEN
370
    18
100
AcDbLine
 10
13.950610315
 20
-5.6360236918
 30
0.0
 11
14.0501739406
 21
-6.2036643371
 31
0.0
  0
LINE
  5
10D
330
1F
100
AcDbEntity
  8
SK3
  6
HIDDEN
370
    18
100
AcDbLine
 10
14.0501739406
 20
-6.2036643371
 30
0.0
 11
14.2490655648
 21
-6.7460863013
 31
0.0
  0
LINE
  5
10E
330
1F
100
AcDbEntity
  8
SK3
  6
HIDDEN
370
    18
100
AcDbLine
 10
14.2490655648
 20
-6.7460863013
 30
0.0
 11
14.529612794
 21
-7.2150930123
 31
0.0
  0
LINE
  5
10F
330
1F
100
AcDbEntity
  8
SK3
  6
HIDDEN
370
    18
100
AcDbLine
 10
14.529612794
 20
-7.2150930123
 30
0.0
 11
14.8668877759
 21
-7.5690111658
 31
0.0
  0
LINE
  5
110
330
1F
100
AcDbEntity
  8
SK3
  6
HIDDEN
370
    18
100
AcDbLine
 10
14.8668877759
 20
-7.5690111658
 30
0.0
 11
15.230922148
 21
-7.7763935806
 31
0.0
  0
LINE
  5
111
330
1F
100
AcDbEntity
  8
SK3
  6
HIDDEN
370
    18
100
AcDbLine
 10
15.230922148
 20
-7.7763935806
 30
0.0
 11
15.589369859
 21
-7.8188134192
 31
0.0
  0
LINE
  5
112
330
1F
100
AcDbEntity
  8
SK3
  6
HIDDEN
370
    18
100
AcDbLine
 10
15.589369859
 20
-7.8188134192
 30
0.0
 11
15.9103812567
 21
-7.6925014926
 31
0.0
  0
LINE
  5
113
330
1F
100
AcDbEntity
  8
SK3
  6
HIDDEN
370
    18
100
AcDbLine
 10
15.9103812567
 20
-7.6925014926
 30
0.0
 11
16.1654330697
 21
-7.40868117
 31
0.0
  0
LINE
  5
114
330
1F
100
AcDbEntity
  8
SK3
  6
HIDDEN
370
    18
100
AcDbLine
 10
16.1654330697
 20
-7.40868117
 30
0.0
 11
16.3318628251
 21
-6.9925711324
 31
0.0
  0
LINE
  5
115
330
1F
100
AcDbEntity
  8
SK3
  6
HIDDEN
370
    18
100
AcDbLine
 10
16.3318628251
 20
-6.9925711324
 30
0.0
 11
16.3948825087
 21
-6.4811445828
 31
0.0
  0
LINE
  5
116
330
1F
100
AcDbEntity
  8
SK3
  6
HIDDEN
370
    18
100
AcDbLine
 10
16.3948825087
 20
-6.4811445828
 30
0.0
 11
16.3488925452
 21
-5.9198440145
 31
0.0
  0
LINE
  5
117
330
1F
100
AcDbEntity
  8
SK3
  6
HIDDEN
370
    18
100
AcDbLine
 10
11.1
 20
-10.0411428824
 30
0.0
 11
10.5642458758
 21
-9.9571329044
 31
0.0
  0
LINE
  5
118
330
1F
100
AcDbEntity
  8
SK3
  6
HIDDEN
370
    18
100
AcDbLine
 10
10.5642458758
 20
-9.9571329044
 30
0.0
 11
10.0865490241
 21
-9.7142067552
 31
0.0
  0
LINE
  5
119
330
1F
100
AcDbEntity
  8
SK3
  6
HIDDEN
370
    18
100
AcDbLine
 10
10.0865490241
 20
-9.7142067552
 30
0.0
 11
9.7186753109
 21
-9.3386892525
 31
0.0
  0
LINE
  5
11A
330
1F
100
AcDbEntity
  8
SK3
  6
HIDDEN
370
    18
100
AcDbLine
 10
9.7186753109
 20
-9.3386892525
 30
0.0
 11
9.5004895612
 21
-8.8712735443
 31
0.0
  0
LINE
  5
11B
330
1F
100
AcDbEntity
  8
SK3
  6
HIDDEN
370
    18
100
AcDbLine
 10
9.5004895612
 20
-8.8712735443
 30
0.0
 11
9.4556355865
 21
-8.3626113755
 31
0.0
  0
LINE
  5
11C
330
1F
100
AcDbEntity
  8
SK3
  6
HIDDEN
370
    18
100
AcDbLine
 10
9.4556355865
 20
-8.3626113755
 30
0.0
 11
9.588974011
 21
-7.8678241846
 31
0.0
  0
LINE
  5
11D
330
1F
100
AcDbEntity
  8
SK3
  6
HIDDEN
370
    18
100
AcDbLine
 10
9.588974011
 20
-7.8678241846
 30
0.0
 11
9.8860555474
 21
-7.4405298412
 31
0.0
  0
LINE
  5
11E
330
1F
100
AcDbEntity
  8
SK3
  6
HIDDEN
370
    18
100
AcDbLine
 10
9.8860555474
 20
-7.4405298412
 30
0.0
 11
10.3146868015
 21
-7.1270323177
 31
0.0
  0
LINE
  5
11F
330
1F
100
AcDbEntity
  8
SK3
  6
HIDDEN
370
    18
100
AcDbLine
 10
10.3146868015
 20
-7.1270323177
 30
0.0
 11
10.828418926
 21
-6.961303935
 31
0.0
  0
LINE
  5
120
330
1F
100
AcDbEntity
  8
SK3
  6
HIDDEN
370
    18
100
AcDbLine
 10
10.828418926
 20
-6.961303935
 30
0.0
 11
11.371581074
 21
-6.961303935
 31
0.0
  0
LINE
  5
121
330
1F
100
AcDbEntity
  8
SK3
  6
HIDDEN
370
    18
100
AcDbLine
 10
11.371581074
 20
-6.961303935
 30
0.0
 11
11.8853131985
 21
-7.1270323177
 31
0.0
  0
LINE
  5
122
330
1F
100
AcDbEntity
  8
SK3
  6
HIDDEN
370
    18
100
AcDbLine
 10
11.8853131985
 20
-7.1270323177
 30
0.0
 11
12.3139444526
 21
-7.4405298412
 31
0.0
  0
LINE
  5
123
330
1F
100
AcDbEntity
  8
SK3
  6
HIDDEN
370
    18
100
AcDbLine
 10
12.3139444526
 20
-7.4405298412
 30
0.0
 11
12.611025989
 21
-7.8678241846
 31
0.0
  0
LINE
  5
124
330
1F
100
AcDbEntity
  8
SK3
  6
HIDDEN
370
    18
100
AcDbLine
 10
12.611025989
 20
-7.8678241846
 30
0.0
 11
12.7443644135
 21
-8.3626113755
 31
0.0
  0
LINE
  5
125
330
1F
100
AcDbEntity
  8
SK3
  6
HIDDEN
370
    18
100
AcDbLine
 10
12.7443644135
 20
-8.3626113755
 30
0.0
 11
12.6995104388
 21
-8.8712735443
 31
0.0
  0
LINE
  5
126
330
1F
100
AcDbEntity
  8
SK3
  6
HIDDEN
370
    18
100
AcDbLine
 10
12.6995104388
 20
-8.8712735443
 30
0.0
 11
12.4813246891
 21
-9.3386892525
 31
0.0
  0
LINE
  5
127
330
1F
100
AcDbEntity
  8
SK3
  6
HIDDEN
370
    18
100
AcDbLine
 10
12.4813246891
 20
-9.3386892525
 30
0.0
 11
12.1134509759
 21
-9.7142067552
 31
0.0
  0
LINE
  5
128
330
1F
100
AcDbEntity
  8
SK3
  6
HIDDEN
370
    18
100
AcDbLine
 10
12.1134509759
 20
-9.7142067552
 30
0.0
 11
11.6357541242
 21
-9.9571329044
 31
0.0
  0
LINE
  5
129
330
1F
100
AcDbEntity
  8
SK3
  6
HIDDEN
370
    18
100
AcDbLine
 10
11.6357541242
 20
-9.9571329044
 30
0.0
 11
11.1
 21
-10.0411428824
 31
0.0
  0
LINE
  5
12A
330
1F
100
AcDbEntity
  8
SK3
  6
HIDDEN
370
    18
100
AcDbLine
 10
136.539173101
 20
-19.9948176968
 30
0.0
 11
136.539173101
 21
19.9948176968
 31
0.0
  0
LINE
  5
12B
330
1F
100
AcDbEntity
  8
SK3
  6
HIDDEN
370
    18
100
AcDbLine
 10
137.4
 20
-20.9851312608
 30
0.0
 11
137.4
 21
20.9851312608
 31
0.0
  0
LINE
  5
12C
330
1F
100
AcDbEntity
  8
SK3
  6
HIDDEN
370
    18
100
AcDbLine
 10
104.4
 20
-15.4780006239
 30
0.0
 11
104.4
 21
15.4780006239
 31
0.0
  0
LINE
  5
12D
330
1F
100
AcDbEntity
  8
SK3
  6
HIDDEN
370
    18
100
AcDbLine
 10
96.9579345143
 20
-13.25
 30
0.0
 11
96.9579345143
 21
13.25
 31
0.0
  0
LINE
  5
12E
330
1F
100
AcDbEntity
  8
SK3
  6
HIDDEN
370
    18
100
AcDbLine
 10
98.4
 20
-15.65
 30
0.0
 11
98.4
 21
15.65
 31
0.0
  0
LINE
  5
12F
330
1F
100
AcDbEntity
  8
SK3
  6
HIDDEN
370
    18
100
AcDbLine
 10
104.4
 20
-15.65
 30
0.0
 11
104.4
 21
15.65
 31
0.0
  0
LINE
  5
130
330
1F
100
AcDbEntity
  8
SK3
  6
HIDDEN
370
    18
100
AcDbLine
 10
32.4
 20
-13.25
 30
0.0
 11
32.4
 21
13.25
 31
0.0
  0
LINE
  5
131
330
1F
100
AcDbEntity
  8
SK3
  6
HIDDEN
370
    18
100
AcDbLine
 10
28.4921467404
 20
-6.74624
 30
0.0
 11
28.4921467404
 21
6.74624
 31
0.0
  0
LINE
  5
132
330
1F
100
AcDbEntity
  8
SK3
  6
HIDDEN
370
    18
100
AcDbLine
 10
-66.6824940192
 20
-8.235
 30
0.0
 11
-66.6824940192
 21
8.235
 31
0.0
  0
LINE
  5
133
330
1F
100
AcDbEntity
  8
SK3
  6
HIDDEN
370
    18
100
AcDbLine
 10
-68.25
 20
-9.1348958925
 30
0.0
 11
-68.25
 21
9.1348958925
 31
0.0
  0
LINE
  5
134
330
1F
100
AcDbEntity
  8
SK3
  6
HIDDEN
370
    18
100
AcDbLine
 10
-63.48
 20
-8.235
 30
0.0
 11
-63.48
 21
8.235
 31
0.0
  0
LINE
  5
135
330
1F
100
AcDbEntity
  8
SK3
  6
HIDDEN
370
    18
100
AcDbLine
 10
-62.6204640132
 20
-6.74624
 30
0.0
 11
-62.6204640132
 21
6.74624
 31
0.0
  0
LINE
  5
136
330
1F
100
AcDbEntity
  8
SK3
  6
HIDDEN
370
    18
100
AcDbLine
 10
3.5452916241
 20
-29.8048664484
 30
0.0
 11
3.5452916241
 21
-22.785
 31
0.0
  0
LINE
  5
137
330
1F
100
AcDbEntity
  8
SK3
  6
HIDDEN
370
    18
100
AcDbLine
 10
18.704611155
 20
-23.1589825872
 30
0.0
 11
18.704611155
 21
-29.8048552742
 31
0.0
  0
LINE
  5
138
330
1F
100
AcDbEntity
  8
SK3
  6
HIDDEN
370
    18
100
AcDbLine
 10
7.8539870535
 20
-30.2255814201
 30
0.0
 11
3.95
 21
-30.2255814201
 31
0.0
  0
LINE
  5
139
330
1F
100
AcDbEntity
  8
SK3
  6
HIDDEN
370
    18
100
AcDbLine
 10
18.3
 20
-30.2254693878
 30
0.0
 11
14.3759504666
 21
-30.2254693878
 31
0.0
  0
LINE
  5
13A
330
1F
100
AcDbEntity
  8
1
  6
HIDDEN
370
    18
100
AcDbLine
 10
9.2
 20
-27.8050456342
 30
0.0
 11
9.2
 21
-27.7691663541
 31
0.0
  0
LINE
  5
13B
330
1F
100
AcDbEntity
  8
1
  6
HIDDEN
370
    18
100
AcDbLine
 10
13.03
 20
-27.7691663541
 30
0.0
 11
13.03
 21
-27.8050456342
 31
0.0
  0
LINE
  5
13C
330
1F
100
AcDbEntity
  8
SK3
  6
HIDDEN
370
    18
100
AcDbLine
 10
18.7047083759
 20
29.8048664484
 30
0.0
 11
18.7047083759
 21
25.5791202528
 31
0.0
  0
LINE
  5
13D
330
1F
100
AcDbEntity
  8
SK3
  6
HIDDEN
370
    18
100
AcDbLine
 10
3.545388845
 20
25.5789825872
 30
0.0
 11
3.545388845
 21
29.8048552742
 31
0.0
  0
LINE
  5
13E
330
1F
100
AcDbEntity
  8
SK3
  6
HIDDEN
370
    18
100
AcDbLine
 10
14.3760129465
 20
30.2255814201
 30
0.0
 11
18.3
 21
30.2255814201
 31
0.0
  0
LINE
  5
13F
330
1F
100
AcDbEntity
  8
SK3
  6
HIDDEN
370
    18
100
AcDbLine
 10
3.95
 20
30.2254693878
 30
0.0
 11
7.8540495334
 21
30.2254693878
 31
0.0
  0
LINE
  5
140
330
1F
100
AcDbEntity
  8
1
  6
HIDDEN
370
    18
100
AcDbLine
 10
9.2
 20
27.8050456342
 30
0.0
 11
9.2
 21
27.7691663541
 31
0.0
  0
LINE
  5
141
330
1F
100
AcDbEntity
  8
1
  6
HIDDEN
370
    18
100
AcDbLine
 10
13.03
 20
27.7691663541
 30
0.0
 11
13.03
 21
27.8050456342
 31
0.0
  0
LINE
  5
142
330
1F
100
AcDbEntity
  8
SK3
  6
HIDDEN
370
    18
100
AcDbLine
 10
18.55
 20
-22.41
 30
0.0
 11
3.5452916241
 21
-22.41
 31
0.0
  0
LINE
  5
143
330
1F
100
AcDbEntity
  8
SK3
  6
HIDDEN
370
    18
100
AcDbLine
 10
3.5452916241
 20
-22.785
 30
0.0
 11
18.55
 21
-22.785
 31
0.0
  0
LINE
  5
144
330
1F
100
AcDbEntity
  8
SK3
  6
HIDDEN
370
    18
100
AcDbLine
 10
3.7
 20
24.83
 30
0.0
 11
18.55
 21
24.83
 31
0.0
  0
LINE
  5
145
330
1F
100
AcDbEntity
  8
SK3
  6
HIDDEN
370
    18
100
AcDbLine
 10
18.55
 20
25.205
 30
0.0
 11
3.7
 21
25.205
 31
0.0
  0
LINE
  5
146
330
1F
100
AcDbEntity
  8
SK3
  6
HIDDEN
370
    18
100
AcDbLine
 10
16.1
 20
20.43
 30
0.0
 11
6.1
 21
20.43
 31
0.0
  0
LINE
  5
147
330
1F
100
AcDbEntity
  8
SK3
  6
HIDDEN
370
    18
100
AcDbLine
 10
6.1
 20
24.83
 30
0.0
 11
16.1
 21
24.83
 31
0.0
  0
LINE
  5
148
330
1F
100
AcDbEntity
  8
SK3
  6
HIDDEN
370
    18
100
AcDbLine
 10
6.400000044
 20
20.13
 30
0.0
 11
15.8
 21
20.13
 31
0.0
  0
LINE
  5
149
330
1F
100
AcDbEntity
  8
SK3
  6
HIDDEN
370
    18
100
AcDbLine
 10
18.55
 20
-22.785
 30
0.0
 11
3.545388845
 21
-22.785
 31
0.0
  0
LINE
  5
14A
330
1F
100
AcDbEntity
  8
SK3
  6
HIDDEN
370
    18
100
AcDbLine
 10
3.545388845
 20
-22.41
 30
0.0
 11
18.55
 21
-22.41
 31
0.0
  0
LINE
  5
14B
330
1F
100
AcDbEntity
  8
SK3
  6
HIDDEN
370
    18
100
AcDbLine
 10
3.95
 20
-30.2254693878
 30
0.0
 11
7.8540495334
 21
-30.2254693878
 31
0.0
  0
LINE
  5
14C
330
1F
100
AcDbEntity
  8
SK3
  6
HIDDEN
370
    18
100
AcDbLine
 10
14.3760129465
 20
-30.2255814201
 30
0.0
 11
18.3
 21
-30.2255814201
 31
0.0
  0
LINE
  5
14D
330
1F
100
AcDbEntity
  8
1
  6
HIDDEN
370
    18
100
AcDbLine
 10
12.28
 20
-26.9870635676
 30
0.0
 11
9.95
 21
-26.9870635676
 31
0.0
  0
LINE
  5
14E
330
1F
100
AcDbEntity
  8
SK3
  6
HIDDEN
370
    18
100
AcDbLine
 10
3.545388845
 20
-22.785
 30
0.0
 11
3.545388845
 21
-29.8048552742
 31
0.0
  0
LINE
  5
14F
330
1F
100
AcDbEntity
  8
SK3
  6
HIDDEN
370
    18
100
AcDbLine
 10
18.7047083759
 20
-29.8048664484
 30
0.0
 11
18.7047083759
 21
-23.1591202528
 31
0.0
  0
LINE
  5
150
330
1F
100
AcDbEntity
  8
SK3
  6
HIDDEN
370
    18
100
AcDbLine
 10
3.5452916241
 20
29.8048664484
 30
0.0
 11
3.5452916241
 21
25.5791202528
 31
0.0
  0
LINE
  5
151
330
1F
100
AcDbEntity
  8
SK3
  6
HIDDEN
370
    18
100
AcDbLine
 10
7.8539870535
 20
30.2255814201
 30
0.0
 11
3.95
 21
30.2255814201
 31
0.0
  0
LINE
  5
152
330
1F
100
AcDbEntity
  8
1
  6
HIDDEN
370
    18
100
AcDbLine
 10
12.28
 20
26.9870635676
 30
0.0
 11
9.95
 21
26.9870635676
 31
0.0
  0
LINE
  5
153
330
1F
100
AcDbEntity
  8
SK3
  6
HIDDEN
370
    18
100
AcDbLine
 10
18.3
 20
30.2254693878
 30
0.0
 11
14.3759504666
 21
30.2254693878
 31
0.0
  0
LINE
  5
154
330
1F
100
AcDbEntity
  8
SK3
  6
HIDDEN
370
    18
100
AcDbLine
 10
18.704611155
 20
25.5789825872
 30
0.0
 11
18.704611155
 21
29.8048552742
 31
0.0
  0
LINE
  5
155
330
1F
100
AcDbEntity
  8
SK3
  6
HIDDEN
370
    18
100
AcDbLine
 10
3.3636512159
 20
8.8621689747
 30
0.0
 11
3.3176612524
 21
8.3008684064
 31
0.0
  0
LINE
  5
156
330
1F
100
AcDbEntity
  8
SK3
  6
HIDDEN
370
    18
100
AcDbLine
 10
3.3176612524
 20
8.3008684064
 30
0.0
 11
3.380680936
 21
7.7894418568
 31
0.0
  0
LINE
  5
157
330
1F
100
AcDbEntity
  8
SK3
  6
HIDDEN
370
    18
100
AcDbLine
 10
3.380680936
 20
7.7894418568
 30
0.0
 11
3.5471106914
 21
7.3733318192
 31
0.0
  0
LINE
  5
158
330
1F
100
AcDbEntity
  8
SK3
  6
HIDDEN
370
    18
100
AcDbLine
 10
3.5471106914
 20
7.3733318192
 30
0.0
 11
3.8021625043
 21
7.0895114965
 31
0.0
  0
LINE
  5
159
330
1F
100
AcDbEntity
  8
SK3
  6
HIDDEN
370
    18
100
AcDbLine
 10
3.8021625043
 20
7.0895114965
 30
0.0
 11
4.123173902
 21
6.96319957
 31
0.0
  0
LINE
  5
15A
330
1F
100
AcDbEntity
  8
SK3
  6
HIDDEN
370
    18
100
AcDbLine
 10
4.123173902
 20
6.96319957
 30
0.0
 11
4.481621613
 21
7.0056194085
 31
0.0
  0
LINE
  5
15B
330
1F
100
AcDbEntity
  8
SK3
  6
HIDDEN
370
    18
100
AcDbLine
 10
4.481621613
 20
7.0056194085
 30
0.0
 11
4.8456559852
 21
7.2130018234
 31
0.0
  0
LINE
  5
15C
330
1F
100
AcDbEntity
  8
SK3
  6
HIDDEN
370
    18
100
AcDbLine
 10
4.8456559852
 20
7.2130018234
 30
0.0
 11
5.1829309671
 21
7.5669199769
 31
0.0
  0
LINE
  5
15D
330
1F
100
AcDbEntity
  8
SK3
  6
HIDDEN
370
    18
100
AcDbLine
 10
5.1829309671
 20
7.5669199769
 30
0.0
 11
5.4634781963
 21
8.0359266879
 31
0.0
  0
LINE
  5
15E
330
1F
100
AcDbEntity
  8
SK3
  6
HIDDEN
370
    18
100
AcDbLine
 10
5.4634781963
 20
8.0359266879
 30
0.0
 11
5.6623698205
 21
8.578348652
 31
0.0
  0
LINE
  5
15F
330
1F
100
AcDbEntity
  8
SK3
  6
HIDDEN
370
    18
100
AcDbLine
 10
5.6623698205
 20
8.578348652
 30
0.0
 11
5.761933446
 21
9.1459892974
 31
0.0
  0
LINE
  5
160
330
1F
100
AcDbEntity
  8
SK3
  6
HIDDEN
370
    18
100
AcDbLine
 10
5.761933446
 20
9.1459892974
 30
0.0
 11
5.7533224078
 21
9.6884112615
 31
0.0
  0
LINE
  5
161
330
1F
100
AcDbEntity
  8
SK3
  6
HIDDEN
370
    18
100
AcDbLine
 10
5.7533224078
 20
9.6884112615
 30
0.0
 11
5.6373018344
 21
10.1574179725
 31
0.0
  0
LINE
  5
162
330
1F
100
AcDbEntity
  8
SK3
  6
HIDDEN
370
    18
100
AcDbLine
 10
5.6373018344
 20
10.1574179725
 30
0.0
 11
5.4241806628
 21
10.511336126
 31
0.0
  0
LINE
  5
163
330
1F
100
AcDbEntity
  8
SK3
  6
HIDDEN
370
    18
100
AcDbLine
 10
5.4241806628
 20
10.511336126
 30
0.0
 11
5.1328956445
 21
10.7187185409
 31
0.0
  0
LINE
  5
164
330
1F
100
AcDbEntity
  8
SK3
  6
HIDDEN
370
    18
100
AcDbLine
 10
5.1328956445
 20
10.7187185409
 30
0.0
 11
4.7893287316
 21
10.7611383794
 31
0.0
  0
LINE
  5
165
330
1F
100
AcDbEntity
  8
SK3
  6
HIDDEN
370
    18
100
AcDbLine
 10
4.7893287316
 20
10.7611383794
 30
0.0
 11
4.424007352
 21
10.6348264529
 31
0.0
  0
LINE
  5
166
330
1F
100
AcDbEntity
  8
SK3
  6
HIDDEN
370
    18
100
AcDbLine
 10
4.424007352
 20
10.6348264529
 30
0.0
 11
4.0693919136
 21
10.3510061302
 31
0.0
  0
LINE
  5
167
330
1F
100
AcDbEntity
  8
SK3
  6
HIDDEN
370
    18
100
AcDbLine
 10
4.0693919136
 20
10.3510061302
 30
0.0
 11
3.7569915541
 21
9.9348960926
 31
0.0
  0
LINE
  5
168
330
1F
100
AcDbEntity
  8
SK3
  6
HIDDEN
370
    18
100
AcDbLine
 10
3.7569915541
 20
9.9348960926
 30
0.0
 11
3.5145644165
 21
9.423469543
 31
0.0
  0
LINE
  5
169
330
1F
100
AcDbEntity
  8
SK3
  6
HIDDEN
370
    18
100
AcDbLine
 10
3.5145644165
 20
9.423469543
 30
0.0
 11
3.3636512159
 21
8.8621689747
 31
0.0
  0
LINE
  5
16A
330
1F
100
AcDbEntity
  8
SK3
  6
HIDDEN
370
    18
100
AcDbLine
 10
13.9872030677
 20
5.9198440145
 30
0.0
 11
14.1381162683
 21
6.4811445828
 31
0.0
  0
LINE
  5
16B
330
1F
100
AcDbEntity
  8
SK3
  6
HIDDEN
370
    18
100
AcDbLine
 10
14.1381162683
 20
6.4811445828
 30
0.0
 11
14.3805434059
 21
6.9925711324
 31
0.0
  0
LINE
  5
16C
330
1F
100
AcDbEntity
  8
SK3
  6
HIDDEN
370
    18
100
AcDbLine
 10
14.3805434059
 20
6.9925711324
 30
0.0
 11
14.6929437653
 21
7.40868117
 31
0.0
  0
LINE
  5
16D
330
1F
100
AcDbEntity
  8
SK3
  6
HIDDEN
370
    18
100
AcDbLine
 10
14.6929437653
 20
7.40868117
 30
0.0
 11
15.0475592038
 21
7.6925014926
 31
0.0
  0
LINE
  5
16E
330
1F
100
AcDbEntity
  8
SK3
  6
HIDDEN
370
    18
100
AcDbLine
 10
15.0475592038
 20
7.6925014926
 30
0.0
 11
15.4128805834
 21
7.8188134192
 31
0.0
  0
LINE
  5
16F
330
1F
100
AcDbEntity
  8
SK3
  6
HIDDEN
370
    18
100
AcDbLine
 10
15.4128805834
 20
7.8188134192
 30
0.0
 11
15.7564474963
 21
7.7763935806
 31
0.0
  0
LINE
  5
170
330
1F
100
AcDbEntity
  8
SK3
  6
HIDDEN
370
    18
100
AcDbLine
 10
15.7564474963
 20
7.7763935806
 30
0.0
 11
16.0477325146
 21
7.5690111658
 31
0.0
  0
LINE
  5
171
330
1F
100
AcDbEntity
  8
SK3
  6
HIDDEN
370
    18
100
AcDbLine
 10
16.0477325146
 20
7.5690111658
 30
0.0
 11
16.2608536861
 21
7.2150930123
 31
0.0
  0
LINE
  5
172
330
1F
100
AcDbEntity
  8
SK3
  6
HIDDEN
370
    18
100
AcDbLine
 10
16.2608536861
 20
7.2150930123
 30
0.0
 11
16.3768742596
 21
6.7460863013
 31
0.0
  0
LINE
  5
173
330
1F
100
AcDbEntity
  8
SK3
  6
HIDDEN
370
    18
100
AcDbLine
 10
16.3768742596
 20
6.7460863013
 30
0.0
 11
16.3854852978
 21
6.2036643371
 31
0.0
  0
LINE
  5
174
330
1F
100
AcDbEntity
  8
SK3
  6
HIDDEN
370
    18
100
AcDbLine
 10
16.3854852978
 20
6.2036643371
 30
0.0
 11
16.2859216723
 21
5.6360236918
 31
0.0
  0
LINE
  5
175
330
1F
100
AcDbEntity
  8
SK3
  6
HIDDEN
370
    18
100
AcDbLine
 10
16.2859216723
 20
5.6360236918
 30
0.0
 11
16.0870300481
 21
5.0936017277
 31
0.0
  0
LINE
  5
176
330
1F
100
AcDbEntity
  8
SK3
  6
HIDDEN
370
    18
100
AcDbLine
 10
16.0870300481
 20
5.0936017277
 30
0.0
 11
15.8064828189
 21
4.6245950166
 31
0.0
  0
LINE
  5
177
330
1F
100
AcDbEntity
  8
SK3
  6
HIDDEN
370
    18
100
AcDbLine
 10
15.8064828189
 20
4.6245950166
 30
0.0
 11
15.469207837
 21
4.2706768632
 31
0.0
  0
LINE
  5
178
330
1F
100
AcDbEntity
  8
SK3
  6
HIDDEN
370
    18
100
AcDbLine
 10
15.469207837
 20
4.2706768632
 30
0.0
 11
15.1051734648
 21
4.0632944483
 31
0.0
  0
LINE
  5
179
330
1F
100
AcDbEntity
  8
SK3
  6
HIDDEN
370
    18
100
AcDbLine
 10
15.1051734648
 20
4.0632944483
 30
0.0
 11
14.7467257538
 21
4.0208746098
 31
0.0
  0
LINE
  5
17A
330
1F
100
AcDbEntity
  8
SK3
  6
HIDDEN
370
    18
100
AcDbLine
 10
14.7467257538
 20
4.0208746098
 30
0.0
 11
14.4257143561
 21
4.1471865363
 31
0.0
  0
LINE
  5
17B
330
1F
100
AcDbEntity
  8
SK3
  6
HIDDEN
370
    18
100
AcDbLine
 10
14.4257143561
 20
4.1471865363
 30
0.0
 11
14.1706625432
 21
4.431006859
 31
0.0
  0
LINE
  5
17C
330
1F
100
AcDbEntity
  8
SK3
  6
HIDDEN
370
    18
100
AcDbLine
 10
14.1706625432
 20
4.431006859
 30
0.0
 11
14.0042327878
 21
4.8471168966
 31
0.0
  0
LINE
  5
17D
330
1F
100
AcDbEntity
  8
SK3
  6
HIDDEN
370
    18
100
AcDbLine
 10
14.0042327878
 20
4.8471168966
 30
0.0
 11
13.9412131042
 21
5.3585434462
 31
0.0
  0
LINE
  5
17E
330
1F
100
AcDbEntity
  8
SK3
  6
HIDDEN
370
    18
100
AcDbLine
 10
13.9412131042
 20
5.3585434462
 30
0.0
 11
13.9872030677
 21
5.9198440145
 31
0.0
  0
LINE
  5
17F
330
1F
100
AcDbEntity
  8
SK3
  6
HIDDEN
370
    18
100
AcDbLine
 10
11.1
 20
6.8853309887
 30
0.0
 11
11.6357541242
 21
6.9693409666
 31
0.0
  0
LINE
  5
180
330
1F
100
AcDbEntity
  8
SK3
  6
HIDDEN
370
    18
100
AcDbLine
 10
11.6357541242
 20
6.9693409666
 30
0.0
 11
12.1134509759
 21
7.2122671158
 31
0.0
  0
LINE
  5
181
330
1F
100
AcDbEntity
  8
SK3
  6
HIDDEN
370
    18
100
AcDbLine
 10
12.1134509759
 20
7.2122671158
 30
0.0
 11
12.4813246891
 21
7.5877846185
 31
0.0
  0
LINE
  5
182
330
1F
100
AcDbEntity
  8
SK3
  6
HIDDEN
370
    18
100
AcDbLine
 10
12.4813246891
 20
7.5877846185
 30
0.0
 11
12.6995104388
 21
8.0552003267
 31
0.0
  0
LINE
  5
183
330
1F
100
AcDbEntity
  8
SK3
  6
HIDDEN
370
    18
100
AcDbLine
 10
12.6995104388
 20
8.0552003267
 30
0.0
 11
12.7443644135
 21
8.5638624956
 31
0.0
  0
LINE
  5
184
330
1F
100
AcDbEntity
  8
SK3
  6
HIDDEN
370
    18
100
AcDbLine
 10
12.7443644135
 20
8.5638624956
 30
0.0
 11
12.611025989
 21
9.0586496864
 31
0.0
  0
LINE
  5
185
330
1F
100
AcDbEntity
  8
SK3
  6
HIDDEN
370
    18
100
AcDbLine
 10
12.611025989
 20
9.0586496864
 30
0.0
 11
12.3139444526
 21
9.4859440298
 31
0.0
  0
LINE
  5
186
330
1F
100
AcDbEntity
  8
SK3
  6
HIDDEN
370
    18
100
AcDbLine
 10
12.3139444526
 20
9.4859440298
 30
0.0
 11
11.8853131985
 21
9.7994415534
 31
0.0
  0
LINE
  5
187
330
1F
100
AcDbEntity
  8
SK3
  6
HIDDEN
370
    18
100
AcDbLine
 10
11.8853131985
 20
9.7994415534
 30
0.0
 11
11.371581074
 21
9.9651699361
 31
0.0
  0
LINE
  5
188
330
1F
100
AcDbEntity
  8
SK3
  6
HIDDEN
370
    18
100
AcDbLine
 10
11.371581074
 20
9.9651699361
 30
0.0
 11
10.828418926
 21
9.9651699361
 31
0.0
  0
LINE
  5
189
330
1F
100
AcDbEntity
  8
SK3
  6
HIDDEN
370
    18
100
AcDbLine
 10
10.828418926
 20
9.9651699361
 30
0.0
 11
10.3146868015
 21
9.7994415534
 31
0.0
  0
LINE
  5
18A
330
1F
100
AcDbEntity
  8
SK3
  6
HIDDEN
370
    18
100
AcDbLine
 10
10.3146868015
 20
9.7994415534
 30
0.0
 11
9.8860555474
 21
9.4859440298
 31
0.0
  0
LINE
  5
18B
330
1F
100
AcDbEntity
  8
SK3
  6
HIDDEN
370
    18
100
AcDbLine
 10
9.8860555474
 20
9.4859440298
 30
0.0
 11
9.588974011
 21
9.0586496864
 31
0.0
  0
LINE
  5
18C
330
1F
100
AcDbEntity
  8
SK3
  6
HIDDEN
370
    18
100
AcDbLine
 10
9.588974011
 20
9.0586496864
 30
0.0
 11
9.4556355865
 21
8.5638624956
 31
0.0
  0
LINE
  5
18D
330
1F
100
AcDbEntity
  8
SK3
  6
HIDDEN
370
    18
100
AcDbLine
 10
9.4556355865
 20
8.5638624956
 30
0.0
 11
9.5004895612
 21
8.0552003267
 31
0.0
  0
LINE
  5
18E
330
1F
100
AcDbEntity
  8
SK3
  6
HIDDEN
370
    18
100
AcDbLine
 10
9.5004895612
 20
8.0552003267
 30
0.0
 11
9.7186753109
 21
7.5877846185
 31
0.0
  0
LINE
  5
18F
330
1F
100
AcDbEntity
  8
SK3
  6
HIDDEN
370
    18
100
AcDbLine
 10
9.7186753109
 20
7.5877846185
 30
0.0
 11
10.0865490241
 21
7.2122671158
 31
0.0
  0
LINE
  5
190
330
1F
100
AcDbEntity
  8
SK3
  6
HIDDEN
370
    18
100
AcDbLine
 10
10.0865490241
 20
7.2122671158
 30
0.0
 11
10.5642458758
 21
6.9693409666
 31
0.0
  0
LINE
  5
191
330
1F
100
AcDbEntity
  8
SK3
  6
HIDDEN
370
    18
100
AcDbLine
 10
10.5642458758
 20
6.9693409666
 30
0.0
 11
11.1
 21
6.8853309887
 31
0.0
  0
LINE
  5
192
330
1F
100
AcDbEntity
  8
SK3
  6
HIDDEN
370
    18
100
AcDbLine
 10
11.1
 20
6.6283658237
 30
0.0
 11
10.5104896512
 21
6.7118616368
 31
0.0
  0
LINE
  5
193
330
1F
100
AcDbEntity
  8
SK3
  6
HIDDEN
370
    18
100
AcDbLine
 10
10.5104896512
 20
6.7118616368
 30
0.0
 11
9.9733598839
 21
6.9549301068
 31
0.0
  0
LINE
  5
194
330
1F
100
AcDbEntity
  8
SK3
  6
HIDDEN
370
    18
100
AcDbLine
 10
9.9733598839
 20
6.9549301068
 30
0.0
 11
9.5363370351
 21
7.3359735333
 31
0.0
  0
LINE
  5
195
330
1F
100
AcDbEntity
  8
SK3
  6
HIDDEN
370
    18
100
AcDbLine
 10
9.5363370351
 20
7.3359735333
 30
0.0
 11
9.2382525027
 21
7.8211345359
 31
0.0
  0
LINE
  5
196
330
1F
100
AcDbEntity
  8
SK3
  6
HIDDEN
370
    18
100
AcDbLine
 10
9.2382525027
 20
7.8211345359
 30
0.0
 11
9.1055924056
 21
8.3673044302
 31
0.0
  0
LINE
  5
197
330
1F
100
AcDbEntity
  8
SK3
  6
HIDDEN
370
    18
100
AcDbLine
 10
9.1055924056
 20
8.3673044302
 30
0.0
 11
9.1501441756
 21
8.9259536244
 31
0.0
  0
LINE
  5
198
330
1F
100
AcDbEntity
  8
SK3
  6
HIDDEN
370
    18
100
AcDbLine
 10
9.1501441756
 20
8.9259536244
 30
0.0
 11
9.3679491924
 21
9.447443686
 31
0.0
  0
LINE
  5
199
330
1F
100
AcDbEntity
  8
SK3
  6
HIDDEN
370
    18
100
AcDbLine
 10
9.3679491924
 20
9.447443686
 30
0.0
 11
9.7396545245
 21
9.8854379344
 31
0.0
  0
LINE
  5
19A
330
1F
100
AcDbEntity
  8
SK3
  6
HIDDEN
370
    18
100
AcDbLine
 10
9.7396545245
 20
9.8854379344
 30
0.0
 11
10.2322325218
 21
10.2010186587
 31
0.0
  0
LINE
  5
19B
330
1F
100
AcDbEntity
  8
SK3
  6
HIDDEN
370
    18
100
AcDbLine
 10
10.2322325218
 20
10.2010186587
 30
0.0
 11
10.8019154676
 21
10.3661451264
 31
0.0
  0
LINE
  5
19C
330
1F
100
AcDbEntity
  8
SK3
  6
HIDDEN
370
    18
100
AcDbLine
 10
10.8019154676
 20
10.3661451264
 30
0.0
 11
11.3980845324
 21
10.3661451264
 31
0.0
  0
LINE
  5
19D
330
1F
100
AcDbEntity
  8
SK3
  6
HIDDEN
370
    18
100
AcDbLine
 10
11.3980845324
 20
10.3661451264
 30
0.0
 11
11.9677674782
 21
10.2010186587
 31
0.0
  0
LINE
  5
19E
330
1F
100
AcDbEntity
  8
SK3
  6
HIDDEN
370
    18
100
AcDbLine
 10
11.9677674782
 20
10.2010186587
 30
0.0
 11
12.4603454755
 21
9.8854379344
 31
0.0
  0
LINE
  5
19F
330
1F
100
AcDbEntity
  8
SK3
  6
HIDDEN
370
    18
100
AcDbLine
 10
12.4603454755
 20
9.8854379344
 30
0.0
 11
12.8320508076
 21
9.447443686
 31
0.0
  0
LINE
  5
1A0
330
1F
100
AcDbEntity
  8
SK3
  6
HIDDEN
370
    18
100
AcDbLine
 10
12.8320508076
 20
9.447443686
 30
0.0
 11
13.0498558244
 21
8.9259536244
 31
0.0
  0
LINE
  5
1A1
330
1F
100
AcDbEntity
  8
SK3
  6
HIDDEN
370
    18
100
AcDbLine
 10
13.0498558244
 20
8.9259536244
 30
0.0
 11
13.0944075944
 21
8.3673044302
 31
0.0
  0
LINE
  5
1A2
330
1F
100
AcDbEntity
  8
SK3
  6
HIDDEN
370
    18
100
AcDbLine
 10
13.0944075944
 20
8.3673044302
 30
0.0
 11
12.9617474973
 21
7.8211345359
 31
0.0
  0
LINE
  5
1A3
330
1F
100
AcDbEntity
  8
SK3
  6
HIDDEN
370
    18
100
AcDbLine
 10
12.9617474973
 20
7.8211345359
 30
0.0
 11
12.6636629649
 21
7.3359735333
 31
0.0
  0
LINE
  5
1A4
330
1F
100
AcDbEntity
  8
SK3
  6
HIDDEN
370
    18
100
AcDbLine
 10
12.6636629649
 20
7.3359735333
 30
0.0
 11
12.2266401161
 21
6.9549301068
 31
0.0
  0
LINE
  5
1A5
330
1F
100
AcDbEntity
  8
SK3
  6
HIDDEN
370
    18
100
AcDbLine
 10
12.2266401161
 20
6.9549301068
 30
0.0
 11
11.6895103488
 21
6.7118616368
 31
0.0
  0
LINE
  5
1A6
330
1F
100
AcDbEntity
  8
SK3
  6
HIDDEN
370
    18
100
AcDbLine
 10
11.6895103488
 20
6.7118616368
 30
0.0
 11
11.1
 21
6.6283658237
 31
0.0
  0
LINE
  5
1A7
330
1F
100
AcDbEntity
  8
SK3
  6
HIDDEN
370
    18
100
AcDbLine
 10
9.2
 20
10.4774644767
 30
0.0
 11
9.2
 21
10.4892488897
 31
0.0
  0
LINE
  5
1A8
330
1F
100
AcDbEntity
  8
SK3
  6
HIDDEN
370
    18
100
AcDbLine
 10
13.03
 20
10.3959582288
 30
0.0
 11
13.03
 21
10.3841746244
 31
0.0
  0
LINE
  5
1A9
330
1F
100
AcDbEntity
  8
SK3
  6
HIDDEN
370
    18
100
AcDbLine
 10
13.03
 20
9.3984375131
 30
0.0
 11
13.03
 21
9.4102211175
 31
0.0
  0
LINE
  5
1AA
330
1F
100
AcDbEntity
  8
SK3
  6
HIDDEN
370
    18
100
AcDbLine
 10
9.2
 20
9.3155731825
 30
0.0
 11
9.2
 21
9.3037887696
 31
0.0
  0
LINE
  5
1AB
330
1F
100
AcDbEntity
  8
SK3
  6
HIDDEN
370
    18
100
AcDbLine
 10
3.3100253255
 20
8.8686354442
 30
0.0
 11
3.4648080954
 21
9.4443283348
 31
0.0
  0
LINE
  5
1AC
330
1F
100
AcDbEntity
  8
SK3
  6
HIDDEN
370
    18
100
AcDbLine
 10
3.4648080954
 20
9.4443283348
 30
0.0
 11
3.7134513134
 21
9.9688683857
 31
0.0
  0
LINE
  5
1AD
330
1F
100
AcDbEntity
  8
SK3
  6
HIDDEN
370
    18
100
AcDbLine
 10
3.7134513134
 20
9.9688683857
 30
0.0
 11
4.0338619385
 21
10.3956479114
 31
0.0
  0
LINE
  5
1AE
330
1F
100
AcDbEntity
  8
SK3
  6
HIDDEN
370
    18
100
AcDbLine
 10
4.0338619385
 20
10.3956479114
 30
0.0
 11
4.3975700805
 21
10.6867456782
 31
0.0
  0
LINE
  5
1AF
330
1F
100
AcDbEntity
  8
SK3
  6
HIDDEN
370
    18
100
AcDbLine
 10
4.3975700805
 20
10.6867456782
 30
0.0
 11
4.7722586749
 21
10.8162963721
 31
0.0
  0
LINE
  5
1B0
330
1F
100
AcDbEntity
  8
SK3
  6
HIDDEN
370
    18
100
AcDbLine
 10
4.7722586749
 20
10.8162963721
 30
0.0
 11
5.1246349959
 21
10.7727888454
 31
0.0
  0
LINE
  5
1B1
330
1F
100
AcDbEntity
  8
SK3
  6
HIDDEN
370
    18
100
AcDbLine
 10
5.1246349959
 20
10.7727888454
 30
0.0
 11
5.4233888608
 21
10.5600889327
 31
0.0
  0
LINE
  5
1B2
330
1F
100
AcDbEntity
  8
SK3
  6
HIDDEN
370
    18
100
AcDbLine
 10
5.4233888608
 20
10.5600889327
 30
0.0
 11
5.6419746778
 21
10.1970959548
 31
0.0
  0
LINE
  5
1B3
330
1F
100
AcDbEntity
  8
SK3
  6
HIDDEN
370
    18
100
AcDbLine
 10
5.6419746778
 20
10.1970959548
 30
0.0
 11
5.7609701377
 21
9.7160634307
 31
0.0
  0
LINE
  5
1B4
330
1F
100
AcDbEntity
  8
SK3
  6
HIDDEN
370
    18
100
AcDbLine
 10
5.7609701377
 20
9.7160634307
 30
0.0
 11
5.7698019718
 21
9.159733211
 31
0.0
  0
LINE
  5
1B5
330
1F
100
AcDbEntity
  8
SK3
  6
HIDDEN
370
    18
100
AcDbLine
 10
5.7698019718
 20
9.159733211
 30
0.0
 11
5.6676854328
 21
8.5775376774
 31
0.0
  0
LINE
  5
1B6
330
1F
100
AcDbEntity
  8
SK3
  6
HIDDEN
370
    18
100
AcDbLine
 10
5.6676854328
 20
8.5775376774
 30
0.0
 11
5.4636940234
 21
8.0212074577
 31
0.0
  0
LINE
  5
1B7
330
1F
100
AcDbEntity
  8
SK3
  6
HIDDEN
370
    18
100
AcDbLine
 10
5.4636940234
 20
8.0212074577
 30
0.0
 11
5.1759532754
 21
7.5401749336
 31
0.0
  0
LINE
  5
1B8
330
1F
100
AcDbEntity
  8
SK3
  6
HIDDEN
370
    18
100
AcDbLine
 10
5.1759532754
 20
7.5401749336
 30
0.0
 11
4.8300302171
 21
7.1771819557
 31
0.0
  0
LINE
  5
1B9
330
1F
100
AcDbEntity
  8
SK3
  6
HIDDEN
370
    18
100
AcDbLine
 10
4.8300302171
 20
7.1771819557
 30
0.0
 11
4.4566616303
 21
6.964482043
 31
0.0
  0
LINE
  5
1BA
330
1F
100
AcDbEntity
  8
SK3
  6
HIDDEN
370
    18
100
AcDbLine
 10
4.4566616303
 20
6.964482043
 30
0.0
 11
4.0890229523
 21
6.9209745163
 31
0.0
  0
LINE
  5
1BB
330
1F
100
AcDbEntity
  8
SK3
  6
HIDDEN
370
    18
100
AcDbLine
 10
4.0890229523
 20
6.9209745163
 30
0.0
 11
3.7597804931
 21
7.0505252102
 31
0.0
  0
LINE
  5
1BC
330
1F
100
AcDbEntity
  8
SK3
  6
HIDDEN
370
    18
100
AcDbLine
 10
3.7597804931
 20
7.0505252102
 30
0.0
 11
3.4981888901
 21
7.341622977
 31
0.0
  0
LINE
  5
1BD
330
1F
100
AcDbEntity
  8
SK3
  6
HIDDEN
370
    18
100
AcDbLine
 10
3.4981888901
 20
7.341622977
 30
0.0
 11
3.3274917051
 21
7.7684025028
 31
0.0
  0
LINE
  5
1BE
330
1F
100
AcDbEntity
  8
SK3
  6
HIDDEN
370
    18
100
AcDbLine
 10
3.3274917051
 20
7.7684025028
 30
0.0
 11
3.2628561322
 21
8.2929425536
 31
0.0
  0
LINE
  5
1BF
330
1F
100
AcDbEntity
  8
SK3
  6
HIDDEN
370
    18
100
AcDbLine
 10
3.2628561322
 20
8.2929425536
 30
0.0
 11
3.3100253255
 21
8.8686354442
 31
0.0
  0
LINE
  5
1C0
330
1F
100
AcDbEntity
  8
SK3
  6
HIDDEN
370
    18
100
AcDbLine
 10
3.2
 20
7.1668508159
 30
0.0
 11
3.2
 21
11.3022369236
 31
0.0
  0
LINE
  5
1C1
330
1F
100
AcDbEntity
  8
SK3
  6
HIDDEN
370
    18
100
AcDbLine
 10
3.2
 20
-11.3098348849
 30
0.0
 11
5.0549767861
 21
-10.7960759675
 31
0.0
  0
LINE
  5
1C2
330
1F
100
AcDbEntity
  8
SK3
  6
HIDDEN
370
    18
100
AcDbLine
 10
3.9873194828
 20
-6.941194921
 30
0.0
 11
3.2
 21
-7.1592528547
 31
0.0
  0
LINE
  5
1C3
330
1F
100
AcDbEntity
  8
SK3
  6
HIDDEN
370
    18
100
AcDbLine
 10
5.06497889
 20
-10.7414234849
 30
0.0
 11
15.6885307418
 21
-7.7990985247
 31
0.0
  0
LINE
  5
1C4
330
1F
100
AcDbEntity
  8
SK3
  6
HIDDEN
370
    18
100
AcDbLine
 10
14.6475648711
 20
-4.0405895043
 30
0.0
 11
4.0240130193
 21
-6.9829144645
 31
0.0
  0
LINE
  5
1C5
330
1F
100
AcDbEntity
  8
SK3
  6
HIDDEN
370
    18
100
AcDbLine
 10
9.45
 20
-8.3606576218
 30
0.0
 11
9.45
 21
-8.4906500581
 31
0.0
  0
LINE
  5
1C6
330
1F
100
AcDbEntity
  8
SK3
  6
HIDDEN
370
    18
100
AcDbLine
 10
12.75
 20
-8.4906500581
 30
0.0
 11
12.75
 21
-7.4472312017
 31
0.0
  0
LINE
  5
1C7
330
1F
100
AcDbEntity
  8
SK3
  6
HIDDEN
370
    18
100
AcDbLine
 10
136.539173101
 20
20.0
 30
0.0
 11
104.4
 21
15.4831337857
 31
0.0
  0
LINE
  5
1C8
330
1F
100
AcDbEntity
  8
SK3
  6
HIDDEN
370
    18
100
AcDbLine
 10
104.4
 20
-15.4831337857
 30
0.0
 11
136.539173101
 21
-20.0
 31
0.0
  0
LINE
  5
1C9
330
1F
100
AcDbEntity
  8
SK3
  6
HIDDEN
370
    18
100
AcDbLine
 10
9.45
 20
-2.306643454
 30
0.0
 11
9.45
 21
-6.6458766183
 31
0.0
  0
LINE
  5
1CA
330
1F
100
AcDbEntity
  8
SK3
  6
HIDDEN
370
    18
100
AcDbLine
 10
12.75
 20
-5.7323387128
 30
0.0
 11
12.75
 21
-2.305732635
 31
0.0
  0
LINE
  5
1CB
330
1F
100
AcDbEntity
  8
SK3
  6
HIDDEN
370
    18
100
AcDbLine
 10
98.4
 20
15.65
 30
0.0
 11
96.9579345143
 21
13.25
 31
0.0
  0
LINE
  5
1CC
330
1F
100
AcDbEntity
  8
SK3
  6
HIDDEN
370
    18
100
AcDbLine
 10
96.9579345143
 20
-13.25
 30
0.0
 11
98.4
 21
-15.65
 31
0.0
  0
LINE
  5
1CD
330
1F
100
AcDbEntity
  8
SK3
  6
HIDDEN
370
    18
100
AcDbLine
 10
104.4
 20
15.65
 30
0.0
 11
98.4
 21
15.65
 31
0.0
  0
LINE
  5
1CE
330
1F
100
AcDbEntity
  8
SK3
  6
HIDDEN
370
    18
100
AcDbLine
 10
98.4
 20
-15.65
 30
0.0
 11
104.4
 21
-15.65
 31
0.0
  0
LINE
  5
1CF
330
1F
100
AcDbEntity
  8
SK3
  6
HIDDEN
370
    18
100
AcDbLine
 10
96.9579345143
 20
13.25
 30
0.0
 11
32.4
 21
13.25
 31
0.0
  0
LINE
  5
1D0
330
1F
100
AcDbEntity
  8
SK3
  6
HIDDEN
370
    18
100
AcDbLine
 10
32.4
 20
-13.25
 30
0.0
 11
96.9579345143
 21
-13.25
 31
0.0
  0
LINE
  5
1D1
330
1F
100
AcDbEntity
  8
SK3
  6
HIDDEN
370
    18
100
AcDbLine
 10
32.4
 20
13.25
 30
0.0
 11
28.4921467404
 21
6.74624
 31
0.0
  0
LINE
  5
1D2
330
1F
100
AcDbEntity
  8
SK3
  6
HIDDEN
370
    18
100
AcDbLine
 10
28.4921467404
 20
-6.74624
 30
0.0
 11
32.4
 21
-13.25
 31
0.0
  0
LINE
  5
1D3
330
1F
100
AcDbEntity
  8
SK3
  6
HIDDEN
370
    18
100
AcDbLine
 10
-68.25
 20
-9.14
 30
0.0
 11
-66.6824940192
 21
-8.235
 31
0.0
  0
LINE
  5
1D4
330
1F
100
AcDbEntity
  8
SK3
  6
HIDDEN
370
    18
100
AcDbLine
 10
-66.6824940192
 20
8.235
 30
0.0
 11
-68.25
 21
9.14
 31
0.0
  0
LINE
  5
1D5
330
1F
100
AcDbEntity
  8
SK3
  6
HIDDEN
370
    18
100
AcDbLine
 10
-63.48
 20
-8.235
 30
0.0
 11
-62.6204640132
 21
-6.74624
 31
0.0
  0
LINE
  5
1D6
330
1F
100
AcDbEntity
  8
SK3
  6
HIDDEN
370
    18
100
AcDbLine
 10
-62.6204640132
 20
6.74624
 30
0.0
 11
-63.48
 21
8.235
 31
0.0
  0
LINE
  5
1D7
330
1F
100
AcDbEntity
  8
SK3
  6
HIDDEN
370
    18
100
AcDbLine
 10
-66.6824940192
 20
-8.235
 30
0.0
 11
-63.48
 21
-8.235
 31
0.0
  0
LINE
  5
1D8
330
1F
100
AcDbEntity
  8
SK3
  6
HIDDEN
370
    18
100
AcDbLine
 10
-63.48
 20
8.235
 30
0.0
 11
-66.6824940192
 21
8.235
 31
0.0
  0
LINE
  5
1D9
330
1F
100
AcDbEntity
  8
SK3
  6
HIDDEN
370
    18
100
AcDbLine
 10
-62.6204640132
 20
-6.74624
 30
0.0
 11
28.4921467404
 21
-6.74624
 31
0.0
  0
LINE
  5
1DA
330
1F
100
AcDbEntity
  8
SK3
  6
HIDDEN
370
    18
100
AcDbLine
 10
28.4921467404
 20
6.74624
 30
0.0
 11
-62.6204640132
 21
6.74624
 31
0.0
  0
LINE
  5
1DB
330
1F
100
AcDbEntity
  8
SK3
  6
HIDDEN
370
    18
100
AcDbLine
 10
6.1
 20
24.83
 30
0.0
 11
6.1
 21
20.43
 31
0.0
  0
LINE
  5
1DC
330
1F
100
AcDbEntity
  8
SK3
  6
HIDDEN
370
    18
100
AcDbLine
 10
16.1
 20
20.43
 30
0.0
 11
16.1
 21
24.83
 31
0.0
  0
LINE
  5
1DD
330
1F
100
AcDbEntity
  8
SK3
  6
HIDDEN
370
    18
100
AcDbLine
 10
9.45
 20
6.6474538938
 30
0.0
 11
9.45
 21
2.305732635
 31
0.0
  0
LINE
  5
1DE
330
1F
100
AcDbEntity
  8
SK3
  6
HIDDEN
370
    18
100
AcDbLine
 10
12.75
 20
2.306643454
 30
0.0
 11
12.75
 21
5.7334282057
 31
0.0
  0
LINE
  5
1DF
330
1F
100
AcDbEntity
  8
SK3
  6
HIDDEN
370
    18
100
AcDbLine
 10
4.0240130193
 20
6.9829144645
 30
0.0
 11
14.6475648711
 21
4.0405895043
 31
0.0
  0
LINE
  5
1E0
330
1F
100
AcDbEntity
  8
SK3
  6
HIDDEN
370
    18
100
AcDbLine
 10
15.6885307418
 20
7.7990985247
 30
0.0
 11
5.06497889
 21
10.7414234849
 31
0.0
  0
LINE
  5
1E1
330
1F
100
AcDbEntity
  8
SK3
  6
HIDDEN
370
    18
100
AcDbLine
 10
9.45
 20
8.435823813
 30
0.0
 11
9.45
 21
8.3600777114
 31
0.0
  0
LINE
  5
1E2
330
1F
100
AcDbEntity
  8
SK3
  6
HIDDEN
370
    18
100
AcDbLine
 10
12.75
 20
7.4456278722
 30
0.0
 11
12.75
 21
8.435823813
 31
0.0
  0
LINE
  5
1E3
330
1F
100
AcDbEntity
  8
SK3
  6
HIDDEN
370
    18
100
AcDbLine
 10
9.1
 20
9.9611700964
 30
0.0
 11
9.1
 21
8.5077510652
 31
0.0
  0
LINE
  5
1E4
330
1F
100
AcDbEntity
  8
SK3
  6
HIDDEN
370
    18
100
AcDbLine
 10
13.1
 20
8.5077510652
 30
0.0
 11
13.1
 21
9.941192336
 31
0.0
  0
LINE
  5
1E5
330
1F
100
AcDbEntity
  8
SK3
  6
HIDDEN
370
    18
100
AcDbLine
 10
3.2
 20
7.1592528547
 30
0.0
 11
3.9873194828
 21
6.941194921
 31
0.0
  0
LINE
  5
1E6
330
1F
100
AcDbEntity
  8
SK3
  6
HIDDEN
370
    18
100
AcDbLine
 10
5.0549767861
 20
10.7960759675
 30
0.0
 11
3.2
 21
11.3098348849
 31
0.0
  0
LINE
  5
1E7
330
1F
100
AcDbEntity
  8
1
  6
Continuous
370
    18
100
AcDbLine
 10
121.67401
 20
-24.25
 30
0.0
 11
126.9
 21
-24.25
 31
0.0
  0
LINE
  5
1E8
330
1F
100
AcDbEntity
  8
1
  6
Continuous
370
    18
100
AcDbLine
 10
126.9
 20
24.25
 30
0.0
 11
121.67401
 21
24.25
 31
0.0
  0
LINE
  5
1E9
330
1F
100
AcDbEntity
  8
1
  6
Continuous
370
    18
100
AcDbLine
 10
121.67401
 20
0.0
 30
0.0
 11
121.67401
 21
2.4489582511
 31
0.0
  0
LINE
  5
1EA
330
1F
100
AcDbEntity
  8
1
  6
Continuous
370
    18
100
AcDbLine
 10
121.6739441137
 20
2.4489582511
 30
0.0
 11
121.67401
 21
4.8743316956
 31
0.0
  0
LINE
  5
1EB
330
1F
100
AcDbEntity
  8
1
  6
Continuous
370
    18
100
AcDbLine
 10
121.67401
 20
4.8743316956
 30
0.0
 11
121.67401
 21
7.2527626612
 31
0.0
  0
LINE
  5
1EC
330
1F
100
AcDbEntity
  8
1
  6
Continuous
370
    18
100
AcDbLine
 10
121.67401
 20
7.2527626612
 30
0.0
 11
121.67401
 21
9.5613455576
 31
0.0
  0
LINE
  5
1ED
330
1F
100
AcDbEntity
  8
1
  6
Continuous
370
    18
100
AcDbLine
 10
121.67401
 20
9.5613455576
 30
0.0
 11
121.67401
 21
11.7778474696
 31
0.0
  0
LINE
  5
1EE
330
1F
100
AcDbEntity
  8
1
  6
Continuous
370
    18
100
AcDbLine
 10
121.67401
 20
11.7778474696
 30
0.0
 11
121.67401
 21
13.880922272
 31
0.0
  0
LINE
  5
1EF
330
1F
100
AcDbEntity
  8
1
  6
Continuous
370
    18
100
AcDbLine
 10
121.67401
 20
13.880922272
 30
0.0
 11
121.67401
 21
15.8503162048
 31
0.0
  0
LINE
  5
1F0
330
1F
100
AcDbEntity
  8
1
  6
Continuous
370
    18
100
AcDbLine
 10
121.67401
 20
15.8503162048
 30
0.0
 11
121.67401
 21
17.6670629279
 31
0.0
  0
LINE
  5
1F1
330
1F
100
AcDbEntity
  8
1
  6
Continuous
370
    18
100
AcDbLine
 10
121.67401
 20
17.6670629279
 30
0.0
 11
121.67401
 21
19.3136661773
 31
0.0
  0
LINE
  5
1F2
330
1F
100
AcDbEntity
  8
1
  6
Continuous
370
    18
100
AcDbLine
 10
121.67401
 20
19.3136661773
 30
0.0
 11
121.67401
 21
20.7742682634
 31
0.0
  0
LINE
  5
1F3
330
1F
100
AcDbEntity
  8
1
  6
Continuous
370
    18
100
AcDbLine
 10
121.67401
 20
20.7742682634
 30
0.0
 11
121.67401
 21
22.0348027897
 31
0.0
  0
LINE
  5
1F4
330
1F
100
AcDbEntity
  8
1
  6
Continuous
370
    18
100
AcDbLine
 10
121.67401
 20
22.0348027897
 30
0.0
 11
121.67401
 21
23.0831301198
 31
0.0
  0
LINE
  5
1F5
330
1F
100
AcDbEntity
  8
1
  6
Continuous
370
    18
100
AcDbLine
 10
121.67401
 20
23.0831301198
 30
0.0
 11
121.67401
 21
23.9091542883
 31
0.0
  0
LINE
  5
1F6
330
1F
100
AcDbEntity
  8
1
  6
Continuous
370
    18
100
AcDbLine
 10
121.67401
 20
23.9091542883
 30
0.0
 11
121.67401
 21
24.5049202309
 31
0.0
  0
LINE
  5
1F7
330
1F
100
AcDbEntity
  8
1
  6
Continuous
370
    18
100
AcDbLine
 10
121.67401
 20
24.5049202309
 30
0.0
 11
121.67401
 21
24.8646903959
 31
0.0
  0
LINE
  5
1F8
330
1F
100
AcDbEntity
  8
1
  6
Continuous
370
    18
100
AcDbLine
 10
121.67401
 20
24.8646903959
 30
0.0
 11
121.67401
 21
24.985
 31
0.0
  0
LINE
  5
1F9
330
1F
100
AcDbEntity
  8
1
  6
Continuous
370
    18
100
AcDbLine
 10
121.6739441137
 20
-24.985
 30
0.0
 11
121.67401
 21
-24.8646903959
 31
0.0
  0
LINE
  5
1FA
330
1F
100
AcDbEntity
  8
1
  6
Continuous
370
    18
100
AcDbLine
 10
121.67401
 20
-24.8646903959
 30
0.0
 11
121.67401
 21
-24.5049202309
 31
0.0
  0
LINE
  5
1FB
330
1F
100
AcDbEntity
  8
1
  6
Continuous
370
    18
100
AcDbLine
 10
121.67401
 20
-24.5049202309
 30
0.0
 11
121.67401
 21
-23.9091542883
 31
0.0
  0
LINE
  5
1FC
330
1F
100
AcDbEntity
  8
1
  6
Continuous
370
    18
100
AcDbLine
 10
121.67401
 20
-23.9091542883
 30
0.0
 11
121.67401
 21
-23.0831301198
 31
0.0
  0
LINE
  5
1FD
330
1F
100
AcDbEntity
  8
1
  6
Continuous
370
    18
100
AcDbLine
 10
121.67401
 20
-23.0831301198
 30
0.0
 11
121.67401
 21
-22.0348027897
 31
0.0
  0
LINE
  5
1FE
330
1F
100
AcDbEntity
  8
1
  6
Continuous
370
    18
100
AcDbLine
 10
121.67401
 20
-22.0348027897
 30
0.0
 11
121.67401
 21
-20.7742682634
 31
0.0
  0
LINE
  5
1FF
330
1F
100
AcDbEntity
  8
1
  6
Continuous
370
    18
100
AcDbLine
 10
121.67401
 20
-20.7742682634
 30
0.0
 11
121.67401
 21
-19.3136661773
 31
0.0
  0
LINE
  5
200
330
1F
100
AcDbEntity
  8
1
  6
Continuous
370
    18
100
AcDbLine
 10
121.67401
 20
-19.3136661773
 30
0.0
 11
121.67401
 21
-17.6670629279
 31
0.0
  0
LINE
  5
201
330
1F
100
AcDbEntity
  8
1
  6
Continuous
370
    18
100
AcDbLine
 10
121.67401
 20
-17.6670629279
 30
0.0
 11
121.67401
 21
-15.8503162048
 31
0.0
  0
LINE
  5
202
330
1F
100
AcDbEntity
  8
1
  6
Continuous
370
    18
100
AcDbLine
 10
121.67401
 20
-15.8503162048
 30
0.0
 11
121.67401
 21
-13.880922272
 31
0.0
  0
LINE
  5
203
330
1F
100
AcDbEntity
  8
1
  6
Continuous
370
    18
100
AcDbLine
 10
121.67401
 20
-13.880922272
 30
0.0
 11
121.67401
 21
-11.7778474696
 31
0.0
  0
LINE
  5
204
330
1F
100
AcDbEntity
  8
1
  6
Continuous
370
    18
100
AcDbLine
 10
121.67401
 20
-11.7778474696
 30
0.0
 11
121.67401
 21
-9.5613455576
 31
0.0
  0
LINE
  5
205
330
1F
100
AcDbEntity
  8
1
  6
Continuous
370
    18
100
AcDbLine
 10
121.67401
 20
-9.5613455576
 30
0.0
 11
121.67401
 21
-7.2527626612
 31
0.0
  0
LINE
  5
206
330
1F
100
AcDbEntity
  8
1
  6
Continuous
370
    18
100
AcDbLine
 10
121.67401
 20
-7.2527626612
 30
0.0
 11
121.67401
 21
-4.8743316956
 31
0.0
  0
LINE
  5
207
330
1F
100
AcDbEntity
  8
1
  6
Continuous
370
    18
100
AcDbLine
 10
121.67401
 20
-4.8743316956
 30
0.0
 11
121.67401
 21
-2.4489582511
 31
0.0
  0
LINE
  5
208
330
1F
100
AcDbEntity
  8
1
  6
Continuous
370
    18
100
AcDbLine
 10
121.67401
 20
-2.4489582511
 30
0.0
 11
121.67401
 21
0.0
 31
0.0
  0
LINE
  5
209
330
1F
100
AcDbEntity
  8
81
370
    18
100
AcDbLine
 10
137.4
 20
0.0
 30
0.0
 11
140.9355339059
 21
3.5355339059
 31
0.0
  0
LINE
  5
20A
330
1F
100
AcDbEntity
  8
81
370
    18
100
AcDbLine
 10
137.4
 20
0.0
 30
0.0
 11
133.8644660941
 21
-3.5355339059
 31
0.0
  0
LINE
  5
20B
330
1F
100
AcDbEntity
  8
81
370
    18
100
AcDbLine
 10
137.4
 20
0.0
 30
0.0
 11
133.8644660941
 21
3.5355339059
 31
0.0
  0
LINE
  5
20C
330
1F
100
AcDbEntity
  8
81
100
AcDbLine
 10
137.4
 20
0.0
 30
0.0
 11
147.4
 21
0.0
 31
0.0
  0
LINE
  5
20D
330
1F
100
AcDbEntity
  8
81
370
    18
100
AcDbLine
 10
137.4
 20
0.0
 30
0.0
 11
140.9355339059
 21
-3.5355339059
 31
0.0
  0
LINE
  5
20E
330
1F
100
AcDbEntity
  8
80
370
    18
100
AcDbLine
 10
0.0
 20
0.0
 30
0.0
 11
-3.5355339059
 21
-3.5355339059
 31
0.0
  0
LINE
  5
20F
330
1F
100
AcDbEntity
  8
80
370
    18
100
AcDbLine
 10
0.0
 20
0.0
 30
0.0
 11
3.5355339059
 21
3.5355339059
 31
0.0
  0
LINE
  5
210
330
1F
100
AcDbEntity
  8
80
370
    18
100
AcDbLine
 10
0.0
 20
0.0
 30
0.0
 11
-3.5355339059
 21
3.5355339059
 31
0.0
  0
LINE
  5
211
330
1F
100
AcDbEntity
  8
80
370
    18
100
AcDbLine
 10
0.0
 20
0.0
 30
0.0
 11
-10.0
 21
0.0
 31
0.0
  0
LINE
  5
212
330
1F
100
AcDbEntity
  8
80
370
    18
100
AcDbLine
 10
0.0
 20
0.0
 30
0.0
 11
3.5355339059
 21
-3.5355339059
 31
0.0
  0
LINE
  5
213
330
1F
100
AcDbEntity
  8
SK3
  6
Continuous
370
    18
100
AcDbLine
 10
-38.25
 20
7.9375
 30
0.0
 11
-63.3082382949
 21
7.9375
 31
0.0
  0
LINE
  5
214
330
1F
100
AcDbEntity
  8
SK3
  6
Continuous
370
    18
100
AcDbLine
 10
-63.3082382949
 20
-7.9375
 30
0.0
 11
-38.25
 21
-7.9375
 31
0.0
  0
LINE
  5
215
330
1F
100
AcDbEntity
  8
SK3
  6
Continuous
370
    18
100
AcDbLine
 10
-38.25
 20
0.0
 30
0.0
 11
-38.25
 21
-1.3783324102
 31
0.0
  0
LINE
  5
216
330
1F
100
AcDbEntity
  8
SK3
  6
Continuous
370
    18
100
AcDbLine
 10
-38.25
 20
-1.3783324102
 30
0.0
 11
-38.25
 21
-2.7147848876
 31
0.0
  0
LINE
  5
217
330
1F
100
AcDbEntity
  8
SK3
  6
Continuous
370
    18
100
AcDbLine
 10
-38.25
 20
-2.7147848876
 30
0.0
 11
-38.25
 21
-3.96875
 31
0.0
  0
LINE
  5
218
330
1F
100
AcDbEntity
  8
SK3
  6
Continuous
370
    18
100
AcDbLine
 10
-38.25
 20
-3.96875
 30
0.0
 11
-38.25
 21
-5.1021266519
 31
0.0
  0
LINE
  5
219
330
1F
100
AcDbEntity
  8
SK3
  6
Continuous
370
    18
100
AcDbLine
 10
-38.25
 20
-5.1021266519
 30
0.0
 11
-38.25
 21
-6.0804777673
 31
0.0
  0
LINE
  5
21A
330
1F
100
AcDbEntity
  8
SK3
  6
Continuous
370
    18
100
AcDbLine
 10
-38.25
 20
-6.0804777673
 30
0.0
 11
-38.25
 21
-6.8740766425
 31
0.0
  0
LINE
  5
21B
330
1F
100
AcDbEntity
  8
SK3
  6
Continuous
370
    18
100
AcDbLine
 10
-38.25
 20
-6.8740766425
 30
0.0
 11
-38.25
 21
-7.4588101775
 31
0.0
  0
LINE
  5
21C
330
1F
100
AcDbEntity
  8
SK3
  6
Continuous
370
    18
100
AcDbLine
 10
-38.25
 20
-7.4588101775
 30
0.0
 11
-38.25
 21
-7.8169115395
 31
0.0
  0
LINE
  5
21D
330
1F
100
AcDbEntity
  8
SK3
  6
Continuous
370
    18
100
AcDbLine
 10
-38.25
 20
-7.8169115395
 30
0.0
 11
-38.25
 21
-7.9375
 31
0.0
  0
LINE
  5
21E
330
1F
100
AcDbEntity
  8
SK3
  6
Continuous
370
    18
100
AcDbLine
 10
-38.25
 20
7.9375
 30
0.0
 11
-38.25
 21
7.8169115395
 31
0.0
  0
LINE
  5
21F
330
1F
100
AcDbEntity
  8
SK3
  6
Continuous
370
    18
100
AcDbLine
 10
-38.25
 20
7.8169115395
 30
0.0
 11
-38.25
 21
7.4588101775
 31
0.0
  0
LINE
  5
220
330
1F
100
AcDbEntity
  8
SK3
  6
Continuous
370
    18
100
AcDbLine
 10
-38.25
 20
7.4588101775
 30
0.0
 11
-38.25
 21
6.8740766425
 31
0.0
  0
LINE
  5
221
330
1F
100
AcDbEntity
  8
SK3
  6
Continuous
370
    18
100
AcDbLine
 10
-38.25
 20
6.8740766425
 30
0.0
 11
-38.25
 21
6.0804777673
 31
0.0
  0
LINE
  5
222
330
1F
100
AcDbEntity
  8
SK3
  6
Continuous
370
    18
100
AcDbLine
 10
-38.25
 20
6.0804777673
 30
0.0
 11
-38.25
 21
5.1021266519
 31
0.0
  0
LINE
  5
223
330
1F
100
AcDbEntity
  8
SK3
  6
Continuous
370
    18
100
AcDbLine
 10
-38.25
 20
5.1021266519
 30
0.0
 11
-38.25
 21
3.96875
 31
0.0
  0
LINE
  5
224
330
1F
100
AcDbEntity
  8
SK3
  6
Continuous
370
    18
100
AcDbLine
 10
-38.25
 20
3.96875
 30
0.0
 11
-38.25
 21
2.7147848876
 31
0.0
  0
LINE
  5
225
330
1F
100
AcDbEntity
  8
SK3
  6
Continuous
370
    18
100
AcDbLine
 10
-38.25
 20
2.7147848876
 30
0.0
 11
-38.25
 21
1.3783324102
 31
0.0
  0
LINE
  5
226
330
1F
100
AcDbEntity
  8
SK3
  6
Continuous
370
    18
100
AcDbLine
 10
-38.25
 20
1.3783324102
 30
0.0
 11
-38.25
 21
0.0
 31
0.0
  0
LINE
  5
227
330
1F
100
AcDbEntity
  8
SK3
  6
Continuous
370
    18
100
AcDbLine
 10
42.4
 20
-14.0
 30
0.0
 11
97.4085799786
 21
-14.0
 31
0.0
  0
LINE
  5
228
330
1F
100
AcDbEntity
  8
SK3
  6
Continuous
370
    18
100
AcDbLine
 10
97.4085799786
 20
14.0
 30
0.0
 11
42.4
 21
14.0
 31
0.0
  0
LINE
  5
229
330
1F
100
AcDbEntity
  8
SK3
  6
Continuous
370
    18
100
AcDbLine
 10
42.4
 20
0.0
 30
0.0
 11
42.4
 21
1.8273666911
 31
0.0
  0
LINE
  5
22A
330
1F
100
AcDbEntity
  8
SK3
  6
Continuous
370
    18
100
AcDbLine
 10
42.3999453763
 20
1.8273666911
 30
0.0
 11
42.4
 21
3.6234666314
 31
0.0
  0
LINE
  5
22B
330
1F
100
AcDbEntity
  8
SK3
  6
Continuous
370
    18
100
AcDbLine
 10
42.4
 20
3.6234666314
 30
0.0
 11
42.4
 21
5.3575680531
 31
0.0
  0
LINE
  5
22C
330
1F
100
AcDbEntity
  8
SK3
  6
Continuous
370
    18
100
AcDbLine
 10
42.4
 20
5.3575680531
 30
0.0
 11
42.4
 21
7.0
 31
0.0
  0
LINE
  5
22D
330
1F
100
AcDbEntity
  8
SK3
  6
Continuous
370
    18
100
AcDbLine
 10
42.4
 20
7.0
 30
0.0
 11
42.4
 21
8.5226600061
 31
0.0
  0
LINE
  5
22E
330
1F
100
AcDbEntity
  8
SK3
  6
Continuous
370
    18
100
AcDbLine
 10
42.4
 20
8.5226600061
 30
0.0
 11
42.4
 21
9.8994949366
 31
0.0
  0
LINE
  5
22F
330
1F
100
AcDbEntity
  8
SK3
  6
Continuous
370
    18
100
AcDbLine
 10
42.4
 20
9.8994949366
 30
0.0
 11
42.4
 21
11.1069467641
 31
0.0
  0
LINE
  5
230
330
1F
100
AcDbEntity
  8
SK3
  6
Continuous
370
    18
100
AcDbLine
 10
42.4
 20
11.1069467641
 30
0.0
 11
42.4
 21
12.124355653
 31
0.0
  0
LINE
  5
231
330
1F
100
AcDbEntity
  8
SK3
  6
Continuous
370
    18
100
AcDbLine
 10
42.4
 20
12.124355653
 30
0.0
 11
42.4
 21
12.9343134552
 31
0.0
  0
LINE
  5
232
330
1F
100
AcDbEntity
  8
SK3
  6
Continuous
370
    18
100
AcDbLine
 10
42.4
 20
12.9343134552
 30
0.0
 11
42.4
 21
13.522961568
 31
0.0
  0
LINE
  5
233
330
1F
100
AcDbEntity
  8
SK3
  6
Continuous
370
    18
100
AcDbLine
 10
42.4
 20
13.522961568
 30
0.0
 11
42.4
 21
13.8802280592
 31
0.0
  0
LINE
  5
234
330
1F
100
AcDbEntity
  8
SK3
  6
Continuous
370
    18
100
AcDbLine
 10
42.4
 20
13.8802280592
 30
0.0
 11
42.4
 21
14.0
 31
0.0
  0
LINE
  5
235
330
1F
100
AcDbEntity
  8
SK3
  6
Continuous
370
    18
100
AcDbLine
 10
42.3999453763
 20
-14.0
 30
0.0
 11
42.4
 21
-13.8802280592
 31
0.0
  0
LINE
  5
236
330
1F
100
AcDbEntity
  8
SK3
  6
Continuous
370
    18
100
AcDbLine
 10
42.4
 20
-13.8802280592
 30
0.0
 11
42.4
 21
-13.522961568
 31
0.0
  0
LINE
  5
237
330
1F
100
AcDbEntity
  8
SK3
  6
Continuous
370
    18
100
AcDbLine
 10
42.4
 20
-13.522961568
 30
0.0
 11
42.4
 21
-12.9343134552
 31
0.0
  0
LINE
  5
238
330
1F
100
AcDbEntity
  8
SK3
  6
Continuous
370
    18
100
AcDbLine
 10
42.4
 20
-12.9343134552
 30
0.0
 11
42.4
 21
-12.124355653
 31
0.0
  0
LINE
  5
239
330
1F
100
AcDbEntity
  8
SK3
  6
Continuous
370
    18
100
AcDbLine
 10
42.4
 20
-12.124355653
 30
0.0
 11
42.4
 21
-11.1069467641
 31
0.0
  0
LINE
  5
23A
330
1F
100
AcDbEntity
  8
SK3
  6
Continuous
370
    18
100
AcDbLine
 10
42.4
 20
-11.1069467641
 30
0.0
 11
42.4
 21
-9.8994949366
 31
0.0
  0
LINE
  5
23B
330
1F
100
AcDbEntity
  8
SK3
  6
Continuous
370
    18
100
AcDbLine
 10
42.4
 20
-9.8994949366
 30
0.0
 11
42.4
 21
-8.5226600061
 31
0.0
  0
LINE
  5
23C
330
1F
100
AcDbEntity
  8
SK3
  6
Continuous
370
    18
100
AcDbLine
 10
42.4
 20
-8.5226600061
 30
0.0
 11
42.4
 21
-7.0
 31
0.0
  0
LINE
  5
23D
330
1F
100
AcDbEntity
  8
SK3
  6
Continuous
370
    18
100
AcDbLine
 10
42.4
 20
-7.0
 30
0.0
 11
42.4
 21
-5.3575680531
 31
0.0
  0
LINE
  5
23E
330
1F
100
AcDbEntity
  8
SK3
  6
Continuous
370
    18
100
AcDbLine
 10
42.4
 20
-5.3575680531
 30
0.0
 11
42.4
 21
-3.6234666314
 31
0.0
  0
LINE
  5
23F
330
1F
100
AcDbEntity
  8
SK3
  6
Continuous
370
    18
100
AcDbLine
 10
42.4
 20
-3.6234666314
 30
0.0
 11
42.4
 21
-1.8273666911
 31
0.0
  0
LINE
  5
240
330
1F
100
AcDbEntity
  8
SK3
  6
Continuous
370
    18
100
AcDbLine
 10
42.4
 20
-1.8273666911
 30
0.0
 11
42.4
 21
0.0
 31
0.0
  0
LINE
  5
241
330
1F
100
AcDbEntity
  8
4
  6
CENTERX2
370
    18
100
AcDbLine
 10
154.1051042407
 20
0.0
 30
0.0
 11
-1.4454947293
 21
0.0
 31
0.0
  0
LINE
  5
242
330
1F
100
AcDbEntity
  8
SK4
  6
CENTERX2
370
    18
100
AcDbLine
 10
154.2680041615
 20
0.0
 30
0.0
 11
-70.594936068
 21
0.0
 31
0.0
  0
ARC
  5
243
330
1F
100
AcDbEntity
  8
1
  6
Continuous
370
    25
100
AcDbCircle
 10
38.225
 20
28.125
 30
0.0
 40
3.175000000000011
100
AcDbArc
 50
90.0
 51
180.0
  0
ARC
  5
244
330
1F
100
AcDbEntity
  8
1
  6
Continuous
370
    25
100
AcDbCircle
 10
38.225
 20
-28.125
 30
0.0
 40
3.175000000000011
100
AcDbArc
 50
180.0
 51
270.0
  0
ARC
  5
245
330
1F
100
AcDbEntity
  8
1
  6
Continuous
370
    25
100
AcDbCircle
 10
19.812
 20
-22.987
 30
0.0
 40
0.7620000000000031
100
AcDbArc
 50
90.0
 51
121.4518814384
  0
ARC
  5
246
330
1F
100
AcDbEntity
  8
1
  6
Continuous
370
    25
100
AcDbCircle
 10
19.812
 20
22.987
 30
0.0
 40
0.7620000000000005
100
AcDbArc
 50
180.0
 51
270.0
  0
ARC
  5
247
330
1F
100
AcDbEntity
  8
1
  6
Continuous
370
    25
100
AcDbCircle
 10
34.288
 20
22.987
 30
0.0
 40
0.7620000000000005
100
AcDbArc
 50
270.0
 51
0.0
  0
ARC
  5
248
330
1F
100
AcDbEntity
  8
1
  6
Continuous
370
    25
100
AcDbCircle
 10
34.288
 20
-22.987
 30
0.0
 40
0.7620000000000005
100
AcDbArc
 50
0.0
 51
90.0
  0
ARC
  5
249
330
1F
100
AcDbEntity
  8
1
  6
Continuous
370
    25
100
AcDbCircle
 10
2.45
 20
22.79
 30
0.0
 40
0.7500000000000142
100
AcDbArc
 50
245.0
 51
0.0
  0
ARC
  5
24A
330
1F
100
AcDbEntity
  8
1
  6
Continuous
370
    25
100
AcDbCircle
 10
2.45
 20
-22.79
 30
0.0
 40
0.7500000000000204
100
AcDbArc
 50
30.4400875994
 51
115.0
  0
ARC
  5
24B
330
1F
100
AcDbEntity
  8
SK1
  6
Continuous
370
    25
100
AcDbCircle
 10
-66.95
 20
11.1476148288
 30
0.0
 40
1.3
100
AcDbArc
 50
98.2972222222
 51
180.0
  0
ARC
  5
24C
330
1F
100
AcDbEntity
  8
SK1
  6
Continuous
370
    25
100
AcDbCircle
 10
-66.95
 20
-11.1476148288
 30
0.0
 40
1.300000000000011
100
AcDbArc
 50
180.0
 51
261.7027777778
  0
ARC
  5
24D
330
1F
100
AcDbEntity
  8
1
  6
Continuous
370
    25
100
AcDbCircle
 10
139.6994043595
 20
41.5455507214
 30
0.0
 40
25.33718594877418
100
AcDbArc
 50
267.53813548
 51
270.0013469406
  0
ARC
  5
24E
330
1F
100
AcDbEntity
  8
1
  6
Continuous
370
    25
100
AcDbCircle
 10
139.6994043596
 20
-41.5455507214
 30
0.0
 40
25.33718594878224
100
AcDbArc
 50
89.9986530594
 51
92.4618645201
  0
CIRCLE
  5
24F
330
1F
100
AcDbEntity
  8
81
370
    18
100
AcDbCircle
 10
137.4
 20
0.0
 30
0.0
 40
2.499999999999971
  0
CIRCLE
  5
250
330
1F
100
AcDbEntity
  8
80
370
    18
100
AcDbCircle
 10
0.0
 20
0.0
 30
0.0
 40
2.500000000000009
  0
ARC
  5
251
330
1F
100
AcDbEntity
  8
SK3
  6
HIDDEN
370
    18
100
AcDbCircle
 10
136.4
 20
20.9902680687
 30
0.0
 40
1.0
100
AcDbArc
 50
278.0
 51
0.0
  0
ARC
  5
252
330
1F
100
AcDbEntity
  8
SK3
  6
HIDDEN
370
    18
100
AcDbCircle
 10
136.4
 20
-20.9902680687
 30
0.0
 40
1.000000000000006
100
AcDbArc
 50
0.0
 51
82.0
  0
SPLINE
  5
253
330
1F
100
AcDbEntity
  8
1
  6
Continuous
370
    25
100
AcDbSpline
210
0.0
220
0.0
230
1.0
 70
     8
 71
     3
 72
    16
 73
    12
 74
     0
 42
0.000000001
 43
0.00000001
 40
0.0
 40
0.0
 40
0.0
 40
0.0
 40
0.0695972585631702
 40
0.1233277320974721
 40
0.247039555460377
 40
0.370625409937532
 40
0.4955039070586293
 40
0.6236892810562452
 40
0.7463896350927952
 40
0.874029172385884
 40
1.0
 40
1.0
 40
1.0
 40
1.0
 10
3.199999999999994
 20
-29.80486644841629
 30
0.0
 10
3.200840331068322
 20
-29.8321187437415
 30
0.0
 10
3.202329414503616
 20
-29.88041035531206
 30
0.0
 10
3.217237155250588
 20
-29.97610817340507
 30
0.0
 10
3.250688715768002
 20
-30.08991350869656
 30
0.0
 10
3.318652551687978
 20
-30.22007249881832
 30
0.0
 10
3.411627067179665
 20
-30.33622596976963
 30
0.0
 10
3.525709306310146
 20
-30.43184457715032
 30
0.0
 10
3.65737912302759
 20
-30.50320141671876
 30
0.0
 10
3.800029806285341
 20
-30.5492134761922
 30
0.0
 10
3.900229701070762
 20
-30.55502300820852
 30
0.0
 10
3.949999999999912
 20
-30.55790866138917
 30
0.0
  0
SPLINE
  5
254
330
1F
100
AcDbEntity
  8
1
  6
Continuous
370
    25
100
AcDbSpline
210
0.0
220
0.0
230
1.0
 70
     8
 71
     3
 72
    18
 73
    14
 74
     0
 42
0.000000001
 43
0.00000001
 40
0.0
 40
0.0
 40
0.0
 40
0.0
 40
0.0628280480421825
 40
0.1260701253970792
 40
0.1897406253785904
 40
0.2538535710757105
 40
0.3764737521324676
 40
0.5046580328934662
 40
0.6294958758641306
 40
0.7530413720168776
 40
0.8767127000651272
 40
0.9303985995609487
 40
1.0
 40
1.0
 40
1.0
 40
1.0
 10
3.949999999999913
 20
30.55788999666613
 30
0.0
 10
3.925199676033165
 20
30.55717534525743
 30
0.0
 10
3.875435596934694
 20
30.55574133297283
 30
0.0
 10
3.801295881396175
 20
30.54413094373269
 30
0.0
 10
3.72817576856549
 20
30.52555103963991
 30
0.0
 10
3.635356745735133
 20
30.49149389245027
 30
0.0
 10
3.525704227685277
 20
30.43173903699993
 30
0.0
 10
3.411641971522839
 20
30.33624779546197
 30
0.0
 10
3.318651270434177
 20
30.22005039304357
 30
0.0
 10
3.250689072054483
 20
30.08990134371376
 30
0.0
 10
3.217240115096214
 20
29.97610524198124
 30
0.0
 10
3.202330512999666
 20
29.88040905934513
 30
0.0
 10
3.200840935566487
 20
29.83211788338435
 30
0.0
 10
3.199999999999986
 20
29.80485527419838
 30
0.0
  0
SPLINE
  5
255
330
1F
100
AcDbEntity
  8
1
  6
Continuous
370
    25
100
AcDbSpline
210
0.0
220
0.0
230
1.0
 70
     8
 71
     3
 72
    18
 73
    14
 74
     0
 42
0.000000001
 43
0.00000001
 40
0.0
 40
0.0
 40
0.0
 40
0.0
 40
0.0627054734815585
 40
0.1258180026435944
 40
0.1893518955758989
 40
0.2533210967871997
 40
0.3760223802380994
 40
0.5042027350874037
 40
0.6287442443905509
 40
0.7524970007335178
 40
0.8762904256225891
 40
0.9301814553533038
 40
1.0
 40
1.0
 40
1.0
 40
1.0
 10
18.30000000000002
 20
-30.55788999666615
 30
0.0
 10
18.32475189251025
 20
-30.55717815032797
 30
0.0
 10
18.37441635566441
 20
-30.55574983666593
 30
0.0
 10
18.44840700700192
 20
-30.5441862191846
 30
0.0
 10
18.52137928311721
 20
-30.52568315689516
 30
0.0
 10
18.61414871610718
 20
-30.49172081055996
 30
0.0
 10
18.72382631062685
 20
-30.4320633120142
 30
0.0
 10
18.83789060104973
 20
-30.33670781031285
 30
0.0
 10
18.93096567570617
 20
-30.22063090164698
 30
0.0
 10
18.99906840635736
 20
-30.09053486574008
 30
0.0
 10
19.03266226172081
 20
-29.97656054635133
 30
0.0
 10
19.04765434845162
 20
-29.88065972774422
 30
0.0
 10
19.0491537665008
 20
-29.83220301390153
 30
0.0
 10
19.05000000000001
 20
-29.80485527419841
 30
0.0
  0
SPLINE
  5
256
330
1F
100
AcDbEntity
  8
1
  6
Continuous
370
    25
100
AcDbSpline
210
0.0
220
0.0
230
1.0
 70
     8
 71
     3
 72
    16
 73
    12
 74
     0
 42
0.000000001
 43
0.00000001
 40
0.0
 40
0.0
 40
0.0
 40
0.0
 40
0.069814031064149
 40
0.1237498965154266
 40
0.2475836018648968
 40
0.371376536255524
 40
0.4959583438678432
 40
0.62413948620796
 40
0.7469207609697971
 40
0.8742805094910139
 40
1.0
 40
1.0
 40
1.0
 40
1.0
 10
19.05000000000001
 20
29.80486644841628
 30
0.0
 10
19.04915437967801
 20
29.83220375694688
 30
0.0
 10
19.04765546283079
 20
29.88066090875585
 30
0.0
 10
19.03266526234903
 20
29.97656337346558
 30
0.0
 10
18.99906876123939
 20
30.09054703967058
 30
0.0
 10
18.9309643939984
 20
30.22065301278144
 30
0.0
 10
18.83790550330877
 20
30.3366860902548
 30
0.0
 10
18.7238212796448
 20
30.43216876423577
 30
0.0
 10
18.59216376019318
 20
30.50338604964252
 30
0.0
 10
18.44966044222823
 20
30.54924901227125
 30
0.0
 10
18.34967079633339
 20
30.55503461089692
 30
0.0
 10
18.30000000000001
 20
30.55790866138915
 30
0.0
  0
SPLINE
  5
257
330
1F
100
AcDbEntity
  8
1
  6
Continuous
370
    25
100
AcDbSpline
210
0.0
220
0.0
230
1.0
 70
     8
 71
     3
 72
     8
 73
     4
 74
     0
 42
0.000000001
 43
0.00000001
 40
0.0
 40
0.0
 40
0.0
 40
0.0
 40
1.0
 40
1.0
 40
1.0
 40
1.0
 10
13.03
 20
27.8050456341729
 30
0.0
 10
13.47759651810106
 20
28.61249255653033
 30
0.0
 10
13.92634937951634
 20
29.41929290832669
 30
0.0
 10
14.37601294652259
 20
30.22558142012641
 30
0.0
  0
SPLINE
  5
258
330
1F
100
AcDbEntity
  8
1
  6
Continuous
370
    25
100
AcDbSpline
210
0.0
220
0.0
230
1.0
 70
     8
 71
     3
 72
     8
 73
     4
 74
     0
 42
0.000000001
 43
0.00000001
 40
0.0
 40
0.0
 40
0.0
 40
0.0
 40
0.0006742907251946
 40
0.0006742907251946
 40
0.0006742907251946
 40
0.0006742907251946
 10
14.64112635455681
 20
30.55790866138915
 30
0.0
 10
14.55231121915219
 20
30.44723498609877
 30
0.0
 10
14.4639323132736
 20
30.33646040447048
 30
0.0
 10
14.37601294652259
 20
30.22558142012641
 30
0.0
  0
SPLINE
  5
259
330
1F
100
AcDbEntity
  8
1
  6
Continuous
370
    25
100
AcDbSpline
210
0.0
220
0.0
230
1.0
 70
     8
 71
     3
 72
     8
 73
     4
 74
     0
 42
0.000000001
 43
0.00000001
 40
0.0
 40
0.0
 40
0.0
 40
0.0
 40
0.0006744126776058
 40
0.0006744126776058
 40
0.0006744126776058
 40
0.0006744126776058
 10
14.37595046659275
 20
-30.22546938779916
 30
0.0
 10
14.46389058426686
 20
-30.3363795300583
 30
0.0
 10
14.55229031970066
 20
-30.44718523342133
 30
0.0
 10
14.64112635455681
 20
-30.55788999666616
 30
0.0
  0
SPLINE
  5
25A
330
1F
100
AcDbEntity
  8
1
  6
Continuous
370
    25
100
AcDbSpline
210
0.0
220
0.0
230
1.0
 70
     8
 71
     3
 72
     8
 73
     4
 74
     0
 42
0.000000001
 43
0.00000001
 40
0.0
 40
0.0
 40
0.0
 40
0.0
 40
1.0
 40
1.0
 40
1.0
 40
1.0
 10
13.03
 20
-27.80504563417289
 30
0.0
 10
13.47756662864426
 20
-28.61243863709861
 30
0.0
 10
13.92629890859749
 20
-29.41920220926157
 30
0.0
 10
14.37595046659275
 20
-30.22546938779915
 30
0.0
  0
SPLINE
  5
25B
330
1F
100
AcDbEntity
  8
1
  6
Continuous
370
    25
100
AcDbSpline
210
0.0
220
0.0
230
1.0
 70
     8
 71
     3
 72
    14
 73
    10
 74
     0
 42
0.000000001
 43
0.00000001
 40
0.0
 40
0.0
 40
0.0
 40
0.0
 40
0.25
 40
0.25
 40
0.5
 40
0.5
 40
0.75
 40
0.75
 40
1.0
 40
1.0
 40
1.0
 40
1.0
 10
13.03
 20
25.81171788356631
 30
0.0
 10
13.05182784069893
 20
25.80868166763939
 30
0.0
 10
13.06930451588746
 20
25.79706282581692
 30
0.0
 10
13.09355241467165
 20
25.75265705035271
 30
0.0
 10
13.09996413738388
 20
25.71975400624285
 30
0.0
 10
13.10003555457988
 20
25.6344344577325
 30
0.0
 10
13.09360869858515
 20
25.58073121692833
 30
0.0
 10
13.06953031995428
 20
25.4597665160328
 30
0.0
 10
13.05190366619463
 20
25.39187340765438
 30
0.0
 10
13.03
 20
25.31924243797495
 30
0.0
  0
SPLINE
  5
25C
330
1F
100
AcDbEntity
  8
1
  6
Continuous
370
    25
100
AcDbSpline
210
0.0
220
0.0
230
1.0
 70
     8
 71
     3
 72
     8
 73
     4
 74
     0
 42
0.000000001
 43
0.00000001
 40
0.0
 40
0.0
 40
0.0
 40
0.0
 40
1.0
 40
1.0
 40
1.0
 40
1.0
 10
7.853987053479575
 20
-30.22558142012363
 30
0.0
 10
8.30365952384672
 20
-29.41927694377145
 30
0.0
 10
8.752412641282667
 20
-28.61247603335508
 30
0.0
 10
9.199999999998877
 20
-27.80504563417606
 30
0.0
  0
SPLINE
  5
25D
330
1F
100
AcDbEntity
  8
1
  6
Continuous
370
    25
100
AcDbSpline
210
0.0
220
0.0
230
1.0
 70
     8
 71
     3
 72
     8
 73
     4
 74
     0
 42
0.000000001
 43
0.00000001
 40
0.0
 40
0.0
 40
0.0
 40
0.0
 40
0.0006742907251988
 40
0.0006742907251988
 40
0.0006742907251988
 40
0.0006742907251988
 10
7.58887364544318
 20
-30.55790866138917
 30
0.0
 10
7.677688780848512
 20
-30.44723498609788
 30
0.0
 10
7.766067686727842
 20
-30.33646040446866
 30
0.0
 10
7.853987053479573
 20
-30.22558142012364
 30
0.0
  0
SPLINE
  5
25E
330
1F
100
AcDbEntity
  8
1
  6
Continuous
370
    25
100
AcDbSpline
210
0.0
220
0.0
230
1.0
 70
     8
 71
     3
 72
     8
 73
     4
 74
     0
 42
0.000000001
 43
0.00000001
 40
0.0
 40
0.0
 40
0.0
 40
0.0
 40
0.0006744126776058
 40
0.0006744126776058
 40
0.0006744126776058
 40
0.0006744126776058
 10
7.854049533407204
 20
30.22546938779911
 30
0.0
 10
7.766109415733113
 20
30.33637953005826
 30
0.0
 10
7.67770968029931
 20
30.4471852334213
 30
0.0
 10
7.588873645443181
 20
30.55788999666613
 30
0.0
  0
SPLINE
  5
25F
330
1F
100
AcDbEntity
  8
1
  6
Continuous
370
    25
100
AcDbSpline
210
0.0
220
0.0
230
1.0
 70
     8
 71
     3
 72
     8
 73
     4
 74
     0
 42
0.000000001
 43
0.00000001
 40
0.0
 40
0.0
 40
0.0
 40
0.0
 40
1.0
 40
1.0
 40
1.0
 40
1.0
 10
7.854049533407196
 20
30.22546938779912
 30
0.0
 10
8.303692188804698
 20
29.41921817244963
 30
0.0
 10
8.75242421280659
 20
28.61245515876933
 30
0.0
 10
9.19999999999998
 20
27.80504563417291
 30
0.0
  0
SPLINE
  5
260
330
1F
100
AcDbEntity
  8
1
  6
Continuous
370
    25
100
AcDbSpline
210
0.0
220
0.0
230
1.0
 70
     8
 71
     3
 72
    14
 73
    10
 74
     0
 42
0.000000001
 43
0.00000001
 40
0.0
 40
0.0
 40
0.0
 40
0.0
 40
0.25
 40
0.25
 40
0.5
 40
0.5
 40
0.75
 40
0.75
 40
1.0
 40
1.0
 40
1.0
 40
1.0
 10
9.199999999998877
 20
25.27054331738516
 30
0.0
 10
9.169610391132139
 20
25.36219671402948
 30
0.0
 10
9.144652419509562
 20
25.44797517411546
 30
0.0
 10
9.109411114929504
 20
25.60359055831213
 30
0.0
 10
9.100075894724872
 20
25.66959440204698
 30
0.0
 10
9.099925023949767
 20
25.77434199055129
 30
0.0
 10
9.109375914768805
 20
25.81145009587539
 30
0.0
 10
9.144272722663827
 20
25.855009352439
 30
0.0
 10
9.169555752624209
 20
25.8617620244613
 30
0.0
 10
9.199999999999985
 20
25.85691311136565
 30
0.0
  0
SPLINE
  5
261
330
1F
100
AcDbEntity
  8
1
  6
Continuous
370
    25
100
AcDbSpline
210
0.0
220
0.0
230
1.0
 70
     8
 71
     3
 72
    14
 73
    10
 74
     0
 42
0.000000001
 43
0.00000001
 40
0.0
 40
0.0
 40
0.0
 40
0.0
 40
0.25
 40
0.25
 40
0.5
 40
0.5
 40
0.75
 40
0.75
 40
1.0
 40
1.0
 40
1.0
 40
1.0
 10
9.199999999999985
 20
-27.76916635406977
 30
0.0
 10
9.199999999999985
 20
-27.66854183645166
 30
0.0
 10
9.218753722673597
 20
-27.56842327754112
 30
0.0
 10
9.29151753581231
 20
-27.38167264562872
 30
0.0
 10
9.345885298656015
 20
-27.29482655372887
 30
0.0
 10
9.482713453675185
 20
-27.14914073715223
 30
0.0
 10
9.566479996683725
 20
-27.08925426891758
 30
0.0
 10
9.74908978763267
 20
-27.00861553826
 30
0.0
 10
9.84994118032051
 20
-26.98706356756863
 30
0.0
 10
9.95000000000125
 20
-26.98706356756882
 30
0.0
  0
SPLINE
  5
262
330
1F
100
AcDbEntity
  8
1
  6
Continuous
370
    25
100
AcDbSpline
210
0.0
220
0.0
230
1.0
 70
     8
 71
     3
 72
    16
 73
    12
 74
     0
 42
0.000000001
 43
0.00000001
 40
0.0
 40
0.0
 40
0.0
 40
0.0
 40
0.2499999999999983
 40
0.2499999999999983
 40
0.4999999999999966
 40
0.4999999999999966
 40
0.7499999999999949
 40
0.7499999999999949
 40
0.8749999999999974
 40
0.8749999999999974
 40
1.0
 40
1.0
 40
1.0
 40
1.0
 10
9.95000000000125
 20
24.06685975304421
 30
0.0
 10
9.840493351282314
 20
24.10694414130935
 30
0.0
 10
9.742786160773425
 20
24.17117631338135
 30
0.0
 10
9.567840382590676
 20
24.33096083631471
 30
0.0
 10
9.493988254028515
 20
24.42340952890755
 30
0.0
 10
9.367115049350991
 20
24.627933940745
 30
0.0
 10
9.314523965070071
 20
24.73961559875879
 30
0.0
 10
9.25344693761966
 20
24.91971397324645
 30
0.0
 10
9.23589330312459
 20
24.98231479864246
 30
0.0
 10
9.209102989073653
 20
25.11253703191869
 30
0.0
 10
9.200000000001248
 20
25.18114365477767
 30
0.0
 10
9.200000000001248
 20
25.24012107693849
 30
0.0
  0
SPLINE
  5
263
330
1F
100
AcDbEntity
  8
1
  6
Continuous
370
    25
100
AcDbSpline
210
0.0
220
0.0
230
1.0
 70
     8
 71
     3
 72
    12
 73
     8
 74
     0
 42
0.000000001
 43
0.00000001
 40
0.0
 40
0.0
 40
0.0
 40
0.0
 40
0.2499999999999984
 40
0.2499999999999984
 40
0.4999999999999969
 40
0.4999999999999969
 40
1.0
 40
1.0
 40
1.0
 40
1.0
 10
12.28
 20
-26.98706356756882
 30
0.0
 10
12.37975762515876
 20
-26.98706356756883
 30
0.0
 10
12.48041217798163
 20
-27.00843624414832
 30
0.0
 10
12.663520225735
 20
-27.08921384437031
 30
0.0
 10
12.74662210573628
 20
-27.14844080533418
 30
0.0
 10
12.95377706693949
 20
-27.36898351970361
 30
0.0
 10
13.02999999999999
 20
-27.5690278551815
 30
0.0
 10
13.03
 20
-27.7691663540697
 30
0.0
  0
SPLINE
  5
264
330
1F
100
AcDbEntity
  8
1
  6
Continuous
370
    25
100
AcDbSpline
210
0.0
220
0.0
230
1.0
 70
     8
 71
     3
 72
    18
 73
    14
 74
     0
 42
0.000000001
 43
0.00000001
 40
0.0
 40
0.0
 40
0.0
 40
0.0
 40
0.0624999999999997
 40
0.0624999999999997
 40
0.1249999999999994
 40
0.1249999999999994
 40
0.2499999999999994
 40
0.2499999999999994
 40
0.4999999999999996
 40
0.4999999999999996
 40
0.7499999999999998
 40
0.7499999999999998
 40
1.0
 40
1.0
 40
1.0
 40
1.0
 10
13.03000000000126
 20
25.28882228478157
 30
0.0
 10
13.03000000000126
 20
25.25845422870303
 30
0.0
 10
13.02749489038238
 20
25.22358442434116
 30
0.0
 10
13.01920268672321
 20
25.15482296737406
 30
0.0
 10
13.01359186101023
 20
25.12104898565183
 30
0.0
 10
12.99361738711199
 20
25.02074756626911
 30
0.0
 10
12.97668865169316
 20
24.95779435947978
 30
0.0
 10
12.91737158574274
 20
24.77496256517826
 30
0.0
 10
12.86564177104008
 20
24.6601187816745
 30
0.0
 10
12.74049543384746
 20
24.45045700081711
 30
0.0
 10
12.66639130892218
 20
24.3540985658311
 30
0.0
 10
12.49025684706096
 20
24.18769951882029
 30
0.0
 10
12.39180028213161
 20
24.12054595344059
 30
0.0
 10
12.28000000000126
 20
24.07805063523434
 30
0.0
  0
SPLINE
  5
265
330
1F
100
AcDbEntity
  8
1
  6
Continuous
370
    25
100
AcDbSpline
210
0.0
220
0.0
230
1.0
 70
     8
 71
     3
 72
    12
 73
     8
 74
     0
 42
0.000000001
 43
0.00000001
 40
0.0
 40
0.0
 40
0.0
 40
0.0
 40
0.2499999999999994
 40
0.2499999999999994
 40
0.4999999999999989
 40
0.4999999999999989
 40
1.0
 40
1.0
 40
1.0
 40
1.0
 10
12.28000000000126
 20
24.07805063523434
 30
0.0
 10
12.11125565653909
 20
24.01391086354246
 30
0.0
 10
11.92801760594733
 20
23.96418277266271
 30
0.0
 10
11.53284005751312
 20
23.89473625632987
 30
0.0
 10
11.32774190386628
 20
23.876521502723
 30
0.0
 10
10.70517895587213
 20
23.87317080568452
 30
0.0
 10
10.29199014189994
 20
23.94167588712289
 30
0.0
 10
9.95000000000125
 20
24.06685975304421
 30
0.0
  0
SPLINE
  5
266
330
1F
100
AcDbEntity
  8
1
  6
Continuous
370
    25
100
AcDbSpline
210
0.0
220
0.0
230
1.0
 70
     8
 71
     3
 72
    11
 73
     7
 74
     0
 42
0.000000001
 43
0.00000001
 40
0.0
 40
0.0
 40
0.0
 40
0.0
 40
0.3262209017147985
 40
0.6606908694933477
 40
0.9965967372699466
 40
1.0
 40
1.0
 40
1.0
 40
1.0
 10
19.04999999999998
 20
-21.91
 30
0.0
 10
19.07296240928985
 20
-21.99278290917561
 30
0.0
 10
19.11946787254992
 20
-22.16044203817354
 30
0.0
 10
19.31192665114599
 20
-22.29352038804938
 30
0.0
 10
19.44769799651356
 20
-22.35307203244471
 30
0.0
 10
19.41413566500867
 20
-22.33636783326148
 30
0.0
 10
19.41379903560005
 20
-22.33620029053008
 30
0.0
  0
SPLINE
  5
267
330
1F
100
AcDbEntity
  8
1
  6
Continuous
370
    25
100
AcDbSpline
210
0.0
220
0.0
230
1.0
 70
     8
 71
     3
 72
    16
 73
    12
 74
     0
 42
0.000000001
 43
0.00000001
 40
0.0
 40
0.0
 40
0.0
 40
0.0
 40
0.1250000000000018
 40
0.1250000000000018
 40
0.2500000000000036
 40
0.2500000000000036
 40
0.5000000000000023
 40
0.5000000000000023
 40
0.7500000000000012
 40
0.7500000000000012
 40
1.0
 40
1.0
 40
1.0
 40
1.0
 10
9.199999999999982
 20
25.82649087091902
 30
0.0
 10
9.19999999999998
 20
25.76704453528217
 30
0.0
 10
9.209309779240192
 20
25.72460913602998
 30
0.0
 10
9.236285539089915
 20
25.66309575968362
 30
0.0
 10
9.253818395994047
 20
25.64221451078864
 30
0.0
 10
9.314732612350822
 20
25.59089236418539
 30
0.0
 10
9.367586350542446
 20
25.5716263880416
 30
0.0
 10
9.493923269647535
 20
25.54782523997985
 30
0.0
 10
9.568606186754737
 20
25.54380204926681
 30
0.0
 10
9.74319071899029
 20
25.55566084202213
 30
0.0
 10
9.840260492227241
 20
25.57101227172015
 30
0.0
 10
9.94999999999998
 20
25.603258790376
 30
0.0
  0
SPLINE
  5
268
330
1F
100
AcDbEntity
  8
1
  6
Continuous
370
    25
100
AcDbSpline
210
0.0
220
0.0
230
1.0
 70
     8
 71
     3
 72
    12
 73
     8
 74
     0
 42
0.000000001
 43
0.00000001
 40
0.0
 40
0.0
 40
0.0
 40
0.0
 40
0.2500000000000006
 40
0.2500000000000006
 40
0.5000000000000011
 40
0.5000000000000011
 40
1.0
 40
1.0
 40
1.0
 40
1.0
 10
9.949999999999973
 20
25.603258790376
 30
0.0
 10
10.12099348269378
 20
25.65350454636333
 30
0.0
 10
10.30594493731543
 20
25.6908700749012
 30
0.0
 10
10.70348914958041
 20
25.74162454002533
 30
0.0
 10
10.90918343641378
 20
25.7539131306725
 30
0.0
 10
11.53176214943037
 20
25.75179790476195
 30
0.0
 10
11.94250893135797
 20
25.69754140003431
 30
0.0
 10
12.27999999999999
 20
25.59426208810603
 30
0.0
  0
SPLINE
  5
269
330
1F
100
AcDbEntity
  8
1
  6
Continuous
370
    25
100
AcDbSpline
210
0.0
220
0.0
230
1.0
 70
     8
 71
     3
 72
    18
 73
    14
 74
     0
 42
0.000000001
 43
0.00000001
 40
0.0
 40
0.0
 40
0.0
 40
0.0
 40
0.250000000000001
 40
0.250000000000001
 40
0.500000000000002
 40
0.500000000000002
 40
0.750000000000003
 40
0.750000000000003
 40
0.8750000000000016
 40
0.8750000000000016
 40
0.9375000000000009
 40
0.9375000000000009
 40
1.0
 40
1.0
 40
1.0
 40
1.0
 10
12.28
 20
25.59426208810603
 30
0.0
 10
12.39154339480306
 20
25.56012748089477
 30
0.0
 10
12.49076613158666
 20
25.54318981789733
 30
0.0
 10
12.66653346245911
 20
25.52816909760165
 30
0.0
 10
12.74028542340614
 20
25.53041158029685
 30
0.0
 10
12.86605076853517
 20
25.54934151941309
 30
0.0
 10
12.91749996660363
 20
25.56531541934164
 30
0.0
 10
12.97688531868163
 20
25.6090846994035
 30
0.0
 10
12.9939490598649
 20
25.6270356389761
 30
0.0
 10
13.01360803438728
 20
25.66754728332324
 30
0.0
 10
13.01926149413285
 20
25.68358803034141
 30
0.0
 10
13.02752275857842
 20
25.72506394381624
 30
0.0
 10
13.03
 20
25.75103822857545
 30
0.0
 10
13.03
 20
25.7812977303729
 30
0.0
  0
SPLINE
  5
26A
330
1F
100
AcDbEntity
  8
1
  6
Continuous
370
    25
100
AcDbSpline
210
0.0
220
0.0
230
1.0
 70
     8
 71
     3
 72
    12
 73
     8
 74
     0
 42
0.000000001
 43
0.00000001
 40
0.0
 40
0.0
 40
0.0
 40
0.0
 40
0.2499999999999991
 40
0.2499999999999991
 40
0.4999999999999982
 40
0.4999999999999982
 40
1.0
 40
1.0
 40
1.0
 40
1.0
 10
9.199999999999985
 20
27.76916635406976
 30
0.0
 10
9.199999999999985
 20
27.66809333683725
 30
0.0
 10
9.218583298377242
 20
27.56892641339129
 30
0.0
 10
9.291549937975748
 20
27.38152387214675
 30
0.0
 10
9.345496880932808
 20
27.29531750692792
 30
0.0
 10
9.551071041675366
 20
27.07620366276164
 30
0.0
 10
9.74822041674009
 20
26.9870635675688
 30
0.0
 10
9.949999999999987
 20
26.98706356756881
 30
0.0
  0
SPLINE
  5
26B
330
1F
100
AcDbEntity
  8
1
  6
Continuous
370
    25
100
AcDbSpline
210
0.0
220
0.0
230
1.0
 70
     8
 71
     3
 72
    14
 73
    10
 74
     0
 42
0.000000001
 43
0.00000001
 40
0.0
 40
0.0
 40
0.0
 40
0.0
 40
0.25
 40
0.25
 40
0.5
 40
0.5
 40
0.75
 40
0.75
 40
1.0
 40
1.0
 40
1.0
 40
1.0
 10
12.28
 20
26.9870635675688
 30
0.0
 10
12.38041018140384
 20
26.9870635675688
 30
0.0
 10
12.480074177716
 20
27.00821121867971
 30
0.0
 10
12.66478364882749
 20
27.08984749877595
 30
0.0
 10
12.74772062670419
 20
27.1494985263265
 30
0.0
 10
12.8844352156222
 20
27.29527278596965
 30
0.0
 10
12.93853405055463
 20
27.38169791130528
 30
0.0
 10
13.01142030969676
 20
27.56897740148014
 30
0.0
 10
13.03
 20
27.66812420510653
 30
0.0
 10
13.03
 20
27.76916635406976
 30
0.0
  0
SPLINE
  5
26C
330
1F
100
AcDbEntity
  8
1
  6
Continuous
370
    25
100
AcDbSpline
210
0.0
220
0.0
230
1.0
 70
     8
 71
     3
 72
    10
 73
     6
 74
     0
 42
0.000000001
 43
0.00000001
 40
0.0
 40
0.0
 40
0.0
 40
0.0
 40
0.239069117688681
 40
0.9946361957057055
 40
1.0
 40
1.0
 40
1.0
 40
1.0
 10
131.1360527702445
 20
31.32189742826599
 30
0.0
 10
131.1084215626147
 20
31.34728528322717
 30
0.0
 10
130.9934631794264
 20
31.45291029962344
 30
0.0
 10
130.9088917916931
 20
31.53395914109018
 30
0.0
 10
130.9455181765098
 20
31.49951402273552
 30
0.0
 10
130.9457763560169
 20
31.49927121898285
 30
0.0
  0
SPLINE
  5
26D
330
1F
100
AcDbEntity
  8
1
  6
Continuous
370
    25
100
AcDbSpline
210
0.0
220
0.0
230
1.0
 70
     8
 71
     3
 72
    11
 73
     7
 74
     0
 42
0.000000001
 43
0.00000001
 40
0.0
 40
0.0
 40
0.0
 40
0.0
 40
0.1195357381131831
 40
0.497323004147262
 40
0.8804642618868141
 40
1.0
 40
1.0
 40
1.0
 40
1.0
 10
131.1360527702445
 20
12.76413043887181
 30
0.0
 10
131.1075727875544
 20
13.00649378749282
 30
0.0
 10
130.9890831143146
 20
14.0148354812319
 30
0.0
 10
130.9119398513575
 20
15.76087053348766
 30
0.0
 10
130.9878173618324
 20
17.43250990228837
 30
0.0
 10
131.1075746822984
 20
18.34158942000081
 30
0.0
 10
131.1360527702445
 20
18.55776698939404
 30
0.0
  0
SPLINE
  5
26E
330
1F
100
AcDbEntity
  8
1
  6
Continuous
370
    25
100
AcDbSpline
210
0.0
220
0.0
230
1.0
 70
     8
 71
     3
 72
    11
 73
     7
 74
     0
 42
0.000000001
 43
0.00000001
 40
0.0
 40
0.0
 40
0.0
 40
0.0
 40
0.1195357381131782
 40
0.4973230041472601
 40
0.8804642618868146
 40
1.0
 40
1.0
 40
1.0
 40
1.0
 10
131.1360527702445
 20
-18.55776698939426
 30
0.0
 10
131.1075727875544
 20
-18.34158960488593
 30
0.0
 10
130.9890831143146
 20
-17.44219342438476
 30
0.0
 10
130.9119398513575
 20
-15.7713834722328
 30
0.0
 10
130.9878173618324
 20
-14.02568579714506
 30
0.0
 10
131.1075746822984
 20
-13.00649280577606
 30
0.0
 10
131.1360527702445
 20
-12.76413043887202
 30
0.0
  0
SPLINE
  5
26F
330
1F
100
AcDbEntity
  8
1
  6
Continuous
370
    25
100
AcDbSpline
210
0.0
220
0.0
230
1.0
 70
     8
 71
     3
 72
     9
 73
     5
 74
     0
 42
0.000000001
 43
0.00000001
 40
0.0
 40
0.0
 40
0.0
 40
0.0
 40
0.7609261651894074
 40
1.0
 40
1.0
 40
1.0
 40
1.0
 10
130.9457763560169
 20
-31.49927121898289
 30
0.0
 10
130.9632683124104
 20
-31.48219395180106
 30
0.0
 10
130.9862560307906
 20
-31.45975121298735
 30
0.0
 10
131.1071501496441
 20
-31.34849570839317
 30
0.0
 10
131.1360527702445
 20
-31.32189742826605
 30
0.0
  0
SPLINE
  5
270
330
1F
100
AcDbEntity
  8
1
  6
Continuous
370
    25
100
AcDbSpline
210
0.0
220
0.0
230
1.0
 70
     8
 71
     3
 72
     9
 73
     5
 74
     0
 42
0.000000001
 43
0.00000001
 40
0.0
 40
0.0
 40
0.0
 40
0.0
 40
0.4993135765877803
 40
1.0
 40
1.0
 40
1.0
 40
1.0
 10
151.4670733844181
 20
-11.79163522034878
 30
0.0
 10
151.5004933540458
 20
-12.52674518893031
 30
0.0
 10
151.5674251804466
 20
-13.9989862876105
 30
0.0
 10
151.5005545841223
 20
-15.47123155988749
 30
0.0
 10
151.4670733844172
 20
-16.20836477964941
 30
0.0
  0
SPLINE
  5
271
330
1F
100
AcDbEntity
  8
1
  6
Continuous
370
    25
100
AcDbSpline
210
0.0
220
0.0
230
1.0
 70
     8
 71
     3
 72
     9
 73
     5
 74
     0
 42
0.000000001
 43
0.00000001
 40
0.0
 40
0.0
 40
0.0
 40
0.0
 40
0.4993135765877803
 40
1.0
 40
1.0
 40
1.0
 40
1.0
 10
151.4670733844182
 20
16.20836477965025
 30
0.0
 10
151.500493354046
 20
15.47325481106872
 30
0.0
 10
151.5674251804471
 20
14.00101371238854
 30
0.0
 10
151.5005545841231
 20
12.52876844011152
 30
0.0
 10
151.4670733844181
 20
11.7916352203496
 30
0.0
  0
SPLINE
  5
272
330
1F
100
AcDbEntity
  8
SK3
  6
HIDDEN
370
    18
100
AcDbSpline
210
0.0
220
0.0
230
1.0
 70
     8
 71
     3
 72
    30
 73
    26
 74
     0
 42
0.000000001
 43
0.00000001
 40
0.4999999999999971
 40
0.4999999999999971
 40
0.4999999999999971
 40
0.4999999999999971
 40
0.5624999999999977
 40
0.5624999999999977
 40
0.6249999999999981
 40
0.6249999999999981
 40
0.6562499999999984
 40
0.6562499999999984
 40
0.6874999999999987
 40
0.6874999999999987
 40
0.718749999999999
 40
0.718749999999999
 40
0.7499999999999992
 40
0.7499999999999992
 40
0.7812499999999994
 40
0.7812499999999994
 40
0.8124999999999998
 40
0.8124999999999998
 40
0.8749999999999998
 40
0.8749999999999998
 40
0.9374999999999999
 40
0.9374999999999999
 40
0.96875
 40
0.96875
 40
1.0
 40
1.0
 40
1.0
 40
1.0
 10
11.75479658556572
 20
-4.90143354710592
 30
0.0
 10
11.89746294966131
 20
-4.886411197664704
 30
0.0
 10
12.02884136644405
 20
-4.886974229786189
 30
0.0
 10
12.27243240561783
 20
-4.932317536304444
 30
0.0
 10
12.38574037094357
 20
-4.975421209748234
 30
0.0
 10
12.53947570845301
 20
-5.103559339222869
 30
0.0
 10
12.58638543677659
 20
-5.156028957061208
 30
0.0
 10
12.66795201157342
 20
-5.29113499349421
 30
0.0
 10
12.7031719693176
 20
-5.375974586482819
 30
0.0
 10
12.74713654526593
 20
-5.58286198491411
 30
0.0
 10
12.75526091463634
 20
-5.705696917838728
 30
0.0
 10
12.73739776164137
 20
-5.968523156861124
 30
0.0
 10
12.71224833739216
 20
-6.103419156624206
 30
0.0
 10
12.64408666407786
 20
-6.357264662683469
 30
0.0
 10
12.60068164729125
 20
-6.478993458595594
 30
0.0
 10
12.50600924552236
 20
-6.704610974826188
 30
0.0
 10
12.45441331137412
 20
-6.809727668320973
 30
0.0
 10
12.28990621332257
 20
-7.109437894498881
 30
0.0
 10
12.17017846713214
 20
-7.284103436407841
 30
0.0
 10
11.91483731616862
 20
-7.5972988196692
 30
0.0
 10
11.77767665531763
 20
-7.737818016165219
 30
0.0
 10
11.54951158979957
 20
-7.918374112026491
 30
0.0
 10
11.46985276967112
 20
-7.973291374430622
 30
0.0
 10
11.29758630900468
 20
-8.069225810891211
 30
0.0
 10
11.20406269051033
 20
-8.110848935776529
 30
0.0
 10
11.09999999999999
 20
-8.13967039360795
 30
0.0
  0
SPLINE
  5
273
330
1F
100
AcDbEntity
  8
SK3
  6
HIDDEN
370
    18
100
AcDbSpline
210
0.0
220
0.0
230
1.0
 70
     8
 71
     3
 72
    34
 73
    30
 74
     0
 42
0.000000001
 43
0.00000001
 40
0.0
 40
0.0
 40
0.0
 40
0.0
 40
0.0312499999999996
 40
0.0312499999999996
 40
0.0624999999999992
 40
0.0624999999999992
 40
0.0937499999999988
 40
0.0937499999999988
 40
0.1249999999999985
 40
0.1249999999999985
 40
0.1562499999999982
 40
0.1562499999999982
 40
0.1874999999999979
 40
0.1874999999999979
 40
0.2499999999999979
 40
0.2499999999999979
 40
0.3124999999999978
 40
0.3124999999999978
 40
0.3437499999999977
 40
0.3437499999999977
 40
0.3749999999999976
 40
0.3749999999999976
 40
0.4062499999999975
 40
0.4062499999999975
 40
0.4374999999999973
 40
0.4374999999999973
 40
0.4687499999999972
 40
0.4687499999999972
 40
0.4999999999999971
 40
0.4999999999999971
 40
0.4999999999999971
 40
0.4999999999999971
 10
11.09999999999999
 20
-8.13967039360795
 30
0.0
 10
10.99593730948964
 20
-8.168491851439363
 30
0.0
 10
10.88327240143051
 20
-8.183619230956749
 30
0.0
 10
10.64024603173766
 20
-8.169996197171642
 30
0.0
 10
10.51600003630447
 20
-8.140993061765093
 30
0.0
 10
10.27540472633828
 20
-8.041511803988634
 30
0.0
 10
10.16352991293557
 20
-7.973785811074548
 30
0.0
 10
9.956641719228346
 20
-7.808864907520287
 30
0.0
 10
9.86514021175608
 20
-7.714409980823924
 30
0.0
 10
9.705479632928753
 20
-7.505675203818747
 30
0.0
 10
9.638640231842258
 20
-7.392601974747761
 30
0.0
 10
9.53414598644943
 20
-7.15737318858389
 30
0.0
 10
9.495668589618186
 20
-7.032517635178804
 30
0.0
 10
9.429144226770033
 20
-6.659799668562682
 30
0.0
 10
9.448570934642714
 20
-6.40597905300511
 30
0.0
 10
9.610438460184708
 20
-5.94846664851922
 30
0.0
 10
9.752910053168154
 20
-5.744009981362479
 30
0.0
 10
10.03367356462018
 20
-5.497500536354734
 30
0.0
 10
10.13722938652328
 20
-5.425546956212904
 30
0.0
 10
10.36592358660667
 20
-5.29701855310408
 30
0.0
 10
10.48785945052916
 20
-5.242562856658074
 30
0.0
 10
10.73642302172963
 20
-5.147912691227139
 30
0.0
 10
10.85648365715393
 20
-5.10964081974417
 30
0.0
 10
11.08061189675417
 20
-5.043111325123105
 30
0.0
 10
11.1802238597534
 20
-5.016231192190856
 30
0.0
 10
11.36576798793605
 20
-4.969815472118951
 30
0.0
 10
11.45055694339847
 20
-4.950785033120367
 30
0.0
 10
11.60916091896927
 20
-4.920394395500225
 30
0.0
 10
11.68346340351792
 20
-4.908944721826527
 30
0.0
 10
11.75479658556572
 20
-4.90143354710592
 30
0.0
  0
SPLINE
  5
274
330
1F
100
AcDbEntity
  8
SK3
  6
HIDDEN
370
    18
100
AcDbSpline
210
0.0
220
0.0
230
1.0
 70
     8
 71
     3
 72
    30
 73
    26
 74
     0
 42
0.000000001
 43
0.00000001
 40
0.4999999999999977
 40
0.4999999999999977
 40
0.4999999999999977
 40
0.4999999999999977
 40
0.5312499999999977
 40
0.5312499999999977
 40
0.5624999999999976
 40
0.5624999999999976
 40
0.6249999999999976
 40
0.6249999999999976
 40
0.6874999999999974
 40
0.6874999999999974
 40
0.7187499999999977
 40
0.7187499999999977
 40
0.7499999999999978
 40
0.7499999999999978
 40
0.781249999999998
 40
0.781249999999998
 40
0.8124999999999982
 40
0.8124999999999982
 40
0.8437499999999984
 40
0.8437499999999984
 40
0.8749999999999986
 40
0.8749999999999986
 40
0.9374999999999993
 40
0.9374999999999993
 40
1.0
 40
1.0
 40
1.0
 40
1.0
 10
9.528420299935405
 20
-8.783318638987486
 30
0.0
 10
9.563561233735404
 20
-8.863935054853203
 30
0.0
 10
9.607627266507018
 20
-8.927948620428339
 30
0.0
 10
9.703027024245026
 20
-9.029913156802357
 30
0.0
 10
9.755165859587771
 20
-9.069013533844462
 30
0.0
 10
9.920727180931454
 20
-9.161365608196967
 30
0.0
 10
10.03962982796815
 20
-9.189146893658647
 30
0.0
 10
10.29581948707684
 20
-9.207761129461586
 30
0.0
 10
10.43340974433161
 20
-9.197532970852961
 30
0.0
 10
10.66277322328789
 20
-9.159887465694737
 30
0.0
 10
10.74371097916552
 20
-9.143480319022103
 30
0.0
 10
10.91864535127571
 20
-9.102894413631473
 30
0.0
 10
11.01198337642652
 20
-9.079005870686087
 30
0.0
 10
11.22104536410175
 20
-9.020599106716375
 30
0.0
 10
11.33557343779475
 20
-8.986604712168608
 30
0.0
 10
11.57980302461463
 20
-8.902979810871834
 30
0.0
 10
11.70445599477359
 20
-8.854609275012841
 30
0.0
 10
11.94450363931204
 20
-8.738302937094138
 30
0.0
 10
12.05531700587897
 20
-8.672727087611989
 30
0.0
 10
12.25922745067752
 20
-8.52032559684357
 30
0.0
 10
12.35002701179842
 20
-8.435036721266151
 30
0.0
 10
12.58459907667486
 20
-8.152304640047154
 30
0.0
 10
12.68944177032678
 20
-7.926948099339554
 30
0.0
 10
12.77109851062197
 20
-7.442912699127658
 30
0.0
 10
12.74820534245737
 20
-7.186173862784494
 30
0.0
 10
12.66230763443388
 20
-6.940889607535652
 30
0.0
  0
SPLINE
  5
275
330
1F
100
AcDbEntity
  8
SK3
  6
HIDDEN
370
    18
100
AcDbSpline
210
0.0
220
0.0
230
1.0
 70
     8
 71
     3
 72
    34
 73
    30
 74
     0
 42
0.000000001
 43
0.00000001
 40
0.0
 40
0.0
 40
0.0
 40
0.0
 40
0.0312499999999997
 40
0.0312499999999997
 40
0.0624999999999995
 40
0.0624999999999995
 40
0.0937499999999992
 40
0.0937499999999992
 40
0.124999999999999
 40
0.124999999999999
 40
0.1562499999999987
 40
0.1562499999999987
 40
0.1874999999999984
 40
0.1874999999999984
 40
0.2499999999999982
 40
0.2499999999999982
 40
0.3124999999999979
 40
0.3124999999999979
 40
0.3437499999999978
 40
0.3437499999999978
 40
0.3749999999999978
 40
0.3749999999999978
 40
0.4062499999999978
 40
0.4062499999999978
 40
0.4374999999999977
 40
0.4374999999999977
 40
0.4687499999999977
 40
0.4687499999999977
 40
0.4999999999999977
 40
0.4999999999999977
 40
0.4999999999999977
 40
0.4999999999999977
 10
12.66230763443388
 20
-6.940889607535659
 30
0.0
 10
12.61935878042214
 20
-6.818247479911236
 30
0.0
 10
12.56229529856065
 20
-6.702062405426226
 30
0.0
 10
12.42103808962697
 20
-6.482980016463479
 30
0.0
 10
12.33595491427447
 20
-6.379752337446496
 30
0.0
 10
12.14618186397767
 20
-6.199831764960508
 30
0.0
 10
12.0392257963649
 20
-6.120673587225296
 30
0.0
 10
11.80824491388432
 20
-5.99644340551191
 30
0.0
 10
11.68389439480549
 20
-5.951950953011091
 30
0.0
 10
11.43804455248933
 20
-5.908952419297804
 30
0.0
 10
11.31731684279021
 20
-5.910654595408942
 30
0.0
 10
11.09745426351665
 20
-5.948127988753951
 30
0.0
 10
10.99815393168722
 20
-5.982607853079413
 30
0.0
 10
10.72267466537656
 20
-6.11171336085357
 30
0.0
 10
10.57189176004729
 20
-6.227019438453232
 30
0.0
 10
10.28857248622239
 20
-6.491284498769502
 30
0.0
 10
10.15786476490364
 20
-6.642104569644401
 30
0.0
 10
9.97600500559355
 20
-6.89374992992586
 30
0.0
 10
9.917635222666227
 20
-6.982205125338786
 30
0.0
 10
9.80540480561036
 20
-7.170924693447014
 30
0.0
 10
9.751060353100542
 20
-7.272111003090564
 30
0.0
 10
9.650448853514265
 20
-7.486812522722701
 30
0.0
 10
9.604326797725632
 20
-7.59953021433881
 30
0.0
 10
9.524388536729322
 20
-7.841923064473687
 30
0.0
 10
9.49066576629727
 20
-7.972450285447918
 30
0.0
 10
9.450224495380077
 20
-8.237810978297452
 30
0.0
 10
9.444739461343554
 20
-8.369898596775057
 30
0.0
 10
9.466585255233777
 20
-8.60287167037417
 30
0.0
 10
9.493279366135422
 20
-8.702702223121767
 30
0.0
 10
9.528420299935405
 20
-8.783318638987486
 30
0.0
  0
SPLINE
  5
276
330
1F
100
AcDbEntity
  8
SK3
  6
HIDDEN
370
    18
100
AcDbSpline
210
0.0
220
0.0
230
1.0
 70
    24
 71
     2
 72
     6
 73
     3
 74
     0
 42
0.000000001
 43
0.00000001
 40
0.0
 40
0.0
 40
0.0
 40
0.25
 40
0.25
 40
0.25
 10
3.199999999999994
 20
-22.41000000009841
 30
0.0
 10
3.170406995816583
 20
-22.41000000006939
 30
0.0
 10
3.144481324703782
 20
-22.41000000004394
 30
0.0
  0
SPLINE
  5
277
330
1F
100
AcDbEntity
  8
SK3
  6
HIDDEN
370
    18
100
AcDbSpline
210
0.0
220
0.0
230
1.0
 70
    24
 71
     3
 72
     8
 73
     4
 74
     0
 42
0.000000001
 43
0.00000001
 40
0.25
 40
0.25
 40
0.25
 40
0.25
 40
0.5
 40
0.5
 40
0.5
 40
0.5
 10
3.144481324703782
 20
-22.41000000004394
 30
0.0
 10
3.118555653590982
 20
-22.41000000001851
 30
0.0
 10
3.097084490555624
 20
-22.40999999999745
 30
0.0
 10
3.096615422637505
 20
-22.40999999999698
 30
0.0
  0
SPLINE
  5
278
330
1F
100
AcDbEntity
  8
SK3
  6
HIDDEN
370
    18
100
AcDbSpline
210
0.0
220
0.0
230
1.0
 70
    24
 71
     3
 72
     8
 73
     4
 74
     0
 42
0.000000001
 43
0.00000001
 40
0.5
 40
0.5
 40
0.5
 40
0.5
 40
0.5625
 40
0.5625
 40
0.5625
 40
0.5625
 10
3.096615422637505
 20
-22.40999999999698
 30
0.0
 10
3.096498155657962
 20
-22.40999999999687
 30
0.0
 10
3.097576707176322
 20
-22.40999999999793
 30
0.0
 10
3.099789717980514
 20
-22.41000000000013
 30
0.0
  0
SPLINE
  5
279
330
1F
100
AcDbEntity
  8
SK3
  6
HIDDEN
370
    18
100
AcDbSpline
210
0.0
220
0.0
230
1.0
 70
    24
 71
     3
 72
     8
 73
     4
 74
     0
 42
0.000000001
 43
0.00000001
 40
0.5625
 40
0.5625
 40
0.5625
 40
0.5625
 40
0.625
 40
0.625
 40
0.625
 40
0.625
 10
3.099789717980514
 20
-22.41000000000013
 30
0.0
 10
3.102002728784719
 20
-22.41000000000228
 30
0.0
 10
3.105345908570312
 20
-22.41000000000555
 30
0.0
 10
3.109607407037987
 20
-22.4100000000097
 30
0.0
  0
SPLINE
  5
27A
330
1F
100
AcDbEntity
  8
SK3
  6
HIDDEN
370
    18
100
AcDbSpline
210
0.0
220
0.0
230
1.0
 70
    24
 71
     3
 72
     8
 73
     4
 74
     0
 42
0.000000001
 43
0.00000001
 40
0.625
 40
0.625
 40
0.625
 40
0.625
 40
0.75
 40
0.75
 40
0.75
 40
0.75
 10
3.109607407037987
 20
-22.4100000000097
 30
0.0
 10
3.118130403973379
 20
-22.41000000001802
 30
0.0
 10
3.130398007648111
 20
-22.41000000002997
 30
0.0
 10
3.143490990967571
 20
-22.41000000004274
 30
0.0
  0
SPLINE
  5
27B
330
1F
100
AcDbEntity
  8
SK3
  6
HIDDEN
370
    18
100
AcDbSpline
210
0.0
220
0.0
230
1.0
 70
    24
 71
     2
 72
     6
 73
     3
 74
     0
 42
0.000000001
 43
0.00000001
 40
0.75
 40
0.75
 40
0.75
 40
1.0
 40
1.0
 40
1.0
 10
3.143490990967571
 20
-22.41000000004274
 30
0.0
 10
3.169676957606518
 20
-22.41000000006855
 30
0.0
 10
3.199999999999994
 20
-22.41000000009841
 30
0.0
  0
SPLINE
  5
27C
330
1F
100
AcDbEntity
  8
SK3
  6
HIDDEN
370
    18
100
AcDbSpline
210
0.0
220
0.0
230
1.0
 70
     8
 71
     3
 72
    30
 73
    26
 74
     0
 42
0.000000001
 43
0.00000001
 40
0.5000000000000008
 40
0.5000000000000008
 40
0.5000000000000008
 40
0.5000000000000008
 40
0.5625000000000009
 40
0.5625000000000009
 40
0.5937500000000009
 40
0.5937500000000009
 40
0.6250000000000009
 40
0.6250000000000009
 40
0.6562500000000009
 40
0.6562500000000009
 40
0.6875000000000009
 40
0.6875000000000009
 40
0.7500000000000008
 40
0.7500000000000008
 40
0.7812500000000008
 40
0.7812500000000008
 40
0.8125000000000008
 40
0.8125000000000008
 40
0.8750000000000004
 40
0.8750000000000004
 40
0.9375000000000002
 40
0.9375000000000002
 40
0.9687500000000001
 40
0.9687500000000001
 40
1.0
 40
1.0
 40
1.0
 40
1.0
 10
11.10070155322192
 20
-0.6867806446436211
 30
0.0
 10
10.88487328526096
 20
-0.686686495301167
 30
0.0
 10
10.6669599366719
 20
-0.7314091515492372
 30
0.0
 10
10.36883069489547
 20
-0.8573324036223566
 30
0.0
 10
10.27232660505548
 20
-0.9097769735048333
 30
0.0
 10
10.09316301813305
 20
-1.030880210906786
 30
0.0
 10
10.01035801314713
 20
-1.099273863572378
 30
0.0
 10
9.858092000268936
 20
-1.251261280631553
 30
0.0
 10
9.788700375084906
 20
-1.335215891007224
 30
0.0
 10
9.669334047265748
 20
-1.511088629166778
 30
0.0
 10
9.618452284373912
 20
-1.603797750250983
 30
0.0
 10
9.49317154125469
 20
-1.896347059398756
 30
0.0
 10
9.450117602560926
 20
-2.101924731596823
 30
0.0
 10
9.449941558347316
 20
-2.408808799904342
 30
0.0
 10
9.460551032657111
 20
-2.508823236901839
 30
0.0
 10
9.502621940844932
 20
-2.704498007569868
 30
0.0
 10
9.534606217529538
 20
-2.800878416574823
 30
0.0
 10
9.658478333209791
 20
-3.071908588173939
 30
0.0
 10
9.781198670787708
 20
-3.23500633722694
 30
0.0
 10
10.08392744642475
 20
-3.501633981244936
 30
0.0
 10
10.26708339298824
 20
-3.607940944973839
 30
0.0
 10
10.56490438050339
 20
-3.714664125739019
 30
0.0
 10
10.66997524794501
 20
-3.742182811963954
 30
0.0
 10
10.88266147594884
 20
-3.778571214008566
 30
0.0
 10
10.99054595855783
 20
-3.787766140220149
 30
0.0
 10
11.09999999999999
 20
-3.787766140220149
 30
0.0
  0
SPLINE
  5
27D
330
1F
100
AcDbEntity
  8
SK3
  6
HIDDEN
370
    18
100
AcDbSpline
210
0.0
220
0.0
230
1.0
 70
     8
 71
     3
 72
    32
 73
    28
 74
     0
 42
0.000000001
 43
0.00000001
 40
0.0
 40
0.0
 40
0.0
 40
0.0
 40
0.0312499999999999
 40
0.0312499999999999
 40
0.0624999999999998
 40
0.0624999999999998
 40
0.0937499999999996
 40
0.0937499999999996
 40
0.1249999999999995
 40
0.1249999999999995
 40
0.1874999999999994
 40
0.1874999999999994
 40
0.2499999999999994
 40
0.2499999999999994
 40
0.2812499999999994
 40
0.2812499999999994
 40
0.3124999999999995
 40
0.3124999999999995
 40
0.3749999999999996
 40
0.3749999999999996
 40
0.4062499999999999
 40
0.4062499999999999
 40
0.4375000000000002
 40
0.4375000000000002
 40
0.4687500000000004
 40
0.4687500000000004
 40
0.5000000000000008
 40
0.5000000000000008
 40
0.5000000000000008
 40
0.5000000000000008
 10
11.09999999999999
 20
-3.787766140220149
 30
0.0
 10
11.20945404144214
 20
-3.787766140220149
 30
0.0
 10
11.31699251505768
 20
-3.778573328456373
 30
0.0
 10
11.52842270682131
 20
-3.742513465759777
 30
0.0
 10
11.63343468118845
 20
-3.715182626605938
 30
0.0
 10
11.83302988080073
 20
-3.643810849968475
 30
0.0
 10
11.92762916003132
 20
-3.600053719779183
 30
0.0
 10
12.10666204146887
 20
-3.496063555093996
 30
0.0
 10
12.19108958741752
 20
-3.435494674721283
 30
0.0
 10
12.41840943186721
 20
-3.235487194488861
 30
0.0
 10
12.54121280428008
 20
-3.072211780658817
 30
0.0
 10
12.70609668334557
 20
-2.712191703584069
 30
0.0
 10
12.74986581883258
 20
-2.511406281215628
 30
0.0
 10
12.7500666159068
 20
-2.206762191573445
 30
0.0
 10
12.73925303931701
 20
-2.102663743045085
 30
0.0
 10
12.69696665105524
 20
-1.900023631118415
 30
0.0
 10
12.66568409163503
 20
-1.800628375409976
 30
0.0
 10
12.54109332601519
 20
-1.508622388074421
 30
0.0
 10
12.41968488057069
 20
-1.329150513223794
 30
0.0
 10
12.19032108316566
 20
-1.099825633995827
 30
0.0
 10
12.10747830050279
 20
-1.031413659325509
 30
0.0
 10
11.92916892541125
 20
-0.9106890902003152
 30
0.0
 10
11.83255025366051
 20
-0.8580074652528163
 30
0.0
 10
11.6334021774315
 20
-0.7737092118759794
 30
0.0
 10
11.53055350372277
 20
-0.741588922705233
 30
0.0
 10
11.31815535720088
 20
-0.6979755792709298
 30
0.0
 10
11.20861568720238
 20
-0.6868277193148552
 30
0.0
 10
11.10070155322192
 20
-0.6867806446436211
 30
0.0
  0
SPLINE
  5
27E
330
1F
100
AcDbEntity
  8
SK3
  6
HIDDEN
370
    18
100
AcDbSpline
210
0.0
220
0.0
230
1.0
 70
     8
 71
     3
 72
    10
 73
     6
 74
     0
 42
0.000000001
 43
0.00000001
 40
0.0
 40
0.0
 40
0.0
 40
0.0
 40
0.5
 40
0.5
 40
1.0
 40
1.0
 40
1.0
 40
1.0
 10
18.54999999999998
 20
-22.78500000000001
 30
0.0
 10
18.55000000000001
 20
-22.85446188700635
 30
0.0
 10
18.57033165532695
 20
-22.92157876899188
 30
0.0
 10
18.62822537360669
 20
-23.04534569655893
 30
0.0
 10
18.66502717471816
 20
-23.10292618711533
 30
0.0
 10
18.7046111550019
 20
-23.15898258716478
 30
0.0
  0
SPLINE
  5
27F
330
1F
100
AcDbEntity
  8
SK3
  6
HIDDEN
370
    18
100
AcDbSpline
210
0.0
220
0.0
230
1.0
 70
     8
 71
     3
 72
    10
 73
     6
 74
     0
 42
0.000000001
 43
0.00000001
 40
0.0
 40
0.0
 40
0.0
 40
0.0
 40
0.5
 40
0.5
 40
1.0
 40
1.0
 40
1.0
 40
1.0
 10
18.70470837592286
 20
25.57912025275684
 30
0.0
 10
18.66514338213328
 20
25.52310107590329
 30
0.0
 10
18.6284291124997
 20
25.46562249807943
 30
0.0
 10
18.57073957446638
 20
25.34260791126142
 30
0.0
 10
18.55000000000001
 20
25.27482658978053
 30
0.0
 10
18.54999999999998
 20
25.20500000000003
 30
0.0
  0
SPLINE
  5
280
330
1F
100
AcDbEntity
  8
SK3
  6
HIDDEN
370
    18
100
AcDbSpline
210
0.0
220
0.0
230
1.0
 70
     8
 71
     3
 72
    10
 73
     6
 74
     0
 42
0.000000001
 43
0.00000001
 40
0.0
 40
0.0
 40
0.0
 40
0.0
 40
0.5
 40
0.5
 40
1.0
 40
1.0
 40
1.0
 40
1.0
 10
3.699999999999952
 20
25.20500000000003
 30
0.0
 10
3.699999999999937
 20
25.27446188700637
 30
0.0
 10
3.67966834467295
 20
25.34157876899189
 30
0.0
 10
3.621774626393161
 20
25.46534569655892
 30
0.0
 10
3.584972825281716
 20
25.5229261871153
 30
0.0
 10
3.545388844997962
 20
25.57898258716474
 30
0.0
  0
SPLINE
  5
281
330
1F
100
AcDbEntity
  8
SK3
  6
HIDDEN
370
    18
100
AcDbSpline
210
0.0
220
0.0
230
1.0
 70
    24
 71
     2
 72
     6
 73
     3
 74
     0
 42
0.000000001
 43
0.00000001
 40
0.0
 40
0.0
 40
0.0
 40
0.2500000000000002
 40
0.2500000000000002
 40
0.2500000000000002
 10
3.545291624077129
 20
-22.41
 30
0.0
 10
3.52978151856935
 20
-22.41000000003876
 30
0.0
 10
3.506264354048591
 20
-22.41000000009754
 30
0.0
  0
SPLINE
  5
282
330
1F
100
AcDbEntity
  8
SK3
  6
HIDDEN
370
    18
100
AcDbSpline
210
0.0
220
0.0
230
1.0
 70
    24
 71
     3
 72
     8
 73
     4
 74
     0
 42
0.000000001
 43
0.00000001
 40
0.2500000000000002
 40
0.2500000000000002
 40
0.2500000000000002
 40
0.2500000000000002
 40
0.5000000000000004
 40
0.5000000000000004
 40
0.5000000000000004
 40
0.5000000000000004
 10
3.506264354048591
 20
-22.41000000009754
 30
0.0
 10
3.482747189527832
 20
-22.41000000009754
 30
0.0
 10
3.452323510010735
 20
-22.41000000009754
 30
0.0
 10
3.419371480420957
 20
-22.41000000009756
 30
0.0
  0
SPLINE
  5
283
330
1F
100
AcDbEntity
  8
SK3
  6
HIDDEN
370
    18
100
AcDbSpline
210
0.0
220
0.0
230
1.0
 70
    24
 71
     3
 72
     8
 73
     4
 74
     0
 42
0.000000001
 43
0.00000001
 40
0.5000000000000004
 40
0.5000000000000004
 40
0.5000000000000004
 40
0.5000000000000004
 40
1.0
 40
1.0
 40
1.0
 40
1.0
 10
3.419371480420957
 20
-22.41000000009756
 30
0.0
 10
3.353467421241374
 20
-22.41000000009782
 30
0.0
 10
3.277483565459982
 20
-22.41000000009812
 30
0.0
 10
3.199999999999981
 20
-22.41000000009841
 30
0.0
  0
SPLINE
  5
284
330
1F
100
AcDbEntity
  8
SK3
  6
HIDDEN
370
    18
100
AcDbSpline
210
0.0
220
0.0
230
1.0
 70
     8
 71
     3
 72
    40
 73
    36
 74
     0
 42
0.000000001
 43
0.00000001
 40
0.0
 40
0.0
 40
0.0
 40
0.0
 40
0.0126129321449816
 40
0.0314976481339604
 40
0.0629183966702564
 40
0.0880663439714168
 40
0.1258663548219043
 40
0.1545361786951687
 40
0.1972635113751465
 40
0.2185774264758751
 40
0.2505499734499138
 40
0.2790323571745755
 40
0.3220275475257124
 40
0.3436168159336463
 40
0.3758133620275749
 40
0.404289809506831
 40
0.4468993710431156
 40
0.468210972392158
 40
0.5002437124696447
 40
0.5288533887317777
 40
0.5719828275869667
 40
0.5934420637179458
 40
0.6254916984483699
 40
0.6539107272569499
 40
0.6965262692674994
 40
0.7178823906336999
 40
0.7500313093276819
 40
0.7787800102949101
 40
0.8217645159398103
 40
0.8431483194632992
 40
0.8751517844153629
 40
0.9000181010942334
 40
0.9373587731677226
 40
0.9685909586685477
 40
1.0
 40
1.0
 40
1.0
 40
1.0
 10
3.949999999998885
 20
-30.22558142012363
 30
0.0
 10
3.947274304054407
 20
-30.22556434752347
 30
0.0
 10
3.940467559136393
 20
-30.22552171296815
 30
0.0
 10
3.926878079312815
 20
-30.22500449703395
 30
0.0
 10
3.910614550228675
 20
-30.22373214657328
 30
0.0
 10
3.89037736176355
 20
-30.22117483723318
 30
0.0
 10
3.870876571852033
 20
-30.21766990056473
 30
0.0
 10
3.847909402640779
 20
-30.21222207486608
 30
0.0
 10
3.828703761990043
 20
-30.20644931168604
 30
0.0
 10
3.809172441364875
 20
-30.1994388579249
 30
0.0
 10
3.792810014292145
 20
-30.19274290251868
 30
0.0
 10
3.772556787560208
 20
-30.18326307338684
 30
0.0
 10
3.754852229733832
 20
-30.17368149207816
 30
0.0
 10
3.737001129755904
 20
-30.16277896347315
 30
0.0
 10
3.72223793065897
 20
-30.15285978974808
 30
0.0
 10
3.704336292931778
 20
-30.13951958199218
 30
0.0
 10
3.689010882644284
 20
-30.12669241146887
 30
0.0
 10
3.673804931859065
 20
-30.11259090121807
 30
0.0
 10
3.661328526176205
 20
-30.10000934793183
 30
0.0
 10
3.646311367638336
 20
-30.08334675455453
 30
0.0
 10
3.633674708738391
 20
-30.06764146706182
 30
0.0
 10
3.621410566074512
 20
-30.05073531891782
 30
0.0
 10
3.611611223628936
 20
-30.03598007668936
 30
0.0
 10
3.600156512781671
 20
-30.01686769647027
 30
0.0
 10
3.590829750079544
 20
-29.9991957499668
 30
0.0
 10
3.58203581287464
 20
-29.98037484052065
 30
0.0
 10
3.575165778815601
 20
-29.96397246361068
 30
0.0
 10
3.56744982965651
 20
-29.94288522109271
 30
0.0
 10
3.561558066370665
 20
-29.9236273901373
 30
0.0
 10
3.556428567390829
 20
-29.90344062128828
 30
0.0
 10
3.552918981595626
 20
-29.88689085311455
 30
0.0
 10
3.549536425733843
 20
-29.86681061568514
 30
0.0
 10
3.547124737183341
 20
-29.84675343612378
 30
0.0
 10
3.545564419127039
 20
-29.82519260420115
 30
0.0
 10
3.545382726751256
 20
-29.81165457437737
 30
0.0
 10
3.545291624076075
 20
-29.8048664484133
 30
0.0
  0
SPLINE
  5
285
330
1F
100
AcDbEntity
  8
SK3
  6
HIDDEN
370
    18
100
AcDbSpline
210
0.0
220
0.0
230
1.0
 70
     8
 71
     3
 72
    40
 73
    36
 74
     0
 42
0.000000001
 43
0.00000001
 40
0.0
 40
0.0
 40
0.0
 40
0.0
 40
0.0314214559572227
 40
0.0627294389671943
 40
0.0877405066521885
 40
0.125275232669724
 40
0.1539551384600139
 40
0.1970430837597965
 40
0.2184753360378567
 40
0.2505176110611755
 40
0.2789492345937477
 40
0.3216198597593979
 40
0.3430128235413608
 40
0.3752634384750789
 40
0.4040010771804361
 40
0.4468656794915655
 40
0.4682159459362438
 40
0.5002096454815023
 40
0.5286754137344519
 40
0.5715400247765465
 40
0.5931009716299148
 40
0.6253883780511632
 40
0.6539191343952845
 40
0.696591424456682
 40
0.7179237821488482
 40
0.749974649427047
 40
0.7785976316863411
 40
0.795854339812784
 40
0.8217160693566484
 40
0.8431552865480455
 40
0.8751886732441913
 40
0.9000580147531466
 40
0.9373794059838183
 40
0.9685930788650419
 40
0.9999999999999999
 40
0.9999999999999999
 40
0.9999999999999999
 40
0.9999999999999999
 10
18.7046111550019
 20
-29.80485527419842
 30
0.0
 10
18.70451980286349
 20
-29.81164440520547
 30
0.0
 10
18.7043374284885
 20
-29.82519814949179
 30
0.0
 10
18.702967285952
 20
-29.84411564286004
 30
0.0
 10
18.70072137877135
 20
-29.8642704379547
 30
0.0
 10
18.69761618492965
 20
-29.88374590039356
 30
0.0
 10
18.69275878580925
 20
-29.90686111791569
 30
0.0
 10
18.68756401153335
 20
-29.92633239392294
 30
0.0
 10
18.68121966076007
 20
-29.94620899181277
 30
0.0
 10
18.67516357609365
 20
-29.96284451017633
 30
0.0
 10
18.66659391017356
 20
-29.98342104192522
 30
0.0
 10
18.65792216957786
 20
-30.00144320562836
 30
0.0
 10
18.64799759935261
 20
-30.01973532130568
 30
0.0
 10
18.63887055578692
 20
-30.03502499592458
 30
0.0
 10
18.62647938435721
 20
-30.05373739732938
 30
0.0
 10
18.6144741828887
 20
-30.06985792745572
 30
0.0
 10
18.6012420563212
 20
-30.08589113399747
 30
0.0
 10
18.5894286068268
 20
-30.09904955418359
 30
0.0
 10
18.57374043191441
 20
-30.11493869793075
 30
0.0
 10
18.55884768057942
 20
-30.12841850147777
 30
0.0
 10
18.54265426161455
 20
-30.14162746302955
 30
0.0
 10
18.52838800292801
 20
-30.15228399886078
 30
0.0
 10
18.50983571493522
 20
-30.16477481501635
 30
0.0
 10
18.49262445031481
 20
-30.17498291257689
 30
0.0
 10
18.47424607318984
 20
-30.18462804605511
 30
0.0
 10
18.45820753870475
 20
-30.19217667946481
 30
0.0
 10
18.44263074348686
 20
-30.19858412922858
 30
0.0
 10
18.42808324373879
 20
-30.20393768674263
 30
0.0
 10
18.41482664955695
 20
-30.20828861199141
 30
0.0
 10
18.39834274985589
 20
-30.21299666641595
 30
0.0
 10
18.38186940102372
 20
-30.21692139734203
 30
0.0
 10
18.36186218647021
 20
-30.22070805123952
 30
0.0
 10
18.34185224742001
 20
-30.22341140280931
 30
0.0
 10
18.32031695323611
 20
-30.22516290854394
 30
0.0
 10
18.306786236422
 20
-30.22536701808554
 30
0.0
 10
18.30000000000001
 20
-30.22546938779915
 30
0.0
  0
SPLINE
  5
286
330
1F
100
AcDbEntity
  8
SK3
  6
HIDDEN
370
    18
100
AcDbSpline
210
0.0
220
0.0
230
1.0
 70
     8
 71
     3
 72
    40
 73
    36
 74
     0
 42
0.000000001
 43
0.00000001
 40
0.0
 40
0.0
 40
0.0
 40
0.0
 40
0.0125929119920853
 40
0.0314096195346373
 40
0.0626234169499198
 40
0.0875147363747587
 40
0.124814412830725
 40
0.1532834083387407
 40
0.1962265830891685
 40
0.2178107992109856
 40
0.2500224951329321
 40
0.2785169301552057
 40
0.3211718523043689
 40
0.3425182663517161
 40
0.3746092478105291
 40
0.4033018002026093
 40
0.4463503818994342
 40
0.4677602234265854
 40
0.4997883410590171
 40
0.5282270395863745
 40
0.5709521530205331
 40
0.5924138618617291
 40
0.6247350591047612
 40
0.6534144483970801
 40
0.6961683199419044
 40
0.7174969314503464
 40
0.7494813527194152
 40
0.7779588669976988
 40
0.8208766717687367
 40
0.8424514691504715
 40
0.874724282179473
 40
0.8997563983109313
 40
0.9372703102803501
 40
0.968578418532575
 40
0.9999999999999999
 40
0.9999999999999999
 40
0.9999999999999999
 40
0.9999999999999999
 10
18.30000000000001
 20
30.22558142012641
 30
0.0
 10
18.30272136951239
 20
30.2255644174685
 30
0.0
 10
18.30950909113323
 20
30.22552200892816
 30
0.0
 10
18.32303491151129
 20
30.22500878447086
 30
0.0
 10
18.33918410220824
 20
30.22374990827884
 30
0.0
 10
18.35921637335283
 20
30.22123374888839
 30
0.0
 10
18.37851743465278
 20
30.21779055348818
 30
0.0
 10
18.40139259411767
 20
30.2124101571383
 30
0.0
 10
18.42066868063111
 20
30.20665667098936
 30
0.0
 10
18.44035778154605
 20
30.19962160064931
 30
0.0
 10
18.4568321931845
 20
30.19290122073895
 30
0.0
 10
18.47707551770182
 20
30.1834456323771
 30
0.0
 10
18.49468238340836
 20
30.17394373601334
 30
0.0
 10
18.51242282863929
 20
30.1631457547134
 30
0.0
 10
18.52718102114116
 20
30.15327064640552
 30
0.0
 10
18.54520190007993
 20
30.13989144466213
 30
0.0
 10
18.56066753372126
 20
30.12697740010819
 30
0.0
 10
18.57597030022935
 20
30.11281096127927
 30
0.0
 10
18.58844277986744
 20
30.10024903998077
 30
0.0
 10
18.60339048841032
 20
30.08369276015744
 30
0.0
 10
18.61596948562731
 20
30.06810049270646
 30
0.0
 10
18.62824307125506
 20
30.05123600708182
 30
0.0
 10
18.63812738344199
 20
30.03639837328908
 30
0.0
 10
18.64967535556758
 20
30.01717281850426
 30
0.0
 10
18.6590506075496
 20
29.99943559548715
 30
0.0
 10
18.66785100498265
 20
29.98063051707893
 30
0.0
 10
18.67469312836914
 20
29.96432508828282
 30
0.0
 10
18.68239354934311
 20
29.94334796470477
 30
0.0
 10
18.68830098830934
 20
29.92412819400954
 30
0.0
 10
18.69347515991062
 20
29.90386495846922
 30
0.0
 10
18.69702701390045
 20
29.88718562683122
 30
0.0
 10
18.70044011360977
 20
29.86697716337642
 30
0.0
 10
18.70287111134989
 20
29.84683182165027
 30
0.0
 10
18.70443405316874
 20
29.82521437831679
 30
0.0
 10
18.70461682479817
 20
29.81165726630968
 30
0.0
 10
18.70470837592284
 20
29.80486644841631
 30
0.0
  0
SPLINE
  5
287
330
1F
100
AcDbEntity
  8
SK3
  6
HIDDEN
370
    18
100
AcDbSpline
210
0.0
220
0.0
230
1.0
 70
     8
 71
     3
 72
    39
 73
    35
 74
     0
 42
0.000000001
 43
0.00000001
 40
0.0
 40
0.0
 40
0.0
 40
0.0
 40
0.0314091160307674
 40
0.0626413758641538
 40
0.0875470935131885
 40
0.1248485138287456
 40
0.1532930400450731
 40
0.1960941157944613
 40
0.2176225947738233
 40
0.2499693772004398
 40
0.2785546285585068
 40
0.3212364873026817
 40
0.3425405354923858
 40
0.3745092858974068
 40
0.4029918411019298
 40
0.4459785689856149
 40
0.4675618916159466
 40
0.4997576608210499
 40
0.5282368343000431
 40
0.5708480092884092
 40
0.5921584935845995
 40
0.6241883328452476
 40
0.6527986190299354
 40
0.6959401501309849
 40
0.7174023419155745
 40
0.7494519752642005
 40
0.7778741158300017
 40
0.8205144520917228
 40
0.8418962920619149
 40
0.8741359236783777
 40
0.8993502252909598
 40
0.9370840470446206
 40
0.9685048711195197
 40
1.0
 40
1.0
 40
1.0
 40
1.0
 10
3.545388844997963
 20
29.80485527419826
 30
0.0
 10
3.545479748550565
 20
29.81164171345383
 30
0.0
 10
3.545661043802598
 20
29.82517637936966
 30
0.0
 10
3.547029433803327
 20
29.84405190465713
 30
0.0
 10
3.549258968233805
 20
29.86411824570158
 30
0.0
 10
3.552336224857518
 20
29.8834722762258
 30
0.0
 10
3.557141779746747
 20
29.90643124843556
 30
0.0
 10
3.562288225622193
 20
29.92581971282424
 30
0.0
 10
3.568614089357694
 20
29.94572790966324
 30
0.0
 10
3.574692956926385
 20
29.96248267210258
 30
0.0
 10
3.583287776048115
 20
29.98315850998392
 30
0.0
 10
3.591955015312227
 20
30.00120090567663
 30
0.0
 10
3.601831018727626
 20
30.01943081107648
 30
0.0
 10
3.610874012133416
 20
30.03461278108222
 30
0.0
 10
3.623189627258741
 20
30.05326734966762
 30
0.0
 10
3.635184378154352
 20
30.06942261759878
 30
0.0
 10
3.648473969075886
 20
30.0855643889811
 30
0.0
 10
3.660340157340345
 20
30.09880574838227
 30
0.0
 10
3.676012531497212
 20
30.11469877887869
 30
0.0
 10
3.690813818886916
 20
30.12812096686809
 30
0.0
 10
3.706862089264405
 20
30.14124723286362
 30
0.0
 10
3.721035740664457
 20
30.15187245989082
 30
0.0
 10
3.73961592045556
 20
30.16443427377516
 30
0.0
 10
3.756939716856921
 20
30.17474090541244
 30
0.0
 10
3.775422312926254
 20
30.18446497823756
 30
0.0
 10
3.791441042936007
 20
30.19201976729602
 30
0.0
 10
3.81203995562808
 20
30.20051935318397
 30
0.0
 10
3.830933874073419
 20
30.20705284128374
 30
0.0
 10
3.850922478500718
 20
30.21280585013025
 30
0.0
 10
3.86749234798435
 20
30.21678677988686
 30
0.0
 10
3.887698638249892
 20
30.22064109222355
 30
0.0
 10
3.907913014965708
 20
30.22338985618059
 30
0.0
 10
3.929600305356953
 20
30.22516034748688
 30
0.0
 10
3.943194750029189
 20
30.22536629328654
 30
0.0
 10
3.949999999999954
 20
30.22546938779911
 30
0.0
  0
SPLINE
  5
288
330
1F
100
AcDbEntity
  8
SK3
  6
HIDDEN
370
    18
100
AcDbSpline
210
0.0
220
0.0
230
1.0
 70
    24
 71
     3
 72
    24
 73
    20
 74
     0
 42
0.000000001
 43
0.00000001
 40
0.5017119600966362
 40
0.5017119600966362
 40
0.5017119600966362
 40
0.5017119600966362
 40
0.5329073716121853
 40
0.5640548683332769
 40
0.5951846320854888
 40
0.6263162030771136
 40
0.6574581419412487
 40
0.6886110678632061
 40
0.7197710397559475
 40
0.7353520018390423
 40
0.7509326586204033
 40
0.7820904581241765
 40
0.8132407892531132
 40
0.8443797483693986
 40
0.8755044880035561
 40
0.9075542847443988
 40
0.9377274934512492
 40
0.9697123264521683
 40
1.0
 40
1.0
 40
1.0
 40
1.0
 10
19.15416787448492
 20
-22.41000000000001
 30
0.0
 10
19.15390823412976
 20
-22.41
 30
0.0
 10
19.14862446274426
 20
-22.41
 30
0.0
 10
19.12717050141126
 20
-22.41
 30
0.0
 10
19.09402141422219
 20
-22.41
 30
0.0
 10
19.05162205343461
 20
-22.41000000000002
 30
0.0
 10
19.00245424769027
 20
-22.41
 30
0.0
 10
18.94884412749866
 20
-22.41000000000002
 30
0.0
 10
18.9022872938234
 20
-22.41
 30
0.0
 10
18.86478635563907
 20
-22.41
 30
0.0
 10
18.82741245085054
 20
-22.41000000000002
 30
0.0
 10
18.78145353830952
 20
-22.41
 30
0.0
 10
18.72894284378535
 20
-22.41
 30
0.0
 10
18.6804881682087
 20
-22.41000000000002
 30
0.0
 10
18.63700075413552
 20
-22.41000000000002
 30
0.0
 10
18.60075833185151
 20
-22.41
 30
0.0
 10
18.57266782231895
 20
-22.41000000000002
 30
0.0
 10
18.55384471013036
 20
-22.41
 30
0.0
 10
18.55125807150752
 20
-22.41
 30
0.0
 10
18.54999999999998
 20
-22.41
 30
0.0
  0
SPLINE
  5
289
330
1F
100
AcDbEntity
  8
SK3
  6
HIDDEN
370
    18
100
AcDbSpline
210
0.0
220
0.0
230
1.0
 70
     8
 71
     3
 72
    30
 73
    26
 74
     0
 42
0.000000001
 43
0.00000001
 40
0.4999999999999971
 40
0.4999999999999971
 40
0.4999999999999971
 40
0.4999999999999971
 40
0.5624999999999978
 40
0.5624999999999978
 40
0.5937499999999979
 40
0.5937499999999979
 40
0.6249999999999982
 40
0.6249999999999982
 40
0.6562499999999986
 40
0.6562499999999986
 40
0.6874999999999989
 40
0.6874999999999989
 40
0.7499999999999993
 40
0.7499999999999993
 40
0.7812499999999997
 40
0.7812499999999997
 40
0.8124999999999999
 40
0.8124999999999999
 40
0.8750000000000001
 40
0.8750000000000001
 40
0.9375000000000002
 40
0.9375000000000002
 40
0.9687500000000001
 40
0.9687500000000001
 40
1.0
 40
1.0
 40
1.0
 40
1.0
 10
11.09929844677808
 20
3.78776601293708
 30
0.0
 10
11.31512671473901
 20
3.787844328548312
 30
0.0
 10
11.53304006332809
 20
3.750889262135744
 30
0.0
 10
11.8311693051045
 20
3.644571484254101
 30
0.0
 10
11.92767339494449
 20
3.600037255497422
 30
0.0
 10
12.10683698186693
 20
3.49595270142683
 30
0.0
 10
12.18964198685285
 20
3.436638281784643
 30
0.0
 10
12.34190799973103
 20
3.302925237097951
 30
0.0
 10
12.41129962491505
 20
3.228176186758913
 30
0.0
 10
12.53066595273422
 20
3.069052612816883
 30
0.0
 10
12.58154771562607
 20
2.98399592143253
 30
0.0
 10
12.70682845874528
 20
2.710883138195806
 30
0.0
 10
12.74988239743904
 20
2.512755536558407
 30
0.0
 10
12.75005844165267
 20
2.205900920979297
 30
0.0
 10
12.73944896734286
 20
2.104095647539293
 30
0.0
 10
12.69737805915505
 20
1.901509184390145
 30
0.0
 10
12.66539378247045
 20
1.799926651541078
 30
0.0
 10
12.54152166679018
 20
1.509668979059638
 30
0.0
 10
12.41880132921226
 20
1.328433854589056
 30
0.0
 10
12.11607255357523
 20
1.025423686659192
 30
0.0
 10
11.93291660701175
 20
0.9007071060449026
 30
0.0
 10
11.63509561949658
 20
0.7743195984551282
 30
0.0
 10
11.53002475205496
 20
0.7414335488037036
 30
0.0
 10
11.31733852405115
 20
0.6978549509474643
 30
0.0
 10
11.20945404144214
 20
0.686780491626654
 30
0.0
 10
11.09999999999999
 20
0.686780491626654
 30
0.0
  0
SPLINE
  5
28A
330
1F
100
AcDbEntity
  8
SK3
  6
HIDDEN
370
    18
100
AcDbSpline
210
0.0
220
0.0
230
1.0
 70
     8
 71
     3
 72
    32
 73
    28
 74
     0
 42
0.000000001
 43
0.00000001
 40
0.0
 40
0.0
 40
0.0
 40
0.0
 40
0.0312499999999996
 40
0.0312499999999996
 40
0.0624999999999993
 40
0.0624999999999993
 40
0.0937499999999989
 40
0.0937499999999989
 40
0.1249999999999986
 40
0.1249999999999986
 40
0.1874999999999981
 40
0.1874999999999981
 40
0.2499999999999977
 40
0.2499999999999977
 40
0.2812499999999975
 40
0.2812499999999975
 40
0.3124999999999972
 40
0.3124999999999972
 40
0.3749999999999969
 40
0.3749999999999969
 40
0.4062499999999969
 40
0.4062499999999969
 40
0.437499999999997
 40
0.437499999999997
 40
0.468749999999997
 40
0.468749999999997
 40
0.4999999999999971
 40
0.4999999999999971
 40
0.4999999999999971
 40
0.4999999999999971
 10
11.09999999999999
 20
0.686780491626654
 30
0.0
 10
10.99054595855783
 20
0.686780491626654
 30
0.0
 10
10.88300748494234
 20
0.6978519169173816
 30
0.0
 10
10.67157729317864
 20
0.7410380563700192
 30
0.0
 10
10.56656531881152
 20
0.7737031975053668
 30
0.0
 10
10.36697011919925
 20
0.8582303125313356
 30
0.0
 10
10.27237083996867
 20
0.9097573042868359
 30
0.0
 10
10.09333795853112
 20
1.030751744013229
 30
0.0
 10
10.00891041258248
 20
1.100583040304352
 30
0.0
 10
9.78159056813277
 20
1.327897234965389
 30
0.0
 10
9.658787195719887
 20
1.509321425019423
 30
0.0
 10
9.493903316654437
 20
1.894927731320252
 30
0.0
 10
9.450134181167385
 20
2.103271213289668
 30
0.0
 10
9.449933384093168
 20
2.407948896887099
 30
0.0
 10
9.46074696068297
 20
2.510222343261245
 30
0.0
 10
9.503033348944728
 20
2.7059165905233
 30
0.0
 10
9.534315908364954
 20
2.800221958421389
 30
0.0
 10
9.658906673984779
 20
3.072888284710952
 30
0.0
 10
9.780315119429298
 20
3.234385799298925
 30
0.0
 10
10.00967891683431
 20
3.436160430176
 30
0.0
 10
10.09252169949718
 20
3.495489903524468
 30
0.0
 10
10.2708310745887
 20
3.599257582730262
 30
0.0
 10
10.36744974633946
 20
3.643999459073413
 30
0.0
 10
10.56659782256847
 20
3.71517710257474
 30
0.0
 10
10.66944649627721
 20
3.742052781161721
 30
0.0
 10
10.88184464279911
 20
3.77847077937897
 30
0.0
 10
10.9913843127976
 20
3.787726855131464
 30
0.0
 10
11.09929844677808
 20
3.78776601293708
 30
0.0
  0
SPLINE
  5
28B
330
1F
100
AcDbEntity
  8
SK3
  6
HIDDEN
370
    18
100
AcDbSpline
210
0.0
220
0.0
230
1.0
 70
     8
 71
     3
 72
    38
 73
    34
 74
     0
 42
0.000000001
 43
0.00000001
 40
0.499999999999998
 40
0.499999999999998
 40
0.499999999999998
 40
0.499999999999998
 40
0.5312499999999979
 40
0.5312499999999979
 40
0.5624999999999978
 40
0.5624999999999978
 40
0.5937499999999978
 40
0.5937499999999978
 40
0.6249999999999977
 40
0.6249999999999977
 40
0.6562499999999977
 40
0.6562499999999977
 40
0.6874999999999976
 40
0.6874999999999976
 40
0.7187499999999976
 40
0.7187499999999976
 40
0.7499999999999974
 40
0.7499999999999974
 40
0.8124999999999982
 40
0.8124999999999982
 40
0.8437499999999984
 40
0.8437499999999984
 40
0.8749999999999988
 40
0.8749999999999988
 40
0.906249999999999
 40
0.906249999999999
 40
0.9374999999999993
 40
0.9374999999999993
 40
0.9687499999999996
 40
0.9687499999999996
 40
0.9843749999999998
 40
0.9843749999999998
 40
1.0
 40
1.0
 40
1.0
 40
1.0
 10
9.547165917302147
 20
6.130078845461997
 30
0.0
 10
9.59166960882872
 20
6.01762212406462
 30
0.0
 10
9.6519122103369
 20
5.910039381771343
 30
0.0
 10
9.796812632231477
 20
5.715206444890271
 30
0.0
 10
9.882567425050448
 20
5.625950668749144
 30
0.0
 10
10.07707138823528
 20
5.46583513556137
 30
0.0
 10
10.18346038260025
 20
5.396630723958358
 30
0.0
 10
10.41491716747872
 20
5.273967848329591
 30
0.0
 10
10.54009168137381
 20
5.221079864175499
 30
0.0
 10
10.78642802631471
 20
5.131319199450715
 30
0.0
 10
10.90588750473029
 20
5.094347448465292
 30
0.0
 10
11.12471660654357
 20
5.030993621355166
 30
0.0
 10
11.22226506040226
 20
5.005212811238509
 30
0.0
 10
11.40290338683522
 20
4.961304046026231
 30
0.0
 10
11.48653843453272
 20
4.943230320262122
 30
0.0
 10
11.64292087602177
 20
4.91495840651697
 30
0.0
 10
11.71620965691778
 20
4.904637420561173
 30
0.0
 10
11.92719226675067
 20
4.885740181441757
 30
0.0
 10
12.05703185085182
 20
4.888799294419003
 30
0.0
 10
12.23947266366206
 20
4.928553216744826
 30
0.0
 10
12.29788111599016
 20
4.947672533286193
 30
0.0
 10
12.40978986086719
 20
5.001691346856623
 30
0.0
 10
12.46364510461581
 20
5.036838190440908
 30
0.0
 10
12.56271343290429
 20
5.12873739330609
 30
0.0
 10
12.60843468736296
 20
5.18558411364542
 30
0.0
 10
12.68612312343484
 20
5.33278642989507
 30
0.0
 10
12.7175049221496
 20
5.42323308451316
 30
0.0
 10
12.75225985948268
 20
5.640299190695281
 30
0.0
 10
12.75463724396987
 20
5.767683503121006
 30
0.0
 10
12.73422628849652
 20
5.96411574042225
 30
0.0
 10
12.72357436485566
 20
6.03079986275442
 30
0.0
 10
12.69687670664382
 20
6.160247296436619
 30
0.0
 10
12.68086259956382
 20
6.223527817320315
 30
0.0
 10
12.66230763443388
 20
6.286790301132342
 30
0.0
  0
SPLINE
  5
28C
330
1F
100
AcDbEntity
  8
SK3
  6
HIDDEN
370
    18
100
AcDbSpline
210
0.0
220
0.0
230
1.0
 70
     8
 71
     3
 72
    32
 73
    28
 74
     0
 42
0.000000001
 43
0.00000001
 40
0.0
 40
0.0
 40
0.0
 40
0.0
 40
0.0312499999999997
 40
0.0312499999999997
 40
0.0624999999999995
 40
0.0624999999999995
 40
0.1249999999999989
 40
0.1249999999999989
 40
0.1874999999999984
 40
0.1874999999999984
 40
0.2187499999999984
 40
0.2187499999999984
 40
0.2499999999999984
 40
0.2499999999999984
 40
0.2812499999999984
 40
0.2812499999999984
 40
0.3124999999999984
 40
0.3124999999999984
 40
0.3437499999999984
 40
0.3437499999999984
 40
0.3749999999999984
 40
0.3749999999999984
 40
0.4374999999999982
 40
0.4374999999999982
 40
0.4687499999999981
 40
0.4687499999999981
 40
0.499999999999998
 40
0.499999999999998
 40
0.499999999999998
 40
0.499999999999998
 10
12.66230763443388
 20
6.286790301132342
 30
0.0
 10
12.62519770417402
 20
6.413315268756395
 30
0.0
 10
12.58120302127298
 20
6.52933820934215
 30
0.0
 10
12.48471880657839
 20
6.749261649681163
 30
0.0
 10
12.43165882244548
 20
6.853656412382156
 30
0.0
 10
12.26556941339614
 20
7.146821567827769
 30
0.0
 10
12.14616169070407
 20
7.317061421523475
 30
0.0
 10
11.88808945990528
 20
7.625840216913628
 30
0.0
 10
11.74985718622878
 20
7.763778523701706
 30
0.0
 10
11.51944141192587
 20
7.939572233534677
 30
0.0
 10
11.43848400885548
 20
7.993145929764537
 30
0.0
 10
11.26094996715926
 20
8.086113501836023
 30
0.0
 10
11.16541818036969
 20
8.1250258160986
 30
0.0
 10
10.95302844471288
 20
8.175251229353178
 30
0.0
 10
10.83703519791093
 20
8.185597853152489
 30
0.0
 10
10.5913368132058
 20
8.160487774001004
 30
0.0
 10
10.46687270231074
 20
8.12532137460939
 30
0.0
 10
10.22897755356154
 20
8.015351517179303
 30
0.0
 10
10.11959384449099
 20
7.94337461166493
 30
0.0
 10
9.919042005980968
 20
7.77195898146249
 30
0.0
 10
9.830027015680656
 20
7.673959535020841
 30
0.0
 10
9.60153188072295
 20
7.354720962768339
 30
0.0
 10
9.501243573240767
 20
7.107453544913913
 30
0.0
 10
9.447270080515297
 20
6.732043004033524
 30
0.0
 10
9.445111331805894
 20
6.607943683149966
 30
0.0
 10
9.472789440891708
 20
6.361880396588824
 30
0.0
 10
9.502662225775573
 20
6.242535566859379
 30
0.0
 10
9.547165917302147
 20
6.130078845461997
 30
0.0
  0
SPLINE
  5
28D
330
1F
100
AcDbEntity
  8
SK3
  6
HIDDEN
370
    18
100
AcDbSpline
210
0.0
220
0.0
230
1.0
 70
    24
 71
     3
 72
     8
 73
     4
 74
     0
 42
0.000000001
 43
0.00000001
 40
0.0
 40
0.0
 40
0.0
 40
0.0
 40
0.5000000000000013
 40
0.5000000000000013
 40
0.5000000000000013
 40
0.5000000000000013
 10
3.199999999999981
 20
-22.41000000009841
 30
0.0
 10
3.277521727773361
 20
-22.4100000000981
 30
0.0
 10
3.353381647940898
 20
-22.4100000000978
 30
0.0
 10
3.41961260600801
 20
-22.41000000009756
 30
0.0
  0
SPLINE
  5
28E
330
1F
100
AcDbEntity
  8
SK3
  6
HIDDEN
370
    18
100
AcDbSpline
210
0.0
220
0.0
230
1.0
 70
    24
 71
     3
 72
     8
 73
     4
 74
     0
 42
0.000000001
 43
0.00000001
 40
0.5000000000000013
 40
0.5000000000000013
 40
0.5000000000000013
 40
0.5000000000000013
 40
0.7500000000000007
 40
0.7500000000000007
 40
0.7500000000000007
 40
0.7500000000000007
 10
3.41961260600801
 20
-22.41000000009756
 30
0.0
 10
3.452728085041573
 20
-22.41000000009756
 30
0.0
 10
3.483301361658572
 20
-22.41000000009756
 30
0.0
 10
3.506578077110967
 20
-22.41000000009756
 30
0.0
  0
SPLINE
  5
28F
330
1F
100
AcDbEntity
  8
SK3
  6
HIDDEN
370
    18
100
AcDbSpline
210
0.0
220
0.0
230
1.0
 70
    24
 71
     2
 72
     6
 73
     3
 74
     0
 42
0.000000001
 43
0.00000001
 40
0.7500000000000007
 40
0.7500000000000007
 40
0.7500000000000007
 40
1.0
 40
1.0
 40
1.0
 10
3.506578077110967
 20
-22.41000000009756
 30
0.0
 10
3.529854792563361
 20
-22.41000000003904
 30
0.0
 10
3.545388844998068
 20
-22.41
 30
0.0
  0
SPLINE
  5
290
330
1F
100
AcDbEntity
  8
SK3
  6
HIDDEN
370
    18
100
AcDbSpline
210
0.0
220
0.0
230
1.0
 70
     8
 71
     3
 72
    10
 73
     6
 74
     0
 42
0.000000001
 43
0.00000001
 40
0.0
 40
0.0
 40
0.0
 40
0.0
 40
0.5
 40
0.5
 40
1.0
 40
1.0
 40
1.0
 40
1.0
 10
18.70470837592285
 20
-23.15912025275681
 30
0.0
 10
18.66514338213327
 20
-23.10310107590328
 30
0.0
 10
18.62842911249969
 20
-23.0456224980794
 30
0.0
 10
18.57073957446638
 20
-22.92260791126142
 30
0.0
 10
18.54999999999998
 20
-22.85482658978051
 30
0.0
 10
18.54999999999998
 20
-22.78500000000002
 30
0.0
  0
SPLINE
  5
291
330
1F
100
AcDbEntity
  8
SK3
  6
HIDDEN
370
    18
100
AcDbSpline
210
0.0
220
0.0
230
1.0
 70
     8
 71
     3
 72
    10
 73
     6
 74
     0
 42
0.000000001
 43
0.00000001
 40
0.0
 40
0.0
 40
0.0
 40
0.0
 40
0.5
 40
0.5
 40
1.0
 40
1.0
 40
1.0
 40
1.0
 10
18.54999999999998
 20
25.20500000000003
 30
0.0
 10
18.55000000000001
 20
25.27446188700639
 30
0.0
 10
18.57033165532696
 20
25.3415787689919
 30
0.0
 10
18.62822537360675
 20
25.46534569655894
 30
0.0
 10
18.66502717471818
 20
25.52292618711535
 30
0.0
 10
18.70461115500192
 20
25.5789825871648
 30
0.0
  0
SPLINE
  5
292
330
1F
100
AcDbEntity
  8
SK3
  6
HIDDEN
370
    18
100
AcDbSpline
210
0.0
220
0.0
230
1.0
 70
     8
 71
     3
 72
    10
 73
     6
 74
     0
 42
0.000000001
 43
0.00000001
 40
0.0
 40
0.0
 40
0.0
 40
0.0
 40
0.5
 40
0.5
 40
1.0
 40
1.0
 40
1.0
 40
1.0
 10
3.545291624077131
 20
25.57912025275681
 30
0.0
 10
3.584856617866715
 20
25.52310107590326
 30
0.0
 10
3.62157088750026
 20
25.46562249807941
 30
0.0
 10
3.679260425533571
 20
25.3426079112614
 30
0.0
 10
3.699999999999967
 20
25.27482658978052
 30
0.0
 10
3.699999999999953
 20
25.20500000000003
 30
0.0
  0
SPLINE
  5
293
330
1F
100
AcDbEntity
  8
SK3
  6
HIDDEN
370
    18
100
AcDbSpline
210
0.0
220
0.0
230
1.0
 70
     8
 71
     3
 72
    40
 73
    36
 74
     0
 42
0.000000001
 43
0.00000001
 40
0.0
 40
0.0
 40
0.0
 40
0.0
 40
0.0126129321449749
 40
0.0314976481339587
 40
0.0629183966702574
 40
0.0880663439714092
 40
0.1258663548219046
 40
0.1545361786951767
 40
0.1972635113751502
 40
0.2185774264758776
 40
0.250549973449914
 40
0.2790323571745715
 40
0.3220275475257097
 40
0.3436168159336435
 40
0.3758133620275704
 40
0.4042898095068478
 40
0.4468993710431288
 40
0.4682109723921613
 40
0.5002437124696372
 40
0.528853388731771
 40
0.5719828275869605
 40
0.593442063717947
 40
0.6254916984483689
 40
0.6539107272569482
 40
0.6965262692674938
 40
0.7178823906336926
 40
0.7500313093276828
 40
0.7787800102949213
 40
0.8217645159397994
 40
0.8431483194632984
 40
0.8751517844153632
 40
0.9000181010942335
 40
0.937358773167723
 40
0.9685909586685477
 40
1.0
 40
1.0
 40
1.0
 40
1.0
 10
18.30000000000006
 20
-30.22558142012644
 30
0.0
 10
18.30272569594453
 20
-30.22556434752627
 30
0.0
 10
18.30953244086253
 20
-30.22552171297095
 30
0.0
 10
18.32312192068609
 20
-30.22500449703674
 30
0.0
 10
18.33938544977025
 20
-30.2237321465761
 30
0.0
 10
18.3596226382354
 20
-30.221174837236
 30
0.0
 10
18.37912342814689
 20
-30.21766990056754
 30
0.0
 10
18.40209059735815
 20
-30.21222207486888
 30
0.0
 10
18.42129623800889
 20
-30.20644931168886
 30
0.0
 10
18.44082755863405
 20
-30.19943885792772
 30
0.0
 10
18.45718998570678
 20
-30.19274290252151
 30
0.0
 10
18.47744321243871
 20
-30.18326307338968
 30
0.0
 10
18.49514777026512
 20
-30.17368149208102
 30
0.0
 10
18.51299887024303
 20
-30.16277896347599
 30
0.0
 10
18.52776206934
 20
-30.15285978975093
 30
0.0
 10
18.54566370706716
 20
-30.13951958199503
 30
0.0
 10
18.56098911735467
 20
-30.12669241147173
 30
0.0
 10
18.57619506813989
 20
-30.11259090122093
 30
0.0
 10
18.58867147382275
 20
-30.10000934793469
 30
0.0
 10
18.60368863236062
 20
-30.08334675455738
 30
0.0
 10
18.61632529126059
 20
-30.06764146706469
 30
0.0
 10
18.62858943392448
 20
-30.05073531892069
 30
0.0
 10
18.63838877637006
 20
-30.03598007669223
 30
0.0
 10
18.64984348721731
 20
-30.01686769647317
 30
0.0
 10
18.65917024991946
 20
-29.99919574996969
 30
0.0
 10
18.66796418712437
 20
-29.98037484052355
 30
0.0
 10
18.67483422118341
 20
-29.96397246361358
 30
0.0
 10
18.68255017034247
 20
-29.94288522109557
 30
0.0
 10
18.6884419336283
 20
-29.9236273901402
 30
0.0
 10
18.69357143260819
 20
-29.90344062129117
 30
0.0
 10
18.6970810184034
 20
-29.88689085311744
 30
0.0
 10
18.70046357426519
 20
-29.86681061568803
 30
0.0
 10
18.70287526281568
 20
-29.84675343612667
 30
0.0
 10
18.70443558087198
 20
-29.82519260420406
 30
0.0
 10
18.70461727324775
 20
-29.81165457438027
 30
0.0
 10
18.70470837592296
 20
-29.80486644841619
 30
0.0
  0
SPLINE
  5
294
330
1F
100
AcDbEntity
  8
1
  6
HIDDEN
370
    18
100
AcDbSpline
210
0.0
220
0.0
230
1.0
 70
     8
 71
     3
 72
     8
 73
     4
 74
     0
 42
0.000000001
 43
0.00000001
 40
0.0
 40
0.0
 40
0.0
 40
0.0
 40
1.0
 40
1.0
 40
1.0
 40
1.0
 10
14.37601294652262
 20
-30.22558142012644
 30
0.0
 10
13.92634047615435
 20
-29.41927694377226
 30
0.0
 10
13.47758735871729
 20
-28.6124760333539
 30
0.0
 10
13.03
 20
-27.80504563417289
 30
0.0
  0
SPLINE
  5
295
330
1F
100
AcDbEntity
  8
1
  6
HIDDEN
370
    18
100
AcDbSpline
210
0.0
220
0.0
230
1.0
 70
     8
 71
     3
 72
    10
 73
     6
 74
     0
 42
0.000000001
 43
0.00000001
 40
0.0
 40
0.0
 40
0.0
 40
0.0
 40
0.5
 40
0.5
 40
1.0
 40
1.0
 40
1.0
 40
1.0
 10
13.03000000000003
 20
-27.76916635406973
 30
0.0
 10
13.03000000000001
 20
-27.56948960726648
 30
0.0
 10
12.9530257332551
 20
-27.36838646497955
 30
0.0
 10
12.67905057581468
 20
-27.07630005005161
 30
0.0
 10
12.48172757240074
 20
-26.98706356756881
 30
0.0
 10
12.28
 20
-26.98706356756882
 30
0.0
  0
SPLINE
  5
296
330
1F
100
AcDbEntity
  8
1
  6
HIDDEN
370
    18
100
AcDbSpline
210
0.0
220
0.0
230
1.0
 70
     8
 71
     3
 72
    10
 73
     6
 74
     0
 42
0.000000001
 43
0.00000001
 40
0.0
 40
0.0
 40
0.0
 40
0.0
 40
0.5
 40
0.5
 40
1.0
 40
1.0
 40
1.0
 40
1.0
 10
9.95000000000065
 20
-26.98706356756944
 30
0.0
 10
9.74844149509153
 20
-26.98706356756928
 30
0.0
 10
9.550692481024244
 20
-27.07656444408195
 30
0.0
 10
9.27719688274714
 20
-27.36815866851928
 30
0.0
 10
9.200000000000152
 20
-27.569274984251
 30
0.0
 10
9.199999999999985
 20
-27.76916635406977
 30
0.0
  0
SPLINE
  5
297
330
1F
100
AcDbEntity
  8
1
  6
HIDDEN
370
    18
100
AcDbSpline
210
0.0
220
0.0
230
1.0
 70
     8
 71
     3
 72
     8
 73
     4
 74
     0
 42
0.000000001
 43
0.00000001
 40
0.0
 40
0.0
 40
0.0
 40
0.0
 40
1.0
 40
1.0
 40
1.0
 40
1.0
 10
9.199999999998877
 20
-27.80504563417606
 30
0.0
 10
8.752433371354604
 20
-28.61243863710176
 30
0.0
 10
8.303701091401383
 20
-29.41920220926471
 30
0.0
 10
7.85404953340614
 20
-30.22546938780228
 30
0.0
  0
SPLINE
  5
298
330
1F
100
AcDbEntity
  8
SK3
  6
HIDDEN
370
    18
100
AcDbSpline
210
0.0
220
0.0
230
1.0
 70
     8
 71
     3
 72
    40
 73
    36
 74
     0
 42
0.000000001
 43
0.00000001
 40
0.0
 40
0.0
 40
0.0
 40
0.0
 40
0.0314214559572178
 40
0.0627294389672004
 40
0.0877405066521895
 40
0.1252752326697184
 40
0.1539551384600108
 40
0.1970430837597873
 40
0.2184753360378477
 40
0.2505176110611737
 40
0.2789492345937391
 40
0.3216198597594042
 40
0.3430128235413673
 40
0.3752634384750793
 40
0.4040010771804458
 40
0.4468656794915723
 40
0.468215945936246
 40
0.5002096454814972
 40
0.528675413734447
 40
0.5715400247765458
 40
0.5931009716299191
 40
0.6253883780511656
 40
0.6539191343952843
 40
0.6965914244566831
 40
0.7179237821488444
 40
0.7499746494270431
 40
0.7785976316863417
 40
0.7958543398127828
 40
0.8217160693566459
 40
0.8431552865480468
 40
0.8751886732441888
 40
0.9000580147531506
 40
0.9373794059838182
 40
0.9685930788650364
 40
1.0
 40
1.0
 40
1.0
 40
1.0
 10
3.545388844996972
 20
-29.80485527420155
 30
0.0
 10
3.545480197135381
 20
-29.81164440520861
 30
0.0
 10
3.545662571510372
 20
-29.82519814949492
 30
0.0
 10
3.547032714046896
 20
-29.84411564286313
 30
0.0
 10
3.549278621227503
 20
-29.86427043795786
 30
0.0
 10
3.552383815069213
 20
-29.88374590039668
 30
0.0
 10
3.557241214189613
 20
-29.90686111791881
 30
0.0
 10
3.56243598846552
 20
-29.92633239392606
 30
0.0
 10
3.568780339238797
 20
-29.94620899181591
 30
0.0
 10
3.574836423905228
 20
-29.96284451017945
 30
0.0
 10
3.583406089825325
 20
-29.98342104192835
 30
0.0
 10
3.592077830421037
 20
-30.00144320563147
 30
0.0
 10
3.602002400646273
 20
-30.01973532130881
 30
0.0
 10
3.611129444211977
 20
-30.03502499592772
 30
0.0
 10
3.623520615641654
 20
-30.05373739733252
 30
0.0
 10
3.635525817110172
 20
-30.06985792745886
 30
0.0
 10
3.648757943677694
 20
-30.08589113400059
 30
0.0
 10
3.66057139317208
 20
-30.09904955418672
 30
0.0
 10
3.676259568084483
 20
-30.11493869793386
 30
0.0
 10
3.691152319419466
 20
-30.12841850148091
 30
0.0
 10
3.707345738384355
 20
-30.14162746303265
 30
0.0
 10
3.721611997070884
 20
-30.1522839988639
 30
0.0
 10
3.740164285063643
 20
-30.16477481501946
 30
0.0
 10
3.75737554968407
 20
-30.17498291258003
 30
0.0
 10
3.775753926809053
 20
-30.18462804605821
 30
0.0
 10
3.79179246129413
 20
-30.19217667946792
 30
0.0
 10
3.807369256512025
 20
-30.1985841292317
 30
0.0
 10
3.821916756260091
 20
-30.20393768674576
 30
0.0
 10
3.835173350441937
 20
-30.20828861199452
 30
0.0
 10
3.851657250142998
 20
-30.21299666641906
 30
0.0
 10
3.868130598975159
 20
-30.21692139734515
 30
0.0
 10
3.888137813528675
 20
-30.22070805124264
 30
0.0
 10
3.908147752578875
 20
-30.22341140281243
 30
0.0
 10
3.929683046762777
 20
-30.22516290854706
 30
0.0
 10
3.943213763576883
 20
-30.22536701808865
 30
0.0
 10
3.949999999998885
 20
-30.22546938780228
 30
0.0
  0
SPLINE
  5
299
330
1F
100
AcDbEntity
  8
SK3
  6
HIDDEN
370
    18
100
AcDbSpline
210
0.0
220
0.0
230
1.0
 70
     8
 71
     3
 72
    39
 73
    35
 74
     0
 42
0.000000001
 43
0.00000001
 40
0.0
 40
0.0
 40
0.0
 40
0.0
 40
0.0314091160307677
 40
0.062641375864154
 40
0.0875470935131889
 40
0.1248485138287462
 40
0.1532930400450872
 40
0.1960941157944515
 40
0.2176225947738144
 40
0.2499693772004302
 40
0.2785546285585205
 40
0.3212364873026964
 40
0.3425405354923894
 40
0.3745092858974103
 40
0.4029918411019262
 40
0.4459785689856202
 40
0.4675618916159423
 40
0.4997576608210476
 40
0.5282368343000382
 40
0.5708480092883969
 40
0.5921584935845849
 40
0.624188332845246
 40
0.6527986190299447
 40
0.6959401501309724
 40
0.7174023419155647
 40
0.7494519752642036
 40
0.7778741158300034
 40
0.8205144520917296
 40
0.8418962920619176
 40
0.8741359236783779
 40
0.8993502252909584
 40
0.9370840470446232
 40
0.9685048711195082
 40
1.0
 40
1.0
 40
1.0
 40
1.0
 10
18.70461115500203
 20
29.80485527419827
 30
0.0
 10
18.70452025144942
 20
29.81164171345385
 30
0.0
 10
18.7043389561974
 20
29.82517637936968
 30
0.0
 10
18.70297056619667
 20
29.84405190465712
 30
0.0
 10
18.70074103176618
 20
29.86411824570159
 30
0.0
 10
18.69766377514248
 20
29.88347227622581
 30
0.0
 10
18.69285822025326
 20
29.9064312484356
 30
0.0
 10
18.6877117743778
 20
29.92581971282425
 30
0.0
 10
18.68138591064228
 20
29.94572790966325
 30
0.0
 10
18.6753070430736
 20
29.96248267210259
 30
0.0
 10
18.6667122239519
 20
29.98315850998395
 30
0.0
 10
18.65804498468776
 20
30.00120090567663
 30
0.0
 10
18.64816898127236
 20
30.0194308110765
 30
0.0
 10
18.6391259878666
 20
30.03461278108224
 30
0.0
 10
18.62681037274124
 20
30.05326734966761
 30
0.0
 10
18.61481562184566
 20
30.0694226175988
 30
0.0
 10
18.60152603092411
 20
30.08556438898109
 30
0.0
 10
18.58965984265963
 20
30.09880574838228
 30
0.0
 10
18.57398746850279
 20
30.11469877887869
 30
0.0
 10
18.55918618111311
 20
30.12812096686809
 30
0.0
 10
18.5431379107356
 20
30.14124723286363
 30
0.0
 10
18.52896425933555
 20
30.15187245989084
 30
0.0
 10
18.51038407954445
 20
30.16443427377514
 30
0.0
 10
18.49306028314308
 20
30.17474090541244
 30
0.0
 10
18.47457768707378
 20
30.18446497823757
 30
0.0
 10
18.45855895706398
 20
30.19201976729602
 30
0.0
 10
18.43796004437191
 20
30.20051935318397
 30
0.0
 10
18.41906612592657
 20
30.20705284128373
 30
0.0
 10
18.39907752149928
 20
30.21280585013027
 30
0.0
 10
18.38250765201564
 20
30.21678677988688
 30
0.0
 10
18.36230136175012
 20
30.22064109222356
 30
0.0
 10
18.34208698503431
 20
30.2233898561806
 30
0.0
 10
18.32039969464304
 20
30.22516034748688
 30
0.0
 10
18.30680524997083
 20
30.22536629328656
 30
0.0
 10
18.30000000000006
 20
30.22546938779913
 30
0.0
  0
SPLINE
  5
29A
330
1F
100
AcDbEntity
  8
SK3
  6
HIDDEN
370
    18
100
AcDbSpline
210
0.0
220
0.0
230
1.0
 70
     8
 71
     3
 72
    40
 73
    36
 74
     0
 42
0.000000001
 43
0.00000001
 40
0.0
 40
0.0
 40
0.0
 40
0.0
 40
0.0125929119920799
 40
0.0314096195346371
 40
0.0626234169499144
 40
0.0875147363747578
 40
0.1248144128307291
 40
0.1532834083387329
 40
0.1962265830891804
 40
0.2178107992109905
 40
0.2500224951329297
 40
0.2785169301551935
 40
0.3211718523043735
 40
0.3425182663517212
 40
0.3746092478105252
 40
0.4033018002026009
 40
0.4463503818994297
 40
0.4677602234265738
 40
0.4997883410590129
 40
0.5282270395863776
 40
0.5709521530205359
 40
0.592413861861735
 40
0.6247350591047609
 40
0.6534144483970886
 40
0.696168319941901
 40
0.717496931450338
 40
0.7494813527194164
 40
0.7779588669976948
 40
0.8208766717687338
 40
0.8424514691504659
 40
0.8747242821794735
 40
0.8997563983109476
 40
0.9372703102803513
 40
0.9685784185325865
 40
1.0
 40
1.0
 40
1.0
 40
1.0
 10
3.949999999999995
 20
30.22558142012639
 30
0.0
 10
3.947278630487591
 20
30.22556441746847
 30
0.0
 10
3.940490908866765
 20
30.22552200892813
 30
0.0
 10
3.926965088488721
 20
30.22500878447085
 30
0.0
 10
3.910815897791756
 20
30.22374990827881
 30
0.0
 10
3.890783626647174
 20
30.22123374888838
 30
0.0
 10
3.871482565347209
 20
30.21779055348815
 30
0.0
 10
3.848607405882318
 20
30.21241015713828
 30
0.0
 10
3.829331319368884
 20
30.20665667098931
 30
0.0
 10
3.809642218453937
 20
30.19962160064928
 30
0.0
 10
3.793167806815503
 20
30.19290122073893
 30
0.0
 10
3.77292448229817
 20
30.18344563237709
 30
0.0
 10
3.755317616591661
 20
30.17394373601331
 30
0.0
 10
3.737577171360709
 20
30.16314575471339
 30
0.0
 10
3.72281897885883
 20
30.1532706464055
 30
0.0
 10
3.704798099920054
 20
30.13989144466212
 30
0.0
 10
3.689332466278727
 20
30.12697740010818
 30
0.0
 10
3.67402969977064
 20
30.11281096127925
 30
0.0
 10
3.661557220132547
 20
30.10024903998078
 30
0.0
 10
3.646609511589669
 20
30.08369276015743
 30
0.0
 10
3.63403051437268
 20
30.06810049270645
 30
0.0
 10
3.621756928744918
 20
30.0512360070818
 30
0.0
 10
3.611872616558015
 20
30.03639837328909
 30
0.0
 10
3.600324644432412
 20
30.01717281850422
 30
0.0
 10
3.590949392450388
 20
29.99943559548712
 30
0.0
 10
3.582148995017326
 20
29.98063051707892
 30
0.0
 10
3.575306871630851
 20
29.96432508828282
 30
0.0
 10
3.567606450656874
 20
29.94334796470473
 30
0.0
 10
3.56169901169065
 20
29.92412819400953
 30
0.0
 10
3.556524840089351
 20
29.9038649584692
 30
0.0
 10
3.552972986099523
 20
29.88718562683121
 30
0.0
 10
3.549559886390233
 20
29.86697716337638
 30
0.0
 10
3.547128888650067
 20
29.84683182165025
 30
0.0
 10
3.545565946831239
 20
29.82521437831678
 30
0.0
 10
3.545383175201811
 20
29.81165726630967
 30
0.0
 10
3.545291624077129
 20
29.80486644841629
 30
0.0
  0
SPLINE
  5
29B
330
1F
100
AcDbEntity
  8
1
  6
HIDDEN
370
    18
100
AcDbSpline
210
0.0
220
0.0
230
1.0
 70
     8
 71
     3
 72
     8
 73
     4
 74
     0
 42
0.000000001
 43
0.00000001
 40
0.0
 40
0.0
 40
0.0
 40
0.0
 40
1.0
 40
1.0
 40
1.0
 40
1.0
 10
9.199999999999985
 20
27.80504563417289
 30
0.0
 10
8.752403481898915
 20
28.61249255653032
 30
0.0
 10
8.303650620483646
 20
29.41929290832669
 30
0.0
 10
7.853987053477368
 20
30.22558142012641
 30
0.0
  0
SPLINE
  5
29C
330
1F
100
AcDbEntity
  8
1
  6
HIDDEN
370
    18
100
AcDbSpline
210
0.0
220
0.0
230
1.0
 70
     8
 71
     3
 72
    12
 73
     8
 74
     0
 42
0.000000001
 43
0.00000001
 40
0.0
 40
0.0
 40
0.0
 40
0.0
 40
0.2499999999999984
 40
0.2499999999999984
 40
0.4999999999999969
 40
0.4999999999999969
 40
1.0
 40
1.0
 40
1.0
 40
1.0
 10
9.94999999999999
 20
26.98706356756881
 30
0.0
 10
9.850149452042896
 20
26.98706356756881
 30
0.0
 10
9.74813420942808
 20
27.00887348025308
 30
0.0
 10
9.565410104204547
 20
27.08989258317071
 30
0.0
 10
9.481984824368908
 20
27.14976438531446
 30
0.0
 10
9.277274567403378
 20
27.36818499553367
 30
0.0
 10
9.199999999999987
 20
27.56879736260814
 30
0.0
 10
9.199999999999985
 20
27.76916635406976
 30
0.0
  0
SPLINE
  5
29D
330
1F
100
AcDbEntity
  8
1
  6
HIDDEN
370
    18
100
AcDbSpline
210
0.0
220
0.0
230
1.0
 70
     8
 71
     3
 72
    12
 73
     8
 74
     0
 42
0.000000001
 43
0.00000001
 40
0.0
 40
0.0
 40
0.0
 40
0.0
 40
0.2500000000000007
 40
0.2500000000000007
 40
0.5000000000000014
 40
0.5000000000000014
 40
1.0
 40
1.0
 40
1.0
 40
1.0
 10
13.03
 20
27.76916635406975
 30
0.0
 10
13.03
 20
27.66900663339824
 30
0.0
 10
13.01145353522914
 20
27.56910146598283
 30
0.0
 10
12.93858199206008
 20
27.38178244661977
 30
0.0
 10
12.88523035542459
 20
27.29613295246496
 30
0.0
 10
12.67790477657021
 20
27.0750315281501
 30
0.0
 10
12.47994383972982
 20
26.98706356756882
 30
0.0
 10
12.28
 20
26.9870635675688
 30
0.0
  0
SPLINE
  5
29E
330
1F
100
AcDbEntity
  8
1
  6
HIDDEN
370
    18
100
AcDbSpline
210
0.0
220
0.0
230
1.0
 70
     8
 71
     3
 72
     8
 73
     4
 74
     0
 42
0.000000001
 43
0.00000001
 40
0.0
 40
0.0
 40
0.0
 40
0.0
 40
1.0
 40
1.0
 40
1.0
 40
1.0
 10
14.37595046659275
 20
30.22546938779913
 30
0.0
 10
13.92630781119526
 20
29.41921817244963
 30
0.0
 10
13.47757578719339
 20
28.61245515876933
 30
0.0
 10
13.03
 20
27.8050456341729
 30
0.0
  0
SPLINE
  5
29F
330
1F
100
AcDbEntity
  8
SK3
  6
HIDDEN
370
    18
100
AcDbSpline
210
0.0
220
0.0
230
1.0
 70
     8
 71
     3
 72
    16
 73
    12
 74
     0
 42
0.000000001
 43
0.00000001
 40
0.0
 40
0.0
 40
0.0
 40
0.0
 40
0.1249999999999999
 40
0.1249999999999999
 40
0.2499999999999998
 40
0.2499999999999998
 40
0.4999999999999999
 40
0.4999999999999999
 40
0.75
 40
0.75
 40
1.0
 40
1.0
 40
1.0
 40
1.0
 10
9.199999999999985
 20
9.303788769563386
 30
0.0
 10
9.199999999999985
 20
9.280761531707885
 30
0.0
 10
9.209309779240199
 20
9.232007419477169
 30
0.0
 10
9.236285539089922
 20
9.125870295800746
 30
0.0
 10
9.253818395994054
 20
9.06835620401996
 30
0.0
 10
9.314732612350829
 20
8.895643978115874
 30
0.0
 10
9.367586350542439
 20
8.777272110505697
 30
0.0
 10
9.493923269647542
 20
8.55335504204225
 30
0.0
 10
9.568606186754744
 20
8.445006358140105
 30
0.0
 10
9.743190718990297
 20
8.24524482669084
 30
0.0
 10
9.840260492227248
 20
8.156535605592415
 30
0.0
 10
9.949999999999987
 20
8.082527102484686
 30
0.0
  0
SPLINE
  5
2A0
330
1F
100
AcDbEntity
  8
SK3
  6
HIDDEN
370
    18
100
AcDbSpline
210
0.0
220
0.0
230
1.0
 70
     8
 71
     3
 72
    18
 73
    14
 74
     0
 42
0.000000001
 43
0.00000001
 40
0.0
 40
0.0
 40
0.0
 40
0.0
 40
0.2500000000000007
 40
0.2500000000000007
 40
0.5000000000000014
 40
0.5000000000000014
 40
0.7500000000000022
 40
0.7500000000000022
 40
0.8750000000000014
 40
0.8750000000000014
 40
0.9375000000000007
 40
0.9375000000000007
 40
1.0
 40
1.0
 40
1.0
 40
1.0
 10
12.28
 20
8.103155772047108
 30
0.0
 10
12.39154339480306
 20
8.18134954343691
 30
0.0
 10
12.49076613158666
 20
8.275845749096934
 30
0.0
 10
12.66653346245911
 20
8.486474114480925
 30
0.0
 10
12.74028542340613
 20
8.59906571416616
 30
0.0
 10
12.86605076853516
 20
8.835534986684726
 30
0.0
 10
12.91749996660363
 20
8.959279471945518
 30
0.0
 10
12.97688531868163
 20
9.14283182516222
 30
0.0
 10
12.99394905986488
 20
9.204558663820743
 30
0.0
 10
13.01360803438727
 20
9.290027034787395
 30
0.0
 10
13.01926149413285
 20
9.317714122407228
 30
0.0
 10
13.02752275857842
 20
9.366286389052805
 30
0.0
 10
13.03
 20
9.386716138875457
 30
0.0
 10
13.03
 20
9.398437513083204
 30
0.0
  0
SPLINE
  5
2A1
330
1F
100
AcDbEntity
  8
SK3
  6
HIDDEN
370
    18
100
AcDbSpline
210
0.0
220
0.0
230
1.0
 70
     8
 71
     3
 72
    18
 73
    14
 74
     0
 42
0.000000001
 43
0.00000001
 40
0.0
 40
0.0
 40
0.0
 40
0.0
 40
0.0625000000000009
 40
0.0625000000000009
 40
0.1250000000000017
 40
0.1250000000000017
 40
0.2500000000000019
 40
0.2500000000000019
 40
0.5000000000000012
 40
0.5000000000000012
 40
0.7500000000000007
 40
0.7500000000000007
 40
1.0
 40
1.0
 40
1.0
 40
1.0
 10
13.02999999999999
 20
10.38417462438833
 30
0.0
 10
13.02999999999999
 20
10.372411200402
 30
0.0
 10
13.02749489038111
 20
10.3693867950959
 30
0.0
 10
13.01920268672194
 20
10.37536927720196
 30
0.0
 10
13.01359186100895
 20
10.38360736575742
 30
0.0
 10
12.99361738711072
 20
10.41560030302727
 30
0.0
 10
12.9766886516919
 20
10.4454332222825
 30
0.0
 10
12.91737158574147
 20
10.54090443328279
 30
0.0
 10
12.86564177103879
 20
10.6144598570172
 30
0.0
 10
12.74049543384619
 20
10.76120518468433
 30
0.0
 10
12.66639130892092
 20
10.83623705695026
 30
0.0
 10
12.49025684705968
 20
10.98857400791363
 30
0.0
 10
12.39180028213034
 20
11.06283357178406
 30
0.0
 10
12.27999999999999
 20
11.13799925726246
 30
0.0
  0
SPLINE
  5
2A2
330
1F
100
AcDbEntity
  8
SK3
  6
HIDDEN
370
    18
100
AcDbSpline
210
0.0
220
0.0
230
1.0
 70
     8
 71
     3
 72
    16
 73
    12
 74
     0
 42
0.000000001
 43
0.00000001
 40
0.0
 40
0.0
 40
0.0
 40
0.0
 40
0.2499999999999987
 40
0.2499999999999987
 40
0.4999999999999973
 40
0.4999999999999973
 40
0.749999999999996
 40
0.749999999999996
 40
0.874999999999998
 40
0.874999999999998
 40
1.0
 40
1.0
 40
1.0
 40
1.0
 10
9.949999999999973
 20
11.15777798540496
 30
0.0
 10
9.840493351281024
 20
11.08698911899253
 30
0.0
 10
9.742786160772148
 20
11.01664378906014
 30
0.0
 10
9.56784038258937
 20
10.87358670269526
 30
0.0
 10
9.493988254027212
 20
10.8037445880308
 30
0.0
 10
9.3671150493497
 20
10.66727422246762
 30
0.0
 10
9.31452396506878
 20
10.60005352016952
 30
0.0
 10
9.253446937618357
 20
10.51641621800044
 30
0.0
 10
9.2358933031233
 20
10.49108310407083
 30
0.0
 10
9.209102989072363
 20
10.45967309436366
 30
0.0
 10
9.199999999999958
 20
10.45461887804601
 30
0.0
 10
9.199999999999958
 20
10.47746447674695
 30
0.0
  0
SPLINE
  5
2A3
330
1F
100
AcDbEntity
  8
SK3
  6
HIDDEN
370
    18
100
AcDbSpline
210
0.0
220
0.0
230
1.0
 70
     8
 71
     3
 72
    34
 73
    30
 74
     0
 42
0.000000001
 43
0.00000001
 40
0.4999999999999964
 40
0.4999999999999964
 40
0.4999999999999964
 40
0.4999999999999964
 40
0.5624999999999961
 40
0.5624999999999961
 40
0.5937499999999962
 40
0.5937499999999962
 40
0.6249999999999963
 40
0.6249999999999963
 40
0.6562499999999964
 40
0.6562499999999964
 40
0.6874999999999966
 40
0.6874999999999966
 40
0.7499999999999971
 40
0.7499999999999971
 40
0.7812499999999974
 40
0.7812499999999974
 40
0.8124999999999978
 40
0.8124999999999978
 40
0.8437499999999982
 40
0.8437499999999982
 40
0.8749999999999986
 40
0.8749999999999986
 40
0.9062499999999989
 40
0.9062499999999989
 40
0.9374999999999992
 40
0.9374999999999992
 40
0.9687499999999997
 40
0.9687499999999997
 40
1.0
 40
1.0
 40
1.0
 40
1.0
 10
10.43489457346451
 20
9.192707275454424
 30
0.0
 10
10.57763203931583
 20
9.178391047657621
 30
0.0
 10
10.73072898252596
 20
9.148788373493296
 30
0.0
 10
11.00846457422353
 20
9.07984816114555
 30
0.0
 10
11.10872720463396
 20
9.052921739824749
 30
0.0
 10
11.33151412887493
 20
8.987194762961337
 30
0.0
 10
11.4528847494719
 20
8.948740399015172
 30
0.0
 10
11.69975803299394
 20
8.855687905200394
 30
0.0
 10
11.82369929941915
 20
8.801033903627436
 30
0.0
 10
12.05254486308012
 20
8.67406723807662
 30
0.0
 10
12.15835137945199
 20
8.60164714915867
 30
0.0
 10
12.44326053814743
 20
8.354209612853907
 30
0.0
 10
12.58579742123002
 20
8.151094935723822
 30
0.0
 10
12.7089524147273
 20
7.809142101035414
 30
0.0
 10
12.73535560308829
 20
7.687003589969613
 30
0.0
 10
12.75526974501039
 20
7.441164323332049
 30
0.0
 10
12.7493751338236
 20
7.315281863556504
 30
0.0
 10
12.70533810945411
 20
7.06394119363997
 30
0.0
 10
12.66802095968714
 20
6.941631000096427
 30
0.0
 10
12.56344952904384
 20
6.70417974939401
 30
0.0
 10
12.49625932456626
 20
6.590217548379684
 30
0.0
 10
12.3380944679418
 20
6.382378293731277
 30
0.0
 10
12.24493473983122
 20
6.285873995051205
 30
0.0
 10
12.04054915126637
 20
6.12215655334418
 30
0.0
 10
11.9293214784509
 20
6.054026580940134
 30
0.0
 10
11.68736550523704
 20
5.952992896783499
 30
0.0
 10
11.56181201416266
 20
5.923411177353254
 30
0.0
 10
11.31821027169286
 20
5.909336941584408
 30
0.0
 10
11.20410590689121
 20
5.924577191512063
 30
0.0
 10
11.09999999999999
 20
5.953410618658249
 30
0.0
  0
SPLINE
  5
2A4
330
1F
100
AcDbEntity
  8
SK3
  6
HIDDEN
370
    18
100
AcDbSpline
210
0.0
220
0.0
230
1.0
 70
     8
 71
     3
 72
    32
 73
    28
 74
     0
 42
0.000000001
 43
0.00000001
 40
0.0
 40
0.0
 40
0.0
 40
0.0
 40
0.0312499999999998
 40
0.0312499999999998
 40
0.0624999999999996
 40
0.0624999999999996
 40
0.1249999999999991
 40
0.1249999999999991
 40
0.1874999999999986
 40
0.1874999999999986
 40
0.2187499999999983
 40
0.2187499999999983
 40
0.2499999999999979
 40
0.2499999999999979
 40
0.2812499999999978
 40
0.2812499999999978
 40
0.3124999999999976
 40
0.3124999999999976
 40
0.3437499999999974
 40
0.3437499999999974
 40
0.3749999999999972
 40
0.3749999999999972
 40
0.406249999999997
 40
0.406249999999997
 40
0.4374999999999968
 40
0.4374999999999968
 40
0.4999999999999964
 40
0.4999999999999964
 40
0.4999999999999964
 40
0.4999999999999964
 10
11.09999999999999
 20
5.953410618658249
 30
0.0
 10
10.99589409310876
 20
5.982244045804435
 30
0.0
 10
10.90407857642196
 20
6.02310328637358
 30
0.0
 10
10.73262137377525
 20
6.11824072587281
 30
0.0
 10
10.65318813797003
 20
6.172784121821914
 30
0.0
 10
10.42547236553633
 20
6.352355611395091
 30
0.0
 10
10.29042057236912
 20
6.490344336420442
 30
0.0
 10
10.03758703563626
 20
6.798492095359341
 30
0.0
 10
9.919813607757927
 20
6.968691620995671
 30
0.0
 10
9.755188160048098
 20
7.264657280293574
 30
0.0
 10
9.702965925809062
 20
7.369529169307637
 30
0.0
 10
9.60819688830053
 20
7.590905988961227
 30
0.0
 10
9.564891013149543
 20
7.708630023759016
 30
0.0
 10
9.49358862725347
 20
7.962877344356849
 30
0.0
 10
9.466892276768446
 20
8.097433676092711
 30
0.0
 10
9.444811777617273
 20
8.35746663645976
 30
0.0
 10
9.450063840888214
 20
8.483405619809336
 30
0.0
 10
9.490124926315833
 20
8.69644691367029
 30
0.0
 10
9.523244242074124
 20
8.782864284801864
 30
0.0
 10
9.604247903804625
 20
8.925144266749472
 30
0.0
 10
9.65074356746913
 20
8.979230676614131
 30
0.0
 10
9.751569607309593
 20
9.067142795898931
 30
0.0
 10
9.806244160784559
 20
9.100654189155025
 30
0.0
 10
9.919291731587856
 20
9.151642126956093
 30
0.0
 10
9.97803823187328
 20
9.169399205425435
 30
0.0
 10
10.16095206270196
 20
9.205547608603668
 30
0.0
 10
10.29215710761321
 20
9.207023503251227
 30
0.0
 10
10.43489457346451
 20
9.192707275454424
 30
0.0
  0
SPLINE
  5
2A5
330
1F
100
AcDbEntity
  8
SK3
  6
HIDDEN
370
    18
100
AcDbSpline
210
0.0
220
0.0
230
1.0
 70
     8
 71
     3
 72
    12
 73
     8
 74
     0
 42
0.000000001
 43
0.00000001
 40
0.0
 40
0.0
 40
0.0
 40
0.0
 40
0.25
 40
0.25
 40
0.5
 40
0.5
 40
1.0
 40
1.0
 40
1.0
 40
1.0
 10
12.27999999999999
 20
11.13799925726246
 30
0.0
 10
12.11125565653781
 20
11.25144963507229
 30
0.0
 10
11.92801760594606
 20
11.3379466854918
 30
0.0
 10
11.53284005751184
 20
11.45825687335294
 30
0.0
 10
11.327741903865
 20
11.48947964384769
 30
0.0
 10
10.70517895587086
 20
11.49524154214283
 30
0.0
 10
10.29199014189866
 20
11.37885218274775
 30
0.0
 10
9.949999999999973
 20
11.15777798540496
 30
0.0
  0
SPLINE
  5
2A6
330
1F
100
AcDbEntity
  8
SK3
  6
HIDDEN
370
    18
100
AcDbSpline
210
0.0
220
0.0
230
1.0
 70
     8
 71
     3
 72
    14
 73
    10
 74
     0
 42
0.000000001
 43
0.00000001
 40
0.0
 40
0.0
 40
0.0
 40
0.0
 40
0.25
 40
0.25
 40
0.5
 40
0.5
 40
0.75
 40
0.75
 40
1.0
 40
1.0
 40
1.0
 40
1.0
 10
13.03
 20
9.4102211175002
 30
0.0
 10
13.05182784069894
 20
9.499127546579674
 30
0.0
 10
13.06930451588748
 20
9.588740564852793
 30
0.0
 10
13.09355241467167
 20
9.769704487550385
 30
0.0
 10
13.0999641373839
 20
9.859921097983786
 30
0.0
 10
13.10003555457992
 20
10.03096768473382
 30
0.0
 10
13.09360869858515
 20
10.11404446054865
 30
0.0
 10
13.0695303199543
 20
10.26472906509776
 30
0.0
 10
13.05190366619463
 20
10.33369721829471
 30
0.0
 10
13.02999999999999
 20
10.39595822880533
 30
0.0
  0
SPLINE
  5
2A7
330
1F
100
AcDbEntity
  8
SK3
  6
HIDDEN
370
    18
100
AcDbSpline
210
0.0
220
0.0
230
1.0
 70
     8
 71
     3
 72
    12
 73
     8
 74
     0
 42
0.000000001
 43
0.00000001
 40
0.0
 40
0.0
 40
0.0
 40
0.0
 40
0.2500000000000008
 40
0.2500000000000008
 40
0.5000000000000012
 40
0.5000000000000012
 40
1.0
 40
1.0
 40
1.0
 40
1.0
 10
9.949999999999987
 20
8.082527102484686
 30
0.0
 10
10.1209934826938
 20
7.967208818739892
 30
0.0
 10
10.30594493731545
 20
7.879731262869651
 30
0.0
 10
10.70348914958043
 20
7.760383553083422
 30
0.0
 10
10.9091834364138
 20
7.731119116156441
 30
0.0
 10
11.53176214943039
 20
7.736133742822691
 30
0.0
 10
11.94250893135798
 20
7.866568930539517
 30
0.0
 10
12.28
 20
8.103155772047108
 30
0.0
  0
SPLINE
  5
2A8
330
1F
100
AcDbEntity
  8
SK3
  6
HIDDEN
370
    18
100
AcDbSpline
210
0.0
220
0.0
230
1.0
 70
     8
 71
     3
 72
    14
 73
    10
 74
     0
 42
0.000000001
 43
0.00000001
 40
0.0
 40
0.0
 40
0.0
 40
0.0
 40
0.25
 40
0.25
 40
0.5
 40
0.5
 40
0.75
 40
0.75
 40
1.0
 40
1.0
 40
1.0
 40
1.0
 10
9.199999999999958
 20
10.48924888968603
 30
0.0
 10
9.169610391133052
 20
10.42105537394625
 30
0.0
 10
9.144652419510319
 20
10.34409709357478
 30
0.0
 10
9.109411114929966
 20
10.16642137037779
 30
0.0
 10
9.100075894725224
 20
10.06977207930072
 30
0.0
 10
9.099925023949906
 20
9.860682723735719
 30
0.0
 10
9.109375914768888
 20
9.750504302607016
 30
0.0
 10
9.144272722663855
 20
9.530820347913812
 30
0.0
 10
9.169555752624223
 20
9.421334443378289
 30
0.0
 10
9.199999999999985
 20
9.315573182502506
 30
0.0
  0
ELLIPSE
  5
2A9
330
1F
100
AcDbEntity
  8
1
  6
Continuous
370
    25
100
AcDbEllipse
 10
139.7
 20
25.2181580614
 30
0.0
 11
12.69999999999999
 21
-7.105427357601002E-15
 31
0.0
210
0.0
220
0.0
230
1.0
 40
0.7102066778
 41
3.972336652064627
 42
4.626540276536462
  0
ELLIPSE
  5
2AA
330
1F
100
AcDbEntity
  8
1
  6
Continuous
370
    25
100
AcDbEllipse
 10
139.7
 20
-25.2181580614
 30
0.0
 11
12.69999999999999
 21
0.0
 31
0.0
210
0.0
220
0.0
230
1.0
 40
0.7102066778
 41
1.656645030643265
 42
2.310848655114978
  0
DIMENSION
  5
2AB
330
1F
100
AcDbEntity
  8
SK2
100
AcDbDimension
  2
_D
 10
-88.2136162028
 20
-22.225
 30
0.0
 11
-88.2136162028
 21
-0.8028614953
 31
0.0
 70
   160
  1
%%c<>
 71
     2
 42
-1.0
  3
SLDDIMSTYLE0
100
AcDbAlignedDimension
 13
0.0
 23
22.225
 33
0.0
 14
0.0
 24
-22.225
 34
0.0
 50
90.0
100
AcDbRotatedDimension
  0
DIMENSION
  5
2B8
330
1F
100
AcDbEntity
  8
SK2
100
AcDbDimension
  2
_D_1
 10
-75.6400401745
 20
7.9375
 30
0.0
 11
-75.6400401745
 21
0.8091354314
 31
0.0
 70
   160
  1
3/8 - 11 UNC
 71
     2
 42
-1.0
  3
SLDDIMSTYLE1
100
AcDbAlignedDimension
 13
-63.3082382949
 23
-7.9375
 33
0.0
 14
-63.3082382949
 24
7.9375
 34
0.0
 50
90.0
100
AcDbRotatedDimension
  0
DIMENSION
  5
2C6
330
1F
100
AcDbEntity
  8
SK2
100
AcDbDimension
  2
_D_2
 10
-99.0243052543
 20
-30.5579086614
 30
0.0
 11
-99.0243052543
 21
-0.8028614953
 31
0.0
 70
   160
  1
%%c<>
 71
     2
 42
-1.0
  3
SLDDIMSTYLE0
100
AcDbAlignedDimension
 13
3.95
 23
30.5578899967
 33
0.0
 14
3.95
 24
-30.5579086614
 34
0.0
 50
90.0
100
AcDbRotatedDimension
  0
DIMENSION
  5
2D1
330
1F
100
AcDbEntity
  8
SK2
100
AcDbDimension
  2
_D_3
 10
19.05
 20
38.9133375225
 30
0.0
 11
9.721752027
 21
38.9133375225
 31
0.0
 70
   160
  1
<>
 71
     2
 42
-1.0
  3
SLDDIMSTYLE0
100
AcDbAlignedDimension
 13
0.0
 23
22.225
 33
0.0
 14
19.05
 24
29.8048664484
 34
0.0
100
AcDbRotatedDimension
  0
DIMENSION
  5
2DB
330
1F
100
AcDbEntity
  8
SK2
100
AcDbDimension
  2
_D_4
 10
35.05
 20
52.3286228461
 30
0.0
 11
18.0493813052
 21
52.3286228461
 31
0.0
 70
   160
  1
<>
 71
     2
 42
-1.0
  3
SLDDIMSTYLE2
100
AcDbAlignedDimension
 13
0.0
 23
22.225
 33
0.0
 14
35.05
 24
28.125
 34
0.0
100
AcDbRotatedDimension
  0
DIMENSION
  5
2EF
330
1F
100
AcDbEntity
  8
SK2
100
AcDbDimension
  2
_D_5
 10
152.4
 20
52.3286228461
 30
0.0
 11
92.8569924035
 21
52.3286228461
 31
0.0
 70
   160
  1
<>
 71
     2
 42
-1.0
  3
SLDDIMSTYLE2
100
AcDbAlignedDimension
 13
35.05
 23
28.125
 33
0.0
 14
152.4
 24
26.5
 34
0.0
100
AcDbRotatedDimension
  0
DIMENSION
  5
302
330
1F
100
AcDbEntity
  8
2
100
AcDbDimension
  2
_D_6
 10
152.4
 20
66.3351655111
 30
0.0
 11
74.6057864356
 21
66.3351655111
 31
0.0
 70
   160
  1
<>
 71
     2
 42
-1.0
  3
SLDDIMSTYLE2
100
AcDbAlignedDimension
 13
0.0
 23
22.225
 33
0.0
 14
152.4
 24
26.5
 34
0.0
 50
0.0
100
AcDbRotatedDimension
  0
DIMENSION
  5
315
330
1F
100
AcDbEntity
  8
SK2
100
AcDbDimension
  2
_D_7
 10
190.7188238759
 20
-31.5
 30
0.0
 11
190.7188238759
 21
-0.4399356956
 31
0.0
 70
   160
  1
%%c<>
 71
     2
 42
-1.0
  3
SLDDIMSTYLE2
100
AcDbAlignedDimension
 13
130.945776356
 23
31.5
 33
0.0
 14
130.945776356
 24
-31.5
 34
0.0
 50
90.0
100
AcDbRotatedDimension
  0
DIMENSION
  5
327
330
1F
100
AcDbEntity
  8
SK2
100
AcDbDimension
  2
_D_8
 10
152.4
 20
38.9133375225
 30
0.0
 11
139.7630752765
 21
38.9133375225
 31
0.0
 70
   160
  1
<>
 71
     2
 42
-1.0
  3
SLDDIMSTYLE2
100
AcDbAlignedDimension
 13
126.9
 23
30.5
 33
0.0
 14
152.4
 24
26.5
 34
0.0
100
AcDbRotatedDimension
  0
DIMENSION
  5
33A
330
1F
100
AcDbEntity
  8
SK2
100
AcDbDimension
  2
_D_9
 10
169.998187345
 20
19.9948176968
 30
0.0
 11
169.998187345
 21
-0.4399356956
 31
0.0
 70
   160
  1
%%c<>
 71
     2
 42
-1.0
  3
SLDDIMSTYLE3
100
AcDbAlignedDimension
 13
136.539173101
 23
-19.9948176968
 33
0.0
 14
136.539173101
 24
19.9948176968
 34
0.0
 50
90.0
100
AcDbRotatedDimension
  0
DIMENSION
  5
34D
330
1F
100
AcDbEntity
  8
SK2
100
AcDbDimension
  2
_D_10
 10
137.4
 20
-46.6410201398
 30
0.0
 11
68.1626155717
 21
-46.6410201398
 31
0.0
 70
   160
  1
<>
 71
     2
 42
-1.0
  3
SLDDIMSTYLE2
100
AcDbAlignedDimension
 13
0.0
 23
-22.225
 33
0.0
 14
137.4
 24
-20.9851312608
 34
0.0
100
AcDbRotatedDimension
  0
DIMENSION
  5
360
330
1F
100
AcDbEntity
  8
SK2
100
AcDbDimension
  2
_D_11
 10
152.4
 20
-60.6561756084
 30
0.0
 11
42.312553522
 21
-60.6561756084
 31
0.0
 70
   160
  1
<>
 71
     2
 42
-1.0
  3
SLDDIMSTYLE2
100
AcDbAlignedDimension
 13
-68.25
 23
-11.1476148288
 33
0.0
 14
152.4
 24
-26.5
 34
0.0
 50
0.0
100
AcDbRotatedDimension
  0
MTEXT
  5
373
330
1F
100
AcDbEntity
  8
SK6
 62
     5
100
AcDbMText
 10
-45.1392859038
 20
42.3993801893
 30
0.0
 40
3.5
 41
0.0
 71
     1
 72
     1
  1
ASME B5.50 CAT 40
  7
SLDTEXTSTYLE0
 73
     1
 44
1.0
  0
MTEXT
  5
374
330
1F
100
AcDbEntity
  8
SK6
 62
     5
100
AcDbMText
 10
-66.8830185443
 20
-63.7685051539
 30
0.0
 40
3.5
 41
0.0
 71
     1
 72
     1
  1
AA3B14-40 40 152
  7
SLDTEXTSTYLE0
 73
     1
 44
1.0
  0
ENDSEC
  0
SECTION
  2
OBJECTS
  0
DICTIONARY
  5
C
330
0
100
AcDbDictionary
281
     1
  3
ACAD_GROUP
350
D
  3
ACAD_LAYOUT
350
1A
  3
ACAD_MLINESTYLE
350
17
  3
ACAD_PLOTSETTINGS
350
19
  3
ACAD_PLOTSTYLENAME
350
E
  3
ACAD_SCALELIST
350
47
  0
DICTIONARY
  5
D
102
{ACAD_REACTORS
330
C
102
}
330
C
100
AcDbDictionary
281
     1
  0
DICTIONARY
  5
1A
102
{ACAD_REACTORS
330
C
102
}
330
C
100
AcDbDictionary
281
     1
  3
Layout1
350
1E
  3
Layout2
350
26
  3
Model
350
22
  0
DICTIONARY
  5
17
102
{ACAD_REACTORS
330
C
102
}
330
C
100
AcDbDictionary
281
     1
  3
Standard
350
18
  0
DICTIONARY
  5
19
102
{ACAD_REACTORS
330
C
102
}
330
C
100
AcDbDictionary
281
     1
  0
ACDBDICTIONARYWDFLT
  5
E
102
{ACAD_REACTORS
330
C
102
}
330
C
100
AcDbDictionary
281
     1
  3
Normal
350
F
100
AcDbDictionaryWithDefault
340
F
  0
DICTIONARY
  5
47
102
{ACAD_REACTORS
330
C
102
}
330
C
100
AcDbDictionary
281
     1
  3
A0
350
48
  3
A1
350
49
  3
A2
350
4A
  3
A3
350
4B
  3
A4
350
4C
  3
A5
350
4D
  3
A6
350
4E
  3
A7
350
4F
  3
A8
350
50
  3
A9
350
51
  3
B0
350
52
  3
B1
350
53
  3
B2
350
54
  3
B3
350
55
  3
B4
350
56
  3
B5
350
57
  3
B6
350
58
  3
B7
350
59
  3
B8
350
5A
  3
B9
350
5B
  3
C0
350
5C
  3
C1
350
5D
  3
C2
350
5E
  3
C3
350
5F
  3
C4
350
60
  3
C5
350
61
  3
C6
350
62
  3
C7
350
63
  3
C8
350
64
  3
C9
350
65
  3
D0
350
66
  3
D1
350
67
  3
D2
350
68
  0
LAYOUT
  5
1E
102
{ACAD_REACTORS
330
1A
102
}
330
1A
100
AcDbPlotSettings
  1

  2
none_device
  4

  6

 40
0.0
 41
0.0
 42
0.0
 43
0.0
 44
0.0
 45
0.0
 46
0.0
 47
0.0
 48
0.0
 49
0.0
140
0.0
141
0.0
142
1.0
143
1.0
 70
   688
 72
     1
 73
     0
 74
     5
  7

 75
    16
147
1.0
148
0.0
149
0.0
100
AcDbLayout
  1
Layout1
 70
     1
 71
     1
 10
0.0
 20
0.0
 11
420.0
 21
297.0
 12
0.0
 22
0.0
 32
0.0
 14
1.0000000000E+20
 24
1.0000000000E+20
 34
1.0000000000E+20
 15
-1.0000000000E+20
 25
-1.0000000000E+20
 35
-1.0000000000E+20
146
0.0
 13
0.0
 23
0.0
 33
0.0
 16
1.0
 26
0.0
 36
0.0
 17
0.0
 27
1.0
 37
0.0
 76
     0
330
1B
  0
LAYOUT
  5
26
102
{ACAD_REACTORS
330
1A
102
}
330
1A
100
AcDbPlotSettings
  1

  2
none_device
  4

  6

 40
0.0
 41
0.0
 42
0.0
 43
0.0
 44
0.0
 45
0.0
 46
0.0
 47
0.0
 48
0.0
 49
0.0
140
0.0
141
0.0
142
1.0
143
1.0
 70
   688
 72
     1
 73
     0
 74
     5
  7

 75
    16
147
1.0
148
0.0
149
0.0
100
AcDbLayout
  1
Layout2
 70
     1
 71
     2
 10
0.0
 20
0.0
 11
0.0
 21
0.0
 12
0.0
 22
0.0
 32
0.0
 14
0.0
 24
0.0
 34
0.0
 15
0.0
 25
0.0
 35
0.0
146
0.0
 13
0.0
 23
0.0
 33
0.0
 16
1.0
 26
0.0
 36
0.0
 17
0.0
 27
1.0
 37
0.0
 76
     0
330
23
  0
LAYOUT
  5
22
102
{ACAD_REACTORS
330
1A
102
}
330
1A
100
AcDbPlotSettings
  1

  2
none_device
  4
Letter_(8.50_x_11.00_Inches)
  6

 40
6.35
 41
6.35
 42
6.35000508
 43
6.35000508
 44
215.9
 45
279.4
 46
0.0
 47
0.0
 48
0.0
 49
0.0
140
0.0
141
0.0
142
1.0
143
1.0
 70
  1712
 72
     1
 73
     0
 74
     0
  7

 75
     0
147
1.0
148
0.0
149
0.0
100
AcDbLayout
  1
Model
 70
     1
 71
     0
 10
0.0
 20
0.0
 11
297.0
 21
210.0
 12
0.0
 22
0.0
 32
0.0
 14
0.0
 24
0.0
 34
0.0
 15
297.0
 25
210.0
 35
0.0
146
0.0
 13
0.0
 23
0.0
 33
0.0
 16
1.0
 26
0.0
 36
0.0
 17
0.0
 27
1.0
 37
0.0
 76
     0
330
1F
331
29
  0
MLINESTYLE
  5
18
102
{ACAD_REACTORS
330
17
102
}
330
17
100
AcDbMlineStyle
  2
Standard
 70
     0
  3

 62
   256
 51
90.0
 52
90.0
 71
     2
 49
0.5
 62
   256
  6
BYLAYER
 49
-0.5
 62
   256
  6
BYLAYER
  0
ACDBPLACEHOLDER
  5
F
102
{ACAD_REACTORS
330
E
102
}
330
E
  0
SCALE
  5
48
102
{ACAD_REACTORS
330
47
102
}
330
47
100
AcDbScale
 70
     0
300
1:1
140
1.0
141
1.0
290
     1
  0
SCALE
  5
49
102
{ACAD_REACTORS
330
47
102
}
330
47
100
AcDbScale
 70
     0
300
1:2
140
1.0
141
2.0
290
     0
  0
SCALE
  5
4A
102
{ACAD_REACTORS
330
47
102
}
330
47
100
AcDbScale
 70
     0
300
1:4
140
1.0
141
4.0
290
     0
  0
SCALE
  5
4B
102
{ACAD_REACTORS
330
47
102
}
330
47
100
AcDbScale
 70
     0
300
1:5
140
1.0
141
5.0
290
     0
  0
SCALE
  5
4C
102
{ACAD_REACTORS
330
47
102
}
330
47
100
AcDbScale
 70
     0
300
1:8
140
1.0
141
8.0
290
     0
  0
SCALE
  5
4D
102
{ACAD_REACTORS
330
47
102
}
330
47
100
AcDbScale
 70
     0
300
1:10
140
1.0
141
10.0
290
     0
  0
SCALE
  5
4E
102
{ACAD_REACTORS
330
47
102
}
330
47
100
AcDbScale
 70
     0
300
1:16
140
1.0
141
16.0
290
     0
  0
SCALE
  5
4F
102
{ACAD_REACTORS
330
47
102
}
330
47
100
AcDbScale
 70
     0
300
1:20
140
1.0
141
20.0
290
     0
  0
SCALE
  5
50
102
{ACAD_REACTORS
330
47
102
}
330
47
100
AcDbScale
 70
     0
300
1:30
140
1.0
141
30.0
290
     0
  0
SCALE
  5
51
102
{ACAD_REACTORS
330
47
102
}
330
47
100
AcDbScale
 70
     0
300
1:40
140
1.0
141
40.0
290
     0
  0
SCALE
  5
52
102
{ACAD_REACTORS
330
47
102
}
330
47
100
AcDbScale
 70
     0
300
1:50
140
1.0
141
50.0
290
     0
  0
SCALE
  5
53
102
{ACAD_REACTORS
330
47
102
}
330
47
100
AcDbScale
 70
     0
300
1:100
140
1.0
141
100.0
290
     0
  0
SCALE
  5
54
102
{ACAD_REACTORS
330
47
102
}
330
47
100
AcDbScale
 70
     0
300
2:1
140
2.0
141
1.0
290
     0
  0
SCALE
  5
55
102
{ACAD_REACTORS
330
47
102
}
330
47
100
AcDbScale
 70
     0
300
4:1
140
4.0
141
1.0
290
     0
  0
SCALE
  5
56
102
{ACAD_REACTORS
330
47
102
}
330
47
100
AcDbScale
 70
     0
300
8:1
140
8.0
141
1.0
290
     0
  0
SCALE
  5
57
102
{ACAD_REACTORS
330
47
102
}
330
47
100
AcDbScale
 70
     0
300
10:1
140
10.0
141
1.0
290
     0
  0
SCALE
  5
58
102
{ACAD_REACTORS
330
47
102
}
330
47
100
AcDbScale
 70
     0
300
100:1
140
100.0
141
1.0
290
     0
  0
SCALE
  5
59
102
{ACAD_REACTORS
330
47
102
}
330
47
100
AcDbScale
 70
     0
300
1/128" = 1'-0"
140
0.0078125
141
12.0
290
     0
  0
SCALE
  5
5A
102
{ACAD_REACTORS
330
47
102
}
330
47
100
AcDbScale
 70
     0
300
1/64" = 1'-0"
140
0.015625
141
12.0
290
     0
  0
SCALE
  5
5B
102
{ACAD_REACTORS
330
47
102
}
330
47
100
AcDbScale
 70
     0
300
1/32" = 1'-0"
140
0.03125
141
12.0
290
     0
  0
SCALE
  5
5C
102
{ACAD_REACTORS
330
47
102
}
330
47
100
AcDbScale
 70
     0
300
1/16" = 1'-0"
140
0.0625
141
12.0
290
     0
  0
SCALE
  5
5D
102
{ACAD_REACTORS
330
47
102
}
330
47
100
AcDbScale
 70
     0
300
3/32" = 1'-0"
140
0.09375
141
12.0
290
     0
  0
SCALE
  5
5E
102
{ACAD_REACTORS
330
47
102
}
330
47
100
AcDbScale
 70
     0
300
1/8" = 1'-0"
140
0.125
141
12.0
290
     0
  0
SCALE
  5
5F
102
{ACAD_REACTORS
330
47
102
}
330
47
100
AcDbScale
 70
     0
300
3/16" = 1'-0"
140
0.1875
141
12.0
290
     0
  0
SCALE
  5
60
102
{ACAD_REACTORS
330
47
102
}
330
47
100
AcDbScale
 70
     0
300
1/4" = 1'-0"
140
0.25
141
12.0
290
     0
  0
SCALE
  5
61
102
{ACAD_REACTORS
330
47
102
}
330
47
100
AcDbScale
 70
     0
300
3/8" = 1'-0"
140
0.375
141
12.0
290
     0
  0
SCALE
  5
62
102
{ACAD_REACTORS
330
47
102
}
330
47
100
AcDbScale
 70
     0
300
1/2" = 1'-0"
140
0.5
141
12.0
290
     0
  0
SCALE
  5
63
102
{ACAD_REACTORS
330
47
102
}
330
47
100
AcDbScale
 70
     0
300
3/4" = 1'-0"
140
0.75
141
12.0
290
     0
  0
SCALE
  5
64
102
{ACAD_REACTORS
330
47
102
}
330
47
100
AcDbScale
 70
     0
300
1" = 1'-0"
140
1.0
141
12.0
290
     0
  0
SCALE
  5
65
102
{ACAD_REACTORS
330
47
102
}
330
47
100
AcDbScale
 70
     0
300
1-1/2" = 1'-0"
140
1.5
141
12.0
290
     0
  0
SCALE
  5
66
102
{ACAD_REACTORS
330
47
102
}
330
47
100
AcDbScale
 70
     0
300
3" = 1'-0"
140
3.0
141
12.0
290
     0
  0
SCALE
  5
67
102
{ACAD_REACTORS
330
47
102
}
330
47
100
AcDbScale
 70
     0
300
6" = 1'-0"
140
6.0
141
12.0
290
     0
  0
SCALE
  5
68
102
{ACAD_REACTORS
330
47
102
}
330
47
100
AcDbScale
 70
     0
300
1'-0" = 1'-0"
140
12.0
141
12.0
290
     0
  0
ENDSEC
  0
EOF
