  0
SECTION
  2
HEADER
  9
$ACADVER
  1
AC1015
  9
$ACADMAINTVER
 70
     6
  9
$DWGCODEPAGE
  3
ANSI_1250
  9
$INSBASE
 10
0.0
 20
0.0
 30
0.0
  9
$EXTMIN
 10
0.0
 20
0.0
 30
0.0
  9
$EXTMAX
 10
297.0
 20
210.0
 30
0.0
  9
$LIMMIN
 10
0.0
 20
0.0
  9
$LIMMAX
 10
297.0
 20
210.0
  9
$ORTHOMODE
 70
     0
  9
$REGENMODE
 70
     1
  9
$FILLMODE
 70
     1
  9
$QTEXTMODE
 70
     0
  9
$MIRRTEXT
 70
     1
  9
$LTSCALE
 40
1.0
  9
$ATTMODE
 70
     1
  9
$TEXTSIZE
 40
3.5
  9
$TRACEWID
 40
1.0
  9
$TEXTSTYLE
  7
Standard
  9
$CLAYER
  8
0
  9
$CELTYPE
  6
ByLayer
  9
$CECOLOR
 62
   256
  9
$CELTSCALE
 40
1.0
  9
$DISPSILH
 70
     0
  9
$DIMSCALE
 40
1.0
  9
$DIMASZ
 40
3.302
  9
$DIMEXO
 40
1.0
  9
$DIMDLI
 40
3.75
  9
$DIMRND
 40
0.0
  9
$DIMDLE
 40
0.0
  9
$DIMEXE
 40
1.0
  9
$DIMTP
 40
0.0
  9
$DIMTM
 40
0.0
  9
$DIMTXT
 40
3.5
  9
$DIMCEN
 40
2.5
  9
$DIMTSZ
 40
0.0
  9
$DIMTOL
 70
     0
  9
$DIMLIM
 70
     0
  9
$DIMTIH
 70
     1
  9
$DIMTOH
 70
     1
  9
$DIMSE1
 70
     0
  9
$DIMSE2
 70
     0
  9
$DIMTAD
 70
     1
  9
$DIMZIN
 70
     0
  9
$DIMBLK
  1

  9
$DIMASO
 70
     1
  9
$DIMSHO
 70
     1
  9
$DIMPOST
  1

  9
$DIMAPOST
  1

  9
$DIMALT
 70
     0
  9
$DIMALTD
 70
     3
  9
$DIMALTF
 40
0.0393700787
  9
$DIMLFAC
 40
1.0
  9
$DIMTOFL
 70
     1
  9
$DIMTVP
 40
0.0
  9
$DIMTIX
 70
     0
  9
$DIMSOXD
 70
     0
  9
$DIMSAH
 70
     0
  9
$DIMBLK1
  1

  9
$DIMBLK2
  1

  9
$DIMSTYLE
  2
ISO-25
  9
$DIMCLRD
 70
     0
  9
$DIMCLRE
 70
     0
  9
$DIMCLRT
 70
     0
  9
$DIMTFAC
 40
1.0
  9
$DIMGAP
 40
1.524
  9
$DIMJUST
 70
     0
  9
$DIMSD1
 70
     0
  9
$DIMSD2
 70
     0
  9
$DIMTOLJ
 70
     0
  9
$DIMTZIN
 70
     0
  9
$DIMALTZ
 70
     0
  9
$DIMALTTZ
 70
     0
  9
$DIMUPT
 70
     0
  9
$DIMDEC
 70
     2
  9
$DIMTDEC
 70
     2
  9
$DIMALTU
 70
     2
  9
$DIMALTTD
 70
     3
  9
$DIMTXSTY
  7
Standard
  9
$DIMAUNIT
 70
     0
  9
$DIMADEC
 70
     2
  9
$DIMALTRND
 40
0.0
  9
$DIMAZIN
 70
     0
  9
$DIMDSEP
 70
    44
  9
$DIMATFIT
 70
     3
  9
$DIMFRAC
 70
     0
  9
$DIMLDRBLK
  1

  9
$DIMLUNIT
 70
     2
  9
$DIMLWD
 70
    -2
  9
$DIMLWE
 70
    -2
  9
$DIMTMOVE
 70
     0
  9
$LUNITS
 70
     2
  9
$LUPREC
 70
     2
  9
$SKETCHINC
 40
1.0
  9
$FILLETRAD
 40
10.0
  9
$AUNITS
 70
     0
  9
$AUPREC
 70
     2
  9
$MENU
  1
.
  9
$ELEVATION
 40
0.0
  9
$PELEVATION
 40
0.0
  9
$THICKNESS
 40
0.0
  9
$LIMCHECK
 70
     0
  9
$CHAMFERA
 40
0.0
  9
$CHAMFERB
 40
0.0
  9
$CHAMFERC
 40
0.0
  9
$CHAMFERD
 40
0.0
  9
$SKPOLY
 70
     0
  9
$TDCREATE
 40
2459724.574707627
  9
$TDUCREATE
 40
2459724.491374294
  9
$TDUPDATE
 40
2459724.574709363
  9
$TDUUPDATE
 40
2459724.49137603
  9
$TDINDWG
 40
0.0000000116
  9
$TDUSRTIMER
 40
0.0000000116
  9
$USRTIMER
 70
     1
  9
$ANGBASE
 50
0.0
  9
$ANGDIR
 70
     0
  9
$PDMODE
 70
     0
  9
$PDSIZE
 40
-1.0
  9
$PLINEWID
 40
0.0
  9
$SPLFRAME
 70
     0
  9
$SPLINETYPE
 70
     6
  9
$SPLINESEGS
 70
     8
  9
$HANDSEED
  5
356
  9
$SURFTAB1
 70
     6
  9
$SURFTAB2
 70
     6
  9
$SURFTYPE
 70
     6
  9
$SURFU
 70
     6
  9
$SURFV
 70
     6
  9
$UCSBASE
  2

  9
$UCSNAME
  2

  9
$UCSORG
 10
0.0
 20
0.0
 30
0.0
  9
$UCSXDIR
 10
1.0
 20
0.0
 30
0.0
  9
$UCSYDIR
 10
0.0
 20
1.0
 30
0.0
  9
$UCSORTHOREF
  2

  9
$UCSORTHOVIEW
 70
     0
  9
$UCSORGTOP
 10
0.0
 20
0.0
 30
0.0
  9
$UCSORGBOTTOM
 10
0.0
 20
0.0
 30
0.0
  9
$UCSORGLEFT
 10
0.0
 20
0.0
 30
0.0
  9
$UCSORGRIGHT
 10
0.0
 20
0.0
 30
0.0
  9
$UCSORGFRONT
 10
0.0
 20
0.0
 30
0.0
  9
$UCSORGBACK
 10
0.0
 20
0.0
 30
0.0
  9
$PUCSBASE
  2

  9
$PUCSNAME
  2

  9
$PUCSORG
 10
0.0
 20
0.0
 30
0.0
  9
$PUCSXDIR
 10
1.0
 20
0.0
 30
0.0
  9
$PUCSYDIR
 10
0.0
 20
1.0
 30
0.0
  9
$PUCSORTHOREF
  2

  9
$PUCSORTHOVIEW
 70
     0
  9
$PUCSORGTOP
 10
0.0
 20
0.0
 30
0.0
  9
$PUCSORGBOTTOM
 10
0.0
 20
0.0
 30
0.0
  9
$PUCSORGLEFT
 10
0.0
 20
0.0
 30
0.0
  9
$PUCSORGRIGHT
 10
0.0
 20
0.0
 30
0.0
  9
$PUCSORGFRONT
 10
0.0
 20
0.0
 30
0.0
  9
$PUCSORGBACK
 10
0.0
 20
0.0
 30
0.0
  9
$USERI1
 70
     0
  9
$USERI2
 70
     0
  9
$USERI3
 70
     0
  9
$USERI4
 70
     0
  9
$USERI5
 70
     0
  9
$USERR1
 40
0.0
  9
$USERR2
 40
0.0
  9
$USERR3
 40
0.0
  9
$USERR4
 40
0.0
  9
$USERR5
 40
0.0
  9
$WORLDVIEW
 70
     1
  9
$SHADEDGE
 70
     3
  9
$SHADEDIF
 70
    70
  9
$TILEMODE
 70
     1
  9
$MAXACTVP
 70
    64
  9
$PINSBASE
 10
0.0
 20
0.0
 30
0.0
  9
$PLIMCHECK
 70
     0
  9
$PEXTMIN
 10
1.0000000000E+20
 20
1.0000000000E+20
 30
1.0000000000E+20
  9
$PEXTMAX
 10
-1.0000000000E+20
 20
-1.0000000000E+20
 30
-1.0000000000E+20
  9
$PLIMMIN
 10
0.0
 20
0.0
  9
$PLIMMAX
 10
420.0
 20
297.0
  9
$UNITMODE
 70
     0
  9
$VISRETAIN
 70
     1
  9
$PLINEGEN
 70
     0
  9
$PSLTSCALE
 70
     1
  9
$TREEDEPTH
 70
  3020
  9
$CMLSTYLE
  2
Standard
  9
$CMLJUST
 70
     0
  9
$CMLSCALE
 40
20.0
  9
$PROXYGRAPHICS
 70
     1
  9
$MEASUREMENT
 70
     1
  9
$CELWEIGHT
370
    -1
  9
$ENDCAPS
280
     0
  9
$JOINSTYLE
280
     0
  9
$LWDISPLAY
290
     1
  9
$INSUNITS
 70
     4
  9
$HYPERLINKBASE
  1

  9
$STYLESHEET
  1

  9
$XEDIT
290
     1
  9
$CEPSNTYPE
380
     0
  9
$PSTYLEMODE
290
     1
  9
$FINGERPRINTGUID
  2
{63713F62-6688-494F-B9F0-520A968D57E9}
  9
$VERSIONGUID
  2
{FAEB1C32-E019-11D5-929B-00C0DF256EC4}
  9
$EXTNAMES
290
     1
  9
$PSVPSCALE
 40
0.0
  9
$OLESTARTUP
290
     0
  0
ENDSEC
  0
SECTION
  2
CLASSES
  0
CLASS
  1
ACDBDICTIONARYWDFLT
  2
AcDbDictionaryWithDefault
  3
ObjectDBX Classes
 90
        0
280
     0
281
     0
  0
CLASS
  1
VISUALSTYLE
  2
AcDbVisualStyle
  3
ObjectDBX Classes
 90
     4095
280
     0
281
     0
  0
CLASS
  1
MATERIAL
  2
AcDbMaterial
  3
ObjectDBX Classes
 90
     1153
280
     0
281
     0
  0
CLASS
  1
SCALE
  2
AcDbScale
  3
ObjectDBX Classes
 90
     1153
280
     0
281
     0
  0
CLASS
  1
TABLESTYLE
  2
AcDbTableStyle
  3
ObjectDBX Classes
 90
     4095
280
     0
281
     0
  0
CLASS
  1
MLEADERSTYLE
  2
AcDbMLeaderStyle
  3
ACDB_MLEADERSTYLE_CLASS
 90
     4095
280
     0
281
     0
  0
CLASS
  1
SUN
  2
AcDbSun
  3
SCENEOE
 90
     1153
280
     0
281
     0
  0
CLASS
  1
ACDBPLACEHOLDER
  2
AcDbPlaceHolder
  3
ObjectDBX Classes
 90
        0
280
     0
281
     0
  0
CLASS
  1
LAYOUT
  2
AcDbLayout
  3
ObjectDBX Classes
 90
        0
280
     0
281
     0
  0
ENDSEC
  0
SECTION
  2
TABLES
  0
TABLE
  2
VPORT
  5
8
330
0
100
AcDbSymbolTable
 70
     1
  0
VPORT
  5
29
330
8
100
AcDbSymbolTableRecord
100
AcDbViewportTableRecord
  2
*Active
 70
     0
 10
0.0
 20
0.0
 11
1.0
 21
1.0
 12
148.5
 22
105.0
 13
0.0
 23
0.0
 14
10.0
 24
10.0
 15
10.0
 25
10.0
 16
0.0
 26
0.0
 36
1.0
 17
0.0
 27
0.0
 37
0.0
 40
210.0
 41
1.4142857143
 42
50.0
 43
0.0
 44
0.0
 50
0.0
 51
0.0
 71
     0
 72
  2000
 73
     1
 74
     3
 75
     0
 76
     0
 77
     0
 78
     0
281
     0
 65
     1
110
0.0
120
0.0
130
0.0
111
1.0
121
0.0
131
0.0
112
0.0
122
1.0
132
0.0
 79
     0
146
0.0
  0
ENDTAB
  0
TABLE
  2
LTYPE
  5
5
330
0
100
AcDbSymbolTable
 70
     6
  0
LTYPE
  5
14
330
5
100
AcDbSymbolTableRecord
100
AcDbLinetypeTableRecord
  2
ByBlock
 70
     0
  3

 72
    65
 73
     0
 40
0.0
  0
LTYPE
  5
15
330
5
100
AcDbSymbolTableRecord
100
AcDbLinetypeTableRecord
  2
ByLayer
 70
     0
  3

 72
    65
 73
     0
 40
0.0
  0
LTYPE
  5
16
330
5
100
AcDbSymbolTableRecord
100
AcDbLinetypeTableRecord
  2
Continuous
 70
     0
  3
Solid line
 72
    65
 73
     0
 40
0.0
  0
LTYPE
  5
6E
330
5
100
AcDbSymbolTableRecord
100
AcDbLinetypeTableRecord
  2
HIDDEN
 70
     0
  3
Hidden __ __ __ __ __ __ __ __ __ __ __ __ __ __
 72
    65
 73
     2
 40
1.905
 49
1.27
 74
     0
 49
-0.635
 74
     0
  0
LTYPE
  5
6F
330
5
100
AcDbSymbolTableRecord
100
AcDbLinetypeTableRecord
  2
PHANTOM
 70
     0
  3
Phantom ______  __  __  ______  __  __  ______
 72
    65
 73
     6
 40
12.7
 49
6.35
 74
     0
 49
-1.27
 74
     0
 49
1.27
 74
     0
 49
-1.27
 74
     0
 49
1.27
 74
     0
 49
-1.27
 74
     0
  0
LTYPE
  5
70
330
5
100
AcDbSymbolTableRecord
100
AcDbLinetypeTableRecord
  2
CENTER
 70
     0
  3
Center ____ _ ____ _ ____ _ ____ _ ____ _ ____
 72
    65
 73
     4
 40
10.16
 49
6.35
 74
     0
 49
-1.27
 74
     0
 49
1.27
 74
     0
 49
-1.27
 74
     0
  0
LTYPE
  5
71
330
5
100
AcDbSymbolTableRecord
100
AcDbLinetypeTableRecord
  2
CENTERX2
 70
     0
  3
Center (2x) ________  __  ________  __  _____
 72
    65
 73
     4
 40
20.32
 49
12.7
 74
     0
 49
-2.54
 74
     0
 49
2.54
 74
     0
 49
-2.54
 74
     0
  0
LTYPE
  5
72
330
5
100
AcDbSymbolTableRecord
100
AcDbLinetypeTableRecord
  2
DOT2
 70
     0
  3
Dot (.5x) ........................................
 72
    65
 73
     2
 40
0.635
 49
0.0
 74
     0
 49
-0.635
 74
     0
  0
ENDTAB
  0
TABLE
  2
LAYER
  5
2
330
0
100
AcDbSymbolTable
 70
    12
  0
LAYER
  5
10
330
2
100
AcDbSymbolTableRecord
100
AcDbLayerTableRecord
  2
0
 70
     0
 62
     7
  6
Continuous
370
    -3
390
F
  0
LAYER
  5
73
330
2
100
AcDbSymbolTableRecord
100
AcDbLayerTableRecord
  2
SLD-0
 70
     0
 62
   179
  6
Continuous
370
    -3
390
F
  0
LAYER
  5
74
330
2
100
AcDbSymbolTableRecord
100
AcDbLayerTableRecord
  2
80
 70
     0
 62
    -6
  6
Continuous
290
     0
370
    -3
390
F
  0
LAYER
  5
75
330
2
100
AcDbSymbolTableRecord
100
AcDbLayerTableRecord
  2
81
 70
     0
 62
    -3
  6
Continuous
290
     0
370
    -3
390
F
  0
LAYER
  5
76
330
2
100
AcDbSymbolTableRecord
100
AcDbLayerTableRecord
  2
1
 70
     0
 62
     4
  6
Continuous
290
     0
370
    -3
390
F
  0
LAYER
  5
77
330
2
100
AcDbSymbolTableRecord
100
AcDbLayerTableRecord
  2
4
 70
     0
 62
    -2
  6
CENTER
290
     0
370
    -3
390
F
  0
LAYER
  5
78
330
2
100
AcDbSymbolTableRecord
100
AcDbLayerTableRecord
  2
2
 70
     0
 62
     7
  6
Continuous
290
     0
370
    -3
390
F
  0
LAYER
  5
79
330
2
100
AcDbSymbolTableRecord
100
AcDbLayerTableRecord
  2
SK3
 70
     0
 62
     1
  6
HIDDEN
290
     0
370
    -3
390
F
  0
LAYER
  5
7A
330
2
100
AcDbSymbolTableRecord
100
AcDbLayerTableRecord
  2
SK4
 70
     0
 62
     2
  6
CENTER
290
     0
370
    -3
390
F
  0
LAYER
  5
7B
330
2
100
AcDbSymbolTableRecord
100
AcDbLayerTableRecord
  2
SK2
 70
     0
 62
     7
  6
Continuous
290
     0
370
    -3
390
F
  0
LAYER
  5
7C
330
2
100
AcDbSymbolTableRecord
100
AcDbLayerTableRecord
  2
SK6
 70
     0
 62
     5
  6
Continuous
290
     0
370
    -3
390
F
  0
LAYER
  5
7D
330
2
100
AcDbSymbolTableRecord
100
AcDbLayerTableRecord
  2
SK1
 70
     0
 62
     4
  6
Continuous
370
    -3
390
F
  0
ENDTAB
  0
TABLE
  2
STYLE
  5
3
330
0
100
AcDbSymbolTable
 70
     3
  0
STYLE
  5
11
330
3
100
AcDbSymbolTableRecord
100
AcDbTextStyleTableRecord
  2
Standard
 70
     0
 40
0.0
 41
1.0
 50
0.0
 71
     0
 42
3.5
  3
txt
  4

  0
STYLE
  5
2B3
330
3
100
AcDbSymbolTableRecord
100
AcDbTextStyleTableRecord
  2
SLDTEXTSTYLE0
 70
     0
 40
0.0
 41
0.75
 50
0.0
 71
     0
 42
3.5
  3
TXT
  4

  0
STYLE
  5
2CB
330
3
100
AcDbSymbolTableRecord
100
AcDbTextStyleTableRecord
  2
SLDTEXTSTYLE1
 70
     0
 40
0.0
 41
0.6875
 50
0.0
 71
     0
 42
3.5
  3
TXT
  4

  0
ENDTAB
  0
TABLE
  2
VIEW
  5
6
330
0
100
AcDbSymbolTable
 70
     0
  0
ENDTAB
  0
TABLE
  2
UCS
  5
7
330
0
100
AcDbSymbolTable
 70
     0
  0
ENDTAB
  0
TABLE
  2
APPID
  5
9
330
0
100
AcDbSymbolTable
 70
     1
  0
APPID
  5
12
330
9
100
AcDbSymbolTableRecord
100
AcDbRegAppTableRecord
  2
ACAD
 70
     0
  0
ENDTAB
  0
TABLE
  2
DIMSTYLE
  5
A
330
0
100
AcDbSymbolTable
 70
     4
100
AcDbDimStyleTable
  0
DIMSTYLE
105
27
330
A
100
AcDbSymbolTableRecord
100
AcDbDimStyleTableRecord
  2
ISO-25
 70
     0
 41
2.5
 42
0.625
 43
3.75
 44
1.25
 73
     0
 74
     0
 77
     1
 78
     8
140
2.5
141
2.5
143
0.0393700787
147
0.625
171
     3
172
     1
178
     0
271
     2
272
     2
274
     3
278
    44
283
     0
284
     8
340
11
  0
DIMSTYLE
105
2B4
102
{ACAD_REACTORS
330
2B2
330
2CD
330
2D8
102
}
330
A
100
AcDbSymbolTableRecord
100
AcDbDimStyleTableRecord
  2
SLDDIMSTYLE0
 70
     0
 41
3.302
 44
0.0
 45
0.000000001
 73
     0
 74
     0
 77
     1
 78
    12
 79
     3
140
3.5
147
0.875
173
     1
178
     0
271
     2
272
     2
276
     2
284
    12
340
2B3
  0
DIMSTYLE
105
2C0
102
{ACAD_REACTORS
330
2BF
102
}
330
A
100
AcDbSymbolTableRecord
100
AcDbDimStyleTableRecord
  2
SLDDIMSTYLE1
 70
     0
 41
3.302
 44
0.0
 45
0.000000001
 73
     0
 74
     0
 77
     1
 78
    12
 79
     3
140
3.5
147
0.875
172
     1
173
     1
178
     0
271
     2
272
     2
276
     2
284
    12
289
     0
340
2B3
  0
DIMSTYLE
105
2E3
102
{ACAD_REACTORS
330
2E2
330
2F6
330
309
330
31C
330
32E
330
341
102
}
330
A
100
AcDbSymbolTableRecord
100
AcDbDimStyleTableRecord
  2
SLDDIMSTYLE2
 70
     0
 41
3.302
 44
0.0
 45
0.000000001
 73
     0
 74
     0
 77
     1
 78
    12
 79
     3
140
3.5
143
0.0393700787
147
0.875
148
0.000000001
170
     1
173
     1
178
     0
271
     2
272
     2
276
     2
284
    12
340
2B3
  0
ENDTAB
  0
TABLE
  2
BLOCK_RECORD
  5
1
330
0
100
AcDbSymbolTable
 70
    11
  0
BLOCK_RECORD
  5
1F
330
1
100
AcDbSymbolTableRecord
100
AcDbBlockTableRecord
  2
*Model_Space
340
22
  0
BLOCK_RECORD
  5
1B
330
1
100
AcDbSymbolTableRecord
100
AcDbBlockTableRecord
  2
*Paper_Space
340
1E
  0
BLOCK_RECORD
  5
23
330
1
100
AcDbSymbolTableRecord
100
AcDbBlockTableRecord
  2
*Paper_Space0
340
26
  0
BLOCK_RECORD
  5
2B5
330
1
100
AcDbSymbolTableRecord
100
AcDbBlockTableRecord
  2
_D
340
0
  0
BLOCK_RECORD
  5
2C1
330
1
100
AcDbSymbolTableRecord
100
AcDbBlockTableRecord
  2
_D_1
340
0
  0
BLOCK_RECORD
  5
2CE
330
1
100
AcDbSymbolTableRecord
100
AcDbBlockTableRecord
  2
_D_2
340
0
  0
BLOCK_RECORD
  5
2D9
330
1
100
AcDbSymbolTableRecord
100
AcDbBlockTableRecord
  2
_D_3
340
0
  0
BLOCK_RECORD
  5
2E4
330
1
100
AcDbSymbolTableRecord
100
AcDbBlockTableRecord
  2
_D_4
340
0
  0
BLOCK_RECORD
  5
2F7
330
1
100
AcDbSymbolTableRecord
100
AcDbBlockTableRecord
  2
_D_5
340
0
  0
BLOCK_RECORD
  5
30A
330
1
100
AcDbSymbolTableRecord
100
AcDbBlockTableRecord
  2
_D_6
340
0
  0
BLOCK_RECORD
  5
31D
330
1
100
AcDbSymbolTableRecord
100
AcDbBlockTableRecord
  2
_D_7
340
0
  0
BLOCK_RECORD
  5
32F
330
1
100
AcDbSymbolTableRecord
100
AcDbBlockTableRecord
  2
_D_8
340
0
  0
BLOCK_RECORD
  5
342
330
1
100
AcDbSymbolTableRecord
100
AcDbBlockTableRecord
  2
_D_9
340
0
  0
ENDTAB
  0
ENDSEC
  0
SECTION
  2
BLOCKS
  0
BLOCK
  5
20
330
1F
100
AcDbEntity
  8
0
100
AcDbBlockBegin
  2
*Model_Space
 70
     0
 10
0.0
 20
0.0
 30
0.0
  3
*Model_Space
  1

  0
ENDBLK
  5
21
330
1F
100
AcDbEntity
  8
0
100
AcDbBlockEnd
  0
BLOCK
  5
1C
330
1B
100
AcDbEntity
 67
     1
  8
0
100
AcDbBlockBegin
  2
*Paper_Space
 70
     0
 10
0.0
 20
0.0
 30
0.0
  3
*Paper_Space
  1

  0
ENDBLK
  5
1D
330
1B
100
AcDbEntity
 67
     1
  8
0
100
AcDbBlockEnd
  0
BLOCK
  5
24
330
23
100
AcDbEntity
  8
0
100
AcDbBlockBegin
  2
*Paper_Space0
 70
     0
 10
0.0
 20
0.0
 30
0.0
  3
*Paper_Space0
  1

  0
ENDBLK
  5
25
330
23
100
AcDbEntity
  8
0
100
AcDbBlockEnd
  0
BLOCK
  5
2B6
330
2B5
100
AcDbEntity
  8
0
100
AcDbBlockBegin
  2
_D
 70
     0
 10
0.0
 20
0.0
 30
0.0
  3
_D
  1

  0
SOLID
  5
2B8
330
2B5
100
AcDbEntity
  8
SK2
100
AcDbTrace
 10
-84.0365026059
 20
22.225
 30
0.0
 11
-84.5445026059
 21
18.923
 31
0.0
 12
-83.5285026059
 22
18.923
 32
0.0
 13
-83.5285026059
 23
18.923
 33
0.0
  0
SOLID
  5
2B9
330
2B5
100
AcDbEntity
  8
SK2
100
AcDbTrace
 10
-84.0365026059
 20
-22.225
 30
0.0
 11
-83.5285026059
 21
-18.923
 31
0.0
 12
-84.5445026059
 22
-18.923
 32
0.0
 13
-84.5445026059
 23
-18.923
 33
0.0
  0
LINE
  5
2BA
330
2B5
100
AcDbEntity
  8
SK2
100
AcDbLine
 10
-1.0
 20
22.225
 30
0.0
 11
-85.0365026059
 21
22.225
 31
0.0
  0
LINE
  5
2BB
330
2B5
100
AcDbEntity
  8
SK2
100
AcDbLine
 10
-1.0
 20
-22.225
 30
0.0
 11
-85.0365026059
 21
-22.225
 31
0.0
  0
LINE
  5
2BC
330
2B5
100
AcDbEntity
  8
SK2
100
AcDbLine
 10
-84.0365026059
 20
22.225
 30
0.0
 11
-84.0365026059
 21
-22.225
 31
0.0
  0
MTEXT
  5
2BD
330
2B5
100
AcDbEntity
  8
SK2
100
AcDbMText
 10
-88.5482396951
 20
-9.3015113119
 30
0.0
 40
3.5
 41
0.0
 71
     1
 72
     1
  1
%%c
  7
SLDTEXTSTYLE0
 11
-7.044195017643634E-15
 21
1.0
 31
0.0
 73
     1
 44
1.0
  0
MTEXT
  5
2BE
330
2B5
100
AcDbEntity
  8
SK2
100
AcDbMText
 10
-88.6017118718
 20
-4.0230739135
 30
0.0
 40
3.5
 41
0.0
 71
     1
 72
     1
  1
44,45
  7
SLDTEXTSTYLE0
 11
-7.044195017643634E-15
 21
1.0
 31
0.0
 73
     1
 44
1.0
  0
ENDBLK
  5
2B7
330
2B5
100
AcDbEntity
  8
0
100
AcDbBlockEnd
  0
BLOCK
  5
2C2
330
2C1
100
AcDbEntity
  8
0
100
AcDbBlockBegin
  2
_D_1
 70
     0
 10
0.0
 20
0.0
 30
0.0
  3
_D_1
  1

  0
SOLID
  5
2C4
330
2C1
100
AcDbEntity
  8
SK2
100
AcDbTrace
 10
-74.8256398418
 20
-7.9375
 30
0.0
 11
-75.3336398418
 21
-11.2395
 31
0.0
 12
-74.3176398418
 22
-11.2395
 32
0.0
 13
-74.3176398418
 23
-11.2395
 33
0.0
  0
SOLID
  5
2C5
330
2C1
100
AcDbEntity
  8
SK2
100
AcDbTrace
 10
-74.8256398418
 20
7.9375
 30
0.0
 11
-74.3176398418
 21
11.2395
 31
0.0
 12
-75.3336398418
 22
11.2395
 32
0.0
 13
-75.3336398418
 23
11.2395
 33
0.0
  0
LINE
  5
2C6
330
2C1
100
AcDbEntity
  8
SK2
100
AcDbLine
 10
-64.3082382949
 20
-7.9375
 30
0.0
 11
-75.8256398418
 21
-7.9375
 31
0.0
  0
LINE
  5
2C7
330
2C1
100
AcDbEntity
  8
SK2
100
AcDbLine
 10
-64.3082382949
 20
7.9375
 30
0.0
 11
-75.8256398418
 21
7.9375
 31
0.0
  0
LINE
  5
2C8
330
2C1
100
AcDbEntity
  8
SK2
100
AcDbLine
 10
-74.8256398418
 20
-7.9375
 30
0.0
 11
-74.8256398418
 21
-14.2875
 31
0.0
  0
LINE
  5
2C9
330
2C1
100
AcDbEntity
  8
SK2
100
AcDbLine
 10
-74.8256398418
 20
-7.9375
 30
0.0
 11
-74.8256398418
 21
7.9375
 31
0.0
  0
LINE
  5
2CA
330
2C1
100
AcDbEntity
  8
SK2
100
AcDbLine
 10
-74.8256398418
 20
7.9375
 30
0.0
 11
-74.8256398418
 21
14.2875
 31
0.0
  0
MTEXT
  5
2CC
330
2C1
100
AcDbEntity
  8
SK2
100
AcDbMText
 10
-79.3373767563
 20
-14.0241219736
 30
0.0
 40
3.5
 41
0.0
 71
     1
 72
     1
  1
3/8 - 11 UNC
  7
SLDTEXTSTYLE1
 11
6.123233995736766E-17
 21
1.0
 31
0.0
 73
     1
 44
1.0
  0
ENDBLK
  5
2C3
330
2C1
100
AcDbEntity
  8
0
100
AcDbBlockEnd
  0
BLOCK
  5
2CF
330
2CE
100
AcDbEntity
  8
0
100
AcDbBlockBegin
  2
_D_2
 70
     0
 10
0.0
 20
0.0
 30
0.0
  3
_D_2
  1

  0
SOLID
  5
2D1
330
2CE
100
AcDbEntity
  8
SK2
100
AcDbTrace
 10
-93.4978461014
 20
30.5254908961
 30
0.0
 11
-94.0058461014
 21
27.2234908961
 31
0.0
 12
-92.9898461014
 22
27.2234908961
 32
0.0
 13
-92.9898461014
 23
27.2234908961
 33
0.0
  0
SOLID
  5
2D2
330
2CE
100
AcDbEntity
  8
SK2
100
AcDbTrace
 10
-93.4978461014
 20
-30.5579086614
 30
0.0
 11
-92.9898461014
 21
-27.2559086614
 31
0.0
 12
-94.0058461014
 22
-27.2559086614
 32
0.0
 13
-94.0058461014
 23
-27.2559086614
 33
0.0
  0
LINE
  5
2D3
330
2CE
100
AcDbEntity
  8
SK2
100
AcDbLine
 10
2.95
 20
30.5254908961
 30
0.0
 11
-94.4978461014
 21
30.5254908961
 31
0.0
  0
LINE
  5
2D4
330
2CE
100
AcDbEntity
  8
SK2
100
AcDbLine
 10
2.95
 20
-30.5579086614
 30
0.0
 11
-94.4978461014
 21
-30.5579086614
 31
0.0
  0
LINE
  5
2D5
330
2CE
100
AcDbEntity
  8
SK2
100
AcDbLine
 10
-93.4978461014
 20
30.5254908961
 30
0.0
 11
-93.4978461014
 21
-30.5579086614
 31
0.0
  0
MTEXT
  5
2D6
330
2CE
100
AcDbEntity
  8
SK2
100
AcDbMText
 10
-98.0095831906
 20
-8.0084560644
 30
0.0
 40
3.5
 41
0.0
 71
     1
 72
     1
  1
%%c
  7
SLDTEXTSTYLE0
 11
-7.044195017643634E-15
 21
1.0
 31
0.0
 73
     1
 44
1.0
  0
MTEXT
  5
2D7
330
2CE
100
AcDbEntity
  8
SK2
100
AcDbMText
 10
-98.0630553673
 20
-2.730018666
 30
0.0
 40
3.5
 41
0.0
 71
     1
 72
     1
  1
63,5
  7
SLDTEXTSTYLE0
 11
-7.044195017643634E-15
 21
1.0
 31
0.0
 73
     1
 44
1.0
  0
ENDBLK
  5
2D0
330
2CE
100
AcDbEntity
  8
0
100
AcDbBlockEnd
  0
BLOCK
  5
2DA
330
2D9
100
AcDbEntity
  8
0
100
AcDbBlockBegin
  2
_D_3
 70
     0
 10
0.0
 20
0.0
 30
0.0
  3
_D_3
  1

  0
SOLID
  5
2DC
330
2D9
100
AcDbEntity
  8
SK2
100
AcDbTrace
 10
0.0
 20
37.6871923606
 30
0.0
 11
3.302
 21
37.1791923606
 31
0.0
 12
3.302
 22
38.1951923606
 32
0.0
 13
3.302
 23
38.1951923606
 33
0.0
  0
SOLID
  5
2DD
330
2D9
100
AcDbEntity
  8
SK2
100
AcDbTrace
 10
19.05
 20
37.6871923606
 30
0.0
 11
15.748
 21
38.1951923606
 31
0.0
 12
15.748
 22
37.1791923606
 32
0.0
 13
15.748
 23
37.1791923606
 33
0.0
  0
LINE
  5
2DE
330
2D9
100
AcDbEntity
  8
SK2
100
AcDbLine
 10
0.0
 20
23.225
 30
0.0
 11
0.0
 21
38.6871923606
 31
0.0
  0
LINE
  5
2DF
330
2D9
100
AcDbEntity
  8
SK2
100
AcDbLine
 10
19.05
 20
30.8048664484
 30
0.0
 11
19.05
 21
38.6871923606
 31
0.0
  0
LINE
  5
2E0
330
2D9
100
AcDbEntity
  8
SK2
100
AcDbLine
 10
0.0
 20
37.6871923606
 30
0.0
 11
19.05
 21
37.6871923606
 31
0.0
  0
MTEXT
  5
2E1
330
2D9
100
AcDbEntity
  8
SK2
100
AcDbMText
 10
3.9548487697
 20
42.1989292752
 30
0.0
 40
3.5
 41
0.0
 71
     1
 72
     1
  1
19,05
  7
SLDTEXTSTYLE0
 73
     1
 44
1.0
  0
ENDBLK
  5
2DB
330
2D9
100
AcDbEntity
  8
0
100
AcDbBlockEnd
  0
BLOCK
  5
2E5
330
2E4
100
AcDbEntity
  8
0
100
AcDbBlockBegin
  2
_D_4
 70
     0
 10
0.0
 20
0.0
 30
0.0
  3
_D_4
  1

  0
SOLID
  5
2E7
330
2E4
100
AcDbEntity
  8
SK2
100
AcDbTrace
 10
19.05
 20
37.6871923606
 30
0.0
 11
22.352
 21
37.1791923606
 31
0.0
 12
22.352
 22
38.1951923606
 32
0.0
 13
22.352
 23
38.1951923606
 33
0.0
  0
SOLID
  5
2E8
330
2E4
100
AcDbEntity
  8
SK2
100
AcDbTrace
 10
101.6
 20
37.6871923606
 30
0.0
 11
98.298
 21
38.1951923606
 31
0.0
 12
98.298
 22
37.1791923606
 32
0.0
 13
98.298
 23
37.1791923606
 33
0.0
  0
LINE
  5
2E9
330
2E4
100
AcDbEntity
  8
SK2
100
AcDbLine
 10
54.2313524613
 20
48.4800740767
 30
0.0
 11
53.1649462039
 21
48.4800740767
 31
0.0
  0
LINE
  5
2EA
330
2E4
100
AcDbEntity
  8
SK2
100
AcDbLine
 10
53.1649462039
 20
48.4800740767
 30
0.0
 11
53.1649462039
 21
42.9238240856
 31
0.0
  0
LINE
  5
2EB
330
2E4
100
AcDbEntity
  8
SK2
100
AcDbLine
 10
53.1649462039
 20
42.9238240856
 30
0.0
 11
54.2313524613
 21
42.9238240856
 31
0.0
  0
LINE
  5
2EC
330
2E4
100
AcDbEntity
  8
SK2
100
AcDbLine
 10
65.8688529486
 20
48.4800740767
 30
0.0
 11
66.9352592061
 21
48.4800740767
 31
0.0
  0
LINE
  5
2ED
330
2E4
100
AcDbEntity
  8
SK2
100
AcDbLine
 10
66.9352592061
 20
48.4800740767
 30
0.0
 11
66.9352592061
 21
42.9238240856
 31
0.0
  0
LINE
  5
2EE
330
2E4
100
AcDbEntity
  8
SK2
100
AcDbLine
 10
66.9352592061
 20
42.9238240856
 30
0.0
 11
65.8688529486
 21
42.9238240856
 31
0.0
  0
LINE
  5
2EF
330
2E4
100
AcDbEntity
  8
SK2
100
AcDbLine
 10
19.05
 20
30.8048664484
 30
0.0
 11
19.05
 21
38.6871923606
 31
0.0
  0
LINE
  5
2F0
330
2E4
100
AcDbEntity
  8
SK2
100
AcDbLine
 10
101.6
 20
22.209
 30
0.0
 11
101.6
 21
38.6871923606
 31
0.0
  0
LINE
  5
2F1
330
2E4
100
AcDbEntity
  8
SK2
100
AcDbLine
 10
19.05
 20
37.6871923606
 30
0.0
 11
101.6
 21
37.6871923606
 31
0.0
  0
MTEXT
  5
2F2
330
2E4
100
AcDbEntity
  8
SK2
100
AcDbMText
 10
52.1179843497
 20
42.2524016265
 30
0.0
 40
3.5
 41
0.0
 71
     1
 72
     1
  1

  7
SLDTEXTSTYLE0
 73
     1
 44
1.0
  0
MTEXT
  5
2F3
330
2E4
100
AcDbEntity
  8
SK2
100
AcDbMText
 10
54.2313524613
 20
47.4355610002
 30
0.0
 40
3.5
 41
0.0
 71
     1
 72
     1
  1
3,250
  7
SLDTEXTSTYLE0
 73
     1
 44
1.0
  0
MTEXT
  5
2F4
330
2E4
100
AcDbEntity
  8
SK2
100
AcDbMText
 10
54.2313519957
 20
42.1989294498
 30
0.0
 40
3.5
 41
0.0
 71
     1
 72
     1
  1
82,55
  7
SLDTEXTSTYLE0
 73
     1
 44
1.0
  0
MTEXT
  5
2F5
330
2E4
100
AcDbEntity
  8
SK2
100
AcDbMText
 10
69.3141646486
 20
42.2524016265
 30
0.0
 40
3.5
 41
0.0
 71
     1
 72
     1
  1

  7
SLDTEXTSTYLE0
 73
     1
 44
1.0
  0
ENDBLK
  5
2E6
330
2E4
100
AcDbEntity
  8
0
100
AcDbBlockEnd
  0
BLOCK
  5
2F8
330
2F7
100
AcDbEntity
  8
0
100
AcDbBlockBegin
  2
_D_5
 70
     0
 10
0.0
 20
0.0
 30
0.0
  3
_D_5
  1

  0
SOLID
  5
2FA
330
2F7
100
AcDbEntity
  8
SK2
100
AcDbTrace
 10
101.6
 20
37.6871923606
 30
0.0
 11
104.902
 21
37.1791923606
 31
0.0
 12
104.902
 22
38.1951923606
 32
0.0
 13
104.902
 23
38.1951923606
 33
0.0
  0
SOLID
  5
2FB
330
2F7
100
AcDbEntity
  8
SK2
100
AcDbTrace
 10
119.05
 20
37.6871923606
 30
0.0
 11
115.748
 21
38.1951923606
 31
0.0
 12
115.748
 22
37.1791923606
 32
0.0
 13
115.748
 23
37.1791923606
 33
0.0
  0
LINE
  5
2FC
330
2F7
100
AcDbEntity
  8
SK2
100
AcDbLine
 10
104.2454219996
 20
48.4800740767
 30
0.0
 11
103.1790157421
 21
48.4800740767
 31
0.0
  0
LINE
  5
2FD
330
2F7
100
AcDbEntity
  8
SK2
100
AcDbLine
 10
103.1790157421
 20
48.4800740767
 30
0.0
 11
103.1790157421
 21
42.9238240856
 31
0.0
  0
LINE
  5
2FE
330
2F7
100
AcDbEntity
  8
SK2
100
AcDbLine
 10
103.1790157421
 20
42.9238240856
 30
0.0
 11
104.2454219996
 21
42.9238240856
 31
0.0
  0
LINE
  5
2FF
330
2F7
100
AcDbEntity
  8
SK2
100
AcDbLine
 10
115.8829224868
 20
48.4800740767
 30
0.0
 11
116.9493287443
 21
48.4800740767
 31
0.0
  0
LINE
  5
300
330
2F7
100
AcDbEntity
  8
SK2
100
AcDbLine
 10
116.9493287443
 20
48.4800740767
 30
0.0
 11
116.9493287443
 21
42.9238240856
 31
0.0
  0
LINE
  5
301
330
2F7
100
AcDbEntity
  8
SK2
100
AcDbLine
 10
116.9493287443
 20
42.9238240856
 30
0.0
 11
115.8829224868
 21
42.9238240856
 31
0.0
  0
LINE
  5
302
330
2F7
100
AcDbEntity
  8
SK2
100
AcDbLine
 10
101.6
 20
22.209
 30
0.0
 11
101.6
 21
38.6871923606
 31
0.0
  0
LINE
  5
303
330
2F7
100
AcDbEntity
  8
SK2
100
AcDbLine
 10
119.05
 20
9.6539745962
 30
0.0
 11
119.05
 21
38.6871923606
 31
0.0
  0
LINE
  5
304
330
2F7
100
AcDbEntity
  8
SK2
100
AcDbLine
 10
101.6
 20
37.6871923606
 30
0.0
 11
119.05
 21
37.6871923606
 31
0.0
  0
MTEXT
  5
305
330
2F7
100
AcDbEntity
  8
SK2
100
AcDbMText
 10
102.1320538879
 20
42.2524016265
 30
0.0
 40
3.5
 41
0.0
 71
     1
 72
     1
  1

  7
SLDTEXTSTYLE0
 73
     1
 44
1.0
  0
MTEXT
  5
306
330
2F7
100
AcDbEntity
  8
SK2
100
AcDbMText
 10
104.2454219996
 20
47.4355610002
 30
0.0
 40
3.5
 41
0.0
 71
     1
 72
     1
  1
0,687
  7
SLDTEXTSTYLE0
 73
     1
 44
1.0
  0
MTEXT
  5
307
330
2F7
100
AcDbEntity
  8
SK2
100
AcDbMText
 10
104.2454215339
 20
42.1989294498
 30
0.0
 40
3.5
 41
0.0
 71
     1
 72
     1
  1
17,45
  7
SLDTEXTSTYLE0
 73
     1
 44
1.0
  0
MTEXT
  5
308
330
2F7
100
AcDbEntity
  8
SK2
100
AcDbMText
 10
119.3282341868
 20
42.2524016265
 30
0.0
 40
3.5
 41
0.0
 71
     1
 72
     1
  1

  7
SLDTEXTSTYLE0
 73
     1
 44
1.0
  0
ENDBLK
  5
2F9
330
2F7
100
AcDbEntity
  8
0
100
AcDbBlockEnd
  0
BLOCK
  5
30B
330
30A
100
AcDbEntity
  8
0
100
AcDbBlockBegin
  2
_D_6
 70
     0
 10
0.0
 20
0.0
 30
0.0
  3
_D_6
  1

  0
SOLID
  5
30D
330
30A
100
AcDbEntity
  8
2
100
AcDbTrace
 10
0.0
 20
51.455901495
 30
0.0
 11
3.302
 21
50.947901495
 31
0.0
 12
3.302
 22
51.963901495
 32
0.0
 13
3.302
 23
51.963901495
 33
0.0
  0
SOLID
  5
30E
330
30A
100
AcDbEntity
  8
2
100
AcDbTrace
 10
101.6
 20
51.455901495
 30
0.0
 11
98.298
 21
51.963901495
 31
0.0
 12
98.298
 22
50.947901495
 32
0.0
 13
98.298
 23
50.947901495
 33
0.0
  0
LINE
  5
30F
330
30A
100
AcDbEntity
  8
2
100
AcDbLine
 10
45.7646963635
 20
62.248783211
 30
0.0
 11
44.6982901061
 21
62.248783211
 31
0.0
  0
LINE
  5
310
330
30A
100
AcDbEntity
  8
2
100
AcDbLine
 10
44.6982901061
 20
62.248783211
 30
0.0
 11
44.6982901061
 21
56.6925332199
 31
0.0
  0
LINE
  5
311
330
30A
100
AcDbEntity
  8
2
100
AcDbLine
 10
44.6982901061
 20
56.6925332199
 30
0.0
 11
45.7646963635
 21
56.6925332199
 31
0.0
  0
LINE
  5
312
330
30A
100
AcDbEntity
  8
2
100
AcDbLine
 10
57.4021968508
 20
62.248783211
 30
0.0
 11
58.4686031082
 21
62.248783211
 31
0.0
  0
LINE
  5
313
330
30A
100
AcDbEntity
  8
2
100
AcDbLine
 10
58.4686031082
 20
62.248783211
 30
0.0
 11
58.4686031082
 21
56.6925332199
 31
0.0
  0
LINE
  5
314
330
30A
100
AcDbEntity
  8
2
100
AcDbLine
 10
58.4686031082
 20
56.6925332199
 30
0.0
 11
57.4021968508
 21
56.6925332199
 31
0.0
  0
LINE
  5
315
330
30A
100
AcDbEntity
  8
2
100
AcDbLine
 10
0.0
 20
23.225
 30
0.0
 11
0.0
 21
52.455901495
 31
0.0
  0
LINE
  5
316
330
30A
100
AcDbEntity
  8
2
100
AcDbLine
 10
101.6
 20
22.209
 30
0.0
 11
101.6
 21
52.455901495
 31
0.0
  0
LINE
  5
317
330
30A
100
AcDbEntity
  8
2
100
AcDbLine
 10
0.0
 20
51.455901495
 30
0.0
 11
101.6
 21
51.455901495
 31
0.0
  0
MTEXT
  5
318
330
30A
100
AcDbEntity
  8
2
100
AcDbMText
 10
43.6513282519
 20
56.0211107608
 30
0.0
 40
3.5
 41
0.0
 71
     1
 72
     1
  1

  7
SLDTEXTSTYLE0
 73
     1
 44
1.0
  0
MTEXT
  5
319
330
30A
100
AcDbEntity
  8
2
100
AcDbMText
 10
45.7646963635
 20
61.2042701345
 30
0.0
 40
3.5
 41
0.0
 71
     1
 72
     1
  1
4,000
  7
SLDTEXTSTYLE0
 73
     1
 44
1.0
  0
MTEXT
  5
31A
330
30A
100
AcDbEntity
  8
2
100
AcDbMText
 10
45.7646958979
 20
55.9676385842
 30
0.0
 40
3.5
 41
0.0
 71
     1
 72
     1
  1
101,6
  7
SLDTEXTSTYLE0
 73
     1
 44
1.0
  0
MTEXT
  5
31B
330
30A
100
AcDbEntity
  8
2
100
AcDbMText
 10
60.8475085508
 20
56.0211107608
 30
0.0
 40
3.5
 41
0.0
 71
     1
 72
     1
  1

  7
SLDTEXTSTYLE0
 73
     1
 44
1.0
  0
ENDBLK
  5
30C
330
30A
100
AcDbEntity
  8
0
100
AcDbBlockEnd
  0
BLOCK
  5
31E
330
31D
100
AcDbEntity
  8
0
100
AcDbBlockBegin
  2
_D_7
 70
     0
 10
0.0
 20
0.0
 30
0.0
  3
_D_7
  1

  0
SOLID
  5
320
330
31D
100
AcDbEntity
  8
SK2
100
AcDbTrace
 10
163.2049740282
 20
-22.225
 30
0.0
 11
163.7129740282
 21
-18.923
 31
0.0
 12
162.6969740282
 22
-18.923
 32
0.0
 13
162.6969740282
 23
-18.923
 33
0.0
  0
SOLID
  5
321
330
31D
100
AcDbEntity
  8
SK2
100
AcDbTrace
 10
163.2049740282
 20
22.225
 30
0.0
 11
162.6969740282
 21
18.923
 31
0.0
 12
163.7129740282
 22
18.923
 32
0.0
 13
163.7129740282
 23
18.923
 33
0.0
  0
LINE
  5
322
330
31D
100
AcDbEntity
  8
SK2
100
AcDbLine
 10
152.4120923122
 20
-4.9848765612
 30
0.0
 11
152.4120923122
 21
-6.0512828186
 31
0.0
  0
LINE
  5
323
330
31D
100
AcDbEntity
  8
SK2
100
AcDbLine
 10
152.4120923122
 20
-6.0512828186
 30
0.0
 11
157.9683423032
 21
-6.0512828186
 31
0.0
  0
LINE
  5
324
330
31D
100
AcDbEntity
  8
SK2
100
AcDbLine
 10
157.9683423032
 20
-6.0512828186
 30
0.0
 11
157.9683423032
 21
-4.9848765612
 31
0.0
  0
LINE
  5
325
330
31D
100
AcDbEntity
  8
SK2
100
AcDbLine
 10
152.4120923122
 20
6.6526239261
 30
0.0
 11
152.4120923122
 21
7.7190301835
 31
0.0
  0
LINE
  5
326
330
31D
100
AcDbEntity
  8
SK2
100
AcDbLine
 10
152.4120923122
 20
7.7190301835
 30
0.0
 11
157.9683423032
 21
7.7190301835
 31
0.0
  0
LINE
  5
327
330
31D
100
AcDbEntity
  8
SK2
100
AcDbLine
 10
157.9683423032
 20
7.7190301835
 30
0.0
 11
157.9683423032
 21
6.6526239261
 31
0.0
  0
LINE
  5
328
330
31D
100
AcDbEntity
  8
SK2
100
AcDbLine
 10
101.584
 20
-22.225
 30
0.0
 11
164.2049740282
 21
-22.225
 31
0.0
  0
LINE
  5
329
330
31D
100
AcDbEntity
  8
SK2
100
AcDbLine
 10
101.584
 20
22.225
 30
0.0
 11
164.2049740282
 21
22.225
 31
0.0
  0
LINE
  5
32A
330
31D
100
AcDbEntity
  8
SK2
100
AcDbLine
 10
163.2049740282
 20
-22.225
 30
0.0
 11
163.2049740282
 21
22.225
 31
0.0
  0
MTEXT
  5
32B
330
31D
100
AcDbEntity
  8
SK2
100
AcDbMText
 10
153.4566053887
 20
-4.9848765612
 30
0.0
 40
3.5
 41
0.0
 71
     1
 72
     1
  1
1,750
  7
SLDTEXTSTYLE0
 11
6.123233995736766E-17
 21
1.0
 31
0.0
 73
     1
 44
1.0
  0
MTEXT
  5
32C
330
31D
100
AcDbEntity
  8
SK2
100
AcDbMText
 10
158.693236939
 20
-7.624095726
 30
0.0
 40
3.5
 41
0.0
 71
     1
 72
     1
  1
%%c
  7
SLDTEXTSTYLE0
 11
6.123233995736766E-17
 21
1.0
 31
0.0
 73
     1
 44
1.0
  0
MTEXT
  5
32D
330
31D
100
AcDbEntity
  8
SK2
100
AcDbMText
 10
158.693236939
 20
-2.3456583277
 30
0.0
 40
3.5
 41
0.0
 71
     1
 72
     1
  1
44,45
  7
SLDTEXTSTYLE0
 11
6.123233995736766E-17
 21
1.0
 31
0.0
 73
     1
 44
1.0
  0
ENDBLK
  5
31F
330
31D
100
AcDbEntity
  8
0
100
AcDbBlockEnd
  0
BLOCK
  5
330
330
32F
100
AcDbEntity
  8
0
100
AcDbBlockBegin
  2
_D_8
 70
     0
 10
0.0
 20
0.0
 30
0.0
  3
_D_8
  1

  0
SOLID
  5
332
330
32F
100
AcDbEntity
  8
SK2
100
AcDbTrace
 10
147.5291021508
 20
9.52
 30
0.0
 11
147.0211021508
 21
6.218
 31
0.0
 12
148.0371021508
 22
6.218
 32
0.0
 13
148.0371021508
 23
6.218
 33
0.0
  0
SOLID
  5
333
330
32F
100
AcDbEntity
  8
SK2
100
AcDbTrace
 10
147.5291021508
 20
-9.52
 30
0.0
 11
148.0371021508
 21
-6.218
 31
0.0
 12
147.0211021508
 22
-6.218
 32
0.0
 13
147.0211021508
 23
-6.218
 33
0.0
  0
LINE
  5
334
330
32F
100
AcDbEntity
  8
SK2
100
AcDbLine
 10
136.7362204347
 20
-4.9848766776
 30
0.0
 11
136.7362204347
 21
-6.051282935
 31
0.0
  0
LINE
  5
335
330
32F
100
AcDbEntity
  8
SK2
100
AcDbLine
 10
136.7362204347
 20
-6.051282935
 30
0.0
 11
142.2924704258
 21
-6.051282935
 31
0.0
  0
LINE
  5
336
330
32F
100
AcDbEntity
  8
SK2
100
AcDbLine
 10
142.2924704258
 20
-6.051282935
 30
0.0
 11
142.2924704258
 21
-4.9848766776
 31
0.0
  0
LINE
  5
337
330
32F
100
AcDbEntity
  8
SK2
100
AcDbLine
 10
136.7362204347
 20
6.6526238097
 30
0.0
 11
136.7362204347
 21
7.7190300671
 31
0.0
  0
LINE
  5
338
330
32F
100
AcDbEntity
  8
SK2
100
AcDbLine
 10
136.7362204347
 20
7.7190300671
 30
0.0
 11
142.2924704258
 21
7.7190300671
 31
0.0
  0
LINE
  5
339
330
32F
100
AcDbEntity
  8
SK2
100
AcDbLine
 10
142.2924704258
 20
7.7190300671
 30
0.0
 11
142.2924704258
 21
6.6526238097
 31
0.0
  0
LINE
  5
33A
330
32F
100
AcDbEntity
  8
SK2
100
AcDbLine
 10
118.55
 20
9.52
 30
0.0
 11
148.5291021508
 21
9.52
 31
0.0
  0
LINE
  5
33B
330
32F
100
AcDbEntity
  8
SK2
100
AcDbLine
 10
118.55
 20
-9.52
 30
0.0
 11
148.5291021508
 21
-9.52
 31
0.0
  0
LINE
  5
33C
330
32F
100
AcDbEntity
  8
SK2
100
AcDbLine
 10
147.5291021508
 20
9.52
 30
0.0
 11
147.5291021508
 21
-9.52
 31
0.0
  0
MTEXT
  5
33D
330
32F
100
AcDbEntity
  8
SK2
100
AcDbMText
 10
142.9638928849
 20
-7.0982447893
 30
0.0
 40
3.5
 41
0.0
 71
     1
 72
     1
  1

  7
SLDTEXTSTYLE0
 11
-7.044195017643634E-15
 21
1.0
 31
0.0
 73
     1
 44
1.0
  0
MTEXT
  5
33E
330
32F
100
AcDbEntity
  8
SK2
100
AcDbMText
 10
137.7807335112
 20
-4.9848766776
 30
0.0
 40
3.5
 41
0.0
 71
     1
 72
     1
  1
0,750
  7
SLDTEXTSTYLE0
 11
-7.044195017643634E-15
 21
1.0
 31
0.0
 73
     1
 44
1.0
  0
MTEXT
  5
33F
330
32F
100
AcDbEntity
  8
SK2
100
AcDbMText
 10
143.0173650616
 20
-4.9848771433
 30
0.0
 40
3.5
 41
0.0
 71
     1
 72
     1
  1
19,04
  7
SLDTEXTSTYLE0
 11
-7.044195017643634E-15
 21
1.0
 31
0.0
 73
     1
 44
1.0
  0
MTEXT
  5
340
330
32F
100
AcDbEntity
  8
SK2
100
AcDbMText
 10
142.9638928849
 20
10.0979355097
 30
0.0
 40
3.5
 41
0.0
 71
     1
 72
     1
  1

  7
SLDTEXTSTYLE0
 11
-7.044195017643634E-15
 21
1.0
 31
0.0
 73
     1
 44
1.0
  0
ENDBLK
  5
331
330
32F
100
AcDbEntity
  8
0
100
AcDbBlockEnd
  0
BLOCK
  5
343
330
342
100
AcDbEntity
  8
0
100
AcDbBlockBegin
  2
_D_9
 70
     0
 10
0.0
 20
0.0
 30
0.0
  3
_D_9
  1

  0
SOLID
  5
345
330
342
100
AcDbEntity
  8
SK2
100
AcDbTrace
 10
-68.25
 20
-43.9272465937
 30
0.0
 11
-64.948
 21
-44.4352465937
 31
0.0
 12
-64.948
 22
-43.4192465937
 32
0.0
 13
-64.948
 23
-43.4192465937
 33
0.0
  0
SOLID
  5
346
330
342
100
AcDbEntity
  8
SK2
100
AcDbTrace
 10
119.05
 20
-43.9272465937
 30
0.0
 11
115.748
 21
-43.4192465937
 31
0.0
 12
115.748
 22
-44.4352465937
 32
0.0
 13
115.748
 23
-44.4352465937
 33
0.0
  0
LINE
  5
347
330
342
100
AcDbEntity
  8
SK2
100
AcDbLine
 10
18.3631296925
 20
-33.1343648776
 30
0.0
 11
17.296723435
 21
-33.1343648776
 31
0.0
  0
LINE
  5
348
330
342
100
AcDbEntity
  8
SK2
100
AcDbLine
 10
17.296723435
 20
-33.1343648776
 30
0.0
 11
17.296723435
 21
-38.6906148687
 31
0.0
  0
LINE
  5
349
330
342
100
AcDbEntity
  8
SK2
100
AcDbLine
 10
17.296723435
 20
-38.6906148687
 30
0.0
 11
18.3631296925
 21
-38.6906148687
 31
0.0
  0
LINE
  5
34A
330
342
100
AcDbEntity
  8
SK2
100
AcDbLine
 10
30.0006301798
 20
-33.1343648776
 30
0.0
 11
31.0670364372
 21
-33.1343648776
 31
0.0
  0
LINE
  5
34B
330
342
100
AcDbEntity
  8
SK2
100
AcDbLine
 10
31.0670364372
 20
-33.1343648776
 30
0.0
 11
31.0670364372
 21
-38.6906148687
 31
0.0
  0
LINE
  5
34C
330
342
100
AcDbEntity
  8
SK2
100
AcDbLine
 10
31.0670364372
 20
-38.6906148687
 30
0.0
 11
30.0006301798
 21
-38.6906148687
 31
0.0
  0
LINE
  5
34D
330
342
100
AcDbEntity
  8
SK2
100
AcDbLine
 10
-68.25
 20
-12.1476148288
 30
0.0
 11
-68.25
 21
-44.9272465937
 31
0.0
  0
LINE
  5
34E
330
342
100
AcDbEntity
  8
SK2
100
AcDbLine
 10
119.05
 20
-9.6539745962
 30
0.0
 11
119.05
 21
-44.9272465937
 31
0.0
  0
LINE
  5
34F
330
342
100
AcDbEntity
  8
SK2
100
AcDbLine
 10
-68.25
 20
-43.9272465937
 30
0.0
 11
119.05
 21
-43.9272465937
 31
0.0
  0
MTEXT
  5
350
330
342
100
AcDbEntity
  8
SK2
100
AcDbMText
 10
16.2497615808
 20
-39.3620373278
 30
0.0
 40
3.5
 41
0.0
 71
     1
 72
     1
  1

  7
SLDTEXTSTYLE0
 73
     1
 44
1.0
  0
MTEXT
  5
351
330
342
100
AcDbEntity
  8
SK2
100
AcDbMText
 10
18.3631296925
 20
-34.1788779541
 30
0.0
 40
3.5
 41
0.0
 71
     1
 72
     1
  1
7,374
  7
SLDTEXTSTYLE0
 73
     1
 44
1.0
  0
MTEXT
  5
352
330
342
100
AcDbEntity
  8
SK2
100
AcDbMText
 10
18.3631292268
 20
-39.4155095045
 30
0.0
 40
3.5
 41
0.0
 71
     1
 72
     1
  1
187,3
  7
SLDTEXTSTYLE0
 73
     1
 44
1.0
  0
MTEXT
  5
353
330
342
100
AcDbEntity
  8
SK2
100
AcDbMText
 10
33.4459418798
 20
-39.3620373278
 30
0.0
 40
3.5
 41
0.0
 71
     1
 72
     1
  1

  7
SLDTEXTSTYLE0
 73
     1
 44
1.0
  0
ENDBLK
  5
344
330
342
100
AcDbEntity
  8
0
100
AcDbBlockEnd
  0
ENDSEC
  0
SECTION
  2
ENTITIES
  0
LINE
  5
7E
330
1F
100
AcDbEntity
  8
SK1
  6
Continuous
370
    25
100
AcDbLine
 10
133.2268282791
 20
-11.1
 30
0.0
 11
133.7268282791
 21
-10.6
 31
0.0
  0
LINE
  5
7F
330
1F
100
AcDbEntity
  8
SK1
  6
Continuous
370
    25
100
AcDbLine
 10
133.7268282791
 20
10.6
 30
0.0
 11
133.2268282791
 21
11.1
 31
0.0
  0
LINE
  5
80
330
1F
100
AcDbEntity
  8
SK1
  6
Continuous
370
    25
100
AcDbLine
 10
124.7268282791
 20
11.1
 30
0.0
 11
124.2268282791
 21
10.6
 31
0.0
  0
LINE
  5
81
330
1F
100
AcDbEntity
  8
SK1
  6
Continuous
370
    25
100
AcDbLine
 10
124.2268282791
 20
-10.6
 30
0.0
 11
124.7268282791
 21
-11.1
 31
0.0
  0
LINE
  5
82
330
1F
100
AcDbEntity
  8
SK1
  6
Continuous
370
    25
100
AcDbLine
 10
124.7268282791
 20
-11.1
 30
0.0
 11
133.2268282791
 21
-11.1
 31
0.0
  0
LINE
  5
83
330
1F
100
AcDbEntity
  8
SK1
  6
Continuous
370
    25
100
AcDbLine
 10
133.2268282791
 20
11.1
 30
0.0
 11
124.7268282791
 21
11.1
 31
0.0
  0
LINE
  5
84
330
1F
100
AcDbEntity
  8
SK1
  6
Continuous
370
    25
100
AcDbLine
 10
119.05
 20
-4.75
 30
0.0
 11
123.4468282791
 21
-4.75
 31
0.0
  0
LINE
  5
85
330
1F
100
AcDbEntity
  8
SK1
  6
Continuous
370
    25
100
AcDbLine
 10
123.4468282791
 20
4.75
 30
0.0
 11
119.05
 21
4.75
 31
0.0
  0
LINE
  5
86
330
1F
100
AcDbEntity
  8
1
  6
Continuous
370
    25
100
AcDbLine
 10
1.8869952227
 20
-22.225
 30
0.0
 11
2.1330363037
 21
-22.1102691597
 31
0.0
  0
LINE
  5
87
330
1F
100
AcDbEntity
  8
1
  6
Continuous
370
    25
100
AcDbLine
 10
2.1330363037
 20
22.1102691597
 30
0.0
 11
1.8869952227
 21
22.225
 31
0.0
  0
LINE
  5
88
330
1F
100
AcDbEntity
  8
1
  6
Continuous
370
    25
100
AcDbLine
 10
1.8869952227
 20
22.225
 30
0.0
 11
0.0
 21
22.225
 31
0.0
  0
LINE
  5
89
330
1F
100
AcDbEntity
  8
1
  6
Continuous
370
    25
100
AcDbLine
 10
0.0
 20
-22.225
 30
0.0
 11
1.8869952227
 21
-22.225
 31
0.0
  0
LINE
  5
8A
330
1F
100
AcDbEntity
  8
SK1
  6
Continuous
370
    25
100
AcDbLine
 10
0.0
 20
22.225
 30
0.0
 11
-67.1376006954
 21
12.4340074512
 31
0.0
  0
LINE
  5
8B
330
1F
100
AcDbEntity
  8
SK1
  6
Continuous
370
    25
100
AcDbLine
 10
-67.1376006954
 20
-12.4340074512
 30
0.0
 11
0.0
 21
-22.225
 31
0.0
  0
LINE
  5
8C
330
1F
100
AcDbEntity
  8
1
  6
Continuous
370
    25
100
AcDbLine
 10
100.584
 20
22.225
 30
0.0
 11
22.225
 21
22.225
 31
0.0
  0
LINE
  5
8D
330
1F
100
AcDbEntity
  8
1
  6
Continuous
370
    25
100
AcDbLine
 10
97.1674865232
 20
-22.225
 30
0.0
 11
100.584
 21
-22.225
 31
0.0
  0
LINE
  5
8E
330
1F
100
AcDbEntity
  8
1
  6
Continuous
370
    25
100
AcDbLine
 10
22.225
 20
-22.225
 30
0.0
 11
88.0455618109
 21
-22.225
 31
0.0
  0
LINE
  5
8F
330
1F
100
AcDbEntity
  8
SK1
  6
Continuous
370
    25
100
AcDbLine
 10
117.55
 20
9.52
 30
0.0
 11
102.811555604
 21
9.52
 31
0.0
  0
LINE
  5
90
330
1F
100
AcDbEntity
  8
SK1
  6
Continuous
370
    25
100
AcDbLine
 10
102.811555604
 20
-9.52
 30
0.0
 11
117.55
 21
-9.52
 31
0.0
  0
LINE
  5
91
330
1F
100
AcDbEntity
  8
SK1
  6
Continuous
370
    25
100
AcDbLine
 10
102.811555604
 20
9.52
 30
0.0
 11
102.4367904954
 21
9.4018370152
 31
0.0
  0
LINE
  5
92
330
1F
100
AcDbEntity
  8
SK1
  6
Continuous
370
    25
100
AcDbLine
 10
102.4367904954
 20
-9.4018370152
 30
0.0
 11
102.811555604
 21
-9.52
 31
0.0
  0
LINE
  5
93
330
1F
100
AcDbEntity
  8
SK1
  6
Continuous
370
    25
100
AcDbLine
 10
117.55
 20
-9.52
 30
0.0
 11
119.05
 21
-8.6539745962
 31
0.0
  0
LINE
  5
94
330
1F
100
AcDbEntity
  8
SK1
  6
Continuous
370
    25
100
AcDbLine
 10
119.05
 20
8.6539745962
 30
0.0
 11
117.55
 21
9.52
 31
0.0
  0
LINE
  5
95
330
1F
100
AcDbEntity
  8
1
  6
Continuous
370
    25
100
AcDbLine
 10
19.1807071345
 20
24.4983870292
 30
0.0
 11
19.05
 21
24.6293058423
 31
0.0
  0
LINE
  5
96
330
1F
100
AcDbEntity
  8
1
  6
Continuous
370
    25
100
AcDbLine
 10
2.9550943813
 20
-22.2355816754
 30
0.0
 11
3.1876342019
 21
-22.41
 31
0.0
  0
LINE
  5
97
330
1F
100
AcDbEntity
  8
SK1
  6
Continuous
370
    25
100
AcDbLine
 10
133.2268282791
 20
-10.2083337227
 30
0.0
 11
133.2268282791
 21
11.1
 31
0.0
  0
LINE
  5
98
330
1F
100
AcDbEntity
  8
SK1
  6
Continuous
370
    25
100
AcDbLine
 10
133.2268282791
 20
-11.1
 30
0.0
 11
133.2268282791
 21
-10.2083337227
 31
0.0
  0
LINE
  5
99
330
1F
100
AcDbEntity
  8
SK1
  6
Continuous
370
    25
100
AcDbLine
 10
133.7268282791
 20
-9.7484988703
 30
0.0
 11
133.7268282791
 21
-10.6
 31
0.0
  0
LINE
  5
9A
330
1F
100
AcDbEntity
  8
SK1
  6
Continuous
370
    25
100
AcDbLine
 10
133.7268282791
 20
10.6
 30
0.0
 11
133.7268282791
 21
-9.7484988703
 31
0.0
  0
LINE
  5
9B
330
1F
100
AcDbEntity
  8
SK1
  6
Continuous
370
    25
100
AcDbLine
 10
124.2268282791
 20
-10.6
 30
0.0
 11
124.2268282791
 21
10.6
 31
0.0
  0
LINE
  5
9C
330
1F
100
AcDbEntity
  8
SK1
  6
Continuous
370
    25
100
AcDbLine
 10
124.7268282791
 20
11.1
 30
0.0
 11
124.7268282791
 21
-11.1
 31
0.0
  0
LINE
  5
9D
330
1F
100
AcDbEntity
  8
SK1
  6
Continuous
370
    25
100
AcDbLine
 10
105.134
 20
3.9625
 30
0.0
 11
105.384
 21
3.7125
 31
0.0
  0
LINE
  5
9E
330
1F
100
AcDbEntity
  8
SK1
  6
Continuous
370
    25
100
AcDbLine
 10
105.134
 20
3.7125
 30
0.0
 11
105.384
 21
3.7125
 31
0.0
  0
LINE
  5
9F
330
1F
100
AcDbEntity
  8
SK1
  6
Continuous
370
    25
100
AcDbLine
 10
105.134
 20
3.9625
 30
0.0
 11
105.134
 21
3.7125
 31
0.0
  0
LINE
  5
A0
330
1F
100
AcDbEntity
  8
SK1
  6
Continuous
370
    25
100
AcDbLine
 10
105.134
 20
-3.7125
 30
0.0
 11
105.384
 21
-3.7125
 31
0.0
  0
LINE
  5
A1
330
1F
100
AcDbEntity
  8
SK1
  6
Continuous
370
    25
100
AcDbLine
 10
105.134
 20
-3.9625
 30
0.0
 11
105.384
 21
-3.7125
 31
0.0
  0
LINE
  5
A2
330
1F
100
AcDbEntity
  8
SK1
  6
Continuous
370
    25
100
AcDbLine
 10
105.134
 20
-3.7125
 30
0.0
 11
105.134
 21
-3.9625
 31
0.0
  0
LINE
  5
A3
330
1F
100
AcDbEntity
  8
SK1
  6
Continuous
370
    25
100
AcDbLine
 10
105.134
 20
-3.7125
 30
0.0
 11
105.134
 21
3.7125
 31
0.0
  0
LINE
  5
A4
330
1F
100
AcDbEntity
  8
SK1
  6
Continuous
370
    25
100
AcDbLine
 10
105.384
 20
3.7125
 30
0.0
 11
105.384
 21
-3.7125
 31
0.0
  0
LINE
  5
A5
330
1F
100
AcDbEntity
  8
SK1
  6
Continuous
370
    25
100
AcDbLine
 10
101.6
 20
3.9625
 30
0.0
 11
105.134
 21
3.9625
 31
0.0
  0
LINE
  5
A6
330
1F
100
AcDbEntity
  8
SK1
  6
Continuous
370
    25
100
AcDbLine
 10
105.134
 20
3.7125
 30
0.0
 11
101.6
 21
3.7125
 31
0.0
  0
LINE
  5
A7
330
1F
100
AcDbEntity
  8
SK1
  6
Continuous
370
    25
100
AcDbLine
 10
101.6
 20
-3.7125
 30
0.0
 11
105.134
 21
-3.7125
 31
0.0
  0
LINE
  5
A8
330
1F
100
AcDbEntity
  8
SK1
  6
Continuous
370
    25
100
AcDbLine
 10
105.134
 20
-3.9625
 30
0.0
 11
101.6
 21
-3.9625
 31
0.0
  0
LINE
  5
A9
330
1F
100
AcDbEntity
  8
1
  6
Continuous
370
    25
100
AcDbLine
 10
18.3
 20
30.5579086614
 30
0.0
 11
14.6411263546
 21
30.5579086614
 31
0.0
  0
LINE
  5
AA
330
1F
100
AcDbEntity
  8
1
  6
Continuous
370
    25
100
AcDbLine
 10
18.3
 20
-30.5942374953
 30
0.0
 11
18.3
 21
30.5579086614
 31
0.0
  0
LINE
  5
AB
330
1F
100
AcDbEntity
  8
1
  6
Continuous
370
    25
100
AcDbLine
 10
14.6411263546
 20
-30.5942374953
 30
0.0
 11
18.3
 21
-30.5942374953
 31
0.0
  0
LINE
  5
AC
330
1F
100
AcDbEntity
  8
1
  6
Continuous
370
    25
100
AcDbLine
 10
14.6411263546
 20
30.5579086614
 30
0.0
 11
14.6411263546
 21
-30.5942374953
 31
0.0
  0
LINE
  5
AD
330
1F
100
AcDbEntity
  8
1
  6
Continuous
370
    25
100
AcDbLine
 10
19.05
 20
29.8048664484
 30
0.0
 11
19.05
 21
-29.8460485918
 31
0.0
  0
LINE
  5
AE
330
1F
100
AcDbEntity
  8
1
  6
Continuous
370
    25
100
AcDbLine
 10
3.95
 20
30.5254908961
 30
0.0
 11
3.95
 21
-30.5579086614
 31
0.0
  0
LINE
  5
AF
330
1F
100
AcDbEntity
  8
1
  6
Continuous
370
    25
100
AcDbLine
 10
3.2
 20
-29.8048664484
 30
0.0
 11
3.2
 21
29.7846600619
 31
0.0
  0
LINE
  5
B0
330
1F
100
AcDbEntity
  8
1
  6
Continuous
370
    25
100
AcDbLine
 10
7.5888736454
 20
30.5254908961
 30
0.0
 11
3.95
 21
30.5254908961
 31
0.0
  0
LINE
  5
B1
330
1F
100
AcDbEntity
  8
1
  6
Continuous
370
    25
100
AcDbLine
 10
7.5888736454
 20
30.5254908961
 30
0.0
 11
7.5888736454
 21
-30.5579086614
 31
0.0
  0
LINE
  5
B2
330
1F
100
AcDbEntity
  8
1
  6
Continuous
370
    25
100
AcDbLine
 10
3.95
 20
-30.5579086614
 30
0.0
 11
7.5888736454
 21
-30.5579086614
 31
0.0
  0
LINE
  5
B3
330
1F
100
AcDbEntity
  8
1
  6
Continuous
370
    25
100
AcDbLine
 10
13.03
 20
25.319242438
 30
0.0
 11
13.03
 21
-27.8050456342
 31
0.0
  0
LINE
  5
B4
330
1F
100
AcDbEntity
  8
1
  6
Continuous
370
    25
100
AcDbLine
 10
13.03
 20
27.8050456342
 30
0.0
 11
13.03
 21
25.8117178836
 31
0.0
  0
LINE
  5
B5
330
1F
100
AcDbEntity
  8
1
  6
Continuous
370
    25
100
AcDbLine
 10
9.2
 20
27.8050456342
 30
0.0
 11
9.2
 21
25.8569131114
 31
0.0
  0
LINE
  5
B6
330
1F
100
AcDbEntity
  8
1
  6
Continuous
370
    25
100
AcDbLine
 10
9.2
 20
25.2705433174
 30
0.0
 11
9.2
 21
-27.8050456342
 31
0.0
  0
LINE
  5
B7
330
1F
100
AcDbEntity
  8
1
  6
Continuous
370
    25
100
AcDbLine
 10
9.95
 20
24.066859753
 30
0.0
 11
9.95
 21
-26.9870635676
 31
0.0
  0
LINE
  5
B8
330
1F
100
AcDbEntity
  8
1
  6
Continuous
370
    25
100
AcDbLine
 10
12.28
 20
24.0780506352
 30
0.0
 11
12.28
 21
-26.9870635676
 31
0.0
  0
LINE
  5
B9
330
1F
100
AcDbEntity
  8
1
  6
Continuous
370
    25
100
AcDbLine
 10
9.95
 20
-26.9870635676
 30
0.0
 11
12.28
 21
-26.9870635676
 31
0.0
  0
LINE
  5
BA
330
1F
100
AcDbEntity
  8
1
  6
Continuous
370
    25
100
AcDbLine
 10
1.8869952227
 20
22.225
 30
0.0
 11
1.8869952227
 21
-22.225
 31
0.0
  0
LINE
  5
BB
330
1F
100
AcDbEntity
  8
1
  6
Continuous
370
    25
100
AcDbLine
 10
0.0
 20
22.225
 30
0.0
 11
0.0
 21
-22.225
 31
0.0
  0
LINE
  5
BC
330
1F
100
AcDbEntity
  8
1
  6
Continuous
370
    25
100
AcDbLine
 10
101.6
 20
0.0
 30
0.0
 11
101.6
 21
-21.209
 31
0.0
  0
LINE
  5
BD
330
1F
100
AcDbEntity
  8
1
  6
Continuous
370
    25
100
AcDbLine
 10
101.6
 20
21.209
 30
0.0
 11
101.6
 21
0.0
 31
0.0
  0
LINE
  5
BE
330
1F
100
AcDbEntity
  8
1
  6
Continuous
370
    25
100
AcDbLine
 10
9.2
 20
25.8569131114
 30
0.0
 11
9.2
 21
25.8264908709
 31
0.0
  0
LINE
  5
BF
330
1F
100
AcDbEntity
  8
1
  6
Continuous
370
    25
100
AcDbLine
 10
13.03
 20
25.7812977304
 30
0.0
 11
13.03
 21
25.8117178836
 31
0.0
  0
LINE
  5
C0
330
1F
100
AcDbEntity
  8
1
  6
Continuous
370
    25
100
AcDbLine
 10
9.95
 20
26.9870635676
 30
0.0
 11
9.95
 21
25.6032587904
 31
0.0
  0
LINE
  5
C1
330
1F
100
AcDbEntity
  8
1
  6
Continuous
370
    25
100
AcDbLine
 10
12.28
 20
26.9870635676
 30
0.0
 11
12.28
 21
25.5942620881
 31
0.0
  0
LINE
  5
C2
330
1F
100
AcDbEntity
  8
SK1
  6
Continuous
370
    25
100
AcDbLine
 10
-68.25
 20
-11.1476148288
 30
0.0
 11
-68.25
 21
11.1476148288
 31
0.0
  0
LINE
  5
C3
330
1F
100
AcDbEntity
  8
1
  6
Continuous
370
    25
100
AcDbLine
 10
9.95
 20
26.9870635676
 30
0.0
 11
12.28
 21
26.9870635676
 31
0.0
  0
LINE
  5
C4
330
1F
100
AcDbEntity
  8
SK1
  6
Continuous
370
    25
100
AcDbLine
 10
102.811555604
 20
9.52
 30
0.0
 11
102.811555604
 21
3.9625
 31
0.0
  0
LINE
  5
C5
330
1F
100
AcDbEntity
  8
SK1
  6
Continuous
370
    25
100
AcDbLine
 10
102.811555604
 20
-3.9625
 30
0.0
 11
102.811555604
 21
-9.52
 31
0.0
  0
LINE
  5
C6
330
1F
100
AcDbEntity
  8
SK1
  6
Continuous
370
    25
100
AcDbLine
 10
117.55
 20
9.52
 30
0.0
 11
117.55
 21
-9.52
 31
0.0
  0
LINE
  5
C7
330
1F
100
AcDbEntity
  8
SK1
  6
Continuous
370
    25
100
AcDbLine
 10
119.05
 20
8.6539745962
 30
0.0
 11
119.05
 21
-8.6539745962
 31
0.0
  0
LINE
  5
C8
330
1F
100
AcDbEntity
  8
SK1
  6
Continuous
370
    25
100
AcDbLine
 10
123.4468282791
 20
-4.75
 30
0.0
 11
123.4468282791
 21
4.75
 31
0.0
  0
LINE
  5
C9
330
1F
100
AcDbEntity
  8
1
  6
Continuous
370
    25
100
AcDbLine
 10
22.225
 20
0.0
 30
0.0
 11
22.225
 21
-22.225
 31
0.0
  0
LINE
  5
CA
330
1F
100
AcDbEntity
  8
1
  6
Continuous
370
    25
100
AcDbLine
 10
22.225
 20
22.225
 30
0.0
 11
22.225
 21
0.0
 31
0.0
  0
LINE
  5
CB
330
1F
100
AcDbEntity
  8
1
  6
Continuous
370
    25
100
AcDbLine
 10
2.1330363037
 20
22.1102691597
 30
0.0
 11
2.1330363037
 21
-22.1102691597
 31
0.0
  0
LINE
  5
CC
330
1F
100
AcDbEntity
  8
SK1
  6
Continuous
370
    25
100
AcDbLine
 10
-67.1376006954
 20
0.0
 30
0.0
 11
-67.1376006954
 21
-12.4340074512
 31
0.0
  0
LINE
  5
CD
330
1F
100
AcDbEntity
  8
SK1
  6
Continuous
370
    25
100
AcDbLine
 10
-67.1376006954
 20
12.4340074512
 30
0.0
 11
-67.1376006954
 21
0.0
 31
0.0
  0
LINE
  5
CE
330
1F
100
AcDbEntity
  8
1
  6
Continuous
370
    25
100
AcDbLine
 10
100.584
 20
0.0
 30
0.0
 11
100.584
 21
22.225
 31
0.0
  0
LINE
  5
CF
330
1F
100
AcDbEntity
  8
1
  6
Continuous
370
    25
100
AcDbLine
 10
100.584
 20
-22.225
 30
0.0
 11
100.584
 21
0.0
 31
0.0
  0
LINE
  5
D0
330
1F
100
AcDbEntity
  8
SK1
  6
Continuous
370
    25
100
AcDbLine
 10
102.4367904954
 20
9.4018370152
 30
0.0
 11
102.4367904954
 21
3.9625
 31
0.0
  0
LINE
  5
D1
330
1F
100
AcDbEntity
  8
SK1
  6
Continuous
370
    25
100
AcDbLine
 10
102.4367904954
 20
-3.9625
 30
0.0
 11
102.4367904954
 21
-9.4018370152
 31
0.0
  0
LINE
  5
D2
330
1F
100
AcDbEntity
  8
SK3
  6
HIDDEN
370
    18
100
AcDbLine
 10
5.7322709434
 20
-8.8686354442
 30
0.0
 11
5.5866972115
 21
-8.3183773178
 31
0.0
  0
LINE
  5
D3
330
1F
100
AcDbEntity
  8
SK3
  6
HIDDEN
370
    18
100
AcDbLine
 10
5.5866972115
 20
-8.3183773178
 30
0.0
 11
5.3547990304
 21
-7.8126978323
 31
0.0
  0
LINE
  5
D4
330
1F
100
AcDbEntity
  8
SK3
  6
HIDDEN
370
    18
100
AcDbLine
 10
5.3547990304
 20
-7.8126978323
 30
0.0
 11
5.0553634117
 21
-7.3925641322
 31
0.0
  0
LINE
  5
D5
330
1F
100
AcDbEntity
  8
SK3
  6
HIDDEN
370
    18
100
AcDbLine
 10
5.0553634117
 20
-7.3925641322
 30
0.0
 11
4.7126488483
 21
-7.0920129513
 31
0.0
  0
LINE
  5
D6
330
1F
100
AcDbEntity
  8
SK3
  6
HIDDEN
370
    18
100
AcDbLine
 10
4.7126488483
 20
-7.0920129513
 30
0.0
 11
4.3544200359
 21
-6.9353931587
 31
0.0
  0
LINE
  5
D7
330
1F
100
AcDbEntity
  8
SK3
  6
HIDDEN
370
    18
100
AcDbLine
 10
4.3544200359
 20
-6.9353931587
 30
0.0
 11
4.0096985426
 21
-6.9353931587
 31
0.0
  0
LINE
  5
D8
330
1F
100
AcDbEntity
  8
SK3
  6
HIDDEN
370
    18
100
AcDbLine
 10
4.0096985426
 20
-6.9353931587
 30
0.0
 11
3.7064116534
 21
-7.0920129513
 31
0.0
  0
LINE
  5
D9
330
1F
100
AcDbEntity
  8
SK3
  6
HIDDEN
370
    18
100
AcDbLine
 10
3.7064116534
 20
-7.0920129513
 30
0.0
 11
3.4691298685
 21
-7.3925641322
 31
0.0
  0
LINE
  5
DA
330
1F
100
AcDbEntity
  8
SK3
  6
HIDDEN
370
    18
100
AcDbLine
 10
3.4691298685
 20
-7.3925641322
 30
0.0
 11
3.317076347
 21
-7.8126978323
 31
0.0
  0
LINE
  5
DB
330
1F
100
AcDbEntity
  8
SK3
  6
HIDDEN
370
    18
100
AcDbLine
 10
3.317076347
 20
-7.8126978323
 30
0.0
 11
3.2625695608
 21
-8.3183773178
 31
0.0
  0
LINE
  5
DC
330
1F
100
AcDbEntity
  8
SK3
  6
HIDDEN
370
    18
100
AcDbLine
 10
3.2625695608
 20
-8.3183773178
 30
0.0
 11
3.3100253255
 21
-8.8686354442
 31
0.0
  0
LINE
  5
DD
330
1F
100
AcDbEntity
  8
SK3
  6
HIDDEN
370
    18
100
AcDbLine
 10
3.3100253255
 20
-8.8686354442
 30
0.0
 11
3.4555990574
 21
-9.4188935706
 31
0.0
  0
LINE
  5
DE
330
1F
100
AcDbEntity
  8
SK3
  6
HIDDEN
370
    18
100
AcDbLine
 10
3.4555990574
 20
-9.4188935706
 30
0.0
 11
3.6874972385
 21
-9.9245730561
 31
0.0
  0
LINE
  5
DF
330
1F
100
AcDbEntity
  8
SK3
  6
HIDDEN
370
    18
100
AcDbLine
 10
3.6874972385
 20
-9.9245730561
 30
0.0
 11
3.9869328573
 21
-10.3447067562
 31
0.0
  0
LINE
  5
E0
330
1F
100
AcDbEntity
  8
SK3
  6
HIDDEN
370
    18
100
AcDbLine
 10
3.9869328573
 20
-10.3447067562
 30
0.0
 11
4.3296474207
 21
-10.6452579372
 31
0.0
  0
LINE
  5
E1
330
1F
100
AcDbEntity
  8
SK3
  6
HIDDEN
370
    18
100
AcDbLine
 10
4.3296474207
 20
-10.6452579372
 30
0.0
 11
4.687876233
 21
-10.8018777297
 31
0.0
  0
LINE
  5
E2
330
1F
100
AcDbEntity
  8
SK3
  6
HIDDEN
370
    18
100
AcDbLine
 10
4.687876233
 20
-10.8018777297
 30
0.0
 11
5.0325977264
 21
-10.8018777297
 31
0.0
  0
LINE
  5
E3
330
1F
100
AcDbEntity
  8
SK3
  6
HIDDEN
370
    18
100
AcDbLine
 10
5.0325977264
 20
-10.8018777297
 30
0.0
 11
5.3358846155
 21
-10.6452579372
 31
0.0
  0
LINE
  5
E4
330
1F
100
AcDbEntity
  8
SK3
  6
HIDDEN
370
    18
100
AcDbLine
 10
5.3358846155
 20
-10.6452579372
 30
0.0
 11
5.5731664004
 21
-10.3447067562
 31
0.0
  0
LINE
  5
E5
330
1F
100
AcDbEntity
  8
SK3
  6
HIDDEN
370
    18
100
AcDbLine
 10
5.5731664004
 20
-10.3447067562
 30
0.0
 11
5.725219922
 21
-9.9245730561
 31
0.0
  0
LINE
  5
E6
330
1F
100
AcDbEntity
  8
SK3
  6
HIDDEN
370
    18
100
AcDbLine
 10
5.725219922
 20
-9.9245730561
 30
0.0
 11
5.7797267082
 21
-9.4188935706
 31
0.0
  0
LINE
  5
E7
330
1F
100
AcDbEntity
  8
SK3
  6
HIDDEN
370
    18
100
AcDbLine
 10
5.7797267082
 20
-9.4188935706
 30
0.0
 11
5.7322709434
 21
-8.8686354442
 31
0.0
  0
LINE
  5
E8
330
1F
100
AcDbEntity
  8
SK3
  6
HIDDEN
370
    18
100
AcDbLine
 10
3.2
 20
-7.1668508159
 30
0.0
 11
3.2
 21
-11.3022369236
 31
0.0
  0
LINE
  5
E9
330
1F
100
AcDbEntity
  8
SK3
  6
HIDDEN
370
    18
100
AcDbLine
 10
5.7253406934
 20
-8.8621689747
 30
0.0
 11
5.771610064
 21
-9.3986706479
 31
0.0
  0
LINE
  5
EA
330
1F
100
AcDbEntity
  8
SK3
  6
HIDDEN
370
    18
100
AcDbLine
 10
5.771610064
 20
-9.3986706479
 30
0.0
 11
5.7184659475
 21
-9.8917081463
 31
0.0
  0
LINE
  5
EB
330
1F
100
AcDbEntity
  8
SK3
  6
HIDDEN
370
    18
100
AcDbLine
 10
5.7184659475
 20
-9.8917081463
 30
0.0
 11
5.5702137639
 21
-10.3013385039
 31
0.0
  0
LINE
  5
EC
330
1F
100
AcDbEntity
  8
SK3
  6
HIDDEN
370
    18
100
AcDbLine
 10
5.5702137639
 20
-10.3013385039
 30
0.0
 11
5.3388640237
 21
-10.5943759053
 31
0.0
  0
LINE
  5
ED
330
1F
100
AcDbEntity
  8
SK3
  6
HIDDEN
370
    18
100
AcDbLine
 10
5.3388640237
 20
-10.5943759053
 30
0.0
 11
5.0431593068
 21
-10.7470802031
 31
0.0
  0
LINE
  5
EE
330
1F
100
AcDbEntity
  8
SK3
  6
HIDDEN
370
    18
100
AcDbLine
 10
5.0431593068
 20
-10.7470802031
 30
0.0
 11
4.7070558507
 21
-10.7470802031
 31
0.0
  0
LINE
  5
EF
330
1F
100
AcDbEntity
  8
SK3
  6
HIDDEN
370
    18
100
AcDbLine
 10
4.7070558507
 20
-10.7470802031
 30
0.0
 11
4.3577827587
 21
-10.5943759053
 31
0.0
  0
LINE
  5
F0
330
1F
100
AcDbEntity
  8
SK3
  6
HIDDEN
370
    18
100
AcDbLine
 10
4.3577827587
 20
-10.5943759053
 30
0.0
 11
4.0236360594
 21
-10.3013385039
 31
0.0
  0
LINE
  5
F1
330
1F
100
AcDbEntity
  8
SK3
  6
HIDDEN
370
    18
100
AcDbLine
 10
4.0236360594
 20
-10.3013385039
 30
0.0
 11
3.7316863311
 21
-9.8917081463
 31
0.0
  0
LINE
  5
F2
330
1F
100
AcDbEntity
  8
SK3
  6
HIDDEN
370
    18
100
AcDbLine
 10
3.7316863311
 20
-9.8917081463
 30
0.0
 11
3.5055856045
 21
-9.3986706479
 31
0.0
  0
LINE
  5
F3
330
1F
100
AcDbEntity
  8
SK3
  6
HIDDEN
370
    18
100
AcDbLine
 10
3.5055856045
 20
-9.3986706479
 30
0.0
 11
3.3636512159
 21
-8.8621689747
 31
0.0
  0
LINE
  5
F4
330
1F
100
AcDbEntity
  8
SK3
  6
HIDDEN
370
    18
100
AcDbLine
 10
3.3636512159
 20
-8.8621689747
 30
0.0
 11
3.3173818453
 21
-8.3256673015
 31
0.0
  0
LINE
  5
F5
330
1F
100
AcDbEntity
  8
SK3
  6
HIDDEN
370
    18
100
AcDbLine
 10
3.3173818453
 20
-8.3256673015
 30
0.0
 11
3.3705259619
 21
-7.8326298031
 31
0.0
  0
LINE
  5
F6
330
1F
100
AcDbEntity
  8
SK3
  6
HIDDEN
370
    18
100
AcDbLine
 10
3.3705259619
 20
-7.8326298031
 30
0.0
 11
3.5187781454
 21
-7.4229994455
 31
0.0
  0
LINE
  5
F7
330
1F
100
AcDbEntity
  8
SK3
  6
HIDDEN
370
    18
100
AcDbLine
 10
3.5187781454
 20
-7.4229994455
 30
0.0
 11
3.7501278856
 21
-7.1299620441
 31
0.0
  0
LINE
  5
F8
330
1F
100
AcDbEntity
  8
SK3
  6
HIDDEN
370
    18
100
AcDbLine
 10
3.7501278856
 20
-7.1299620441
 30
0.0
 11
4.0458326025
 21
-6.9772577464
 31
0.0
  0
LINE
  5
F9
330
1F
100
AcDbEntity
  8
SK3
  6
HIDDEN
370
    18
100
AcDbLine
 10
4.0458326025
 20
-6.9772577464
 30
0.0
 11
4.3819360586
 21
-6.9772577464
 31
0.0
  0
LINE
  5
FA
330
1F
100
AcDbEntity
  8
SK3
  6
HIDDEN
370
    18
100
AcDbLine
 10
4.3819360586
 20
-6.9772577464
 30
0.0
 11
4.7312091506
 21
-7.1299620441
 31
0.0
  0
LINE
  5
FB
330
1F
100
AcDbEntity
  8
SK3
  6
HIDDEN
370
    18
100
AcDbLine
 10
4.7312091506
 20
-7.1299620441
 30
0.0
 11
5.0653558499
 21
-7.4229994455
 31
0.0
  0
LINE
  5
FC
330
1F
100
AcDbEntity
  8
SK3
  6
HIDDEN
370
    18
100
AcDbLine
 10
5.0653558499
 20
-7.4229994455
 30
0.0
 11
5.3573055782
 21
-7.8326298031
 31
0.0
  0
LINE
  5
FD
330
1F
100
AcDbEntity
  8
SK3
  6
HIDDEN
370
    18
100
AcDbLine
 10
5.3573055782
 20
-7.8326298031
 30
0.0
 11
5.5834063048
 21
-8.3256673015
 31
0.0
  0
LINE
  5
FE
330
1F
100
AcDbEntity
  8
SK3
  6
HIDDEN
370
    18
100
AcDbLine
 10
5.5834063048
 20
-8.3256673015
 30
0.0
 11
5.7253406934
 21
-8.8621689747
 31
0.0
  0
LINE
  5
FF
330
1F
100
AcDbEntity
  8
SK3
  6
HIDDEN
370
    18
100
AcDbLine
 10
16.3488925452
 20
-5.9198440145
 30
0.0
 11
16.2069581565
 21
-5.3833423412
 31
0.0
  0
LINE
  5
100
330
1F
100
AcDbEntity
  8
SK3
  6
HIDDEN
370
    18
100
AcDbLine
 10
16.2069581565
 20
-5.3833423412
 30
0.0
 11
15.98085743
 21
-4.8903048429
 31
0.0
  0
LINE
  5
101
330
1F
100
AcDbEntity
  8
SK3
  6
HIDDEN
370
    18
100
AcDbLine
 10
15.98085743
 20
-4.8903048429
 30
0.0
 11
15.6889077017
 21
-4.4806744853
 31
0.0
  0
LINE
  5
102
330
1F
100
AcDbEntity
  8
SK3
  6
HIDDEN
370
    18
100
AcDbLine
 10
15.6889077017
 20
-4.4806744853
 30
0.0
 11
15.3547610024
 21
-4.1876370839
 31
0.0
  0
LINE
  5
103
330
1F
100
AcDbEntity
  8
SK3
  6
HIDDEN
370
    18
100
AcDbLine
 10
15.3547610024
 20
-4.1876370839
 30
0.0
 11
15.0054879103
 21
-4.0349327861
 31
0.0
  0
LINE
  5
104
330
1F
100
AcDbEntity
  8
SK3
  6
HIDDEN
370
    18
100
AcDbLine
 10
15.0054879103
 20
-4.0349327861
 30
0.0
 11
14.6693844543
 21
-4.0349327861
 31
0.0
  0
LINE
  5
105
330
1F
100
AcDbEntity
  8
SK3
  6
HIDDEN
370
    18
100
AcDbLine
 10
14.6693844543
 20
-4.0349327861
 30
0.0
 11
14.3736797374
 21
-4.1876370839
 31
0.0
  0
LINE
  5
106
330
1F
100
AcDbEntity
  8
SK3
  6
HIDDEN
370
    18
100
AcDbLine
 10
14.3736797374
 20
-4.1876370839
 30
0.0
 11
14.1423299972
 21
-4.4806744853
 31
0.0
  0
LINE
  5
107
330
1F
100
AcDbEntity
  8
SK3
  6
HIDDEN
370
    18
100
AcDbLine
 10
14.1423299972
 20
-4.4806744853
 30
0.0
 11
13.9940778136
 21
-4.8903048429
 31
0.0
  0
LINE
  5
108
330
1F
100
AcDbEntity
  8
SK3
  6
HIDDEN
370
    18
100
AcDbLine
 10
13.9940778136
 20
-4.8903048429
 30
0.0
 11
13.9409336971
 21
-5.3833423412
 31
0.0
  0
LINE
  5
109
330
1F
100
AcDbEntity
  8
SK3
  6
HIDDEN
370
    18
100
AcDbLine
 10
13.9409336971
 20
-5.3833423412
 30
0.0
 11
13.9872030677
 21
-5.9198440145
 31
0.0
  0
LINE
  5
10A
330
1F
100
AcDbEntity
  8
SK3
  6
HIDDEN
370
    18
100
AcDbLine
 10
13.9872030677
 20
-5.9198440145
 30
0.0
 11
14.1291374563
 21
-6.4563456877
 31
0.0
  0
LINE
  5
10B
330
1F
100
AcDbEntity
  8
SK3
  6
HIDDEN
370
    18
100
AcDbLine
 10
14.1291374563
 20
-6.4563456877
 30
0.0
 11
14.3552381829
 21
-6.9493831861
 31
0.0
  0
LINE
  5
10C
330
1F
100
AcDbEntity
  8
SK3
  6
HIDDEN
370
    18
100
AcDbLine
 10
14.3552381829
 20
-6.9493831861
 30
0.0
 11
14.6471879112
 21
-7.3590135437
 31
0.0
  0
LINE
  5
10D
330
1F
100
AcDbEntity
  8
SK3
  6
HIDDEN
370
    18
100
AcDbLine
 10
14.6471879112
 20
-7.3590135437
 30
0.0
 11
14.9813346105
 21
-7.6520509451
 31
0.0
  0
LINE
  5
10E
330
1F
100
AcDbEntity
  8
SK3
  6
HIDDEN
370
    18
100
AcDbLine
 10
14.9813346105
 20
-7.6520509451
 30
0.0
 11
15.3306077025
 21
-7.8047552428
 31
0.0
  0
LINE
  5
10F
330
1F
100
AcDbEntity
  8
SK3
  6
HIDDEN
370
    18
100
AcDbLine
 10
15.3306077025
 20
-7.8047552428
 30
0.0
 11
15.6667111586
 21
-7.8047552428
 31
0.0
  0
LINE
  5
110
330
1F
100
AcDbEntity
  8
SK3
  6
HIDDEN
370
    18
100
AcDbLine
 10
15.6667111586
 20
-7.8047552428
 30
0.0
 11
15.9624158755
 21
-7.6520509451
 31
0.0
  0
LINE
  5
111
330
1F
100
AcDbEntity
  8
SK3
  6
HIDDEN
370
    18
100
AcDbLine
 10
15.9624158755
 20
-7.6520509451
 30
0.0
 11
16.1937656157
 21
-7.3590135437
 31
0.0
  0
LINE
  5
112
330
1F
100
AcDbEntity
  8
SK3
  6
HIDDEN
370
    18
100
AcDbLine
 10
16.1937656157
 20
-7.3590135437
 30
0.0
 11
16.3420177992
 21
-6.9493831861
 31
0.0
  0
LINE
  5
113
330
1F
100
AcDbEntity
  8
SK3
  6
HIDDEN
370
    18
100
AcDbLine
 10
16.3420177992
 20
-6.9493831861
 30
0.0
 11
16.3951619158
 21
-6.4563456877
 31
0.0
  0
LINE
  5
114
330
1F
100
AcDbEntity
  8
SK3
  6
HIDDEN
370
    18
100
AcDbLine
 10
16.3951619158
 20
-6.4563456877
 30
0.0
 11
16.3488925452
 21
-5.9198440145
 31
0.0
  0
LINE
  5
115
330
1F
100
AcDbEntity
  8
SK3
  6
HIDDEN
370
    18
100
AcDbLine
 10
11.1
 20
-10.0411428824
 30
0.0
 11
10.5901219593
 21
-9.9652563621
 31
0.0
  0
LINE
  5
116
330
1F
100
AcDbEntity
  8
SK3
  6
HIDDEN
370
    18
100
AcDbLine
 10
10.5901219593
 20
-9.9652563621
 30
0.0
 11
10.1301543337
 21
-9.7450251026
 31
0.0
  0
LINE
  5
117
330
1F
100
AcDbEntity
  8
SK3
  6
HIDDEN
370
    18
100
AcDbLine
 10
10.1301543337
 20
-9.7450251026
 30
0.0
 11
9.7651219593
 21
-9.402006874
 31
0.0
  0
LINE
  5
118
330
1F
100
AcDbEntity
  8
SK3
  6
HIDDEN
370
    18
100
AcDbLine
 10
9.7651219593
 20
-9.402006874
 30
0.0
 11
9.5307567481
 21
-8.9697786904
 31
0.0
  0
LINE
  5
119
330
1F
100
AcDbEntity
  8
SK3
  6
HIDDEN
370
    18
100
AcDbLine
 10
9.5307567481
 20
-8.9697786904
 30
0.0
 11
9.45
 21
-8.4906500581
 31
0.0
  0
LINE
  5
11A
330
1F
100
AcDbEntity
  8
SK3
  6
HIDDEN
370
    18
100
AcDbLine
 10
9.45
 20
-8.4906500581
 30
0.0
 11
9.5307567481
 21
-8.0115214257
 31
0.0
  0
LINE
  5
11B
330
1F
100
AcDbEntity
  8
SK3
  6
HIDDEN
370
    18
100
AcDbLine
 10
9.5307567481
 20
-8.0115214257
 30
0.0
 11
9.7651219593
 21
-7.5792932422
 31
0.0
  0
LINE
  5
11C
330
1F
100
AcDbEntity
  8
SK3
  6
HIDDEN
370
    18
100
AcDbLine
 10
9.7651219593
 20
-7.5792932422
 30
0.0
 11
10.1301543337
 21
-7.2362750135
 31
0.0
  0
LINE
  5
11D
330
1F
100
AcDbEntity
  8
SK3
  6
HIDDEN
370
    18
100
AcDbLine
 10
10.1301543337
 20
-7.2362750135
 30
0.0
 11
10.5901219593
 21
-7.016043754
 31
0.0
  0
LINE
  5
11E
330
1F
100
AcDbEntity
  8
SK3
  6
HIDDEN
370
    18
100
AcDbLine
 10
10.5901219593
 20
-7.016043754
 30
0.0
 11
11.1
 21
-6.9401572338
 31
0.0
  0
LINE
  5
11F
330
1F
100
AcDbEntity
  8
SK3
  6
HIDDEN
370
    18
100
AcDbLine
 10
11.1
 20
-6.9401572338
 30
0.0
 11
11.6098780407
 21
-7.016043754
 31
0.0
  0
LINE
  5
120
330
1F
100
AcDbEntity
  8
SK3
  6
HIDDEN
370
    18
100
AcDbLine
 10
11.6098780407
 20
-7.016043754
 30
0.0
 11
12.0698456663
 21
-7.2362750135
 31
0.0
  0
LINE
  5
121
330
1F
100
AcDbEntity
  8
SK3
  6
HIDDEN
370
    18
100
AcDbLine
 10
12.0698456663
 20
-7.2362750135
 30
0.0
 11
12.4348780407
 21
-7.5792932422
 31
0.0
  0
LINE
  5
122
330
1F
100
AcDbEntity
  8
SK3
  6
HIDDEN
370
    18
100
AcDbLine
 10
12.4348780407
 20
-7.5792932422
 30
0.0
 11
12.6692432519
 21
-8.0115214257
 31
0.0
  0
LINE
  5
123
330
1F
100
AcDbEntity
  8
SK3
  6
HIDDEN
370
    18
100
AcDbLine
 10
12.6692432519
 20
-8.0115214257
 30
0.0
 11
12.75
 21
-8.4906500581
 31
0.0
  0
LINE
  5
124
330
1F
100
AcDbEntity
  8
SK3
  6
HIDDEN
370
    18
100
AcDbLine
 10
12.75
 20
-8.4906500581
 30
0.0
 11
12.6692432519
 21
-8.9697786904
 31
0.0
  0
LINE
  5
125
330
1F
100
AcDbEntity
  8
SK3
  6
HIDDEN
370
    18
100
AcDbLine
 10
12.6692432519
 20
-8.9697786904
 30
0.0
 11
12.4348780407
 21
-9.402006874
 31
0.0
  0
LINE
  5
126
330
1F
100
AcDbEntity
  8
SK3
  6
HIDDEN
370
    18
100
AcDbLine
 10
12.4348780407
 20
-9.402006874
 30
0.0
 11
12.0698456663
 21
-9.7450251026
 31
0.0
  0
LINE
  5
127
330
1F
100
AcDbEntity
  8
SK3
  6
HIDDEN
370
    18
100
AcDbLine
 10
12.0698456663
 20
-9.7450251026
 30
0.0
 11
11.6098780407
 21
-9.9652563621
 31
0.0
  0
LINE
  5
128
330
1F
100
AcDbEntity
  8
SK3
  6
HIDDEN
370
    18
100
AcDbLine
 10
11.6098780407
 20
-9.9652563621
 30
0.0
 11
11.1
 21
-10.0411428824
 31
0.0
  0
LINE
  5
129
330
1F
100
AcDbEntity
  8
SK3
  6
HIDDEN
370
    18
100
AcDbLine
 10
-66.6824940192
 20
-8.235
 30
0.0
 11
-66.6824940192
 21
8.235
 31
0.0
  0
LINE
  5
12A
330
1F
100
AcDbEntity
  8
SK3
  6
HIDDEN
370
    18
100
AcDbLine
 10
-68.25
 20
-9.14
 30
0.0
 11
-68.25
 21
9.14
 31
0.0
  0
LINE
  5
12B
330
1F
100
AcDbEntity
  8
SK3
  6
HIDDEN
370
    18
100
AcDbLine
 10
-63.48
 20
-8.235
 30
0.0
 11
-63.48
 21
8.235
 31
0.0
  0
LINE
  5
12C
330
1F
100
AcDbEntity
  8
SK3
  6
HIDDEN
370
    18
100
AcDbLine
 10
-62.6204640132
 20
-6.74624
 30
0.0
 11
-62.6204640132
 21
6.74624
 31
0.0
  0
LINE
  5
12D
330
1F
100
AcDbEntity
  8
SK3
  6
HIDDEN
370
    18
100
AcDbLine
 10
18.7047083759
 20
29.8048664484
 30
0.0
 11
18.7047083759
 21
25.205
 31
0.0
  0
LINE
  5
12E
330
1F
100
AcDbEntity
  8
SK3
  6
HIDDEN
370
    18
100
AcDbLine
 10
3.7
 20
25.205
 30
0.0
 11
3.7
 21
29.7846600619
 31
0.0
  0
LINE
  5
12F
330
1F
100
AcDbEntity
  8
SK3
  6
HIDDEN
370
    18
100
AcDbLine
 10
14.3760129465
 20
30.2255814201
 30
0.0
 11
18.3
 21
30.2255814201
 31
0.0
  0
LINE
  5
130
330
1F
100
AcDbEntity
  8
SK3
  6
HIDDEN
370
    18
100
AcDbLine
 10
3.95
 20
30.0447745041
 30
0.0
 11
7.9548019796
 21
30.0447745041
 31
0.0
  0
LINE
  5
131
330
1F
100
AcDbEntity
  8
1
  6
HIDDEN
370
    18
100
AcDbLine
 10
9.2
 20
27.8050456342
 30
0.0
 11
9.2
 21
27.7691663541
 31
0.0
  0
LINE
  5
132
330
1F
100
AcDbEntity
  8
1
  6
HIDDEN
370
    18
100
AcDbLine
 10
13.03
 20
27.7691663541
 30
0.0
 11
13.03
 21
27.8050456342
 31
0.0
  0
LINE
  5
133
330
1F
100
AcDbEntity
  8
SK3
  6
HIDDEN
370
    18
100
AcDbLine
 10
18.6416041453
 20
-23.9780444687
 30
0.0
 11
18.6416041453
 21
-29.8460485918
 31
0.0
  0
LINE
  5
134
330
1F
100
AcDbEntity
  8
SK3
  6
HIDDEN
370
    18
100
AcDbLine
 10
18.3
 20
-30.2007080537
 30
0.0
 11
14.3621415615
 21
-30.2007080537
 31
0.0
  0
LINE
  5
135
330
1F
100
AcDbEntity
  8
SK3
  6
HIDDEN
370
    18
100
AcDbLine
 10
3.5452916241
 20
-29.8048664484
 30
0.0
 11
3.5452916241
 21
-22.785
 31
0.0
  0
LINE
  5
136
330
1F
100
AcDbEntity
  8
SK3
  6
HIDDEN
370
    18
100
AcDbLine
 10
7.8539870535
 20
-30.2255814201
 30
0.0
 11
3.95
 21
-30.2255814201
 31
0.0
  0
LINE
  5
137
330
1F
100
AcDbEntity
  8
1
  6
HIDDEN
370
    18
100
AcDbLine
 10
9.2
 20
-27.8050456342
 30
0.0
 11
9.2
 21
-27.7691663541
 31
0.0
  0
LINE
  5
138
330
1F
100
AcDbEntity
  8
1
  6
HIDDEN
370
    18
100
AcDbLine
 10
13.03
 20
-27.7691663541
 30
0.0
 11
13.03
 21
-27.8050456342
 31
0.0
  0
LINE
  5
139
330
1F
100
AcDbEntity
  8
SK3
  6
HIDDEN
370
    18
100
AcDbLine
 10
19.2292037681
 20
-22.41
 30
0.0
 11
3.5452916241
 21
-22.41
 31
0.0
  0
LINE
  5
13A
330
1F
100
AcDbEntity
  8
SK3
  6
HIDDEN
370
    18
100
AcDbLine
 10
3.5452916241
 20
-22.785
 30
0.0
 11
18.822140541
 21
-22.785
 31
0.0
  0
LINE
  5
13B
330
1F
100
AcDbEntity
  8
SK3
  6
HIDDEN
370
    18
100
AcDbLine
 10
3.7
 20
24.83
 30
0.0
 11
18.7047083759
 21
24.83
 31
0.0
  0
LINE
  5
13C
330
1F
100
AcDbEntity
  8
SK3
  6
HIDDEN
370
    18
100
AcDbLine
 10
18.7047083759
 20
25.205
 30
0.0
 11
3.7
 21
25.205
 31
0.0
  0
LINE
  5
13D
330
1F
100
AcDbEntity
  8
SK3
  6
HIDDEN
370
    18
100
AcDbLine
 10
22.75
 20
-6.74624
 30
0.0
 11
22.75
 21
6.74624
 31
0.0
  0
LINE
  5
13E
330
1F
100
AcDbEntity
  8
SK3
  6
HIDDEN
370
    18
100
AcDbLine
 10
24.2700812284
 20
4.2164
 30
0.0
 11
24.2700812284
 21
-4.2164
 31
0.0
  0
LINE
  5
13F
330
1F
100
AcDbEntity
  8
SK3
  6
HIDDEN
370
    18
100
AcDbLine
 10
89.05
 20
-5.9497474683
 30
0.0
 11
89.05
 21
-3.9497474683
 31
0.0
  0
LINE
  5
140
330
1F
100
AcDbEntity
  8
SK1
  6
HIDDEN
370
    18
100
AcDbLine
 10
119.05
 20
-5.9497474683
 30
0.0
 11
119.05
 21
-3.9497474683
 31
0.0
  0
LINE
  5
141
330
1F
100
AcDbEntity
  8
SK3
  6
HIDDEN
370
    18
100
AcDbLine
 10
89.05
 20
3.9497474683
 30
0.0
 11
89.05
 21
5.9497474683
 31
0.0
  0
LINE
  5
142
330
1F
100
AcDbEntity
  8
SK1
  6
HIDDEN
370
    18
100
AcDbLine
 10
119.05
 20
3.9497474683
 30
0.0
 11
119.05
 21
5.9497474683
 31
0.0
  0
LINE
  5
143
330
1F
100
AcDbEntity
  8
SK3
  6
HIDDEN
370
    18
100
AcDbLine
 10
118.15
 20
-5.155
 30
0.0
 11
118.15
 21
5.155
 31
0.0
  0
LINE
  5
144
330
1F
100
AcDbEntity
  8
SK1
  6
HIDDEN
370
    18
100
AcDbLine
 10
119.05
 20
-5.6552335542
 30
0.0
 11
119.05
 21
5.6552335542
 31
0.0
  0
LINE
  5
145
330
1F
100
AcDbEntity
  8
SK3
  6
HIDDEN
370
    18
100
AcDbLine
 10
114.3
 20
-5.155
 30
0.0
 11
114.3
 21
5.155
 31
0.0
  0
LINE
  5
146
330
1F
100
AcDbEntity
  8
SK3
  6
HIDDEN
370
    18
100
AcDbLine
 10
113.736032223
 20
4.2164
 30
0.0
 11
113.736032223
 21
-4.2164
 31
0.0
  0
LINE
  5
147
330
1F
100
AcDbEntity
  8
SK3
  6
HIDDEN
370
    18
100
AcDbLine
 10
6.4000003173
 20
20.13
 30
0.0
 11
15.8
 21
20.13
 31
0.0
  0
LINE
  5
148
330
1F
100
AcDbEntity
  8
SK3
  6
HIDDEN
370
    18
100
AcDbLine
 10
16.1
 20
20.43
 30
0.0
 11
6.1
 21
20.43
 31
0.0
  0
LINE
  5
149
330
1F
100
AcDbEntity
  8
SK3
  6
HIDDEN
370
    18
100
AcDbLine
 10
6.1
 20
24.83
 30
0.0
 11
16.1
 21
24.83
 31
0.0
  0
LINE
  5
14A
330
1F
100
AcDbEntity
  8
SK3
  6
HIDDEN
370
    18
100
AcDbLine
 10
89.05
 20
3.9497474683
 30
0.0
 11
89.05
 21
5.9497474683
 31
0.0
  0
LINE
  5
14B
330
1F
100
AcDbEntity
  8
SK1
  6
HIDDEN
370
    18
100
AcDbLine
 10
119.05
 20
3.9497474683
 30
0.0
 11
119.05
 21
5.9497474683
 31
0.0
  0
LINE
  5
14C
330
1F
100
AcDbEntity
  8
SK3
  6
HIDDEN
370
    18
100
AcDbLine
 10
89.05
 20
-5.9497474683
 30
0.0
 11
89.05
 21
-3.9497474683
 31
0.0
  0
LINE
  5
14D
330
1F
100
AcDbEntity
  8
SK1
  6
HIDDEN
370
    18
100
AcDbLine
 10
119.05
 20
-5.9497474683
 30
0.0
 11
119.05
 21
-3.9497474683
 31
0.0
  0
LINE
  5
14E
330
1F
100
AcDbEntity
  8
SK3
  6
HIDDEN
370
    18
100
AcDbLine
 10
3.5452916241
 20
-22.41
 30
0.0
 11
19.2292037681
 21
-22.41
 31
0.0
  0
LINE
  5
14F
330
1F
100
AcDbEntity
  8
1
  6
HIDDEN
370
    18
100
AcDbLine
 10
12.28
 20
26.9870635676
 30
0.0
 11
9.95
 21
26.9870635676
 31
0.0
  0
LINE
  5
150
330
1F
100
AcDbEntity
  8
1
  6
HIDDEN
370
    18
100
AcDbLine
 10
12.28
 20
-26.9870635676
 30
0.0
 11
9.95
 21
-26.9870635676
 31
0.0
  0
LINE
  5
151
330
1F
100
AcDbEntity
  8
SK3
  6
HIDDEN
370
    18
100
AcDbLine
 10
3.3636512159
 20
8.8621689747
 30
0.0
 11
3.3173818453
 21
8.3256673015
 31
0.0
  0
LINE
  5
152
330
1F
100
AcDbEntity
  8
SK3
  6
HIDDEN
370
    18
100
AcDbLine
 10
3.3173818453
 20
8.3256673015
 30
0.0
 11
3.3705259619
 21
7.8326298031
 31
0.0
  0
LINE
  5
153
330
1F
100
AcDbEntity
  8
SK3
  6
HIDDEN
370
    18
100
AcDbLine
 10
3.3705259619
 20
7.8326298031
 30
0.0
 11
3.5187781454
 21
7.4229994455
 31
0.0
  0
LINE
  5
154
330
1F
100
AcDbEntity
  8
SK3
  6
HIDDEN
370
    18
100
AcDbLine
 10
3.5187781454
 20
7.4229994455
 30
0.0
 11
3.7501278856
 21
7.1299620441
 31
0.0
  0
LINE
  5
155
330
1F
100
AcDbEntity
  8
SK3
  6
HIDDEN
370
    18
100
AcDbLine
 10
3.7501278856
 20
7.1299620441
 30
0.0
 11
4.0458326025
 21
6.9772577464
 31
0.0
  0
LINE
  5
156
330
1F
100
AcDbEntity
  8
SK3
  6
HIDDEN
370
    18
100
AcDbLine
 10
4.0458326025
 20
6.9772577464
 30
0.0
 11
4.3819360586
 21
6.9772577464
 31
0.0
  0
LINE
  5
157
330
1F
100
AcDbEntity
  8
SK3
  6
HIDDEN
370
    18
100
AcDbLine
 10
4.3819360586
 20
6.9772577464
 30
0.0
 11
4.7312091506
 21
7.1299620441
 31
0.0
  0
LINE
  5
158
330
1F
100
AcDbEntity
  8
SK3
  6
HIDDEN
370
    18
100
AcDbLine
 10
4.7312091506
 20
7.1299620441
 30
0.0
 11
5.0653558499
 21
7.4229994455
 31
0.0
  0
LINE
  5
159
330
1F
100
AcDbEntity
  8
SK3
  6
HIDDEN
370
    18
100
AcDbLine
 10
5.0653558499
 20
7.4229994455
 30
0.0
 11
5.3573055782
 21
7.8326298031
 31
0.0
  0
LINE
  5
15A
330
1F
100
AcDbEntity
  8
SK3
  6
HIDDEN
370
    18
100
AcDbLine
 10
5.3573055782
 20
7.8326298031
 30
0.0
 11
5.5834063048
 21
8.3256673015
 31
0.0
  0
LINE
  5
15B
330
1F
100
AcDbEntity
  8
SK3
  6
HIDDEN
370
    18
100
AcDbLine
 10
5.5834063048
 20
8.3256673015
 30
0.0
 11
5.7253406934
 21
8.8621689747
 31
0.0
  0
LINE
  5
15C
330
1F
100
AcDbEntity
  8
SK3
  6
HIDDEN
370
    18
100
AcDbLine
 10
5.7253406934
 20
8.8621689747
 30
0.0
 11
5.771610064
 21
9.3986706479
 31
0.0
  0
LINE
  5
15D
330
1F
100
AcDbEntity
  8
SK3
  6
HIDDEN
370
    18
100
AcDbLine
 10
5.771610064
 20
9.3986706479
 30
0.0
 11
5.7184659475
 21
9.8917081463
 31
0.0
  0
LINE
  5
15E
330
1F
100
AcDbEntity
  8
SK3
  6
HIDDEN
370
    18
100
AcDbLine
 10
5.7184659475
 20
9.8917081463
 30
0.0
 11
5.5702137639
 21
10.3013385039
 31
0.0
  0
LINE
  5
15F
330
1F
100
AcDbEntity
  8
SK3
  6
HIDDEN
370
    18
100
AcDbLine
 10
5.5702137639
 20
10.3013385039
 30
0.0
 11
5.3388640237
 21
10.5943759053
 31
0.0
  0
LINE
  5
160
330
1F
100
AcDbEntity
  8
SK3
  6
HIDDEN
370
    18
100
AcDbLine
 10
5.3388640237
 20
10.5943759053
 30
0.0
 11
5.0431593068
 21
10.7470802031
 31
0.0
  0
LINE
  5
161
330
1F
100
AcDbEntity
  8
SK3
  6
HIDDEN
370
    18
100
AcDbLine
 10
5.0431593068
 20
10.7470802031
 30
0.0
 11
4.7070558507
 21
10.7470802031
 31
0.0
  0
LINE
  5
162
330
1F
100
AcDbEntity
  8
SK3
  6
HIDDEN
370
    18
100
AcDbLine
 10
4.7070558507
 20
10.7470802031
 30
0.0
 11
4.3577827587
 21
10.5943759053
 31
0.0
  0
LINE
  5
163
330
1F
100
AcDbEntity
  8
SK3
  6
HIDDEN
370
    18
100
AcDbLine
 10
4.3577827587
 20
10.5943759053
 30
0.0
 11
4.0236360594
 21
10.3013385039
 31
0.0
  0
LINE
  5
164
330
1F
100
AcDbEntity
  8
SK3
  6
HIDDEN
370
    18
100
AcDbLine
 10
4.0236360594
 20
10.3013385039
 30
0.0
 11
3.7316863311
 21
9.8917081463
 31
0.0
  0
LINE
  5
165
330
1F
100
AcDbEntity
  8
SK3
  6
HIDDEN
370
    18
100
AcDbLine
 10
3.7316863311
 20
9.8917081463
 30
0.0
 11
3.5055856045
 21
9.3986706479
 31
0.0
  0
LINE
  5
166
330
1F
100
AcDbEntity
  8
SK3
  6
HIDDEN
370
    18
100
AcDbLine
 10
3.5055856045
 20
9.3986706479
 30
0.0
 11
3.3636512159
 21
8.8621689747
 31
0.0
  0
LINE
  5
167
330
1F
100
AcDbEntity
  8
SK3
  6
HIDDEN
370
    18
100
AcDbLine
 10
13.9872030677
 20
5.9198440145
 30
0.0
 11
14.1291374563
 21
6.4563456877
 31
0.0
  0
LINE
  5
168
330
1F
100
AcDbEntity
  8
SK3
  6
HIDDEN
370
    18
100
AcDbLine
 10
14.1291374563
 20
6.4563456877
 30
0.0
 11
14.3552381829
 21
6.9493831861
 31
0.0
  0
LINE
  5
169
330
1F
100
AcDbEntity
  8
SK3
  6
HIDDEN
370
    18
100
AcDbLine
 10
14.3552381829
 20
6.9493831861
 30
0.0
 11
14.6471879112
 21
7.3590135437
 31
0.0
  0
LINE
  5
16A
330
1F
100
AcDbEntity
  8
SK3
  6
HIDDEN
370
    18
100
AcDbLine
 10
14.6471879112
 20
7.3590135437
 30
0.0
 11
14.9813346105
 21
7.6520509451
 31
0.0
  0
LINE
  5
16B
330
1F
100
AcDbEntity
  8
SK3
  6
HIDDEN
370
    18
100
AcDbLine
 10
14.9813346105
 20
7.6520509451
 30
0.0
 11
15.3306077025
 21
7.8047552428
 31
0.0
  0
LINE
  5
16C
330
1F
100
AcDbEntity
  8
SK3
  6
HIDDEN
370
    18
100
AcDbLine
 10
15.3306077025
 20
7.8047552428
 30
0.0
 11
15.6667111586
 21
7.8047552428
 31
0.0
  0
LINE
  5
16D
330
1F
100
AcDbEntity
  8
SK3
  6
HIDDEN
370
    18
100
AcDbLine
 10
15.6667111586
 20
7.8047552428
 30
0.0
 11
15.9624158755
 21
7.6520509451
 31
0.0
  0
LINE
  5
16E
330
1F
100
AcDbEntity
  8
SK3
  6
HIDDEN
370
    18
100
AcDbLine
 10
15.9624158755
 20
7.6520509451
 30
0.0
 11
16.1937656157
 21
7.3590135437
 31
0.0
  0
LINE
  5
16F
330
1F
100
AcDbEntity
  8
SK3
  6
HIDDEN
370
    18
100
AcDbLine
 10
16.1937656157
 20
7.3590135437
 30
0.0
 11
16.3420177992
 21
6.9493831861
 31
0.0
  0
LINE
  5
170
330
1F
100
AcDbEntity
  8
SK3
  6
HIDDEN
370
    18
100
AcDbLine
 10
16.3420177992
 20
6.9493831861
 30
0.0
 11
16.3951619158
 21
6.4563456877
 31
0.0
  0
LINE
  5
171
330
1F
100
AcDbEntity
  8
SK3
  6
HIDDEN
370
    18
100
AcDbLine
 10
16.3951619158
 20
6.4563456877
 30
0.0
 11
16.3488925452
 21
5.9198440145
 31
0.0
  0
LINE
  5
172
330
1F
100
AcDbEntity
  8
SK3
  6
HIDDEN
370
    18
100
AcDbLine
 10
16.3488925452
 20
5.9198440145
 30
0.0
 11
16.2069581565
 21
5.3833423412
 31
0.0
  0
LINE
  5
173
330
1F
100
AcDbEntity
  8
SK3
  6
HIDDEN
370
    18
100
AcDbLine
 10
16.2069581565
 20
5.3833423412
 30
0.0
 11
15.98085743
 21
4.8903048429
 31
0.0
  0
LINE
  5
174
330
1F
100
AcDbEntity
  8
SK3
  6
HIDDEN
370
    18
100
AcDbLine
 10
15.98085743
 20
4.8903048429
 30
0.0
 11
15.6889077017
 21
4.4806744853
 31
0.0
  0
LINE
  5
175
330
1F
100
AcDbEntity
  8
SK3
  6
HIDDEN
370
    18
100
AcDbLine
 10
15.6889077017
 20
4.4806744853
 30
0.0
 11
15.3547610024
 21
4.1876370839
 31
0.0
  0
LINE
  5
176
330
1F
100
AcDbEntity
  8
SK3
  6
HIDDEN
370
    18
100
AcDbLine
 10
15.3547610024
 20
4.1876370839
 30
0.0
 11
15.0054879103
 21
4.0349327861
 31
0.0
  0
LINE
  5
177
330
1F
100
AcDbEntity
  8
SK3
  6
HIDDEN
370
    18
100
AcDbLine
 10
15.0054879103
 20
4.0349327861
 30
0.0
 11
14.6693844543
 21
4.0349327861
 31
0.0
  0
LINE
  5
178
330
1F
100
AcDbEntity
  8
SK3
  6
HIDDEN
370
    18
100
AcDbLine
 10
14.6693844543
 20
4.0349327861
 30
0.0
 11
14.3736797374
 21
4.1876370839
 31
0.0
  0
LINE
  5
179
330
1F
100
AcDbEntity
  8
SK3
  6
HIDDEN
370
    18
100
AcDbLine
 10
14.3736797374
 20
4.1876370839
 30
0.0
 11
14.1423299972
 21
4.4806744853
 31
0.0
  0
LINE
  5
17A
330
1F
100
AcDbEntity
  8
SK3
  6
HIDDEN
370
    18
100
AcDbLine
 10
14.1423299972
 20
4.4806744853
 30
0.0
 11
13.9940778136
 21
4.8903048429
 31
0.0
  0
LINE
  5
17B
330
1F
100
AcDbEntity
  8
SK3
  6
HIDDEN
370
    18
100
AcDbLine
 10
13.9940778136
 20
4.8903048429
 30
0.0
 11
13.9409336971
 21
5.3833423412
 31
0.0
  0
LINE
  5
17C
330
1F
100
AcDbEntity
  8
SK3
  6
HIDDEN
370
    18
100
AcDbLine
 10
13.9409336971
 20
5.3833423412
 30
0.0
 11
13.9872030677
 21
5.9198440145
 31
0.0
  0
LINE
  5
17D
330
1F
100
AcDbEntity
  8
SK3
  6
HIDDEN
370
    18
100
AcDbLine
 10
11.1
 20
6.8853309887
 30
0.0
 11
11.6098780407
 21
6.9612175089
 31
0.0
  0
LINE
  5
17E
330
1F
100
AcDbEntity
  8
SK3
  6
HIDDEN
370
    18
100
AcDbLine
 10
11.6098780407
 20
6.9612175089
 30
0.0
 11
12.0698456663
 21
7.1814487685
 31
0.0
  0
LINE
  5
17F
330
1F
100
AcDbEntity
  8
SK3
  6
HIDDEN
370
    18
100
AcDbLine
 10
12.0698456663
 20
7.1814487685
 30
0.0
 11
12.4348780407
 21
7.5244669971
 31
0.0
  0
LINE
  5
180
330
1F
100
AcDbEntity
  8
SK3
  6
HIDDEN
370
    18
100
AcDbLine
 10
12.4348780407
 20
7.5244669971
 30
0.0
 11
12.6692432519
 21
7.9566951806
 31
0.0
  0
LINE
  5
181
330
1F
100
AcDbEntity
  8
SK3
  6
HIDDEN
370
    18
100
AcDbLine
 10
12.6692432519
 20
7.9566951806
 30
0.0
 11
12.75
 21
8.435823813
 31
0.0
  0
LINE
  5
182
330
1F
100
AcDbEntity
  8
SK3
  6
HIDDEN
370
    18
100
AcDbLine
 10
12.75
 20
8.435823813
 30
0.0
 11
12.6692432519
 21
8.9149524453
 31
0.0
  0
LINE
  5
183
330
1F
100
AcDbEntity
  8
SK3
  6
HIDDEN
370
    18
100
AcDbLine
 10
12.6692432519
 20
8.9149524453
 30
0.0
 11
12.4348780407
 21
9.3471806289
 31
0.0
  0
LINE
  5
184
330
1F
100
AcDbEntity
  8
SK3
  6
HIDDEN
370
    18
100
AcDbLine
 10
12.4348780407
 20
9.3471806289
 30
0.0
 11
12.0698456663
 21
9.6901988575
 31
0.0
  0
LINE
  5
185
330
1F
100
AcDbEntity
  8
SK3
  6
HIDDEN
370
    18
100
AcDbLine
 10
12.0698456663
 20
9.6901988575
 30
0.0
 11
11.6098780407
 21
9.910430117
 31
0.0
  0
LINE
  5
186
330
1F
100
AcDbEntity
  8
SK3
  6
HIDDEN
370
    18
100
AcDbLine
 10
11.6098780407
 20
9.910430117
 30
0.0
 11
11.1
 21
9.9863166373
 31
0.0
  0
LINE
  5
187
330
1F
100
AcDbEntity
  8
SK3
  6
HIDDEN
370
    18
100
AcDbLine
 10
11.1
 20
9.9863166373
 30
0.0
 11
10.5901219593
 21
9.910430117
 31
0.0
  0
LINE
  5
188
330
1F
100
AcDbEntity
  8
SK3
  6
HIDDEN
370
    18
100
AcDbLine
 10
10.5901219593
 20
9.910430117
 30
0.0
 11
10.1301543337
 21
9.6901988575
 31
0.0
  0
LINE
  5
189
330
1F
100
AcDbEntity
  8
SK3
  6
HIDDEN
370
    18
100
AcDbLine
 10
10.1301543337
 20
9.6901988575
 30
0.0
 11
9.7651219593
 21
9.3471806289
 31
0.0
  0
LINE
  5
18A
330
1F
100
AcDbEntity
  8
SK3
  6
HIDDEN
370
    18
100
AcDbLine
 10
9.7651219593
 20
9.3471806289
 30
0.0
 11
9.5307567481
 21
8.9149524453
 31
0.0
  0
LINE
  5
18B
330
1F
100
AcDbEntity
  8
SK3
  6
HIDDEN
370
    18
100
AcDbLine
 10
9.5307567481
 20
8.9149524453
 30
0.0
 11
9.45
 21
8.435823813
 31
0.0
  0
LINE
  5
18C
330
1F
100
AcDbEntity
  8
SK3
  6
HIDDEN
370
    18
100
AcDbLine
 10
9.45
 20
8.435823813
 30
0.0
 11
9.5307567481
 21
7.9566951806
 31
0.0
  0
LINE
  5
18D
330
1F
100
AcDbEntity
  8
SK3
  6
HIDDEN
370
    18
100
AcDbLine
 10
9.5307567481
 20
7.9566951806
 30
0.0
 11
9.7651219593
 21
7.5244669971
 31
0.0
  0
LINE
  5
18E
330
1F
100
AcDbEntity
  8
SK3
  6
HIDDEN
370
    18
100
AcDbLine
 10
9.7651219593
 20
7.5244669971
 30
0.0
 11
10.1301543337
 21
7.1814487685
 31
0.0
  0
LINE
  5
18F
330
1F
100
AcDbEntity
  8
SK3
  6
HIDDEN
370
    18
100
AcDbLine
 10
10.1301543337
 20
7.1814487685
 30
0.0
 11
10.5901219593
 21
6.9612175089
 31
0.0
  0
LINE
  5
190
330
1F
100
AcDbEntity
  8
SK3
  6
HIDDEN
370
    18
100
AcDbLine
 10
10.5901219593
 20
6.9612175089
 30
0.0
 11
11.1
 21
6.8853309887
 31
0.0
  0
LINE
  5
191
330
1F
100
AcDbEntity
  8
SK3
  6
HIDDEN
370
    18
100
AcDbLine
 10
11.1
 20
6.6283658237
 30
0.0
 11
10.5365348863
 21
6.7044941312
 31
0.0
  0
LINE
  5
192
330
1F
100
AcDbEntity
  8
SK3
  6
HIDDEN
370
    18
100
AcDbLine
 10
10.5365348863
 20
6.7044941312
 30
0.0
 11
10.0187183651
 21
6.9267115912
 31
0.0
  0
LINE
  5
193
330
1F
100
AcDbEntity
  8
SK3
  6
HIDDEN
370
    18
100
AcDbLine
 10
10.0187183651
 20
6.9267115912
 30
0.0
 11
9.5885008513
 21
7.2770154666
 31
0.0
  0
LINE
  5
194
330
1F
100
AcDbEntity
  8
SK3
  6
HIDDEN
370
    18
100
AcDbLine
 10
9.5885008513
 20
7.2770154666
 30
0.0
 11
9.2807360093
 21
7.7270262207
 31
0.0
  0
LINE
  5
195
330
1F
100
AcDbEntity
  8
SK3
  6
HIDDEN
370
    18
100
AcDbLine
 10
9.2807360093
 20
7.7270262207
 30
0.0
 11
9.1203571162
 21
8.2402866585
 31
0.0
  0
LINE
  5
196
330
1F
100
AcDbEntity
  8
SK3
  6
HIDDEN
370
    18
100
AcDbLine
 10
9.1203571162
 20
8.2402866585
 30
0.0
 11
9.1203571162
 21
8.7752154719
 31
0.0
  0
LINE
  5
197
330
1F
100
AcDbEntity
  8
SK3
  6
HIDDEN
370
    18
100
AcDbLine
 10
9.1203571162
 20
8.7752154719
 30
0.0
 11
9.2807360093
 21
9.2884759098
 31
0.0
  0
LINE
  5
198
330
1F
100
AcDbEntity
  8
SK3
  6
HIDDEN
370
    18
100
AcDbLine
 10
9.2807360093
 20
9.2884759098
 30
0.0
 11
9.5885008513
 21
9.7384866639
 31
0.0
  0
LINE
  5
199
330
1F
100
AcDbEntity
  8
SK3
  6
HIDDEN
370
    18
100
AcDbLine
 10
9.5885008513
 20
9.7384866639
 30
0.0
 11
10.0187183651
 21
10.0887905392
 31
0.0
  0
LINE
  5
19A
330
1F
100
AcDbEntity
  8
SK3
  6
HIDDEN
370
    18
100
AcDbLine
 10
10.0187183651
 20
10.0887905392
 30
0.0
 11
10.5365348863
 21
10.3110079992
 31
0.0
  0
LINE
  5
19B
330
1F
100
AcDbEntity
  8
SK3
  6
HIDDEN
370
    18
100
AcDbLine
 10
10.5365348863
 20
10.3110079992
 30
0.0
 11
11.1
 21
10.3871363068
 31
0.0
  0
LINE
  5
19C
330
1F
100
AcDbEntity
  8
SK3
  6
HIDDEN
370
    18
100
AcDbLine
 10
11.1
 20
10.3871363068
 30
0.0
 11
11.6634651137
 21
10.3110079992
 31
0.0
  0
LINE
  5
19D
330
1F
100
AcDbEntity
  8
SK3
  6
HIDDEN
370
    18
100
AcDbLine
 10
11.6634651137
 20
10.3110079992
 30
0.0
 11
12.1812816349
 21
10.0887905392
 31
0.0
  0
LINE
  5
19E
330
1F
100
AcDbEntity
  8
SK3
  6
HIDDEN
370
    18
100
AcDbLine
 10
12.1812816349
 20
10.0887905392
 30
0.0
 11
12.6114991487
 21
9.7384866639
 31
0.0
  0
LINE
  5
19F
330
1F
100
AcDbEntity
  8
SK3
  6
HIDDEN
370
    18
100
AcDbLine
 10
12.6114991487
 20
9.7384866639
 30
0.0
 11
12.9192639907
 21
9.2884759098
 31
0.0
  0
LINE
  5
1A0
330
1F
100
AcDbEntity
  8
SK3
  6
HIDDEN
370
    18
100
AcDbLine
 10
12.9192639907
 20
9.2884759098
 30
0.0
 11
13.0796428838
 21
8.7752154719
 31
0.0
  0
LINE
  5
1A1
330
1F
100
AcDbEntity
  8
SK3
  6
HIDDEN
370
    18
100
AcDbLine
 10
13.0796428838
 20
8.7752154719
 30
0.0
 11
13.0796428838
 21
8.2402866585
 31
0.0
  0
LINE
  5
1A2
330
1F
100
AcDbEntity
  8
SK3
  6
HIDDEN
370
    18
100
AcDbLine
 10
13.0796428838
 20
8.2402866585
 30
0.0
 11
12.9192639907
 21
7.7270262207
 31
0.0
  0
LINE
  5
1A3
330
1F
100
AcDbEntity
  8
SK3
  6
HIDDEN
370
    18
100
AcDbLine
 10
12.9192639907
 20
7.7270262207
 30
0.0
 11
12.6114991487
 21
7.2770154666
 31
0.0
  0
LINE
  5
1A4
330
1F
100
AcDbEntity
  8
SK3
  6
HIDDEN
370
    18
100
AcDbLine
 10
12.6114991487
 20
7.2770154666
 30
0.0
 11
12.1812816349
 21
6.9267115912
 31
0.0
  0
LINE
  5
1A5
330
1F
100
AcDbEntity
  8
SK3
  6
HIDDEN
370
    18
100
AcDbLine
 10
12.1812816349
 20
6.9267115912
 30
0.0
 11
11.6634651137
 21
6.7044941312
 31
0.0
  0
LINE
  5
1A6
330
1F
100
AcDbEntity
  8
SK3
  6
HIDDEN
370
    18
100
AcDbLine
 10
11.6634651137
 20
6.7044941312
 30
0.0
 11
11.1
 21
6.6283658237
 31
0.0
  0
LINE
  5
1A7
330
1F
100
AcDbEntity
  8
SK3
  6
HIDDEN
370
    18
100
AcDbLine
 10
9.2
 20
10.4774644767
 30
0.0
 11
9.2
 21
10.4892488897
 31
0.0
  0
LINE
  5
1A8
330
1F
100
AcDbEntity
  8
SK3
  6
HIDDEN
370
    18
100
AcDbLine
 10
13.03
 20
10.3959582288
 30
0.0
 11
13.03
 21
10.3841746244
 31
0.0
  0
LINE
  5
1A9
330
1F
100
AcDbEntity
  8
SK3
  6
HIDDEN
370
    18
100
AcDbLine
 10
13.03
 20
9.3984375131
 30
0.0
 11
13.03
 21
9.4102211175
 31
0.0
  0
LINE
  5
1AA
330
1F
100
AcDbEntity
  8
SK3
  6
HIDDEN
370
    18
100
AcDbLine
 10
9.2
 20
9.3155731825
 30
0.0
 11
9.2
 21
9.3037887696
 31
0.0
  0
LINE
  5
1AB
330
1F
100
AcDbEntity
  8
SK3
  6
HIDDEN
370
    18
100
AcDbLine
 10
3.3100253255
 20
8.8686354442
 30
0.0
 11
3.4555990574
 21
9.4188935706
 31
0.0
  0
LINE
  5
1AC
330
1F
100
AcDbEntity
  8
SK3
  6
HIDDEN
370
    18
100
AcDbLine
 10
3.4555990574
 20
9.4188935706
 30
0.0
 11
3.6874972385
 21
9.9245730561
 31
0.0
  0
LINE
  5
1AD
330
1F
100
AcDbEntity
  8
SK3
  6
HIDDEN
370
    18
100
AcDbLine
 10
3.6874972385
 20
9.9245730561
 30
0.0
 11
3.9869328573
 21
10.3447067562
 31
0.0
  0
LINE
  5
1AE
330
1F
100
AcDbEntity
  8
SK3
  6
HIDDEN
370
    18
100
AcDbLine
 10
3.9869328573
 20
10.3447067562
 30
0.0
 11
4.3296474207
 21
10.6452579372
 31
0.0
  0
LINE
  5
1AF
330
1F
100
AcDbEntity
  8
SK3
  6
HIDDEN
370
    18
100
AcDbLine
 10
4.3296474207
 20
10.6452579372
 30
0.0
 11
4.687876233
 21
10.8018777297
 31
0.0
  0
LINE
  5
1B0
330
1F
100
AcDbEntity
  8
SK3
  6
HIDDEN
370
    18
100
AcDbLine
 10
4.687876233
 20
10.8018777297
 30
0.0
 11
5.0325977264
 21
10.8018777297
 31
0.0
  0
LINE
  5
1B1
330
1F
100
AcDbEntity
  8
SK3
  6
HIDDEN
370
    18
100
AcDbLine
 10
5.0325977264
 20
10.8018777297
 30
0.0
 11
5.3358846155
 21
10.6452579372
 31
0.0
  0
LINE
  5
1B2
330
1F
100
AcDbEntity
  8
SK3
  6
HIDDEN
370
    18
100
AcDbLine
 10
5.3358846155
 20
10.6452579372
 30
0.0
 11
5.5731664004
 21
10.3447067562
 31
0.0
  0
LINE
  5
1B3
330
1F
100
AcDbEntity
  8
SK3
  6
HIDDEN
370
    18
100
AcDbLine
 10
5.5731664004
 20
10.3447067562
 30
0.0
 11
5.725219922
 21
9.9245730561
 31
0.0
  0
LINE
  5
1B4
330
1F
100
AcDbEntity
  8
SK3
  6
HIDDEN
370
    18
100
AcDbLine
 10
5.725219922
 20
9.9245730561
 30
0.0
 11
5.7797267082
 21
9.4188935706
 31
0.0
  0
LINE
  5
1B5
330
1F
100
AcDbEntity
  8
SK3
  6
HIDDEN
370
    18
100
AcDbLine
 10
5.7797267082
 20
9.4188935706
 30
0.0
 11
5.7322709434
 21
8.8686354442
 31
0.0
  0
LINE
  5
1B6
330
1F
100
AcDbEntity
  8
SK3
  6
HIDDEN
370
    18
100
AcDbLine
 10
5.7322709434
 20
8.8686354442
 30
0.0
 11
5.5866972115
 21
8.3183773178
 31
0.0
  0
LINE
  5
1B7
330
1F
100
AcDbEntity
  8
SK3
  6
HIDDEN
370
    18
100
AcDbLine
 10
5.5866972115
 20
8.3183773178
 30
0.0
 11
5.3547990304
 21
7.8126978323
 31
0.0
  0
LINE
  5
1B8
330
1F
100
AcDbEntity
  8
SK3
  6
HIDDEN
370
    18
100
AcDbLine
 10
5.3547990304
 20
7.8126978323
 30
0.0
 11
5.0553634117
 21
7.3925641322
 31
0.0
  0
LINE
  5
1B9
330
1F
100
AcDbEntity
  8
SK3
  6
HIDDEN
370
    18
100
AcDbLine
 10
5.0553634117
 20
7.3925641322
 30
0.0
 11
4.7126488483
 21
7.0920129513
 31
0.0
  0
LINE
  5
1BA
330
1F
100
AcDbEntity
  8
SK3
  6
HIDDEN
370
    18
100
AcDbLine
 10
4.7126488483
 20
7.0920129513
 30
0.0
 11
4.3544200359
 21
6.9353931587
 31
0.0
  0
LINE
  5
1BB
330
1F
100
AcDbEntity
  8
SK3
  6
HIDDEN
370
    18
100
AcDbLine
 10
4.3544200359
 20
6.9353931587
 30
0.0
 11
4.0096985426
 21
6.9353931587
 31
0.0
  0
LINE
  5
1BC
330
1F
100
AcDbEntity
  8
SK3
  6
HIDDEN
370
    18
100
AcDbLine
 10
4.0096985426
 20
6.9353931587
 30
0.0
 11
3.7064116534
 21
7.0920129513
 31
0.0
  0
LINE
  5
1BD
330
1F
100
AcDbEntity
  8
SK3
  6
HIDDEN
370
    18
100
AcDbLine
 10
3.7064116534
 20
7.0920129513
 30
0.0
 11
3.4691298685
 21
7.3925641322
 31
0.0
  0
LINE
  5
1BE
330
1F
100
AcDbEntity
  8
SK3
  6
HIDDEN
370
    18
100
AcDbLine
 10
3.4691298685
 20
7.3925641322
 30
0.0
 11
3.317076347
 21
7.8126978323
 31
0.0
  0
LINE
  5
1BF
330
1F
100
AcDbEntity
  8
SK3
  6
HIDDEN
370
    18
100
AcDbLine
 10
3.317076347
 20
7.8126978323
 30
0.0
 11
3.2625695608
 21
8.3183773178
 31
0.0
  0
LINE
  5
1C0
330
1F
100
AcDbEntity
  8
SK3
  6
HIDDEN
370
    18
100
AcDbLine
 10
3.2625695608
 20
8.3183773178
 30
0.0
 11
3.3100253255
 21
8.8686354442
 31
0.0
  0
LINE
  5
1C1
330
1F
100
AcDbEntity
  8
SK3
  6
HIDDEN
370
    18
100
AcDbLine
 10
3.2
 20
7.1668508159
 30
0.0
 11
3.2
 21
11.3022369236
 31
0.0
  0
LINE
  5
1C2
330
1F
100
AcDbEntity
  8
SK3
  6
HIDDEN
370
    18
100
AcDbLine
 10
3.2
 20
-11.3098348849
 30
0.0
 11
5.0549767861
 21
-10.7960759675
 31
0.0
  0
LINE
  5
1C3
330
1F
100
AcDbEntity
  8
SK3
  6
HIDDEN
370
    18
100
AcDbLine
 10
3.9873194828
 20
-6.941194921
 30
0.0
 11
3.2
 21
-7.1592528547
 31
0.0
  0
LINE
  5
1C4
330
1F
100
AcDbEntity
  8
SK3
  6
HIDDEN
370
    18
100
AcDbLine
 10
5.06497889
 20
-10.7414234849
 30
0.0
 11
15.6885307418
 21
-7.7990985247
 31
0.0
  0
LINE
  5
1C5
330
1F
100
AcDbEntity
  8
SK3
  6
HIDDEN
370
    18
100
AcDbLine
 10
14.6475648711
 20
-4.0405895043
 30
0.0
 11
4.0240130193
 21
-6.9829144645
 31
0.0
  0
LINE
  5
1C6
330
1F
100
AcDbEntity
  8
SK3
  6
HIDDEN
370
    18
100
AcDbLine
 10
9.45
 20
-8.3590249327
 30
0.0
 11
9.45
 21
-8.4906500581
 31
0.0
  0
LINE
  5
1C7
330
1F
100
AcDbEntity
  8
SK3
  6
HIDDEN
370
    18
100
AcDbLine
 10
12.75
 20
-8.4906500581
 30
0.0
 11
12.75
 21
-7.4457975685
 31
0.0
  0
LINE
  5
1C8
330
1F
100
AcDbEntity
  8
SK3
  6
HIDDEN
370
    18
100
AcDbLine
 10
9.45
 20
-2.306643454
 30
0.0
 11
9.45
 21
-6.6466763396
 31
0.0
  0
LINE
  5
1C9
330
1F
100
AcDbEntity
  8
SK3
  6
HIDDEN
370
    18
100
AcDbLine
 10
12.75
 20
-5.7349574594
 30
0.0
 11
12.75
 21
-2.305732635
 31
0.0
  0
LINE
  5
1CA
330
1F
100
AcDbEntity
  8
SK3
  6
HIDDEN
370
    18
100
AcDbLine
 10
-68.25
 20
-9.14
 30
0.0
 11
-66.6824940192
 21
-8.235
 31
0.0
  0
LINE
  5
1CB
330
1F
100
AcDbEntity
  8
SK3
  6
HIDDEN
370
    18
100
AcDbLine
 10
-66.6824940192
 20
8.235
 30
0.0
 11
-68.25
 21
9.14
 31
0.0
  0
LINE
  5
1CC
330
1F
100
AcDbEntity
  8
SK3
  6
HIDDEN
370
    18
100
AcDbLine
 10
-66.6824940192
 20
-8.235
 30
0.0
 11
-63.48
 21
-8.235
 31
0.0
  0
LINE
  5
1CD
330
1F
100
AcDbEntity
  8
SK3
  6
HIDDEN
370
    18
100
AcDbLine
 10
-63.48
 20
8.235
 30
0.0
 11
-66.6824940192
 21
8.235
 31
0.0
  0
LINE
  5
1CE
330
1F
100
AcDbEntity
  8
SK3
  6
HIDDEN
370
    18
100
AcDbLine
 10
-63.48
 20
-8.235
 30
0.0
 11
-62.6204640132
 21
-6.74624
 31
0.0
  0
LINE
  5
1CF
330
1F
100
AcDbEntity
  8
SK3
  6
HIDDEN
370
    18
100
AcDbLine
 10
-62.6204640132
 20
6.74624
 30
0.0
 11
-63.48
 21
8.235
 31
0.0
  0
LINE
  5
1D0
330
1F
100
AcDbEntity
  8
SK3
  6
HIDDEN
370
    18
100
AcDbLine
 10
-62.6204640132
 20
-6.74624
 30
0.0
 11
22.75
 21
-6.74624
 31
0.0
  0
LINE
  5
1D1
330
1F
100
AcDbEntity
  8
SK3
  6
HIDDEN
370
    18
100
AcDbLine
 10
22.75
 20
6.74624
 30
0.0
 11
-62.6204640132
 21
6.74624
 31
0.0
  0
LINE
  5
1D2
330
1F
100
AcDbEntity
  8
SK3
  6
HIDDEN
370
    18
100
AcDbLine
 10
22.75
 20
-6.74624
 30
0.0
 11
24.2700812284
 21
-4.2164
 31
0.0
  0
LINE
  5
1D3
330
1F
100
AcDbEntity
  8
SK3
  6
HIDDEN
370
    18
100
AcDbLine
 10
24.2700812284
 20
4.2164
 30
0.0
 11
22.75
 21
6.74624
 31
0.0
  0
LINE
  5
1D4
330
1F
100
AcDbEntity
  8
SK3
  6
HIDDEN
370
    18
100
AcDbLine
 10
89.05
 20
-3.9497474683
 30
0.0
 11
88.449139381
 21
-4.9497474683
 31
0.0
  0
LINE
  5
1D5
330
1F
100
AcDbEntity
  8
SK3
  6
HIDDEN
370
    18
100
AcDbLine
 10
88.449139381
 20
-4.9497474683
 30
0.0
 11
89.05
 21
-5.9497474683
 31
0.0
  0
LINE
  5
1D6
330
1F
100
AcDbEntity
  8
SK3
  6
HIDDEN
370
    18
100
AcDbLine
 10
89.7269037718
 20
-3.9497474683
 30
0.0
 11
89.05
 21
-3.9497474683
 31
0.0
  0
LINE
  5
1D7
330
1F
100
AcDbEntity
  8
SK3
  6
HIDDEN
370
    18
100
AcDbLine
 10
89.05
 20
-5.9497474683
 30
0.0
 11
89.7282343838
 21
-5.9497474683
 31
0.0
  0
LINE
  5
1D8
330
1F
100
AcDbEntity
  8
SK3
  6
HIDDEN
370
    18
100
AcDbLine
 10
119.05
 20
-3.9497474683
 30
0.0
 11
92.3716553483
 21
-3.9497474683
 31
0.0
  0
LINE
  5
1D9
330
1F
100
AcDbEntity
  8
SK3
  6
HIDDEN
370
    18
100
AcDbLine
 10
92.3709603157
 20
-5.9497474683
 30
0.0
 11
119.05
 21
-5.9497474683
 31
0.0
  0
LINE
  5
1DA
330
1F
100
AcDbEntity
  8
SK3
  6
HIDDEN
370
    18
100
AcDbLine
 10
89.05
 20
5.9497474683
 30
0.0
 11
88.449139381
 21
4.9497474683
 31
0.0
  0
LINE
  5
1DB
330
1F
100
AcDbEntity
  8
SK3
  6
HIDDEN
370
    18
100
AcDbLine
 10
88.449139381
 20
4.9497474683
 30
0.0
 11
89.05
 21
3.9497474683
 31
0.0
  0
LINE
  5
1DC
330
1F
100
AcDbEntity
  8
SK3
  6
HIDDEN
370
    18
100
AcDbLine
 10
89.7290396843
 20
5.9497474683
 30
0.0
 11
89.05
 21
5.9497474683
 31
0.0
  0
LINE
  5
1DD
330
1F
100
AcDbEntity
  8
SK3
  6
HIDDEN
370
    18
100
AcDbLine
 10
89.05
 20
3.9497474683
 30
0.0
 11
89.7283446517
 21
3.9497474683
 31
0.0
  0
LINE
  5
1DE
330
1F
100
AcDbEntity
  8
SK3
  6
HIDDEN
370
    18
100
AcDbLine
 10
119.05
 20
5.9497474683
 30
0.0
 11
92.3717656162
 21
5.9497474683
 31
0.0
  0
LINE
  5
1DF
330
1F
100
AcDbEntity
  8
SK3
  6
HIDDEN
370
    18
100
AcDbLine
 10
92.3730962282
 20
3.9497474683
 30
0.0
 11
119.05
 21
3.9497474683
 31
0.0
  0
LINE
  5
1E0
330
1F
100
AcDbEntity
  8
SK3
  6
HIDDEN
370
    18
100
AcDbLine
 10
119.05
 20
5.6746152423
 30
0.0
 11
118.15
 21
5.155
 31
0.0
  0
LINE
  5
1E1
330
1F
100
AcDbEntity
  8
SK3
  6
HIDDEN
370
    18
100
AcDbLine
 10
118.15
 20
-5.155
 30
0.0
 11
119.05
 21
-5.6746152423
 31
0.0
  0
LINE
  5
1E2
330
1F
100
AcDbEntity
  8
SK3
  6
HIDDEN
370
    18
100
AcDbLine
 10
118.15
 20
5.155
 30
0.0
 11
114.3
 21
5.155
 31
0.0
  0
LINE
  5
1E3
330
1F
100
AcDbEntity
  8
SK3
  6
HIDDEN
370
    18
100
AcDbLine
 10
114.3
 20
-5.155
 30
0.0
 11
118.15
 21
-5.155
 31
0.0
  0
LINE
  5
1E4
330
1F
100
AcDbEntity
  8
SK3
  6
HIDDEN
370
    18
100
AcDbLine
 10
114.3
 20
5.155
 30
0.0
 11
113.736032223
 21
4.2164
 31
0.0
  0
LINE
  5
1E5
330
1F
100
AcDbEntity
  8
SK3
  6
HIDDEN
370
    18
100
AcDbLine
 10
113.736032223
 20
-4.2164
 30
0.0
 11
114.3
 21
-5.155
 31
0.0
  0
LINE
  5
1E6
330
1F
100
AcDbEntity
  8
SK3
  6
HIDDEN
370
    18
100
AcDbLine
 10
6.1
 20
24.83
 30
0.0
 11
6.1
 21
20.43
 31
0.0
  0
LINE
  5
1E7
330
1F
100
AcDbEntity
  8
SK3
  6
HIDDEN
370
    18
100
AcDbLine
 10
16.1
 20
20.43
 30
0.0
 11
16.1
 21
24.83
 31
0.0
  0
LINE
  5
1E8
330
1F
100
AcDbEntity
  8
SK3
  6
HIDDEN
370
    18
100
AcDbLine
 10
113.736032223
 20
4.2164
 30
0.0
 11
24.2700812284
 21
4.2164
 31
0.0
  0
LINE
  5
1E9
330
1F
100
AcDbEntity
  8
SK3
  6
HIDDEN
370
    18
100
AcDbLine
 10
24.2700812284
 20
-4.2164
 30
0.0
 11
113.736032223
 21
-4.2164
 31
0.0
  0
LINE
  5
1EA
330
1F
100
AcDbEntity
  8
SK3
  6
HIDDEN
370
    18
100
AcDbLine
 10
89.05
 20
5.9497474683
 30
0.0
 11
88.449139381
 21
4.9497474683
 31
0.0
  0
LINE
  5
1EB
330
1F
100
AcDbEntity
  8
SK3
  6
HIDDEN
370
    18
100
AcDbLine
 10
88.449139381
 20
4.9497474683
 30
0.0
 11
89.05
 21
3.9497474683
 31
0.0
  0
LINE
  5
1EC
330
1F
100
AcDbEntity
  8
81
370
    18
100
AcDbLine
 10
100.584
 20
0.0
 30
0.0
 11
104.1195339059
 21
3.5355339059
 31
0.0
  0
LINE
  5
1ED
330
1F
100
AcDbEntity
  8
81
370
    18
100
AcDbLine
 10
100.584
 20
0.0
 30
0.0
 11
97.0484660941
 21
-3.5355339059
 31
0.0
  0
LINE
  5
1EE
330
1F
100
AcDbEntity
  8
81
370
    18
100
AcDbLine
 10
100.584
 20
0.0
 30
0.0
 11
97.0484660941
 21
3.5355339059
 31
0.0
  0
LINE
  5
1EF
330
1F
100
AcDbEntity
  8
81
100
AcDbLine
 10
100.584
 20
0.0
 30
0.0
 11
110.584
 21
0.0
 31
0.0
  0
LINE
  5
1F0
330
1F
100
AcDbEntity
  8
81
370
    18
100
AcDbLine
 10
100.584
 20
0.0
 30
0.0
 11
104.1195339059
 21
-3.5355339059
 31
0.0
  0
LINE
  5
1F1
330
1F
100
AcDbEntity
  8
80
370
    18
100
AcDbLine
 10
0.0
 20
0.0
 30
0.0
 11
-3.5355339059
 21
-3.5355339059
 31
0.0
  0
LINE
  5
1F2
330
1F
100
AcDbEntity
  8
80
370
    18
100
AcDbLine
 10
0.0
 20
0.0
 30
0.0
 11
3.5355339059
 21
3.5355339059
 31
0.0
  0
LINE
  5
1F3
330
1F
100
AcDbEntity
  8
80
370
    18
100
AcDbLine
 10
0.0
 20
0.0
 30
0.0
 11
-3.5355339059
 21
3.5355339059
 31
0.0
  0
LINE
  5
1F4
330
1F
100
AcDbEntity
  8
80
370
    18
100
AcDbLine
 10
0.0
 20
0.0
 30
0.0
 11
-10.0
 21
0.0
 31
0.0
  0
LINE
  5
1F5
330
1F
100
AcDbEntity
  8
80
370
    18
100
AcDbLine
 10
0.0
 20
0.0
 30
0.0
 11
3.5355339059
 21
-3.5355339059
 31
0.0
  0
LINE
  5
1F6
330
1F
100
AcDbEntity
  8
SK3
  6
HIDDEN
370
    18
100
AcDbLine
 10
89.7269037718
 20
5.9497474683
 30
0.0
 11
89.05
 21
5.9497474683
 31
0.0
  0
LINE
  5
1F7
330
1F
100
AcDbEntity
  8
SK3
  6
HIDDEN
370
    18
100
AcDbLine
 10
89.05
 20
3.9497474683
 30
0.0
 11
89.7282343838
 21
3.9497474683
 31
0.0
  0
LINE
  5
1F8
330
1F
100
AcDbEntity
  8
SK3
  6
HIDDEN
370
    18
100
AcDbLine
 10
92.3717656162
 20
5.9497474683
 30
0.0
 11
92.3716553483
 21
5.9497474683
 31
0.0
  0
LINE
  5
1F9
330
1F
100
AcDbEntity
  8
SK3
  6
HIDDEN
370
    18
100
AcDbLine
 10
92.3709603157
 20
3.9497474683
 30
0.0
 11
92.3730962282
 21
3.9497474683
 31
0.0
  0
LINE
  5
1FA
330
1F
100
AcDbEntity
  8
SK3
  6
HIDDEN
370
    18
100
AcDbLine
 10
89.7290396843
 20
-3.9497474683
 30
0.0
 11
89.7269037718
 21
-3.9497474683
 31
0.0
  0
LINE
  5
1FB
330
1F
100
AcDbEntity
  8
SK3
  6
HIDDEN
370
    18
100
AcDbLine
 10
89.7282343838
 20
-5.9497474683
 30
0.0
 11
89.7283446517
 21
-5.9497474683
 31
0.0
  0
LINE
  5
1FC
330
1F
100
AcDbEntity
  8
SK3
  6
HIDDEN
370
    18
100
AcDbLine
 10
89.05
 20
-3.9497474683
 30
0.0
 11
88.449139381
 21
-4.9497474683
 31
0.0
  0
LINE
  5
1FD
330
1F
100
AcDbEntity
  8
SK3
  6
HIDDEN
370
    18
100
AcDbLine
 10
88.449139381
 20
-4.9497474683
 30
0.0
 11
89.05
 21
-5.9497474683
 31
0.0
  0
LINE
  5
1FE
330
1F
100
AcDbEntity
  8
SK3
  6
HIDDEN
370
    18
100
AcDbLine
 10
119.05
 20
-3.9497474683
 30
0.0
 11
92.3717656162
 21
-3.9497474683
 31
0.0
  0
LINE
  5
1FF
330
1F
100
AcDbEntity
  8
SK3
  6
HIDDEN
370
    18
100
AcDbLine
 10
92.3730962282
 20
-5.9497474683
 30
0.0
 11
119.05
 21
-5.9497474683
 31
0.0
  0
LINE
  5
200
330
1F
100
AcDbEntity
  8
SK3
  6
HIDDEN
370
    18
100
AcDbLine
 10
9.45
 20
6.6474538938
 30
0.0
 11
9.45
 21
2.305732635
 31
0.0
  0
LINE
  5
201
330
1F
100
AcDbEntity
  8
SK3
  6
HIDDEN
370
    18
100
AcDbLine
 10
12.75
 20
2.306643454
 30
0.0
 11
12.75
 21
5.7334282057
 31
0.0
  0
LINE
  5
202
330
1F
100
AcDbEntity
  8
SK3
  6
HIDDEN
370
    18
100
AcDbLine
 10
4.0240130193
 20
6.9829144645
 30
0.0
 11
14.6475648711
 21
4.0405895043
 31
0.0
  0
LINE
  5
203
330
1F
100
AcDbEntity
  8
SK3
  6
HIDDEN
370
    18
100
AcDbLine
 10
15.6885307418
 20
7.7990985247
 30
0.0
 11
5.06497889
 21
10.7414234849
 31
0.0
  0
LINE
  5
204
330
1F
100
AcDbEntity
  8
SK3
  6
HIDDEN
370
    18
100
AcDbLine
 10
9.45
 20
8.435823813
 30
0.0
 11
9.45
 21
8.3600777114
 31
0.0
  0
LINE
  5
205
330
1F
100
AcDbEntity
  8
SK3
  6
HIDDEN
370
    18
100
AcDbLine
 10
12.75
 20
7.4456278722
 30
0.0
 11
12.75
 21
8.435823813
 31
0.0
  0
LINE
  5
206
330
1F
100
AcDbEntity
  8
SK3
  6
HIDDEN
370
    18
100
AcDbLine
 10
9.1
 20
9.9611700964
 30
0.0
 11
9.1
 21
8.5077510652
 31
0.0
  0
LINE
  5
207
330
1F
100
AcDbEntity
  8
SK3
  6
HIDDEN
370
    18
100
AcDbLine
 10
13.1
 20
8.5077510652
 30
0.0
 11
13.1
 21
9.941192336
 31
0.0
  0
LINE
  5
208
330
1F
100
AcDbEntity
  8
SK3
  6
HIDDEN
370
    18
100
AcDbLine
 10
3.2
 20
7.1592528547
 30
0.0
 11
3.9873194828
 21
6.941194921
 31
0.0
  0
LINE
  5
209
330
1F
100
AcDbEntity
  8
SK3
  6
HIDDEN
370
    18
100
AcDbLine
 10
5.0549767861
 20
10.7960759675
 30
0.0
 11
3.2
 21
11.3098348849
 31
0.0
  0
LINE
  5
20A
330
1F
100
AcDbEntity
  8
SK3
  6
HIDDEN
370
    18
100
AcDbLine
 10
119.05
 20
5.9497474683
 30
0.0
 11
92.3717656162
 21
5.9497474683
 31
0.0
  0
LINE
  5
20B
330
1F
100
AcDbEntity
  8
SK3
  6
HIDDEN
370
    18
100
AcDbLine
 10
92.3730962282
 20
3.9497474683
 30
0.0
 11
119.05
 21
3.9497474683
 31
0.0
  0
LINE
  5
20C
330
1F
100
AcDbEntity
  8
SK3
  6
HIDDEN
370
    18
100
AcDbLine
 10
89.7269037718
 20
-3.9497474683
 30
0.0
 11
89.05
 21
-3.9497474683
 31
0.0
  0
LINE
  5
20D
330
1F
100
AcDbEntity
  8
SK3
  6
HIDDEN
370
    18
100
AcDbLine
 10
89.05
 20
-5.9497474683
 30
0.0
 11
89.7282343838
 21
-5.9497474683
 31
0.0
  0
LINE
  5
20E
330
1F
100
AcDbEntity
  8
SK3
  6
Continuous
370
    18
100
AcDbLine
 10
-38.25
 20
7.9375
 30
0.0
 11
-63.3082382949
 21
7.9375
 31
0.0
  0
LINE
  5
20F
330
1F
100
AcDbEntity
  8
SK3
  6
Continuous
370
    18
100
AcDbLine
 10
-63.3082382949
 20
-7.9375
 30
0.0
 11
-38.25
 21
-7.9375
 31
0.0
  0
LINE
  5
210
330
1F
100
AcDbEntity
  8
SK3
  6
Continuous
370
    18
100
AcDbLine
 10
-38.25
 20
0.0
 30
0.0
 11
-38.25
 21
-1.3414440113
 31
0.0
  0
LINE
  5
211
330
1F
100
AcDbEntity
  8
SK3
  6
Continuous
370
    18
100
AcDbLine
 10
-38.25
 20
-1.3414440113
 30
0.0
 11
-38.25
 21
-2.6442971208
 31
0.0
  0
LINE
  5
212
330
1F
100
AcDbEntity
  8
SK3
  6
Continuous
370
    18
100
AcDbLine
 10
-38.25
 20
-2.6442971208
 30
0.0
 11
-38.25
 21
-3.8710786165
 31
0.0
  0
LINE
  5
213
330
1F
100
AcDbEntity
  8
SK3
  6
Continuous
370
    18
100
AcDbLine
 10
-38.25
 20
-3.8710786165
 30
0.0
 11
-38.25
 21
-4.9864962285
 31
0.0
  0
LINE
  5
214
330
1F
100
AcDbEntity
  8
SK3
  6
Continuous
370
    18
100
AcDbLine
 10
-38.25
 20
-4.9864962285
 30
0.0
 11
-38.25
 21
-5.9584614229
 31
0.0
  0
LINE
  5
215
330
1F
100
AcDbEntity
  8
SK3
  6
Continuous
370
    18
100
AcDbLine
 10
-38.25
 20
-5.9584614229
 30
0.0
 11
-38.25
 21
-6.7590125308
 31
0.0
  0
LINE
  5
216
330
1F
100
AcDbEntity
  8
SK3
  6
Continuous
370
    18
100
AcDbLine
 10
-38.25
 20
-6.7590125308
 30
0.0
 11
-38.25
 21
-7.3651191542
 31
0.0
  0
LINE
  5
217
330
1F
100
AcDbEntity
  8
SK3
  6
Continuous
370
    18
100
AcDbLine
 10
-38.25
 20
-7.3651191542
 30
0.0
 11
-38.25
 21
-7.7593447091
 31
0.0
  0
LINE
  5
218
330
1F
100
AcDbEntity
  8
SK3
  6
Continuous
370
    18
100
AcDbLine
 10
-38.25
 20
-7.7593447091
 30
0.0
 11
-38.25
 21
-7.9303480442
 31
0.0
  0
LINE
  5
219
330
1F
100
AcDbEntity
  8
SK3
  6
Continuous
370
    18
100
AcDbLine
 10
-38.25
 20
-7.9303480442
 30
0.0
 11
-38.25
 21
-7.9375
 31
0.0
  0
LINE
  5
21A
330
1F
100
AcDbEntity
  8
SK3
  6
Continuous
370
    18
100
AcDbLine
 10
-38.25
 20
7.9375
 30
0.0
 11
-38.25
 21
7.9303480442
 31
0.0
  0
LINE
  5
21B
330
1F
100
AcDbEntity
  8
SK3
  6
Continuous
370
    18
100
AcDbLine
 10
-38.25
 20
7.9303480442
 30
0.0
 11
-38.25
 21
7.7593447091
 31
0.0
  0
LINE
  5
21C
330
1F
100
AcDbEntity
  8
SK3
  6
Continuous
370
    18
100
AcDbLine
 10
-38.25
 20
7.7593447091
 30
0.0
 11
-38.25
 21
7.3651191542
 31
0.0
  0
LINE
  5
21D
330
1F
100
AcDbEntity
  8
SK3
  6
Continuous
370
    18
100
AcDbLine
 10
-38.25
 20
7.3651191542
 30
0.0
 11
-38.25
 21
6.7590125308
 31
0.0
  0
LINE
  5
21E
330
1F
100
AcDbEntity
  8
SK3
  6
Continuous
370
    18
100
AcDbLine
 10
-38.25
 20
6.7590125308
 30
0.0
 11
-38.25
 21
5.9584614229
 31
0.0
  0
LINE
  5
21F
330
1F
100
AcDbEntity
  8
SK3
  6
Continuous
370
    18
100
AcDbLine
 10
-38.25
 20
5.9584614229
 30
0.0
 11
-38.25
 21
4.9864962285
 31
0.0
  0
LINE
  5
220
330
1F
100
AcDbEntity
  8
SK3
  6
Continuous
370
    18
100
AcDbLine
 10
-38.25
 20
4.9864962285
 30
0.0
 11
-38.25
 21
3.8710786165
 31
0.0
  0
LINE
  5
221
330
1F
100
AcDbEntity
  8
SK3
  6
Continuous
370
    18
100
AcDbLine
 10
-38.25
 20
3.8710786165
 30
0.0
 11
-38.25
 21
2.6442971208
 31
0.0
  0
LINE
  5
222
330
1F
100
AcDbEntity
  8
SK3
  6
Continuous
370
    18
100
AcDbLine
 10
-38.25
 20
2.6442971208
 30
0.0
 11
-38.25
 21
1.3414440113
 31
0.0
  0
LINE
  5
223
330
1F
100
AcDbEntity
  8
SK3
  6
Continuous
370
    18
100
AcDbLine
 10
-38.25
 20
1.3414440113
 30
0.0
 11
-38.25
 21
0.0
 31
0.0
  0
LINE
  5
224
330
1F
100
AcDbEntity
  8
SK3
  6
Continuous
370
    18
100
AcDbLine
 10
93.65
 20
-4.7625
 30
0.0
 11
114.064162207
 21
-4.7625
 31
0.0
  0
LINE
  5
225
330
1F
100
AcDbEntity
  8
4
  6
CENTERX2
370
    18
100
AcDbLine
 10
126.7883077322
 20
0.0
 30
0.0
 11
-2.3180370675
 21
0.0
 31
0.0
  0
LINE
  5
226
330
1F
100
AcDbEntity
  8
SK4
  6
CENTERX2
370
    18
100
AcDbLine
 10
127.032595991
 20
0.0
 30
0.0
 11
-70.1080288971
 21
0.0
 31
0.0
  0
LINE
  5
227
330
1F
100
AcDbEntity
  8
SK3
  6
Continuous
370
    18
100
AcDbLine
 10
114.064162207
 20
4.7625
 30
0.0
 11
93.65
 21
4.7625
 31
0.0
  0
LINE
  5
228
330
1F
100
AcDbEntity
  8
SK3
  6
Continuous
370
    18
100
AcDbLine
 10
93.65
 20
0.0
 30
0.0
 11
93.65
 21
1.0237967215
 31
0.0
  0
LINE
  5
229
330
1F
100
AcDbEntity
  8
SK3
  6
Continuous
370
    18
100
AcDbLine
 10
93.6499523249
 20
1.0237967215
 30
0.0
 11
93.65
 21
1.9997218462
 31
0.0
  0
LINE
  5
22A
330
1F
100
AcDbEntity
  8
SK3
  6
Continuous
370
    18
100
AcDbLine
 10
93.65
 20
1.9997218462
 30
0.0
 11
93.65
 21
2.8821421999
 31
0.0
  0
LINE
  5
22B
330
1F
100
AcDbEntity
  8
SK3
  6
Continuous
370
    18
100
AcDbLine
 10
93.65
 20
2.8821421999
 30
0.0
 11
93.65
 21
3.6297967875
 31
0.0
  0
LINE
  5
22C
330
1F
100
AcDbEntity
  8
SK3
  6
Continuous
370
    18
100
AcDbLine
 10
93.65
 20
3.6297967875
 30
0.0
 11
93.65
 21
4.2077261117
 31
0.0
  0
LINE
  5
22D
330
1F
100
AcDbEntity
  8
SK3
  6
Continuous
370
    18
100
AcDbLine
 10
93.65
 20
4.2077261117
 30
0.0
 11
93.65
 21
4.5889068394
 31
0.0
  0
LINE
  5
22E
330
1F
100
AcDbEntity
  8
SK3
  6
Continuous
370
    18
100
AcDbLine
 10
93.65
 20
4.5889068394
 30
0.0
 11
93.65
 21
4.7555153835
 31
0.0
  0
LINE
  5
22F
330
1F
100
AcDbEntity
  8
SK3
  6
Continuous
370
    18
100
AcDbLine
 10
93.65
 20
4.7555153835
 30
0.0
 11
93.65
 21
4.7625
 31
0.0
  0
LINE
  5
230
330
1F
100
AcDbEntity
  8
SK3
  6
Continuous
370
    18
100
AcDbLine
 10
93.6499523249
 20
-4.7625
 30
0.0
 11
93.65
 21
-4.7555153835
 31
0.0
  0
LINE
  5
231
330
1F
100
AcDbEntity
  8
SK3
  6
Continuous
370
    18
100
AcDbLine
 10
93.65
 20
-4.7555153835
 30
0.0
 11
93.65
 21
-4.5889068394
 31
0.0
  0
LINE
  5
232
330
1F
100
AcDbEntity
  8
SK3
  6
Continuous
370
    18
100
AcDbLine
 10
93.65
 20
-4.5889068394
 30
0.0
 11
93.65
 21
-4.2077261117
 31
0.0
  0
LINE
  5
233
330
1F
100
AcDbEntity
  8
SK3
  6
Continuous
370
    18
100
AcDbLine
 10
93.65
 20
-4.2077261117
 30
0.0
 11
93.65
 21
-3.6297967875
 31
0.0
  0
LINE
  5
234
330
1F
100
AcDbEntity
  8
SK3
  6
Continuous
370
    18
100
AcDbLine
 10
93.65
 20
-3.6297967875
 30
0.0
 11
93.65
 21
-2.8821421999
 31
0.0
  0
LINE
  5
235
330
1F
100
AcDbEntity
  8
SK3
  6
Continuous
370
    18
100
AcDbLine
 10
93.65
 20
-2.8821421999
 30
0.0
 11
93.65
 21
-1.9997218462
 31
0.0
  0
LINE
  5
236
330
1F
100
AcDbEntity
  8
SK3
  6
Continuous
370
    18
100
AcDbLine
 10
93.65
 20
-1.9997218462
 30
0.0
 11
93.65
 21
-1.0237967215
 31
0.0
  0
LINE
  5
237
330
1F
100
AcDbEntity
  8
SK3
  6
Continuous
370
    18
100
AcDbLine
 10
93.65
 20
-1.0237967215
 30
0.0
 11
93.65
 21
0.0
 31
0.0
  0
LINE
  5
238
330
1F
100
AcDbEntity
  8
SK1
  6
Continuous
370
    18
100
AcDbLine
 10
119.05
 20
-4.13258
 30
0.0
 11
123.4468282791
 21
-4.13258
 31
0.0
  0
LINE
  5
239
330
1F
100
AcDbEntity
  8
SK1
  6
Continuous
370
    18
100
AcDbLine
 10
123.4468282791
 20
4.13258
 30
0.0
 11
119.05
 21
4.13258
 31
0.0
  0
ARC
  5
23A
330
1F
100
AcDbEntity
  8
SK1
  6
Continuous
370
    25
100
AcDbCircle
 10
123.4468282791
 20
5.53
 30
0.0
 40
0.7800000000000029
100
AcDbArc
 50
270.0
 51
0.0
  0
ARC
  5
23B
330
1F
100
AcDbEntity
  8
SK1
  6
Continuous
370
    25
100
AcDbCircle
 10
123.4468282791
 20
-5.53
 30
0.0
 40
0.78000000000001
100
AcDbArc
 50
0.0
 51
90.0
  0
ARC
  5
23C
330
1F
100
AcDbEntity
  8
1
  6
Continuous
370
    25
100
AcDbCircle
 10
22.225
 20
-25.4
 30
0.0
 40
3.174999999999999
100
AcDbArc
 50
90.0
 51
109.6718656582
  0
ARC
  5
23D
330
1F
100
AcDbEntity
  8
1
  6
Continuous
370
    25
100
AcDbCircle
 10
22.225
 20
25.4
 30
0.0
 40
3.175000000000009
100
AcDbArc
 50
196.632606372
 51
270.0
  0
ARC
  5
23E
330
1F
100
AcDbEntity
  8
1
  6
Continuous
370
    25
100
AcDbCircle
 10
2.45
 20
22.79
 30
0.0
 40
0.7500000000000142
100
AcDbArc
 50
245.0
 51
0.0
  0
ARC
  5
23F
330
1F
100
AcDbEntity
  8
1
  6
Continuous
370
    25
100
AcDbCircle
 10
2.45
 20
-22.79
 30
0.0
 40
0.7500000000000014
100
AcDbArc
 50
47.6290609295
 51
115.0
  0
ARC
  5
240
330
1F
100
AcDbEntity
  8
1
  6
Continuous
370
    25
100
AcDbCircle
 10
100.584
 20
-21.209
 30
0.0
 40
1.01600000000002
100
AcDbArc
 50
270.0
 51
0.0
  0
ARC
  5
241
330
1F
100
AcDbEntity
  8
1
  6
Continuous
370
    25
100
AcDbCircle
 10
100.584
 20
21.209
 30
0.0
 40
1.01600000000002
100
AcDbArc
 50
0.0
 51
90.0
  0
ARC
  5
242
330
1F
100
AcDbEntity
  8
SK1
  6
Continuous
370
    25
100
AcDbCircle
 10
-66.95
 20
11.1476148288
 30
0.0
 40
1.299999999999999
100
AcDbArc
 50
98.2972222222
 51
180.0
  0
ARC
  5
243
330
1F
100
AcDbEntity
  8
SK1
  6
Continuous
370
    25
100
AcDbCircle
 10
-66.95
 20
-11.1476148288
 30
0.0
 40
1.299999999999997
100
AcDbArc
 50
180.0
 51
261.7027777778
  0
ARC
  5
244
330
1F
100
AcDbEntity
  8
SK1
  6
Continuous
370
    25
100
AcDbCircle
 10
102.1
 20
10.47
 30
0.0
 40
1.120000000000011
100
AcDbArc
 50
243.4852253657
 51
287.5
  0
ARC
  5
245
330
1F
100
AcDbEntity
  8
SK1
  6
Continuous
370
    25
100
AcDbCircle
 10
102.1
 20
-10.47
 30
0.0
 40
1.120000000000004
100
AcDbArc
 50
72.5
 51
116.5147746343
  0
CIRCLE
  5
246
330
1F
100
AcDbEntity
  8
81
370
    18
100
AcDbCircle
 10
100.584
 20
0.0
 30
0.0
 40
2.499999999999984
  0
CIRCLE
  5
247
330
1F
100
AcDbEntity
  8
80
370
    18
100
AcDbCircle
 10
0.0
 20
0.0
 30
0.0
 40
2.500000000000009
  0
ARC
  5
248
330
1F
100
AcDbEntity
  8
1
370
    25
100
AcDbCircle
 10
92.6065241671
 20
-39.1391296083
 30
0.0
 40
17.51828068109113
100
AcDbArc
 50
74.9089049304
 51
105.0910950696
  0
SPLINE
  5
249
330
1F
100
AcDbEntity
  8
1
  6
Continuous
370
    25
100
AcDbSpline
210
0.0
220
0.0
230
1.0
 70
     8
 71
     3
 72
    16
 73
    12
 74
     0
 42
0.000000001
 43
0.00000001
 40
0.0
 40
0.0
 40
0.0
 40
0.0
 40
0.069814031064149
 40
0.1237498965154266
 40
0.2475836018648968
 40
0.371376536255524
 40
0.4959583438678432
 40
0.62413948620796
 40
0.7469207609697971
 40
0.8742805094910139
 40
1.0
 40
1.0
 40
1.0
 40
1.0
 10
19.05
 20
29.80486644841629
 30
0.0
 10
19.049154379678
 20
29.83220375694689
 30
0.0
 10
19.04765546283076
 20
29.88066090875586
 30
0.0
 10
19.03266526234903
 20
29.97656337346559
 30
0.0
 10
18.99906876123936
 20
30.09054703967058
 30
0.0
 10
18.9309643939984
 20
30.22065301278143
 30
0.0
 10
18.83790550330876
 20
30.3366860902548
 30
0.0
 10
18.72382127964479
 20
30.43216876423578
 30
0.0
 10
18.59216376019318
 20
30.50338604964252
 30
0.0
 10
18.44966044222823
 20
30.54924901227126
 30
0.0
 10
18.3496707963334
 20
30.55503461089694
 30
0.0
 10
18.29999999999999
 20
30.55790866138916
 30
0.0
  0
SPLINE
  5
24A
330
1F
100
AcDbEntity
  8
1
  6
Continuous
370
    25
100
AcDbSpline
210
0.0
220
0.0
230
1.0
 70
     8
 71
     3
 72
    18
 73
    14
 74
     0
 42
0.000000001
 43
0.00000001
 40
0.0
 40
0.0
 40
0.0
 40
0.0
 40
0.0627744832445674
 40
0.1259566879390273
 40
0.1895565199319623
 40
0.2535836352505452
 40
0.376346832418632
 40
0.5045696556908364
 40
0.6290693889300232
 40
0.7527494156386842
 40
0.876419312736249
 40
0.9299433407543491
 40
1.0
 40
1.0
 40
1.0
 40
1.0
 10
18.29999999999999
 20
-30.59423749530872
 30
0.0
 10
18.32473391984983
 20
-30.59353128218289
 30
0.0
 10
18.37436240682431
 20
-30.59211426906374
 30
0.0
 10
18.4483042719854
 20
-30.58064046101447
 30
0.0
 10
18.52123593893329
 20
-30.56227832897209
 30
0.0
 10
18.61395125262226
 20
-30.52857531935473
 30
0.0
 10
18.72359304633676
 20
-30.46936723836125
 30
0.0
 10
18.83767585127814
 20
-30.37468394841651
 30
0.0
 10
18.93081593476389
 20
-30.2593660199345
 30
0.0
 10
18.99899166009023
 20
-30.13007760628228
 30
0.0
 10
19.03260115578575
 20
-30.01688228278212
 30
0.0
 10
19.04763787668021
 20
-29.92154111127646
 30
0.0
 10
19.04914540004036
 20
-29.87336126577003
 30
0.0
 10
19.05
 20
-29.84604859180869
 30
0.0
  0
SPLINE
  5
24B
330
1F
100
AcDbEntity
  8
1
  6
Continuous
370
    25
100
AcDbSpline
210
0.0
220
0.0
230
1.0
 70
     8
 71
     3
 72
    17
 73
    13
 74
     0
 42
0.000000001
 43
0.00000001
 40
0.0
 40
0.0
 40
0.0
 40
0.0
 40
0.0631291280015465
 40
0.1266787601496397
 40
0.1906546303127136
 40
0.2550623257949373
 40
0.3779961256543602
 40
0.5065091424273309
 40
0.7536214798198818
 40
0.8770320612774293
 40
0.9298524515434788
 40
1.0
 40
1.0
 40
1.0
 40
1.0
 10
3.950000000001092
 20
30.52549089612813
 30
0.0
 10
3.92519889562444
 20
30.52478781150884
 30
0.0
 10
3.875431486312225
 20
30.52337695901221
 30
0.0
 10
3.801277337832726
 20
30.51195110919641
 30
0.0
 10
3.728127287602772
 20
30.49365759158722
 30
0.0
 10
3.635340863239744
 20
30.46015561831549
 30
0.0
 10
3.525685838485448
 20
30.40132395587601
 30
0.0
 10
3.374710991450494
 20
30.27716904004246
 30
0.0
 10
3.264275283890963
 20
30.11096296662346
 30
0.0
 10
3.217329234209254
 20
29.95337720686739
 30
0.0
 10
3.202356403079407
 20
29.85924492742765
 30
0.0
 10
3.20085594325839
 20
29.81175237613683
 30
0.0
 10
3.200000000001174
 20
29.78466006185064
 30
0.0
  0
SPLINE
  5
24C
330
1F
100
AcDbEntity
  8
1
  6
Continuous
370
    25
100
AcDbSpline
210
0.0
220
0.0
230
1.0
 70
     8
 71
     3
 72
    16
 73
    12
 74
     0
 42
0.000000001
 43
0.00000001
 40
0.0
 40
0.0
 40
0.0
 40
0.0
 40
0.0695972585740122
 40
0.1233277320974637
 40
0.2470395554603629
 40
0.3706254099375287
 40
0.4955039070586163
 40
0.6236892810448048
 40
0.7463896350927972
 40
0.8740291723861578
 40
1.0
 40
1.0
 40
1.0
 40
1.0
 10
3.200000000001174
 20
-29.8048664484147
 30
0.0
 10
3.200840331069737
 20
-29.83211874374418
 30
0.0
 10
3.202329414505225
 20
-29.88041035531475
 30
0.0
 10
3.217237155252975
 20
-29.97610817340755
 30
0.0
 10
3.250688715769182
 20
-30.08991350869495
 30
0.0
 10
3.318652551689172
 20
-30.22007249881673
 30
0.0
 10
3.411627067178055
 20
-30.3362259697645
 30
0.0
 10
3.525709306307426
 20
-30.43184457714624
 30
0.0
 10
3.657379123024551
 20
-30.50320141671583
 30
0.0
 10
3.800029806286645
 20
-30.54921347619067
 30
0.0
 10
3.900229701072053
 20
-30.55502300820693
 30
0.0
 10
3.950000000001092
 20
-30.55790866138759
 30
0.0
  0
SPLINE
  5
24D
330
1F
100
AcDbEntity
  8
1
  6
Continuous
370
    25
100
AcDbSpline
210
0.0
220
0.0
230
1.0
 70
     8
 71
     3
 72
     8
 73
     4
 74
     0
 42
0.000000001
 43
0.00000001
 40
0.0
 40
0.0
 40
0.0
 40
0.0
 40
1.0
 40
1.0
 40
1.0
 40
1.0
 10
13.02999999999997
 20
27.8050456341729
 30
0.0
 10
13.47759651810103
 20
28.61249255653032
 30
0.0
 10
13.92634937951633
 20
29.41929290832668
 30
0.0
 10
14.37601294652259
 20
30.2255814201264
 30
0.0
  0
SPLINE
  5
24E
330
1F
100
AcDbEntity
  8
1
  6
Continuous
370
    25
100
AcDbSpline
210
0.0
220
0.0
230
1.0
 70
     8
 71
     3
 72
     8
 73
     4
 74
     0
 42
0.000000001
 43
0.00000001
 40
0.0
 40
0.0
 40
0.0
 40
0.0
 40
0.0006742907251945
 40
0.0006742907251945
 40
0.0006742907251945
 40
0.0006742907251945
 10
14.64112635455681
 20
30.55790866138915
 30
0.0
 10
14.55231121915219
 20
30.44723498609877
 30
0.0
 10
14.4639323132736
 20
30.33646040447049
 30
0.0
 10
14.37601294652259
 20
30.2255814201264
 30
0.0
  0
SPLINE
  5
24F
330
1F
100
AcDbEntity
  8
1
  6
Continuous
370
    25
100
AcDbSpline
210
0.0
220
0.0
230
1.0
 70
     8
 71
     3
 72
     8
 73
     4
 74
     0
 42
0.000000001
 43
0.00000001
 40
0.0
 40
0.0
 40
0.0
 40
0.0
 40
0.0006225458678437
 40
0.0006225458678437
 40
0.0006225458678437
 40
0.0006225458678437
 10
14.36214156145581
 20
-30.20070805372417
 30
0.0
 10
14.45494885427517
 20
-30.33195096150402
 30
0.0
 10
14.54794691956059
 20
-30.46312649619105
 30
0.0
 10
14.64112635455681
 20
-30.59423749530871
 30
0.0
  0
SPLINE
  5
250
330
1F
100
AcDbEntity
  8
1
  6
Continuous
370
    25
100
AcDbSpline
210
0.0
220
0.0
230
1.0
 70
     8
 71
     3
 72
     8
 73
     4
 74
     0
 42
0.000000001
 43
0.00000001
 40
0.0
 40
0.0
 40
0.0
 40
0.0
 40
1.0
 40
1.0
 40
1.0
 40
1.0
 10
13.02999999999997
 20
-27.8050456341729
 30
0.0
 10
13.47298490654784
 20
-28.60417338646276
 30
0.0
 10
13.91711184429853
 20
-29.40268446242281
 30
0.0
 10
14.36214156145581
 20
-30.20070805372417
 30
0.0
  0
SPLINE
  5
251
330
1F
100
AcDbEntity
  8
1
  6
Continuous
370
    25
100
AcDbSpline
210
0.0
220
0.0
230
1.0
 70
     8
 71
     3
 72
    14
 73
    10
 74
     0
 42
0.000000001
 43
0.00000001
 40
0.0
 40
0.0
 40
0.0
 40
0.0
 40
0.25
 40
0.25
 40
0.5
 40
0.5
 40
0.75
 40
0.75
 40
1.0
 40
1.0
 40
1.0
 40
1.0
 10
13.02999999999999
 20
25.81171788356632
 30
0.0
 10
13.05182784069894
 20
25.80868166763939
 30
0.0
 10
13.06930451588747
 20
25.79706282581693
 30
0.0
 10
13.09355241467168
 20
25.75265705035271
 30
0.0
 10
13.0999641373839
 20
25.71975400624286
 30
0.0
 10
13.1000355545799
 20
25.63443445773249
 30
0.0
 10
13.09360869858515
 20
25.58073121692832
 30
0.0
 10
13.06953031995427
 20
25.4597665160328
 30
0.0
 10
13.05190366619462
 20
25.39187340765438
 30
0.0
 10
13.02999999999997
 20
25.31924243797494
 30
0.0
  0
SPLINE
  5
252
330
1F
100
AcDbEntity
  8
1
  6
Continuous
370
    25
100
AcDbSpline
210
0.0
220
0.0
230
1.0
 70
     8
 71
     3
 72
     8
 73
     4
 74
     0
 42
0.000000001
 43
0.00000001
 40
0.0
 40
0.0
 40
0.0
 40
0.0
 40
1.0
 40
1.0
 40
1.0
 40
1.0
 10
7.853987053480685
 20
-30.22558142012046
 30
0.0
 10
8.303659523847859
 20
-29.41927694376828
 30
0.0
 10
8.752412641283778
 20
-28.61247603335192
 30
0.0
 10
9.199999999999973
 20
-27.8050456341729
 30
0.0
  0
SPLINE
  5
253
330
1F
100
AcDbEntity
  8
1
  6
Continuous
370
    25
100
AcDbSpline
210
0.0
220
0.0
230
1.0
 70
     8
 71
     3
 72
     8
 73
     4
 74
     0
 42
0.000000001
 43
0.00000001
 40
0.0
 40
0.0
 40
0.0
 40
0.0
 40
0.0006742907251988
 40
0.0006742907251988
 40
0.0006742907251988
 40
0.0006742907251988
 10
7.588873645446277
 20
-30.55790866138759
 30
0.0
 10
7.677688780850957
 20
-30.44723498609576
 30
0.0
 10
7.766067686729606
 20
-30.33646040446601
 30
0.0
 10
7.853987053480685
 20
-30.22558142012046
 30
0.0
  0
SPLINE
  5
254
330
1F
100
AcDbEntity
  8
1
  6
Continuous
370
    25
100
AcDbSpline
210
0.0
220
0.0
230
1.0
 70
     8
 71
     3
 72
     8
 73
     4
 74
     0
 42
0.000000001
 43
0.00000001
 40
0.0
 40
0.0
 40
0.0
 40
0.0
 40
0.0008783072046588
 40
0.0008783072046588
 40
0.0008783072046588
 40
0.0008783072046588
 10
7.954801979623061
 20
30.04477450406312
 30
0.0
 10
7.83342945393345
 20
30.20517934774792
 30
0.0
 10
7.711439473169962
 20
30.36541529273777
 30
0.0
 10
7.588873645443181
 20
30.52549089612813
 30
0.0
  0
SPLINE
  5
255
330
1F
100
AcDbEntity
  8
1
  6
Continuous
370
    25
100
AcDbSpline
210
0.0
220
0.0
230
1.0
 70
     8
 71
     3
 72
     8
 73
     4
 74
     0
 42
0.000000001
 43
0.00000001
 40
0.0
 40
0.0
 40
0.0
 40
0.0
 40
1.0
 40
1.0
 40
1.0
 40
1.0
 10
7.954801979623061
 20
30.04477450406312
 30
0.0
 10
8.370727457914576
 20
29.29868029830994
 30
0.0
 10
8.785859109372574
 20
28.55213988990604
 30
0.0
 10
9.199999999999973
 20
27.80504563417289
 30
0.0
  0
SPLINE
  5
256
330
1F
100
AcDbEntity
  8
1
  6
Continuous
370
    25
100
AcDbSpline
210
0.0
220
0.0
230
1.0
 70
     8
 71
     3
 72
    14
 73
    10
 74
     0
 42
0.000000001
 43
0.00000001
 40
0.0
 40
0.0
 40
0.0
 40
0.0
 40
0.25
 40
0.25
 40
0.5
 40
0.5
 40
0.75
 40
0.75
 40
1.0
 40
1.0
 40
1.0
 40
1.0
 10
9.199999999999973
 20
25.27054331738515
 30
0.0
 10
9.16961039113308
 20
25.36219671402943
 30
0.0
 10
9.144652419510349
 20
25.44797517411536
 30
0.0
 10
9.109411114929973
 20
25.60359055831196
 30
0.0
 10
9.100075894725233
 20
25.66959440204681
 30
0.0
 10
9.099925023949918
 20
25.77434199055112
 30
0.0
 10
9.1093759147689
 20
25.81145009587524
 30
0.0
 10
9.144272722663827
 20
25.85500935243891
 30
0.0
 10
9.169555752624209
 20
25.86176202446126
 30
0.0
 10
9.199999999999973
 20
25.85691311136566
 30
0.0
  0
SPLINE
  5
257
330
1F
100
AcDbEntity
  8
1
  6
Continuous
370
    25
100
AcDbSpline
210
0.0
220
0.0
230
1.0
 70
     8
 71
     3
 72
    14
 73
    10
 74
     0
 42
0.000000001
 43
0.00000001
 40
0.0
 40
0.0
 40
0.0
 40
0.0
 40
0.25
 40
0.25
 40
0.5
 40
0.5
 40
0.75
 40
0.75
 40
1.0
 40
1.0
 40
1.0
 40
1.0
 10
9.199999999999985
 20
-27.76916635406976
 30
0.0
 10
9.199999999999985
 20
-27.66854183645177
 30
0.0
 10
9.21875372267357
 20
-27.56842327754132
 30
0.0
 10
9.29151753581213
 20
-27.38167264562911
 30
0.0
 10
9.345885298655695
 20
-27.29482655372932
 30
0.0
 10
9.482713453674615
 20
-27.1491407371527
 30
0.0
 10
9.566479996683002
 20
-27.08925426891803
 30
0.0
 10
9.749089787631629
 20
-27.0086155382603
 30
0.0
 10
9.849941180319345
 20
-26.98706356756881
 30
0.0
 10
9.949999999999973
 20
-26.98706356756881
 30
0.0
  0
SPLINE
  5
258
330
1F
100
AcDbEntity
  8
1
  6
Continuous
370
    25
100
AcDbSpline
210
0.0
220
0.0
230
1.0
 70
     8
 71
     3
 72
    16
 73
    12
 74
     0
 42
0.000000001
 43
0.00000001
 40
0.0
 40
0.0
 40
0.0
 40
0.0
 40
0.25
 40
0.25
 40
0.5
 40
0.5
 40
0.75
 40
0.75
 40
0.875
 40
0.875
 40
1.0
 40
1.0
 40
1.0
 40
1.0
 10
9.949999999999973
 20
24.06685975304421
 30
0.0
 10
9.84049335128105
 20
24.10694414130935
 30
0.0
 10
9.742786160772177
 20
24.17117631338136
 30
0.0
 10
9.567840382589427
 20
24.33096083631471
 30
0.0
 10
9.493988254027252
 20
24.42340952890756
 30
0.0
 10
9.367115049349728
 20
24.627933940745
 30
0.0
 10
9.314523965068808
 20
24.73961559875878
 30
0.0
 10
9.253446937618385
 20
24.91971397324645
 30
0.0
 10
9.23589330312334
 20
24.98231479864246
 30
0.0
 10
9.20910298907239
 20
25.11253703191868
 30
0.0
 10
9.199999999999985
 20
25.18114365477768
 30
0.0
 10
9.199999999999985
 20
25.24012107693849
 30
0.0
  0
SPLINE
  5
259
330
1F
100
AcDbEntity
  8
1
  6
Continuous
370
    25
100
AcDbSpline
210
0.0
220
0.0
230
1.0
 70
     8
 71
     3
 72
    12
 73
     8
 74
     0
 42
0.000000001
 43
0.00000001
 40
0.0
 40
0.0
 40
0.0
 40
0.0
 40
0.2499999999999992
 40
0.2499999999999992
 40
0.4999999999999983
 40
0.4999999999999983
 40
1.0
 40
1.0
 40
1.0
 40
1.0
 10
12.28
 20
-26.98706356756882
 30
0.0
 10
12.37975762515878
 20
-26.98706356756882
 30
0.0
 10
12.48041217798164
 20
-27.0084362441483
 30
0.0
 10
12.66352022573501
 20
-27.08921384437032
 30
0.0
 10
12.74662210573631
 20
-27.1484408053342
 30
0.0
 10
12.95377706693954
 20
-27.36898351970364
 30
0.0
 10
13.03
 20
-27.56902785518155
 30
0.0
 10
13.03
 20
-27.76916635406976
 30
0.0
  0
SPLINE
  5
25A
330
1F
100
AcDbEntity
  8
1
  6
Continuous
370
    25
100
AcDbSpline
210
0.0
220
0.0
230
1.0
 70
     8
 71
     3
 72
    18
 73
    14
 74
     0
 42
0.000000001
 43
0.00000001
 40
0.0
 40
0.0
 40
0.0
 40
0.0
 40
0.0624999999999999
 40
0.0624999999999999
 40
0.1249999999999998
 40
0.1249999999999998
 40
0.2500000000000003
 40
0.2500000000000003
 40
0.5000000000000002
 40
0.5000000000000002
 40
0.7500000000000001
 40
0.7500000000000001
 40
1.0
 40
1.0
 40
1.0
 40
1.0
 10
13.02999999999999
 20
25.28882228478155
 30
0.0
 10
13.02999999999999
 20
25.25845422870301
 30
0.0
 10
13.02749489038112
 20
25.22358442434115
 30
0.0
 10
13.01920268672195
 20
25.15482296737403
 30
0.0
 10
13.01359186100897
 20
25.12104898565183
 30
0.0
 10
12.99361738711073
 20
25.02074756626909
 30
0.0
 10
12.9766886516919
 20
24.95779435947978
 30
0.0
 10
12.91737158574148
 20
24.77496256517826
 30
0.0
 10
12.86564177103883
 20
24.66011878167448
 30
0.0
 10
12.7404954338462
 20
24.45045700081711
 30
0.0
 10
12.66639130892092
 20
24.35409856583109
 30
0.0
 10
12.49025684705969
 20
24.18769951882028
 30
0.0
 10
12.39180028213034
 20
24.12054595344058
 30
0.0
 10
12.28
 20
24.07805063523434
 30
0.0
  0
SPLINE
  5
25B
330
1F
100
AcDbEntity
  8
1
  6
Continuous
370
    25
100
AcDbSpline
210
0.0
220
0.0
230
1.0
 70
     8
 71
     3
 72
    12
 73
     8
 74
     0
 42
0.000000001
 43
0.00000001
 40
0.0
 40
0.0
 40
0.0
 40
0.0
 40
0.25
 40
0.25
 40
0.5
 40
0.5
 40
1.0
 40
1.0
 40
1.0
 40
1.0
 10
12.28
 20
24.07805063523434
 30
0.0
 10
12.11125565653784
 20
24.01391086354244
 30
0.0
 10
11.9280176059461
 20
23.96418277266271
 30
0.0
 10
11.53284005751186
 20
23.89473625632987
 30
0.0
 10
11.32774190386503
 20
23.876521502723
 30
0.0
 10
10.70517895587088
 20
23.87317080568452
 30
0.0
 10
10.29199014189867
 20
23.9416758871229
 30
0.0
 10
9.949999999999973
 20
24.06685975304421
 30
0.0
  0
SPLINE
  5
25C
330
1F
100
AcDbEntity
  8
1
  6
Continuous
370
    25
100
AcDbSpline
210
0.0
220
0.0
230
1.0
 70
     8
 71
     3
 72
    25
 73
    21
 74
     0
 42
0.000000001
 43
0.00000001
 40
0.0
 40
0.0
 40
0.0
 40
0.0
 40
0.0299214024846323
 40
0.0598095004851483
 40
0.1188101629493706
 40
0.1780928910506566
 40
0.2372073285531871
 40
0.2964433806028868
 40
0.3565599133294402
 40
0.4168518622214136
 40
0.4778772546225366
 40
0.5402454209512919
 40
0.602988088992633
 40
0.6667146130719919
 40
0.732204931631528
 40
0.7982196921303117
 40
0.865408280979623
 40
0.9325755182239853
 40
0.9662569156587436
 40
1.0
 40
1.0
 40
1.0
 40
1.0
 10
19.20996085266408
 20
-22.90512857157064
 30
0.0
 10
19.21389734336675
 20
-22.89245625540986
 30
0.0
 10
19.22176594319966
 20
-22.86712572820766
 30
0.0
 10
19.23856842912071
 20
-22.81725030705088
 30
0.0
 10
19.2610872836881
 20
-22.75618877159256
 30
0.0
 10
19.29028664282827
 20
-22.68644005896335
 30
0.0
 10
19.32122462316076
 20
-22.62112025473702
 30
0.0
 10
19.35343837488017
 20
-22.56099400899863
 30
0.0
 10
19.3863694955895
 20
-22.5067722748718
 30
0.0
 10
19.41945621968551
 20
-22.45897344106428
 30
0.0
 10
19.45206343848058
 20
-22.41808080391096
 30
0.0
 10
19.48343179772691
 20
-22.38468659777024
 30
0.0
 10
19.5127231597516
 20
-22.35935476825215
 30
0.0
 10
19.53904160393564
 20
-22.34264806447547
 30
0.0
 10
19.56132332710978
 20
-22.33528675059102
 30
0.0
 10
19.57843608193854
 20
-22.33797337353439
 30
0.0
 10
19.58925085516811
 20
-22.35108159471293
 30
0.0
 10
19.59229402863806
 20
-22.37087622274505
 30
0.0
 10
19.59123579988738
 20
-22.39147576647958
 30
0.0
 10
19.58917295554177
 20
-22.40382189583222
 30
0.0
 10
19.58814058971701
 20
-22.41000060826814
 30
0.0
  0
SPLINE
  5
25D
330
1F
100
AcDbEntity
  8
1
  6
Continuous
370
    25
100
AcDbSpline
210
0.0
220
0.0
230
1.0
 70
     8
 71
     3
 72
    13
 73
     9
 74
     0
 42
0.000000001
 43
0.00000001
 40
0.0
 40
0.0
 40
0.0
 40
0.0
 40
0.122389712763395
 40
0.2506391067226694
 40
0.4999109692567479
 40
0.7492280138863301
 40
0.874350161403176
 40
1.0
 40
1.0
 40
1.0
 40
1.0
 10
19.05
 20
-23.97804446873441
 30
0.0
 10
19.05046923513729
 20
-23.93362955397998
 30
0.0
 10
19.05143017109337
 20
-23.84267326110321
 30
0.0
 10
19.06182209751676
 20
-23.66151381707482
 30
0.0
 10
19.08686408726069
 20
-23.43523075615678
 30
0.0
 10
19.1287085196019
 20
-23.21260379277302
 30
0.0
 10
19.17153762293232
 20
-23.03621671172654
 30
0.0
 10
19.19713515474428
 20
-22.94888587407352
 30
0.0
 10
19.20996085266408
 20
-22.90512857157064
 30
0.0
  0
SPLINE
  5
25E
330
1F
100
AcDbEntity
  8
1
  6
Continuous
370
    25
100
AcDbSpline
210
0.0
220
0.0
230
1.0
 70
     8
 71
     3
 72
    10
 73
     6
 74
     0
 42
0.000000001
 43
0.00000001
 40
0.0
 40
0.0
 40
0.0
 40
0.0
 40
0.0008398002061969
 40
0.5365898849820934
 40
1.0
 40
1.0
 40
1.0
 40
1.0
 10
2.955282804239026
 20
-22.23547775726504
 30
0.0
 10
2.9552200311036
 20
-22.23551237836761
 30
0.0
 10
2.915111170359752
 20
-22.2576335130217
 30
0.0
 10
3.097715853846355
 20
-22.19197547626515
 30
0.0
 10
3.157240696261165
 20
-22.06309040214891
 30
0.0
 10
3.184848295198328
 20
-22.00331355451963
 30
0.0
  0
SPLINE
  5
25F
330
1F
100
AcDbEntity
  8
1
  6
Continuous
370
    25
100
AcDbSpline
210
0.0
220
0.0
230
1.0
 70
     8
 71
     3
 72
    16
 73
    12
 74
     0
 42
0.000000001
 43
0.00000001
 40
0.0
 40
0.0
 40
0.0
 40
0.0
 40
0.125
 40
0.125
 40
0.25
 40
0.25
 40
0.5
 40
0.5
 40
0.75
 40
0.75
 40
1.0
 40
1.0
 40
1.0
 40
1.0
 10
9.199999999999973
 20
25.82649087091904
 30
0.0
 10
9.199999999999985
 20
25.76704453528218
 30
0.0
 10
9.209309779240183
 20
25.72460913602999
 30
0.0
 10
9.236285539089934
 20
25.66309575968361
 30
0.0
 10
9.253818395994053
 20
25.64221451078864
 30
0.0
 10
9.314732612350827
 20
25.59089236418539
 30
0.0
 10
9.367586350542451
 20
25.5716263880416
 30
0.0
 10
9.493923269647567
 20
25.54782523997984
 30
0.0
 10
9.568606186754742
 20
25.5438020492668
 30
0.0
 10
9.74319071899028
 20
25.55566084202212
 30
0.0
 10
9.840260492227275
 20
25.57101227172015
 30
0.0
 10
9.94999999999997
 20
25.60325879037601
 30
0.0
  0
SPLINE
  5
260
330
1F
100
AcDbEntity
  8
1
  6
Continuous
370
    25
100
AcDbSpline
210
0.0
220
0.0
230
1.0
 70
     8
 71
     3
 72
    12
 73
     8
 74
     0
 42
0.000000001
 43
0.00000001
 40
0.0
 40
0.0
 40
0.0
 40
0.0
 40
0.2500000000000006
 40
0.2500000000000006
 40
0.5000000000000011
 40
0.5000000000000011
 40
1.0
 40
1.0
 40
1.0
 40
1.0
 10
9.949999999999973
 20
25.60325879037601
 30
0.0
 10
10.1209934826938
 20
25.65350454636332
 30
0.0
 10
10.30594493731545
 20
25.6908700749012
 30
0.0
 10
10.70348914958043
 20
25.74162454002532
 30
0.0
 10
10.90918343641378
 20
25.7539131306725
 30
0.0
 10
11.53176214943039
 20
25.75179790476193
 30
0.0
 10
11.94250893135801
 20
25.69754140003431
 30
0.0
 10
12.28
 20
25.59426208810603
 30
0.0
  0
SPLINE
  5
261
330
1F
100
AcDbEntity
  8
1
  6
Continuous
370
    25
100
AcDbSpline
210
0.0
220
0.0
230
1.0
 70
     8
 71
     3
 72
    18
 73
    14
 74
     0
 42
0.000000001
 43
0.00000001
 40
0.0
 40
0.0
 40
0.0
 40
0.0
 40
0.2499999999999992
 40
0.2499999999999992
 40
0.4999999999999984
 40
0.4999999999999984
 40
0.7499999999999977
 40
0.7499999999999977
 40
0.8749999999999988
 40
0.8749999999999988
 40
0.9374999999999994
 40
0.9374999999999994
 40
1.0
 40
1.0
 40
1.0
 40
1.0
 10
12.28
 20
25.59426208810603
 30
0.0
 10
12.39154339480307
 20
25.56012748089477
 30
0.0
 10
12.49076613158666
 20
25.54318981789734
 30
0.0
 10
12.66653346245912
 20
25.52816909760165
 30
0.0
 10
12.74028542340612
 20
25.53041158029684
 30
0.0
 10
12.86605076853516
 20
25.54934151941309
 30
0.0
 10
12.91749996660363
 20
25.56531541934165
 30
0.0
 10
12.97688531868162
 20
25.6090846994035
 30
0.0
 10
12.99394905986488
 20
25.62703563897609
 30
0.0
 10
13.01360803438727
 20
25.66754728332325
 30
0.0
 10
13.01926149413285
 20
25.68358803034142
 30
0.0
 10
13.02752275857842
 20
25.72506394381625
 30
0.0
 10
13.02999999999999
 20
25.75103822857546
 30
0.0
 10
13.02999999999999
 20
25.7812977303729
 30
0.0
  0
SPLINE
  5
262
330
1F
100
AcDbEntity
  8
1
  6
Continuous
370
    25
100
AcDbSpline
210
0.0
220
0.0
230
1.0
 70
     8
 71
     3
 72
    12
 73
     8
 74
     0
 42
0.000000001
 43
0.00000001
 40
0.0
 40
0.0
 40
0.0
 40
0.0
 40
0.2499999999999991
 40
0.2499999999999991
 40
0.4999999999999982
 40
0.4999999999999982
 40
1.0
 40
1.0
 40
1.0
 40
1.0
 10
9.199999999999985
 20
27.76916635406976
 30
0.0
 10
9.199999999999985
 20
27.66809333683725
 30
0.0
 10
9.218583298377242
 20
27.5689264133913
 30
0.0
 10
9.291549937975763
 20
27.38152387214675
 30
0.0
 10
9.345496880932808
 20
27.29531750692793
 30
0.0
 10
9.551071041675366
 20
27.07620366276165
 30
0.0
 10
9.74822041674009
 20
26.9870635675688
 30
0.0
 10
9.949999999999973
 20
26.98706356756882
 30
0.0
  0
SPLINE
  5
263
330
1F
100
AcDbEntity
  8
1
  6
Continuous
370
    25
100
AcDbSpline
210
0.0
220
0.0
230
1.0
 70
     8
 71
     3
 72
    14
 73
    10
 74
     0
 42
0.000000001
 43
0.00000001
 40
0.0
 40
0.0
 40
0.0
 40
0.0
 40
0.25
 40
0.25
 40
0.5
 40
0.5
 40
0.75
 40
0.75
 40
1.0
 40
1.0
 40
1.0
 40
1.0
 10
12.28
 20
26.98706356756881
 30
0.0
 10
12.38041018140383
 20
26.9870635675688
 30
0.0
 10
12.480074177716
 20
27.00821121867971
 30
0.0
 10
12.66478364882749
 20
27.08984749877596
 30
0.0
 10
12.74772062670419
 20
27.1494985263265
 30
0.0
 10
12.8844352156222
 20
27.29527278596965
 30
0.0
 10
12.93853405055463
 20
27.38169791130528
 30
0.0
 10
13.01142030969679
 20
27.56897740148014
 30
0.0
 10
13.02999999999999
 20
27.66812420510654
 30
0.0
 10
13.02999999999999
 20
27.76916635406976
 30
0.0
  0
SPLINE
  5
264
330
1F
100
AcDbEntity
  8
SK3
  6
HIDDEN
370
    18
100
AcDbSpline
210
0.0
220
0.0
230
1.0
 70
     8
 71
     3
 72
    30
 73
    26
 74
     0
 42
0.000000001
 43
0.00000001
 40
0.4999999999999971
 40
0.4999999999999971
 40
0.4999999999999971
 40
0.4999999999999971
 40
0.5624999999999977
 40
0.5624999999999977
 40
0.6249999999999981
 40
0.6249999999999981
 40
0.6562499999999984
 40
0.6562499999999984
 40
0.6874999999999987
 40
0.6874999999999987
 40
0.718749999999999
 40
0.718749999999999
 40
0.7499999999999992
 40
0.7499999999999992
 40
0.7812499999999994
 40
0.7812499999999994
 40
0.8124999999999998
 40
0.8124999999999998
 40
0.8749999999999998
 40
0.8749999999999998
 40
0.9374999999999999
 40
0.9374999999999999
 40
0.96875
 40
0.96875
 40
1.0
 40
1.0
 40
1.0
 40
1.0
 10
11.75479658556571
 20
-4.901433547105923
 30
0.0
 10
11.89746294966132
 20
-4.886411197664708
 30
0.0
 10
12.02884136644405
 20
-4.886974229786185
 30
0.0
 10
12.27243240561783
 20
-4.932317536304447
 30
0.0
 10
12.38574037094357
 20
-4.97542120974823
 30
0.0
 10
12.53947570845301
 20
-5.103559339222866
 30
0.0
 10
12.58638543677658
 20
-5.156028957061212
 30
0.0
 10
12.66795201157342
 20
-5.291134993494206
 30
0.0
 10
12.70317196931761
 20
-5.375974586482812
 30
0.0
 10
12.74713654526593
 20
-5.582861984914107
 30
0.0
 10
12.75526091463634
 20
-5.705696917838718
 30
0.0
 10
12.73739776164136
 20
-5.968523156861111
 30
0.0
 10
12.71224833739215
 20
-6.103419156624202
 30
0.0
 10
12.64408666407788
 20
-6.357264662683465
 30
0.0
 10
12.60068164729125
 20
-6.478993458595598
 30
0.0
 10
12.50600924552238
 20
-6.704610974826185
 30
0.0
 10
12.45441331137412
 20
-6.80972766832097
 30
0.0
 10
12.2899062133226
 20
-7.109437894498877
 30
0.0
 10
12.17017846713214
 20
-7.284103436407833
 30
0.0
 10
11.91483731616863
 20
-7.597298819669192
 30
0.0
 10
11.77767665531763
 20
-7.737818016165216
 30
0.0
 10
11.5495115897996
 20
-7.918374112026481
 30
0.0
 10
11.46985276967112
 20
-7.973291374430619
 30
0.0
 10
11.29758630900467
 20
-8.069225810891208
 30
0.0
 10
11.20406269051036
 20
-8.110848935776533
 30
0.0
 10
11.09999999999999
 20
-8.139670393607947
 30
0.0
  0
SPLINE
  5
265
330
1F
100
AcDbEntity
  8
SK3
  6
HIDDEN
370
    18
100
AcDbSpline
210
0.0
220
0.0
230
1.0
 70
     8
 71
     3
 72
    34
 73
    30
 74
     0
 42
0.000000001
 43
0.00000001
 40
0.0
 40
0.0
 40
0.0
 40
0.0
 40
0.0312499999999996
 40
0.0312499999999996
 40
0.0624999999999992
 40
0.0624999999999992
 40
0.0937499999999988
 40
0.0937499999999988
 40
0.1249999999999985
 40
0.1249999999999985
 40
0.1562499999999982
 40
0.1562499999999982
 40
0.1874999999999979
 40
0.1874999999999979
 40
0.2499999999999979
 40
0.2499999999999979
 40
0.3124999999999978
 40
0.3124999999999978
 40
0.3437499999999977
 40
0.3437499999999977
 40
0.3749999999999976
 40
0.3749999999999976
 40
0.4062499999999975
 40
0.4062499999999975
 40
0.4374999999999973
 40
0.4374999999999973
 40
0.4687499999999972
 40
0.4687499999999972
 40
0.4999999999999971
 40
0.4999999999999971
 40
0.4999999999999971
 40
0.4999999999999971
 10
11.09999999999999
 20
-8.139670393607947
 30
0.0
 10
10.99593730948964
 20
-8.168491851439356
 30
0.0
 10
10.88327240143051
 20
-8.183619230956747
 30
0.0
 10
10.64024603173766
 20
-8.169996197171635
 30
0.0
 10
10.51600003630447
 20
-8.140993061765096
 30
0.0
 10
10.27540472633831
 20
-8.04151180398863
 30
0.0
 10
10.16352991293557
 20
-7.973785811074552
 30
0.0
 10
9.95664171922836
 20
-7.80886490752029
 30
0.0
 10
9.865140211756065
 20
-7.714409980823917
 30
0.0
 10
9.705479632928768
 20
-7.505675203818743
 30
0.0
 10
9.638640231842244
 20
-7.392601974747757
 30
0.0
 10
9.534145986449417
 20
-7.157373188583886
 30
0.0
 10
9.495668589618186
 20
-7.032517635178801
 30
0.0
 10
9.429144226770033
 20
-6.659799668562679
 30
0.0
 10
9.448570934642714
 20
-6.405979053005106
 30
0.0
 10
9.610438460184708
 20
-5.948466648519217
 30
0.0
 10
9.752910053168169
 20
-5.744009981362482
 30
0.0
 10
10.03367356462019
 20
-5.497500536354737
 30
0.0
 10
10.13722938652328
 20
-5.425546956212901
 30
0.0
 10
10.36592358660667
 20
-5.297018553104077
 30
0.0
 10
10.48785945052917
 20
-5.24256285665807
 30
0.0
 10
10.73642302172963
 20
-5.147912691227136
 30
0.0
 10
10.85648365715393
 20
-5.109640819744174
 30
0.0
 10
11.08061189675417
 20
-5.043111325123109
 30
0.0
 10
11.18022385975338
 20
-5.01623119219086
 30
0.0
 10
11.36576798793605
 20
-4.969815472118947
 30
0.0
 10
11.45055694339849
 20
-4.95078503312037
 30
0.0
 10
11.60916091896928
 20
-4.920394395500214
 30
0.0
 10
11.68346340351791
 20
-4.908944721826531
 30
0.0
 10
11.75479658556571
 20
-4.901433547105923
 30
0.0
  0
SPLINE
  5
266
330
1F
100
AcDbEntity
  8
SK3
  6
HIDDEN
370
    18
100
AcDbSpline
210
0.0
220
0.0
230
1.0
 70
     8
 71
     3
 72
    30
 73
    26
 74
     0
 42
0.000000001
 43
0.00000001
 40
0.4999999999999977
 40
0.4999999999999977
 40
0.4999999999999977
 40
0.4999999999999977
 40
0.5312499999999977
 40
0.5312499999999977
 40
0.5624999999999976
 40
0.5624999999999976
 40
0.6249999999999976
 40
0.6249999999999976
 40
0.6874999999999974
 40
0.6874999999999974
 40
0.7187499999999977
 40
0.7187499999999977
 40
0.7499999999999978
 40
0.7499999999999978
 40
0.781249999999998
 40
0.781249999999998
 40
0.8124999999999982
 40
0.8124999999999982
 40
0.8437499999999984
 40
0.8437499999999984
 40
0.8749999999999986
 40
0.8749999999999986
 40
0.9374999999999993
 40
0.9374999999999993
 40
1.0
 40
1.0
 40
1.0
 40
1.0
 10
9.52842029993542
 20
-8.78331863898748
 30
0.0
 10
9.563561233735404
 20
-8.863935054853195
 30
0.0
 10
9.607627266507032
 20
-8.927948620428328
 30
0.0
 10
9.703027024245026
 20
-9.029913156802367
 30
0.0
 10
9.755165859587786
 20
-9.069013533844455
 30
0.0
 10
9.920727180931468
 20
-9.161365608196956
 30
0.0
 10
10.03962982796815
 20
-9.18914689365864
 30
0.0
 10
10.29581948707685
 20
-9.207761129461575
 30
0.0
 10
10.43340974433163
 20
-9.197532970852947
 30
0.0
 10
10.66277322328792
 20
-9.159887465694725
 30
0.0
 10
10.74371097916554
 20
-9.1434803190221
 30
0.0
 10
10.91864535127571
 20
-9.102894413631462
 30
0.0
 10
11.01198337642653
 20
-9.079005870686098
 30
0.0
 10
11.22104536410175
 20
-9.020599106716363
 30
0.0
 10
11.33557343779475
 20
-8.986604712168608
 30
0.0
 10
11.57980302461463
 20
-8.902979810871837
 30
0.0
 10
11.7044559947736
 20
-8.854609275012841
 30
0.0
 10
11.94450363931203
 20
-8.738302937094128
 30
0.0
 10
12.05531700587897
 20
-8.672727087611992
 30
0.0
 10
12.25922745067752
 20
-8.52032559684356
 30
0.0
 10
12.35002701179842
 20
-8.435036721266155
 30
0.0
 10
12.58459907667486
 20
-8.152304640047157
 30
0.0
 10
12.6894417703268
 20
-7.92694809933955
 30
0.0
 10
12.77109851062197
 20
-7.442912699127654
 30
0.0
 10
12.74820534245737
 20
-7.186173862784487
 30
0.0
 10
12.66230763443388
 20
-6.940889607535649
 30
0.0
  0
SPLINE
  5
267
330
1F
100
AcDbEntity
  8
SK3
  6
HIDDEN
370
    18
100
AcDbSpline
210
0.0
220
0.0
230
1.0
 70
     8
 71
     3
 72
    34
 73
    30
 74
     0
 42
0.000000001
 43
0.00000001
 40
0.0
 40
0.0
 40
0.0
 40
0.0
 40
0.0312499999999997
 40
0.0312499999999997
 40
0.0624999999999995
 40
0.0624999999999995
 40
0.0937499999999992
 40
0.0937499999999992
 40
0.124999999999999
 40
0.124999999999999
 40
0.1562499999999987
 40
0.1562499999999987
 40
0.1874999999999984
 40
0.1874999999999984
 40
0.2499999999999982
 40
0.2499999999999982
 40
0.3124999999999979
 40
0.3124999999999979
 40
0.3437499999999978
 40
0.3437499999999978
 40
0.3749999999999978
 40
0.3749999999999978
 40
0.4062499999999978
 40
0.4062499999999978
 40
0.4374999999999977
 40
0.4374999999999977
 40
0.4687499999999977
 40
0.4687499999999977
 40
0.4999999999999977
 40
0.4999999999999977
 40
0.4999999999999977
 40
0.4999999999999977
 10
12.66230763443388
 20
-6.940889607535649
 30
0.0
 10
12.61935878042214
 20
-6.818247479911232
 30
0.0
 10
12.56229529856064
 20
-6.702062405426222
 30
0.0
 10
12.42103808962697
 20
-6.482980016463466
 30
0.0
 10
12.33595491427447
 20
-6.379752337446494
 30
0.0
 10
12.14618186397766
 20
-6.199831764960501
 30
0.0
 10
12.0392257963649
 20
-6.1206735872253
 30
0.0
 10
11.80824491388434
 20
-5.996443405511906
 30
0.0
 10
11.68389439480549
 20
-5.951950953011088
 30
0.0
 10
11.43804455248933
 20
-5.9089524192978
 30
0.0
 10
11.31731684279021
 20
-5.910654595408932
 30
0.0
 10
11.09745426351665
 20
-5.948127988753955
 30
0.0
 10
10.99815393168722
 20
-5.982607853079417
 30
0.0
 10
10.72267466537657
 20
-6.111713360853567
 30
0.0
 10
10.57189176004729
 20
-6.227019438453229
 30
0.0
 10
10.28857248622239
 20
-6.491284498769498
 30
0.0
 10
10.15786476490364
 20
-6.642104569644397
 30
0.0
 10
9.976005005593564
 20
-6.893749929925856
 30
0.0
 10
9.917635222666213
 20
-6.98220512533879
 30
0.0
 10
9.80540480561036
 20
-7.170924693447014
 30
0.0
 10
9.751060353100542
 20
-7.272111003090553
 30
0.0
 10
9.650448853514279
 20
-7.486812522722698
 30
0.0
 10
9.604326797725617
 20
-7.599530214338814
 30
0.0
 10
9.52438853672935
 20
-7.841923064473677
 30
0.0
 10
9.490665766297285
 20
-7.972450285447914
 30
0.0
 10
9.450224495380077
 20
-8.237810978297455
 30
0.0
 10
9.444739461343554
 20
-8.369898596775046
 30
0.0
 10
9.466585255233765
 20
-8.602871670374157
 30
0.0
 10
9.493279366135434
 20
-8.702702223121763
 30
0.0
 10
9.52842029993542
 20
-8.78331863898748
 30
0.0
  0
SPLINE
  5
268
330
1F
100
AcDbEntity
  8
1
  6
HIDDEN
370
    18
100
AcDbSpline
210
0.0
220
0.0
230
1.0
 70
    24
 71
     3
 72
    11
 73
     7
 74
     0
 42
0.000000001
 43
0.00000001
 40
0.0
 40
0.0
 40
0.0
 40
0.0
 40
0.1826913293685775
 40
0.3685006783689374
 40
0.7445932201936997
 40
1.0
 40
1.0
 40
1.0
 40
1.0
 10
21.15702569119163
 20
-22.41000000000001
 30
0.0
 10
21.13165309113396
 20
-22.41000000983715
 30
0.0
 10
21.08047485314336
 20
-22.41000002967933
 30
0.0
 10
20.65860409977681
 20
-22.41000019324167
 30
0.0
 10
20.09685718982929
 20
-22.41000041103504
 30
0.0
 10
19.73463824990689
 20
-22.41000055146994
 30
0.0
 10
19.58814058971701
 20
-22.41000060826814
 30
0.0
  0
SPLINE
  5
269
330
1F
100
AcDbEntity
  8
SK3
  6
HIDDEN
370
    18
100
AcDbSpline
210
0.0
220
0.0
230
1.0
 70
     8
 71
     3
 72
    30
 73
    26
 74
     0
 42
0.000000001
 43
0.00000001
 40
0.4999999999999998
 40
0.4999999999999998
 40
0.4999999999999998
 40
0.4999999999999998
 40
0.5624999999999997
 40
0.5624999999999997
 40
0.5937499999999997
 40
0.5937499999999997
 40
0.6249999999999997
 40
0.6249999999999997
 40
0.6562499999999996
 40
0.6562499999999996
 40
0.6874999999999993
 40
0.6874999999999993
 40
0.7499999999999991
 40
0.7499999999999991
 40
0.7812499999999991
 40
0.7812499999999991
 40
0.812499999999999
 40
0.812499999999999
 40
0.8749999999999993
 40
0.8749999999999993
 40
0.9374999999999996
 40
0.9374999999999996
 40
0.9687499999999998
 40
0.9687499999999998
 40
1.0
 40
1.0
 40
1.0
 40
1.0
 10
11.10070155322192
 20
-0.6867806446436211
 30
0.0
 10
10.88487328526096
 20
-0.6866864953011635
 30
0.0
 10
10.6669599366719
 20
-0.7314091515492304
 30
0.0
 10
10.36883069489547
 20
-0.8573324036223601
 30
0.0
 10
10.27232660505548
 20
-0.9097769735048368
 30
0.0
 10
10.09316301813304
 20
-1.03088021090679
 30
0.0
 10
10.01035801314713
 20
-1.099273863572382
 30
0.0
 10
9.858092000268936
 20
-1.251261280631549
 30
0.0
 10
9.788700375084918
 20
-1.335215891007217
 30
0.0
 10
9.669334047265748
 20
-1.511088629166772
 30
0.0
 10
9.618452284373912
 20
-1.603797750250987
 30
0.0
 10
9.49317154125469
 20
-1.89634705939876
 30
0.0
 10
9.45011760256094
 20
-2.101924731596826
 30
0.0
 10
9.449941558347316
 20
-2.408808799904346
 30
0.0
 10
9.460551032657138
 20
-2.508823236901835
 30
0.0
 10
9.502621940844946
 20
-2.704498007569868
 30
0.0
 10
9.534606217529538
 20
-2.800878416574827
 30
0.0
 10
9.658478333209791
 20
-3.071908588173942
 30
0.0
 10
9.781198670787722
 20
-3.235006337226943
 30
0.0
 10
10.08392744642474
 20
-3.50163398124493
 30
0.0
 10
10.26708339298822
 20
-3.607940944973843
 30
0.0
 10
10.56490438050341
 20
-3.714664125739016
 30
0.0
 10
10.66997524794501
 20
-3.742182811963951
 30
0.0
 10
10.88266147594885
 20
-3.778571214008566
 30
0.0
 10
10.99054595855785
 20
-3.787766140220146
 30
0.0
 10
11.09999999999999
 20
-3.787766140220146
 30
0.0
  0
SPLINE
  5
26A
330
1F
100
AcDbEntity
  8
SK3
  6
HIDDEN
370
    18
100
AcDbSpline
210
0.0
220
0.0
230
1.0
 70
     8
 71
     3
 72
    32
 73
    28
 74
     0
 42
0.000000001
 43
0.00000001
 40
0.0
 40
0.0
 40
0.0
 40
0.0
 40
0.0312499999999999
 40
0.0312499999999999
 40
0.0624999999999997
 40
0.0624999999999997
 40
0.0937499999999996
 40
0.0937499999999996
 40
0.1249999999999994
 40
0.1249999999999994
 40
0.1874999999999992
 40
0.1874999999999992
 40
0.249999999999999
 40
0.249999999999999
 40
0.2812499999999989
 40
0.2812499999999989
 40
0.312499999999999
 40
0.312499999999999
 40
0.374999999999999
 40
0.374999999999999
 40
0.4062499999999992
 40
0.4062499999999992
 40
0.4374999999999994
 40
0.4374999999999994
 40
0.4687499999999996
 40
0.4687499999999996
 40
0.4999999999999998
 40
0.4999999999999998
 40
0.4999999999999998
 40
0.4999999999999998
 10
11.09999999999999
 20
-3.787766140220146
 30
0.0
 10
11.20945404144215
 20
-3.787766140220146
 30
0.0
 10
11.31699251505765
 20
-3.778573328456377
 30
0.0
 10
11.52842270682133
 20
-3.742513465759767
 30
0.0
 10
11.63343468118847
 20
-3.715182626605931
 30
0.0
 10
11.83302988080073
 20
-3.643810849968468
 30
0.0
 10
11.92762916003132
 20
-3.600053719779176
 30
0.0
 10
12.10666204146886
 20
-3.496063555093985
 30
0.0
 10
12.19108958741751
 20
-3.43549467472128
 30
0.0
 10
12.41840943186721
 20
-3.235487194488865
 30
0.0
 10
12.54121280428008
 20
-3.072211780658814
 30
0.0
 10
12.70609668334556
 20
-2.712191703584062
 30
0.0
 10
12.7498658188326
 20
-2.511406281215621
 30
0.0
 10
12.7500666159068
 20
-2.206762191573442
 30
0.0
 10
12.73925303931701
 20
-2.102663743045078
 30
0.0
 10
12.69696665105526
 20
-1.900023631118419
 30
0.0
 10
12.66568409163504
 20
-1.800628375409973
 30
0.0
 10
12.54109332601522
 20
-1.508622388074417
 30
0.0
 10
12.4196848805707
 20
-1.329150513223791
 30
0.0
 10
12.19032108316567
 20
-1.099825633995823
 30
0.0
 10
12.10747830050282
 20
-1.031413659325502
 30
0.0
 10
11.92916892541126
 20
-0.9106890902003083
 30
0.0
 10
11.83255025366052
 20
-0.8580074652528198
 30
0.0
 10
11.6334021774315
 20
-0.773709211875983
 30
0.0
 10
11.53055350372277
 20
-0.7415889227052296
 30
0.0
 10
11.31815535720086
 20
-0.6979755792709263
 30
0.0
 10
11.2086156872024
 20
-0.6868277193148518
 30
0.0
 10
11.10070155322192
 20
-0.6867806446436211
 30
0.0
  0
SPLINE
  5
26B
330
1F
100
AcDbEntity
  8
SK3
  6
HIDDEN
370
    18
100
AcDbSpline
210
0.0
220
0.0
230
1.0
 70
     8
 71
     3
 72
    22
 73
    18
 74
     0
 42
0.000000001
 43
0.00000001
 40
0.0
 40
0.0
 40
0.0
 40
0.0
 40
0.0625
 40
0.0625
 40
0.125
 40
0.125
 40
0.1875
 40
0.1875
 40
0.25
 40
0.25
 40
0.3125
 40
0.3125
 40
0.375
 40
0.375
 40
0.4375
 40
0.4375
 40
0.5
 40
0.5
 40
0.5
 40
0.5
 10
89.72712434446768
 20
4.949747468305822
 30
0.0
 10
89.77535369520113
 20
5.07735033624062
 30
0.0
 10
89.82547284142812
 20
5.201987829661116
 30
0.0
 10
89.90458596717006
 20
5.442899443620066
 30
0.0
 10
89.93138180936609
 20
5.558054126290714
 30
0.0
 10
89.93252978802067
 20
5.748880107688328
 30
0.0
 10
89.9067378069592
 20
5.824993387075164
 30
0.0
 10
89.82823480678721
 20
5.924296504968077
 30
0.0
 10
89.77814290163553
 20
5.948701291652918
 30
0.0
 10
89.68216344368022
 20
5.950729570170239
 30
0.0
 10
89.63644107910453
 20
5.927671618516595
 30
0.0
 10
89.57046417292452
 20
5.831148127400737
 30
0.0
 10
89.55063710335672
 20
5.756320584009981
 30
0.0
 10
89.5493947910743
 20
5.567135843334508
 30
0.0
 10
89.5678703200032
 20
5.452161514328806
 30
0.0
 10
89.63293578964364
 20
5.206908043147426
 30
0.0
 10
89.67835472650333
 20
5.078879637050206
 30
0.0
 10
89.72610387238873
 20
4.952448434861985
 30
0.0
  0
SPLINE
  5
26C
330
1F
100
AcDbEntity
  8
SK3
  6
HIDDEN
370
    18
100
AcDbSpline
210
0.0
220
0.0
230
1.0
 70
     8
 71
     3
 72
    24
 73
    20
 74
     0
 42
0.000000001
 43
0.00000001
 40
0.0
 40
0.0
 40
0.0
 40
0.0
 40
0.0624999999999994
 40
0.0624999999999994
 40
0.0937499999999992
 40
0.0937499999999992
 40
0.1249999999999989
 40
0.1249999999999989
 40
0.1874999999999991
 40
0.1874999999999991
 40
0.2499999999999992
 40
0.2499999999999992
 40
0.3124999999999993
 40
0.3124999999999993
 40
0.3749999999999994
 40
0.3749999999999994
 40
0.4374999999999995
 40
0.4374999999999995
 40
0.4999999999999996
 40
0.4999999999999996
 40
0.4999999999999996
 40
0.4999999999999996
 10
92.3728756555323
 20
4.949747468305822
 30
0.0
 10
92.42109910961567
 20
4.822160201440717
 30
0.0
 10
92.46623464465976
 20
4.694936027762699
 30
0.0
 10
92.51492868125115
 20
4.512542599138899
 30
0.0
 10
92.52777487754062
 20
4.454219395847149
 30
0.0
 10
92.5454100141629
 20
4.342660201428185
 30
0.0
 10
92.55006010791732
 20
4.289235477488343
 30
0.0
 10
92.5498779548163
 20
4.146583888462605
 30
0.0
 10
92.530605382782
 20
4.071044139571177
 30
0.0
 10
92.46499530573652
 20
3.972834368534857
 30
0.0
 10
92.4192277296484
 20
3.949178839168739
 30
0.0
 10
92.3230759393784
 20
3.950336871798174
 30
0.0
 10
92.27262832491186
 20
3.974782546037815
 30
0.0
 10
92.19436899291391
 20
4.072442410393153
 30
0.0
 10
92.1680149718546
 20
4.147632906203208
 30
0.0
 10
92.16805302802274
 20
4.337872176764207
 30
0.0
 10
92.19467998471849
 20
4.453933038519494
 30
0.0
 10
92.27357458218539
 20
4.695024530127122
 30
0.0
 10
92.324062664755
 20
4.820693287861458
 30
0.0
 10
92.37190184496926
 20
4.947171947496838
 30
0.0
  0
SPLINE
  5
26D
330
1F
100
AcDbEntity
  8
SK3
  6
HIDDEN
370
    18
100
AcDbSpline
210
0.0
220
0.0
230
1.0
 70
     8
 71
     3
 72
    30
 73
    26
 74
     0
 42
0.000000001
 43
0.00000001
 40
0.4999999999999807
 40
0.4999999999999807
 40
0.4999999999999807
 40
0.4999999999999807
 40
0.5624999999999841
 40
0.5624999999999841
 40
0.5937499999999838
 40
0.5937499999999838
 40
0.6249999999999836
 40
0.6249999999999836
 40
0.6874999999999859
 40
0.6874999999999859
 40
0.7187499999999879
 40
0.7187499999999879
 40
0.7499999999999899
 40
0.7499999999999899
 40
0.812499999999994
 40
0.812499999999994
 40
0.8749999999999981
 40
0.8749999999999981
 40
0.9062499999999987
 40
0.9062499999999987
 40
0.9374999999999991
 40
0.9374999999999991
 40
0.9687499999999997
 40
0.9687499999999997
 40
1.0
 40
1.0
 40
1.0
 40
1.0
 10
91.0494244479128
 20
1.725738055456762
 30
0.0
 10
91.24634577726883
 20
1.725664289368212
 30
0.0
 10
91.44508389683985
 20
1.764935779058181
 30
0.0
 10
91.71671800462967
 20
1.872633583787836
 30
0.0
 10
91.8043159062069
 20
1.917068061503602
 30
0.0
 10
91.96603385816769
 20
2.017426617837131
 30
0.0
 10
92.0411300563735
 20
2.073645456562634
 30
0.0
 10
92.24916087096959
 20
2.258920814264549
 30
0.0
 10
92.35894990881978
 20
2.399225329500751
 30
0.0
 10
92.47265218440963
 20
2.618968051583563
 30
0.0
 10
92.50124881347136
 20
2.692243782911954
 30
0.0
 10
92.53999291909683
 20
2.838201977021518
 30
0.0
 10
92.55001167730343
 20
2.911675645617805
 30
0.0
 10
92.549976613938
 20
3.121360025999678
 30
0.0
 10
92.50986455130732
 20
3.251322805593024
 30
0.0
 10
92.3592498024881
 20
3.471547601746047
 30
0.0
 10
92.24788317423356
 20
3.563812498739882
 30
0.0
 10
92.041545495428
 20
3.671712039605889
 30
0.0
 10
91.96499128979248
 20
3.703265786585128
 30
0.0
 10
91.80323829149441
 20
3.756104864234867
 30
0.0
 10
91.71753705397587
 20
3.777765903163817
 30
0.0
 10
91.53590539670782
 20
3.812658989211078
 30
0.0
 10
91.44052629032036
 20
3.825656010175551
 30
0.0
 10
91.24810519576793
 20
3.84274798299225
 30
0.0
 10
91.14998945297461
 20
3.84705829121644
 30
0.0
 10
91.04999999999998
 20
3.84705829121644
 30
0.0
  0
SPLINE
  5
26E
330
1F
100
AcDbEntity
  8
SK3
  6
HIDDEN
370
    18
100
AcDbSpline
210
0.0
220
0.0
230
1.0
 70
     8
 71
     3
 72
    30
 73
    26
 74
     0
 42
0.000000001
 43
0.00000001
 40
0.0
 40
0.0
 40
0.0
 40
0.0
 40
0.0312499999999982
 40
0.0312499999999982
 40
0.0624999999999963
 40
0.0624999999999963
 40
0.1249999999999926
 40
0.1249999999999926
 40
0.1874999999999889
 40
0.1874999999999889
 40
0.2187499999999871
 40
0.2187499999999871
 40
0.2499999999999852
 40
0.2499999999999852
 40
0.2812499999999834
 40
0.2812499999999834
 40
0.3124999999999816
 40
0.3124999999999816
 40
0.3749999999999779
 40
0.3749999999999779
 40
0.4062499999999776
 40
0.4062499999999776
 40
0.4374999999999772
 40
0.4374999999999772
 40
0.4999999999999807
 40
0.4999999999999807
 40
0.4999999999999807
 40
0.4999999999999807
 10
91.04999999999998
 20
3.847058291216433
 30
0.0
 10
90.95001054702533
 20
3.84705829121644
 30
0.0
 10
90.85187162153153
 20
3.842752346550689
 30
0.0
 10
90.65908268370794
 20
3.825614840353896
 30
0.0
 10
90.56341348261816
 20
3.812545875747433
 30
0.0
 10
90.29162568656791
 20
3.76027963534159
 30
0.0
 10
90.12641417849919
 20
3.707313068264037
 30
0.0
 10
89.8521497519049
 20
3.563766454486882
 30
0.0
 10
89.7406704363374
 20
3.471382112810735
 30
0.0
 10
89.6279490040948
 20
3.306637152727963
 30
0.0
 10
89.59867546351836
 20
3.246337925468378
 30
0.0
 10
89.55979423345573
 20
3.118742249546974
 30
0.0
 10
89.55006627082003
 20
3.051984113833742
 30
0.0
 10
89.54993439753908
 20
2.91232178996477
 30
0.0
 10
89.55987643830481
 20
2.838885202559358
 30
0.0
 10
89.59856504060843
 20
2.692755530535586
 30
0.0
 10
89.62718281682231
 20
2.619293546227607
 30
0.0
 10
89.74131837957898
 20
2.398693605579726
 30
0.0
 10
89.85195566747197
 20
2.257860883119155
 30
0.0
 10
90.05878946134617
 20
2.073750011602815
 30
0.0
 10
90.13367408211283
 20
2.017622765646335
 30
0.0
 10
90.29560497744495
 20
1.917102291406313
 30
0.0
 10
90.38321048703686
 20
1.872692519760466
 30
0.0
 10
90.65374588569551
 20
1.765338801841106
 30
0.0
 10
90.85250311855677
 20
1.725811821545319
 30
0.0
 10
91.0494244479128
 20
1.725738055456762
 30
0.0
  0
SPLINE
  5
26F
330
1F
100
AcDbEntity
  8
1
  6
HIDDEN
370
    18
100
AcDbSpline
210
0.0
220
0.0
230
1.0
 70
    24
 71
     3
 72
    25
 73
    21
 74
     0
 42
0.000000001
 43
0.00000001
 40
0.0
 40
0.0
 40
0.0
 40
0.0
 40
0.2500868386177396
 40
0.5001161532469578
 40
0.625127023761981
 40
0.6750768669885031
 40
0.7500480201848888
 40
0.812566961448677
 40
0.8374938437428067
 40
0.8748951696295488
 40
0.8999505614004243
 40
0.9150328032036229
 40
0.9375263817620866
 40
0.9474932954363031
 40
0.9549640468966804
 40
0.9624359596528617
 40
0.9717849694828018
 40
0.9811541870523589
 40
0.9905550911874628
 40
1.0
 40
1.0
 40
1.0
 40
1.0
 10
19.58814058971701
 20
-22.41000060826814
 30
0.0
 10
19.55507346716016
 20
-22.41000055223133
 30
0.0
 10
19.48894682801562
 20
-22.41000044017058
 30
0.0
 10
19.40751818081552
 20
-22.41000030217847
 30
0.0
 10
19.35362658083046
 20
-22.41000021085169
 30
0.0
 10
19.32278529869649
 20
-22.41000015858686
 30
0.0
 10
19.30026790249231
 20
-22.41000012042802
 30
0.0
 10
19.28172935536762
 20
-22.41000008901189
 30
0.0
 10
19.26826455394091
 20
-22.41000006619392
 30
0.0
 10
19.25931762296786
 20
-22.4100000510321
 30
0.0
 10
19.25195495871588
 20
-22.41000003855505
 30
0.0
 10
19.24637403863273
 20
-22.41000002909741
 30
0.0
 10
19.24242564450578
 20
-22.4100000224063
 30
0.0
 10
19.23935488654449
 20
-22.41000001720248
 30
0.0
 10
19.23752643050354
 20
-22.41000001410391
 30
0.0
 10
19.2358195322507
 20
-22.41000001121134
 30
0.0
 10
19.23407458058556
 20
-22.41000000825427
 30
0.0
 10
19.23232367485847
 20
-22.41000000528712
 30
0.0
 10
19.23068271051138
 20
-22.41000000250628
 30
0.0
 10
19.22969751569811
 20
-22.41000000083673
 30
0.0
 10
19.22920376808424
 20
-22.41000000000001
 30
0.0
  0
SPLINE
  5
270
330
1F
100
AcDbEntity
  8
SK3
  6
HIDDEN
370
    18
100
AcDbSpline
210
0.0
220
0.0
230
1.0
 70
     8
 71
     3
 72
    40
 73
    36
 74
     0
 42
0.000000001
 43
0.00000001
 40
0.0
 40
0.0
 40
0.0
 40
0.0
 40
0.0125929119920853
 40
0.0314096195346373
 40
0.0626234169499198
 40
0.0875147363747587
 40
0.124814412830725
 40
0.1532834083387407
 40
0.1962265830891685
 40
0.2178107992109856
 40
0.2500224951329321
 40
0.2785169301552057
 40
0.3211718523043689
 40
0.3425182663517161
 40
0.3746092478105291
 40
0.4033018002026093
 40
0.4463503818994342
 40
0.4677602234265854
 40
0.4997883410590171
 40
0.5282270395863745
 40
0.5709521530205331
 40
0.5924138618617291
 40
0.6247350591047612
 40
0.6534144483970801
 40
0.6961683199419044
 40
0.7174969314503464
 40
0.7494813527194152
 40
0.7779588669976988
 40
0.8208766717687367
 40
0.8424514691504715
 40
0.874724282179473
 40
0.8997563983109313
 40
0.9372703102803501
 40
0.968578418532575
 40
0.9999999999999999
 40
0.9999999999999999
 40
0.9999999999999999
 40
0.9999999999999999
 10
18.29999999999999
 20
30.2255814201264
 30
0.0
 10
18.30272136951241
 20
30.22556441746848
 30
0.0
 10
18.30950909113323
 20
30.22552200892815
 30
0.0
 10
18.32303491151128
 20
30.22500878447085
 30
0.0
 10
18.33918410220825
 20
30.22374990827884
 30
0.0
 10
18.35921637335282
 20
30.22123374888839
 30
0.0
 10
18.37851743465278
 20
30.21779055348818
 30
0.0
 10
18.40139259411768
 20
30.21241015713828
 30
0.0
 10
18.42066868063111
 20
30.20665667098935
 30
0.0
 10
18.44035778154606
 20
30.19962160064928
 30
0.0
 10
18.4568321931845
 20
30.19290122073893
 30
0.0
 10
18.47707551770183
 20
30.18344563237709
 30
0.0
 10
18.49468238340835
 20
30.17394373601332
 30
0.0
 10
18.51242282863928
 20
30.16314575471339
 30
0.0
 10
18.52718102114117
 20
30.15327064640551
 30
0.0
 10
18.54520190007995
 20
30.13989144466212
 30
0.0
 10
18.56066753372128
 20
30.12697740010818
 30
0.0
 10
18.57597030022935
 20
30.11281096127925
 30
0.0
 10
18.58844277986745
 20
30.10024903998077
 30
0.0
 10
18.60339048841032
 20
30.08369276015744
 30
0.0
 10
18.61596948562731
 20
30.06810049270645
 30
0.0
 10
18.62824307125509
 20
30.05123600708182
 30
0.0
 10
18.63812738344198
 20
30.03639837328908
 30
0.0
 10
18.64967535556758
 20
30.01717281850424
 30
0.0
 10
18.65905060754961
 20
29.99943559548714
 30
0.0
 10
18.66785100498267
 20
29.98063051707891
 30
0.0
 10
18.67469312836914
 20
29.96432508828281
 30
0.0
 10
18.68239354934312
 20
29.94334796470476
 30
0.0
 10
18.68830098830934
 20
29.92412819400953
 30
0.0
 10
18.69347515991063
 20
29.9038649584692
 30
0.0
 10
18.69702701390046
 20
29.8871856268312
 30
0.0
 10
18.70044011360976
 20
29.86697716337642
 30
0.0
 10
18.70287111134991
 20
29.84683182165026
 30
0.0
 10
18.70443405316873
 20
29.82521437831678
 30
0.0
 10
18.70461682479817
 20
29.81165726630967
 30
0.0
 10
18.70470837592285
 20
29.80486644841629
 30
0.0
  0
SPLINE
  5
271
330
1F
100
AcDbEntity
  8
SK3
  6
HIDDEN
370
    18
100
AcDbSpline
210
0.0
220
0.0
230
1.0
 70
     8
 71
     3
 72
    18
 73
    14
 74
     0
 42
0.000000001
 43
0.00000001
 40
0.0
 40
0.0
 40
0.0
 40
0.0
 40
0.0502195387392281
 40
0.100086891546064
 40
0.1855086173716602
 40
0.2501551162505326
 40
0.3746576768557144
 40
0.4998564874062211
 40
0.6242311314798784
 40
0.7494317765271419
 40
0.8740380950976796
 40
0.9370357253097046
 40
1.0
 40
1.0
 40
1.0
 40
1.0
 10
3.699999999999941
 20
29.78466006185058
 30
0.0
 10
3.700143853018174
 20
29.79136142137592
 30
0.0
 10
3.700430550223997
 20
29.80471714428501
 30
0.0
 10
3.703274085719286
 20
29.82933097941116
 30
0.0
 10
3.708850319692814
 20
29.85549074712122
 30
0.0
 10
3.72051532762037
 20
29.89026226846551
 30
0.0
 10
3.73945955052471
 20
29.92797774461729
 30
0.0
 10
3.770134055789562
 20
29.96773407367352
 30
0.0
 10
3.808036497675138
 20
30.00083283430624
 30
0.0
 10
3.851706596059865
 20
30.02573179552955
 30
0.0
 10
3.891717389811728
 20
30.03858508252334
 30
0.0
 10
3.924783104557725
 20
30.04400678879002
 30
0.0
 10
3.9415958522271
 20
30.04451864415295
 30
0.0
 10
3.949999999999995
 20
30.04477450406312
 30
0.0
  0
SPLINE
  5
272
330
1F
100
AcDbEntity
  8
SK3
  6
HIDDEN
370
    18
100
AcDbSpline
210
0.0
220
0.0
230
1.0
 70
     8
 71
     3
 72
    41
 73
    37
 74
     0
 42
0.000000001
 43
0.00000001
 40
0.0
 40
0.0
 40
0.0
 40
0.0
 40
0.0125879044355278
 40
0.0314243833471142
 40
0.0627335665481839
 40
0.0877492699810016
 40
0.1252847433831861
 40
0.1539684668497626
 40
0.1970533139027967
 40
0.2184824720853118
 40
0.2505220591894203
 40
0.2789525941183436
 40
0.3216248000716307
 40
0.3430203552040132
 40
0.3752763247409748
 40
0.4040248999488459
 40
0.446870782443901
 40
0.4682195126500336
 40
0.5002114924781519
 40
0.5286776037785933
 40
0.5715469424170521
 40
0.5931086704859302
 40
0.6253930378401147
 40
0.6539209368666834
 40
0.6965917315809169
 40
0.7179241627048245
 40
0.7499759331980419
 40
0.7786005223610831
 40
0.7958581312400757
 40
0.821717935511897
 40
0.8431559690936636
 40
0.8751887110022232
 40
0.9000578282972068
 40
0.9373793357129002
 40
0.9685931765139112
 40
1.0
 40
1.0
 40
1.0
 40
1.0
 10
18.64160414531572
 20
-29.8460485918087
 30
0.0
 10
18.64159137074228
 20
-29.8483431921124
 30
0.0
 10
18.64155948035935
 20
-29.85407142113903
 30
0.0
 10
18.64117265575934
 20
-29.86550196510474
 30
0.0
 10
18.64022141945664
 20
-29.87917477875847
 30
0.0
 10
18.63831191888593
 20
-29.89618048667774
 30
0.0
 10
18.63569027764503
 20
-29.91261312827086
 30
0.0
 10
18.63158262542882
 20
-29.93211432387089
 30
0.0
 10
18.62719160956788
 20
-29.94853990355351
 30
0.0
 10
18.62182924713171
 20
-29.9653053826339
 30
0.0
 10
18.61671097501757
 20
-29.97933656050729
 30
0.0
 10
18.60946842034981
 20
-29.99669180861673
 30
0.0
 10
18.60213984564376
 20
-30.01189223210265
 30
0.0
 10
18.59375266649228
 20
-30.02732014619703
 30
0.0
 10
18.58603890956624
 20
-30.04021646900884
 30
0.0
 10
18.57557017229755
 20
-30.05599455666382
 30
0.0
 10
18.56542909255003
 20
-30.06958456625074
 30
0.0
 10
18.55425470018159
 20
-30.08309838630984
 30
0.0
 10
18.54427711106883
 20
-30.09419030373534
 30
0.0
 10
18.53102752930072
 20
-30.10758402103379
 30
0.0
 10
18.51845057223863
 20
-30.11894578971108
 30
0.0
 10
18.50477712240789
 20
-30.13007785157925
 30
0.0
 10
18.49273295554578
 20
-30.13905731937086
 30
0.0
 10
18.47707195648347
 20
-30.1495814900545
 30
0.0
 10
18.4625441168031
 20
-30.15818179724371
 30
0.0
 10
18.44703178881017
 20
-30.16630751310894
 30
0.0
 10
18.43349481709558
 20
-30.17266683898076
 30
0.0
 10
18.42034829314853
 20
-30.17806444839461
 30
0.0
 10
18.40807148869029
 20
-30.18257388381011
 30
0.0
 10
18.39688503803552
 20
-30.18623846255724
 30
0.0
 10
18.38297601287312
 20
-30.19020365602212
 30
0.0
 10
18.36907618974069
 20
-30.19350910608143
 30
0.0
 10
18.35219484960794
 20
-30.19669820354485
 30
0.0
 10
18.3353116083366
 20
-30.19897490612015
 30
0.0
 10
18.31714172502495
 20
-30.20044995241685
 30
0.0
 10
18.3057256356078
 20
-30.20062184337873
 30
0.0
 10
18.3
 20
-30.20070805372417
 30
0.0
  0
SPLINE
  5
273
330
1F
100
AcDbEntity
  8
SK3
  6
HIDDEN
370
    18
100
AcDbSpline
210
0.0
220
0.0
230
1.0
 70
     8
 71
     3
 72
    40
 73
    36
 74
     0
 42
0.000000001
 43
0.00000001
 40
0.0
 40
0.0
 40
0.0
 40
0.0
 40
0.0126129321449828
 40
0.0314976481339603
 40
0.0629183966702575
 40
0.0880663439714198
 40
0.1258663548219049
 40
0.1545361786951723
 40
0.1972635113751451
 40
0.2185774264758766
 40
0.2505499734499118
 40
0.2790323571745641
 40
0.3220275475257104
 40
0.3436168159336409
 40
0.3758133620275705
 40
0.4042898095068371
 40
0.446899371043128
 40
0.4682109723921657
 40
0.5002437124696469
 40
0.5288533887317759
 40
0.5719828275869571
 40
0.5934420637179455
 40
0.625491698448372
 40
0.6539107272569461
 40
0.6965262692674907
 40
0.7178823906336868
 40
0.7500313093276889
 40
0.7787800102949168
 40
0.8217645159398054
 40
0.8431483194632837
 40
0.8751517844153637
 40
0.9000181010942393
 40
0.937358773167723
 40
0.9685909586685478
 40
1.0
 40
1.0
 40
1.0
 40
1.0
 10
3.95000000000008
 20
-30.22558142012651
 30
0.0
 10
3.947274304055603
 20
-30.22556434752634
 30
0.0
 10
3.940467559137602
 20
-30.22552171297106
 30
0.0
 10
3.926878079314024
 20
-30.22500449703681
 30
0.0
 10
3.91061455022987
 20
-30.22373214657618
 30
0.0
 10
3.890377361764731
 20
-30.22117483723605
 30
0.0
 10
3.870876571853215
 20
-30.21766990056765
 30
0.0
 10
3.847909402641974
 20
-30.21222207486896
 30
0.0
 10
3.828703761991225
 20
-30.20644931168896
 30
0.0
 10
3.809172441366056
 20
-30.1994388579278
 30
0.0
 10
3.792810014293353
 20
-30.19274290252158
 30
0.0
 10
3.772556787561403
 20
-30.18326307338979
 30
0.0
 10
3.754852229735013
 20
-30.17368149208108
 30
0.0
 10
3.737001129757085
 20
-30.16277896347609
 30
0.0
 10
3.722237930660123
 20
-30.15285978975103
 30
0.0
 10
3.704336292932946
 20
-30.13951958199512
 30
0.0
 10
3.689010882645464
 20
-30.12669241147183
 30
0.0
 10
3.673804931860232
 20
-30.11259090122102
 30
0.0
 10
3.661328526177358
 20
-30.1000093479348
 30
0.0
 10
3.646311367639475
 20
-30.08334675455747
 30
0.0
 10
3.63367470873953
 20
-30.0676414670648
 30
0.0
 10
3.621410566075637
 20
-30.0507353189208
 30
0.0
 10
3.611611223630061
 20
-30.03598007669233
 30
0.0
 10
3.600156512782796
 20
-30.01686769647326
 30
0.0
 10
3.590829750080655
 20
-29.99919574996978
 30
0.0
 10
3.582035812875764
 20
-29.98037484052367
 30
0.0
 10
3.575165778816711
 20
-29.96397246361369
 30
0.0
 10
3.567449829657635
 20
-29.94288522109568
 30
0.0
 10
3.56155806637179
 20
-29.92362739014032
 30
0.0
 10
3.556428567391926
 20
-29.90344062129127
 30
0.0
 10
3.552918981596709
 20
-29.88689085311756
 30
0.0
 10
3.549536425734912
 20
-29.86681061568813
 30
0.0
 10
3.547124737184437
 20
-29.84675343612679
 30
0.0
 10
3.545564419128108
 20
-29.82519260420415
 30
0.0
 10
3.545382726752338
 20
-29.81165457438038
 30
0.0
 10
3.545291624077143
 20
-29.8048664484163
 30
0.0
  0
SPLINE
  5
274
330
1F
100
AcDbEntity
  8
SK3
  6
HIDDEN
370
    18
100
AcDbSpline
210
0.0
220
0.0
230
1.0
 70
     8
 71
     3
 72
    13
 73
     9
 74
     0
 42
0.000000001
 43
0.00000001
 40
0.0
 40
0.0
 40
0.0
 40
0.0
 40
0.1003341140222428
 40
0.2007571148098706
 40
0.4999939003229942
 40
0.7849545185755815
 40
0.8922883022186139
 40
1.0
 40
1.0
 40
1.0
 40
1.0
 10
18.82214054101597
 20
-22.785
 30
0.0
 10
18.81049935109366
 20
-22.82379345965779
 30
0.0
 10
18.78720665822915
 20
-22.90141474639847
 30
0.0
 10
18.73653636776848
 20
-23.09680248387782
 30
0.0
 10
18.68268430300202
 20
-23.36825492581813
 30
0.0
 10
18.6529405055855
 20
-23.64614873530317
 30
0.0
 10
18.64282525000834
 20
-23.84775939836664
 30
0.0
 10
18.64201165680759
 20
-23.93456526198396
 30
0.0
 10
18.64160414531572
 20
-23.97804446873441
 30
0.0
  0
SPLINE
  5
275
330
1F
100
AcDbEntity
  8
SK3
  6
HIDDEN
370
    18
100
AcDbSpline
210
0.0
220
0.0
230
1.0
 70
     8
 71
     3
 72
    30
 73
    26
 74
     0
 42
0.000000001
 43
0.00000001
 40
0.499999999999971
 40
0.499999999999971
 40
0.499999999999971
 40
0.499999999999971
 40
0.5624999999999687
 40
0.5624999999999687
 40
0.5937499999999694
 40
0.5937499999999694
 40
0.6249999999999702
 40
0.6249999999999702
 40
0.6874999999999749
 40
0.6874999999999749
 40
0.718749999999978
 40
0.718749999999978
 40
0.749999999999981
 40
0.749999999999981
 40
0.8124999999999873
 40
0.8124999999999873
 40
0.8749999999999937
 40
0.8749999999999937
 40
0.9062499999999953
 40
0.9062499999999953
 40
0.9374999999999968
 40
0.9374999999999968
 40
0.9687499999999983
 40
0.9687499999999983
 40
1.0
 40
1.0
 40
1.0
 40
1.0
 10
91.0505755520872
 20
-1.725738055456824
 30
0.0
 10
90.85365422273114
 20
-1.725664289368271
 30
0.0
 10
90.65491610316013
 20
-1.764935779058244
 30
0.0
 10
90.3832819953702
 20
-1.872633583787898
 30
0.0
 10
90.29568409379308
 20
-1.917068061503664
 30
0.0
 10
90.13396614183223
 20
-2.01742661783719
 30
0.0
 10
90.05886994362653
 20
-2.073645456562689
 30
0.0
 10
89.85083912903038
 20
-2.258920814264601
 30
0.0
 10
89.7410500911802
 20
-2.399225329500803
 30
0.0
 10
89.62734781559024
 20
-2.618968051583608
 30
0.0
 10
89.59875118652856
 20
-2.692243782912003
 30
0.0
 10
89.56000708090316
 20
-2.838201977021556
 30
0.0
 10
89.54998832269658
 20
-2.91167564561785
 30
0.0
 10
89.55002338606198
 20
-3.121360025999723
 30
0.0
 10
89.59013544869266
 20
-3.251322805593059
 30
0.0
 10
89.74075019751183
 20
-3.471547601746075
 30
0.0
 10
89.85211682576647
 20
-3.56381249873991
 30
0.0
 10
90.05845450457203
 20
-3.671712039605923
 30
0.0
 10
90.1350087102075
 20
-3.703265786585152
 30
0.0
 10
90.29676170850554
 20
-3.756104864234895
 30
0.0
 10
90.3824629460241
 20
-3.777765903163848
 30
0.0
 10
90.56409460329219
 20
-3.812658989211102
 30
0.0
 10
90.65947370967966
 20
-3.825656010175586
 30
0.0
 10
90.85189480423202
 20
-3.842747982992282
 30
0.0
 10
90.95001054702539
 20
-3.847058291216471
 30
0.0
 10
91.05000000000001
 20
-3.847058291216471
 30
0.0
  0
SPLINE
  5
276
330
1F
100
AcDbEntity
  8
SK3
  6
HIDDEN
370
    18
100
AcDbSpline
210
0.0
220
0.0
230
1.0
 70
     8
 71
     3
 72
    30
 73
    26
 74
     0
 42
0.000000001
 43
0.00000001
 40
0.0
 40
0.0
 40
0.0
 40
0.0
 40
0.0312499999999983
 40
0.0312499999999983
 40
0.0624999999999966
 40
0.0624999999999966
 40
0.1249999999999933
 40
0.1249999999999933
 40
0.1874999999999899
 40
0.1874999999999899
 40
0.2187499999999882
 40
0.2187499999999882
 40
0.2499999999999865
 40
0.2499999999999865
 40
0.2812499999999848
 40
0.2812499999999848
 40
0.3124999999999831
 40
0.3124999999999831
 40
0.3749999999999798
 40
0.3749999999999798
 40
0.4062499999999766
 40
0.4062499999999766
 40
0.4374999999999735
 40
0.4374999999999735
 40
0.499999999999971
 40
0.499999999999971
 40
0.499999999999971
 40
0.499999999999971
 10
91.05000000000001
 20
-3.847058291216479
 30
0.0
 10
91.14998945297461
 20
-3.847058291216471
 30
0.0
 10
91.24812837846845
 20
-3.84275234655072
 30
0.0
 10
91.44091731629202
 20
-3.825614840353923
 30
0.0
 10
91.53658651738174
 20
-3.812545875747461
 30
0.0
 10
91.80837431343207
 20
-3.760279635341628
 30
0.0
 10
91.97358582150073
 20
-3.707313068264072
 30
0.0
 10
92.24785024809502
 20
-3.563766454486934
 30
0.0
 10
92.35932956366263
 20
-3.471382112810787
 30
0.0
 10
92.47205099590524
 20
-3.306637152728019
 30
0.0
 10
92.50132453648153
 20
-3.246337925468433
 30
0.0
 10
92.54020576654419
 20
-3.118742249547026
 30
0.0
 10
92.54993372917993
 20
-3.051984113833797
 30
0.0
 10
92.55006560246083
 20
-2.912321789964821
 30
0.0
 10
92.54012356169521
 20
-2.83888520255942
 30
0.0
 10
92.50143495939146
 20
-2.692755530535652
 30
0.0
 10
92.47281718317758
 20
-2.619293546227669
 30
0.0
 10
92.35868162042101
 20
-2.398693605579802
 30
0.0
 10
92.248044332528
 20
-2.257860883119231
 30
0.0
 10
92.04121053865381
 20
-2.073750011602871
 30
0.0
 10
91.96632591788713
 20
-2.017622765646397
 30
0.0
 10
91.80439502255501
 20
-1.917102291406382
 30
0.0
 10
91.71678951296312
 20
-1.872692519760528
 30
0.0
 10
91.4462541143045
 20
-1.765338801841168
 30
0.0
 10
91.24749688144328
 20
-1.725811821545381
 30
0.0
 10
91.0505755520872
 20
-1.725738055456824
 30
0.0
  0
SPLINE
  5
277
330
1F
100
AcDbEntity
  8
SK3
  6
HIDDEN
370
    18
100
AcDbSpline
210
0.0
220
0.0
230
1.0
 70
     8
 71
     3
 72
    24
 73
    20
 74
     0
 42
0.000000001
 43
0.00000001
 40
0.0
 40
0.0
 40
0.0
 40
0.0
 40
0.0625000000000015
 40
0.0625000000000015
 40
0.0937500000000014
 40
0.0937500000000014
 40
0.1250000000000014
 40
0.1250000000000014
 40
0.1875000000000012
 40
0.1875000000000012
 40
0.2500000000000012
 40
0.2500000000000012
 40
0.3125000000000011
 40
0.3125000000000011
 40
0.3750000000000009
 40
0.3750000000000009
 40
0.4375000000000009
 40
0.4375000000000009
 40
0.5000000000000008
 40
0.5000000000000008
 40
0.5000000000000008
 40
0.5000000000000008
 10
89.7271243444676
 20
-4.949747468305795
 30
0.0
 10
89.67890089038399
 20
-4.822160201440791
 30
0.0
 10
89.63376535533952
 20
-4.69493602776287
 30
0.0
 10
89.58507131874809
 20
-4.512542599139168
 30
0.0
 10
89.57222512245824
 20
-4.454219395847466
 30
0.0
 10
89.554589985836
 20
-4.342660201428534
 30
0.0
 10
89.54993989208118
 20
-4.289235477488672
 30
0.0
 10
89.55012204518205
 20
-4.146583888462934
 30
0.0
 10
89.5693946172162
 20
-4.071044139571484
 30
0.0
 10
89.63500469426161
 20
-3.972834368535041
 30
0.0
 10
89.68077227034952
 20
-3.949178839168809
 30
0.0
 10
89.7769240606195
 20
-3.950336871798031
 30
0.0
 10
89.82737167508634
 20
-3.974782546037577
 30
0.0
 10
89.90563100708431
 20
-4.07244241039271
 30
0.0
 10
89.93198502814388
 20
-4.147632906202708
 30
0.0
 10
89.93194697197595
 20
-4.337872176763708
 30
0.0
 10
89.9053200152805
 20
-4.453933038519081
 30
0.0
 10
89.82642541781418
 20
-4.695024530126853
 30
0.0
 10
89.77593733524488
 20
-4.820693287861288
 30
0.0
 10
89.72809815503084
 20
-4.947171947496782
 30
0.0
  0
SPLINE
  5
278
330
1F
100
AcDbEntity
  8
SK3
  6
HIDDEN
370
    18
100
AcDbSpline
210
0.0
220
0.0
230
1.0
 70
     8
 71
     3
 72
    22
 73
    18
 74
     0
 42
0.000000001
 43
0.00000001
 40
0.0
 40
0.0
 40
0.0
 40
0.0
 40
0.0625
 40
0.0625
 40
0.125
 40
0.125
 40
0.1875
 40
0.1875
 40
0.25
 40
0.25
 40
0.3125
 40
0.3125
 40
0.375
 40
0.375
 40
0.4375
 40
0.4375
 40
0.5
 40
0.5
 40
0.5
 40
0.5
 10
92.37287565553235
 20
-4.949747468305798
 30
0.0
 10
92.3246463047989
 20
-5.077350336240592
 30
0.0
 10
92.27452715857194
 20
-5.201987829661095
 30
0.0
 10
92.19541403282992
 20
-5.442899443620044
 30
0.0
 10
92.16861819063398
 20
-5.558054126290693
 30
0.0
 10
92.16747021197936
 20
-5.748880107688318
 30
0.0
 10
92.19326219304092
 20
-5.824993387075133
 30
0.0
 10
92.27176519321277
 20
-5.924296504968049
 30
0.0
 10
92.32185709836453
 20
-5.948701291652897
 30
0.0
 10
92.41783655631981
 20
-5.950729570170211
 30
0.0
 10
92.46355892089554
 20
-5.927671618516549
 30
0.0
 10
92.52953582707548
 20
-5.831148127400682
 30
0.0
 10
92.5493628966433
 20
-5.756320584009923
 30
0.0
 10
92.55060520892565
 20
-5.567135843334441
 30
0.0
 10
92.53212967999673
 20
-5.452161514328733
 30
0.0
 10
92.46706421035626
 20
-5.206908043147346
 30
0.0
 10
92.42164527349654
 20
-5.07887963705013
 30
0.0
 10
92.37389612761115
 20
-4.952448434861909
 30
0.0
  0
SPLINE
  5
279
330
1F
100
AcDbEntity
  8
SK3
  6
HIDDEN
370
    18
100
AcDbSpline
210
0.0
220
0.0
230
1.0
 70
    24
 71
     3
 72
     8
 73
     4
 74
     0
 42
0.000000001
 43
0.00000001
 40
0.0
 40
0.0
 40
0.0
 40
0.0
 40
0.0302828823587949
 40
0.0302828823587949
 40
0.0302828823587949
 40
0.0302828823587949
 10
18.70470837592283
 20
24.83
 30
0.0
 10
18.70510180476494
 20
24.83
 30
0.0
 10
18.70549523360704
 20
24.83
 30
0.0
 10
18.70660823716372
 20
24.83
 30
0.0
  0
SPLINE
  5
27A
330
1F
100
AcDbEntity
  8
SK3
  6
HIDDEN
370
    18
100
AcDbSpline
210
0.0
220
0.0
230
1.0
 70
    24
 71
     3
 72
     8
 73
     4
 74
     0
 42
0.000000001
 43
0.00000001
 40
0.0302828823587949
 40
0.0302828823587949
 40
0.0302828823587949
 40
0.0302828823587949
 40
0.0625020384893471
 40
0.0625020384893471
 40
0.0625020384893471
 40
0.0625020384893471
 10
18.70660823716372
 20
24.83
 30
0.0
 10
18.70779240566335
 20
24.83
 30
0.0
 10
18.7097911092523
 20
24.83
 30
0.0
 10
18.71226739441984
 20
24.83000000000001
 30
0.0
  0
SPLINE
  5
27B
330
1F
100
AcDbEntity
  8
SK3
  6
HIDDEN
370
    18
100
AcDbSpline
210
0.0
220
0.0
230
1.0
 70
    24
 71
     3
 72
     8
 73
     4
 74
     0
 42
0.000000001
 43
0.00000001
 40
0.0625020384893471
 40
0.0625020384893471
 40
0.0625020384893471
 40
0.0625020384893471
 40
0.1249991768942285
 40
0.1249991768942285
 40
0.1249991768942285
 40
0.1249991768942285
 10
18.71226739441984
 20
24.83000000000001
 30
0.0
 10
18.71707077090237
 20
24.83000000000001
 30
0.0
 10
18.72367111193213
 20
24.83
 30
0.0
 10
18.73137385249225
 20
24.83000000000001
 30
0.0
  0
SPLINE
  5
27C
330
1F
100
AcDbEntity
  8
SK3
  6
HIDDEN
370
    18
100
AcDbSpline
210
0.0
220
0.0
230
1.0
 70
    24
 71
     3
 72
     8
 73
     4
 74
     0
 42
0.000000001
 43
0.00000001
 40
0.1249991768942285
 40
0.1249991768942285
 40
0.1249991768942285
 40
0.1249991768942285
 40
0.156248568167535
 40
0.156248568167535
 40
0.156248568167535
 40
0.156248568167535
 10
18.73137385249225
 20
24.83000000000001
 30
0.0
 10
18.73522532409211
 20
24.83000000000001
 30
0.0
 10
18.73935241007542
 20
24.83000000000001
 30
0.0
 10
18.74365190035018
 20
24.83000000000001
 30
0.0
  0
SPLINE
  5
27D
330
1F
100
AcDbEntity
  8
SK3
  6
HIDDEN
370
    18
100
AcDbSpline
210
0.0
220
0.0
230
1.0
 70
    24
 71
     3
 72
     8
 73
     4
 74
     0
 42
0.000000001
 43
0.00000001
 40
0.156248568167535
 40
0.156248568167535
 40
0.156248568167535
 40
0.156248568167535
 40
0.1874985932426695
 40
0.1874985932426695
 40
0.1874985932426695
 40
0.1874985932426695
 10
18.74365190035018
 20
24.83000000000001
 30
0.0
 10
18.74795147782746
 20
24.83000000000001
 30
0.0
 10
18.75242346658968
 20
24.83
 30
0.0
 10
18.75697791821429
 20
24.83000000000001
 30
0.0
  0
SPLINE
  5
27E
330
1F
100
AcDbEntity
  8
SK3
  6
HIDDEN
370
    18
100
AcDbSpline
210
0.0
220
0.0
230
1.0
 70
    24
 71
     3
 72
     8
 73
     4
 74
     0
 42
0.000000001
 43
0.00000001
 40
0.1874985932426695
 40
0.1874985932426695
 40
0.1874985932426695
 40
0.1874985932426695
 40
0.2187489855909974
 40
0.2187489855909974
 40
0.2187489855909974
 40
0.2187489855909974
 10
18.75697791821429
 20
24.83000000000001
 30
0.0
 10
18.76153242336616
 20
24.83
 30
0.0
 10
18.76616939331877
 20
24.83
 30
0.0
 10
18.77080743178661
 20
24.83000000000001
 30
0.0
  0
SPLINE
  5
27F
330
1F
100
AcDbEntity
  8
SK3
  6
HIDDEN
370
    18
100
AcDbSpline
210
0.0
220
0.0
230
1.0
 70
    24
 71
     3
 72
     8
 73
     4
 74
     0
 42
0.000000001
 43
0.00000001
 40
0.2187489855909974
 40
0.2187489855909974
 40
0.2187489855909974
 40
0.2187489855909974
 40
0.249999383585286
 40
0.249999383585286
 40
0.249999383585286
 40
0.249999383585286
 10
18.77080743178661
 20
24.83000000000001
 30
0.0
 10
18.77544547109238
 20
24.83
 30
0.0
 10
18.78008457891375
 20
24.83
 30
0.0
 10
18.78464427318335
 20
24.83
 30
0.0
  0
SPLINE
  5
280
330
1F
100
AcDbEntity
  8
SK3
  6
HIDDEN
370
    18
100
AcDbSpline
210
0.0
220
0.0
230
1.0
 70
    24
 71
     3
 72
     8
 73
     4
 74
     0
 42
0.000000001
 43
0.00000001
 40
0.249999383585286
 40
0.249999383585286
 40
0.249999383585286
 40
0.249999383585286
 40
0.3124989204942324
 40
0.3124989204942324
 40
0.3124989204942324
 40
0.3124989204942324
 10
18.78464427318335
 20
24.83
 30
0.0
 10
18.79376347801236
 20
24.83
 30
0.0
 10
18.80256504143249
 20
24.83000000000001
 30
0.0
 10
18.81051586405604
 20
24.83
 30
0.0
  0
SPLINE
  5
281
330
1F
100
AcDbEntity
  8
SK3
  6
HIDDEN
370
    18
100
AcDbSpline
210
0.0
220
0.0
230
1.0
 70
    24
 71
     3
 72
     8
 73
     4
 74
     0
 42
0.000000001
 43
0.00000001
 40
0.3124989204942324
 40
0.3124989204942324
 40
0.3124989204942324
 40
0.3124989204942324
 40
0.3749963361212723
 40
0.3749963361212723
 40
0.3749963361212723
 40
0.3749963361212723
 10
18.81051586405604
 20
24.83
 30
0.0
 10
18.8184664168226
 20
24.83
 30
0.0
 10
18.82556628654115
 20
24.83
 30
0.0
 10
18.83141384709537
 20
24.82999999999999
 30
0.0
  0
SPLINE
  5
282
330
1F
100
AcDbEntity
  8
SK3
  6
HIDDEN
370
    18
100
AcDbSpline
210
0.0
220
0.0
230
1.0
 70
    24
 71
     3
 72
     8
 73
     4
 74
     0
 42
0.000000001
 43
0.00000001
 40
0.3749963361212723
 40
0.3749963361212723
 40
0.3749963361212723
 40
0.3749963361212723
 40
0.437494260296606
 40
0.437494260296606
 40
0.437494260296606
 40
0.437494260296606
 10
18.83141384709537
 20
24.82999999999999
 30
0.0
 10
18.8372614552318
 20
24.83
 30
0.0
 10
18.84185673382347
 20
24.83000000000001
 30
0.0
 10
18.8449488554491
 20
24.83000000000001
 30
0.0
  0
SPLINE
  5
283
330
1F
100
AcDbEntity
  8
SK3
  6
HIDDEN
370
    18
100
AcDbSpline
210
0.0
220
0.0
230
1.0
 70
    24
 71
     3
 72
     8
 73
     4
 74
     0
 42
0.000000001
 43
0.00000001
 40
0.5625033060596546
 40
0.5625033060596546
 40
0.5625033060596546
 40
0.5625033060596546
 40
0.6250016185076576
 40
0.6250016185076576
 40
0.6250016185076576
 40
0.6250016185076576
 10
18.8449488554491
 20
24.83000000000001
 30
0.0
 10
18.84185678194547
 20
24.83000000000001
 30
0.0
 10
18.83726150226543
 20
24.83
 30
0.0
 10
18.83141384709537
 20
24.82999999999999
 30
0.0
  0
SPLINE
  5
284
330
1F
100
AcDbEntity
  8
SK3
  6
HIDDEN
370
    18
100
AcDbSpline
210
0.0
220
0.0
230
1.0
 70
    24
 71
     3
 72
     8
 73
     4
 74
     0
 42
0.000000001
 43
0.00000001
 40
0.6250016185076576
 40
0.6250016185076576
 40
0.6250016185076576
 40
0.6250016185076576
 40
0.687499376176671
 40
0.687499376176671
 40
0.687499376176671
 40
0.687499376176671
 10
18.83141384709537
 20
24.82999999999999
 30
0.0
 10
18.82556631453924
 20
24.83
 30
0.0
 10
18.81846644386968
 20
24.83
 30
0.0
 10
18.81051586405604
 20
24.83
 30
0.0
  0
SPLINE
  5
285
330
1F
100
AcDbEntity
  8
SK3
  6
HIDDEN
370
    18
100
AcDbSpline
210
0.0
220
0.0
230
1.0
 70
    24
 71
     3
 72
     8
 73
     4
 74
     0
 42
0.000000001
 43
0.00000001
 40
0.687499376176671
 40
0.687499376176671
 40
0.687499376176671
 40
0.687499376176671
 40
0.7499992240020424
 40
0.7499992240020424
 40
0.7499992240020424
 40
0.7499992240020424
 10
18.81051586405604
 20
24.83
 30
0.0
 10
18.80256505968055
 20
24.82999999999999
 30
0.0
 10
18.79376349368134
 20
24.83
 30
0.0
 10
18.78464427318335
 20
24.83
 30
0.0
  0
SPLINE
  5
286
330
1F
100
AcDbEntity
  8
SK3
  6
HIDDEN
370
    18
100
AcDbSpline
210
0.0
220
0.0
230
1.0
 70
    24
 71
     3
 72
     8
 73
     4
 74
     0
 42
0.000000001
 43
0.00000001
 40
0.7499992240020424
 40
0.7499992240020424
 40
0.7499992240020424
 40
0.7499992240020424
 40
0.7812497718385301
 40
0.7812497718385301
 40
0.7812497718385301
 40
0.7812497718385301
 10
18.78464427318335
 20
24.83
 30
0.0
 10
18.7800845832985
 20
24.83000000000001
 30
0.0
 10
18.77544547681637
 20
24.83000000000001
 30
0.0
 10
18.77080743178661
 20
24.83000000000001
 30
0.0
  0
SPLINE
  5
287
330
1F
100
AcDbEntity
  8
SK3
  6
HIDDEN
370
    18
100
AcDbSpline
210
0.0
220
0.0
230
1.0
 70
    24
 71
     3
 72
     8
 73
     4
 74
     0
 42
0.000000001
 43
0.00000001
 40
0.7812497718385301
 40
0.7812497718385301
 40
0.7812497718385301
 40
0.7812497718385301
 40
0.8125003140894717
 40
0.8125003140894717
 40
0.8125003140894717
 40
0.8125003140894717
 10
18.77080743178661
 20
24.83
 30
0.0
 10
18.76616939399081
 20
24.83
 30
0.0
 10
18.76153241764555
 20
24.83
 30
0.0
 10
18.75697791821429
 20
24.83
 30
0.0
  0
SPLINE
  5
288
330
1F
100
AcDbEntity
  8
SK3
  6
HIDDEN
370
    18
100
AcDbSpline
210
0.0
220
0.0
230
1.0
 70
    24
 71
     3
 72
     8
 73
     4
 74
     0
 42
0.000000001
 43
0.00000001
 40
0.8125003140894717
 40
0.8125003140894717
 40
0.8125003140894717
 40
0.8125003140894717
 40
0.8437504922264567
 40
0.8437504922264567
 40
0.8437504922264567
 40
0.8437504922264567
 10
18.75697791821429
 20
24.83000000000001
 30
0.0
 10
18.75242347786255
 20
24.83000000000001
 30
0.0
 10
18.74795151239399
 20
24.83000000000001
 30
0.0
 10
18.74365190035018
 20
24.83000000000001
 30
0.0
  0
SPLINE
  5
289
330
1F
100
AcDbEntity
  8
SK3
  6
HIDDEN
370
    18
100
AcDbSpline
210
0.0
220
0.0
230
1.0
 70
    24
 71
     3
 72
     8
 73
     4
 74
     0
 42
0.000000001
 43
0.00000001
 40
0.8437504922264567
 40
0.8437504922264567
 40
0.8437504922264567
 40
0.8437504922264567
 40
0.8750000431180218
 40
0.8750000431180218
 40
0.8750000431180218
 40
0.8750000431180218
 10
18.74365190035018
 20
24.83000000000001
 30
0.0
 10
18.73935238006359
 20
24.83000000000001
 30
0.0
 10
18.73522520606426
 20
24.83000000000001
 30
0.0
 10
18.73137385249225
 20
24.83000000000001
 30
0.0
  0
SPLINE
  5
28A
330
1F
100
AcDbEntity
  8
SK3
  6
HIDDEN
370
    18
100
AcDbSpline
210
0.0
220
0.0
230
1.0
 70
    24
 71
     3
 72
     8
 73
     4
 74
     0
 42
0.000000001
 43
0.00000001
 40
0.8750000431180218
 40
0.8750000431180218
 40
0.8750000431180218
 40
0.8750000431180218
 40
0.9374975348226036
 40
0.9374975348226036
 40
0.9374975348226036
 40
0.9374975348226036
 10
18.73137385249225
 20
24.83000000000001
 30
0.0
 10
18.72367135964111
 20
24.83000000000001
 30
0.0
 10
18.71707208938388
 20
24.83000000000001
 30
0.0
 10
18.71226739441984
 20
24.83000000000001
 30
0.0
  0
SPLINE
  5
28B
330
1F
100
AcDbEntity
  8
SK3
  6
HIDDEN
370
    18
100
AcDbSpline
210
0.0
220
0.0
230
1.0
 70
    24
 71
     3
 72
     8
 73
     4
 74
     0
 42
0.000000001
 43
0.00000001
 40
0.9374975348226036
 40
0.9374975348226036
 40
0.9374975348226036
 40
0.9374975348226036
 40
0.9697000477587622
 40
0.9697000477587622
 40
0.9697000477587622
 40
0.9697000477587622
 10
18.71226739441984
 20
24.83
 30
0.0
 10
18.70979172363963
 20
24.82999999999999
 30
0.0
 10
18.70779250132225
 20
24.83
 30
0.0
 10
18.70660823716372
 20
24.82999999999999
 30
0.0
  0
SPLINE
  5
28C
330
1F
100
AcDbEntity
  8
SK3
  6
HIDDEN
370
    18
100
AcDbSpline
210
0.0
220
0.0
230
1.0
 70
    24
 71
     3
 72
     8
 73
     4
 74
     0
 42
0.000000001
 43
0.00000001
 40
0.9697000477587622
 40
0.9697000477587622
 40
0.9697000477587622
 40
0.9697000477587622
 40
1.0
 40
1.0
 40
1.0
 40
1.0
 10
18.70660823716372
 20
24.83
 30
0.0
 10
18.70549395073319
 20
24.82999999999999
 30
0.0
 10
18.70510116332801
 20
24.83
 30
0.0
 10
18.70470837592285
 20
24.83
 30
0.0
  0
SPLINE
  5
28D
330
1F
100
AcDbEntity
  8
SK3
  6
HIDDEN
370
    18
100
AcDbSpline
210
0.0
220
0.0
230
1.0
 70
     8
 71
     3
 72
    30
 73
    26
 74
     0
 42
0.000000001
 43
0.00000001
 40
0.5000000000000016
 40
0.5000000000000016
 40
0.5000000000000016
 40
0.5000000000000016
 40
0.5625000000000014
 40
0.5625000000000014
 40
0.5937500000000014
 40
0.5937500000000014
 40
0.6250000000000013
 40
0.6250000000000013
 40
0.6562500000000013
 40
0.6562500000000013
 40
0.6875000000000012
 40
0.6875000000000012
 40
0.7500000000000009
 40
0.7500000000000009
 40
0.7812500000000007
 40
0.7812500000000007
 40
0.8125000000000006
 40
0.8125000000000006
 40
0.8750000000000003
 40
0.8750000000000003
 40
0.9375000000000001
 40
0.9375000000000001
 40
0.96875
 40
0.96875
 40
1.0
 40
1.0
 40
1.0
 40
1.0
 10
11.09929844677808
 20
3.78776601293708
 30
0.0
 10
11.31512671473903
 20
3.787844328548305
 30
0.0
 10
11.53304006332809
 20
3.750889262135751
 30
0.0
 10
11.8311693051045
 20
3.644571484254108
 30
0.0
 10
11.92767339494452
 20
3.600037255497422
 30
0.0
 10
12.10683698186694
 20
3.495952701426837
 30
0.0
 10
12.18964198685286
 20
3.436638281784643
 30
0.0
 10
12.34190799973103
 20
3.302925237097951
 30
0.0
 10
12.41129962491507
 20
3.22817618675892
 30
0.0
 10
12.53066595273424
 20
3.06905261281689
 30
0.0
 10
12.58154771562606
 20
2.983995921432538
 30
0.0
 10
12.7068284587453
 20
2.710883138195799
 30
0.0
 10
12.74988239743906
 20
2.512755536558414
 30
0.0
 10
12.75005844165265
 20
2.205900920979303
 30
0.0
 10
12.73944896734286
 20
2.104095647539286
 30
0.0
 10
12.69737805915505
 20
1.901509184390138
 30
0.0
 10
12.66539378247045
 20
1.799926651541085
 30
0.0
 10
12.54152166679021
 20
1.509668979059644
 30
0.0
 10
12.41880132921228
 20
1.328433854589063
 30
0.0
 10
12.11607255357523
 20
1.025423686659192
 30
0.0
 10
11.93291660701176
 20
0.9007071060449026
 30
0.0
 10
11.63509561949659
 20
0.7743195984551352
 30
0.0
 10
11.53002475205497
 20
0.7414335488037105
 30
0.0
 10
11.31733852405115
 20
0.6978549509474713
 30
0.0
 10
11.20945404144214
 20
0.6867804916266609
 30
0.0
 10
11.09999999999999
 20
0.6867804916266609
 30
0.0
  0
SPLINE
  5
28E
330
1F
100
AcDbEntity
  8
SK3
  6
HIDDEN
370
    18
100
AcDbSpline
210
0.0
220
0.0
230
1.0
 70
     8
 71
     3
 72
    32
 73
    28
 74
     0
 42
0.000000001
 43
0.00000001
 40
0.0
 40
0.0
 40
0.0
 40
0.0
 40
0.0312500000000001
 40
0.0312500000000001
 40
0.0625000000000001
 40
0.0625000000000001
 40
0.0937500000000002
 40
0.0937500000000002
 40
0.1250000000000002
 40
0.1250000000000002
 40
0.1875000000000002
 40
0.1875000000000002
 40
0.2500000000000002
 40
0.2500000000000002
 40
0.2812500000000004
 40
0.2812500000000004
 40
0.3125000000000005
 40
0.3125000000000005
 40
0.3750000000000007
 40
0.3750000000000007
 40
0.4062500000000009
 40
0.4062500000000009
 40
0.4375000000000011
 40
0.4375000000000011
 40
0.4687500000000013
 40
0.4687500000000013
 40
0.5000000000000016
 40
0.5000000000000016
 40
0.5000000000000016
 40
0.5000000000000016
 10
11.09999999999999
 20
0.6867804916266609
 30
0.0
 10
10.99054595855785
 20
0.6867804916266609
 30
0.0
 10
10.88300748494232
 20
0.6978519169173747
 30
0.0
 10
10.67157729317865
 20
0.7410380563700192
 30
0.0
 10
10.56656531881152
 20
0.7737031975053738
 30
0.0
 10
10.36697011919924
 20
0.8582303125313356
 30
0.0
 10
10.27237083996867
 20
0.9097573042868359
 30
0.0
 10
10.09333795853112
 20
1.030751744013236
 30
0.0
 10
10.00891041258246
 20
1.100583040304346
 30
0.0
 10
9.78159056813277
 20
1.327897234965396
 30
0.0
 10
9.658787195719887
 20
1.50932142501943
 30
0.0
 10
9.493903316654423
 20
1.894927731320259
 30
0.0
 10
9.4501341811674
 20
2.103271213289681
 30
0.0
 10
9.449933384093168
 20
2.407948896887106
 30
0.0
 10
9.46074696068297
 20
2.510222343261252
 30
0.0
 10
9.503033348944728
 20
2.705916590523314
 30
0.0
 10
9.53431590836494
 20
2.800221958421403
 30
0.0
 10
9.658906673984779
 20
3.072888284710952
 30
0.0
 10
9.780315119429298
 20
3.234385799298932
 30
0.0
 10
10.00967891683431
 20
3.436160430175993
 30
0.0
 10
10.09252169949718
 20
3.495489903524468
 30
0.0
 10
10.2708310745887
 20
3.599257582730262
 30
0.0
 10
10.36744974633948
 20
3.64399945907342
 30
0.0
 10
10.56659782256847
 20
3.715177102574754
 30
0.0
 10
10.66944649627721
 20
3.742052781161728
 30
0.0
 10
10.88184464279911
 20
3.778470779378984
 30
0.0
 10
10.9913843127976
 20
3.787726855131464
 30
0.0
 10
11.09929844677808
 20
3.78776601293708
 30
0.0
  0
SPLINE
  5
28F
330
1F
100
AcDbEntity
  8
SK3
  6
HIDDEN
370
    18
100
AcDbSpline
210
0.0
220
0.0
230
1.0
 70
    24
 71
     3
 72
    21
 73
    17
 74
     0
 42
0.000000001
 43
0.00000001
 40
0.0
 40
0.0
 40
0.0
 40
0.0
 40
0.031195826758885
 40
0.0623870944570972
 40
0.0935848502277364
 40
0.1247986172107026
 40
0.1560326056564662
 40
0.1872839244014627
 40
0.2185479250291119
 40
0.2498185587298739
 40
0.2810889711270656
 40
0.3123520010650444
 40
0.3436011666089022
 40
0.3748316459050861
 40
0.437229709067377
 40
0.4995736277589859
 40
0.4995736277589859
 40
0.4995736277589859
 40
0.4995736277589859
 10
3.545291624077143
 20
-22.41000000000001
 30
0.0
 10
3.544426542233081
 20
-22.41000000000001
 30
0.0
 10
3.542696504970855
 20
-22.41000000000001
 30
0.0
 10
3.530119550710253
 20
-22.41000000000001
 30
0.0
 10
3.511903224591481
 20
-22.41000000000001
 30
0.0
 10
3.488356888992628
 20
-22.41000000000001
 30
0.0
 10
3.46078203677129
 20
-22.41000000000001
 30
0.0
 10
3.430088259635172
 20
-22.41000000000001
 30
0.0
 10
3.397348220608443
 20
-22.41000000000001
 30
0.0
 10
3.363589707372578
 20
-22.41000000000001
 30
0.0
 10
3.329856388762528
 20
-22.41000000000001
 30
0.0
 10
3.29725463460881
 20
-22.41000000000001
 30
0.0
 10
3.266916966659886
 20
-22.41000000000001
 30
0.0
 10
3.230996099714237
 20
-22.41000000000001
 30
0.0
 10
3.197429111489638
 20
-22.41000000000001
 30
0.0
 10
3.187698561014404
 20
-22.41000000000001
 30
0.0
 10
3.18763420192375
 20
-22.41000000000001
 30
0.0
  0
SPLINE
  5
290
330
1F
100
AcDbEntity
  8
SK3
  6
HIDDEN
370
    18
100
AcDbSpline
210
0.0
220
0.0
230
1.0
 70
     8
 71
     3
 72
    30
 73
    26
 74
     0
 42
0.000000001
 43
0.00000001
 40
0.499999999999996
 40
0.499999999999996
 40
0.499999999999996
 40
0.499999999999996
 40
0.5624999999999968
 40
0.5624999999999968
 40
0.5937499999999952
 40
0.5937499999999952
 40
0.6249999999999937
 40
0.6249999999999937
 40
0.6874999999999934
 40
0.6874999999999934
 40
0.7187499999999941
 40
0.7187499999999941
 40
0.7499999999999949
 40
0.7499999999999949
 40
0.8124999999999961
 40
0.8124999999999961
 40
0.8749999999999973
 40
0.8749999999999973
 40
0.906249999999998
 40
0.906249999999998
 40
0.9374999999999987
 40
0.9374999999999987
 40
0.9687499999999992
 40
0.9687499999999992
 40
1.0
 40
1.0
 40
1.0
 40
1.0
 10
91.0505755520872
 20
-3.847058242858834
 30
0.0
 10
90.85365422273117
 20
-3.847091333323855
 30
0.0
 10
90.65491610316016
 20
-3.830064362399771
 30
0.0
 10
90.3832819953702
 20
-3.777944283860062
 30
0.0
 10
90.29568409379311
 20
-3.755808517578171
 30
0.0
 10
90.13396614183223
 20
-3.702868808747092
 30
0.0
 10
90.0588699436265
 20
-3.671941362648655
 30
0.0
 10
89.85083912903038
 20
-3.563120160181885
 30
0.0
 10
89.7410500911802
 20
-3.472105782517384
 30
0.0
 10
89.62734781559027
 20
-3.305673645637386
 30
0.0
 10
89.59875118652862
 20
-3.246413082132925
 30
0.0
 10
89.56000708090313
 20
-3.119612800349281
 30
0.0
 10
89.54998832269649
 20
-3.051220293760502
 30
0.0
 10
89.55002338606192
 20
-2.841518272587922
 30
0.0
 10
89.59013544869264
 20
-2.690761923560689
 30
0.0
 10
89.74075019751186
 20
-2.399928533157722
 30
0.0
 10
89.85211682576653
 20
-2.257752287554135
 30
0.0
 10
90.05845450457203
 20
-2.074030773095141
 30
0.0
 10
90.13500871020747
 20
-2.016695318128387
 30
0.0
 10
90.29676170850554
 20
-1.91648473542683
 30
0.0
 10
90.38246294602413
 20
-1.872996898298392
 30
0.0
 10
90.56409460329225
 20
-1.800906447356577
 30
0.0
 10
90.6594737096796
 20
-1.772796387403762
 30
0.0
 10
90.85189480423199
 20
-1.735436221413283
 30
0.0
 10
90.95001054702536
 20
-1.725737947656791
 30
0.0
 10
91.05000000000001
 20
-1.725737947656791
 30
0.0
  0
SPLINE
  5
291
330
1F
100
AcDbEntity
  8
SK3
  6
HIDDEN
370
    18
100
AcDbSpline
210
0.0
220
0.0
230
1.0
 70
     8
 71
     3
 72
    30
 73
    26
 74
     0
 42
0.000000001
 43
0.00000001
 40
0.0
 40
0.0
 40
0.0
 40
0.0
 40
0.0312499999999998
 40
0.0312499999999998
 40
0.0624999999999997
 40
0.0624999999999997
 40
0.1249999999999993
 40
0.1249999999999993
 40
0.187499999999999
 40
0.187499999999999
 40
0.2187499999999989
 40
0.2187499999999989
 40
0.2499999999999988
 40
0.2499999999999988
 40
0.2812499999999987
 40
0.2812499999999987
 40
0.3124999999999986
 40
0.3124999999999986
 40
0.3749999999999984
 40
0.3749999999999984
 40
0.4062499999999967
 40
0.4062499999999967
 40
0.4374999999999952
 40
0.4374999999999952
 40
0.499999999999996
 40
0.499999999999996
 40
0.499999999999996
 40
0.499999999999996
 10
91.05000000000001
 20
-1.725737947656791
 30
0.0
 10
91.14998945297464
 20
-1.725737947656784
 30
0.0
 10
91.24812837846842
 20
-1.735427202254815
 30
0.0
 10
91.44091731629202
 20
-1.772885857722048
 30
0.0
 10
91.53658651738179
 20
-1.801144561845654
 30
0.0
 10
91.80837431343201
 20
-1.909115327426727
 30
0.0
 10
91.97358582150076
 20
-2.013439506088677
 30
0.0
 10
92.24785024809499
 20
-2.257803686920953
 30
0.0
 10
92.35932956366254
 20
-2.400133227016335
 30
0.0
 10
92.47205099590518
 20
-2.617719576337666
 30
0.0
 10
92.50132453648153
 20
-2.692355557809074
 30
0.0
 10
92.54020576654416
 20
-2.839178606021543
 30
0.0
 10
92.54993372917995
 20
-2.91087260893496
 30
0.0
 10
92.55006560246083
 20
-3.050601279786947
 30
0.0
 10
92.54012356169524
 20
-3.118995082009933
 30
0.0
 10
92.50143495939152
 20
-3.245992478069334
 30
0.0
 10
92.47281718317758
 20
-3.305425748424344
 30
0.0
 10
92.35868162042107
 20
-3.472511244787663
 30
0.0
 10
92.24804433252794
 20
-3.56375557102169
 30
0.0
 10
92.04121053865381
 20
-3.671873499149187
 30
0.0
 10
91.96632591788708
 20
-3.702763352968284
 30
0.0
 10
91.80439502255501
 20
-3.755792443256682
 30
0.0
 10
91.71678951296312
 20
-3.777913736454096
 30
0.0
 10
91.4462541143045
 20
-3.829873356827409
 30
0.0
 10
91.24749688144325
 20
-3.847025152393813
 30
0.0
 10
91.0505755520872
 20
-3.847058242858834
 30
0.0
  0
SPLINE
  5
292
330
1F
100
AcDbEntity
  8
SK3
  6
HIDDEN
370
    18
100
AcDbSpline
210
0.0
220
0.0
230
1.0
 70
     8
 71
     3
 72
    30
 73
    26
 74
     0
 42
0.000000001
 43
0.00000001
 40
0.499999999999964
 40
0.499999999999964
 40
0.499999999999964
 40
0.499999999999964
 40
0.5624999999999609
 40
0.5624999999999609
 40
0.5937499999999614
 40
0.5937499999999614
 40
0.6249999999999617
 40
0.6249999999999617
 40
0.6874999999999657
 40
0.6874999999999657
 40
0.7187499999999684
 40
0.7187499999999684
 40
0.749999999999971
 40
0.749999999999971
 40
0.8124999999999768
 40
0.8124999999999768
 40
0.8749999999999826
 40
0.8749999999999826
 40
0.9062499999999869
 40
0.9062499999999869
 40
0.9374999999999912
 40
0.9374999999999912
 40
0.9687499999999957
 40
0.9687499999999957
 40
1.0
 40
1.0
 40
1.0
 40
1.0
 10
91.04942444791277
 20
3.847058242858858
 30
0.0
 10
91.2463457772688
 20
3.847091333323879
 30
0.0
 10
91.44508389683988
 20
3.830064362399792
 30
0.0
 10
91.71671800462978
 20
3.777944283860087
 30
0.0
 10
91.80431590620692
 20
3.755808517578195
 30
0.0
 10
91.96603385816769
 20
3.702868808747123
 30
0.0
 10
92.0411300563735
 20
3.67194136264868
 30
0.0
 10
92.24916087096962
 20
3.563120160181906
 30
0.0
 10
92.35894990881981
 20
3.472105782517408
 30
0.0
 10
92.47265218440965
 20
3.30567364563742
 30
0.0
 10
92.50124881347142
 20
3.246413082132971
 30
0.0
 10
92.53999291909683
 20
3.119612800349322
 30
0.0
 10
92.55001167730343
 20
3.051220293760544
 30
0.0
 10
92.54997661393803
 20
2.84151827258796
 30
0.0
 10
92.50986455130732
 20
2.690761923560735
 30
0.0
 10
92.35924980248812
 20
2.39992853315777
 30
0.0
 10
92.24788317423356
 20
2.257752287554177
 30
0.0
 10
92.041545495428
 20
2.07403077309519
 30
0.0
 10
91.96499128979248
 20
2.016695318128425
 30
0.0
 10
91.80323829149441
 20
1.916484735426875
 30
0.0
 10
91.71753705397586
 20
1.872996898298438
 30
0.0
 10
91.53590539670776
 20
1.800906447356629
 30
0.0
 10
91.44052629032036
 20
1.772796387403804
 30
0.0
 10
91.24810519576793
 20
1.735436221413325
 30
0.0
 10
91.14998945297467
 20
1.72573794765684
 30
0.0
 10
91.05000000000001
 20
1.72573794765684
 30
0.0
  0
SPLINE
  5
293
330
1F
100
AcDbEntity
  8
SK3
  6
HIDDEN
370
    18
100
AcDbSpline
210
0.0
220
0.0
230
1.0
 70
     8
 71
     3
 72
    30
 73
    26
 74
     0
 42
0.000000001
 43
0.00000001
 40
0.0
 40
0.0
 40
0.0
 40
0.0
 40
0.0312499999999978
 40
0.0312499999999978
 40
0.0624999999999956
 40
0.0624999999999956
 40
0.1249999999999913
 40
0.1249999999999913
 40
0.1874999999999869
 40
0.1874999999999869
 40
0.2187499999999848
 40
0.2187499999999848
 40
0.2499999999999827
 40
0.2499999999999827
 40
0.2812499999999806
 40
0.2812499999999806
 40
0.3124999999999784
 40
0.3124999999999784
 40
0.3749999999999743
 40
0.3749999999999743
 40
0.4062499999999707
 40
0.4062499999999707
 40
0.4374999999999672
 40
0.4374999999999672
 40
0.499999999999964
 40
0.499999999999964
 40
0.499999999999964
 40
0.499999999999964
 10
91.05000000000001
 20
1.725737947656833
 30
0.0
 10
90.95001054702536
 20
1.72573794765684
 30
0.0
 10
90.85187162153156
 20
1.735427202254856
 30
0.0
 10
90.65908268370796
 20
1.77288585772209
 30
0.0
 10
90.56341348261819
 20
1.8011445618457
 30
0.0
 10
90.29162568656788
 20
1.909115327426783
 30
0.0
 10
90.12641417849922
 20
2.013439506088718
 30
0.0
 10
89.8521497519049
 20
2.257803686920995
 30
0.0
 10
89.74067043633745
 20
2.400133227016384
 30
0.0
 10
89.6279490040948
 20
2.617719576337704
 30
0.0
 10
89.59867546351845
 20
2.692355557809119
 30
0.0
 10
89.55979423345576
 20
2.839178606021585
 30
0.0
 10
89.55006627082
 20
2.910872608935001
 30
0.0
 10
89.54993439753912
 20
3.050601279786985
 30
0.0
 10
89.55987643830478
 20
3.118995082009968
 30
0.0
 10
89.59856504060846
 20
3.245992478069365
 30
0.0
 10
89.62718281682228
 20
3.305425748424372
 30
0.0
 10
89.74131837957896
 20
3.472511244787694
 30
0.0
 10
89.85195566747197
 20
3.563755571021711
 30
0.0
 10
90.05878946134614
 20
3.671873499149214
 30
0.0
 10
90.1336740821128
 20
3.702763352968312
 30
0.0
 10
90.2956049774449
 20
3.755792443256703
 30
0.0
 10
90.38321048703686
 20
3.777913736454128
 30
0.0
 10
90.65374588569554
 20
3.829873356827426
 30
0.0
 10
90.85250311855671
 20
3.847025152393837
 30
0.0
 10
91.04942444791277
 20
3.847058242858858
 30
0.0
  0
SPLINE
  5
294
330
1F
100
AcDbEntity
  8
SK3
  6
HIDDEN
370
    18
100
AcDbSpline
210
0.0
220
0.0
230
1.0
 70
     8
 71
     3
 72
    24
 73
    20
 74
     0
 42
0.000000001
 43
0.00000001
 40
0.0
 40
0.0
 40
0.0
 40
0.0
 40
0.0625000000000013
 40
0.0625000000000013
 40
0.0937500000000014
 40
0.0937500000000014
 40
0.1250000000000015
 40
0.1250000000000015
 40
0.1875000000000014
 40
0.1875000000000014
 40
0.2500000000000012
 40
0.2500000000000012
 40
0.3125000000000011
 40
0.3125000000000011
 40
0.375000000000001
 40
0.375000000000001
 40
0.4375000000000009
 40
0.4375000000000009
 40
0.5000000000000008
 40
0.5000000000000008
 40
0.5000000000000008
 40
0.5000000000000008
 10
89.7271243444677
 20
4.949747468305855
 30
0.0
 10
89.67890089039062
 20
5.077334735173452
 30
0.0
 10
89.63376535535278
 20
5.204558908853787
 30
0.0
 10
89.58507131877113
 20
5.386952337480088
 30
0.0
 10
89.57222512248475
 20
5.445275540772487
 30
0.0
 10
89.55458998586816
 20
5.556834735192366
 30
0.0
 10
89.54993989211617
 20
5.610259459132481
 30
0.0
 10
89.55012204522444
 20
5.752911048158206
 30
0.0
 10
89.5693946172629
 20
5.828450797048635
 30
0.0
 10
89.6350046943132
 20
5.926660568081555
 30
0.0
 10
89.6807722704026
 20
5.950316097445341
 30
0.0
 10
89.77692406067251
 20
5.949158064810967
 30
0.0
 10
89.82737167513771
 20
5.924712390568733
 30
0.0
 10
89.9056310071309
 20
5.827052526209343
 30
0.0
 10
89.93198502818612
 20
5.751862030397953
 30
0.0
 10
89.93194697200848
 20
5.561622759836947
 30
0.0
 10
89.9053200153068
 20
5.445561898083035
 30
0.0
 10
89.8264254178271
 20
5.204470406479445
 30
0.0
 10
89.77593733525129
 20
5.078801648747689
 30
0.0
 10
89.72809815503065
 20
4.952322989114778
 30
0.0
  0
SPLINE
  5
295
330
1F
100
AcDbEntity
  8
SK3
  6
HIDDEN
370
    18
100
AcDbSpline
210
0.0
220
0.0
230
1.0
 70
     8
 71
     3
 72
    22
 73
    18
 74
     0
 42
0.000000001
 43
0.00000001
 40
0.0
 40
0.0
 40
0.0
 40
0.0
 40
0.0625
 40
0.0625
 40
0.125
 40
0.125
 40
0.1875
 40
0.1875
 40
0.25
 40
0.25
 40
0.3125
 40
0.3125
 40
0.375
 40
0.375
 40
0.4375
 40
0.4375
 40
0.5
 40
0.5
 40
0.5
 40
0.5
 10
92.3728756555323
 20
4.949747468305844
 30
0.0
 10
92.32464630479795
 20
4.822144600371427
 30
0.0
 10
92.27452715856988
 20
4.697507106951304
 30
0.0
 10
92.19541403282629
 20
4.456595492992973
 30
0.0
 10
92.1686181906292
 20
4.341440810322523
 30
0.0
 10
92.16747021197294
 20
4.150614828924902
 30
0.0
 10
92.19326219303419
 20
4.07450154953789
 30
0.0
 10
92.27176519320508
 20
3.975198431644366
 30
0.0
 10
92.32185709835682
 20
3.950793644959138
 30
0.0
 10
92.4178365563123
 20
3.948765366441071
 30
0.0
 10
92.4635589208881
 20
3.971823318094375
 30
0.0
 10
92.52953582706877
 20
4.068346809209732
 30
0.0
 10
92.54936289663712
 20
4.14317435260033
 30
0.0
 10
92.55060520892093
 20
4.332359093275774
 30
0.0
 10
92.5321296799929
 20
4.447333422281618
 30
0.0
 10
92.46706421035464
 20
4.692586893463498
 30
0.0
 10
92.42164527349584
 20
4.820615299561068
 30
0.0
 10
92.37389612761127
 20
4.947046501749659
 30
0.0
  0
SPLINE
  5
296
330
1F
100
AcDbEntity
  8
SK3
  6
HIDDEN
370
    18
100
AcDbSpline
210
0.0
220
0.0
230
1.0
 70
     8
 71
     3
 72
    24
 73
    20
 74
     0
 42
0.000000001
 43
0.00000001
 40
0.0
 40
0.0
 40
0.0
 40
0.0
 40
0.0624999999999999
 40
0.0624999999999999
 40
0.0937499999999998
 40
0.0937499999999998
 40
0.1249999999999996
 40
0.1249999999999996
 40
0.1874999999999997
 40
0.1874999999999997
 40
0.2499999999999997
 40
0.2499999999999997
 40
0.3124999999999998
 40
0.3124999999999998
 40
0.3749999999999998
 40
0.3749999999999998
 40
0.4374999999999999
 40
0.4374999999999999
 40
0.4999999999999999
 40
0.4999999999999999
 40
0.4999999999999999
 40
0.4999999999999999
 10
92.37287565553234
 20
-4.949747468305854
 30
0.0
 10
92.42109910961165
 20
-5.077334735172484
 30
0.0
 10
92.46623464465189
 20
-5.204558908851909
 30
0.0
 10
92.5149286812374
 20
-5.386952337477245
 30
0.0
 10
92.52777487752527
 20
-5.445275540769395
 30
0.0
 10
92.54541001414381
 20
-5.556834735188917
 30
0.0
 10
92.55006010789674
 20
-5.610259459128917
 30
0.0
 10
92.54987795479126
 20
-5.75291104815465
 30
0.0
 10
92.53060538275426
 20
-5.828450797045471
 30
0.0
 10
92.46499530570567
 20
-5.926660568079703
 30
0.0
 10
92.41922772961709
 20
-5.950316097444386
 30
0.0
 10
92.32307593934698
 20
-5.949158064811928
 30
0.0
 10
92.27262832488134
 20
-5.924712390570702
 30
0.0
 10
92.19436899288625
 20
-5.827052526212894
 30
0.0
 10
92.16801497182932
 20
-5.751862030402005
 30
0.0
 10
92.16805302800347
 20
-5.561622759841008
 30
0.0
 10
92.19467998470309
 20
-5.445561898086565
 30
0.0
 10
92.27357458217745
 20
-5.204470406481425
 30
0.0
 10
92.32406266475095
 20
-5.078801648748691
 30
0.0
 10
92.37190184496926
 20
-4.9523229891148
 30
0.0
  0
SPLINE
  5
297
330
1F
100
AcDbEntity
  8
SK3
  6
HIDDEN
370
    18
100
AcDbSpline
210
0.0
220
0.0
230
1.0
 70
     8
 71
     3
 72
    22
 73
    18
 74
     0
 42
0.000000001
 43
0.00000001
 40
0.0
 40
0.0
 40
0.0
 40
0.0
 40
0.0625
 40
0.0625
 40
0.125
 40
0.125
 40
0.1875
 40
0.1875
 40
0.25
 40
0.25
 40
0.3125
 40
0.3125
 40
0.375
 40
0.375
 40
0.4375
 40
0.4375
 40
0.5
 40
0.5
 40
0.5
 40
0.5
 10
89.72712434446761
 20
-4.949747468305843
 30
0.0
 10
89.7753536952038
 20
-4.822144600372054
 30
0.0
 10
89.82547284143344
 20
-4.6975071069526
 30
0.0
 10
89.9045859671803
 20
-4.456595492995298
 30
0.0
 10
89.93138180937882
 20
-4.341440810325221
 30
0.0
 10
89.93252978803731
 20
-4.150614828927627
 30
0.0
 10
89.90673780697747
 20
-4.074501549540257
 30
0.0
 10
89.82823480680756
 20
-3.97519843164569
 30
0.0
 10
89.77814290165628
 20
-3.950793644959812
 30
0.0
 10
89.68216344370114
 20
-3.94876536644049
 30
0.0
 10
89.636441079125
 20
-3.971823318093178
 30
0.0
 10
89.57046417294295
 20
-4.068346809207661
 30
0.0
 10
89.5506371033735
 20
-4.143174352597989
 30
0.0
 10
89.5493947910872
 20
-4.33235909327343
 30
0.0
 10
89.56787032001345
 20
-4.447333422279538
 30
0.0
 10
89.6329357896489
 20
-4.69258689346227
 30
0.0
 10
89.67835472650604
 20
-4.820615299560441
 30
0.0
 10
89.72610387238873
 20
-4.947046501749663
 30
0.0
  0
SPLINE
  5
298
330
1F
100
AcDbEntity
  8
SK3
  6
HIDDEN
370
    18
100
AcDbSpline
210
0.0
220
0.0
230
1.0
 70
     8
 71
     3
 72
    38
 73
    34
 74
     0
 42
0.000000001
 43
0.00000001
 40
0.499999999999998
 40
0.499999999999998
 40
0.499999999999998
 40
0.499999999999998
 40
0.5312499999999979
 40
0.5312499999999979
 40
0.5624999999999978
 40
0.5624999999999978
 40
0.5937499999999978
 40
0.5937499999999978
 40
0.6249999999999977
 40
0.6249999999999977
 40
0.6562499999999977
 40
0.6562499999999977
 40
0.6874999999999976
 40
0.6874999999999976
 40
0.7187499999999976
 40
0.7187499999999976
 40
0.7499999999999974
 40
0.7499999999999974
 40
0.8124999999999982
 40
0.8124999999999982
 40
0.8437499999999984
 40
0.8437499999999984
 40
0.8749999999999988
 40
0.8749999999999988
 40
0.906249999999999
 40
0.906249999999999
 40
0.9374999999999993
 40
0.9374999999999993
 40
0.9687499999999996
 40
0.9687499999999996
 40
0.9843749999999998
 40
0.9843749999999998
 40
1.0
 40
1.0
 40
1.0
 40
1.0
 10
9.547165917302147
 20
6.130078845462003
 30
0.0
 10
9.59166960882872
 20
6.01762212406462
 30
0.0
 10
9.6519122103369
 20
5.910039381771343
 30
0.0
 10
9.796812632231463
 20
5.715206444890278
 30
0.0
 10
9.882567425050448
 20
5.625950668749144
 30
0.0
 10
10.0770713882353
 20
5.465835135561377
 30
0.0
 10
10.18346038260026
 20
5.396630723958365
 30
0.0
 10
10.41491716747872
 20
5.273967848329591
 30
0.0
 10
10.54009168137381
 20
5.221079864175506
 30
0.0
 10
10.78642802631473
 20
5.131319199450722
 30
0.0
 10
10.90588750473029
 20
5.094347448465299
 30
0.0
 10
11.12471660654357
 20
5.030993621355173
 30
0.0
 10
11.22226506040225
 20
5.005212811238509
 30
0.0
 10
11.40290338683522
 20
4.961304046026231
 30
0.0
 10
11.48653843453272
 20
4.943230320262129
 30
0.0
 10
11.64292087602177
 20
4.91495840651697
 30
0.0
 10
11.71620965691778
 20
4.90463742056118
 30
0.0
 10
11.92719226675067
 20
4.885740181441757
 30
0.0
 10
12.05703185085183
 20
4.888799294419009
 30
0.0
 10
12.23947266366207
 20
4.928553216744818
 30
0.0
 10
12.29788111599016
 20
4.9476725332862
 30
0.0
 10
12.40978986086719
 20
5.00169134685663
 30
0.0
 10
12.46364510461584
 20
5.036838190440908
 30
0.0
 10
12.56271343290429
 20
5.12873739330609
 30
0.0
 10
12.60843468736297
 20
5.18558411364542
 30
0.0
 10
12.68612312343484
 20
5.33278642989507
 30
0.0
 10
12.71750492214958
 20
5.42323308451316
 30
0.0
 10
12.7522598594827
 20
5.640299190695288
 30
0.0
 10
12.7546372439699
 20
5.767683503121013
 30
0.0
 10
12.73422628849655
 20
5.964115740422257
 30
0.0
 10
12.72357436485565
 20
6.030799862754427
 30
0.0
 10
12.69687670664382
 20
6.160247296436619
 30
0.0
 10
12.68086259956382
 20
6.223527817320322
 30
0.0
 10
12.66230763443386
 20
6.286790301132355
 30
0.0
  0
SPLINE
  5
299
330
1F
100
AcDbEntity
  8
SK3
  6
HIDDEN
370
    18
100
AcDbSpline
210
0.0
220
0.0
230
1.0
 70
     8
 71
     3
 72
    32
 73
    28
 74
     0
 42
0.000000001
 43
0.00000001
 40
0.0
 40
0.0
 40
0.0
 40
0.0
 40
0.0312499999999997
 40
0.0312499999999997
 40
0.0624999999999995
 40
0.0624999999999995
 40
0.1249999999999989
 40
0.1249999999999989
 40
0.1874999999999984
 40
0.1874999999999984
 40
0.2187499999999984
 40
0.2187499999999984
 40
0.2499999999999984
 40
0.2499999999999984
 40
0.2812499999999984
 40
0.2812499999999984
 40
0.3124999999999984
 40
0.3124999999999984
 40
0.3437499999999984
 40
0.3437499999999984
 40
0.3749999999999984
 40
0.3749999999999984
 40
0.4374999999999982
 40
0.4374999999999982
 40
0.4687499999999981
 40
0.4687499999999981
 40
0.499999999999998
 40
0.499999999999998
 40
0.499999999999998
 40
0.499999999999998
 10
12.66230763443388
 20
6.286790301132355
 30
0.0
 10
12.62519770417403
 20
6.413315268756402
 30
0.0
 10
12.58120302127297
 20
6.529338209342164
 30
0.0
 10
12.48471880657838
 20
6.749261649681169
 30
0.0
 10
12.43165882244548
 20
6.85365641238217
 30
0.0
 10
12.26556941339613
 20
7.146821567827775
 30
0.0
 10
12.14616169070408
 20
7.31706142152349
 30
0.0
 10
11.88808945990527
 20
7.625840216913642
 30
0.0
 10
11.74985718622877
 20
7.76377852370172
 30
0.0
 10
11.51944141192586
 20
7.939572233534697
 30
0.0
 10
11.43848400885547
 20
7.993145929764564
 30
0.0
 10
11.26094996715925
 20
8.086113501836044
 30
0.0
 10
11.16541818036969
 20
8.12502581609862
 30
0.0
 10
10.95302844471288
 20
8.175251229353183
 30
0.0
 10
10.83703519791092
 20
8.185597853152496
 30
0.0
 10
10.59133681320579
 20
8.160487774001018
 30
0.0
 10
10.46687270231074
 20
8.125321374609397
 30
0.0
 10
10.22897755356153
 20
8.015351517179324
 30
0.0
 10
10.11959384449097
 20
7.943374611664944
 30
0.0
 10
9.919042005980955
 20
7.771958981462504
 30
0.0
 10
9.830027015680656
 20
7.673959535020855
 30
0.0
 10
9.601531880722936
 20
7.354720962768346
 30
0.0
 10
9.501243573240753
 20
7.107453544913913
 30
0.0
 10
9.447270080515297
 20
6.732043004033517
 30
0.0
 10
9.445111331805881
 20
6.607943683149966
 30
0.0
 10
9.472789440891708
 20
6.361880396588831
 30
0.0
 10
9.502662225775573
 20
6.242535566859386
 30
0.0
 10
9.547165917302147
 20
6.130078845462003
 30
0.0
  0
SPLINE
  5
29A
330
1F
100
AcDbEntity
  8
1
  6
HIDDEN
370
    18
100
AcDbSpline
210
0.0
220
0.0
230
1.0
 70
    24
 71
     3
 72
    31
 73
    27
 74
     0
 42
0.000000001
 43
0.00000001
 40
0.0
 40
0.0
 40
0.0
 40
0.0
 40
0.0079248178333011
 40
0.0158099404506524
 40
0.0236629956665538
 40
0.0314911785666823
 40
0.0393012153682687
 40
0.0470993531865129
 40
0.0548913560395945
 40
0.0626825065913943
 40
0.0704776131669682
 40
0.0782810170662807
 40
0.0860966306389192
 40
0.0939279762318817
 40
0.1017781850110389
 40
0.1096500110371802
 40
0.1175456305854408
 40
0.1254360672185167
 40
0.1411484421635826
 40
0.1567924049687638
 40
0.1879517398244041
 40
0.2501022008918576
 40
0.3748619425517341
 40
0.4998636125412965
 40
0.7499245129859032
 40
1.0
 40
1.0
 40
1.0
 40
1.0
 10
19.22920376808424
 20
-22.41000000000001
 30
0.0
 10
19.22961629087495
 20
-22.41000000069909
 30
0.0
 10
19.23043927014001
 20
-22.41000000209374
 30
0.0
 10
19.23178819743222
 20
-22.41000000437968
 30
0.0
 10
19.23321377742842
 20
-22.41000000679552
 30
0.0
 10
19.23472221967596
 20
-22.41000000935179
 30
0.0
 10
19.23630894741376
 20
-22.41000001204072
 30
0.0
 10
19.2379722561649
 20
-22.41000001485942
 30
0.0
 10
19.23970968217373
 20
-22.41000001780373
 30
0.0
 10
19.24151897226951
 20
-22.41000002086983
 30
0.0
 10
19.24339785767821
 20
-22.41000002405386
 30
0.0
 10
19.24534402516601
 20
-22.41000002735191
 30
0.0
 10
19.24735534106146
 20
-22.41000003076036
 30
0.0
 10
19.24942980590366
 20
-22.41000003427583
 30
0.0
 10
19.25156538286869
 20
-22.41000003789486
 30
0.0
 10
19.2537600297476
 20
-22.41000004161399
 30
0.0
 10
19.25600877404675
 20
-22.4100000454248
 30
0.0
 10
19.25906583622503
 20
-22.41000005060542
 30
0.0
 10
19.26298543437273
 20
-22.41000005724772
 30
0.0
 10
19.26943383487833
 20
-22.41000006817542
 30
0.0
 10
19.28114656710091
 20
-22.41000008802426
 30
0.0
 10
19.30604580768502
 20
-22.41000013021949
 30
0.0
 10
19.34415891712488
 20
-22.41000019480742
 30
0.0
 10
19.40750749447903
 20
-22.41000030216036
 30
0.0
 10
19.48895106250895
 20
-22.41000044017776
 30
0.0
 10
19.55507677112485
 20
-22.41000055223693
 30
0.0
 10
19.58814058971701
 20
-22.41000060826814
 30
0.0
  0
SPLINE
  5
29B
330
1F
100
AcDbEntity
  8
SK3
  6
HIDDEN
370
    18
100
AcDbSpline
210
0.0
220
0.0
230
1.0
 70
     8
 71
     3
 72
    13
 73
     9
 74
     0
 42
0.000000001
 43
0.00000001
 40
0.0
 40
0.0
 40
0.0
 40
0.0
 40
0.1003350693287703
 40
0.2007570174246391
 40
0.4999938363791538
 40
0.7849544230009889
 40
0.8922894201751099
 40
1.0
 40
1.0
 40
1.0
 40
1.0
 10
18.64160414531565
 20
-23.97804446873439
 30
0.0
 10
18.64196240639342
 20
-23.93754320197176
 30
0.0
 10
18.64267923876234
 20
-23.85650559895241
 30
0.0
 10
18.65208766234003
 20
-23.65487397473005
 30
0.0
 10
18.68096114787628
 20
-23.37964216896998
 30
0.0
 10
18.73476953200718
 20
-23.10538935407416
 30
0.0
 10
18.78475833738939
 20
-22.90981247987309
 30
0.0
 10
18.8096653062524
 20
-22.82665257359861
 30
0.0
 10
18.8221405410159
 20
-22.78500000000001
 30
0.0
  0
SPLINE
  5
29C
330
1F
100
AcDbEntity
  8
SK3
  6
HIDDEN
370
    18
100
AcDbSpline
210
0.0
220
0.0
230
1.0
 70
     8
 71
     3
 72
    18
 73
    14
 74
     0
 42
0.000000001
 43
0.00000001
 40
0.0
 40
0.0
 40
0.0
 40
0.0
 40
0.0501963098029712
 40
0.1000307336406854
 40
0.1855664146842544
 40
0.2501823465271885
 40
0.3747058276230383
 40
0.4998230850826695
 40
0.6247271940705535
 40
0.7494244943190791
 40
0.874631805066035
 40
0.9372228004274288
 40
1.0
 40
1.0
 40
1.0
 40
1.0
 10
3.949999999999992
 20
30.04477450406312
 30
0.0
 10
3.943301139411364
 20
30.04461227917157
 30
0.0
 10
3.929951713091639
 20
30.04428899893485
 30
0.0
 10
3.905365016431722
 20
30.04109057546869
 30
0.0
 10
3.879334232351577
 20
30.03483171453545
 30
0.0
 10
3.845006492400837
 20
30.02184739616625
 30
0.0
 10
3.808268733953482
 20
30.00101010261463
 30
0.0
 10
3.770350738149892
 20
29.96797253224185
 30
0.0
 10
3.73959046355035
 20
29.92817003167723
 30
0.0
 10
3.716934682514202
 20
29.8832537379748
 30
0.0
 10
3.705476759657779
 20
29.84291570563567
 30
0.0
 10
3.700675312196546
 20
29.8097707773932
 30
0.0
 10
3.700225326847093
 20
29.79303858424371
 30
0.0
 10
3.699999999999995
 20
29.78466006185064
 30
0.0
  0
SPLINE
  5
29D
330
1F
100
AcDbEntity
  8
1
  6
HIDDEN
370
    18
100
AcDbSpline
210
0.0
220
0.0
230
1.0
 70
     8
 71
     3
 72
     8
 73
     4
 74
     0
 42
0.000000001
 43
0.00000001
 40
0.0
 40
0.0
 40
0.0
 40
0.0
 40
1.0
 40
1.0
 40
1.0
 40
1.0
 10
9.199999999999973
 20
27.80504563417289
 30
0.0
 10
8.785859109372574
 20
28.55213988990603
 30
0.0
 10
8.370727457914576
 20
29.29868029830994
 30
0.0
 10
7.954801979623061
 20
30.04477450406312
 30
0.0
  0
SPLINE
  5
29E
330
1F
100
AcDbEntity
  8
1
  6
HIDDEN
370
    18
100
AcDbSpline
210
0.0
220
0.0
230
1.0
 70
     8
 71
     3
 72
    12
 73
     8
 74
     0
 42
0.000000001
 43
0.00000001
 40
0.0
 40
0.0
 40
0.0
 40
0.0
 40
0.2499999999999984
 40
0.2499999999999984
 40
0.4999999999999969
 40
0.4999999999999969
 40
1.0
 40
1.0
 40
1.0
 40
1.0
 10
9.949999999999976
 20
26.98706356756881
 30
0.0
 10
9.850149452042896
 20
26.9870635675688
 30
0.0
 10
9.748134209428109
 20
27.00887348025308
 30
0.0
 10
9.565410104204533
 20
27.08989258317072
 30
0.0
 10
9.481984824368894
 20
27.14976438531447
 30
0.0
 10
9.277274567403378
 20
27.36818499553367
 30
0.0
 10
9.199999999999973
 20
27.56879736260814
 30
0.0
 10
9.199999999999985
 20
27.76916635406976
 30
0.0
  0
SPLINE
  5
29F
330
1F
100
AcDbEntity
  8
1
  6
HIDDEN
370
    18
100
AcDbSpline
210
0.0
220
0.0
230
1.0
 70
     8
 71
     3
 72
    12
 73
     8
 74
     0
 42
0.000000001
 43
0.00000001
 40
0.0
 40
0.0
 40
0.0
 40
0.0
 40
0.2500000000000007
 40
0.2500000000000007
 40
0.5000000000000014
 40
0.5000000000000014
 40
1.0
 40
1.0
 40
1.0
 40
1.0
 10
13.02999999999998
 20
27.76916635406975
 30
0.0
 10
13.02999999999997
 20
27.66900663339825
 30
0.0
 10
13.01145353522914
 20
27.56910146598284
 30
0.0
 10
12.93858199206006
 20
27.38178244661978
 30
0.0
 10
12.88523035542459
 20
27.29613295246495
 30
0.0
 10
12.67790477657021
 20
27.07503152815011
 30
0.0
 10
12.47994383972982
 20
26.98706356756882
 30
0.0
 10
12.28
 20
26.98706356756881
 30
0.0
  0
SPLINE
  5
2A0
330
1F
100
AcDbEntity
  8
1
  6
HIDDEN
370
    18
100
AcDbSpline
210
0.0
220
0.0
230
1.0
 70
     8
 71
     3
 72
     8
 73
     4
 74
     0
 42
0.000000001
 43
0.00000001
 40
0.0
 40
0.0
 40
0.0
 40
0.0
 40
1.0
 40
1.0
 40
1.0
 40
1.0
 10
14.37601294652259
 20
30.22558142012641
 30
0.0
 10
13.92634937951634
 20
29.41929290832669
 30
0.0
 10
13.47759651810104
 20
28.61249255653033
 30
0.0
 10
13.02999999999997
 20
27.8050456341729
 30
0.0
  0
SPLINE
  5
2A1
330
1F
100
AcDbEntity
  8
SK3
  6
HIDDEN
370
    18
100
AcDbSpline
210
0.0
220
0.0
230
1.0
 70
     8
 71
     3
 72
    39
 73
    35
 74
     0
 42
0.000000001
 43
0.00000001
 40
0.0
 40
0.0
 40
0.0
 40
0.0
 40
0.0314091159442065
 40
0.0626413756376612
 40
0.0875470931839382
 40
0.1248485134442128
 40
0.1532930397746306
 40
0.1960941160849147
 40
0.2176225956126686
 40
0.2499693775110167
 40
0.2785546280895113
 40
0.3212364862757114
 40
0.3425405344427444
 40
0.3745092852214734
 40
0.4029918410136423
 40
0.4459785712029849
 40
0.4675618931248814
 40
0.4997576606203916
 40
0.5282368330414405
 40
0.5708480078419864
 40
0.5921584927144613
 40
0.6241883337267599
 40
0.6527986218643236
 40
0.6959401521382859
 40
0.7174023422633403
 40
0.7494519745707853
 40
0.777874114817984
 40
0.8205144520478156
 40
0.8418962929196934
 40
0.8741359270877239
 40
0.8993502287914679
 40
0.9370840486622557
 40
0.9685048718391196
 40
1.0
 40
1.0
 40
1.0
 40
1.0
 10
18.70470837592295
 20
29.8048664484162
 30
0.0
 10
18.70461745050474
 20
29.81165451664821
 30
0.0
 10
18.70443611164484
 20
29.82519243133294
 30
0.0
 10
18.7030673924705
 20
29.84407248732806
 30
0.0
 10
18.70083732168236
 20
29.86414364483711
 30
0.0
 10
18.69775932472524
 20
29.88350232077689
 30
0.0
 10
18.69295261362928
 20
29.90646680356149
 30
0.0
 10
18.68780492946287
 20
29.92585992140353
 30
0.0
 10
18.68147754368058
 20
29.94577289592932
 30
0.0
 10
18.67539721360854
 20
29.96253167874563
 30
0.0
 10
18.66680032682438
 20
29.98321247724876
 30
0.0
 10
18.6581310025655
 20
30.0012592012907
 30
0.0
 10
18.64825262340663
 20
30.01949347970442
 30
0.0
 10
18.63920745463436
 20
30.03467909137568
 30
0.0
 10
18.62688887689654
 20
30.05333813436122
 30
0.0
 10
18.61489124088894
 20
30.06949727635208
 30
0.0
 10
18.60159845412925
 20
30.08564291750622
 30
0.0
 10
18.58972941311377
 20
30.09888745034442
 30
0.0
 10
18.57405327144846
 20
30.11478428936973
 30
0.0
 10
18.55924842618878
 20
30.12820969342938
 30
0.0
 10
18.54319629827198
 20
30.14133910438132
 30
0.0
 10
18.52901923988711
 20
30.15196687700655
 30
0.0
 10
18.51043459495216
 20
30.16453169957572
 30
0.0
 10
18.49310663658903
 20
30.17484079885773
 30
0.0
 10
18.47461960137992
 20
30.18456719915737
 30
0.0
 10
18.45859702449437
 20
30.19212379628883
 30
0.0
 10
18.43799316490223
 20
30.20062541632251
 30
0.0
 10
18.41909470923506
 20
30.20716046790199
 30
0.0
 10
18.3991013046076
 20
30.21291485347462
 30
0.0
 10
18.38252745622382
 20
30.21689673569121
 30
0.0
 10
18.3623163149297
 20
30.22075196995712
 30
0.0
 10
18.3420970862921
 20
30.22350139123367
 30
0.0
 10
18.32040459080968
 20
30.22527230592968
 30
0.0
 10
18.3068068833238
 20
30.2254783009661
 30
0.0
 10
18.3
 20
30.2255814201264
 30
0.0
  0
SPLINE
  5
2A2
330
1F
100
AcDbEntity
  8
SK3
  6
HIDDEN
370
    18
100
AcDbSpline
210
0.0
220
0.0
230
1.0
 70
     8
 71
     3
 72
    40
 73
    36
 74
     0
 42
0.000000001
 43
0.00000001
 40
0.0
 40
0.0
 40
0.0
 40
0.0
 40
0.0314214562092674
 40
0.0627294396556873
 40
0.0877405079776389
 40
0.1252752357138251
 40
0.153955143017401
 40
0.1970430872004945
 40
0.2184753383393
 40
0.2505176124162485
 40
0.2789492356114979
 40
0.3216198615371849
 40
0.3430128264260152
 40
0.3752634436059895
 40
0.404001081834077
 40
0.4468656813619575
 40
0.4682159471217018
 40
0.5002096460993697
 40
0.5286754144867042
 40
0.5715400275567679
 40
0.5931009747940021
 40
0.6253883799471951
 40
0.6539191350342038
 40
0.6965914244136395
 40
0.7179237821163504
 40
0.7499746497610916
 40
0.7785976327109302
 40
0.7958543412373662
 40
0.8217160699775703
 40
0.8431552866784875
 40
0.8751886731345979
 40
0.9000580145788795
 40
0.9373794059081074
 40
0.9685930788935365
 40
1.0
 40
1.0
 40
1.0
 40
1.0
 10
3.545291624077153
 20
-29.80486644841631
 30
0.0
 10
3.545382998188056
 20
-29.81165720911908
 30
0.0
 10
3.545565416429194
 20
-29.82521420695152
 30
0.0
 10
3.546935888590893
 20
-29.84413624145824
 30
0.0
 10
3.549182336182216
 20
-29.86429587490819
 30
0.0
 10
3.552288277312934
 20
-29.88377601272794
 30
0.0
 10
3.557146845309914
 20
-29.90689677861089
 30
0.0
 10
3.562342869521712
 20
-29.92637272749291
 30
0.0
 10
3.568688746614962
 20
-29.94625409467277
 30
0.0
 10
3.574746288199313
 20
-29.9628936044453
 30
0.0
 10
3.58331801587834
 20
-29.98347507323377
 30
0.0
 10
3.591991842884915
 20
-30.00150156095902
 30
0.0
 10
3.601918801069385
 20
-30.01979806533861
 30
0.0
 10
3.611048040550997
 20
-30.03509140773564
 30
0.0
 10
3.623442192389247
 20
-30.05380829652554
 30
0.0
 10
3.635450280736903
 20
-30.06993269125349
 30
0.0
 10
3.648685588756361
 20
-30.08596974088608
 30
0.0
 10
3.660501878683025
 20
-30.09913131497211
 30
0.0
 10
3.676193825595752
 20
-30.1150242670003
 30
0.0
 10
3.691090157391496
 20
-30.12850730077434
 30
0.0
 10
3.7072874686805
 20
-30.14171942684271
 30
0.0
 10
3.721557155514449
 20
-30.15237851487327
 30
0.0
 10
3.740113900826708
 20
-30.16487232196159
 30
0.0
 10
3.757329300055442
 20
-30.17508286347988
 30
0.0
 10
3.775712091862268
 20
-30.18473030590521
 30
0.0
 10
3.791754478789308
 20
-30.19228074625222
 30
0.0
 10
3.807335015181212
 20
-30.19868972957027
 30
0.0
 10
3.821886008381903
 20
-30.20404456818148
 30
0.0
 10
3.8351457855368
 20
-30.20839653441772
 30
0.0
 10
3.851633642710864
 20
-30.21310571516109
 30
0.0
 10
3.868110946320322
 20
-30.21703138497997
 30
0.0
 10
3.888122963876792
 20
-30.22081894468993
 30
0.0
 10
3.90813770636357
 20
-30.22352294289788
 30
0.0
 10
3.929678169943468
 20
-30.22527486756793
 30
0.0
 10
3.943212134639759
 20
-30.2254790259283
 30
0.0
 10
3.949999999999995
 20
-30.22558142012643
 30
0.0
  0
SPLINE
  5
2A3
330
1F
100
AcDbEntity
  8
SK3
  6
HIDDEN
370
    18
100
AcDbSpline
210
0.0
220
0.0
230
1.0
 70
     8
 71
     3
 72
    40
 73
    36
 74
     0
 42
0.000000001
 43
0.00000001
 40
0.0
 40
0.0
 40
0.0
 40
0.0
 40
0.015762086527891
 40
0.0314960050573459
 40
0.062914544896566
 40
0.0880596336145881
 40
0.1258579754527126
 40
0.1545334726036485
 40
0.1972647209403292
 40
0.218579319036886
 40
0.2505507632377332
 40
0.2790306814910209
 40
0.3220156937916107
 40
0.3436068262871959
 40
0.3758095185784766
 40
0.4042902793695937
 40
0.4469020883668502
 40
0.468212970496555
 40
0.5002424063137104
 40
0.5288478527660824
 40
0.5719777423352412
 40
0.5934400946885735
 40
0.62549209643913
 40
0.6539125319991516
 40
0.696528108538387
 40
0.7178835076858027
 40
0.7500301715128073
 40
0.7787770208096696
 40
0.8217643550653262
 40
0.8431488794963021
 40
0.8751527530618837
 40
0.9000190085633916
 40
0.9373592433858144
 40
0.9685910516311569
 40
1.0
 40
1.0
 40
1.0
 40
1.0
 10
18.3
 20
-30.20070805372417
 30
0.0
 10
18.30287324888559
 20
-30.20068623614204
 30
0.0
 10
18.30861461195143
 20
-30.20064263996739
 30
0.0
 10
18.32007501969322
 20
-30.20017716874266
 30
0.0
 10
18.33322000319659
 20
-30.19915138774155
 30
0.0
 10
18.35028955142974
 20
-30.19699835050785
 30
0.0
 10
18.36673986499718
 20
-30.1940474367577
 30
0.0
 10
18.38611630937897
 20
-30.18946013715968
 30
0.0
 10
18.40232073780349
 20
-30.18459851852614
 30
0.0
 10
18.41879972444349
 20
-30.17869464543968
 30
0.0
 10
18.43260481723376
 20
-30.1730557758518
 30
0.0
 10
18.44969207984833
 20
-30.16507270581114
 30
0.0
 10
18.46463081676093
 20
-30.15700350810928
 30
0.0
 10
18.47969593607747
 20
-30.14782015652607
 30
0.0
 10
18.49215813263515
 20
-30.13946300055031
 30
0.0
 10
18.5072704955266
 20
-30.12822278259338
 30
0.0
 10
18.5202085671778
 20
-30.11741430691134
 30
0.0
 10
18.53304597660876
 20
-30.10553187608199
 30
0.0
 10
18.5435790655811
 20
-30.09493033575608
 30
0.0
 10
18.55625885609205
 20
-30.08088838221876
 30
0.0
 10
18.5669305815616
 20
-30.06765103947421
 30
0.0
 10
18.57728943014592
 20
-30.0533992526527
 30
0.0
 10
18.5855671341825
 20
-30.04095938133861
 30
0.0
 10
18.59524358506742
 20
-30.02484560177678
 30
0.0
 10
18.60312298205155
 20
-30.00994534801967
 30
0.0
 10
18.61055255417111
 20
-29.99407578435732
 30
0.0
 10
18.61635699551464
 20
-29.9802450982587
 30
0.0
 10
18.62287695165056
 20
-29.96246219070747
 30
0.0
 10
18.62785603205844
 20
-29.9462204596222
 30
0.0
 10
18.63219123409151
 20
-29.92919406682881
 30
0.0
 10
18.63515741927736
 20
-29.91523515175275
 30
0.0
 10
18.63801630753128
 20
-29.89829818993248
 30
0.0
 10
18.64005470393608
 20
-29.88138034474905
 30
0.0
 10
18.64137355885304
 20
-29.8631938499636
 30
0.0
 10
18.64152713839366
 20
-29.85177444207324
 30
0.0
 10
18.64160414531572
 20
-29.84604859180869
 30
0.0
  0
SPLINE
  5
2A4
330
1F
100
AcDbEntity
  8
1
  6
HIDDEN
370
    18
100
AcDbSpline
210
0.0
220
0.0
230
1.0
 70
     8
 71
     3
 72
     8
 73
     4
 74
     0
 42
0.000000001
 43
0.00000001
 40
0.0
 40
0.0
 40
0.0
 40
0.0
 40
1.0
 40
1.0
 40
1.0
 40
1.0
 10
14.36214156145377
 20
-30.20070805372051
 30
0.0
 10
13.91711184429721
 20
-29.40268446242037
 30
0.0
 10
13.47298490654719
 20
-28.60417338646155
 30
0.0
 10
13.02999999999997
 20
-27.8050456341729
 30
0.0
  0
SPLINE
  5
2A5
330
1F
100
AcDbEntity
  8
1
  6
HIDDEN
370
    18
100
AcDbSpline
210
0.0
220
0.0
230
1.0
 70
     8
 71
     3
 72
    10
 73
     6
 74
     0
 42
0.000000001
 43
0.00000001
 40
0.0
 40
0.0
 40
0.0
 40
0.0
 40
0.5
 40
0.5
 40
1.0
 40
1.0
 40
1.0
 40
1.0
 10
13.02999999999999
 20
-27.76916635406975
 30
0.0
 10
13.02999999999998
 20
-27.5694896072665
 30
0.0
 10
12.95302573325509
 20
-27.36838646497958
 30
0.0
 10
12.67905057581468
 20
-27.07630005005162
 30
0.0
 10
12.48172757240074
 20
-26.98706356756883
 30
0.0
 10
12.28
 20
-26.98706356756882
 30
0.0
  0
SPLINE
  5
2A6
330
1F
100
AcDbEntity
  8
1
  6
HIDDEN
370
    18
100
AcDbSpline
210
0.0
220
0.0
230
1.0
 70
     8
 71
     3
 72
    10
 73
     6
 74
     0
 42
0.000000001
 43
0.00000001
 40
0.0
 40
0.0
 40
0.0
 40
0.0
 40
0.5
 40
0.5
 40
1.0
 40
1.0
 40
1.0
 40
1.0
 10
9.950000000000292
 20
-26.98706356756847
 30
0.0
 10
9.74844149509109
 20
-26.98706356756839
 30
0.0
 10
9.550692481023749
 20
-27.07656444408125
 30
0.0
 10
9.277196882746752
 20
-27.36815866851898
 30
0.0
 10
9.19999999999993
 20
-27.56927498425088
 30
0.0
 10
9.199999999999985
 20
-27.76916635406976
 30
0.0
  0
SPLINE
  5
2A7
330
1F
100
AcDbEntity
  8
1
  6
HIDDEN
370
    18
100
AcDbSpline
210
0.0
220
0.0
230
1.0
 70
     8
 71
     3
 72
     8
 73
     4
 74
     0
 42
0.000000001
 43
0.00000001
 40
0.0
 40
0.0
 40
0.0
 40
0.0
 40
1.0
 40
1.0
 40
1.0
 40
1.0
 10
9.200000000003275
 20
-27.80504563416696
 30
0.0
 10
8.752412641285998
 20
-28.61247603334794
 30
0.0
 10
8.303659523848955
 20
-29.4192769437663
 30
0.0
 10
7.853987053480685
 20
-30.22558142012046
 30
0.0
  0
SPLINE
  5
2A8
330
1F
100
AcDbEntity
  8
SK3
  6
HIDDEN
370
    18
100
AcDbSpline
210
0.0
220
0.0
230
1.0
 70
     8
 71
     3
 72
    16
 73
    12
 74
     0
 42
0.000000001
 43
0.00000001
 40
0.0
 40
0.0
 40
0.0
 40
0.0
 40
0.1249999999999999
 40
0.1249999999999999
 40
0.2499999999999998
 40
0.2499999999999998
 40
0.4999999999999999
 40
0.4999999999999999
 40
0.75
 40
0.75
 40
1.0
 40
1.0
 40
1.0
 40
1.0
 10
9.199999999999973
 20
9.30378876956338
 30
0.0
 10
9.199999999999973
 20
9.280761531707885
 30
0.0
 10
9.209309779240172
 20
9.232007419477176
 30
0.0
 10
9.236285539089922
 20
9.125870295800746
 30
0.0
 10
9.25381839599404
 20
9.068356204019967
 30
0.0
 10
9.314732612350815
 20
8.895643978115874
 30
0.0
 10
9.367586350542439
 20
8.777272110505704
 30
0.0
 10
9.493923269647556
 20
8.553355042042236
 30
0.0
 10
9.568606186754744
 20
8.44500635814012
 30
0.0
 10
9.743190718990297
 20
8.245244826690847
 30
0.0
 10
9.840260492227277
 20
8.156535605592422
 30
0.0
 10
9.949999999999973
 20
8.082527102484693
 30
0.0
  0
SPLINE
  5
2A9
330
1F
100
AcDbEntity
  8
SK3
  6
HIDDEN
370
    18
100
AcDbSpline
210
0.0
220
0.0
230
1.0
 70
     8
 71
     3
 72
    18
 73
    14
 74
     0
 42
0.000000001
 43
0.00000001
 40
0.0
 40
0.0
 40
0.0
 40
0.0
 40
0.2500000000000007
 40
0.2500000000000007
 40
0.5000000000000014
 40
0.5000000000000014
 40
0.7500000000000022
 40
0.7500000000000022
 40
0.8750000000000014
 40
0.8750000000000014
 40
0.9375000000000007
 40
0.9375000000000007
 40
1.0
 40
1.0
 40
1.0
 40
1.0
 10
12.28
 20
8.103155772047115
 30
0.0
 10
12.39154339480306
 20
8.181349543436903
 30
0.0
 10
12.49076613158666
 20
8.275845749096934
 30
0.0
 10
12.66653346245911
 20
8.486474114480933
 30
0.0
 10
12.74028542340612
 20
8.599065714166167
 30
0.0
 10
12.86605076853516
 20
8.835534986684733
 30
0.0
 10
12.91749996660363
 20
8.95927947194551
 30
0.0
 10
12.97688531868162
 20
9.14283182516222
 30
0.0
 10
12.99394905986488
 20
9.204558663820743
 30
0.0
 10
13.01360803438727
 20
9.290027034787387
 30
0.0
 10
13.01926149413285
 20
9.317714122407228
 30
0.0
 10
13.02752275857842
 20
9.366286389052798
 30
0.0
 10
13.02999999999999
 20
9.38671613887547
 30
0.0
 10
13.02999999999999
 20
9.398437513083211
 30
0.0
  0
SPLINE
  5
2AA
330
1F
100
AcDbEntity
  8
SK3
  6
HIDDEN
370
    18
100
AcDbSpline
210
0.0
220
0.0
230
1.0
 70
     8
 71
     3
 72
    18
 73
    14
 74
     0
 42
0.000000001
 43
0.00000001
 40
0.0
 40
0.0
 40
0.0
 40
0.0
 40
0.0625000000000009
 40
0.0625000000000009
 40
0.1250000000000017
 40
0.1250000000000017
 40
0.2500000000000019
 40
0.2500000000000019
 40
0.5000000000000012
 40
0.5000000000000012
 40
0.7500000000000007
 40
0.7500000000000007
 40
1.0
 40
1.0
 40
1.0
 40
1.0
 10
13.02999999999997
 20
10.38417462438832
 30
0.0
 10
13.02999999999997
 20
10.372411200402
 30
0.0
 10
13.0274948903811
 20
10.36938679509589
 30
0.0
 10
13.01920268672194
 20
10.37536927720196
 30
0.0
 10
13.01359186100896
 20
10.38360736575741
 30
0.0
 10
12.99361738711072
 20
10.41560030302727
 30
0.0
 10
12.97668865169188
 20
10.4454332222825
 30
0.0
 10
12.91737158574147
 20
10.54090443328278
 30
0.0
 10
12.86564177103881
 20
10.6144598570172
 30
0.0
 10
12.74049543384618
 20
10.76120518468433
 30
0.0
 10
12.66639130892092
 20
10.83623705695025
 30
0.0
 10
12.49025684705968
 20
10.98857400791363
 30
0.0
 10
12.39180028213033
 20
11.06283357178406
 30
0.0
 10
12.27999999999999
 20
11.13799925726246
 30
0.0
  0
SPLINE
  5
2AB
330
1F
100
AcDbEntity
  8
SK3
  6
HIDDEN
370
    18
100
AcDbSpline
210
0.0
220
0.0
230
1.0
 70
     8
 71
     3
 72
    16
 73
    12
 74
     0
 42
0.000000001
 43
0.00000001
 40
0.0
 40
0.0
 40
0.0
 40
0.0
 40
0.2499999999999987
 40
0.2499999999999987
 40
0.4999999999999973
 40
0.4999999999999973
 40
0.749999999999996
 40
0.749999999999996
 40
0.874999999999998
 40
0.874999999999998
 40
1.0
 40
1.0
 40
1.0
 40
1.0
 10
9.949999999999958
 20
11.15777798540496
 30
0.0
 10
9.840493351281038
 20
11.08698911899253
 30
0.0
 10
9.742786160772162
 20
11.01664378906015
 30
0.0
 10
9.567840382589413
 20
10.87358670269526
 30
0.0
 10
9.493988254027224
 20
10.80374458803082
 30
0.0
 10
9.3671150493497
 20
10.66727422246763
 30
0.0
 10
9.31452396506878
 20
10.60005352016952
 30
0.0
 10
9.253446937618357
 20
10.51641621800045
 30
0.0
 10
9.2358933031233
 20
10.49108310407083
 30
0.0
 10
9.209102989072363
 20
10.45967309436366
 30
0.0
 10
9.199999999999958
 20
10.45461887804601
 30
0.0
 10
9.199999999999958
 20
10.47746447674695
 30
0.0
  0
SPLINE
  5
2AC
330
1F
100
AcDbEntity
  8
SK3
  6
HIDDEN
370
    18
100
AcDbSpline
210
0.0
220
0.0
230
1.0
 70
     8
 71
     3
 72
    34
 73
    30
 74
     0
 42
0.000000001
 43
0.00000001
 40
0.4999999999999964
 40
0.4999999999999964
 40
0.4999999999999964
 40
0.4999999999999964
 40
0.5624999999999961
 40
0.5624999999999961
 40
0.5937499999999962
 40
0.5937499999999962
 40
0.6249999999999963
 40
0.6249999999999963
 40
0.6562499999999964
 40
0.6562499999999964
 40
0.6874999999999966
 40
0.6874999999999966
 40
0.7499999999999971
 40
0.7499999999999971
 40
0.7812499999999974
 40
0.7812499999999974
 40
0.8124999999999978
 40
0.8124999999999978
 40
0.8437499999999982
 40
0.8437499999999982
 40
0.8749999999999986
 40
0.8749999999999986
 40
0.9062499999999989
 40
0.9062499999999989
 40
0.9374999999999992
 40
0.9374999999999992
 40
0.9687499999999997
 40
0.9687499999999997
 40
1.0
 40
1.0
 40
1.0
 40
1.0
 10
10.43489457346451
 20
9.192707275454424
 30
0.0
 10
10.57763203931583
 20
9.178391047657614
 30
0.0
 10
10.73072898252594
 20
9.148788373493296
 30
0.0
 10
11.00846457422353
 20
9.079848161145557
 30
0.0
 10
11.10872720463398
 20
9.052921739824741
 30
0.0
 10
11.33151412887493
 20
8.987194762961344
 30
0.0
 10
11.4528847494719
 20
8.948740399015179
 30
0.0
 10
11.69975803299394
 20
8.855687905200401
 30
0.0
 10
11.82369929941915
 20
8.80103390362743
 30
0.0
 10
12.05254486308012
 20
8.67406723807662
 30
0.0
 10
12.15835137945199
 20
8.601647149158662
 30
0.0
 10
12.44326053814743
 20
8.354209612853914
 30
0.0
 10
12.58579742123002
 20
8.15109493572383
 30
0.0
 10
12.7089524147273
 20
7.809142101035407
 30
0.0
 10
12.73535560308828
 20
7.68700358996962
 30
0.0
 10
12.75526974501039
 20
7.441164323332049
 30
0.0
 10
12.74937513382361
 20
7.315281863556504
 30
0.0
 10
12.70533810945411
 20
7.063941193639976
 30
0.0
 10
12.66802095968712
 20
6.941631000096433
 30
0.0
 10
12.56344952904384
 20
6.704179749394003
 30
0.0
 10
12.49625932456626
 20
6.590217548379691
 30
0.0
 10
12.33809446794182
 20
6.382378293731284
 30
0.0
 10
12.24493473983124
 20
6.285873995051213
 30
0.0
 10
12.04054915126637
 20
6.12215655334418
 30
0.0
 10
11.9293214784509
 20
6.054026580940134
 30
0.0
 10
11.68736550523704
 20
5.952992896783506
 30
0.0
 10
11.56181201416266
 20
5.923411177353247
 30
0.0
 10
11.31821027169286
 20
5.909336941584402
 30
0.0
 10
11.20410590689121
 20
5.92457719151207
 30
0.0
 10
11.09999999999999
 20
5.953410618658256
 30
0.0
  0
SPLINE
  5
2AD
330
1F
100
AcDbEntity
  8
SK3
  6
HIDDEN
370
    18
100
AcDbSpline
210
0.0
220
0.0
230
1.0
 70
     8
 71
     3
 72
    32
 73
    28
 74
     0
 42
0.000000001
 43
0.00000001
 40
0.0
 40
0.0
 40
0.0
 40
0.0
 40
0.0312499999999998
 40
0.0312499999999998
 40
0.0624999999999996
 40
0.0624999999999996
 40
0.1249999999999991
 40
0.1249999999999991
 40
0.1874999999999986
 40
0.1874999999999986
 40
0.2187499999999983
 40
0.2187499999999983
 40
0.2499999999999979
 40
0.2499999999999979
 40
0.2812499999999978
 40
0.2812499999999978
 40
0.3124999999999976
 40
0.3124999999999976
 40
0.3437499999999974
 40
0.3437499999999974
 40
0.3749999999999972
 40
0.3749999999999972
 40
0.406249999999997
 40
0.406249999999997
 40
0.4374999999999968
 40
0.4374999999999968
 40
0.4999999999999964
 40
0.4999999999999964
 40
0.4999999999999964
 40
0.4999999999999964
 10
11.09999999999999
 20
5.953410618658256
 30
0.0
 10
10.99589409310878
 20
5.982244045804441
 30
0.0
 10
10.90407857642196
 20
6.02310328637358
 30
0.0
 10
10.73262137377525
 20
6.118240725872817
 30
0.0
 10
10.65318813797002
 20
6.172784121821907
 30
0.0
 10
10.42547236553633
 20
6.352355611395091
 30
0.0
 10
10.29042057236915
 20
6.490344336420449
 30
0.0
 10
10.03758703563626
 20
6.798492095359348
 30
0.0
 10
9.919813607757941
 20
6.968691620995678
 30
0.0
 10
9.755188160048098
 20
7.264657280293574
 30
0.0
 10
9.702965925809062
 20
7.369529169307637
 30
0.0
 10
9.608196888300558
 20
7.590905988961221
 30
0.0
 10
9.564891013149543
 20
7.708630023759016
 30
0.0
 10
9.493588627253455
 20
7.962877344356856
 30
0.0
 10
9.466892276768446
 20
8.097433676092724
 30
0.0
 10
9.444811777617259
 20
8.357466636459767
 30
0.0
 10
9.450063840888214
 20
8.483405619809343
 30
0.0
 10
9.490124926315847
 20
8.69644691367029
 30
0.0
 10
9.52324424207411
 20
8.782864284801864
 30
0.0
 10
9.60424790380461
 20
8.925144266749472
 30
0.0
 10
9.65074356746913
 20
8.979230676614131
 30
0.0
 10
9.751569607309607
 20
9.067142795898944
 30
0.0
 10
9.806244160784544
 20
9.100654189155017
 30
0.0
 10
9.919291731587856
 20
9.151642126956085
 30
0.0
 10
9.97803823187328
 20
9.16939920542545
 30
0.0
 10
10.16095206270197
 20
9.205547608603668
 30
0.0
 10
10.29215710761319
 20
9.207023503251241
 30
0.0
 10
10.43489457346451
 20
9.192707275454424
 30
0.0
  0
SPLINE
  5
2AE
330
1F
100
AcDbEntity
  8
SK3
  6
HIDDEN
370
    18
100
AcDbSpline
210
0.0
220
0.0
230
1.0
 70
     8
 71
     3
 72
    12
 73
     8
 74
     0
 42
0.000000001
 43
0.00000001
 40
0.0
 40
0.0
 40
0.0
 40
0.0
 40
0.25
 40
0.25
 40
0.5
 40
0.5
 40
1.0
 40
1.0
 40
1.0
 40
1.0
 10
12.27999999999999
 20
11.13799925726246
 30
0.0
 10
12.11125565653782
 20
11.2514496350723
 30
0.0
 10
11.92801760594608
 20
11.33794668549179
 30
0.0
 10
11.53284005751184
 20
11.45825687335295
 30
0.0
 10
11.32774190386501
 20
11.48947964384769
 30
0.0
 10
10.70517895587086
 20
11.49524154214284
 30
0.0
 10
10.29199014189866
 20
11.37885218274776
 30
0.0
 10
9.949999999999958
 20
11.15777798540496
 30
0.0
  0
SPLINE
  5
2AF
330
1F
100
AcDbEntity
  8
SK3
  6
HIDDEN
370
    18
100
AcDbSpline
210
0.0
220
0.0
230
1.0
 70
     8
 71
     3
 72
    12
 73
     8
 74
     0
 42
0.000000001
 43
0.00000001
 40
0.0
 40
0.0
 40
0.0
 40
0.0
 40
0.2500000000000008
 40
0.2500000000000008
 40
0.5000000000000012
 40
0.5000000000000012
 40
1.0
 40
1.0
 40
1.0
 40
1.0
 10
9.949999999999973
 20
8.082527102484693
 30
0.0
 10
10.1209934826938
 20
7.967208818739898
 30
0.0
 10
10.30594493731545
 20
7.879731262869657
 30
0.0
 10
10.70348914958043
 20
7.760383553083429
 30
0.0
 10
10.90918343641378
 20
7.731119116156454
 30
0.0
 10
11.53176214943037
 20
7.736133742822691
 30
0.0
 10
11.94250893135801
 20
7.866568930539517
 30
0.0
 10
12.28
 20
8.103155772047115
 30
0.0
  0
SPLINE
  5
2B0
330
1F
100
AcDbEntity
  8
SK3
  6
HIDDEN
370
    18
100
AcDbSpline
210
0.0
220
0.0
230
1.0
 70
     8
 71
     3
 72
    14
 73
    10
 74
     0
 42
0.000000001
 43
0.00000001
 40
0.0
 40
0.0
 40
0.0
 40
0.0
 40
0.25
 40
0.25
 40
0.5
 40
0.5
 40
0.75
 40
0.75
 40
1.0
 40
1.0
 40
1.0
 40
1.0
 10
13.02999999999999
 20
9.410221117500207
 30
0.0
 10
13.05182784069894
 20
9.499127546579674
 30
0.0
 10
13.06930451588748
 20
9.588740564852795
 30
0.0
 10
13.09355241467168
 20
9.769704487550394
 30
0.0
 10
13.09996413738389
 20
9.859921097983781
 30
0.0
 10
13.10003555457991
 20
10.03096768473383
 30
0.0
 10
13.09360869858514
 20
10.11404446054864
 30
0.0
 10
13.06953031995427
 20
10.26472906509777
 30
0.0
 10
13.05190366619462
 20
10.3336972182947
 30
0.0
 10
13.02999999999997
 20
10.39595822880533
 30
0.0
  0
SPLINE
  5
2B1
330
1F
100
AcDbEntity
  8
SK3
  6
HIDDEN
370
    18
100
AcDbSpline
210
0.0
220
0.0
230
1.0
 70
     8
 71
     3
 72
    14
 73
    10
 74
     0
 42
0.000000001
 43
0.00000001
 40
0.0
 40
0.0
 40
0.0
 40
0.0
 40
0.25
 40
0.25
 40
0.5
 40
0.5
 40
0.75
 40
0.75
 40
1.0
 40
1.0
 40
1.0
 40
1.0
 10
9.199999999999958
 20
10.48924888968604
 30
0.0
 10
9.169610391133066
 20
10.42105537394625
 30
0.0
 10
9.144652419510319
 20
10.34409709357478
 30
0.0
 10
9.109411114929966
 20
10.16642137037779
 30
0.0
 10
9.100075894725224
 20
10.06977207930072
 30
0.0
 10
9.099925023949892
 20
9.860682723735726
 30
0.0
 10
9.109375914768888
 20
9.750504302607016
 30
0.0
 10
9.14427272266384
 20
9.530820347913819
 30
0.0
 10
9.169555752624237
 20
9.421334443378296
 30
0.0
 10
9.199999999999973
 20
9.315573182502499
 30
0.0
  0
DIMENSION
  5
2B2
330
1F
100
AcDbEntity
  8
SK2
100
AcDbDimension
  2
_D
 10
-84.0365026059
 20
-22.225
 30
0.0
 11
-84.0365026059
 21
-0.8435423691
 31
0.0
 70
   160
  1
%%c<>
 71
     2
 42
-1.0
  3
SLDDIMSTYLE0
100
AcDbAlignedDimension
 13
0.0
 23
22.225
 33
0.0
 14
0.0
 24
-22.225
 34
0.0
 50
90.0
100
AcDbRotatedDimension
  0
DIMENSION
  5
2BF
330
1F
100
AcDbEntity
  8
SK2
100
AcDbDimension
  2
_D_1
 10
-74.8256398418
 20
7.9375
 30
0.0
 11
-74.8256398418
 21
0.0342109166
 31
0.0
 70
   160
  1
3/8 - 11 UNC
 71
     2
 42
-1.0
  3
SLDDIMSTYLE1
100
AcDbAlignedDimension
 13
-63.3082382949
 23
-7.9375
 33
0.0
 14
-63.3082382949
 24
7.9375
 34
0.0
 50
90.0
100
AcDbRotatedDimension
  0
DIMENSION
  5
2CD
330
1F
100
AcDbEntity
  8
SK2
100
AcDbDimension
  2
_D_2
 10
-93.4978461014
 20
-30.5579086614
 30
0.0
 11
-93.4978461014
 21
-0.8435423691
 31
0.0
 70
   160
  1
%%c<>
 71
     2
 42
-1.0
  3
SLDDIMSTYLE0
100
AcDbAlignedDimension
 13
3.95
 23
30.5254908961
 33
0.0
 14
3.95
 24
-30.5579086614
 34
0.0
 50
90.0
100
AcDbRotatedDimension
  0
DIMENSION
  5
2D8
330
1F
100
AcDbEntity
  8
SK2
100
AcDbDimension
  2
_D_3
 10
19.05
 20
37.6871923606
 30
0.0
 11
9.7735990133
 21
37.6871923606
 31
0.0
 70
   160
  1
<>
 71
     2
 42
-1.0
  3
SLDDIMSTYLE0
100
AcDbAlignedDimension
 13
0.0
 23
22.225
 33
0.0
 14
19.05
 24
29.8048664484
 34
0.0
100
AcDbRotatedDimension
  0
DIMENSION
  5
2E2
330
1F
100
AcDbEntity
  8
SK2
100
AcDbDimension
  2
_D_4
 10
101.6
 20
37.6871923606
 30
0.0
 11
60.0501023557
 21
37.6871923606
 31
0.0
 70
   160
  1
<>
 71
     2
 42
-1.0
  3
SLDDIMSTYLE2
100
AcDbAlignedDimension
 13
19.05
 23
29.8048664484
 33
0.0
 14
101.6
 24
21.209
 34
0.0
100
AcDbRotatedDimension
  0
DIMENSION
  5
2F6
330
1F
100
AcDbEntity
  8
SK2
100
AcDbDimension
  2
_D_5
 10
119.05
 20
37.6871923606
 30
0.0
 11
110.064171894
 21
37.6871923606
 31
0.0
 70
   160
  1
<>
 71
     2
 42
-1.0
  3
SLDDIMSTYLE2
100
AcDbAlignedDimension
 13
101.6
 23
21.209
 33
0.0
 14
119.05
 24
8.6539745962
 34
0.0
 50
0.0
100
AcDbRotatedDimension
  0
DIMENSION
  5
309
330
1F
100
AcDbEntity
  8
2
100
AcDbDimension
  2
_D_6
 10
101.6
 20
51.455901495
 30
0.0
 11
51.5834462579
 21
51.455901495
 31
0.0
 70
   160
  1
<>
 71
     2
 42
-1.0
  3
SLDDIMSTYLE2
100
AcDbAlignedDimension
 13
0.0
 23
22.225
 33
0.0
 14
101.6
 24
21.209
 34
0.0
100
AcDbRotatedDimension
  0
DIMENSION
  5
31C
330
1F
100
AcDbEntity
  8
SK2
100
AcDbDimension
  2
_D_7
 10
163.2049740282
 20
22.225
 30
0.0
 11
163.2049740282
 21
0.8338732168
 31
0.0
 70
   160
  1
%%c<>
 71
     2
 42
-1.0
  3
SLDDIMSTYLE2
100
AcDbAlignedDimension
 13
100.584
 23
-22.225
 33
0.0
 14
100.584
 24
22.225
 34
0.0
 50
90.0
100
AcDbRotatedDimension
  0
DIMENSION
  5
32E
330
1F
100
AcDbEntity
  8
SK2
100
AcDbDimension
  2
_D_8
 10
147.5291021508
 20
-9.52
 30
0.0
 11
147.5291021508
 21
0.8338732168
 31
0.0
 70
   160
  1
<>
 71
     2
 42
-1.0
  3
SLDDIMSTYLE2
100
AcDbAlignedDimension
 13
117.55
 23
9.52
 33
0.0
 14
117.55
 24
-9.52
 34
0.0
 50
90.0
100
AcDbRotatedDimension
  0
DIMENSION
  5
341
330
1F
100
AcDbEntity
  8
SK2
100
AcDbDimension
  2
_D_9
 10
119.05
 20
-43.9272465937
 30
0.0
 11
24.1818795869
 21
-43.9272465937
 31
0.0
 70
   160
  1
<>
 71
     2
 42
-1.0
  3
SLDDIMSTYLE2
100
AcDbAlignedDimension
 13
-68.25
 23
-11.1476148288
 33
0.0
 14
119.05
 24
-8.6539745962
 34
0.0
 50
0.0
100
AcDbRotatedDimension
  0
MTEXT
  5
354
330
1F
100
AcDbEntity
  8
SK6
 62
     5
100
AcDbMText
 10
-46.3937055032
 20
42.6000629917
 30
0.0
 40
3.5
 41
0.0
 71
     1
 72
     1
  1
ASME B5.50 CAT 40
  7
SLDTEXTSTYLE0
 73
     1
 44
1.0
  0
MTEXT
  5
355
330
1F
100
AcDbEntity
  8
SK6
 62
     5
100
AcDbMText
 10
-67.2704295591
 20
-48.5400885678
 30
0.0
 40
3.5
 41
0.0
 71
     1
 72
     1
  1
AA3B05-40 19 101
  7
SLDTEXTSTYLE0
 73
     1
 44
1.0
  0
ENDSEC
  0
SECTION
  2
OBJECTS
  0
DICTIONARY
  5
C
330
0
100
AcDbDictionary
281
     1
  3
ACAD_GROUP
350
D
  3
ACAD_LAYOUT
350
1A
  3
ACAD_MLINESTYLE
350
17
  3
ACAD_PLOTSETTINGS
350
19
  3
ACAD_PLOTSTYLENAME
350
E
  3
ACAD_SCALELIST
350
47
  0
DICTIONARY
  5
D
102
{ACAD_REACTORS
330
C
102
}
330
C
100
AcDbDictionary
281
     1
  0
DICTIONARY
  5
1A
102
{ACAD_REACTORS
330
C
102
}
330
C
100
AcDbDictionary
281
     1
  3
Layout1
350
1E
  3
Layout2
350
26
  3
Model
350
22
  0
DICTIONARY
  5
17
102
{ACAD_REACTORS
330
C
102
}
330
C
100
AcDbDictionary
281
     1
  3
Standard
350
18
  0
DICTIONARY
  5
19
102
{ACAD_REACTORS
330
C
102
}
330
C
100
AcDbDictionary
281
     1
  0
ACDBDICTIONARYWDFLT
  5
E
102
{ACAD_REACTORS
330
C
102
}
330
C
100
AcDbDictionary
281
     1
  3
Normal
350
F
100
AcDbDictionaryWithDefault
340
F
  0
DICTIONARY
  5
47
102
{ACAD_REACTORS
330
C
102
}
330
C
100
AcDbDictionary
281
     1
  3
A0
350
48
  3
A1
350
49
  3
A2
350
4A
  3
A3
350
4B
  3
A4
350
4C
  3
A5
350
4D
  3
A6
350
4E
  3
A7
350
4F
  3
A8
350
50
  3
A9
350
51
  3
B0
350
52
  3
B1
350
53
  3
B2
350
54
  3
B3
350
55
  3
B4
350
56
  3
B5
350
57
  3
B6
350
58
  3
B7
350
59
  3
B8
350
5A
  3
B9
350
5B
  3
C0
350
5C
  3
C1
350
5D
  3
C2
350
5E
  3
C3
350
5F
  3
C4
350
60
  3
C5
350
61
  3
C6
350
62
  3
C7
350
63
  3
C8
350
64
  3
C9
350
65
  3
D0
350
66
  3
D1
350
67
  3
D2
350
68
  0
LAYOUT
  5
1E
102
{ACAD_REACTORS
330
1A
102
}
330
1A
100
AcDbPlotSettings
  1

  2
none_device
  4

  6

 40
0.0
 41
0.0
 42
0.0
 43
0.0
 44
0.0
 45
0.0
 46
0.0
 47
0.0
 48
0.0
 49
0.0
140
0.0
141
0.0
142
1.0
143
1.0
 70
   688
 72
     1
 73
     0
 74
     5
  7

 75
    16
147
1.0
148
0.0
149
0.0
100
AcDbLayout
  1
Layout1
 70
     1
 71
     1
 10
0.0
 20
0.0
 11
420.0
 21
297.0
 12
0.0
 22
0.0
 32
0.0
 14
1.0000000000E+20
 24
1.0000000000E+20
 34
1.0000000000E+20
 15
-1.0000000000E+20
 25
-1.0000000000E+20
 35
-1.0000000000E+20
146
0.0
 13
0.0
 23
0.0
 33
0.0
 16
1.0
 26
0.0
 36
0.0
 17
0.0
 27
1.0
 37
0.0
 76
     0
330
1B
  0
LAYOUT
  5
26
102
{ACAD_REACTORS
330
1A
102
}
330
1A
100
AcDbPlotSettings
  1

  2
none_device
  4

  6

 40
0.0
 41
0.0
 42
0.0
 43
0.0
 44
0.0
 45
0.0
 46
0.0
 47
0.0
 48
0.0
 49
0.0
140
0.0
141
0.0
142
1.0
143
1.0
 70
   688
 72
     1
 73
     0
 74
     5
  7

 75
    16
147
1.0
148
0.0
149
0.0
100
AcDbLayout
  1
Layout2
 70
     1
 71
     2
 10
0.0
 20
0.0
 11
0.0
 21
0.0
 12
0.0
 22
0.0
 32
0.0
 14
0.0
 24
0.0
 34
0.0
 15
0.0
 25
0.0
 35
0.0
146
0.0
 13
0.0
 23
0.0
 33
0.0
 16
1.0
 26
0.0
 36
0.0
 17
0.0
 27
1.0
 37
0.0
 76
     0
330
23
  0
LAYOUT
  5
22
102
{ACAD_REACTORS
330
1A
102
}
330
1A
100
AcDbPlotSettings
  1

  2
none_device
  4
Letter_(8.50_x_11.00_Inches)
  6

 40
6.35
 41
6.35
 42
6.35000508
 43
6.35000508
 44
215.9
 45
279.4
 46
0.0
 47
0.0
 48
0.0
 49
0.0
140
0.0
141
0.0
142
1.0
143
1.0
 70
  1712
 72
     1
 73
     0
 74
     0
  7

 75
     0
147
1.0
148
0.0
149
0.0
100
AcDbLayout
  1
Model
 70
     1
 71
     0
 10
0.0
 20
0.0
 11
297.0
 21
210.0
 12
0.0
 22
0.0
 32
0.0
 14
0.0
 24
0.0
 34
0.0
 15
297.0
 25
210.0
 35
0.0
146
0.0
 13
0.0
 23
0.0
 33
0.0
 16
1.0
 26
0.0
 36
0.0
 17
0.0
 27
1.0
 37
0.0
 76
     0
330
1F
331
29
  0
MLINESTYLE
  5
18
102
{ACAD_REACTORS
330
17
102
}
330
17
100
AcDbMlineStyle
  2
Standard
 70
     0
  3

 62
   256
 51
90.0
 52
90.0
 71
     2
 49
0.5
 62
   256
  6
BYLAYER
 49
-0.5
 62
   256
  6
BYLAYER
  0
ACDBPLACEHOLDER
  5
F
102
{ACAD_REACTORS
330
E
102
}
330
E
  0
SCALE
  5
48
102
{ACAD_REACTORS
330
47
102
}
330
47
100
AcDbScale
 70
     0
300
1:1
140
1.0
141
1.0
290
     1
  0
SCALE
  5
49
102
{ACAD_REACTORS
330
47
102
}
330
47
100
AcDbScale
 70
     0
300
1:2
140
1.0
141
2.0
290
     0
  0
SCALE
  5
4A
102
{ACAD_REACTORS
330
47
102
}
330
47
100
AcDbScale
 70
     0
300
1:4
140
1.0
141
4.0
290
     0
  0
SCALE
  5
4B
102
{ACAD_REACTORS
330
47
102
}
330
47
100
AcDbScale
 70
     0
300
1:5
140
1.0
141
5.0
290
     0
  0
SCALE
  5
4C
102
{ACAD_REACTORS
330
47
102
}
330
47
100
AcDbScale
 70
     0
300
1:8
140
1.0
141
8.0
290
     0
  0
SCALE
  5
4D
102
{ACAD_REACTORS
330
47
102
}
330
47
100
AcDbScale
 70
     0
300
1:10
140
1.0
141
10.0
290
     0
  0
SCALE
  5
4E
102
{ACAD_REACTORS
330
47
102
}
330
47
100
AcDbScale
 70
     0
300
1:16
140
1.0
141
16.0
290
     0
  0
SCALE
  5
4F
102
{ACAD_REACTORS
330
47
102
}
330
47
100
AcDbScale
 70
     0
300
1:20
140
1.0
141
20.0
290
     0
  0
SCALE
  5
50
102
{ACAD_REACTORS
330
47
102
}
330
47
100
AcDbScale
 70
     0
300
1:30
140
1.0
141
30.0
290
     0
  0
SCALE
  5
51
102
{ACAD_REACTORS
330
47
102
}
330
47
100
AcDbScale
 70
     0
300
1:40
140
1.0
141
40.0
290
     0
  0
SCALE
  5
52
102
{ACAD_REACTORS
330
47
102
}
330
47
100
AcDbScale
 70
     0
300
1:50
140
1.0
141
50.0
290
     0
  0
SCALE
  5
53
102
{ACAD_REACTORS
330
47
102
}
330
47
100
AcDbScale
 70
     0
300
1:100
140
1.0
141
100.0
290
     0
  0
SCALE
  5
54
102
{ACAD_REACTORS
330
47
102
}
330
47
100
AcDbScale
 70
     0
300
2:1
140
2.0
141
1.0
290
     0
  0
SCALE
  5
55
102
{ACAD_REACTORS
330
47
102
}
330
47
100
AcDbScale
 70
     0
300
4:1
140
4.0
141
1.0
290
     0
  0
SCALE
  5
56
102
{ACAD_REACTORS
330
47
102
}
330
47
100
AcDbScale
 70
     0
300
8:1
140
8.0
141
1.0
290
     0
  0
SCALE
  5
57
102
{ACAD_REACTORS
330
47
102
}
330
47
100
AcDbScale
 70
     0
300
10:1
140
10.0
141
1.0
290
     0
  0
SCALE
  5
58
102
{ACAD_REACTORS
330
47
102
}
330
47
100
AcDbScale
 70
     0
300
100:1
140
100.0
141
1.0
290
     0
  0
SCALE
  5
59
102
{ACAD_REACTORS
330
47
102
}
330
47
100
AcDbScale
 70
     0
300
1/128" = 1'-0"
140
0.0078125
141
12.0
290
     0
  0
SCALE
  5
5A
102
{ACAD_REACTORS
330
47
102
}
330
47
100
AcDbScale
 70
     0
300
1/64" = 1'-0"
140
0.015625
141
12.0
290
     0
  0
SCALE
  5
5B
102
{ACAD_REACTORS
330
47
102
}
330
47
100
AcDbScale
 70
     0
300
1/32" = 1'-0"
140
0.03125
141
12.0
290
     0
  0
SCALE
  5
5C
102
{ACAD_REACTORS
330
47
102
}
330
47
100
AcDbScale
 70
     0
300
1/16" = 1'-0"
140
0.0625
141
12.0
290
     0
  0
SCALE
  5
5D
102
{ACAD_REACTORS
330
47
102
}
330
47
100
AcDbScale
 70
     0
300
3/32" = 1'-0"
140
0.09375
141
12.0
290
     0
  0
SCALE
  5
5E
102
{ACAD_REACTORS
330
47
102
}
330
47
100
AcDbScale
 70
     0
300
1/8" = 1'-0"
140
0.125
141
12.0
290
     0
  0
SCALE
  5
5F
102
{ACAD_REACTORS
330
47
102
}
330
47
100
AcDbScale
 70
     0
300
3/16" = 1'-0"
140
0.1875
141
12.0
290
     0
  0
SCALE
  5
60
102
{ACAD_REACTORS
330
47
102
}
330
47
100
AcDbScale
 70
     0
300
1/4" = 1'-0"
140
0.25
141
12.0
290
     0
  0
SCALE
  5
61
102
{ACAD_REACTORS
330
47
102
}
330
47
100
AcDbScale
 70
     0
300
3/8" = 1'-0"
140
0.375
141
12.0
290
     0
  0
SCALE
  5
62
102
{ACAD_REACTORS
330
47
102
}
330
47
100
AcDbScale
 70
     0
300
1/2" = 1'-0"
140
0.5
141
12.0
290
     0
  0
SCALE
  5
63
102
{ACAD_REACTORS
330
47
102
}
330
47
100
AcDbScale
 70
     0
300
3/4" = 1'-0"
140
0.75
141
12.0
290
     0
  0
SCALE
  5
64
102
{ACAD_REACTORS
330
47
102
}
330
47
100
AcDbScale
 70
     0
300
1" = 1'-0"
140
1.0
141
12.0
290
     0
  0
SCALE
  5
65
102
{ACAD_REACTORS
330
47
102
}
330
47
100
AcDbScale
 70
     0
300
1-1/2" = 1'-0"
140
1.5
141
12.0
290
     0
  0
SCALE
  5
66
102
{ACAD_REACTORS
330
47
102
}
330
47
100
AcDbScale
 70
     0
300
3" = 1'-0"
140
3.0
141
12.0
290
     0
  0
SCALE
  5
67
102
{ACAD_REACTORS
330
47
102
}
330
47
100
AcDbScale
 70
     0
300
6" = 1'-0"
140
6.0
141
12.0
290
     0
  0
SCALE
  5
68
102
{ACAD_REACTORS
330
47
102
}
330
47
100
AcDbScale
 70
     0
300
1'-0" = 1'-0"
140
12.0
141
12.0
290
     0
  0
ENDSEC
  0
EOF
