  0
SECTION
  2
HEADER
  9
$ACADVER
  1
AC1015
  9
$ACADMAINTVER
 70
     6
  9
$DWGCODEPAGE
  3
ANSI_1250
  9
$INSBASE
 10
0.0
 20
0.0
 30
0.0
  9
$EXTMIN
 10
0.0
 20
0.0
 30
0.0
  9
$EXTMAX
 10
297.0
 20
210.0
 30
0.0
  9
$LIMMIN
 10
0.0
 20
0.0
  9
$LIMMAX
 10
297.0
 20
210.0
  9
$ORTHOMODE
 70
     0
  9
$REGENMODE
 70
     1
  9
$FILLMODE
 70
     1
  9
$QTEXTMODE
 70
     0
  9
$MIRRTEXT
 70
     1
  9
$LTSCALE
 40
1.0
  9
$ATTMODE
 70
     1
  9
$TEXTSIZE
 40
3.5
  9
$TRACEWID
 40
1.0
  9
$TEXTSTYLE
  7
Standard
  9
$CLAYER
  8
0
  9
$CELTYPE
  6
ByLayer
  9
$CECOLOR
 62
   256
  9
$CELTSCALE
 40
1.0
  9
$DISPSILH
 70
     0
  9
$DIMSCALE
 40
1.0
  9
$DIMASZ
 40
3.302
  9
$DIMEXO
 40
1.0
  9
$DIMDLI
 40
3.75
  9
$DIMRND
 40
0.0
  9
$DIMDLE
 40
0.0
  9
$DIMEXE
 40
1.0
  9
$DIMTP
 40
0.0
  9
$DIMTM
 40
0.0
  9
$DIMTXT
 40
3.5
  9
$DIMCEN
 40
2.5
  9
$DIMTSZ
 40
0.0
  9
$DIMTOL
 70
     0
  9
$DIMLIM
 70
     0
  9
$DIMTIH
 70
     1
  9
$DIMTOH
 70
     1
  9
$DIMSE1
 70
     0
  9
$DIMSE2
 70
     0
  9
$DIMTAD
 70
     1
  9
$DIMZIN
 70
     0
  9
$DIMBLK
  1

  9
$DIMASO
 70
     1
  9
$DIMSHO
 70
     1
  9
$DIMPOST
  1

  9
$DIMAPOST
  1

  9
$DIMALT
 70
     0
  9
$DIMALTD
 70
     3
  9
$DIMALTF
 40
0.0393700787
  9
$DIMLFAC
 40
1.0
  9
$DIMTOFL
 70
     1
  9
$DIMTVP
 40
0.0
  9
$DIMTIX
 70
     0
  9
$DIMSOXD
 70
     0
  9
$DIMSAH
 70
     0
  9
$DIMBLK1
  1

  9
$DIMBLK2
  1

  9
$DIMSTYLE
  2
ISO-25
  9
$DIMCLRD
 70
     0
  9
$DIMCLRE
 70
     0
  9
$DIMCLRT
 70
     0
  9
$DIMTFAC
 40
1.0
  9
$DIMGAP
 40
1.524
  9
$DIMJUST
 70
     0
  9
$DIMSD1
 70
     0
  9
$DIMSD2
 70
     0
  9
$DIMTOLJ
 70
     0
  9
$DIMTZIN
 70
     0
  9
$DIMALTZ
 70
     0
  9
$DIMALTTZ
 70
     0
  9
$DIMUPT
 70
     0
  9
$DIMDEC
 70
     2
  9
$DIMTDEC
 70
     2
  9
$DIMALTU
 70
     2
  9
$DIMALTTD
 70
     3
  9
$DIMTXSTY
  7
Standard
  9
$DIMAUNIT
 70
     0
  9
$DIMADEC
 70
     2
  9
$DIMALTRND
 40
0.0
  9
$DIMAZIN
 70
     0
  9
$DIMDSEP
 70
    44
  9
$DIMATFIT
 70
     3
  9
$DIMFRAC
 70
     0
  9
$DIMLDRBLK
  1

  9
$DIMLUNIT
 70
     2
  9
$DIMLWD
 70
    -2
  9
$DIMLWE
 70
    -2
  9
$DIMTMOVE
 70
     0
  9
$LUNITS
 70
     2
  9
$LUPREC
 70
     2
  9
$SKETCHINC
 40
1.0
  9
$FILLETRAD
 40
10.0
  9
$AUNITS
 70
     0
  9
$AUPREC
 70
     2
  9
$MENU
  1
.
  9
$ELEVATION
 40
0.0
  9
$PELEVATION
 40
0.0
  9
$THICKNESS
 40
0.0
  9
$LIMCHECK
 70
     0
  9
$CHAMFERA
 40
0.0
  9
$CHAMFERB
 40
0.0
  9
$CHAMFERC
 40
0.0
  9
$CHAMFERD
 40
0.0
  9
$SKPOLY
 70
     0
  9
$TDCREATE
 40
2459724.445768704
  9
$TDUCREATE
 40
2459724.36243537
  9
$TDUPDATE
 40
2459724.445769965
  9
$TDUUPDATE
 40
2459724.362436632
  9
$TDINDWG
 40
0.0000000116
  9
$TDUSRTIMER
 40
0.0000000116
  9
$USRTIMER
 70
     1
  9
$ANGBASE
 50
0.0
  9
$ANGDIR
 70
     0
  9
$PDMODE
 70
     0
  9
$PDSIZE
 40
-1.0
  9
$PLINEWID
 40
0.0
  9
$SPLFRAME
 70
     0
  9
$SPLINETYPE
 70
     6
  9
$SPLINESEGS
 70
     8
  9
$HANDSEED
  5
335
  9
$SURFTAB1
 70
     6
  9
$SURFTAB2
 70
     6
  9
$SURFTYPE
 70
     6
  9
$SURFU
 70
     6
  9
$SURFV
 70
     6
  9
$UCSBASE
  2

  9
$UCSNAME
  2

  9
$UCSORG
 10
0.0
 20
0.0
 30
0.0
  9
$UCSXDIR
 10
1.0
 20
0.0
 30
0.0
  9
$UCSYDIR
 10
0.0
 20
1.0
 30
0.0
  9
$UCSORTHOREF
  2

  9
$UCSORTHOVIEW
 70
     0
  9
$UCSORGTOP
 10
0.0
 20
0.0
 30
0.0
  9
$UCSORGBOTTOM
 10
0.0
 20
0.0
 30
0.0
  9
$UCSORGLEFT
 10
0.0
 20
0.0
 30
0.0
  9
$UCSORGRIGHT
 10
0.0
 20
0.0
 30
0.0
  9
$UCSORGFRONT
 10
0.0
 20
0.0
 30
0.0
  9
$UCSORGBACK
 10
0.0
 20
0.0
 30
0.0
  9
$PUCSBASE
  2

  9
$PUCSNAME
  2

  9
$PUCSORG
 10
0.0
 20
0.0
 30
0.0
  9
$PUCSXDIR
 10
1.0
 20
0.0
 30
0.0
  9
$PUCSYDIR
 10
0.0
 20
1.0
 30
0.0
  9
$PUCSORTHOREF
  2

  9
$PUCSORTHOVIEW
 70
     0
  9
$PUCSORGTOP
 10
0.0
 20
0.0
 30
0.0
  9
$PUCSORGBOTTOM
 10
0.0
 20
0.0
 30
0.0
  9
$PUCSORGLEFT
 10
0.0
 20
0.0
 30
0.0
  9
$PUCSORGRIGHT
 10
0.0
 20
0.0
 30
0.0
  9
$PUCSORGFRONT
 10
0.0
 20
0.0
 30
0.0
  9
$PUCSORGBACK
 10
0.0
 20
0.0
 30
0.0
  9
$USERI1
 70
     0
  9
$USERI2
 70
     0
  9
$USERI3
 70
     0
  9
$USERI4
 70
     0
  9
$USERI5
 70
     0
  9
$USERR1
 40
0.0
  9
$USERR2
 40
0.0
  9
$USERR3
 40
0.0
  9
$USERR4
 40
0.0
  9
$USERR5
 40
0.0
  9
$WORLDVIEW
 70
     1
  9
$SHADEDGE
 70
     3
  9
$SHADEDIF
 70
    70
  9
$TILEMODE
 70
     1
  9
$MAXACTVP
 70
    64
  9
$PINSBASE
 10
0.0
 20
0.0
 30
0.0
  9
$PLIMCHECK
 70
     0
  9
$PEXTMIN
 10
1.0000000000E+20
 20
1.0000000000E+20
 30
1.0000000000E+20
  9
$PEXTMAX
 10
-1.0000000000E+20
 20
-1.0000000000E+20
 30
-1.0000000000E+20
  9
$PLIMMIN
 10
0.0
 20
0.0
  9
$PLIMMAX
 10
420.0
 20
297.0
  9
$UNITMODE
 70
     0
  9
$VISRETAIN
 70
     1
  9
$PLINEGEN
 70
     0
  9
$PSLTSCALE
 70
     1
  9
$TREEDEPTH
 70
  3020
  9
$CMLSTYLE
  2
Standard
  9
$CMLJUST
 70
     0
  9
$CMLSCALE
 40
20.0
  9
$PROXYGRAPHICS
 70
     1
  9
$MEASUREMENT
 70
     1
  9
$CELWEIGHT
370
    -1
  9
$ENDCAPS
280
     0
  9
$JOINSTYLE
280
     0
  9
$LWDISPLAY
290
     1
  9
$INSUNITS
 70
     4
  9
$HYPERLINKBASE
  1

  9
$STYLESHEET
  1

  9
$XEDIT
290
     1
  9
$CEPSNTYPE
380
     0
  9
$PSTYLEMODE
290
     1
  9
$FINGERPRINTGUID
  2
{F541116F-3B38-41AE-9C78-3DC4ED614AFA}
  9
$VERSIONGUID
  2
{FAEB1C32-E019-11D5-929B-00C0DF256EC4}
  9
$EXTNAMES
290
     1
  9
$PSVPSCALE
 40
0.0
  9
$OLESTARTUP
290
     0
  0
ENDSEC
  0
SECTION
  2
CLASSES
  0
CLASS
  1
ACDBDICTIONARYWDFLT
  2
AcDbDictionaryWithDefault
  3
ObjectDBX Classes
 90
        0
280
     0
281
     0
  0
CLASS
  1
VISUALSTYLE
  2
AcDbVisualStyle
  3
ObjectDBX Classes
 90
     4095
280
     0
281
     0
  0
CLASS
  1
MATERIAL
  2
AcDbMaterial
  3
ObjectDBX Classes
 90
     1153
280
     0
281
     0
  0
CLASS
  1
SCALE
  2
AcDbScale
  3
ObjectDBX Classes
 90
     1153
280
     0
281
     0
  0
CLASS
  1
TABLESTYLE
  2
AcDbTableStyle
  3
ObjectDBX Classes
 90
     4095
280
     0
281
     0
  0
CLASS
  1
MLEADERSTYLE
  2
AcDbMLeaderStyle
  3
ACDB_MLEADERSTYLE_CLASS
 90
     4095
280
     0
281
     0
  0
CLASS
  1
SUN
  2
AcDbSun
  3
SCENEOE
 90
     1153
280
     0
281
     0
  0
CLASS
  1
ACDBPLACEHOLDER
  2
AcDbPlaceHolder
  3
ObjectDBX Classes
 90
        0
280
     0
281
     0
  0
CLASS
  1
LAYOUT
  2
AcDbLayout
  3
ObjectDBX Classes
 90
        0
280
     0
281
     0
  0
ENDSEC
  0
SECTION
  2
TABLES
  0
TABLE
  2
VPORT
  5
8
330
0
100
AcDbSymbolTable
 70
     1
  0
VPORT
  5
29
330
8
100
AcDbSymbolTableRecord
100
AcDbViewportTableRecord
  2
*Active
 70
     0
 10
0.0
 20
0.0
 11
1.0
 21
1.0
 12
148.5
 22
105.0
 13
0.0
 23
0.0
 14
10.0
 24
10.0
 15
10.0
 25
10.0
 16
0.0
 26
0.0
 36
1.0
 17
0.0
 27
0.0
 37
0.0
 40
210.0
 41
1.4142857143
 42
50.0
 43
0.0
 44
0.0
 50
0.0
 51
0.0
 71
     0
 72
  2000
 73
     1
 74
     3
 75
     0
 76
     0
 77
     0
 78
     0
281
     0
 65
     1
110
0.0
120
0.0
130
0.0
111
1.0
121
0.0
131
0.0
112
0.0
122
1.0
132
0.0
 79
     0
146
0.0
  0
ENDTAB
  0
TABLE
  2
LTYPE
  5
5
330
0
100
AcDbSymbolTable
 70
     6
  0
LTYPE
  5
14
330
5
100
AcDbSymbolTableRecord
100
AcDbLinetypeTableRecord
  2
ByBlock
 70
     0
  3

 72
    65
 73
     0
 40
0.0
  0
LTYPE
  5
15
330
5
100
AcDbSymbolTableRecord
100
AcDbLinetypeTableRecord
  2
ByLayer
 70
     0
  3

 72
    65
 73
     0
 40
0.0
  0
LTYPE
  5
16
330
5
100
AcDbSymbolTableRecord
100
AcDbLinetypeTableRecord
  2
Continuous
 70
     0
  3
Solid line
 72
    65
 73
     0
 40
0.0
  0
LTYPE
  5
6E
330
5
100
AcDbSymbolTableRecord
100
AcDbLinetypeTableRecord
  2
HIDDEN
 70
     0
  3
Hidden __ __ __ __ __ __ __ __ __ __ __ __ __ __
 72
    65
 73
     2
 40
1.905
 49
1.27
 74
     0
 49
-0.635
 74
     0
  0
LTYPE
  5
6F
330
5
100
AcDbSymbolTableRecord
100
AcDbLinetypeTableRecord
  2
PHANTOM
 70
     0
  3
Phantom ______  __  __  ______  __  __  ______
 72
    65
 73
     6
 40
12.7
 49
6.35
 74
     0
 49
-1.27
 74
     0
 49
1.27
 74
     0
 49
-1.27
 74
     0
 49
1.27
 74
     0
 49
-1.27
 74
     0
  0
LTYPE
  5
70
330
5
100
AcDbSymbolTableRecord
100
AcDbLinetypeTableRecord
  2
CENTER
 70
     0
  3
Center ____ _ ____ _ ____ _ ____ _ ____ _ ____
 72
    65
 73
     4
 40
10.16
 49
6.35
 74
     0
 49
-1.27
 74
     0
 49
1.27
 74
     0
 49
-1.27
 74
     0
  0
LTYPE
  5
71
330
5
100
AcDbSymbolTableRecord
100
AcDbLinetypeTableRecord
  2
CENTERX2
 70
     0
  3
Center (2x) ________  __  ________  __  _____
 72
    65
 73
     4
 40
20.32
 49
12.7
 74
     0
 49
-2.54
 74
     0
 49
2.54
 74
     0
 49
-2.54
 74
     0
  0
LTYPE
  5
72
330
5
100
AcDbSymbolTableRecord
100
AcDbLinetypeTableRecord
  2
DOT2
 70
     0
  3
Dot (.5x) ........................................
 72
    65
 73
     2
 40
0.635
 49
0.0
 74
     0
 49
-0.635
 74
     0
  0
ENDTAB
  0
TABLE
  2
LAYER
  5
2
330
0
100
AcDbSymbolTable
 70
    12
  0
LAYER
  5
10
330
2
100
AcDbSymbolTableRecord
100
AcDbLayerTableRecord
  2
0
 70
     0
 62
     7
  6
Continuous
370
    -3
390
F
  0
LAYER
  5
73
330
2
100
AcDbSymbolTableRecord
100
AcDbLayerTableRecord
  2
SLD-0
 70
     0
 62
   179
  6
Continuous
370
    -3
390
F
  0
LAYER
  5
74
330
2
100
AcDbSymbolTableRecord
100
AcDbLayerTableRecord
  2
80
 70
     0
 62
    -6
  6
Continuous
290
     0
370
    -3
390
F
  0
LAYER
  5
75
330
2
100
AcDbSymbolTableRecord
100
AcDbLayerTableRecord
  2
81
 70
     0
 62
    -3
  6
Continuous
290
     0
370
    -3
390
F
  0
LAYER
  5
76
330
2
100
AcDbSymbolTableRecord
100
AcDbLayerTableRecord
  2
1
 70
     0
 62
     4
  6
Continuous
290
     0
370
    -3
390
F
  0
LAYER
  5
77
330
2
100
AcDbSymbolTableRecord
100
AcDbLayerTableRecord
  2
4
 70
     0
 62
    -2
  6
CENTER
290
     0
370
    -3
390
F
  0
LAYER
  5
78
330
2
100
AcDbSymbolTableRecord
100
AcDbLayerTableRecord
  2
2
 70
     0
 62
     7
  6
Continuous
290
     0
370
    -3
390
F
  0
LAYER
  5
79
330
2
100
AcDbSymbolTableRecord
100
AcDbLayerTableRecord
  2
SK3
 70
     0
 62
     1
  6
HIDDEN
290
     0
370
    -3
390
F
  0
LAYER
  5
7A
330
2
100
AcDbSymbolTableRecord
100
AcDbLayerTableRecord
  2
SK4
 70
     0
 62
     2
  6
CENTER
290
     0
370
    -3
390
F
  0
LAYER
  5
7B
330
2
100
AcDbSymbolTableRecord
100
AcDbLayerTableRecord
  2
SK2
 70
     0
 62
     7
  6
Continuous
290
     0
370
    -3
390
F
  0
LAYER
  5
7C
330
2
100
AcDbSymbolTableRecord
100
AcDbLayerTableRecord
  2
SK6
 70
     0
 62
     5
  6
Continuous
290
     0
370
    -3
390
F
  0
LAYER
  5
7D
330
2
100
AcDbSymbolTableRecord
100
AcDbLayerTableRecord
  2
SK1
 70
     0
 62
     4
  6
Continuous
370
    -3
390
F
  0
ENDTAB
  0
TABLE
  2
STYLE
  5
3
330
0
100
AcDbSymbolTable
 70
     2
  0
STYLE
  5
11
330
3
100
AcDbSymbolTableRecord
100
AcDbTextStyleTableRecord
  2
Standard
 70
     0
 40
0.0
 41
1.0
 50
0.0
 71
     0
 42
3.5
  3
txt
  4

  0
STYLE
  5
2D2
330
3
100
AcDbSymbolTableRecord
100
AcDbTextStyleTableRecord
  2
SLDTEXTSTYLE0
 70
     0
 40
0.0
 41
0.75
 50
0.0
 71
     0
 42
3.5
  3
TXT
  4

  0
ENDTAB
  0
TABLE
  2
VIEW
  5
6
330
0
100
AcDbSymbolTable
 70
     0
  0
ENDTAB
  0
TABLE
  2
UCS
  5
7
330
0
100
AcDbSymbolTable
 70
     0
  0
ENDTAB
  0
TABLE
  2
APPID
  5
9
330
0
100
AcDbSymbolTable
 70
     1
  0
APPID
  5
12
330
9
100
AcDbSymbolTableRecord
100
AcDbRegAppTableRecord
  2
ACAD
 70
     0
  0
ENDTAB
  0
TABLE
  2
DIMSTYLE
  5
A
330
0
100
AcDbSymbolTable
 70
     3
100
AcDbDimStyleTable
  0
DIMSTYLE
105
27
330
A
100
AcDbSymbolTableRecord
100
AcDbDimStyleTableRecord
  2
ISO-25
 70
     0
 41
2.5
 42
0.625
 43
3.75
 44
1.25
 73
     0
 74
     0
 77
     1
 78
     8
140
2.5
141
2.5
143
0.0393700787
147
0.625
171
     3
172
     1
178
     0
271
     2
272
     2
274
     3
278
    44
283
     0
284
     8
340
11
  0
DIMSTYLE
105
2D3
102
{ACAD_REACTORS
330
2D1
330
2DE
330
2F5
330
2FF
330
309
330
313
330
31E
330
329
102
}
330
A
100
AcDbSymbolTableRecord
100
AcDbDimStyleTableRecord
  2
SLDDIMSTYLE0
 70
     0
 41
3.302
 44
0.0
 45
0.000000001
 73
     0
 74
     0
 77
     1
 78
    12
 79
     3
140
3.5
147
0.875
173
     1
178
     0
271
     2
272
     2
276
     2
284
    12
340
2D2
  0
DIMSTYLE
105
2EA
102
{ACAD_REACTORS
330
2E9
102
}
330
A
100
AcDbSymbolTableRecord
100
AcDbDimStyleTableRecord
  2
SLDDIMSTYLE1
 70
     0
 41
3.302
 44
0.0
 45
0.000000001
 73
     0
 74
     0
 77
     1
 78
    12
 79
     3
140
3.5
147
0.875
173
     1
178
     0
271
     0
272
     2
276
     2
284
    12
340
2D2
  0
ENDTAB
  0
TABLE
  2
BLOCK_RECORD
  5
1
330
0
100
AcDbSymbolTable
 70
    12
  0
BLOCK_RECORD
  5
1F
330
1
100
AcDbSymbolTableRecord
100
AcDbBlockTableRecord
  2
*Model_Space
340
22
  0
BLOCK_RECORD
  5
1B
330
1
100
AcDbSymbolTableRecord
100
AcDbBlockTableRecord
  2
*Paper_Space
340
1E
  0
BLOCK_RECORD
  5
23
330
1
100
AcDbSymbolTableRecord
100
AcDbBlockTableRecord
  2
*Paper_Space0
340
26
  0
BLOCK_RECORD
  5
7E
330
1
100
AcDbSymbolTableRecord
100
AcDbBlockTableRecord
  2
Block11
340
0
102
{BLKREFS
331
2CF
102
}
  0
BLOCK_RECORD
  5
87
330
1
100
AcDbSymbolTableRecord
100
AcDbBlockTableRecord
  2
Block12
340
0
102
{BLKREFS
331
2D0
102
}
  0
BLOCK_RECORD
  5
2D4
330
1
100
AcDbSymbolTableRecord
100
AcDbBlockTableRecord
  2
_D
340
0
  0
BLOCK_RECORD
  5
2DF
330
1
100
AcDbSymbolTableRecord
100
AcDbBlockTableRecord
  2
_D_1
340
0
  0
BLOCK_RECORD
  5
2EB
330
1
100
AcDbSymbolTableRecord
100
AcDbBlockTableRecord
  2
_D_2
340
0
  0
BLOCK_RECORD
  5
2F6
330
1
100
AcDbSymbolTableRecord
100
AcDbBlockTableRecord
  2
_D_3
340
0
  0
BLOCK_RECORD
  5
300
330
1
100
AcDbSymbolTableRecord
100
AcDbBlockTableRecord
  2
_D_4
340
0
  0
BLOCK_RECORD
  5
30A
330
1
100
AcDbSymbolTableRecord
100
AcDbBlockTableRecord
  2
_D_5
340
0
  0
BLOCK_RECORD
  5
314
330
1
100
AcDbSymbolTableRecord
100
AcDbBlockTableRecord
  2
_D_6
340
0
  0
BLOCK_RECORD
  5
31F
330
1
100
AcDbSymbolTableRecord
100
AcDbBlockTableRecord
  2
_D_7
340
0
  0
BLOCK_RECORD
  5
32A
330
1
100
AcDbSymbolTableRecord
100
AcDbBlockTableRecord
  2
_D_8
340
0
  0
ENDTAB
  0
ENDSEC
  0
SECTION
  2
BLOCKS
  0
BLOCK
  5
20
330
1F
100
AcDbEntity
  8
0
100
AcDbBlockBegin
  2
*Model_Space
 70
     0
 10
0.0
 20
0.0
 30
0.0
  3
*Model_Space
  1

  0
ENDBLK
  5
21
330
1F
100
AcDbEntity
  8
0
100
AcDbBlockEnd
  0
BLOCK
  5
1C
330
1B
100
AcDbEntity
 67
     1
  8
0
100
AcDbBlockBegin
  2
*Paper_Space
 70
     0
 10
0.0
 20
0.0
 30
0.0
  3
*Paper_Space
  1

  0
ENDBLK
  5
1D
330
1B
100
AcDbEntity
 67
     1
  8
0
100
AcDbBlockEnd
  0
BLOCK
  5
24
330
23
100
AcDbEntity
  8
0
100
AcDbBlockBegin
  2
*Paper_Space0
 70
     0
 10
0.0
 20
0.0
 30
0.0
  3
*Paper_Space0
  1

  0
ENDBLK
  5
25
330
23
100
AcDbEntity
  8
0
100
AcDbBlockEnd
  0
BLOCK
  5
7F
330
7E
100
AcDbEntity
  8
0
100
AcDbBlockBegin
  2
Block11
 70
     0
 10
0.0
 20
0.0
 30
0.0
  3
Block11
  1

  0
CIRCLE
  5
81
330
7E
100
AcDbEntity
  8
81
370
    18
100
AcDbCircle
 10
91.6264826505
 20
130.2676275275
 30
0.0
 40
2.499999999999981
  0
LINE
  5
82
330
7E
100
AcDbEntity
  8
81
370
    18
100
AcDbLine
 10
91.6264826505
 20
130.2676275275
 30
0.0
 11
95.1620165565
 21
133.8031614334
 31
0.0
  0
LINE
  5
83
330
7E
100
AcDbEntity
  8
81
370
    18
100
AcDbLine
 10
91.6264826505
 20
130.2676275275
 30
0.0
 11
88.0909487446
 21
126.7320936216
 31
0.0
  0
LINE
  5
84
330
7E
100
AcDbEntity
  8
81
370
    18
100
AcDbLine
 10
91.6264826505
 20
130.2676275275
 30
0.0
 11
88.0909487446
 21
133.8031614334
 31
0.0
  0
LINE
  5
85
330
7E
100
AcDbEntity
  8
81
100
AcDbLine
 10
91.6264826505
 20
130.2676275275
 30
0.0
 11
101.6264826505
 21
130.2676275275
 31
0.0
  0
LINE
  5
86
330
7E
100
AcDbEntity
  8
81
370
    18
100
AcDbLine
 10
91.6264826505
 20
130.2676275275
 30
0.0
 11
95.1620165565
 21
126.7320936216
 31
0.0
  0
ENDBLK
  5
80
330
7E
100
AcDbEntity
  8
0
100
AcDbBlockEnd
  0
BLOCK
  5
88
330
87
100
AcDbEntity
  8
0
100
AcDbBlockBegin
  2
Block12
 70
     0
 10
0.0
 20
0.0
 30
0.0
  3
Block12
  1

  0
CIRCLE
  5
8A
330
87
100
AcDbEntity
  8
80
370
    18
100
AcDbCircle
 10
61.7273641656
 20
130.3356800267
 30
0.0
 40
2.500000000000004
  0
LINE
  5
8B
330
87
100
AcDbEntity
  8
80
370
    18
100
AcDbLine
 10
61.7273641656
 20
130.3356800267
 30
0.0
 11
65.2628980715
 21
133.8712139326
 31
0.0
  0
LINE
  5
8C
330
87
100
AcDbEntity
  8
80
370
    18
100
AcDbLine
 10
61.7273641656
 20
130.3356800267
 30
0.0
 11
58.1918302597
 21
126.8001461208
 31
0.0
  0
LINE
  5
8D
330
87
100
AcDbEntity
  8
80
370
    18
100
AcDbLine
 10
61.7273641656
 20
130.3356800267
 30
0.0
 11
58.1918302597
 21
133.8712139326
 31
0.0
  0
LINE
  5
8E
330
87
100
AcDbEntity
  8
80
370
    18
100
AcDbLine
 10
61.7273641656
 20
130.3356800267
 30
0.0
 11
51.7273641656
 21
130.3356800267
 31
0.0
  0
LINE
  5
8F
330
87
100
AcDbEntity
  8
80
370
    18
100
AcDbLine
 10
61.7273641656
 20
130.3356800267
 30
0.0
 11
65.2628980715
 21
126.8001461208
 31
0.0
  0
ENDBLK
  5
89
330
87
100
AcDbEntity
  8
0
100
AcDbBlockEnd
  0
BLOCK
  5
2D5
330
2D4
100
AcDbEntity
  8
0
100
AcDbBlockBegin
  2
_D
 70
     0
 10
0.0
 20
0.0
 30
0.0
  3
_D
  1

  0
SOLID
  5
2D7
330
2D4
100
AcDbEntity
  8
SK2
100
AcDbTrace
 10
-120.7466403628
 20
34.925
 30
0.0
 11
-121.2546403628
 21
31.623
 31
0.0
 12
-120.2386403628
 22
31.623
 32
0.0
 13
-120.2386403628
 23
31.623
 33
0.0
  0
SOLID
  5
2D8
330
2D4
100
AcDbEntity
  8
SK2
100
AcDbTrace
 10
-120.7466403628
 20
-34.925
 30
0.0
 11
-120.2386403628
 21
-31.623
 31
0.0
 12
-121.2546403628
 22
-31.623
 32
0.0
 13
-121.2546403628
 23
-31.623
 33
0.0
  0
LINE
  5
2D9
330
2D4
100
AcDbEntity
  8
SK2
100
AcDbLine
 10
-1.0
 20
34.925
 30
0.0
 11
-121.7466403628
 21
34.925
 31
0.0
  0
LINE
  5
2DA
330
2D4
100
AcDbEntity
  8
SK2
100
AcDbLine
 10
-1.0
 20
-34.925
 30
0.0
 11
-121.7466403628
 21
-34.925
 31
0.0
  0
LINE
  5
2DB
330
2D4
100
AcDbEntity
  8
SK2
100
AcDbLine
 10
-120.7466403628
 20
34.925
 30
0.0
 11
-120.7466403628
 21
-34.925
 31
0.0
  0
MTEXT
  5
2DC
330
2D4
100
AcDbEntity
  8
SK2
100
AcDbMText
 10
-125.258377452
 20
-9.19851894
 30
0.0
 40
3.5
 41
0.0
 71
     1
 72
     1
  1
%%c
  7
SLDTEXTSTYLE0
 11
-7.044195017643634E-15
 21
1.0
 31
0.0
 73
     1
 44
1.0
  0
MTEXT
  5
2DD
330
2D4
100
AcDbEntity
  8
SK2
100
AcDbMText
 10
-125.3118496286
 20
-3.9200815416
 30
0.0
 40
3.5
 41
0.0
 71
     1
 72
     1
  1
69,85
  7
SLDTEXTSTYLE0
 11
-7.044195017643634E-15
 21
1.0
 31
0.0
 73
     1
 44
1.0
  0
ENDBLK
  5
2D6
330
2D4
100
AcDbEntity
  8
0
100
AcDbBlockEnd
  0
BLOCK
  5
2E0
330
2DF
100
AcDbEntity
  8
0
100
AcDbBlockBegin
  2
_D_1
 70
     0
 10
0.0
 20
0.0
 30
0.0
  3
_D_1
  1

  0
SOLID
  5
2E2
330
2DF
100
AcDbEntity
  8
SK2
100
AcDbTrace
 10
-110.7858703621
 20
-12.0
 30
0.0
 11
-110.2778703621
 21
-8.698
 31
0.0
 12
-111.2938703621
 22
-8.698
 32
0.0
 13
-111.2938703621
 23
-8.698
 33
0.0
  0
SOLID
  5
2E3
330
2DF
100
AcDbEntity
  8
SK2
100
AcDbTrace
 10
-110.7858703621
 20
12.0
 30
0.0
 11
-111.2938703621
 21
8.698
 31
0.0
 12
-110.2778703621
 22
8.698
 32
0.0
 13
-110.2778703621
 23
8.698
 33
0.0
  0
LINE
  5
2E4
330
2DF
100
AcDbEntity
  8
SK2
100
AcDbLine
 10
-89.1169872981
 20
-12.0
 30
0.0
 11
-111.7858703621
 21
-12.0
 31
0.0
  0
LINE
  5
2E5
330
2DF
100
AcDbEntity
  8
SK2
100
AcDbLine
 10
-89.1169872981
 20
12.0
 30
0.0
 11
-111.7858703621
 21
12.0
 31
0.0
  0
LINE
  5
2E6
330
2DF
100
AcDbEntity
  8
SK2
100
AcDbLine
 10
-110.7858703621
 20
-12.0
 30
0.0
 11
-110.7858703621
 21
12.0
 31
0.0
  0
MTEXT
  5
2E7
330
2DF
100
AcDbEntity
  8
SK2
100
AcDbMText
 10
-115.2976072767
 20
-4.5234323364
 30
0.0
 40
3.5
 41
0.0
 71
     1
 72
     1
  1
M
  7
SLDTEXTSTYLE0
 11
6.123233995736766E-17
 21
1.0
 31
0.0
 73
     1
 44
1.0
  0
MTEXT
  5
2E8
330
2DF
100
AcDbEntity
  8
SK2
100
AcDbMText
 10
-115.2976072767
 20
-0.235932402
 30
0.0
 40
3.5
 41
0.0
 71
     1
 72
     1
  1
24
  7
SLDTEXTSTYLE0
 11
6.123233995736766E-17
 21
1.0
 31
0.0
 73
     1
 44
1.0
  0
ENDBLK
  5
2E1
330
2DF
100
AcDbEntity
  8
0
100
AcDbBlockEnd
  0
BLOCK
  5
2EC
330
2EB
100
AcDbEntity
  8
0
100
AcDbBlockBegin
  2
_D_2
 70
     0
 10
0.0
 20
0.0
 30
0.0
  3
_D_2
  1

  0
SOLID
  5
2EE
330
2EB
100
AcDbEntity
  8
SK2
100
AcDbTrace
 10
-131.7696373134
 20
49.978682327
 30
0.0
 11
-132.2776373134
 21
46.676682327
 31
0.0
 12
-131.2616373134
 22
46.676682327
 32
0.0
 13
-131.2616373134
 23
46.676682327
 33
0.0
  0
SOLID
  5
2EF
330
2EB
100
AcDbEntity
  8
SK2
100
AcDbTrace
 10
-131.7696373134
 20
-49.978682327
 30
0.0
 11
-131.2616373134
 21
-46.676682327
 31
0.0
 12
-132.2776373134
 22
-46.676682327
 32
0.0
 13
-132.2776373134
 23
-46.676682327
 33
0.0
  0
LINE
  5
2F0
330
2EB
100
AcDbEntity
  8
SK2
100
AcDbLine
 10
34.2499629447
 20
49.978682327
 30
0.0
 11
-132.7696373134
 21
49.978682327
 31
0.0
  0
LINE
  5
2F1
330
2EB
100
AcDbEntity
  8
SK2
100
AcDbLine
 10
34.2499629843
 20
-49.978682327
 30
0.0
 11
-132.7696373134
 21
-49.978682327
 31
0.0
  0
LINE
  5
2F2
330
2EB
100
AcDbEntity
  8
SK2
100
AcDbLine
 10
-131.7696373134
 20
49.978682327
 30
0.0
 11
-131.7696373134
 21
-49.978682327
 31
0.0
  0
MTEXT
  5
2F3
330
2EB
100
AcDbEntity
  8
SK2
100
AcDbMText
 10
-136.2813744026
 20
-7.2589358359
 30
0.0
 40
3.5
 41
0.0
 71
     1
 72
     1
  1
%%c
  7
SLDTEXTSTYLE0
 11
-7.044195017643634E-15
 21
1.0
 31
0.0
 73
     1
 44
1.0
  0
MTEXT
  5
2F4
330
2EB
100
AcDbEntity
  8
SK2
100
AcDbMText
 10
-136.3348465792
 20
-1.9804984375
 30
0.0
 40
3.5
 41
0.0
 71
     1
 72
     1
  1
100
  7
SLDTEXTSTYLE0
 11
-7.044195017643634E-15
 21
1.0
 31
0.0
 73
     1
 44
1.0
  0
ENDBLK
  5
2ED
330
2EB
100
AcDbEntity
  8
0
100
AcDbBlockEnd
  0
BLOCK
  5
2F7
330
2F6
100
AcDbEntity
  8
0
100
AcDbBlockBegin
  2
_D_3
 70
     0
 10
0.0
 20
0.0
 30
0.0
  3
_D_3
  1

  0
SOLID
  5
2F9
330
2F6
100
AcDbEntity
  8
SK2
100
AcDbTrace
 10
0.0
 20
58.9623244292
 30
0.0
 11
3.302
 21
58.4543244292
 31
0.0
 12
3.302
 22
59.4703244292
 32
0.0
 13
3.302
 23
59.4703244292
 33
0.0
  0
SOLID
  5
2FA
330
2F6
100
AcDbEntity
  8
SK2
100
AcDbTrace
 10
38.0
 20
58.9623244292
 30
0.0
 11
34.698
 21
59.4703244292
 31
0.0
 12
34.698
 22
58.4543244292
 32
0.0
 13
34.698
 23
58.4543244292
 33
0.0
  0
LINE
  5
2FB
330
2F6
100
AcDbEntity
  8
SK2
100
AcDbLine
 10
0.0
 20
35.925
 30
0.0
 11
0.0
 21
59.9623244292
 31
0.0
  0
LINE
  5
2FC
330
2F6
100
AcDbEntity
  8
SK2
100
AcDbLine
 10
38.0
 20
50.228682327
 30
0.0
 11
38.0
 21
59.9623244292
 31
0.0
  0
LINE
  5
2FD
330
2F6
100
AcDbEntity
  8
SK2
100
AcDbLine
 10
0.0
 20
58.9623244292
 30
0.0
 11
38.0
 21
58.9623244292
 31
0.0
  0
MTEXT
  5
2FE
330
2F6
100
AcDbEntity
  8
SK2
100
AcDbMText
 10
16.0547403606
 20
63.4740613438
 30
0.0
 40
3.5
 41
0.0
 71
     1
 72
     1
  1
38
  7
SLDTEXTSTYLE0
 73
     1
 44
1.0
  0
ENDBLK
  5
2F8
330
2F6
100
AcDbEntity
  8
0
100
AcDbBlockEnd
  0
BLOCK
  5
301
330
300
100
AcDbEntity
  8
0
100
AcDbBlockBegin
  2
_D_4
 70
     0
 10
0.0
 20
0.0
 30
0.0
  3
_D_4
  1

  0
SOLID
  5
303
330
300
100
AcDbEntity
  8
SK2
100
AcDbTrace
 10
38.0
 20
58.9623244292
 30
0.0
 11
41.302
 21
58.4543244292
 31
0.0
 12
41.302
 22
59.4703244292
 32
0.0
 13
41.302
 23
59.4703244292
 33
0.0
  0
SOLID
  5
304
330
300
100
AcDbEntity
  8
SK2
100
AcDbTrace
 10
160.0
 20
58.9623244292
 30
0.0
 11
156.698
 21
59.4703244292
 31
0.0
 12
156.698
 22
58.4543244292
 32
0.0
 13
156.698
 23
58.4543244292
 33
0.0
  0
LINE
  5
305
330
300
100
AcDbEntity
  8
SK2
100
AcDbLine
 10
38.0
 20
50.228682327
 30
0.0
 11
38.0
 21
59.9623244292
 31
0.0
  0
LINE
  5
306
330
300
100
AcDbEntity
  8
SK2
100
AcDbLine
 10
160.0
 20
39.2
 30
0.0
 11
160.0
 21
59.9623244292
 31
0.0
  0
LINE
  5
307
330
300
100
AcDbEntity
  8
SK2
100
AcDbLine
 10
38.0
 20
58.9623244292
 30
0.0
 11
160.0
 21
58.9623244292
 31
0.0
  0
MTEXT
  5
308
330
300
100
AcDbEntity
  8
SK2
100
AcDbMText
 10
94.7741966346
 20
63.4740613438
 30
0.0
 40
3.5
 41
0.0
 71
     1
 72
     1
  1
122
  7
SLDTEXTSTYLE0
 73
     1
 44
1.0
  0
ENDBLK
  5
302
330
300
100
AcDbEntity
  8
0
100
AcDbBlockEnd
  0
BLOCK
  5
30B
330
30A
100
AcDbEntity
  8
0
100
AcDbBlockBegin
  2
_D_5
 70
     0
 10
0.0
 20
0.0
 30
0.0
  3
_D_5
  1

  0
SOLID
  5
30D
330
30A
100
AcDbEntity
  8
2
100
AcDbTrace
 10
0.0
 20
68.3477475623
 30
0.0
 11
3.302
 21
67.8397475623
 31
0.0
 12
3.302
 22
68.8557475623
 32
0.0
 13
3.302
 23
68.8557475623
 33
0.0
  0
SOLID
  5
30E
330
30A
100
AcDbEntity
  8
2
100
AcDbTrace
 10
160.0
 20
68.3477475623
 30
0.0
 11
156.698
 21
68.8557475623
 31
0.0
 12
156.698
 22
67.8397475623
 32
0.0
 13
156.698
 23
67.8397475623
 33
0.0
  0
LINE
  5
30F
330
30A
100
AcDbEntity
  8
2
100
AcDbLine
 10
0.0
 20
35.925
 30
0.0
 11
0.0
 21
69.3477475623
 31
0.0
  0
LINE
  5
310
330
30A
100
AcDbEntity
  8
2
100
AcDbLine
 10
160.0
 20
39.2
 30
0.0
 11
160.0
 21
69.3477475623
 31
0.0
  0
LINE
  5
311
330
30A
100
AcDbEntity
  8
2
100
AcDbLine
 10
0.0
 20
68.3477475623
 30
0.0
 11
160.0
 21
68.3477475623
 31
0.0
  0
MTEXT
  5
312
330
30A
100
AcDbEntity
  8
2
100
AcDbMText
 10
76.2442400001
 20
72.8594844769
 30
0.0
 40
3.5
 41
0.0
 71
     1
 72
     1
  1
160
  7
SLDTEXTSTYLE0
 73
     1
 44
1.0
  0
ENDBLK
  5
30C
330
30A
100
AcDbEntity
  8
0
100
AcDbBlockEnd
  0
BLOCK
  5
315
330
314
100
AcDbEntity
  8
0
100
AcDbBlockBegin
  2
_D_6
 70
     0
 10
0.0
 20
0.0
 30
0.0
  3
_D_6
  1

  0
SOLID
  5
317
330
314
100
AcDbEntity
  8
SK2
100
AcDbTrace
 10
224.4580406751
 20
-39.0
 30
0.0
 11
224.9660406751
 21
-35.698
 31
0.0
 12
223.9500406751
 22
-35.698
 32
0.0
 13
223.9500406751
 23
-35.698
 33
0.0
  0
SOLID
  5
318
330
314
100
AcDbEntity
  8
SK2
100
AcDbTrace
 10
224.4580406751
 20
39.0
 30
0.0
 11
223.9500406751
 21
35.698
 31
0.0
 12
224.9660406751
 22
35.698
 32
0.0
 13
224.9660406751
 23
35.698
 33
0.0
  0
LINE
  5
319
330
314
100
AcDbEntity
  8
SK2
100
AcDbLine
 10
160.2
 20
-39.0
 30
0.0
 11
225.4580406751
 21
-39.0
 31
0.0
  0
LINE
  5
31A
330
314
100
AcDbEntity
  8
SK2
100
AcDbLine
 10
160.2
 20
39.0
 30
0.0
 11
225.4580406751
 21
39.0
 31
0.0
  0
LINE
  5
31B
330
314
100
AcDbEntity
  8
SK2
100
AcDbLine
 10
224.4580406751
 20
-39.0
 30
0.0
 11
224.4580406751
 21
39.0
 31
0.0
  0
MTEXT
  5
31C
330
314
100
AcDbEntity
  8
SK2
100
AcDbMText
 10
219.9463035859
 20
-5.6768935122
 30
0.0
 40
3.5
 41
0.0
 71
     1
 72
     1
  1
%%c
  7
SLDTEXTSTYLE0
 11
6.123233995736766E-17
 21
1.0
 31
0.0
 73
     1
 44
1.0
  0
MTEXT
  5
31D
330
314
100
AcDbEntity
  8
SK2
100
AcDbMText
 10
219.8928314093
 20
-0.3984561138
 30
0.0
 40
3.5
 41
0.0
 71
     1
 72
     1
  1
78
  7
SLDTEXTSTYLE0
 11
6.123233995736766E-17
 21
1.0
 31
0.0
 73
     1
 44
1.0
  0
ENDBLK
  5
316
330
314
100
AcDbEntity
  8
0
100
AcDbBlockEnd
  0
BLOCK
  5
320
330
31F
100
AcDbEntity
  8
0
100
AcDbBlockBegin
  2
_D_7
 70
     0
 10
0.0
 20
0.0
 30
0.0
  3
_D_7
  1

  0
SOLID
  5
322
330
31F
100
AcDbEntity
  8
SK2
100
AcDbTrace
 10
213.768064288
 20
16.0
 30
0.0
 11
213.260064288
 21
12.698
 31
0.0
 12
214.276064288
 22
12.698
 32
0.0
 13
214.276064288
 23
12.698
 33
0.0
  0
SOLID
  5
323
330
31F
100
AcDbEntity
  8
SK2
100
AcDbTrace
 10
213.768064288
 20
-16.0
 30
0.0
 11
214.276064288
 21
-12.698
 31
0.0
 12
213.260064288
 22
-12.698
 32
0.0
 13
213.260064288
 23
-12.698
 33
0.0
  0
LINE
  5
324
330
31F
100
AcDbEntity
  8
SK2
100
AcDbLine
 10
182.0
 20
16.0
 30
0.0
 11
214.768064288
 21
16.0
 31
0.0
  0
LINE
  5
325
330
31F
100
AcDbEntity
  8
SK2
100
AcDbLine
 10
182.0
 20
-16.0
 30
0.0
 11
214.768064288
 21
-16.0
 31
0.0
  0
LINE
  5
326
330
31F
100
AcDbEntity
  8
SK2
100
AcDbLine
 10
213.768064288
 20
16.0
 30
0.0
 11
213.768064288
 21
-16.0
 31
0.0
  0
MTEXT
  5
327
330
31F
100
AcDbEntity
  8
SK2
100
AcDbMText
 10
209.2563271988
 20
-5.6768935122
 30
0.0
 40
3.5
 41
0.0
 71
     1
 72
     1
  1
%%c
  7
SLDTEXTSTYLE0
 11
-7.044195017643634E-15
 21
1.0
 31
0.0
 73
     1
 44
1.0
  0
MTEXT
  5
328
330
31F
100
AcDbEntity
  8
SK2
100
AcDbMText
 10
209.2028550221
 20
-0.3984561138
 30
0.0
 40
3.5
 41
0.0
 71
     1
 72
     1
  1
32
  7
SLDTEXTSTYLE0
 11
-7.044195017643634E-15
 21
1.0
 31
0.0
 73
     1
 44
1.0
  0
ENDBLK
  5
321
330
31F
100
AcDbEntity
  8
0
100
AcDbBlockEnd
  0
BLOCK
  5
32B
330
32A
100
AcDbEntity
  8
0
100
AcDbBlockBegin
  2
_D_8
 70
     0
 10
0.0
 20
0.0
 30
0.0
  3
_D_8
  1

  0
SOLID
  5
32D
330
32A
100
AcDbEntity
  8
SK2
100
AcDbTrace
 10
-101.8
 20
-61.5129683583
 30
0.0
 11
-98.498
 21
-62.0209683583
 31
0.0
 12
-98.498
 22
-61.0049683583
 32
0.0
 13
-98.498
 23
-61.0049683583
 33
0.0
  0
SOLID
  5
32E
330
32A
100
AcDbEntity
  8
SK2
100
AcDbTrace
 10
184.0
 20
-61.5129683583
 30
0.0
 11
180.698
 21
-61.0049683583
 31
0.0
 12
180.698
 22
-62.0209683583
 32
0.0
 13
180.698
 23
-62.0209683583
 33
0.0
  0
LINE
  5
32F
330
32A
100
AcDbEntity
  8
SK2
100
AcDbLine
 10
-101.8
 20
-20.2132836634
 30
0.0
 11
-101.8
 21
-62.5129683583
 31
0.0
  0
LINE
  5
330
330
32A
100
AcDbEntity
  8
SK2
100
AcDbLine
 10
184.0
 20
-16.4710190579
 30
0.0
 11
184.0
 21
-62.5129683583
 31
0.0
  0
LINE
  5
331
330
32A
100
AcDbEntity
  8
SK2
100
AcDbLine
 10
-101.8
 20
-61.5129683583
 30
0.0
 11
184.0
 21
-61.5129683583
 31
0.0
  0
MTEXT
  5
332
330
32A
100
AcDbEntity
  8
SK2
100
AcDbMText
 10
35.9384759996
 20
-57.0012314438
 30
0.0
 40
3.5
 41
0.0
 71
     1
 72
     1
  1
285,8
  7
SLDTEXTSTYLE0
 73
     1
 44
1.0
  0
ENDBLK
  5
32C
330
32A
100
AcDbEntity
  8
0
100
AcDbBlockEnd
  0
ENDSEC
  0
SECTION
  2
ENTITIES
  0
LINE
  5
90
330
1F
100
AcDbEntity
  8
SK1
  6
Continuous
370
    25
100
AcDbLine
 10
193.8191696793
 20
-12.0
 30
0.0
 11
202.5191696793
 21
-12.0
 31
0.0
  0
LINE
  5
91
330
1F
100
AcDbEntity
  8
SK1
  6
Continuous
370
    25
100
AcDbLine
 10
202.5191696793
 20
12.0
 30
0.0
 11
193.8191696793
 21
12.0
 31
0.0
  0
LINE
  5
92
330
1F
100
AcDbEntity
  8
SK1
  6
Continuous
370
    25
100
AcDbLine
 10
202.5191696793
 20
-12.0
 30
0.0
 11
203.5191696793
 21
-11.0
 31
0.0
  0
LINE
  5
93
330
1F
100
AcDbEntity
  8
SK1
  6
Continuous
370
    25
100
AcDbLine
 10
203.5191696793
 20
11.0
 30
0.0
 11
202.5191696793
 21
12.0
 31
0.0
  0
LINE
  5
94
330
1F
100
AcDbEntity
  8
SK1
  6
Continuous
370
    25
100
AcDbLine
 10
184.0
 20
-7.105
 30
0.0
 11
187.5191696793
 21
-7.105
 31
0.0
  0
LINE
  5
95
330
1F
100
AcDbEntity
  8
SK1
  6
Continuous
370
    25
100
AcDbLine
 10
187.5191696793
 20
7.105
 30
0.0
 11
184.0
 21
7.105
 31
0.0
  0
LINE
  5
96
330
1F
100
AcDbEntity
  8
SK1
  6
Continuous
370
    25
100
AcDbLine
 10
192.5191696793
 20
-20.0
 30
0.0
 11
193.5191696793
 21
-19.0
 31
0.0
  0
LINE
  5
97
330
1F
100
AcDbEntity
  8
SK1
  6
Continuous
370
    25
100
AcDbLine
 10
193.5191696793
 20
19.0
 30
0.0
 11
192.5191696793
 21
20.0
 31
0.0
  0
LINE
  5
98
330
1F
100
AcDbEntity
  8
SK1
  6
Continuous
370
    25
100
AcDbLine
 10
187.8191696793
 20
-20.0
 30
0.0
 11
192.5191696793
 21
-20.0
 31
0.0
  0
LINE
  5
99
330
1F
100
AcDbEntity
  8
SK1
  6
Continuous
370
    25
100
AcDbLine
 10
192.5191696793
 20
20.0
 30
0.0
 11
187.8191696793
 21
20.0
 31
0.0
  0
LINE
  5
9A
330
1F
100
AcDbEntity
  8
SK1
  6
Continuous
370
    25
100
AcDbLine
 10
187.8191696793
 20
20.0
 30
0.0
 11
187.5191696793
 21
19.7
 31
0.0
  0
LINE
  5
9B
330
1F
100
AcDbEntity
  8
SK1
  6
Continuous
370
    25
100
AcDbLine
 10
187.5191696793
 20
-19.7
 30
0.0
 11
187.8191696793
 21
-20.0
 31
0.0
  0
LINE
  5
9C
330
1F
100
AcDbEntity
  8
1
  6
Continuous
370
    25
100
AcDbLine
 10
37.25
 20
49.978682327
 30
0.0
 11
35.2499629447
 21
49.978682327
 31
0.0
  0
LINE
  5
9D
330
1F
100
AcDbEntity
  8
1
  6
Continuous
370
    25
100
AcDbLine
 10
35.2499629843
 20
-49.978682327
 30
0.0
 11
37.25
 21
-49.978682327
 31
0.0
  0
LINE
  5
9E
330
1F
100
AcDbEntity
  8
1
  6
Continuous
370
    25
100
AcDbLine
 10
159.2
 20
39.0
 30
0.0
 11
41.0
 21
39.0
 31
0.0
  0
LINE
  5
9F
330
1F
100
AcDbEntity
  8
1
  6
Continuous
370
    25
100
AcDbLine
 10
141.655675755
 20
-39.0
 30
0.0
 11
159.2
 21
-39.0
 31
0.0
  0
LINE
  5
A0
330
1F
100
AcDbEntity
  8
1
  6
Continuous
370
    25
100
AcDbLine
 10
41.0
 20
-39.0
 30
0.0
 11
130.3481142386
 21
-39.0
 31
0.0
  0
LINE
  5
A1
330
1F
100
AcDbEntity
  8
1
  6
Continuous
370
    25
100
AcDbLine
 10
0.2
 20
34.925
 30
0.0
 11
0.0
 21
34.925
 31
0.0
  0
LINE
  5
A2
330
1F
100
AcDbEntity
  8
1
  6
Continuous
370
    25
100
AcDbLine
 10
0.0
 20
-34.925
 30
0.0
 11
0.2
 21
-34.925
 31
0.0
  0
LINE
  5
A3
330
1F
100
AcDbEntity
  8
SK1
  6
Continuous
370
    25
100
AcDbLine
 10
0.0
 20
34.925
 30
0.0
 11
-100.944317822
 21
20.2028150506
 31
0.0
  0
LINE
  5
A4
330
1F
100
AcDbEntity
  8
SK1
  6
Continuous
370
    25
100
AcDbLine
 10
-100.944317822
 20
-20.2028150506
 30
0.0
 11
0.0
 21
-34.925
 31
0.0
  0
LINE
  5
A5
330
1F
100
AcDbEntity
  8
1
  6
Continuous
370
    25
100
AcDbLine
 10
0.2
 20
-34.925
 30
0.0
 11
0.3290707856
 21
-34.8504809472
 31
0.0
  0
LINE
  5
A6
330
1F
100
AcDbEntity
  8
1
  6
Continuous
370
    25
100
AcDbLine
 10
0.3290707856
 20
34.8504809472
 30
0.0
 11
0.2
 21
34.925
 31
0.0
  0
LINE
  5
A7
330
1F
100
AcDbEntity
  8
1
  6
Continuous
370
    25
100
AcDbLine
 10
2.25
 20
34.75
 30
0.0
 11
0.7040707856
 21
34.75
 31
0.0
  0
LINE
  5
A8
330
1F
100
AcDbEntity
  8
1
  6
Continuous
370
    25
100
AcDbLine
 10
0.7040707856
 20
-34.75
 30
0.0
 11
2.25
 21
-34.75
 31
0.0
  0
LINE
  5
A9
330
1F
100
AcDbEntity
  8
SK1
  6
Continuous
370
    25
100
AcDbLine
 10
181.0
 20
-16.0
 30
0.0
 11
184.0
 21
-15.4710190579
 31
0.0
  0
LINE
  5
AA
330
1F
100
AcDbEntity
  8
SK1
  6
Continuous
370
    25
100
AcDbLine
 10
184.0
 20
15.4710190579
 30
0.0
 11
181.0
 21
16.0
 31
0.0
  0
LINE
  5
AB
330
1F
100
AcDbEntity
  8
SK1
  6
Continuous
370
    25
100
AcDbLine
 10
161.3439594644
 20
16.0
 30
0.0
 11
160.6605646396
 21
15.7845264394
 31
0.0
  0
LINE
  5
AC
330
1F
100
AcDbEntity
  8
SK1
  6
Continuous
370
    25
100
AcDbLine
 10
160.6605646396
 20
-15.7845264394
 30
0.0
 11
161.3439594644
 21
-16.0
 31
0.0
  0
LINE
  5
AD
330
1F
100
AcDbEntity
  8
SK1
  6
Continuous
370
    25
100
AcDbLine
 10
181.0
 20
16.0
 30
0.0
 11
161.3439594644
 21
16.0
 31
0.0
  0
LINE
  5
AE
330
1F
100
AcDbEntity
  8
SK1
  6
Continuous
370
    25
100
AcDbLine
 10
161.3439594644
 20
-16.0
 30
0.0
 11
181.0
 21
-16.0
 31
0.0
  0
LINE
  5
AF
330
1F
100
AcDbEntity
  8
SK1
  6
Continuous
370
    25
100
AcDbLine
 10
202.5191696793
 20
5.1750016777
 30
0.0
 11
202.5191696793
 21
12.0
 31
0.0
  0
LINE
  5
B0
330
1F
100
AcDbEntity
  8
SK1
  6
Continuous
370
    25
100
AcDbLine
 10
202.5191696793
 20
-12.0
 30
0.0
 11
202.5191696793
 21
5.1750016777
 31
0.0
  0
LINE
  5
B1
330
1F
100
AcDbEntity
  8
SK1
  6
Continuous
370
    25
100
AcDbLine
 10
203.5191696793
 20
4.7437515379
 30
0.0
 11
203.5191696793
 21
-11.0
 31
0.0
  0
LINE
  5
B2
330
1F
100
AcDbEntity
  8
SK1
  6
Continuous
370
    25
100
AcDbLine
 10
203.5191696793
 20
11.0
 30
0.0
 11
203.5191696793
 21
4.7437515379
 31
0.0
  0
LINE
  5
B3
330
1F
100
AcDbEntity
  8
SK1
  6
Continuous
370
    25
100
AcDbLine
 10
193.5191696793
 20
0.2544097293
 30
0.0
 11
193.5191696793
 21
19.0
 31
0.0
  0
LINE
  5
B4
330
1F
100
AcDbEntity
  8
SK1
  6
Continuous
370
    25
100
AcDbLine
 10
193.5191696793
 20
-19.0
 30
0.0
 11
193.5191696793
 21
0.2544097293
 31
0.0
  0
LINE
  5
B5
330
1F
100
AcDbEntity
  8
SK1
  6
Continuous
370
    25
100
AcDbLine
 10
192.5191696793
 20
0.267799715
 30
0.0
 11
192.5191696793
 21
20.0
 31
0.0
  0
LINE
  5
B6
330
1F
100
AcDbEntity
  8
SK1
  6
Continuous
370
    25
100
AcDbLine
 10
192.5191696793
 20
-20.0
 30
0.0
 11
192.5191696793
 21
0.267799715
 31
0.0
  0
LINE
  5
B7
330
1F
100
AcDbEntity
  8
SK1
  6
Continuous
370
    25
100
AcDbLine
 10
187.8191696793
 20
20.0
 30
0.0
 11
187.8191696793
 21
-20.0
 31
0.0
  0
LINE
  5
B8
330
1F
100
AcDbEntity
  8
SK1
  6
Continuous
370
    25
100
AcDbLine
 10
187.5191696793
 20
-19.7
 30
0.0
 11
187.5191696793
 21
19.7
 31
0.0
  0
LINE
  5
B9
330
1F
100
AcDbEntity
  8
SK1
  6
Continuous
370
    25
100
AcDbLine
 10
160.0
 20
-32.0686192004
 30
0.0
 11
165.7009618943
 21
-32.0686192004
 31
0.0
  0
LINE
  5
BA
330
1F
100
AcDbEntity
  8
SK1
  6
Continuous
370
    25
100
AcDbLine
 10
160.0
 20
-26.6639241297
 30
0.0
 11
160.0296155741
 21
-26.6639241297
 31
0.0
  0
LINE
  5
BB
330
1F
100
AcDbEntity
  8
SK1
  6
Continuous
370
    25
100
AcDbLine
 10
160.0296155741
 20
-25.3360758703
 30
0.0
 11
160.0
 21
-25.3360758703
 31
0.0
  0
LINE
  5
BC
330
1F
100
AcDbEntity
  8
SK1
  6
Continuous
370
    25
100
AcDbLine
 10
165.7009618943
 20
-19.9313807996
 30
0.0
 11
160.0
 21
-19.9313807996
 31
0.0
  0
LINE
  5
BD
330
1F
100
AcDbEntity
  8
SK1
  6
Continuous
370
    25
100
AcDbLine
 10
167.0
 20
-25.484598215
 30
0.0
 11
167.0
 21
-26.515401785
 31
0.0
  0
LINE
  5
BE
330
1F
100
AcDbEntity
  8
SK1
  6
Continuous
370
    25
100
AcDbLine
 10
165.7009618943
 20
-19.019
 30
0.0
 11
165.7009618943
 21
-19.9313807996
 31
0.0
  0
LINE
  5
BF
330
1F
100
AcDbEntity
  8
SK1
  6
Continuous
370
    25
100
AcDbLine
 10
167.0
 20
-19.019
 30
0.0
 11
167.0
 21
-25.484598215
 31
0.0
  0
LINE
  5
C0
330
1F
100
AcDbEntity
  8
SK1
  6
Continuous
370
    25
100
AcDbLine
 10
165.7009618943
 20
-32.0686192004
 30
0.0
 11
165.7009618943
 21
-32.981
 31
0.0
  0
LINE
  5
C1
330
1F
100
AcDbEntity
  8
SK1
  6
Continuous
370
    25
100
AcDbLine
 10
167.0
 20
-26.515401785
 30
0.0
 11
167.0
 21
-32.981
 31
0.0
  0
LINE
  5
C2
330
1F
100
AcDbEntity
  8
SK1
  6
Continuous
370
    25
100
AcDbLine
 10
165.7009618943
 20
-32.981
 30
0.0
 11
160.0
 21
-32.981
 31
0.0
  0
LINE
  5
C3
330
1F
100
AcDbEntity
  8
SK1
  6
Continuous
370
    25
100
AcDbLine
 10
160.0
 20
-19.019
 30
0.0
 11
165.7009618943
 21
-19.019
 31
0.0
  0
LINE
  5
C4
330
1F
100
AcDbEntity
  8
SK1
  6
Continuous
370
    25
100
AcDbLine
 10
160.0
 20
19.9313807996
 30
0.0
 11
165.7009618943
 21
19.9313807996
 31
0.0
  0
LINE
  5
C5
330
1F
100
AcDbEntity
  8
SK1
  6
Continuous
370
    25
100
AcDbLine
 10
160.0
 20
25.3360758703
 30
0.0
 11
160.0296155741
 21
25.3360758703
 31
0.0
  0
LINE
  5
C6
330
1F
100
AcDbEntity
  8
SK1
  6
Continuous
370
    25
100
AcDbLine
 10
160.0296155741
 20
26.6639241297
 30
0.0
 11
160.0
 21
26.6639241297
 31
0.0
  0
LINE
  5
C7
330
1F
100
AcDbEntity
  8
SK1
  6
Continuous
370
    25
100
AcDbLine
 10
165.7009618943
 20
32.0686192004
 30
0.0
 11
160.0
 21
32.0686192004
 31
0.0
  0
LINE
  5
C8
330
1F
100
AcDbEntity
  8
SK1
  6
Continuous
370
    25
100
AcDbLine
 10
167.0
 20
26.515401785
 30
0.0
 11
167.0
 21
25.484598215
 31
0.0
  0
LINE
  5
C9
330
1F
100
AcDbEntity
  8
SK1
  6
Continuous
370
    25
100
AcDbLine
 10
167.0
 20
25.484598215
 30
0.0
 11
167.0
 21
19.019
 31
0.0
  0
LINE
  5
CA
330
1F
100
AcDbEntity
  8
SK1
  6
Continuous
370
    25
100
AcDbLine
 10
165.7009618943
 20
19.9313807996
 30
0.0
 11
165.7009618943
 21
19.019
 31
0.0
  0
LINE
  5
CB
330
1F
100
AcDbEntity
  8
SK1
  6
Continuous
370
    25
100
AcDbLine
 10
165.7009618943
 20
19.019
 30
0.0
 11
160.0
 21
19.019
 31
0.0
  0
LINE
  5
CC
330
1F
100
AcDbEntity
  8
SK1
  6
Continuous
370
    25
100
AcDbLine
 10
165.7009618943
 20
32.981
 30
0.0
 11
165.7009618943
 21
32.0686192004
 31
0.0
  0
LINE
  5
CD
330
1F
100
AcDbEntity
  8
SK1
  6
Continuous
370
    25
100
AcDbLine
 10
167.0
 20
32.981
 30
0.0
 11
167.0
 21
26.515401785
 31
0.0
  0
LINE
  5
CE
330
1F
100
AcDbEntity
  8
SK1
  6
Continuous
370
    25
100
AcDbLine
 10
160.0
 20
32.981
 30
0.0
 11
165.7009618943
 21
32.981
 31
0.0
  0
LINE
  5
CF
330
1F
100
AcDbEntity
  8
1
  6
Continuous
370
    25
100
AcDbLine
 10
26.705
 20
41.3432989685
 30
0.0
 11
26.705
 21
-41.3432989685
 31
0.0
  0
LINE
  5
D0
330
1F
100
AcDbEntity
  8
1
  6
Continuous
370
    25
100
AcDbLine
 10
30.7299999991
 20
48.9054375781
 30
0.0
 11
30.73
 21
-48.9054375688
 31
0.0
  0
LINE
  5
D1
330
1F
100
AcDbEntity
  8
1
  6
Continuous
370
    25
100
AcDbLine
 10
15.68
 20
48.0190137994
 30
0.0
 11
3.75
 21
48.0190137994
 31
0.0
  0
LINE
  5
D2
330
1F
100
AcDbEntity
  8
1
  6
Continuous
370
    25
100
AcDbLine
 10
15.68
 20
48.0190137994
 30
0.0
 11
15.68
 21
-48.0190137994
 31
0.0
  0
LINE
  5
D3
330
1F
100
AcDbEntity
  8
1
  6
Continuous
370
    25
100
AcDbLine
 10
3.75
 20
-48.0190137994
 30
0.0
 11
15.68
 21
-48.0190137994
 31
0.0
  0
LINE
  5
D4
330
1F
100
AcDbEntity
  8
1
  6
Continuous
370
    25
100
AcDbLine
 10
3.75
 20
48.0190137994
 30
0.0
 11
3.75
 21
-48.0190137994
 31
0.0
  0
LINE
  5
D5
330
1F
100
AcDbEntity
  8
1
  6
Continuous
370
    25
100
AcDbLine
 10
3.0
 20
-47.2984213653
 30
0.0
 11
3.0
 21
47.2984213653
 31
0.0
  0
LINE
  5
D6
330
1F
100
AcDbEntity
  8
1
  6
Continuous
370
    25
100
AcDbLine
 10
38.0
 20
0.0
 30
0.0
 11
38.0
 21
-49.228682327
 31
0.0
  0
LINE
  5
D7
330
1F
100
AcDbEntity
  8
1
  6
Continuous
370
    25
100
AcDbLine
 10
38.0
 20
49.228682327
 30
0.0
 11
38.0
 21
0.0
 31
0.0
  0
LINE
  5
D8
330
1F
100
AcDbEntity
  8
1
  6
Continuous
370
    25
100
AcDbLine
 10
19.705
 20
41.0269100055
 30
0.0
 11
19.705
 21
-41.0269100055
 31
0.0
  0
LINE
  5
D9
330
1F
100
AcDbEntity
  8
1
  6
Continuous
370
    25
100
AcDbLine
 10
26.33
 20
40.7702452777
 30
0.0
 11
26.33
 21
-40.7702452777
 31
0.0
  0
LINE
  5
DA
330
1F
100
AcDbEntity
  8
1
  6
Continuous
370
    25
100
AcDbLine
 10
20.08
 20
40.4949379553
 30
0.0
 11
20.08
 21
-40.4949379553
 31
0.0
  0
LINE
  5
DB
330
1F
100
AcDbEntity
  8
1
  6
Continuous
370
    25
100
AcDbLine
 10
21.6
 20
-40.4949379553
 30
0.0
 11
20.08
 21
-40.4949379553
 31
0.0
  0
LINE
  5
DC
330
1F
100
AcDbEntity
  8
1
  6
Continuous
370
    25
100
AcDbLine
 10
21.6
 20
40.4949379553
 30
0.0
 11
20.08
 21
40.4949379553
 31
0.0
  0
LINE
  5
DD
330
1F
100
AcDbEntity
  8
1
  6
Continuous
370
    25
100
AcDbLine
 10
160.0
 20
0.0
 30
0.0
 11
160.0
 21
-38.2
 31
0.0
  0
LINE
  5
DE
330
1F
100
AcDbEntity
  8
1
  6
Continuous
370
    25
100
AcDbLine
 10
160.0
 20
38.2
 30
0.0
 11
160.0
 21
0.0
 31
0.0
  0
LINE
  5
DF
330
1F
100
AcDbEntity
  8
1
  6
Continuous
370
    25
100
AcDbLine
 10
0.0
 20
34.925
 30
0.0
 11
0.0
 21
-34.925
 31
0.0
  0
LINE
  5
E0
330
1F
100
AcDbEntity
  8
1
  6
Continuous
370
    25
100
AcDbLine
 10
0.2
 20
34.925
 30
0.0
 11
0.2
 21
-34.925
 31
0.0
  0
LINE
  5
E1
330
1F
100
AcDbEntity
  8
SK1
  6
Continuous
370
    25
100
AcDbLine
 10
-101.8
 20
-19.2132836634
 30
0.0
 11
-101.8
 21
19.2132836634
 31
0.0
  0
LINE
  5
E2
330
1F
100
AcDbEntity
  8
SK1
  6
Continuous
370
    25
100
AcDbLine
 10
181.0
 20
16.0
 30
0.0
 11
181.0
 21
-16.0
 31
0.0
  0
LINE
  5
E3
330
1F
100
AcDbEntity
  8
SK1
  6
Continuous
370
    25
100
AcDbLine
 10
184.0
 20
15.4710190579
 30
0.0
 11
184.0
 21
-15.4710190579
 31
0.0
  0
LINE
  5
E4
330
1F
100
AcDbEntity
  8
SK1
  6
Continuous
370
    25
100
AcDbLine
 10
161.3439594644
 20
16.0
 30
0.0
 11
161.3439594644
 21
-16.0
 31
0.0
  0
LINE
  5
E5
330
1F
100
AcDbEntity
  8
SK1
  6
Continuous
370
    25
100
AcDbLine
 10
193.8191696793
 20
12.0
 30
0.0
 11
193.8191696793
 21
-12.0
 31
0.0
  0
LINE
  5
E6
330
1F
100
AcDbEntity
  8
SK1
  6
Continuous
370
    25
100
AcDbLine
 10
160.0296155741
 20
-23.0091722392
 30
0.0
 11
160.0296155741
 21
-25.3360758703
 31
0.0
  0
LINE
  5
E7
330
1F
100
AcDbEntity
  8
SK1
  6
Continuous
370
    25
100
AcDbLine
 10
160.0296155741
 20
-26.6639241297
 30
0.0
 11
160.0296155741
 21
-28.9708268457
 31
0.0
  0
LINE
  5
E8
330
1F
100
AcDbEntity
  8
SK1
  6
Continuous
370
    25
100
AcDbLine
 10
160.0296155741
 20
25.3360758703
 30
0.0
 11
160.0296155741
 21
23.0294845489
 31
0.0
  0
LINE
  5
E9
330
1F
100
AcDbEntity
  8
SK1
  6
Continuous
370
    25
100
AcDbLine
 10
160.0296155741
 20
28.9896295841
 30
0.0
 11
160.0296155741
 21
26.6639241297
 31
0.0
  0
LINE
  5
EA
330
1F
100
AcDbEntity
  8
1
  6
Continuous
370
    25
100
AcDbLine
 10
37.25
 20
0.0
 30
0.0
 11
37.25
 21
49.978682327
 31
0.0
  0
LINE
  5
EB
330
1F
100
AcDbEntity
  8
1
  6
Continuous
370
    25
100
AcDbLine
 10
37.25
 20
-49.978682327
 30
0.0
 11
37.25
 21
0.0
 31
0.0
  0
LINE
  5
EC
330
1F
100
AcDbEntity
  8
1
  6
Continuous
370
    25
100
AcDbLine
 10
41.0
 20
0.0
 30
0.0
 11
41.0
 21
-39.0
 31
0.0
  0
LINE
  5
ED
330
1F
100
AcDbEntity
  8
1
  6
Continuous
370
    25
100
AcDbLine
 10
41.0
 20
39.0
 30
0.0
 11
41.0
 21
0.0
 31
0.0
  0
LINE
  5
EE
330
1F
100
AcDbEntity
  8
1
  6
Continuous
370
    25
100
AcDbLine
 10
159.2
 20
0.0
 30
0.0
 11
159.2
 21
39.0
 31
0.0
  0
LINE
  5
EF
330
1F
100
AcDbEntity
  8
1
  6
Continuous
370
    25
100
AcDbLine
 10
159.2
 20
-39.0
 30
0.0
 11
159.2
 21
0.0
 31
0.0
  0
LINE
  5
F0
330
1F
100
AcDbEntity
  8
1
  6
Continuous
370
    25
100
AcDbLine
 10
2.25
 20
34.75
 30
0.0
 11
2.25
 21
-34.75
 31
0.0
  0
LINE
  5
F1
330
1F
100
AcDbEntity
  8
SK1
  6
Continuous
370
    25
100
AcDbLine
 10
-100.944317822
 20
0.0
 30
0.0
 11
-100.944317822
 21
-20.2028150506
 31
0.0
  0
LINE
  5
F2
330
1F
100
AcDbEntity
  8
SK1
  6
Continuous
370
    25
100
AcDbLine
 10
-100.944317822
 20
20.2028150506
 30
0.0
 11
-100.944317822
 21
0.0
 31
0.0
  0
LINE
  5
F3
330
1F
100
AcDbEntity
  8
1
  6
Continuous
370
    25
100
AcDbLine
 10
0.3290707856
 20
34.8504809472
 30
0.0
 11
0.3290707856
 21
-34.8504809472
 31
0.0
  0
LINE
  5
F4
330
1F
100
AcDbEntity
  8
1
  6
Continuous
370
    25
100
AcDbLine
 10
0.7040707856
 20
34.75
 30
0.0
 11
0.7040707856
 21
-34.75
 31
0.0
  0
LINE
  5
F5
330
1F
100
AcDbEntity
  8
SK1
  6
Continuous
370
    25
100
AcDbLine
 10
160.6605646396
 20
15.7845264394
 30
0.0
 11
160.6605646396
 21
-15.7845264394
 31
0.0
  0
LINE
  5
F6
330
1F
100
AcDbEntity
  8
SK3
  6
HIDDEN
370
    18
100
AcDbLine
 10
6.2723069743
 20
-13.9015950424
 30
0.0
 11
6.0738681408
 21
-13.1524141642
 31
0.0
  0
LINE
  5
F7
330
1F
100
AcDbEntity
  8
SK3
  6
HIDDEN
370
    18
100
AcDbLine
 10
6.0738681408
 20
-13.1524141642
 30
0.0
 11
5.7563427035
 21
-12.4698012947
 31
0.0
  0
LINE
  5
F8
330
1F
100
AcDbEntity
  8
SK3
  6
HIDDEN
370
    18
100
AcDbLine
 10
5.7563427035
 20
-12.4698012947
 30
0.0
 11
5.3479441909
 21
-11.914409583
 31
0.0
  0
LINE
  5
F9
330
1F
100
AcDbEntity
  8
SK3
  6
HIDDEN
370
    18
100
AcDbLine
 10
5.3479441909
 20
-11.914409583
 30
0.0
 11
4.884960603
 21
-11.53558802
 31
0.0
  0
LINE
  5
FA
330
1F
100
AcDbEntity
  8
SK3
  6
HIDDEN
370
    18
100
AcDbLine
 10
4.884960603
 20
-11.53558802
 30
0.0
 11
4.4085300634
 21
-11.366996564
 31
0.0
  0
LINE
  5
FB
330
1F
100
AcDbEntity
  8
SK3
  6
HIDDEN
370
    18
100
AcDbLine
 10
4.4085300634
 20
-11.366996564
 30
0.0
 11
3.9609855163
 21
-11.4236153057
 31
0.0
  0
LINE
  5
FC
330
1F
100
AcDbEntity
  8
SK3
  6
HIDDEN
370
    18
100
AcDbLine
 10
3.9609855163
 20
-11.4236153057
 30
0.0
 11
3.5820932588
 21
-11.7004134215
 31
0.0
  0
LINE
  5
FD
330
1F
100
AcDbEntity
  8
SK3
  6
HIDDEN
370
    18
100
AcDbLine
 10
3.5820932588
 20
-11.7004134215
 30
0.0
 11
3.3055195307
 21
-12.172796184
 31
0.0
  0
LINE
  5
FE
330
1F
100
AcDbEntity
  8
SK3
  6
HIDDEN
370
    18
100
AcDbLine
 10
3.3055195307
 20
-12.172796184
 30
0.0
 11
3.1558391214
 21
-12.7987903117
 31
0.0
  0
LINE
  5
FF
330
1F
100
AcDbEntity
  8
SK3
  6
HIDDEN
370
    18
100
AcDbLine
 10
3.1558391214
 20
-12.7987903117
 30
0.0
 11
3.1463517921
 21
-13.5227734794
 31
0.0
  0
LINE
  5
100
330
1F
100
AcDbEntity
  8
SK3
  6
HIDDEN
370
    18
100
AcDbLine
 10
3.1463517921
 20
-13.5227734794
 30
0.0
 11
3.2779005338
 21
-14.2804166054
 31
0.0
  0
LINE
  5
101
330
1F
100
AcDbEntity
  8
SK3
  6
HIDDEN
370
    18
100
AcDbLine
 10
3.2779005338
 20
-14.2804166054
 30
0.0
 11
3.5387966634
 21
-15.0043997731
 31
0.0
  0
LINE
  5
102
330
1F
100
AcDbEntity
  8
SK3
  6
HIDDEN
370
    18
100
AcDbLine
 10
3.5387966634
 20
-15.0043997731
 30
0.0
 11
3.9058584148
 21
-15.6303939009
 31
0.0
  0
LINE
  5
103
330
1F
100
AcDbEntity
  8
SK3
  6
HIDDEN
370
    18
100
AcDbLine
 10
3.9058584148
 20
-15.6303939009
 30
0.0
 11
4.3464707407
 21
-16.1027766634
 31
0.0
  0
LINE
  5
104
330
1F
100
AcDbEntity
  8
SK3
  6
HIDDEN
370
    18
100
AcDbLine
 10
4.3464707407
 20
-16.1027766634
 30
0.0
 11
4.8214833023
 21
-16.3795747791
 31
0.0
  0
LINE
  5
105
330
1F
100
AcDbEntity
  8
SK3
  6
HIDDEN
370
    18
100
AcDbLine
 10
4.8214833023
 20
-16.3795747791
 30
0.0
 11
5.2886891489
 21
-16.4361935208
 31
0.0
  0
LINE
  5
106
330
1F
100
AcDbEntity
  8
SK3
  6
HIDDEN
370
    18
100
AcDbLine
 10
5.2886891489
 20
-16.4361935208
 30
0.0
 11
5.7065749908
 21
-16.2676020648
 31
0.0
  0
LINE
  5
107
330
1F
100
AcDbEntity
  8
SK3
  6
HIDDEN
370
    18
100
AcDbLine
 10
5.7065749908
 20
-16.2676020648
 30
0.0
 11
6.038009837
 21
-15.8887805018
 31
0.0
  0
LINE
  5
108
330
1F
100
AcDbEntity
  8
SK3
  6
HIDDEN
370
    18
100
AcDbLine
 10
6.038009837
 20
-15.8887805018
 30
0.0
 11
6.253544247
 21
-15.3333887902
 31
0.0
  0
LINE
  5
109
330
1F
100
AcDbEntity
  8
SK3
  6
HIDDEN
370
    18
100
AcDbLine
 10
6.253544247
 20
-15.3333887902
 30
0.0
 11
6.3340270426
 21
-14.6507759207
 31
0.0
  0
LINE
  5
10A
330
1F
100
AcDbEntity
  8
SK3
  6
HIDDEN
370
    18
100
AcDbLine
 10
6.3340270426
 20
-14.6507759207
 30
0.0
 11
6.2723069743
 21
-13.9015950424
 31
0.0
  0
LINE
  5
10B
330
1F
100
AcDbEntity
  8
SK3
  6
HIDDEN
370
    18
100
AcDbLine
 10
3.0
 20
-11.6830262215
 30
0.0
 11
3.0
 21
-17.0466658179
 31
0.0
  0
LINE
  5
10C
330
1F
100
AcDbEntity
  8
SK3
  6
HIDDEN
370
    18
100
AcDbLine
 10
11.1
 20
-16.2646500609
 30
0.0
 11
10.4685723366
 21
-16.1466258223
 31
0.0
  0
LINE
  5
10D
330
1F
100
AcDbEntity
  8
SK3
  6
HIDDEN
370
    18
100
AcDbLine
 10
10.4685723366
 20
-16.1466258223
 30
0.0
 11
9.933273811
 21
-15.8105212268
 31
0.0
  0
LINE
  5
10E
330
1F
100
AcDbEntity
  8
SK3
  6
HIDDEN
370
    18
100
AcDbLine
 10
9.933273811
 20
-15.8105212268
 30
0.0
 11
9.5755987714
 21
-15.3075051525
 31
0.0
  0
LINE
  5
10F
330
1F
100
AcDbEntity
  8
SK3
  6
HIDDEN
370
    18
100
AcDbLine
 10
9.5755987714
 20
-15.3075051525
 30
0.0
 11
9.45
 21
-14.7141572366
 31
0.0
  0
LINE
  5
110
330
1F
100
AcDbEntity
  8
SK3
  6
HIDDEN
370
    18
100
AcDbLine
 10
9.45
 20
-14.7141572366
 30
0.0
 11
9.5755987714
 21
-14.1208093207
 31
0.0
  0
LINE
  5
111
330
1F
100
AcDbEntity
  8
SK3
  6
HIDDEN
370
    18
100
AcDbLine
 10
9.5755987714
 20
-14.1208093207
 30
0.0
 11
9.933273811
 21
-13.6177932464
 31
0.0
  0
LINE
  5
112
330
1F
100
AcDbEntity
  8
SK3
  6
HIDDEN
370
    18
100
AcDbLine
 10
9.933273811
 20
-13.6177932464
 30
0.0
 11
10.4685723366
 21
-13.2816886509
 31
0.0
  0
LINE
  5
113
330
1F
100
AcDbEntity
  8
SK3
  6
HIDDEN
370
    18
100
AcDbLine
 10
10.4685723366
 20
-13.2816886509
 30
0.0
 11
11.1
 21
-13.1636644123
 31
0.0
  0
LINE
  5
114
330
1F
100
AcDbEntity
  8
SK3
  6
HIDDEN
370
    18
100
AcDbLine
 10
11.1
 20
-13.1636644123
 30
0.0
 11
11.7314276634
 21
-13.2816886509
 31
0.0
  0
LINE
  5
115
330
1F
100
AcDbEntity
  8
SK3
  6
HIDDEN
370
    18
100
AcDbLine
 10
11.7314276634
 20
-13.2816886509
 30
0.0
 11
12.266726189
 21
-13.6177932464
 31
0.0
  0
LINE
  5
116
330
1F
100
AcDbEntity
  8
SK3
  6
HIDDEN
370
    18
100
AcDbLine
 10
12.266726189
 20
-13.6177932464
 30
0.0
 11
12.6244012286
 21
-14.1208093207
 31
0.0
  0
LINE
  5
117
330
1F
100
AcDbEntity
  8
SK3
  6
HIDDEN
370
    18
100
AcDbLine
 10
12.6244012286
 20
-14.1208093207
 30
0.0
 11
12.75
 21
-14.7141572366
 31
0.0
  0
LINE
  5
118
330
1F
100
AcDbEntity
  8
SK3
  6
HIDDEN
370
    18
100
AcDbLine
 10
12.75
 20
-14.7141572366
 30
0.0
 11
12.6244012286
 21
-15.3075051525
 31
0.0
  0
LINE
  5
119
330
1F
100
AcDbEntity
  8
SK3
  6
HIDDEN
370
    18
100
AcDbLine
 10
12.6244012286
 20
-15.3075051525
 30
0.0
 11
12.266726189
 21
-15.8105212268
 31
0.0
  0
LINE
  5
11A
330
1F
100
AcDbEntity
  8
SK3
  6
HIDDEN
370
    18
100
AcDbLine
 10
12.266726189
 20
-15.8105212268
 30
0.0
 11
11.7314276634
 21
-16.1466258223
 31
0.0
  0
LINE
  5
11B
330
1F
100
AcDbEntity
  8
SK3
  6
HIDDEN
370
    18
100
AcDbLine
 10
11.7314276634
 20
-16.1466258223
 30
0.0
 11
11.1
 21
-16.2646500609
 31
0.0
  0
LINE
  5
11C
330
1F
100
AcDbEntity
  8
SK3
  6
HIDDEN
370
    18
100
AcDbLine
 10
6.1835367829
 20
-13.9015950424
 30
0.0
 11
5.9840672936
 21
-13.1614780987
 31
0.0
  0
LINE
  5
11D
330
1F
100
AcDbEntity
  8
SK3
  6
HIDDEN
370
    18
100
AcDbLine
 10
5.9840672936
 20
-13.1614780987
 30
0.0
 11
5.6621956688
 21
-12.4938089582
 31
0.0
  0
LINE
  5
11E
330
1F
100
AcDbEntity
  8
SK3
  6
HIDDEN
370
    18
100
AcDbLine
 10
5.6621956688
 20
-12.4938089582
 30
0.0
 11
5.2494289459
 21
-11.9639437282
 31
0.0
  0
LINE
  5
11F
330
1F
100
AcDbEntity
  8
SK3
  6
HIDDEN
370
    18
100
AcDbLine
 10
5.2494289459
 20
-11.9639437282
 30
0.0
 11
4.7861716076
 21
-11.6237493092
 31
0.0
  0
LINE
  5
120
330
1F
100
AcDbEntity
  8
SK3
  6
HIDDEN
370
    18
100
AcDbLine
 10
4.7861716076
 20
-11.6237493092
 30
0.0
 11
4.3177705098
 21
-11.5065263013
 31
0.0
  0
LINE
  5
121
330
1F
100
AcDbEntity
  8
SK3
  6
HIDDEN
370
    18
100
AcDbLine
 10
4.3177705098
 20
-11.5065263013
 30
0.0
 11
3.8900760156
 21
-11.6237493092
 31
0.0
  0
LINE
  5
122
330
1F
100
AcDbEntity
  8
SK3
  6
HIDDEN
370
    18
100
AcDbLine
 10
3.8900760156
 20
-11.6237493092
 30
0.0
 11
3.544953842
 21
-11.9639437282
 31
0.0
  0
LINE
  5
123
330
1F
100
AcDbEntity
  8
SK3
  6
HIDDEN
370
    18
100
AcDbLine
 10
3.544953842
 20
-11.9639437282
 30
0.0
 11
3.3161869519
 21
-12.4938089582
 31
0.0
  0
LINE
  5
124
330
1F
100
AcDbEntity
  8
SK3
  6
HIDDEN
370
    18
100
AcDbLine
 10
3.3161869519
 20
-12.4938089582
 30
0.0
 11
3.2261686424
 21
-13.1614780987
 31
0.0
  0
LINE
  5
125
330
1F
100
AcDbEntity
  8
SK3
  6
HIDDEN
370
    18
100
AcDbLine
 10
3.2261686424
 20
-13.1614780987
 30
0.0
 11
3.2837105329
 21
-13.9015950424
 31
0.0
  0
LINE
  5
126
330
1F
100
AcDbEntity
  8
SK3
  6
HIDDEN
370
    18
100
AcDbLine
 10
3.2837105329
 20
-13.9015950424
 30
0.0
 11
3.4831800223
 21
-14.6417119861
 31
0.0
  0
LINE
  5
127
330
1F
100
AcDbEntity
  8
SK3
  6
HIDDEN
370
    18
100
AcDbLine
 10
3.4831800223
 20
-14.6417119861
 30
0.0
 11
3.805051647
 21
-15.3093811266
 31
0.0
  0
LINE
  5
128
330
1F
100
AcDbEntity
  8
SK3
  6
HIDDEN
370
    18
100
AcDbLine
 10
3.805051647
 20
-15.3093811266
 30
0.0
 11
4.21781837
 21
-15.8392463566
 31
0.0
  0
LINE
  5
129
330
1F
100
AcDbEntity
  8
SK3
  6
HIDDEN
370
    18
100
AcDbLine
 10
4.21781837
 20
-15.8392463566
 30
0.0
 11
4.6810757083
 21
-16.1794407756
 31
0.0
  0
LINE
  5
12A
330
1F
100
AcDbEntity
  8
SK3
  6
HIDDEN
370
    18
100
AcDbLine
 10
4.6810757083
 20
-16.1794407756
 30
0.0
 11
5.1494768061
 21
-16.2966637835
 31
0.0
  0
LINE
  5
12B
330
1F
100
AcDbEntity
  8
SK3
  6
HIDDEN
370
    18
100
AcDbLine
 10
5.1494768061
 20
-16.2966637835
 30
0.0
 11
5.5771713003
 21
-16.1794407756
 31
0.0
  0
LINE
  5
12C
330
1F
100
AcDbEntity
  8
SK3
  6
HIDDEN
370
    18
100
AcDbLine
 10
5.5771713003
 20
-16.1794407756
 30
0.0
 11
5.9222934739
 21
-15.8392463566
 31
0.0
  0
LINE
  5
12D
330
1F
100
AcDbEntity
  8
SK3
  6
HIDDEN
370
    18
100
AcDbLine
 10
5.9222934739
 20
-15.8392463566
 30
0.0
 11
6.151060364
 21
-15.3093811266
 31
0.0
  0
LINE
  5
12E
330
1F
100
AcDbEntity
  8
SK3
  6
HIDDEN
370
    18
100
AcDbLine
 10
6.151060364
 20
-15.3093811266
 30
0.0
 11
6.2410786735
 21
-14.6417119861
 31
0.0
  0
LINE
  5
12F
330
1F
100
AcDbEntity
  8
SK3
  6
HIDDEN
370
    18
100
AcDbLine
 10
6.2410786735
 20
-14.6417119861
 30
0.0
 11
6.1835367829
 21
-13.9015950424
 31
0.0
  0
LINE
  5
130
330
1F
100
AcDbEntity
  8
SK3
  6
HIDDEN
370
    18
100
AcDbLine
 10
16.9792841073
 20
-11.0168048658
 30
0.0
 11
16.779814618
 21
-10.2766879221
 31
0.0
  0
LINE
  5
131
330
1F
100
AcDbEntity
  8
SK3
  6
HIDDEN
370
    18
100
AcDbLine
 10
16.779814618
 20
-10.2766879221
 30
0.0
 11
16.4579429932
 21
-9.6090187815
 31
0.0
  0
LINE
  5
132
330
1F
100
AcDbEntity
  8
SK3
  6
HIDDEN
370
    18
100
AcDbLine
 10
16.4579429932
 20
-9.6090187815
 30
0.0
 11
16.0451762703
 21
-9.0791535516
 31
0.0
  0
LINE
  5
133
330
1F
100
AcDbEntity
  8
SK3
  6
HIDDEN
370
    18
100
AcDbLine
 10
16.0451762703
 20
-9.0791535516
 30
0.0
 11
15.581918932
 21
-8.7389591326
 31
0.0
  0
LINE
  5
134
330
1F
100
AcDbEntity
  8
SK3
  6
HIDDEN
370
    18
100
AcDbLine
 10
15.581918932
 20
-8.7389591326
 30
0.0
 11
15.1135178342
 21
-8.6217361247
 31
0.0
  0
LINE
  5
135
330
1F
100
AcDbEntity
  8
SK3
  6
HIDDEN
370
    18
100
AcDbLine
 10
15.1135178342
 20
-8.6217361247
 30
0.0
 11
14.68582334
 21
-8.7389591326
 31
0.0
  0
LINE
  5
136
330
1F
100
AcDbEntity
  8
SK3
  6
HIDDEN
370
    18
100
AcDbLine
 10
14.68582334
 20
-8.7389591326
 30
0.0
 11
14.3407011664
 21
-9.0791535516
 31
0.0
  0
LINE
  5
137
330
1F
100
AcDbEntity
  8
SK3
  6
HIDDEN
370
    18
100
AcDbLine
 10
14.3407011664
 20
-9.0791535516
 30
0.0
 11
14.1119342763
 21
-9.6090187815
 31
0.0
  0
LINE
  5
138
330
1F
100
AcDbEntity
  8
SK3
  6
HIDDEN
370
    18
100
AcDbLine
 10
14.1119342763
 20
-9.6090187815
 30
0.0
 11
14.0219159668
 21
-10.2766879221
 31
0.0
  0
LINE
  5
139
330
1F
100
AcDbEntity
  8
SK3
  6
HIDDEN
370
    18
100
AcDbLine
 10
14.0219159668
 20
-10.2766879221
 30
0.0
 11
14.0794578574
 21
-11.0168048658
 31
0.0
  0
LINE
  5
13A
330
1F
100
AcDbEntity
  8
SK3
  6
HIDDEN
370
    18
100
AcDbLine
 10
14.0794578574
 20
-11.0168048658
 30
0.0
 11
14.2789273467
 21
-11.7569218095
 31
0.0
  0
LINE
  5
13B
330
1F
100
AcDbEntity
  8
SK3
  6
HIDDEN
370
    18
100
AcDbLine
 10
14.2789273467
 20
-11.7569218095
 30
0.0
 11
14.6007989714
 21
-12.42459095
 31
0.0
  0
LINE
  5
13C
330
1F
100
AcDbEntity
  8
SK3
  6
HIDDEN
370
    18
100
AcDbLine
 10
14.6007989714
 20
-12.42459095
 30
0.0
 11
15.0135656944
 21
-12.95445618
 31
0.0
  0
LINE
  5
13D
330
1F
100
AcDbEntity
  8
SK3
  6
HIDDEN
370
    18
100
AcDbLine
 10
15.0135656944
 20
-12.95445618
 30
0.0
 11
15.4768230327
 21
-13.294650599
 31
0.0
  0
LINE
  5
13E
330
1F
100
AcDbEntity
  8
SK3
  6
HIDDEN
370
    18
100
AcDbLine
 10
15.4768230327
 20
-13.294650599
 30
0.0
 11
15.9452241305
 21
-13.4118736069
 31
0.0
  0
LINE
  5
13F
330
1F
100
AcDbEntity
  8
SK3
  6
HIDDEN
370
    18
100
AcDbLine
 10
15.9452241305
 20
-13.4118736069
 30
0.0
 11
16.3729186247
 21
-13.294650599
 31
0.0
  0
LINE
  5
140
330
1F
100
AcDbEntity
  8
SK3
  6
HIDDEN
370
    18
100
AcDbLine
 10
16.3729186247
 20
-13.294650599
 30
0.0
 11
16.7180407983
 21
-12.95445618
 31
0.0
  0
LINE
  5
141
330
1F
100
AcDbEntity
  8
SK3
  6
HIDDEN
370
    18
100
AcDbLine
 10
16.7180407983
 20
-12.95445618
 30
0.0
 11
16.9468076884
 21
-12.42459095
 31
0.0
  0
LINE
  5
142
330
1F
100
AcDbEntity
  8
SK3
  6
HIDDEN
370
    18
100
AcDbLine
 10
16.9468076884
 20
-12.42459095
 30
0.0
 11
17.0368259979
 21
-11.7569218095
 31
0.0
  0
LINE
  5
143
330
1F
100
AcDbEntity
  8
SK3
  6
HIDDEN
370
    18
100
AcDbLine
 10
17.0368259979
 20
-11.7569218095
 30
0.0
 11
16.9792841073
 21
-11.0168048658
 31
0.0
  0
LINE
  5
144
330
1F
100
AcDbEntity
  8
SK3
  6
HIDDEN
370
    18
100
AcDbLine
 10
-100.05
 20
-12.5075
 30
0.0
 11
-100.05
 21
12.5075
 31
0.0
  0
LINE
  5
145
330
1F
100
AcDbEntity
  8
SK3
  6
HIDDEN
370
    18
100
AcDbLine
 10
-101.8
 20
-13.5178629711
 30
0.0
 11
-101.8
 21
13.5178629711
 31
0.0
  0
LINE
  5
146
330
1F
100
AcDbEntity
  8
SK3
  6
HIDDEN
370
    18
100
AcDbLine
 10
3.75
 20
-47.2984213653
 30
0.0
 11
3.75
 21
-35.675
 31
0.0
  0
LINE
  5
147
330
1F
100
AcDbEntity
  8
SK3
  6
HIDDEN
370
    18
100
AcDbLine
 10
16.2300196942
 20
-47.2984213653
 30
0.0
 11
3.75
 21
-47.2984213653
 31
0.0
  0
LINE
  5
148
330
1F
100
AcDbEntity
  8
1
  6
HIDDEN
370
    18
100
AcDbLine
 10
19.705
 20
-40.8883311594
 30
0.0
 11
19.705
 21
-41.0269100055
 31
0.0
  0
LINE
  5
149
330
1F
100
AcDbEntity
  8
SK3
  6
HIDDEN
370
    18
100
AcDbLine
 10
3.75
 20
35.675
 30
0.0
 11
3.75
 21
47.2984213653
 31
0.0
  0
LINE
  5
14A
330
1F
100
AcDbEntity
  8
SK3
  6
HIDDEN
370
    18
100
AcDbLine
 10
3.75
 20
47.2984213653
 30
0.0
 11
16.2300196942
 21
47.2984213653
 31
0.0
  0
LINE
  5
14B
330
1F
100
AcDbEntity
  8
1
  6
HIDDEN
370
    18
100
AcDbLine
 10
19.705
 20
40.8883311594
 30
0.0
 11
19.705
 21
41.0269100055
 31
0.0
  0
LINE
  5
14C
330
1F
100
AcDbEntity
  8
SK3
  6
HIDDEN
370
    18
100
AcDbLine
 10
3.75
 20
35.3
 30
0.0
 11
21.6
 21
35.3
 31
0.0
  0
LINE
  5
14D
330
1F
100
AcDbEntity
  8
SK3
  6
HIDDEN
370
    18
100
AcDbLine
 10
21.6
 20
35.675
 30
0.0
 11
3.75
 21
35.675
 31
0.0
  0
LINE
  5
14E
330
1F
100
AcDbEntity
  8
SK3
  6
HIDDEN
370
    18
100
AcDbLine
 10
21.6
 20
-35.3
 30
0.0
 11
3.75
 21
-35.3
 31
0.0
  0
LINE
  5
14F
330
1F
100
AcDbEntity
  8
SK3
  6
HIDDEN
370
    18
100
AcDbLine
 10
3.75
 20
-35.675
 30
0.0
 11
21.6
 21
-35.675
 31
0.0
  0
LINE
  5
150
330
1F
100
AcDbEntity
  8
SK3
  6
HIDDEN
370
    18
100
AcDbLine
 10
21.6
 20
-35.675
 30
0.0
 11
34.4699271226
 21
-35.675
 31
0.0
  0
LINE
  5
151
330
1F
100
AcDbEntity
  8
SK3
  6
HIDDEN
370
    18
100
AcDbLine
 10
21.6
 20
-35.3
 30
0.0
 11
34.125
 21
-35.3
 31
0.0
  0
LINE
  5
152
330
1F
100
AcDbEntity
  8
SK3
  6
HIDDEN
370
    18
100
AcDbLine
 10
21.6
 20
35.3
 30
0.0
 11
34.125
 21
35.3
 31
0.0
  0
LINE
  5
153
330
1F
100
AcDbEntity
  8
SK3
  6
HIDDEN
370
    18
100
AcDbLine
 10
21.6
 20
35.675
 30
0.0
 11
34.4699271226
 21
35.675
 31
0.0
  0
LINE
  5
154
330
1F
100
AcDbEntity
  8
1
  6
HIDDEN
370
    18
100
AcDbLine
 10
26.705
 20
-41.2057841814
 30
0.0
 11
26.705
 21
-41.3432989685
 31
0.0
  0
LINE
  5
155
330
1F
100
AcDbEntity
  8
SK3
  6
HIDDEN
370
    18
100
AcDbLine
 10
21.6
 20
-40.4949379553
 30
0.0
 11
21.6
 21
-35.675
 31
0.0
  0
LINE
  5
156
330
1F
100
AcDbEntity
  8
SK3
  6
HIDDEN
370
    18
100
AcDbLine
 10
21.6
 20
40.4949379553
 30
0.0
 11
21.6
 21
35.675
 31
0.0
  0
LINE
  5
157
330
1F
100
AcDbEntity
  8
1
  6
HIDDEN
370
    18
100
AcDbLine
 10
26.705
 20
41.2057841814
 30
0.0
 11
26.705
 21
41.3432989685
 31
0.0
  0
LINE
  5
158
330
1F
100
AcDbEntity
  8
SK3
  6
HIDDEN
370
    18
100
AcDbLine
 10
-88.55
 20
-12.75
 30
0.0
 11
-88.55
 21
12.75
 31
0.0
  0
LINE
  5
159
330
1F
100
AcDbEntity
  8
SK3
  6
HIDDEN
370
    18
100
AcDbLine
 10
-87.2509618943
 20
10.5
 30
0.0
 11
-87.2509618943
 21
-10.5
 31
0.0
  0
LINE
  5
15A
330
1F
100
AcDbEntity
  8
SK3
  6
HIDDEN
370
    18
100
AcDbLine
 10
-91.55
 20
-12.75
 30
0.0
 11
-91.55
 21
12.75
 31
0.0
  0
LINE
  5
15B
330
1F
100
AcDbEntity
  8
SK3
  6
HIDDEN
370
    18
100
AcDbLine
 10
-91.9700223208
 20
-12.5075
 30
0.0
 11
-91.9700223208
 21
12.5075
 31
0.0
  0
LINE
  5
15C
330
1F
100
AcDbEntity
  8
SK3
  6
HIDDEN
370
    18
100
AcDbLine
 10
-6.8
 20
-10.5
 30
0.0
 11
-6.8
 21
10.5
 31
0.0
  0
LINE
  5
15D
330
1F
100
AcDbEntity
  8
SK3
  6
HIDDEN
370
    18
100
AcDbLine
 10
-5.8987090715
 20
9.0
 30
0.0
 11
-5.8987090715
 21
-9.0
 31
0.0
  0
LINE
  5
15E
330
1F
100
AcDbEntity
  8
SK3
  6
HIDDEN
370
    18
100
AcDbLine
 10
144.0
 20
6.4852813742
 30
0.0
 11
144.0
 21
10.4852813742
 31
0.0
  0
LINE
  5
15F
330
1F
100
AcDbEntity
  8
SK1
  6
HIDDEN
370
    18
100
AcDbLine
 10
184.0
 20
6.5156658682
 30
0.0
 11
184.0
 21
10.4548968803
 31
0.0
  0
LINE
  5
160
330
1F
100
AcDbEntity
  8
SK1
  6
HIDDEN
370
    18
100
AcDbLine
 10
184.0
 20
-10.4548968803
 30
0.0
 11
184.0
 21
-6.5156658682
 31
0.0
  0
LINE
  5
161
330
1F
100
AcDbEntity
  8
SK3
  6
HIDDEN
370
    18
100
AcDbLine
 10
144.0
 20
-10.4852813742
 30
0.0
 11
144.0
 21
-6.4852813742
 31
0.0
  0
LINE
  5
162
330
1F
100
AcDbEntity
  8
SK3
  6
HIDDEN
370
    18
100
AcDbLine
 10
182.0
 20
-8.5
 30
0.0
 11
182.0
 21
8.5
 31
0.0
  0
LINE
  5
163
330
1F
100
AcDbEntity
  8
SK1
  6
HIDDEN
370
    18
100
AcDbLine
 10
184.0
 20
-9.6547005384
 30
0.0
 11
184.0
 21
9.6547005384
 31
0.0
  0
LINE
  5
164
330
1F
100
AcDbEntity
  8
SK3
  6
HIDDEN
370
    18
100
AcDbLine
 10
128.2
 20
-9.0
 30
0.0
 11
128.2
 21
9.0
 31
0.0
  0
LINE
  5
165
330
1F
100
AcDbEntity
  8
SK3
  6
HIDDEN
370
    18
100
AcDbLine
 10
129.4017212381
 20
-7.0
 30
0.0
 11
129.4017212381
 21
7.0
 31
0.0
  0
LINE
  5
166
330
1F
100
AcDbEntity
  8
SK3
  6
HIDDEN
370
    18
100
AcDbLine
 10
178.0
 20
-8.5
 30
0.0
 11
178.0
 21
8.5
 31
0.0
  0
LINE
  5
167
330
1F
100
AcDbEntity
  8
SK3
  6
HIDDEN
370
    18
100
AcDbLine
 10
177.0987090715
 20
7.0
 30
0.0
 11
177.0987090715
 21
-7.0
 31
0.0
  0
LINE
  5
168
330
1F
100
AcDbEntity
  8
SK3
  6
HIDDEN
370
    18
100
AcDbLine
 10
15.8
 20
30.6
 30
0.0
 11
25.2
 21
30.6
 31
0.0
  0
LINE
  5
169
330
1F
100
AcDbEntity
  8
SK3
  6
HIDDEN
370
    18
100
AcDbLine
 10
25.5
 20
30.9
 30
0.0
 11
15.5293102142
 21
30.9
 31
0.0
  0
LINE
  5
16A
330
1F
100
AcDbEntity
  8
SK3
  6
HIDDEN
370
    18
100
AcDbLine
 10
15.5
 20
35.3
 30
0.0
 11
25.4706897858
 21
35.3
 31
0.0
  0
LINE
  5
16B
330
1F
100
AcDbEntity
  8
SK1
  6
HIDDEN
370
    18
100
AcDbLine
 10
184.0
 20
6.5156658682
 30
0.0
 11
184.0
 21
10.4548968803
 31
0.0
  0
LINE
  5
16C
330
1F
100
AcDbEntity
  8
SK3
  6
HIDDEN
370
    18
100
AcDbLine
 10
144.0
 20
6.5156658682
 30
0.0
 11
144.0
 21
10.4548968803
 31
0.0
  0
LINE
  5
16D
330
1F
100
AcDbEntity
  8
SK1
  6
HIDDEN
370
    18
100
AcDbLine
 10
184.0
 20
-10.4548968803
 30
0.0
 11
184.0
 21
-6.5156658682
 31
0.0
  0
LINE
  5
16E
330
1F
100
AcDbEntity
  8
SK3
  6
HIDDEN
370
    18
100
AcDbLine
 10
144.0
 20
-10.4548968803
 30
0.0
 11
144.0
 21
-6.5156658682
 31
0.0
  0
LINE
  5
16F
330
1F
100
AcDbEntity
  8
1
  6
HIDDEN
370
    18
100
AcDbLine
 10
20.08
 20
-40.4949379553
 30
0.0
 11
21.6
 21
-40.4949379553
 31
0.0
  0
LINE
  5
170
330
1F
100
AcDbEntity
  8
1
  6
HIDDEN
370
    18
100
AcDbLine
 10
20.08
 20
40.4949379553
 30
0.0
 11
21.6
 21
40.4949379553
 31
0.0
  0
LINE
  5
171
330
1F
100
AcDbEntity
  8
SK3
  6
HIDDEN
370
    18
100
AcDbLine
 10
3.2837105329
 20
13.9015950424
 30
0.0
 11
3.4831800223
 21
14.6417119861
 31
0.0
  0
LINE
  5
172
330
1F
100
AcDbEntity
  8
SK3
  6
HIDDEN
370
    18
100
AcDbLine
 10
3.4831800223
 20
14.6417119861
 30
0.0
 11
3.805051647
 21
15.3093811266
 31
0.0
  0
LINE
  5
173
330
1F
100
AcDbEntity
  8
SK3
  6
HIDDEN
370
    18
100
AcDbLine
 10
3.805051647
 20
15.3093811266
 30
0.0
 11
4.21781837
 21
15.8392463566
 31
0.0
  0
LINE
  5
174
330
1F
100
AcDbEntity
  8
SK3
  6
HIDDEN
370
    18
100
AcDbLine
 10
4.21781837
 20
15.8392463566
 30
0.0
 11
4.6810757083
 21
16.1794407756
 31
0.0
  0
LINE
  5
175
330
1F
100
AcDbEntity
  8
SK3
  6
HIDDEN
370
    18
100
AcDbLine
 10
4.6810757083
 20
16.1794407756
 30
0.0
 11
5.1494768061
 21
16.2966637835
 31
0.0
  0
LINE
  5
176
330
1F
100
AcDbEntity
  8
SK3
  6
HIDDEN
370
    18
100
AcDbLine
 10
5.1494768061
 20
16.2966637835
 30
0.0
 11
5.5771713003
 21
16.1794407756
 31
0.0
  0
LINE
  5
177
330
1F
100
AcDbEntity
  8
SK3
  6
HIDDEN
370
    18
100
AcDbLine
 10
5.5771713003
 20
16.1794407756
 30
0.0
 11
5.9222934739
 21
15.8392463566
 31
0.0
  0
LINE
  5
178
330
1F
100
AcDbEntity
  8
SK3
  6
HIDDEN
370
    18
100
AcDbLine
 10
5.9222934739
 20
15.8392463566
 30
0.0
 11
6.151060364
 21
15.3093811266
 31
0.0
  0
LINE
  5
179
330
1F
100
AcDbEntity
  8
SK3
  6
HIDDEN
370
    18
100
AcDbLine
 10
6.151060364
 20
15.3093811266
 30
0.0
 11
6.2410786735
 21
14.6417119861
 31
0.0
  0
LINE
  5
17A
330
1F
100
AcDbEntity
  8
SK3
  6
HIDDEN
370
    18
100
AcDbLine
 10
6.2410786735
 20
14.6417119861
 30
0.0
 11
6.1835367829
 21
13.9015950424
 31
0.0
  0
LINE
  5
17B
330
1F
100
AcDbEntity
  8
SK3
  6
HIDDEN
370
    18
100
AcDbLine
 10
6.1835367829
 20
13.9015950424
 30
0.0
 11
5.9840672936
 21
13.1614780987
 31
0.0
  0
LINE
  5
17C
330
1F
100
AcDbEntity
  8
SK3
  6
HIDDEN
370
    18
100
AcDbLine
 10
5.9840672936
 20
13.1614780987
 30
0.0
 11
5.6621956688
 21
12.4938089582
 31
0.0
  0
LINE
  5
17D
330
1F
100
AcDbEntity
  8
SK3
  6
HIDDEN
370
    18
100
AcDbLine
 10
5.6621956688
 20
12.4938089582
 30
0.0
 11
5.2494289459
 21
11.9639437282
 31
0.0
  0
LINE
  5
17E
330
1F
100
AcDbEntity
  8
SK3
  6
HIDDEN
370
    18
100
AcDbLine
 10
5.2494289459
 20
11.9639437282
 30
0.0
 11
4.7861716076
 21
11.6237493092
 31
0.0
  0
LINE
  5
17F
330
1F
100
AcDbEntity
  8
SK3
  6
HIDDEN
370
    18
100
AcDbLine
 10
4.7861716076
 20
11.6237493092
 30
0.0
 11
4.3177705098
 21
11.5065263013
 31
0.0
  0
LINE
  5
180
330
1F
100
AcDbEntity
  8
SK3
  6
HIDDEN
370
    18
100
AcDbLine
 10
4.3177705098
 20
11.5065263013
 30
0.0
 11
3.8900760156
 21
11.6237493092
 31
0.0
  0
LINE
  5
181
330
1F
100
AcDbEntity
  8
SK3
  6
HIDDEN
370
    18
100
AcDbLine
 10
3.8900760156
 20
11.6237493092
 30
0.0
 11
3.544953842
 21
11.9639437282
 31
0.0
  0
LINE
  5
182
330
1F
100
AcDbEntity
  8
SK3
  6
HIDDEN
370
    18
100
AcDbLine
 10
3.544953842
 20
11.9639437282
 30
0.0
 11
3.3161869519
 21
12.4938089582
 31
0.0
  0
LINE
  5
183
330
1F
100
AcDbEntity
  8
SK3
  6
HIDDEN
370
    18
100
AcDbLine
 10
3.3161869519
 20
12.4938089582
 30
0.0
 11
3.2261686424
 21
13.1614780987
 31
0.0
  0
LINE
  5
184
330
1F
100
AcDbEntity
  8
SK3
  6
HIDDEN
370
    18
100
AcDbLine
 10
3.2261686424
 20
13.1614780987
 30
0.0
 11
3.2837105329
 21
13.9015950424
 31
0.0
  0
LINE
  5
185
330
1F
100
AcDbEntity
  8
SK3
  6
HIDDEN
370
    18
100
AcDbLine
 10
14.0794578574
 20
11.0168048658
 30
0.0
 11
14.2789273467
 21
11.7569218095
 31
0.0
  0
LINE
  5
186
330
1F
100
AcDbEntity
  8
SK3
  6
HIDDEN
370
    18
100
AcDbLine
 10
14.2789273467
 20
11.7569218095
 30
0.0
 11
14.6007989714
 21
12.42459095
 31
0.0
  0
LINE
  5
187
330
1F
100
AcDbEntity
  8
SK3
  6
HIDDEN
370
    18
100
AcDbLine
 10
14.6007989714
 20
12.42459095
 30
0.0
 11
15.0135656944
 21
12.95445618
 31
0.0
  0
LINE
  5
188
330
1F
100
AcDbEntity
  8
SK3
  6
HIDDEN
370
    18
100
AcDbLine
 10
15.0135656944
 20
12.95445618
 30
0.0
 11
15.4768230327
 21
13.294650599
 31
0.0
  0
LINE
  5
189
330
1F
100
AcDbEntity
  8
SK3
  6
HIDDEN
370
    18
100
AcDbLine
 10
15.4768230327
 20
13.294650599
 30
0.0
 11
15.9452241305
 21
13.4118736069
 31
0.0
  0
LINE
  5
18A
330
1F
100
AcDbEntity
  8
SK3
  6
HIDDEN
370
    18
100
AcDbLine
 10
15.9452241305
 20
13.4118736069
 30
0.0
 11
16.3729186247
 21
13.294650599
 31
0.0
  0
LINE
  5
18B
330
1F
100
AcDbEntity
  8
SK3
  6
HIDDEN
370
    18
100
AcDbLine
 10
16.3729186247
 20
13.294650599
 30
0.0
 11
16.7180407983
 21
12.95445618
 31
0.0
  0
LINE
  5
18C
330
1F
100
AcDbEntity
  8
SK3
  6
HIDDEN
370
    18
100
AcDbLine
 10
16.7180407983
 20
12.95445618
 30
0.0
 11
16.9468076884
 21
12.42459095
 31
0.0
  0
LINE
  5
18D
330
1F
100
AcDbEntity
  8
SK3
  6
HIDDEN
370
    18
100
AcDbLine
 10
16.9468076884
 20
12.42459095
 30
0.0
 11
17.0368259979
 21
11.7569218095
 31
0.0
  0
LINE
  5
18E
330
1F
100
AcDbEntity
  8
SK3
  6
HIDDEN
370
    18
100
AcDbLine
 10
17.0368259979
 20
11.7569218095
 30
0.0
 11
16.9792841073
 21
11.0168048658
 31
0.0
  0
LINE
  5
18F
330
1F
100
AcDbEntity
  8
SK3
  6
HIDDEN
370
    18
100
AcDbLine
 10
16.9792841073
 20
11.0168048658
 30
0.0
 11
16.779814618
 21
10.2766879221
 31
0.0
  0
LINE
  5
190
330
1F
100
AcDbEntity
  8
SK3
  6
HIDDEN
370
    18
100
AcDbLine
 10
16.779814618
 20
10.2766879221
 30
0.0
 11
16.4579429932
 21
9.6090187815
 31
0.0
  0
LINE
  5
191
330
1F
100
AcDbEntity
  8
SK3
  6
HIDDEN
370
    18
100
AcDbLine
 10
16.4579429932
 20
9.6090187815
 30
0.0
 11
16.0451762703
 21
9.0791535516
 31
0.0
  0
LINE
  5
192
330
1F
100
AcDbEntity
  8
SK3
  6
HIDDEN
370
    18
100
AcDbLine
 10
16.0451762703
 20
9.0791535516
 30
0.0
 11
15.581918932
 21
8.7389591326
 31
0.0
  0
LINE
  5
193
330
1F
100
AcDbEntity
  8
SK3
  6
HIDDEN
370
    18
100
AcDbLine
 10
15.581918932
 20
8.7389591326
 30
0.0
 11
15.1135178342
 21
8.6217361247
 31
0.0
  0
LINE
  5
194
330
1F
100
AcDbEntity
  8
SK3
  6
HIDDEN
370
    18
100
AcDbLine
 10
15.1135178342
 20
8.6217361247
 30
0.0
 11
14.68582334
 21
8.7389591326
 31
0.0
  0
LINE
  5
195
330
1F
100
AcDbEntity
  8
SK3
  6
HIDDEN
370
    18
100
AcDbLine
 10
14.68582334
 20
8.7389591326
 30
0.0
 11
14.3407011664
 21
9.0791535516
 31
0.0
  0
LINE
  5
196
330
1F
100
AcDbEntity
  8
SK3
  6
HIDDEN
370
    18
100
AcDbLine
 10
14.3407011664
 20
9.0791535516
 30
0.0
 11
14.1119342763
 21
9.6090187815
 31
0.0
  0
LINE
  5
197
330
1F
100
AcDbEntity
  8
SK3
  6
HIDDEN
370
    18
100
AcDbLine
 10
14.1119342763
 20
9.6090187815
 30
0.0
 11
14.0219159668
 21
10.2766879221
 31
0.0
  0
LINE
  5
198
330
1F
100
AcDbEntity
  8
SK3
  6
HIDDEN
370
    18
100
AcDbLine
 10
14.0219159668
 20
10.2766879221
 30
0.0
 11
14.0794578574
 21
11.0168048658
 31
0.0
  0
LINE
  5
199
330
1F
100
AcDbEntity
  8
SK3
  6
HIDDEN
370
    18
100
AcDbLine
 10
11.1
 20
14.0718277831
 30
0.0
 11
10.4685723366
 21
14.1898520218
 31
0.0
  0
LINE
  5
19A
330
1F
100
AcDbEntity
  8
SK3
  6
HIDDEN
370
    18
100
AcDbLine
 10
10.4685723366
 20
14.1898520218
 30
0.0
 11
9.933273811
 21
14.5259566172
 31
0.0
  0
LINE
  5
19B
330
1F
100
AcDbEntity
  8
SK3
  6
HIDDEN
370
    18
100
AcDbLine
 10
9.933273811
 20
14.5259566172
 30
0.0
 11
9.5755987714
 21
15.0289726916
 31
0.0
  0
LINE
  5
19C
330
1F
100
AcDbEntity
  8
SK3
  6
HIDDEN
370
    18
100
AcDbLine
 10
9.5755987714
 20
15.0289726916
 30
0.0
 11
9.45
 21
15.6223206074
 31
0.0
  0
LINE
  5
19D
330
1F
100
AcDbEntity
  8
SK3
  6
HIDDEN
370
    18
100
AcDbLine
 10
9.45
 20
15.6223206074
 30
0.0
 11
9.5755987714
 21
16.2156685233
 31
0.0
  0
LINE
  5
19E
330
1F
100
AcDbEntity
  8
SK3
  6
HIDDEN
370
    18
100
AcDbLine
 10
9.5755987714
 20
16.2156685233
 30
0.0
 11
9.933273811
 21
16.7186845977
 31
0.0
  0
LINE
  5
19F
330
1F
100
AcDbEntity
  8
SK3
  6
HIDDEN
370
    18
100
AcDbLine
 10
9.933273811
 20
16.7186845977
 30
0.0
 11
10.4685723366
 21
17.0547891931
 31
0.0
  0
LINE
  5
1A0
330
1F
100
AcDbEntity
  8
SK3
  6
HIDDEN
370
    18
100
AcDbLine
 10
10.4685723366
 20
17.0547891931
 30
0.0
 11
11.1
 21
17.1728134317
 31
0.0
  0
LINE
  5
1A1
330
1F
100
AcDbEntity
  8
SK3
  6
HIDDEN
370
    18
100
AcDbLine
 10
11.1
 20
17.1728134317
 30
0.0
 11
11.7314276634
 21
17.0547891931
 31
0.0
  0
LINE
  5
1A2
330
1F
100
AcDbEntity
  8
SK3
  6
HIDDEN
370
    18
100
AcDbLine
 10
11.7314276634
 20
17.0547891931
 30
0.0
 11
12.266726189
 21
16.7186845977
 31
0.0
  0
LINE
  5
1A3
330
1F
100
AcDbEntity
  8
SK3
  6
HIDDEN
370
    18
100
AcDbLine
 10
12.266726189
 20
16.7186845977
 30
0.0
 11
12.6244012286
 21
16.2156685233
 31
0.0
  0
LINE
  5
1A4
330
1F
100
AcDbEntity
  8
SK3
  6
HIDDEN
370
    18
100
AcDbLine
 10
12.6244012286
 20
16.2156685233
 30
0.0
 11
12.75
 21
15.6223206074
 31
0.0
  0
LINE
  5
1A5
330
1F
100
AcDbEntity
  8
SK3
  6
HIDDEN
370
    18
100
AcDbLine
 10
12.75
 20
15.6223206074
 30
0.0
 11
12.6244012286
 21
15.0289726916
 31
0.0
  0
LINE
  5
1A6
330
1F
100
AcDbEntity
  8
SK3
  6
HIDDEN
370
    18
100
AcDbLine
 10
12.6244012286
 20
15.0289726916
 30
0.0
 11
12.266726189
 21
14.5259566172
 31
0.0
  0
LINE
  5
1A7
330
1F
100
AcDbEntity
  8
SK3
  6
HIDDEN
370
    18
100
AcDbLine
 10
12.266726189
 20
14.5259566172
 30
0.0
 11
11.7314276634
 21
14.1898520218
 31
0.0
  0
LINE
  5
1A8
330
1F
100
AcDbEntity
  8
SK3
  6
HIDDEN
370
    18
100
AcDbLine
 10
11.7314276634
 20
14.1898520218
 30
0.0
 11
11.1
 21
14.0718277831
 31
0.0
  0
LINE
  5
1A9
330
1F
100
AcDbEntity
  8
SK3
  6
HIDDEN
370
    18
100
AcDbLine
 10
3.1949403416
 20
13.9015950424
 30
0.0
 11
3.3933791751
 21
14.6507759207
 31
0.0
  0
LINE
  5
1AA
330
1F
100
AcDbEntity
  8
SK3
  6
HIDDEN
370
    18
100
AcDbLine
 10
3.3933791751
 20
14.6507759207
 30
0.0
 11
3.7109046124
 21
15.3333887902
 31
0.0
  0
LINE
  5
1AB
330
1F
100
AcDbEntity
  8
SK3
  6
HIDDEN
370
    18
100
AcDbLine
 10
3.7109046124
 20
15.3333887902
 30
0.0
 11
4.119303125
 21
15.8887805018
 31
0.0
  0
LINE
  5
1AC
330
1F
100
AcDbEntity
  8
SK3
  6
HIDDEN
370
    18
100
AcDbLine
 10
4.119303125
 20
15.8887805018
 30
0.0
 11
4.5822867129
 21
16.2676020648
 31
0.0
  0
LINE
  5
1AD
330
1F
100
AcDbEntity
  8
SK3
  6
HIDDEN
370
    18
100
AcDbLine
 10
4.5822867129
 20
16.2676020648
 30
0.0
 11
5.0587172525
 21
16.4361935208
 31
0.0
  0
LINE
  5
1AE
330
1F
100
AcDbEntity
  8
SK3
  6
HIDDEN
370
    18
100
AcDbLine
 10
5.0587172525
 20
16.4361935208
 30
0.0
 11
5.5062617995
 21
16.3795747791
 31
0.0
  0
LINE
  5
1AF
330
1F
100
AcDbEntity
  8
SK3
  6
HIDDEN
370
    18
100
AcDbLine
 10
5.5062617995
 20
16.3795747791
 30
0.0
 11
5.8851540571
 21
16.1027766634
 31
0.0
  0
LINE
  5
1B0
330
1F
100
AcDbEntity
  8
SK3
  6
HIDDEN
370
    18
100
AcDbLine
 10
5.8851540571
 20
16.1027766634
 30
0.0
 11
6.1617277852
 21
15.6303939009
 31
0.0
  0
LINE
  5
1B1
330
1F
100
AcDbEntity
  8
SK3
  6
HIDDEN
370
    18
100
AcDbLine
 10
6.1617277852
 20
15.6303939009
 30
0.0
 11
6.3114081945
 21
15.0043997731
 31
0.0
  0
LINE
  5
1B2
330
1F
100
AcDbEntity
  8
SK3
  6
HIDDEN
370
    18
100
AcDbLine
 10
6.3114081945
 20
15.0043997731
 30
0.0
 11
6.3208955237
 21
14.2804166054
 31
0.0
  0
LINE
  5
1B3
330
1F
100
AcDbEntity
  8
SK3
  6
HIDDEN
370
    18
100
AcDbLine
 10
6.3208955237
 20
14.2804166054
 30
0.0
 11
6.1893467821
 21
13.5227734794
 31
0.0
  0
LINE
  5
1B4
330
1F
100
AcDbEntity
  8
SK3
  6
HIDDEN
370
    18
100
AcDbLine
 10
6.1893467821
 20
13.5227734794
 30
0.0
 11
5.9284506525
 21
12.7987903117
 31
0.0
  0
LINE
  5
1B5
330
1F
100
AcDbEntity
  8
SK3
  6
HIDDEN
370
    18
100
AcDbLine
 10
5.9284506525
 20
12.7987903117
 30
0.0
 11
5.561388901
 21
12.172796184
 31
0.0
  0
LINE
  5
1B6
330
1F
100
AcDbEntity
  8
SK3
  6
HIDDEN
370
    18
100
AcDbLine
 10
5.561388901
 20
12.172796184
 30
0.0
 11
5.1207765751
 21
11.7004134215
 31
0.0
  0
LINE
  5
1B7
330
1F
100
AcDbEntity
  8
SK3
  6
HIDDEN
370
    18
100
AcDbLine
 10
5.1207765751
 20
11.7004134215
 30
0.0
 11
4.6457640135
 21
11.4236153057
 31
0.0
  0
LINE
  5
1B8
330
1F
100
AcDbEntity
  8
SK3
  6
HIDDEN
370
    18
100
AcDbLine
 10
4.6457640135
 20
11.4236153057
 30
0.0
 11
4.1785581669
 21
11.366996564
 31
0.0
  0
LINE
  5
1B9
330
1F
100
AcDbEntity
  8
SK3
  6
HIDDEN
370
    18
100
AcDbLine
 10
4.1785581669
 20
11.366996564
 30
0.0
 11
3.7606723251
 21
11.53558802
 31
0.0
  0
LINE
  5
1BA
330
1F
100
AcDbEntity
  8
SK3
  6
HIDDEN
370
    18
100
AcDbLine
 10
3.7606723251
 20
11.53558802
 30
0.0
 11
3.4292374788
 21
11.914409583
 31
0.0
  0
LINE
  5
1BB
330
1F
100
AcDbEntity
  8
SK3
  6
HIDDEN
370
    18
100
AcDbLine
 10
3.4292374788
 20
11.914409583
 30
0.0
 11
3.2137030688
 21
12.4698012947
 31
0.0
  0
LINE
  5
1BC
330
1F
100
AcDbEntity
  8
SK3
  6
HIDDEN
370
    18
100
AcDbLine
 10
3.2137030688
 20
12.4698012947
 30
0.0
 11
3.1332202732
 21
13.1524141642
 31
0.0
  0
LINE
  5
1BD
330
1F
100
AcDbEntity
  8
SK3
  6
HIDDEN
370
    18
100
AcDbLine
 10
3.1332202732
 20
13.1524141642
 30
0.0
 11
3.1949403416
 21
13.9015950424
 31
0.0
  0
LINE
  5
1BE
330
1F
100
AcDbEntity
  8
SK3
  6
HIDDEN
370
    18
100
AcDbLine
 10
3.0
 20
11.6830262215
 30
0.0
 11
3.0
 21
17.0466658179
 31
0.0
  0
LINE
  5
1BF
330
1F
100
AcDbEntity
  8
SK3
  6
HIDDEN
370
    18
100
AcDbLine
 10
11.1
 20
13.8120482635
 30
0.0
 11
10.4159597133
 21
13.9253890619
 31
0.0
  0
LINE
  5
1C0
330
1F
100
AcDbEntity
  8
SK3
  6
HIDDEN
370
    18
100
AcDbLine
 10
10.4159597133
 20
13.9253890619
 30
0.0
 11
9.8144247806
 21
14.2517408843
 31
0.0
  0
LINE
  5
1C1
330
1F
100
AcDbEntity
  8
SK3
  6
HIDDEN
370
    18
100
AcDbLine
 10
9.8144247806
 20
14.2517408843
 30
0.0
 11
9.3679491924
 21
14.7517408843
 31
0.0
  0
LINE
  5
1C2
330
1F
100
AcDbEntity
  8
SK3
  6
HIDDEN
370
    18
100
AcDbLine
 10
9.3679491924
 20
14.7517408843
 30
0.0
 11
9.130384494
 21
15.3650816827
 31
0.0
  0
LINE
  5
1C3
330
1F
100
AcDbEntity
  8
SK3
  6
HIDDEN
370
    18
100
AcDbLine
 10
9.130384494
 20
15.3650816827
 30
0.0
 11
9.130384494
 21
16.0177853274
 31
0.0
  0
LINE
  5
1C4
330
1F
100
AcDbEntity
  8
SK3
  6
HIDDEN
370
    18
100
AcDbLine
 10
9.130384494
 20
16.0177853274
 30
0.0
 11
9.3679491924
 21
16.6311261258
 31
0.0
  0
LINE
  5
1C5
330
1F
100
AcDbEntity
  8
SK3
  6
HIDDEN
370
    18
100
AcDbLine
 10
9.3679491924
 20
16.6311261258
 30
0.0
 11
9.8144247806
 21
17.1311261258
 31
0.0
  0
LINE
  5
1C6
330
1F
100
AcDbEntity
  8
SK3
  6
HIDDEN
370
    18
100
AcDbLine
 10
9.8144247806
 20
17.1311261258
 30
0.0
 11
10.4159597133
 21
17.4574779482
 31
0.0
  0
LINE
  5
1C7
330
1F
100
AcDbEntity
  8
SK3
  6
HIDDEN
370
    18
100
AcDbLine
 10
10.4159597133
 20
17.4574779482
 30
0.0
 11
11.1
 21
17.5708187466
 31
0.0
  0
LINE
  5
1C8
330
1F
100
AcDbEntity
  8
SK3
  6
HIDDEN
370
    18
100
AcDbLine
 10
11.1
 20
17.5708187466
 30
0.0
 11
11.7840402867
 21
17.4574779482
 31
0.0
  0
LINE
  5
1C9
330
1F
100
AcDbEntity
  8
SK3
  6
HIDDEN
370
    18
100
AcDbLine
 10
11.7840402867
 20
17.4574779482
 30
0.0
 11
12.3855752194
 21
17.1311261258
 31
0.0
  0
LINE
  5
1CA
330
1F
100
AcDbEntity
  8
SK3
  6
HIDDEN
370
    18
100
AcDbLine
 10
12.3855752194
 20
17.1311261258
 30
0.0
 11
12.8320508076
 21
16.6311261258
 31
0.0
  0
LINE
  5
1CB
330
1F
100
AcDbEntity
  8
SK3
  6
HIDDEN
370
    18
100
AcDbLine
 10
12.8320508076
 20
16.6311261258
 30
0.0
 11
13.069615506
 21
16.0177853274
 31
0.0
  0
LINE
  5
1CC
330
1F
100
AcDbEntity
  8
SK3
  6
HIDDEN
370
    18
100
AcDbLine
 10
13.069615506
 20
16.0177853274
 30
0.0
 11
13.069615506
 21
15.3650816827
 31
0.0
  0
LINE
  5
1CD
330
1F
100
AcDbEntity
  8
SK3
  6
HIDDEN
370
    18
100
AcDbLine
 10
13.069615506
 20
15.3650816827
 30
0.0
 11
12.8320508076
 21
14.7517408843
 31
0.0
  0
LINE
  5
1CE
330
1F
100
AcDbEntity
  8
SK3
  6
HIDDEN
370
    18
100
AcDbLine
 10
12.8320508076
 20
14.7517408843
 30
0.0
 11
12.3855752194
 21
14.2517408843
 31
0.0
  0
LINE
  5
1CF
330
1F
100
AcDbEntity
  8
SK3
  6
HIDDEN
370
    18
100
AcDbLine
 10
12.3855752194
 20
14.2517408843
 30
0.0
 11
11.7840402867
 21
13.9253890619
 31
0.0
  0
LINE
  5
1D0
330
1F
100
AcDbEntity
  8
SK3
  6
HIDDEN
370
    18
100
AcDbLine
 10
11.7840402867
 20
13.9253890619
 30
0.0
 11
11.1
 21
13.8120482635
 31
0.0
  0
LINE
  5
1D1
330
1F
100
AcDbEntity
  8
SK3
  6
HIDDEN
370
    18
100
AcDbLine
 10
3.0
 20
-17.0560709439
 30
0.0
 11
5.4048333499
 21
-16.4134623855
 31
0.0
  0
LINE
  5
1D2
330
1F
100
AcDbEntity
  8
SK3
  6
HIDDEN
370
    18
100
AcDbLine
 10
4.0624139659
 20
-11.3897276993
 30
0.0
 11
3.0
 21
-11.6736210955
 31
0.0
  0
LINE
  5
1D3
330
1F
100
AcDbEntity
  8
SK3
  6
HIDDEN
370
    18
100
AcDbLine
 10
9.45
 20
-13.7021403289
 30
0.0
 11
9.45
 21
-14.7141572366
 31
0.0
  0
LINE
  5
1D4
330
1F
100
AcDbEntity
  8
SK3
  6
HIDDEN
370
    18
100
AcDbLine
 10
12.75
 20
-14.7141572366
 30
0.0
 11
12.75
 21
-12.8224121442
 31
0.0
  0
LINE
  5
1D5
330
1F
100
AcDbEntity
  8
SK3
  6
HIDDEN
370
    18
100
AcDbLine
 10
5.3661097138
 20
-16.2685469619
 30
0.0
 11
16.1618570383
 21
-13.3837567853
 31
0.0
  0
LINE
  5
1D6
330
1F
100
AcDbEntity
  8
SK3
  6
HIDDEN
370
    18
100
AcDbLine
 10
14.8968849264
 20
-8.6498529463
 30
0.0
 11
4.101137602
 21
-11.5346431229
 31
0.0
  0
LINE
  5
1D7
330
1F
100
AcDbEntity
  8
SK3
  6
HIDDEN
370
    18
100
AcDbLine
 10
9.45
 20
-3.0769242433
 30
0.0
 11
9.45
 21
-11.5783960277
 31
0.0
  0
LINE
  5
1D8
330
1F
100
AcDbEntity
  8
SK3
  6
HIDDEN
370
    18
100
AcDbLine
 10
12.75
 20
-10.7006575908
 30
0.0
 11
12.75
 21
-3.0779354401
 31
0.0
  0
LINE
  5
1D9
330
1F
100
AcDbEntity
  8
SK3
  6
HIDDEN
370
    18
100
AcDbLine
 10
-101.8
 20
-13.5178629711
 30
0.0
 11
-100.05
 21
-12.5075
 31
0.0
  0
LINE
  5
1DA
330
1F
100
AcDbEntity
  8
SK3
  6
HIDDEN
370
    18
100
AcDbLine
 10
-100.05
 20
12.5075
 30
0.0
 11
-101.8
 21
13.5178629711
 31
0.0
  0
LINE
  5
1DB
330
1F
100
AcDbEntity
  8
SK3
  6
HIDDEN
370
    18
100
AcDbLine
 10
34.5
 20
-49.229059558
 30
0.0
 11
34.5
 21
-35.675
 31
0.0
  0
LINE
  5
1DC
330
1F
100
AcDbEntity
  8
SK3
  6
HIDDEN
370
    18
100
AcDbLine
 10
34.5
 20
35.675
 30
0.0
 11
34.5
 21
49.2290573668
 31
0.0
  0
LINE
  5
1DD
330
1F
100
AcDbEntity
  8
SK3
  6
HIDDEN
370
    18
100
AcDbLine
 10
-88.55
 20
-12.75
 30
0.0
 11
-87.2509618943
 21
-10.5
 31
0.0
  0
LINE
  5
1DE
330
1F
100
AcDbEntity
  8
SK3
  6
HIDDEN
370
    18
100
AcDbLine
 10
-87.2509618943
 20
10.5
 30
0.0
 11
-88.55
 21
12.75
 31
0.0
  0
LINE
  5
1DF
330
1F
100
AcDbEntity
  8
SK3
  6
HIDDEN
370
    18
100
AcDbLine
 10
-88.55
 20
12.75
 30
0.0
 11
-91.55
 21
12.75
 31
0.0
  0
LINE
  5
1E0
330
1F
100
AcDbEntity
  8
SK3
  6
HIDDEN
370
    18
100
AcDbLine
 10
-91.55
 20
-12.75
 30
0.0
 11
-88.55
 21
-12.75
 31
0.0
  0
LINE
  5
1E1
330
1F
100
AcDbEntity
  8
SK3
  6
HIDDEN
370
    18
100
AcDbLine
 10
-91.55
 20
12.75
 30
0.0
 11
-91.9700223208
 21
12.5075
 31
0.0
  0
LINE
  5
1E2
330
1F
100
AcDbEntity
  8
SK3
  6
HIDDEN
370
    18
100
AcDbLine
 10
-91.9700223208
 20
-12.5075
 30
0.0
 11
-91.55
 21
-12.75
 31
0.0
  0
LINE
  5
1E3
330
1F
100
AcDbEntity
  8
SK3
  6
HIDDEN
370
    18
100
AcDbLine
 10
-91.9700223208
 20
12.5075
 30
0.0
 11
-100.05
 21
12.5075
 31
0.0
  0
LINE
  5
1E4
330
1F
100
AcDbEntity
  8
SK3
  6
HIDDEN
370
    18
100
AcDbLine
 10
-100.05
 20
-12.5075
 30
0.0
 11
-91.9700223208
 21
-12.5075
 31
0.0
  0
LINE
  5
1E5
330
1F
100
AcDbEntity
  8
SK3
  6
HIDDEN
370
    18
100
AcDbLine
 10
-87.2509618943
 20
-10.5
 30
0.0
 11
-6.8
 21
-10.5
 31
0.0
  0
LINE
  5
1E6
330
1F
100
AcDbEntity
  8
SK3
  6
HIDDEN
370
    18
100
AcDbLine
 10
-6.8
 20
10.5
 30
0.0
 11
-87.2509618943
 21
10.5
 31
0.0
  0
LINE
  5
1E7
330
1F
100
AcDbEntity
  8
SK3
  6
HIDDEN
370
    18
100
AcDbLine
 10
-6.8
 20
-10.5
 30
0.0
 11
-5.8987090715
 21
-9.0
 31
0.0
  0
LINE
  5
1E8
330
1F
100
AcDbEntity
  8
SK3
  6
HIDDEN
370
    18
100
AcDbLine
 10
-5.8987090715
 20
9.0
 30
0.0
 11
-6.8
 21
10.5
 31
0.0
  0
LINE
  5
1E9
330
1F
100
AcDbEntity
  8
SK3
  6
HIDDEN
370
    18
100
AcDbLine
 10
145.5857864376
 20
10.4852813742
 30
0.0
 11
144.0
 21
10.4852813742
 31
0.0
  0
LINE
  5
1EA
330
1F
100
AcDbEntity
  8
SK3
  6
HIDDEN
370
    18
100
AcDbLine
 10
144.0
 20
6.4852813742
 30
0.0
 11
145.5857864376
 21
6.4852813742
 31
0.0
  0
LINE
  5
1EB
330
1F
100
AcDbEntity
  8
SK3
  6
HIDDEN
370
    18
100
AcDbLine
 10
184.0
 20
10.4852813742
 30
0.0
 11
148.4142135624
 21
10.4852813742
 31
0.0
  0
LINE
  5
1EC
330
1F
100
AcDbEntity
  8
SK3
  6
HIDDEN
370
    18
100
AcDbLine
 10
148.4142135624
 20
6.4852813742
 30
0.0
 11
184.0
 21
6.4852813742
 31
0.0
  0
LINE
  5
1ED
330
1F
100
AcDbEntity
  8
SK3
  6
HIDDEN
370
    18
100
AcDbLine
 10
144.0
 20
10.4852813742
 30
0.0
 11
142.7982787619
 21
8.4852813742
 31
0.0
  0
LINE
  5
1EE
330
1F
100
AcDbEntity
  8
SK3
  6
HIDDEN
370
    18
100
AcDbLine
 10
142.7982787619
 20
8.4852813742
 30
0.0
 11
144.0
 21
6.4852813742
 31
0.0
  0
LINE
  5
1EF
330
1F
100
AcDbEntity
  8
SK3
  6
HIDDEN
370
    18
100
AcDbLine
 10
184.0
 20
-6.4852813742
 30
0.0
 11
148.4142135624
 21
-6.4852813742
 31
0.0
  0
LINE
  5
1F0
330
1F
100
AcDbEntity
  8
SK3
  6
HIDDEN
370
    18
100
AcDbLine
 10
148.4142135624
 20
-10.4852813742
 30
0.0
 11
184.0
 21
-10.4852813742
 31
0.0
  0
LINE
  5
1F1
330
1F
100
AcDbEntity
  8
SK3
  6
HIDDEN
370
    18
100
AcDbLine
 10
145.5857864376
 20
-6.4852813742
 30
0.0
 11
144.0
 21
-6.4852813742
 31
0.0
  0
LINE
  5
1F2
330
1F
100
AcDbEntity
  8
SK3
  6
HIDDEN
370
    18
100
AcDbLine
 10
144.0
 20
-10.4852813742
 30
0.0
 11
145.5857864376
 21
-10.4852813742
 31
0.0
  0
LINE
  5
1F3
330
1F
100
AcDbEntity
  8
SK3
  6
HIDDEN
370
    18
100
AcDbLine
 10
144.0
 20
-6.4852813742
 30
0.0
 11
142.7982787619
 21
-8.4852813742
 31
0.0
  0
LINE
  5
1F4
330
1F
100
AcDbEntity
  8
SK3
  6
HIDDEN
370
    18
100
AcDbLine
 10
142.7982787619
 20
-8.4852813742
 30
0.0
 11
144.0
 21
-10.4852813742
 31
0.0
  0
LINE
  5
1F5
330
1F
100
AcDbEntity
  8
SK3
  6
HIDDEN
370
    18
100
AcDbLine
 10
184.0
 20
9.6547005384
 30
0.0
 11
182.0
 21
8.5
 31
0.0
  0
LINE
  5
1F6
330
1F
100
AcDbEntity
  8
SK3
  6
HIDDEN
370
    18
100
AcDbLine
 10
182.0
 20
-8.5
 30
0.0
 11
184.0
 21
-9.6547005384
 31
0.0
  0
LINE
  5
1F7
330
1F
100
AcDbEntity
  8
SK3
  6
HIDDEN
370
    18
100
AcDbLine
 10
-5.8987090715
 20
-9.0
 30
0.0
 11
128.2
 21
-9.0
 31
0.0
  0
LINE
  5
1F8
330
1F
100
AcDbEntity
  8
SK3
  6
HIDDEN
370
    18
100
AcDbLine
 10
128.2
 20
9.0
 30
0.0
 11
-5.8987090715
 21
9.0
 31
0.0
  0
LINE
  5
1F9
330
1F
100
AcDbEntity
  8
SK3
  6
HIDDEN
370
    18
100
AcDbLine
 10
128.2
 20
-9.0
 30
0.0
 11
129.4017212381
 21
-7.0
 31
0.0
  0
LINE
  5
1FA
330
1F
100
AcDbEntity
  8
SK3
  6
HIDDEN
370
    18
100
AcDbLine
 10
129.4017212381
 20
7.0
 30
0.0
 11
128.2
 21
9.0
 31
0.0
  0
LINE
  5
1FB
330
1F
100
AcDbEntity
  8
SK3
  6
HIDDEN
370
    18
100
AcDbLine
 10
182.0
 20
8.5
 30
0.0
 11
178.0
 21
8.5
 31
0.0
  0
LINE
  5
1FC
330
1F
100
AcDbEntity
  8
SK3
  6
HIDDEN
370
    18
100
AcDbLine
 10
178.0
 20
-8.5
 30
0.0
 11
182.0
 21
-8.5
 31
0.0
  0
LINE
  5
1FD
330
1F
100
AcDbEntity
  8
SK3
  6
HIDDEN
370
    18
100
AcDbLine
 10
178.0
 20
8.5
 30
0.0
 11
177.0987090715
 21
7.0
 31
0.0
  0
LINE
  5
1FE
330
1F
100
AcDbEntity
  8
SK3
  6
HIDDEN
370
    18
100
AcDbLine
 10
177.0987090715
 20
-7.0
 30
0.0
 11
178.0
 21
-8.5
 31
0.0
  0
LINE
  5
1FF
330
1F
100
AcDbEntity
  8
SK3
  6
HIDDEN
370
    18
100
AcDbLine
 10
177.0987090715
 20
7.0
 30
0.0
 11
129.4017212381
 21
7.0
 31
0.0
  0
LINE
  5
200
330
1F
100
AcDbEntity
  8
SK3
  6
HIDDEN
370
    18
100
AcDbLine
 10
129.4017212381
 20
-7.0
 30
0.0
 11
177.0987090715
 21
-7.0
 31
0.0
  0
LINE
  5
201
330
1F
100
AcDbEntity
  8
SK3
  6
HIDDEN
370
    18
100
AcDbLine
 10
15.5
 20
35.3
 30
0.0
 11
15.5
 21
30.9
 31
0.0
  0
LINE
  5
202
330
1F
100
AcDbEntity
  8
SK3
  6
HIDDEN
370
    18
100
AcDbLine
 10
25.5
 20
30.9
 30
0.0
 11
25.5
 21
35.3
 31
0.0
  0
LINE
  5
203
330
1F
100
AcDbEntity
  8
SK3
  6
HIDDEN
370
    18
100
AcDbLine
 10
184.0
 20
10.4852813742
 30
0.0
 11
148.4142135624
 21
10.4852813742
 31
0.0
  0
LINE
  5
204
330
1F
100
AcDbEntity
  8
SK3
  6
HIDDEN
370
    18
100
AcDbLine
 10
148.4142135624
 20
6.4852813742
 30
0.0
 11
184.0
 21
6.4852813742
 31
0.0
  0
LINE
  5
205
330
1F
100
AcDbEntity
  8
SK3
  6
HIDDEN
370
    18
100
AcDbLine
 10
145.5857864376
 20
10.4852813742
 30
0.0
 11
144.0
 21
10.4852813742
 31
0.0
  0
LINE
  5
206
330
1F
100
AcDbEntity
  8
SK3
  6
HIDDEN
370
    18
100
AcDbLine
 10
144.0
 20
6.4852813742
 30
0.0
 11
145.5857864376
 21
6.4852813742
 31
0.0
  0
LINE
  5
207
330
1F
100
AcDbEntity
  8
SK3
  6
HIDDEN
370
    18
100
AcDbLine
 10
144.0
 20
10.4852813742
 30
0.0
 11
142.7982787619
 21
8.4852813742
 31
0.0
  0
LINE
  5
208
330
1F
100
AcDbEntity
  8
SK3
  6
HIDDEN
370
    18
100
AcDbLine
 10
142.7982787619
 20
8.4852813742
 30
0.0
 11
144.0
 21
6.4852813742
 31
0.0
  0
LINE
  5
209
330
1F
100
AcDbEntity
  8
SK3
  6
HIDDEN
370
    18
100
AcDbLine
 10
184.0
 20
-6.4852813742
 30
0.0
 11
148.4142135624
 21
-6.4852813742
 31
0.0
  0
LINE
  5
20A
330
1F
100
AcDbEntity
  8
SK3
  6
HIDDEN
370
    18
100
AcDbLine
 10
148.4142135624
 20
-10.4852813742
 30
0.0
 11
184.0
 21
-10.4852813742
 31
0.0
  0
LINE
  5
20B
330
1F
100
AcDbEntity
  8
SK3
  6
HIDDEN
370
    18
100
AcDbLine
 10
145.5857864376
 20
-6.4852813742
 30
0.0
 11
144.0
 21
-6.4852813742
 31
0.0
  0
LINE
  5
20C
330
1F
100
AcDbEntity
  8
SK3
  6
HIDDEN
370
    18
100
AcDbLine
 10
144.0
 20
-10.4852813742
 30
0.0
 11
145.5857864376
 21
-10.4852813742
 31
0.0
  0
LINE
  5
20D
330
1F
100
AcDbEntity
  8
SK3
  6
HIDDEN
370
    18
100
AcDbLine
 10
144.0
 20
-6.4852813742
 30
0.0
 11
142.7982787619
 21
-8.4852813742
 31
0.0
  0
LINE
  5
20E
330
1F
100
AcDbEntity
  8
SK3
  6
HIDDEN
370
    18
100
AcDbLine
 10
142.7982787619
 20
-8.4852813742
 30
0.0
 11
144.0
 21
-10.4852813742
 31
0.0
  0
LINE
  5
20F
330
1F
100
AcDbEntity
  8
SK3
  6
HIDDEN
370
    18
100
AcDbLine
 10
9.45
 20
11.5782458517
 30
0.0
 11
9.45
 21
3.0779354401
 31
0.0
  0
LINE
  5
210
330
1F
100
AcDbEntity
  8
SK3
  6
HIDDEN
370
    18
100
AcDbLine
 10
12.75
 20
3.0769242433
 30
0.0
 11
12.75
 21
10.7006836848
 31
0.0
  0
LINE
  5
211
330
1F
100
AcDbEntity
  8
SK3
  6
HIDDEN
370
    18
100
AcDbLine
 10
4.101137602
 20
11.5346431229
 30
0.0
 11
14.8968849264
 21
8.6498529463
 31
0.0
  0
LINE
  5
212
330
1F
100
AcDbEntity
  8
SK3
  6
HIDDEN
370
    18
100
AcDbLine
 10
16.1618570383
 20
13.3837567853
 30
0.0
 11
5.3661097138
 21
16.2685469619
 31
0.0
  0
LINE
  5
213
330
1F
100
AcDbEntity
  8
SK3
  6
HIDDEN
370
    18
100
AcDbLine
 10
9.45
 20
15.6223206074
 30
0.0
 11
9.45
 21
13.7022627845
 31
0.0
  0
LINE
  5
214
330
1F
100
AcDbEntity
  8
SK3
  6
HIDDEN
370
    18
100
AcDbLine
 10
12.75
 20
12.8224054946
 30
0.0
 11
12.75
 21
15.6223206074
 31
0.0
  0
LINE
  5
215
330
1F
100
AcDbEntity
  8
SK3
  6
HIDDEN
370
    18
100
AcDbLine
 10
3.0
 20
11.6736210955
 30
0.0
 11
4.0624139659
 21
11.3897276993
 31
0.0
  0
LINE
  5
216
330
1F
100
AcDbEntity
  8
SK3
  6
HIDDEN
370
    18
100
AcDbLine
 10
5.4048333499
 20
16.4134623855
 30
0.0
 11
3.0
 21
17.0560709439
 31
0.0
  0
LINE
  5
217
330
1F
100
AcDbEntity
  8
SK3
  6
HIDDEN
370
    18
100
AcDbLine
 10
9.1
 20
17.0936752184
 30
0.0
 11
9.1
 21
15.6914335051
 31
0.0
  0
LINE
  5
218
330
1F
100
AcDbEntity
  8
SK3
  6
HIDDEN
370
    18
100
AcDbLine
 10
13.1
 20
15.6914335051
 30
0.0
 11
13.1
 21
17.0933698293
 31
0.0
  0
LINE
  5
219
330
1F
100
AcDbEntity
  8
SK3
  6
Continuous
370
    18
100
AcDbLine
 10
-55.8
 20
12.0
 30
0.0
 11
-88.1169872981
 21
12.0
 31
0.0
  0
LINE
  5
21A
330
1F
100
AcDbEntity
  8
SK3
  6
Continuous
370
    18
100
AcDbLine
 10
-88.1169872981
 20
-12.0
 30
0.0
 11
-55.8
 21
-12.0
 31
0.0
  0
LINE
  5
21B
330
1F
100
AcDbEntity
  8
SK3
  6
Continuous
370
    18
100
AcDbLine
 10
-55.8
 20
0.0
 30
0.0
 11
-55.8
 21
-2.0280098439
 31
0.0
  0
LINE
  5
21C
330
1F
100
AcDbEntity
  8
SK3
  6
Continuous
370
    18
100
AcDbLine
 10
-55.8
 20
-2.0280098439
 30
0.0
 11
-55.8
 21
-3.9976775369
 31
0.0
  0
LINE
  5
21D
330
1F
100
AcDbEntity
  8
SK3
  6
Continuous
370
    18
100
AcDbLine
 10
-55.8
 20
-3.9976775369
 30
0.0
 11
-55.8
 21
-5.8523393258
 31
0.0
  0
LINE
  5
21E
330
1F
100
AcDbEntity
  8
SK3
  6
Continuous
370
    18
100
AcDbLine
 10
-55.8
 20
-5.8523393258
 30
0.0
 11
-55.8
 21
-7.5386399675
 31
0.0
  0
LINE
  5
21F
330
1F
100
AcDbEntity
  8
SK3
  6
Continuous
370
    18
100
AcDbLine
 10
-55.8
 20
-7.5386399675
 30
0.0
 11
-55.8
 21
-9.008067663
 31
0.0
  0
LINE
  5
220
330
1F
100
AcDbEntity
  8
SK3
  6
Continuous
370
    18
100
AcDbLine
 10
-55.8
 20
-9.008067663
 30
0.0
 11
-55.8
 21
-10.2183496528
 31
0.0
  0
LINE
  5
221
330
1F
100
AcDbEntity
  8
SK3
  6
Continuous
370
    18
100
AcDbLine
 10
-55.8
 20
-10.2183496528
 30
0.0
 11
-55.8
 21
-11.1346683276
 31
0.0
  0
LINE
  5
222
330
1F
100
AcDbEntity
  8
SK3
  6
Continuous
370
    18
100
AcDbLine
 10
-55.8
 20
-11.1346683276
 30
0.0
 11
-55.8
 21
-11.7306628674
 31
0.0
  0
LINE
  5
223
330
1F
100
AcDbEntity
  8
SK3
  6
Continuous
370
    18
100
AcDbLine
 10
-55.8
 20
-11.7306628674
 30
0.0
 11
-55.8
 21
-11.9891875945
 31
0.0
  0
LINE
  5
224
330
1F
100
AcDbEntity
  8
SK3
  6
Continuous
370
    18
100
AcDbLine
 10
-55.8
 20
-11.9891875945
 30
0.0
 11
-55.8
 21
-12.0
 31
0.0
  0
LINE
  5
225
330
1F
100
AcDbEntity
  8
SK3
  6
Continuous
370
    18
100
AcDbLine
 10
-55.8
 20
12.0
 30
0.0
 11
-55.8
 21
11.9891875945
 31
0.0
  0
LINE
  5
226
330
1F
100
AcDbEntity
  8
SK3
  6
Continuous
370
    18
100
AcDbLine
 10
-55.8
 20
11.9891875945
 30
0.0
 11
-55.8
 21
11.7306628674
 31
0.0
  0
LINE
  5
227
330
1F
100
AcDbEntity
  8
SK3
  6
Continuous
370
    18
100
AcDbLine
 10
-55.8
 20
11.7306628674
 30
0.0
 11
-55.8
 21
11.1346683276
 31
0.0
  0
LINE
  5
228
330
1F
100
AcDbEntity
  8
SK3
  6
Continuous
370
    18
100
AcDbLine
 10
-55.8
 20
11.1346683276
 30
0.0
 11
-55.8
 21
10.2183496528
 31
0.0
  0
LINE
  5
229
330
1F
100
AcDbEntity
  8
SK3
  6
Continuous
370
    18
100
AcDbLine
 10
-55.8
 20
10.2183496528
 30
0.0
 11
-55.8
 21
9.008067663
 31
0.0
  0
LINE
  5
22A
330
1F
100
AcDbEntity
  8
SK3
  6
Continuous
370
    18
100
AcDbLine
 10
-55.8
 20
9.008067663
 30
0.0
 11
-55.8
 21
7.5386399675
 31
0.0
  0
LINE
  5
22B
330
1F
100
AcDbEntity
  8
SK3
  6
Continuous
370
    18
100
AcDbLine
 10
-55.8
 20
7.5386399675
 30
0.0
 11
-55.8
 21
5.8523393258
 31
0.0
  0
LINE
  5
22C
330
1F
100
AcDbEntity
  8
SK3
  6
Continuous
370
    18
100
AcDbLine
 10
-55.8
 20
5.8523393258
 30
0.0
 11
-55.8
 21
3.9976775369
 31
0.0
  0
LINE
  5
22D
330
1F
100
AcDbEntity
  8
SK3
  6
Continuous
370
    18
100
AcDbLine
 10
-55.8
 20
3.9976775369
 30
0.0
 11
-55.8
 21
2.0280098439
 31
0.0
  0
LINE
  5
22E
330
1F
100
AcDbEntity
  8
SK3
  6
Continuous
370
    18
100
AcDbLine
 10
-55.8
 20
2.0280098439
 30
0.0
 11
-55.8
 21
0.0
 31
0.0
  0
LINE
  5
22F
330
1F
100
AcDbEntity
  8
SK3
  6
Continuous
370
    18
100
AcDbLine
 10
148.0
 20
-8.0
 30
0.0
 11
177.6995696905
 21
-8.0
 31
0.0
  0
LINE
  5
230
330
1F
100
AcDbEntity
  8
SK3
  6
Continuous
370
    18
100
AcDbLine
 10
177.6995696905
 20
8.0
 30
0.0
 11
148.0
 21
8.0
 31
0.0
  0
LINE
  5
231
330
1F
100
AcDbEntity
  8
SK3
  6
Continuous
370
    18
100
AcDbLine
 10
148.0
 20
-8.0
 30
0.0
 11
148.0
 21
-7.919715991
 31
0.0
  0
LINE
  5
232
330
1F
100
AcDbEntity
  8
SK3
  6
Continuous
370
    18
100
AcDbLine
 10
148.0
 20
6.74742538
 30
0.0
 11
148.0
 21
7.2870798604
 31
0.0
  0
LINE
  5
233
330
1F
100
AcDbEntity
  8
SK3
  6
Continuous
370
    18
100
AcDbLine
 10
148.0
 20
6.74742538
 30
0.0
 11
148.0
 21
6.0205763947
 31
0.0
  0
LINE
  5
234
330
1F
100
AcDbEntity
  8
SK3
  6
Continuous
370
    18
100
AcDbLine
 10
148.0
 20
-6.0205763947
 30
0.0
 11
148.0
 21
-6.74742538
 31
0.0
  0
LINE
  5
235
330
1F
100
AcDbEntity
  8
SK3
  6
Continuous
370
    18
100
AcDbLine
 10
147.9999429495
 20
-4.2979356372
 30
0.0
 11
148.0
 21
-3.3012826458
 31
0.0
  0
LINE
  5
236
330
1F
100
AcDbEntity
  8
SK3
  6
Continuous
370
    18
100
AcDbLine
 10
148.0
 20
-3.3012826458
 30
0.0
 11
148.0
 21
-2.2383696031
 31
0.0
  0
LINE
  5
237
330
1F
100
AcDbEntity
  8
SK3
  6
Continuous
370
    18
100
AcDbLine
 10
148.0
 20
-2.2383696031
 30
0.0
 11
148.0
 21
-1.130530239
 31
0.0
  0
LINE
  5
238
330
1F
100
AcDbEntity
  8
SK3
  6
Continuous
370
    18
100
AcDbLine
 10
148.0
 20
-1.130530239
 30
0.0
 11
148.0
 21
0.0
 31
0.0
  0
LINE
  5
239
330
1F
100
AcDbEntity
  8
SK3
  6
Continuous
370
    18
100
AcDbLine
 10
148.0
 20
0.0
 30
0.0
 11
148.0
 21
1.130530239
 31
0.0
  0
LINE
  5
23A
330
1F
100
AcDbEntity
  8
SK3
  6
Continuous
370
    18
100
AcDbLine
 10
148.0
 20
1.130530239
 30
0.0
 11
148.0
 21
2.2383696031
 31
0.0
  0
LINE
  5
23B
330
1F
100
AcDbEntity
  8
SK3
  6
Continuous
370
    18
100
AcDbLine
 10
148.0
 20
2.2383696031
 30
0.0
 11
148.0
 21
3.3012826458
 31
0.0
  0
LINE
  5
23C
330
1F
100
AcDbEntity
  8
SK3
  6
Continuous
370
    18
100
AcDbLine
 10
148.0
 20
3.3012826458
 30
0.0
 11
148.0
 21
4.2979356372
 31
0.0
  0
LINE
  5
23D
330
1F
100
AcDbEntity
  8
SK3
  6
Continuous
370
    18
100
AcDbLine
 10
147.9999429495
 20
-7.919715991
 30
0.0
 11
148.0
 21
-7.6804753447
 31
0.0
  0
LINE
  5
23E
330
1F
100
AcDbEntity
  8
SK3
  6
Continuous
370
    18
100
AcDbLine
 10
148.0
 20
-7.6804753447
 30
0.0
 11
148.0
 21
-7.2870798604
 31
0.0
  0
LINE
  5
23F
330
1F
100
AcDbEntity
  8
SK3
  6
Continuous
370
    18
100
AcDbLine
 10
148.0
 20
-7.2870798604
 30
0.0
 11
148.0
 21
-6.74742538
 31
0.0
  0
LINE
  5
240
330
1F
100
AcDbEntity
  8
SK3
  6
Continuous
370
    18
100
AcDbLine
 10
147.9999429495
 20
7.2870798604
 30
0.0
 11
148.0
 21
7.6804753447
 31
0.0
  0
LINE
  5
241
330
1F
100
AcDbEntity
  8
SK3
  6
Continuous
370
    18
100
AcDbLine
 10
148.0
 20
7.6804753447
 30
0.0
 11
148.0
 21
7.919715991
 31
0.0
  0
LINE
  5
242
330
1F
100
AcDbEntity
  8
SK3
  6
Continuous
370
    18
100
AcDbLine
 10
148.0
 20
7.919715991
 30
0.0
 11
148.0
 21
8.0
 31
0.0
  0
LINE
  5
243
330
1F
100
AcDbEntity
  8
SK1
  6
Continuous
370
    18
100
AcDbLine
 10
187.5191696793
 20
4.25
 30
0.0
 11
184.0
 21
4.25
 31
0.0
  0
LINE
  5
244
330
1F
100
AcDbEntity
  8
SK1
  6
Continuous
370
    18
100
AcDbLine
 10
184.0
 20
-4.25
 30
0.0
 11
187.5191696793
 21
-4.25
 31
0.0
  0
LINE
  5
245
330
1F
100
AcDbEntity
  8
4
  6
CENTERX2
370
    18
100
AcDbLine
 10
185.3920050765
 20
0.0
 30
0.0
 11
-2.2538137898
 21
0.0
 31
0.0
  0
LINE
  5
246
330
1F
100
AcDbEntity
  8
SK4
  6
CENTERX2
370
    18
100
AcDbLine
 10
186.7014723481
 20
0.0
 30
0.0
 11
-105.1502498742
 21
0.0
 31
0.0
  0
ARC
  5
247
330
1F
100
AcDbEntity
  8
SK1
  6
Continuous
370
    25
100
AcDbCircle
 10
193.8191696793
 20
11.7
 30
0.0
 40
0.3000000000000114
100
AcDbArc
 50
90.0
 51
180.0
  0
ARC
  5
248
330
1F
100
AcDbEntity
  8
SK1
  6
Continuous
370
    25
100
AcDbCircle
 10
193.8191696793
 20
-11.7
 30
0.0
 40
0.3000000000000114
100
AcDbArc
 50
180.0
 51
270.0
  0
ARC
  5
249
330
1F
100
AcDbEntity
  8
1
  6
Continuous
370
    25
100
AcDbCircle
 10
37.25
 20
-49.228682327
 30
0.0
 40
0.75
100
AcDbArc
 50
270.0
 51
0.0
  0
ARC
  5
24A
330
1F
100
AcDbEntity
  8
1
  6
Continuous
370
    25
100
AcDbCircle
 10
37.25
 20
49.228682327
 30
0.0
 40
0.75
100
AcDbArc
 50
0.0
 51
90.0
  0
ARC
  5
24B
330
1F
100
AcDbEntity
  8
1
  6
Continuous
370
    25
100
AcDbCircle
 10
41.0
 20
-42.0
 30
0.0
 40
3.000000000000028
100
AcDbArc
 50
90.0
 51
180.0
  0
ARC
  5
24C
330
1F
100
AcDbEntity
  8
1
  6
Continuous
370
    25
100
AcDbCircle
 10
41.0
 20
42.0
 30
0.0
 40
3.000000000000028
100
AcDbArc
 50
180.0
 51
270.0
  0
ARC
  5
24D
330
1F
100
AcDbEntity
  8
1
  6
Continuous
370
    25
100
AcDbCircle
 10
159.2
 20
-38.2
 30
0.0
 40
0.8000000000000185
100
AcDbArc
 50
270.0
 51
0.0
  0
ARC
  5
24E
330
1F
100
AcDbEntity
  8
1
  6
Continuous
370
    25
100
AcDbCircle
 10
159.2
 20
38.2
 30
0.0
 40
0.8000000000000114
100
AcDbArc
 50
0.0
 51
90.0
  0
ARC
  5
24F
330
1F
100
AcDbEntity
  8
1
  6
Continuous
370
    25
100
AcDbCircle
 10
2.25
 20
35.5
 30
0.0
 40
0.7500000000000141
100
AcDbArc
 50
270.0
 51
344.4852902919
  0
ARC
  5
250
330
1F
100
AcDbEntity
  8
1
  6
Continuous
370
    25
100
AcDbCircle
 10
2.25
 20
-35.5
 30
0.0
 40
0.7500000000000133
100
AcDbArc
 50
15.0193274715
 51
90.0
  0
ARC
  5
251
330
1F
100
AcDbEntity
  8
1
  6
Continuous
370
    25
100
AcDbCircle
 10
0.7040707856
 20
35.5
 30
0.0
 40
0.7500000000000001
100
AcDbArc
 50
240.0
 51
270.0
  0
ARC
  5
252
330
1F
100
AcDbEntity
  8
1
  6
Continuous
370
    25
100
AcDbCircle
 10
0.7040707856
 20
-35.5
 30
0.0
 40
0.7500000000000071
100
AcDbArc
 50
90.0
 51
120.0
  0
ARC
  5
253
330
1F
100
AcDbEntity
  8
SK1
  6
Continuous
370
    25
100
AcDbCircle
 10
-100.8
 20
19.2132836634
 30
0.0
 40
1.000000000000009
100
AcDbArc
 50
98.2977777778
 51
180.0
  0
ARC
  5
254
330
1F
100
AcDbEntity
  8
SK1
  6
Continuous
370
    25
100
AcDbCircle
 10
-100.8
 20
-19.2132836634
 30
0.0
 40
1.0
100
AcDbArc
 50
180.0
 51
261.7022222222
  0
ARC
  5
255
330
1F
100
AcDbEntity
  8
SK1
  6
Continuous
370
    25
100
AcDbCircle
 10
160.42
 20
16.5475
 30
0.0
 40
0.800000000000037
100
AcDbArc
 50
238.3317567465
 51
287.5
  0
ARC
  5
256
330
1F
100
AcDbEntity
  8
SK1
  6
Continuous
370
    25
100
AcDbCircle
 10
160.42
 20
-16.5475
 30
0.0
 40
0.800000000000025
100
AcDbArc
 50
72.5
 51
121.6682432535
  0
ARC
  5
257
330
1F
100
AcDbEntity
  8
1
370
    25
100
AcDbCircle
 10
136.0018949968
 20
-67.7229512062
 30
0.0
 40
29.27410396333368
100
AcDbArc
 50
78.8643502041
 51
101.1356497959
  0
SPLINE
  5
258
330
1F
100
AcDbEntity
  8
SK1
  6
Continuous
370
    25
100
AcDbSpline
210
0.0
220
0.0
230
1.0
 70
     8
 71
     3
 72
    21
 73
    17
 74
     0
 42
0.000000001
 43
0.00000001
 40
0.0
 40
0.0
 40
0.0
 40
0.0
 40
0.0005966424710675
 40
0.0053744927110351
 40
0.0117547878996014
 40
0.0286785125966575
 40
0.1008253757771984
 40
0.3871673294310349
 40
0.5873119986477016
 40
0.7729408751933445
 40
0.8410663325132213
 40
0.9157611271938002
 40
0.9532504891382736
 40
0.971069449239044
 40
0.9890378182370326
 40
1.0
 40
1.0
 40
1.0
 40
1.0
 10
160.029615574081
 20
-26.66392412970157
 30
0.0
 10
160.0301092878059
 20
-26.66393262250578
 30
0.0
 10
160.0345566091815
 20
-26.66400912479403
 30
0.0
 10
160.0441876781449
 20
-26.66684430077031
 30
0.0
 10
160.0628529835836
 20
-26.68125640137799
 30
0.0
 10
160.1057554669312
 20
-26.74905348981648
 30
0.0
 10
160.195685236422
 20
-27.04834633959051
 30
0.0
 10
160.2784510564377
 20
-27.50385600915906
 30
0.0
 10
160.3245810838747
 20
-28.05848234674566
 30
0.0
 10
160.3091022333451
 20
-28.43653855473499
 30
0.0
 10
160.2502640468396
 20
-28.70219320279241
 30
0.0
 10
160.194739910613
 20
-28.842587715256
 30
0.0
 10
160.1247543553075
 20
-28.92743469578575
 30
0.0
 10
160.0718119946606
 20
-28.95830974569895
 30
0.0
 10
160.0325480493306
 20
-28.9661077792822
 30
0.0
 10
160.008943925628
 20
-28.96147564668004
 30
0.0
 10
159.9999999999999
 20
-28.95972046821991
 30
0.0
  0
SPLINE
  5
259
330
1F
100
AcDbEntity
  8
SK1
  6
Continuous
370
    25
100
AcDbSpline
210
0.0
220
0.0
230
1.0
 70
     8
 71
     3
 72
    20
 73
    16
 74
     0
 42
0.000000001
 43
0.00000001
 40
0.0
 40
0.0
 40
0.0
 40
0.0
 40
0.0088113355658336
 40
0.0248512046742805
 40
0.0408160866356854
 40
0.0681518679462926
 40
0.1201232837044064
 40
0.2732577827994635
 40
0.7607183829876332
 40
0.9630861795858798
 40
0.9756617714721364
 40
0.9888276779847321
 40
0.9936871460963426
 40
0.99859550053988
 40
1.0
 40
1.0
 40
1.0
 40
1.0
 10
160.0000000000095
 20
-23.04027953177751
 30
0.0
 10
160.0071438885472
 20
-23.03877904969431
 30
0.0
 10
160.0272922797752
 20
-23.0345471387563
 30
0.0
 10
160.0617048918005
 20
-23.03875583531041
 30
0.0
 10
160.1065894930968
 20
-23.05980478535043
 30
0.0
 10
160.1646283602046
 20
-23.11507806480371
 30
0.0
 10
160.2573926089694
 20
-23.28598783098315
 30
0.0
 10
160.3603776582881
 20
-23.85913115769246
 30
0.0
 10
160.2629035514826
 20
-24.55099974938254
 30
0.0
 10
160.1621553824663
 20
-25.13305490624645
 30
0.0
 10
160.0751376097198
 20
-25.30007164088637
 30
0.0
 10
160.0600499570992
 20
-25.32089568653006
 30
0.0
 10
160.0449058661095
 20
-25.33244395082422
 30
0.0
 10
160.0359950989152
 20
-25.33582159296882
 30
0.0
 10
160.030776598951
 20
-25.33602959376354
 30
0.0
 10
160.029615574081
 20
-25.33607587029841
 30
0.0
  0
SPLINE
  5
25A
330
1F
100
AcDbEntity
  8
SK1
  6
Continuous
370
    25
100
AcDbSpline
210
0.0
220
0.0
230
1.0
 70
     8
 71
     3
 72
    10
 73
     6
 74
     0
 42
0.000000001
 43
0.00000001
 40
0.0
 40
0.0
 40
0.0
 40
0.0
 40
0.3386794853348047
 40
0.6835141788175984
 40
1.0
 40
1.0
 40
1.0
 40
1.0
 10
166.9999999999999
 20
-25.48459821498177
 30
0.0
 10
166.9418101391336
 20
-24.83991226096641
 30
0.0
 10
166.8243728667631
 20
-23.53882374059613
 30
0.0
 10
166.3324761099224
 20
-21.68680833415938
 30
0.0
 10
165.9053636125214
 20
-20.49955867327925
 30
0.0
 10
165.7009618943232
 20
-19.9313807995558
 30
0.0
  0
SPLINE
  5
25B
330
1F
100
AcDbEntity
  8
SK1
  6
Continuous
370
    25
100
AcDbSpline
210
0.0
220
0.0
230
1.0
 70
     8
 71
     3
 72
    10
 73
     6
 74
     0
 42
0.000000001
 43
0.00000001
 40
0.0
 40
0.0
 40
0.0
 40
0.0
 40
0.4369080587517389
 40
0.8802097485016402
 40
1.0
 40
1.0
 40
1.0
 40
1.0
 10
165.7009618943232
 20
-32.06861920044419
 30
0.0
 10
165.9799846783363
 20
-31.28285626384321
 30
0.0
 10
166.5421134137137
 20
-29.6998316824622
 30
0.0
 10
166.9214302526483
 20
-27.81612122202375
 30
0.0
 10
166.986217403389
 20
-26.74357219294907
 30
0.0
 10
166.9999999999999
 20
-26.51540178501822
 30
0.0
  0
SPLINE
  5
25C
330
1F
100
AcDbEntity
  8
SK1
  6
Continuous
370
    25
100
AcDbSpline
210
0.0
220
0.0
230
1.0
 70
    24
 71
     3
 72
    10
 73
     6
 74
     0
 42
0.000000001
 43
0.00000001
 40
0.0
 40
0.0
 40
0.0
 40
0.0
 40
0.4369080587517404
 40
0.8802097485016421
 40
1.0
 40
1.0
 40
1.0
 40
1.0
 10
165.7009618943232
 20
-19.01899999999999
 30
0.0
 10
165.9799846783362
 20
-19.01899999999997
 30
0.0
 10
166.5421134137136
 20
-19.01899999999996
 30
0.0
 10
166.9214302526482
 20
-19.01899999999997
 30
0.0
 10
166.986217403389
 20
-19.01899999999997
 30
0.0
 10
166.9999999999999
 20
-19.01899999999997
 30
0.0
  0
SPLINE
  5
25D
330
1F
100
AcDbEntity
  8
SK1
  6
Continuous
370
    25
100
AcDbSpline
210
0.0
220
0.0
230
1.0
 70
    24
 71
     3
 72
    10
 73
     6
 74
     0
 42
0.000000001
 43
0.00000001
 40
0.0
 40
0.0
 40
0.0
 40
0.0
 40
0.3386794853348036
 40
0.6835141788175957
 40
0.9999999999999999
 40
0.9999999999999999
 40
0.9999999999999999
 40
0.9999999999999999
 10
166.9999999999999
 20
-32.98099999999999
 30
0.0
 10
166.9418101391336
 20
-32.98099999999999
 30
0.0
 10
166.824372866763
 20
-32.98099999999999
 30
0.0
 10
166.3324761099225
 20
-32.98099999999999
 30
0.0
 10
165.9053636125214
 20
-32.98099999999999
 30
0.0
 10
165.7009618943232
 20
-32.98099999999999
 30
0.0
  0
SPLINE
  5
25E
330
1F
100
AcDbEntity
  8
SK1
  6
Continuous
370
    25
100
AcDbSpline
210
0.0
220
0.0
230
1.0
 70
     8
 71
     3
 72
    21
 73
    17
 74
     0
 42
0.000000001
 43
0.00000001
 40
0.0
 40
0.0
 40
0.0
 40
0.0
 40
0.0010741149496991
 40
0.004836296345358
 40
0.0106689124766176
 40
0.0252679703954723
 40
0.0828782887975767
 40
0.3113654611500066
 40
0.7701268255802699
 40
0.8339768345627785
 40
0.907762016145125
 40
0.9347438287498023
 40
0.9619216471836372
 40
0.9786937059331542
 40
0.9911921379381974
 40
1.0
 40
1.0
 40
1.0
 40
1.0
 10
160.029615574081
 20
25.3360758702984
 30
0.0
 10
160.0305035084559
 20
25.33604878401118
 30
0.0
 10
160.0345015105068
 20
25.33592682563782
 30
0.0
 10
160.043155513548
 20
25.33344398610253
 30
0.0
 10
160.059791453591
 20
25.32180026467673
 30
0.0
 10
160.0971291372141
 20
25.26790531776554
 30
0.0
 10
160.1763565716438
 20
25.030357997201
 30
0.0
 10
160.2924367544703
 20
24.42830314374346
 30
0.0
 10
160.3557670115216
 20
23.79394950690072
 30
0.0
 10
160.2539837571957
 20
23.31140302356023
 30
0.0
 10
160.2056341431617
 20
23.18216917311763
 30
0.0
 10
160.1449411646239
 20
23.09512277116898
 30
0.0
 10
160.1003443927372
 20
23.05524716689239
 30
0.0
 10
160.0563545742827
 20
23.03764884239171
 30
0.0
 10
160.0244267684193
 20
23.03514161054737
 30
0.0
 10
160.0071444009898
 20
23.0387767800075
 30
0.0
 10
159.9999999999999
 20
23.04027953178006
 30
0.0
  0
SPLINE
  5
25F
330
1F
100
AcDbEntity
  8
SK1
  6
Continuous
370
    25
100
AcDbSpline
210
0.0
220
0.0
230
1.0
 70
     8
 71
     3
 72
    25
 73
    21
 74
     0
 42
0.000000001
 43
0.00000001
 40
0.0
 40
0.0
 40
0.0
 40
0.0
 40
0.010917729559541
 40
0.0272512644447076
 40
0.0470917346137311
 40
0.0789448914793922
 40
0.143674522209769
 40
0.3448642410290967
 40
0.5540699142552982
 40
0.6984003566278187
 40
0.7965827369113229
 40
0.8628822774290468
 40
0.9075442365095284
 40
0.9376713767714088
 40
0.9580972030162678
 40
0.9720805818122182
 40
0.9862761232028697
 40
0.9920710141930714
 40
0.9969138035651159
 40
0.9999999999999999
 40
0.9999999999999999
 40
0.9999999999999999
 40
0.9999999999999999
 10
159.9999999999999
 20
28.95972046821993
 30
0.0
 10
160.0089066678262
 20
28.96147195945863
 30
0.0
 10
160.0311382095523
 20
28.96584377968531
 30
0.0
 10
160.070636321957
 20
28.95886850566033
 30
0.0
 10
160.1202575484218
 20
28.93052620431191
 30
0.0
 10
160.1847988227942
 20
28.85684152481666
 30
0.0
 10
160.2854653281306
 20
28.62868057985852
 30
0.0
 10
160.3264350337819
 20
28.23103274017653
 30
0.0
 10
160.3052917425054
 20
27.77283326399023
 30
0.0
 10
160.2557842771921
 20
27.40186741793783
 30
0.0
 10
160.2095964919561
 20
27.1504944781673
 30
0.0
 10
160.1715411178028
 20
26.98161917217541
 30
0.0
 10
160.1412248510934
 20
26.86882545011181
 30
0.0
 10
160.1170619506084
 20
26.79381390003194
 30
0.0
 10
160.0975645070965
 20
26.74400355398017
 30
0.0
 10
160.0798358641802
 20
26.70794640531031
 30
0.0
 10
160.064323861361
 20
26.68407102661489
 30
0.0
 10
160.0490623120994
 20
26.67021171607344
 30
0.0
 10
160.0387547731441
 20
26.66472056095025
 30
0.0
 10
160.0321761639058
 20
26.66414727111008
 30
0.0
 10
160.029615574081
 20
26.66392412970159
 30
0.0
  0
SPLINE
  5
260
330
1F
100
AcDbEntity
  8
SK1
  6
Continuous
370
    25
100
AcDbSpline
210
0.0
220
0.0
230
1.0
 70
     8
 71
     3
 72
    10
 73
     6
 74
     0
 42
0.000000001
 43
0.00000001
 40
0.0
 40
0.0
 40
0.0
 40
0.0
 40
0.3386794853348034
 40
0.6835141788175946
 40
1.0
 40
1.0
 40
1.0
 40
1.0
 10
166.9999999999999
 20
26.51540178501825
 30
0.0
 10
166.9418101391336
 20
27.16008773903359
 30
0.0
 10
166.8243728667631
 20
28.46117625940388
 30
0.0
 10
166.3324761099223
 20
30.31319166584059
 30
0.0
 10
165.9053636125214
 20
31.50044132672074
 30
0.0
 10
165.7009618943233
 20
32.06861920044421
 30
0.0
  0
SPLINE
  5
261
330
1F
100
AcDbEntity
  8
SK1
  6
Continuous
370
    25
100
AcDbSpline
210
0.0
220
0.0
230
1.0
 70
     8
 71
     3
 72
    10
 73
     6
 74
     0
 42
0.000000001
 43
0.00000001
 40
0.0
 40
0.0
 40
0.0
 40
0.0
 40
0.4369080587517398
 40
0.880209748501642
 40
1.0
 40
1.0
 40
1.0
 40
1.0
 10
165.7009618943232
 20
19.93138079955578
 30
0.0
 10
165.9799846783362
 20
20.71714373615675
 30
0.0
 10
166.5421134137136
 20
22.30016831753774
 30
0.0
 10
166.9214302526481
 20
24.18387877797622
 30
0.0
 10
166.9862174033891
 20
25.2564278070509
 30
0.0
 10
166.9999999999999
 20
25.48459821498172
 30
0.0
  0
SPLINE
  5
262
330
1F
100
AcDbEntity
  8
SK1
  6
Continuous
370
    25
100
AcDbSpline
210
0.0
220
0.0
230
1.0
 70
    24
 71
     3
 72
    10
 73
     6
 74
     0
 42
0.000000001
 43
0.00000001
 40
0.0
 40
0.0
 40
0.0
 40
0.0
 40
0.338679485334804
 40
0.6835141788175965
 40
0.9999999999999999
 40
0.9999999999999999
 40
0.9999999999999999
 40
0.9999999999999999
 10
166.9999999999999
 20
19.01899999999998
 30
0.0
 10
166.9418101391336
 20
19.01899999999998
 30
0.0
 10
166.8243728667631
 20
19.01899999999999
 30
0.0
 10
166.3324761099225
 20
19.01899999999998
 30
0.0
 10
165.9053636125214
 20
19.01899999999998
 30
0.0
 10
165.7009618943232
 20
19.01899999999998
 30
0.0
  0
SPLINE
  5
263
330
1F
100
AcDbEntity
  8
SK1
  6
Continuous
370
    25
100
AcDbSpline
210
0.0
220
0.0
230
1.0
 70
    24
 71
     3
 72
    10
 73
     6
 74
     0
 42
0.000000001
 43
0.00000001
 40
0.0
 40
0.0
 40
0.0
 40
0.0
 40
0.4369080587517398
 40
0.8802097485016412
 40
1.0
 40
1.0
 40
1.0
 40
1.0
 10
165.7009618943233
 20
32.98099999999999
 30
0.0
 10
165.9799846783363
 20
32.98099999999999
 30
0.0
 10
166.5421134137137
 20
32.98099999999998
 30
0.0
 10
166.9214302526483
 20
32.98100000000002
 30
0.0
 10
166.986217403389
 20
32.98099999999999
 30
0.0
 10
166.9999999999999
 20
32.98099999999999
 30
0.0
  0
SPLINE
  5
264
330
1F
100
AcDbEntity
  8
1
  6
Continuous
370
    25
100
AcDbSpline
210
0.0
220
0.0
230
1.0
 70
     8
 71
     3
 72
    10
 73
     6
 74
     0
 42
0.000000001
 43
0.00000001
 40
0.0
 40
0.0
 40
0.0
 40
0.0
 40
0.5
 40
0.5
 40
1.0
 40
1.0
 40
1.0
 40
1.0
 10
30.23243614862711
 20
48.17236247777635
 30
0.0
 10
29.66595731755028
 20
47.07044218531223
 30
0.0
 10
29.08730088354836
 20
45.94697720990749
 30
0.0
 10
27.91047592737286
 20
43.66801754599717
 30
0.0
 10
27.31223561288276
 20
42.51237097121844
 30
0.0
 10
26.70500000000001
 20
41.34329896850786
 30
0.0
  0
SPLINE
  5
265
330
1F
100
AcDbEntity
  8
1
  6
Continuous
370
    25
100
AcDbSpline
210
0.0
220
0.0
230
1.0
 70
     8
 71
     3
 72
     9
 73
     5
 74
     0
 42
0.000000001
 43
0.00000001
 40
0.0
 40
0.0
 40
0.0
 40
0.0
 40
0.502463782689512
 40
0.9999999999999999
 40
0.9999999999999999
 40
0.9999999999999999
 40
0.9999999999999999
 10
30.72999999911674
 20
48.90543757807521
 30
0.0
 10
30.64643752270482
 20
48.78261069189418
 30
0.0
 10
30.48013205096592
 20
48.53816145910849
 30
0.0
 10
30.31472977255981
 20
48.29389425735152
 30
0.0
 10
30.23243614862711
 20
48.17236247777635
 30
0.0
  0
SPLINE
  5
266
330
1F
100
AcDbEntity
  8
1
  6
Continuous
370
    25
100
AcDbSpline
210
0.0
220
0.0
230
1.0
 70
     8
 71
     3
 72
     9
 73
     5
 74
     0
 42
0.000000001
 43
0.00000001
 40
0.0
 40
0.0
 40
0.0
 40
0.0
 40
0.4975362171666149
 40
1.0
 40
1.0
 40
1.0
 40
1.0
 10
30.23243616778132
 20
-48.17236251682409
 30
0.0
 10
30.31472978859209
 20
-48.29389428832021
 30
0.0
 10
30.48013206077127
 20
-48.53816147390969
 30
0.0
 10
30.64643752655599
 20
-48.78261069063913
 30
0.0
 10
30.73000000000001
 20
-48.90543756878763
 30
0.0
  0
SPLINE
  5
267
330
1F
100
AcDbEntity
  8
1
  6
Continuous
370
    25
100
AcDbSpline
210
0.0
220
0.0
230
1.0
 70
     8
 71
     3
 72
    10
 73
     6
 74
     0
 42
0.000000001
 43
0.00000001
 40
0.0
 40
0.0
 40
0.0
 40
0.0
 40
0.5
 40
0.5
 40
1.0
 40
1.0
 40
1.0
 40
1.0
 10
30.23243616778129
 20
-48.1723625168241
 30
0.0
 10
29.665957333807
 20
-47.07044221838382
 30
0.0
 10
29.08730089672137
 20
-45.94697723665168
 30
0.0
 10
27.91047593413615
 20
-43.66801755966573
 30
0.0
 10
27.31223561631715
 20
-42.51237097813289
 30
0.0
 10
26.70500000000001
 20
-41.34329896850784
 30
0.0
  0
SPLINE
  5
268
330
1F
100
AcDbEntity
  8
1
  6
Continuous
370
    25
100
AcDbSpline
210
0.0
220
0.0
230
1.0
 70
     8
 71
     3
 72
    10
 73
     6
 74
     0
 42
0.000000001
 43
0.00000001
 40
0.0
 40
0.0
 40
0.0
 40
0.0
 40
0.5
 40
0.5
 40
1.0
 40
1.0
 40
1.0
 40
1.0
 10
3.749999999999996
 20
48.01901379935645
 30
0.0
 10
3.553650459150674
 20
48.01901379935645
 30
0.0
 10
3.358510005927567
 20
47.94135332150157
 30
0.0
 10
3.080829822292696
 20
47.67456100227751
 30
0.0
 10
3.000000000000029
 20
47.48707202337987
 30
0.0
 10
3.000000000000003
 20
47.29842136528806
 30
0.0
  0
SPLINE
  5
269
330
1F
100
AcDbEntity
  8
1
  6
Continuous
370
    25
100
AcDbSpline
210
0.0
220
0.0
230
1.0
 70
     8
 71
     3
 72
    10
 73
     6
 74
     0
 42
0.000000001
 43
0.00000001
 40
0.0
 40
0.0
 40
0.0
 40
0.0
 40
0.5
 40
0.5
 40
1.0
 40
1.0
 40
1.0
 40
1.0
 10
3.000000000000003
 20
-47.29842136528796
 30
0.0
 10
3.000000000000003
 20
-47.48707202337978
 30
0.0
 10
3.080829822292658
 20
-47.67456100227749
 30
0.0
 10
3.358510005927531
 20
-47.94135332150156
 30
0.0
 10
3.553650459150639
 20
-48.01901379935649
 30
0.0
 10
3.749999999999989
 20
-48.01901379935647
 30
0.0
  0
SPLINE
  5
26A
330
1F
100
AcDbEntity
  8
1
  6
Continuous
370
    25
100
AcDbSpline
210
0.0
220
0.0
230
1.0
 70
     8
 71
     3
 72
     8
 73
     4
 74
     0
 42
0.000000001
 43
0.00000001
 40
0.0
 40
0.0
 40
0.0
 40
0.0
 40
0.0013188854064185
 40
0.0013188854064185
 40
0.0013188854064185
 40
0.0013188854064185
 10
16.23001969424191
 20
47.29842136528789
 30
0.0
 10
16.04753937863336
 20
47.53885526362161
 30
0.0
 10
15.86418062995508
 20
47.77904885862083
 30
0.0
 10
15.68
 20
48.01901379935644
 30
0.0
  0
SPLINE
  5
26B
330
1F
100
AcDbEntity
  8
1
  6
Continuous
370
    25
100
AcDbSpline
210
0.0
220
0.0
230
1.0
 70
     8
 71
     3
 72
     8
 73
     4
 74
     0
 42
0.000000001
 43
0.00000001
 40
0.0
 40
0.0
 40
0.0
 40
0.0
 40
1.0
 40
1.0
 40
1.0
 40
1.0
 10
19.70500000000001
 20
41.02691000550033
 30
0.0
 10
18.55198828581112
 20
43.12037875772608
 30
0.0
 10
17.39299087975345
 20
45.21052193210537
 30
0.0
 10
16.23001969424191
 20
47.29842136528788
 30
0.0
  0
SPLINE
  5
26C
330
1F
100
AcDbEntity
  8
1
  6
Continuous
370
    25
100
AcDbSpline
210
0.0
220
0.0
230
1.0
 70
     8
 71
     3
 72
     8
 73
     4
 74
     0
 42
0.000000001
 43
0.00000001
 40
0.0
 40
0.0
 40
0.0
 40
0.0
 40
1.0
 40
1.0
 40
1.0
 40
1.0
 10
19.70500000000001
 20
-41.02691000550032
 30
0.0
 10
18.55203671462703
 20
-43.12029082781906
 30
0.0
 10
17.3930393559919
 20
-45.21043490199484
 30
0.0
 10
16.23001969424186
 20
-47.29842136528799
 30
0.0
  0
SPLINE
  5
26D
330
1F
100
AcDbEntity
  8
1
  6
Continuous
370
    25
100
AcDbSpline
210
0.0
220
0.0
230
1.0
 70
     8
 71
     3
 72
     8
 73
     4
 74
     0
 42
0.000000001
 43
0.00000001
 40
0.0
 40
0.0
 40
0.0
 40
0.0
 40
0.0013188854064184
 40
0.0013188854064184
 40
0.0013188854064184
 40
0.0013188854064184
 10
15.68
 20
-48.01901379935647
 30
0.0
 10
15.86418062995505
 20
-47.77904885862087
 30
0.0
 10
16.04753937863333
 20
-47.53885526362168
 30
0.0
 10
16.23001969424186
 20
-47.29842136528799
 30
0.0
  0
SPLINE
  5
26E
330
1F
100
AcDbEntity
  8
1
  6
Continuous
370
    25
100
AcDbSpline
210
0.0
220
0.0
230
1.0
 70
     8
 71
     3
 72
    10
 73
     6
 74
     0
 42
0.000000001
 43
0.00000001
 40
0.0
 40
0.0
 40
0.0
 40
0.0
 40
0.5
 40
0.5
 40
1.0
 40
1.0
 40
1.0
 40
1.0
 10
26.70500000000095
 20
41.20578418135116
 30
0.0
 10
26.70500000000062
 20
41.09726832240998
 30
0.0
 10
26.66092467021605
 20
40.99144228921199
 30
0.0
 10
26.52433049195496
 20
40.83520812885398
 30
0.0
 10
26.43081087715124
 20
40.78194095045744
 30
0.0
 10
26.33000000000002
 20
40.77024527765315
 30
0.0
  0
SPLINE
  5
26F
330
1F
100
AcDbEntity
  8
1
  6
Continuous
370
    25
100
AcDbSpline
210
0.0
220
0.0
230
1.0
 70
     8
 71
     3
 72
    10
 73
     6
 74
     0
 42
0.000000001
 43
0.00000001
 40
0.0
 40
0.0
 40
0.0
 40
0.0
 40
0.5
 40
0.5
 40
1.0
 40
1.0
 40
1.0
 40
1.0
 10
26.70500000000095
 20
-41.20578418135115
 30
0.0
 10
26.70500000000062
 20
-41.09726832240997
 30
0.0
 10
26.66092467021605
 20
-40.99144228921197
 30
0.0
 10
26.52433049195496
 20
-40.83520812885398
 30
0.0
 10
26.43081087715124
 20
-40.78194095045741
 30
0.0
 10
26.33000000000002
 20
-40.77024527765315
 30
0.0
  0
SPLINE
  5
270
330
1F
100
AcDbEntity
  8
1
  6
Continuous
370
    25
100
AcDbSpline
210
0.0
220
0.0
230
1.0
 70
     8
 71
     3
 72
    10
 73
     6
 74
     0
 42
0.000000001
 43
0.00000001
 40
0.0
 40
0.0
 40
0.0
 40
0.0
 40
0.5
 40
0.5
 40
1.0
 40
1.0
 40
1.0
 40
1.0
 10
20.08000000000002
 20
40.49493795525558
 30
0.0
 10
19.97988956666463
 20
40.49493795525558
 30
0.0
 10
19.87972107531741
 20
40.54029694773565
 30
0.0
 10
19.74317938603658
 20
40.68729003829234
 30
0.0
 10
19.70499999999997
 20
40.78825674301805
 30
0.0
 10
19.70499999999997
 20
40.8883311593907
 30
0.0
  0
SPLINE
  5
271
330
1F
100
AcDbEntity
  8
1
  6
Continuous
370
    25
100
AcDbSpline
210
0.0
220
0.0
230
1.0
 70
     8
 71
     3
 72
    10
 73
     6
 74
     0
 42
0.000000001
 43
0.00000001
 40
0.0
 40
0.0
 40
0.0
 40
0.0
 40
0.5
 40
0.5
 40
1.0
 40
1.0
 40
1.0
 40
1.0
 10
20.08000000000001
 20
-40.49493795525559
 30
0.0
 10
19.9799238327227
 20
-40.49493795525559
 30
0.0
 10
19.88062321655437
 20
-40.53943621280956
 30
0.0
 10
19.7426664704452
 20
-40.68773206614097
 30
0.0
 10
19.705
 20
-40.78818217895947
 30
0.0
 10
19.70499999999997
 20
-40.88833115939069
 30
0.0
  0
SPLINE
  5
272
330
1F
100
AcDbEntity
  8
1
  6
Continuous
370
    25
100
AcDbSpline
210
0.0
220
0.0
230
1.0
 70
     8
 71
     3
 72
    10
 73
     6
 74
     0
 42
0.000000001
 43
0.00000001
 40
0.0
 40
0.0
 40
0.0
 40
0.0
 40
0.5
 40
0.5
 40
1.0
 40
1.0
 40
1.0
 40
1.0
 10
26.33000000000002
 20
40.77024527765313
 30
0.0
 10
25.57238485928232
 20
40.68234981391016
 30
0.0
 10
24.79922683720337
 20
40.61349445459273
 30
0.0
 10
23.22275585238487
 20
40.51980029582822
 30
0.0
 10
22.41944729352555
 20
40.49493795525557
 30
0.0
 10
21.59999999999998
 20
40.49493795525557
 30
0.0
  0
SPLINE
  5
273
330
1F
100
AcDbEntity
  8
1
  6
Continuous
370
    25
100
AcDbSpline
210
0.0
220
0.0
230
1.0
 70
     8
 71
     3
 72
    10
 73
     6
 74
     0
 42
0.000000001
 43
0.00000001
 40
0.0
 40
0.0
 40
0.0
 40
0.0
 40
0.5
 40
0.5
 40
1.0
 40
1.0
 40
1.0
 40
1.0
 10
26.33000000000002
 20
-40.77024527765315
 30
0.0
 10
25.57238485928232
 20
-40.68234981391016
 30
0.0
 10
24.79922683720337
 20
-40.61349445459273
 30
0.0
 10
23.22275585238484
 20
-40.51980029582823
 30
0.0
 10
22.4194472935256
 20
-40.49493795525558
 30
0.0
 10
21.60000000000001
 20
-40.49493795525558
 30
0.0
  0
SPLINE
  5
274
330
1F
100
AcDbEntity
  8
1
  6
Continuous
370
    25
100
AcDbSpline
210
0.0
220
0.0
230
1.0
 70
     8
 71
     3
 72
    34
 73
    30
 74
     0
 42
0.000000001
 43
0.00000001
 40
0.5000000000000001
 40
0.5000000000000001
 40
0.5000000000000001
 40
0.5000000000000001
 40
0.5312499999999997
 40
0.5312499999999997
 40
0.5624999999999992
 40
0.5624999999999992
 40
0.6249999999999988
 40
0.6249999999999988
 40
0.6562499999999989
 40
0.6562499999999989
 40
0.687499999999999
 40
0.687499999999999
 40
0.7187499999999991
 40
0.7187499999999991
 40
0.7499999999999992
 40
0.7499999999999992
 40
0.7812499999999993
 40
0.7812499999999993
 40
0.8124999999999994
 40
0.8124999999999994
 40
0.8437499999999996
 40
0.8437499999999996
 40
0.8749999999999996
 40
0.8749999999999996
 40
0.9062499999999997
 40
0.9062499999999997
 40
0.9374999999999998
 40
0.9374999999999998
 40
1.0
 40
1.0
 40
1.0
 40
1.0
 10
23.20589587497798
 20
-29.72100113108846
 30
0.0
 10
23.04273018062972
 20
-29.72104299889365
 30
0.0
 10
22.88054309480278
 20
-29.70976258832756
 30
0.0
 10
22.55816751359421
 20
-29.66400263942705
 30
0.0
 10
22.40015203955667
 20
-29.62960507017489
 30
0.0
 10
21.94874116448112
 20
-29.49539605039491
 30
0.0
 10
21.66966170742895
 20
-29.36126507752362
 30
0.0
 10
21.32358800293055
 20
-29.11002820297055
 30
0.0
 10
21.21794598701593
 20
-29.0162783964689
 30
0.0
 10
21.03616251104512
 20
-28.81702037377709
 30
0.0
 10
20.95927468766118
 20
-28.7113719619332
 30
0.0
 10
20.83362013029083
 20
-28.4876770877812
 30
0.0
 10
20.7853120543762
 20
-28.36952537796819
 30
0.0
 10
20.72149416893582
 20
-28.13074916548125
 30
0.0
 10
20.70516599189301
 20
-28.00887763925387
 30
0.0
 10
20.7048365018333
 20
-27.75990853831905
 30
0.0
 10
20.72093301366798
 20
-27.63624311799482
 30
0.0
 10
20.78416175092918
 20
-27.39268024094758
 30
0.0
 10
20.83199834433969
 20
-27.27121867630221
 30
0.0
 10
20.95734166225313
 20
-27.03794085162357
 30
0.0
 10
21.03403833677833
 20
-26.92686858754378
 30
0.0
 10
21.21508970343008
 20
-26.71598981970993
 30
0.0
 10
21.32056531379101
 20
-26.61560625770776
 30
0.0
 10
21.55109188246723
 20
-26.43504771397118
 30
0.0
 10
21.67681132009755
 20
-26.35377547947818
 30
0.0
 10
21.94957816929436
 20
-26.20994393859726
 30
0.0
 10
22.09529754570039
 20
-26.14840115916884
 30
0.0
 10
22.54636665080845
 20
-26.00024644366685
 30
0.0
 10
22.87459941867223
 20
-25.94745334491396
 30
0.0
 10
23.205
 20
-25.94745334491395
 30
0.0
  0
SPLINE
  5
275
330
1F
100
AcDbEntity
  8
1
  6
Continuous
370
    25
100
AcDbSpline
210
0.0
220
0.0
230
1.0
 70
     8
 71
     3
 72
    38
 73
    34
 74
     0
 42
0.000000001
 43
0.00000001
 40
0.0
 40
0.0
 40
0.0
 40
0.0
 40
0.0312500000000003
 40
0.0312500000000003
 40
0.0625000000000006
 40
0.0625000000000006
 40
0.093750000000001
 40
0.093750000000001
 40
0.1250000000000013
 40
0.1250000000000013
 40
0.1562500000000016
 40
0.1562500000000016
 40
0.1875000000000019
 40
0.1875000000000019
 40
0.2187500000000022
 40
0.2187500000000022
 40
0.2500000000000026
 40
0.2500000000000026
 40
0.2812500000000029
 40
0.2812500000000029
 40
0.3125000000000032
 40
0.3125000000000032
 40
0.3437500000000027
 40
0.3437500000000027
 40
0.3750000000000022
 40
0.3750000000000022
 40
0.4062500000000017
 40
0.4062500000000017
 40
0.4375000000000011
 40
0.4375000000000011
 40
0.4687500000000006
 40
0.4687500000000006
 40
0.5000000000000001
 40
0.5000000000000001
 40
0.5000000000000001
 40
0.5000000000000001
 10
23.205
 20
-25.94745334491395
 30
0.0
 10
23.37020029066389
 20
-25.94745334491395
 30
0.0
 10
23.53263283196042
 20
-25.96032249420523
 30
0.0
 10
23.85219098755043
 20
-26.01067118597198
 30
0.0
 10
24.01097432552749
 20
-26.04876257573818
 30
0.0
 10
24.31371234200683
 20
-26.14795591398744
 30
0.0
 10
24.45729150714118
 20
-26.20856518088497
 30
0.0
 10
24.72902123700918
 20
-26.35131329173788
 30
0.0
 10
24.85764980054694
 20
-26.43418711150758
 30
0.0
 10
25.08821556221411
 20
-26.61452775553013
 30
0.0
 10
25.19168956346349
 20
-26.71262816111724
 30
0.0
 10
25.37445010138928
 20
-26.92472830033938
 30
0.0
 10
25.45209435761789
 20
-27.03719330704481
 30
0.0
 10
25.57678700830793
 20
-27.26866028096662
 30
0.0
 10
25.62479098888637
 20
-27.38936990747532
 30
0.0
 10
25.68902273120466
 20
-27.63536106518008
 30
0.0
 10
25.70491217524684
 20
-27.75841695185542
 30
0.0
 10
25.70508710560201
 20
-28.00457658049363
 30
0.0
 10
25.68885645426711
 20
-28.12895903350183
 30
0.0
 10
25.62507523155755
 20
-28.36854911342358
 30
0.0
 10
25.57788312016124
 20
-28.48440665574047
 30
0.0
 10
25.4527165025033
 20
-28.70840513446143
 30
0.0
 10
25.3744570151283
 20
-28.81617450583524
 30
0.0
 10
25.19353683177295
 20
-29.01481789865113
 30
0.0
 10
25.09025160284906
 20
-29.10698674379552
 30
0.0
 10
24.85699986080039
 20
-29.27682154714431
 30
0.0
 10
24.73058599253478
 20
-29.3518603759114
 30
0.0
 10
24.45991372184014
 20
-29.48272776477087
 30
0.0
 10
24.31383194967582
 20
-29.53911154354165
 30
0.0
 10
24.01094750420302
 20
-29.62939260036539
 30
0.0
 10
23.85511714456329
 20
-29.66332385808114
 30
0.0
 10
23.53477165529785
 20
-29.70921508861431
 30
0.0
 10
23.36906156932622
 20
-29.72095926328328
 30
0.0
 10
23.20589587497798
 20
-29.72100113108846
 30
0.0
  0
SPLINE
  5
276
330
1F
100
AcDbEntity
  8
1
  6
Continuous
370
    25
100
AcDbSpline
210
0.0
220
0.0
230
1.0
 70
     8
 71
     3
 72
     9
 73
     5
 74
     0
 42
0.000000001
 43
0.00000001
 40
0.0
 40
0.0
 40
0.0
 40
0.0
 40
0.5024637794302537
 40
1.0
 40
1.0
 40
1.0
 40
1.0
 10
30.72999999999998
 20
-48.90543756878764
 30
0.0
 10
30.64643752706098
 20
-48.78261069133791
 30
0.0
 10
30.48013206115508
 20
-48.53816147434359
 30
0.0
 10
30.31472978909544
 20
-48.29389428901948
 30
0.0
 10
30.23243616778129
 20
-48.17236251682409
 30
0.0
  0
SPLINE
  5
277
330
1F
100
AcDbEntity
  8
1
  6
Continuous
370
    25
100
AcDbSpline
210
0.0
220
0.0
230
1.0
 70
     8
 71
     3
 72
     9
 73
     5
 74
     0
 42
0.000000001
 43
0.00000001
 40
0.0
 40
0.0
 40
0.0
 40
0.0
 40
0.4975362207131324
 40
1.0
 40
1.0
 40
1.0
 40
1.0
 10
30.23243614862712
 20
48.17236247777635
 30
0.0
 10
30.31472977306316
 20
48.29389425805065
 30
0.0
 10
30.48013205134973
 20
48.53816145954229
 30
0.0
 10
30.64643752320987
 20
48.78261069259286
 30
0.0
 10
30.72999999911674
 20
48.90543757807521
 30
0.0
  0
SPLINE
  5
278
330
1F
100
AcDbEntity
  8
SK3
  6
HIDDEN
370
    18
100
AcDbSpline
210
0.0
220
0.0
230
1.0
 70
     8
 71
     3
 72
    30
 73
    26
 74
     0
 42
0.000000001
 43
0.00000001
 40
0.4999999999999982
 40
0.4999999999999982
 40
0.4999999999999982
 40
0.4999999999999982
 40
0.5624999999999979
 40
0.5624999999999979
 40
0.6249999999999977
 40
0.6249999999999977
 40
0.6874999999999973
 40
0.6874999999999973
 40
0.7499999999999971
 40
0.7499999999999971
 40
0.7812499999999974
 40
0.7812499999999974
 40
0.8124999999999978
 40
0.8124999999999978
 40
0.8437499999999982
 40
0.8437499999999982
 40
0.8749999999999986
 40
0.8749999999999986
 40
0.9062499999999989
 40
0.9062499999999989
 40
0.9374999999999992
 40
0.9374999999999992
 40
0.9687499999999997
 40
0.9687499999999997
 40
1.0
 40
1.0
 40
1.0
 40
1.0
 10
9.5778462795999
 20
-14.23238764721506
 30
0.0
 10
9.66145653869395
 20
-14.37449148753434
 30
0.0
 10
9.772407143447987
 20
-14.46455463884005
 30
0.0
 10
10.0151022360722
 20
-14.58566105042362
 30
0.0
 10
10.15071106347548
 20
-14.6175813015587
 30
0.0
 10
10.44343928875971
 20
-14.64108820780102
 30
0.0
 10
10.60055865364916
 20
-14.63326763721773
 30
0.0
 10
10.95645473780857
 20
-14.57760383536254
 30
0.0
 10
11.15657682258682
 20
-14.52955951954236
 30
0.0
 10
11.4830100282578
 20
-14.41184623552311
 30
0.0
 10
11.59373162334219
 20
-14.3656667477627
 30
0.0
 10
11.81720113938132
 20
-14.25386986331294
 30
0.0
 10
11.92912269444715
 20
-14.18813820274423
 30
0.0
 10
12.13607863552178
 20
-14.04071435148938
 30
0.0
 10
12.23401625186758
 20
-13.95690514918117
 30
0.0
 10
12.40552677631534
 20
-13.77573704535146
 30
0.0
 10
12.48093330594184
 20
-13.67674237041629
 30
0.0
 10
12.60500303324971
 20
-13.46691160194158
 30
0.0
 10
12.65341410243624
 20
-13.35722216972512
 30
0.0
 10
12.72289370637351
 20
-13.12683611928115
 30
0.0
 10
12.7431012463063
 20
-13.00791934047578
 30
0.0
 10
12.75391027826543
 20
-12.76968555540301
 30
0.0
 10
12.74440813581844
 20
-12.64773243024132
 30
0.0
 10
12.69629905847906
 20
-12.41140989749646
 30
0.0
 10
12.65801625646423
 20
-12.29628533426087
 30
0.0
 10
12.60540931107558
 20
-12.18557166505229
 30
0.0
  0
SPLINE
  5
279
330
1F
100
AcDbEntity
  8
SK3
  6
HIDDEN
370
    18
100
AcDbSpline
210
0.0
220
0.0
230
1.0
 70
     8
 71
     3
 72
    30
 73
    26
 74
     0
 42
0.000000001
 43
0.00000001
 40
0.0
 40
0.0
 40
0.0
 40
0.0
 40
0.0312499999999997
 40
0.0312499999999997
 40
0.0624999999999994
 40
0.0624999999999994
 40
0.0937499999999991
 40
0.0937499999999991
 40
0.1249999999999988
 40
0.1249999999999988
 40
0.1874999999999986
 40
0.1874999999999986
 40
0.2499999999999983
 40
0.2499999999999983
 40
0.3124999999999981
 40
0.3124999999999981
 40
0.3749999999999979
 40
0.3749999999999979
 40
0.4062499999999979
 40
0.4062499999999979
 40
0.4374999999999981
 40
0.4374999999999981
 40
0.4687499999999981
 40
0.4687499999999981
 40
0.4999999999999982
 40
0.4999999999999982
 40
0.4999999999999982
 40
0.4999999999999982
 10
12.60540931107558
 20
-12.18557166505229
 30
0.0
 10
12.55280236568691
 20
-12.07485799584371
 30
0.0
 10
12.48767206459291
 20
-11.97219939974269
 30
0.0
 10
12.33321503903328
 20
-11.78446947788794
 30
0.0
 10
12.24300655859499
 20
-11.69933495182435
 30
0.0
 10
12.04843499093604
 20
-11.55929524444872
 30
0.0
 10
11.94143370486042
 20
-11.502438519203
 30
0.0
 10
11.72073264298189
 20
-11.42305449509476
 30
0.0
 10
11.60906552497738
 20
-11.40072398398813
 30
0.0
 10
11.27451801742665
 20
-11.3809441667632
 30
0.0
 10
11.0669842806993
 20
-11.43130609789061
 30
0.0
 10
10.69717844091631
 20
-11.59559973924668
 30
0.0
 10
10.53344908096579
 20
-11.70819781209441
 30
0.0
 10
10.22824958882691
 20
-11.97752315604526
 30
0.0
 10
10.09076882260293
 20
-12.1311962336401
 30
0.0
 10
9.837525619365142
 20
-12.48311824891787
 30
0.0
 10
9.721260896401866
 20
-12.68242440309825
 30
0.0
 10
9.580692660850321
 20
-13.01969487010852
 30
0.0
 10
9.540421636405991
 20
-13.13643691703242
 30
0.0
 10
9.478286004234517
 20
-13.38260506227688
 30
0.0
 10
9.457363995141257
 20
-13.51075799945849
 30
0.0
 10
9.445908412243728
 20
-13.75870529834606
 30
0.0
 10
9.455664817462711
 20
-13.87407687729468
 30
0.0
 10
9.500951505689748
 20
-14.07563205189072
 30
0.0
 10
9.536041150052881
 20
-14.16133572705541
 30
0.0
 10
9.5778462795999
 20
-14.23238764721506
 30
0.0
  0
SPLINE
  5
27A
330
1F
100
AcDbEntity
  8
SK3
  6
HIDDEN
370
    18
100
AcDbSpline
210
0.0
220
0.0
230
1.0
 70
     8
 71
     3
 72
    26
 73
    22
 74
     0
 42
0.000000001
 43
0.00000001
 40
0.4999999999999876
 40
0.4999999999999876
 40
0.4999999999999876
 40
0.4999999999999876
 40
0.5624999999999881
 40
0.5624999999999881
 40
0.6249999999999887
 40
0.6249999999999887
 40
0.6562499999999896
 40
0.6562499999999896
 40
0.6874999999999903
 40
0.6874999999999903
 40
0.7187499999999911
 40
0.7187499999999911
 40
0.7499999999999919
 40
0.7499999999999919
 40
0.8124999999999939
 40
0.8124999999999939
 40
0.8749999999999959
 40
0.8749999999999959
 40
0.937499999999998
 40
0.937499999999998
 40
1.0
 40
1.0
 40
1.0
 40
1.0
 10
11.61369831779571
 20
-9.77262767249694
 30
0.0
 10
11.77817915771351
 20
-9.759831768139291
 30
0.0
 10
11.92581782962321
 20
-9.765669382612398
 30
0.0
 10
12.20116299685256
 20
-9.822076602756754
 30
0.0
 10
12.32736515469926
 20
-9.872190922035694
 30
0.0
 10
12.49374661426347
 20
-10.00161019176418
 30
0.0
 10
12.54551953396262
 20
-10.0543873045548
 30
0.0
 10
12.63570184098392
 20
-10.18395474142595
 30
0.0
 10
12.67501796005853
 20
-10.26245268576566
 30
0.0
 10
12.73124339139553
 20
-10.44816988181843
 30
0.0
 10
12.74823165300572
 20
-10.55811887110952
 30
0.0
 10
12.75149462889748
 20
-10.79434030169366
 30
0.0
 10
12.73778670669287
 20
-10.92300773139128
 30
0.0
 10
12.66016730486989
 20
-11.29970867706809
 30
0.0
 10
12.56496305158955
 20
-11.53412544539292
 30
0.0
 10
12.34815603453725
 20
-11.94271445514997
 30
0.0
 10
12.22247178673941
 20
-12.12456577079685
 30
0.0
 10
11.95176737519449
 20
-12.4430507915882
 30
0.0
 10
11.80602686354768
 20
-12.58151739400476
 30
0.0
 10
11.48008373269933
 20
-12.81600081695229
 30
0.0
 10
11.3024733945748
 20
-12.91072852732558
 30
0.0
 10
11.10000000000001
 20
-12.96483254089174
 30
0.0
  0
SPLINE
  5
27B
330
1F
100
AcDbEntity
  8
SK3
  6
HIDDEN
370
    18
100
AcDbSpline
210
0.0
220
0.0
230
1.0
 70
     8
 71
     3
 72
    34
 73
    30
 74
     0
 42
0.000000001
 43
0.00000001
 40
0.0
 40
0.0
 40
0.0
 40
0.0
 40
0.031249999999999
 40
0.031249999999999
 40
0.062499999999998
 40
0.062499999999998
 40
0.093749999999997
 40
0.093749999999997
 40
0.1249999999999961
 40
0.1249999999999961
 40
0.1562499999999951
 40
0.1562499999999951
 40
0.1874999999999941
 40
0.1874999999999941
 40
0.2187499999999931
 40
0.2187499999999931
 40
0.2499999999999921
 40
0.2499999999999921
 40
0.2812499999999911
 40
0.2812499999999911
 40
0.3124999999999901
 40
0.3124999999999901
 40
0.3749999999999888
 40
0.3749999999999888
 40
0.4062499999999885
 40
0.4062499999999885
 40
0.4374999999999882
 40
0.4374999999999882
 40
0.4999999999999876
 40
0.4999999999999876
 40
0.4999999999999876
 40
0.4999999999999876
 10
11.10000000000001
 20
-12.96483254089174
 30
0.0
 10
10.99876330271263
 20
-12.99188454767485
 30
0.0
 10
10.89375434041331
 20
-13.00765498701254
 30
0.0
 10
10.67482193729474
 20
-13.0097331717666
 30
0.0
 10
10.56065504429782
 20
-12.99527268555181
 30
0.0
 10
10.33933306908849
 20
-12.93282509643414
 30
0.0
 10
10.22886240054302
 20
-12.8839004880367
 30
0.0
 10
10.0249875386661
 20
-12.75659692400088
 30
0.0
 10
9.93088787302096
 20
-12.67838560692541
 30
0.0
 10
9.764076352163517
 20
-12.49898896718385
 30
0.0
 10
9.693022202672042
 20
-12.39998452320637
 30
0.0
 10
9.575536001433155
 20
-12.18574592066871
 30
0.0
 10
9.53015968390121
 20
-12.07174745482192
 30
0.0
 10
9.468538953914265
 20
-11.83909108430541
 30
0.0
 10
9.451799814585938
 20
-11.7177499621641
 30
0.0
 10
9.448480888754677
 20
-11.47856989357557
 30
0.0
 10
9.46135422537181
 20
-11.36028759492973
 30
0.0
 10
9.516906609790446
 20
-11.1260575416365
 30
0.0
 10
9.558939125903803
 20
-11.01349387847717
 30
0.0
 10
9.669361385739581
 20
-10.79949462062071
 30
0.0
 10
9.73904698691737
 20
-10.69649740772898
 30
0.0
 10
9.978991200491768
 20
-10.41480305529736
 30
0.0
 10
10.18777179464268
 20
-10.25650759469705
 30
0.0
 10
10.51946991129014
 20
-10.07542901804447
 30
0.0
 10
10.63425898590062
 20
-10.02336297375403
 30
0.0
 10
10.85434718809659
 20
-9.937303976383573
 30
0.0
 10
10.96264418607856
 20
-9.901964126305854
 30
0.0
 10
11.26710738731386
 20
-9.817002664640368
 30
0.0
 10
11.44921747787793
 20
-9.78542357685458
 30
0.0
 10
11.61369831779571
 20
-9.77262767249694
 30
0.0
  0
SPLINE
  5
27C
330
1F
100
AcDbEntity
  8
SK3
  6
HIDDEN
370
    18
100
AcDbSpline
210
0.0
220
0.0
230
1.0
 70
    24
 71
     2
 72
     6
 73
     3
 74
     0
 42
0.000000001
 43
0.00000001
 40
0.0
 40
0.0
 40
0.0
 40
0.2499999999999999
 40
0.2499999999999999
 40
0.2499999999999999
 10
2.999999999999989
 20
35.3
 30
0.0
 10
2.991678313258056
 20
35.3
 30
0.0
 10
2.984869467224371
 20
35.3
 30
0.0
  0
SPLINE
  5
27D
330
1F
100
AcDbEntity
  8
SK3
  6
HIDDEN
370
    18
100
AcDbSpline
210
0.0
220
0.0
230
1.0
 70
    24
 71
     2
 72
     6
 73
     3
 74
     0
 42
0.000000001
 43
0.00000001
 40
0.7499999999999999
 40
0.7499999999999999
 40
0.7499999999999999
 40
1.0
 40
1.0
 40
1.0
 10
2.984869467224371
 20
35.3
 30
0.0
 10
2.991678729951347
 20
35.3
 30
0.0
 10
2.999999999999989
 20
35.3
 30
0.0
  0
SPLINE
  5
27E
330
1F
100
AcDbEntity
  8
SK3
  6
HIDDEN
370
    18
100
AcDbSpline
210
0.0
220
0.0
230
1.0
 70
    24
 71
     2
 72
     6
 73
     3
 74
     0
 42
0.000000001
 43
0.00000001
 40
0.0
 40
0.0
 40
0.0
 40
0.2499999999999999
 40
0.2499999999999999
 40
0.2499999999999999
 10
2.999999999999989
 20
-35.30000000000001
 30
0.0
 10
2.991678313258056
 20
-35.3
 30
0.0
 10
2.984869467224371
 20
-35.3
 30
0.0
  0
SPLINE
  5
27F
330
1F
100
AcDbEntity
  8
SK3
  6
HIDDEN
370
    18
100
AcDbSpline
210
0.0
220
0.0
230
1.0
 70
    24
 71
     2
 72
     6
 73
     3
 74
     0
 42
0.000000001
 43
0.00000001
 40
0.7499999999999999
 40
0.7499999999999999
 40
0.7499999999999999
 40
1.0
 40
1.0
 40
1.0
 10
2.984869467224371
 20
-35.3
 30
0.0
 10
2.991678729951347
 20
-35.30000000000001
 30
0.0
 10
2.999999999999989
 20
-35.30000000000001
 30
0.0
  0
SPLINE
  5
280
330
1F
100
AcDbEntity
  8
SK3
  6
HIDDEN
370
    18
100
AcDbSpline
210
0.0
220
0.0
230
1.0
 70
     8
 71
     3
 72
    28
 73
    24
 74
     0
 42
0.000000001
 43
0.00000001
 40
0.4999999999999977
 40
0.4999999999999977
 40
0.4999999999999977
 40
0.4999999999999977
 40
0.5624999999999982
 40
0.5624999999999982
 40
0.6249999999999988
 40
0.6249999999999988
 40
0.6562499999999989
 40
0.6562499999999989
 40
0.687499999999999
 40
0.687499999999999
 40
0.7499999999999992
 40
0.7499999999999992
 40
0.7812499999999994
 40
0.7812499999999994
 40
0.8124999999999996
 40
0.8124999999999996
 40
0.8437499999999997
 40
0.8437499999999997
 40
0.8749999999999998
 40
0.8749999999999998
 40
0.9374999999999999
 40
0.9374999999999999
 40
1.0
 40
1.0
 40
1.0
 40
1.0
 10
11.09934118482106
 20
-1.475515908447703
 30
0.0
 10
11.31493653088478
 20
-1.475429525768728
 30
0.0
 10
11.53250216015396
 20
-1.519004743549317
 30
0.0
 10
11.92982502482343
 20
-1.68325009434326
 30
0.0
 10
12.11341663166336
 20
-1.805193044697118
 30
0.0
 10
12.34177192890709
 20
-2.029584598375579
 30
0.0
 10
12.41139918218467
 20
-2.112617724522578
 30
0.0
 10
12.53101174222197
 20
-2.286815036473551
 30
0.0
 10
12.58181712082904
 20
-2.378582287380311
 30
0.0
 10
12.7066598936004
 20
-2.667824929259224
 30
0.0
 10
12.74983518900154
 20
-2.872169419430602
 30
0.0
 10
12.75008170207703
 20
-3.179433718834827
 30
0.0
 10
12.739469570858
 20
-3.279599493202966
 30
0.0
 10
12.69758129053189
 20
-3.475650128009017
 30
0.0
 10
12.66574916667056
 20
-3.572524566077276
 30
0.0
 10
12.58313957801692
 20
-3.755172867287451
 30
0.0
 10
12.53254476471624
 20
-3.84136142351231
 30
0.0
 10
12.41274856214788
 20
-4.003842825792033
 30
0.0
 10
12.34340435381388
 20
-4.079842320749746
 30
0.0
 10
12.11594029726663
 20
-4.283724383499645
 30
0.0
 10
11.93230638744333
 20
-4.392538372266524
 30
0.0
 10
11.53548903848974
 20
-4.538002436647953
 30
0.0
 10
11.31850979732155
 20
-4.576501425057312
 30
0.0
 10
11.09999999999999
 20
-4.576501425057312
 30
0.0
  0
SPLINE
  5
281
330
1F
100
AcDbEntity
  8
SK3
  6
HIDDEN
370
    18
100
AcDbSpline
210
0.0
220
0.0
230
1.0
 70
     8
 71
     3
 72
    32
 73
    28
 74
     0
 42
0.000000001
 43
0.00000001
 40
0.0
 40
0.0
 40
0.0
 40
0.0
 40
0.0312499999999998
 40
0.0312499999999998
 40
0.0624999999999996
 40
0.0624999999999996
 40
0.0937499999999994
 40
0.0937499999999994
 40
0.1249999999999991
 40
0.1249999999999991
 40
0.1874999999999987
 40
0.1874999999999987
 40
0.2499999999999983
 40
0.2499999999999983
 40
0.2812499999999981
 40
0.2812499999999981
 40
0.3124999999999979
 40
0.3124999999999979
 40
0.3749999999999976
 40
0.3749999999999976
 40
0.4062499999999976
 40
0.4062499999999976
 40
0.4374999999999976
 40
0.4374999999999976
 40
0.4687499999999976
 40
0.4687499999999976
 40
0.4999999999999977
 40
0.4999999999999977
 40
0.4999999999999977
 40
0.4999999999999977
 10
11.09999999999999
 20
-4.576501425057312
 30
0.0
 10
10.99074510133923
 20
-4.576501425057312
 30
0.0
 10
10.8833631720756
 20
-4.567097252304405
 30
0.0
 10
10.67217723897194
 20
-4.530209863692527
 30
0.0
 10
10.56726237509108
 20
-4.502263063240183
 30
0.0
 10
10.36756554357927
 20
-4.429238224552469
 30
0.0
 10
10.27288858306306
 20
-4.384484003303345
 30
0.0
 10
10.09370920244819
 20
-4.278294412207575
 30
0.0
 10
10.00905577508505
 20
-4.216409660852044
 30
0.0
 10
9.781304530104936
 20
-4.012529095471846
 30
0.0
 10
9.65844171414379
 20
-3.846677595546452
 30
0.0
 10
9.493701837587547
 20
-3.483299533043716
 30
0.0
 10
9.450125983391677
 20
-3.281789018213001
 30
0.0
 10
9.449937428498604
 20
-2.977732631142413
 30
0.0
 10
9.460704026991188
 20
-2.874070344738855
 30
0.0
 10
9.502898240916227
 20
-2.672454695286403
 30
0.0
 10
9.534114695240639
 20
-2.573795581718525
 30
0.0
 10
9.658378024878761
 20
-2.284593202854949
 30
0.0
 10
9.779527915115604
 20
-2.107262239407944
 30
0.0
 10
10.00972577272327
 20
-1.880547050199202
 30
0.0
 10
10.09278569134826
 20
-1.813169210297137
 30
0.0
 10
10.27123032616475
 20
-1.694598002599156
 30
0.0
 10
10.36779917293751
 20
-1.6429929832577
 30
0.0
 10
10.5672867989902
 20
-1.560332476533408
 30
0.0
 10
10.67012719891497
 20
-1.528973478695607
 30
0.0
 10
10.88204494140153
 20
-1.486452921297281
 30
0.0
 10
10.99154351178919
 20
-1.475559099787201
 30
0.0
 10
11.09934118482106
 20
-1.475515908447703
 30
0.0
  0
SPLINE
  5
282
330
1F
100
AcDbEntity
  8
SK3
  6
HIDDEN
370
    18
100
AcDbSpline
210
0.0
220
0.0
230
1.0
 70
    24
 71
     3
 72
     8
 73
     4
 74
     0
 42
0.000000001
 43
0.00000001
 40
0.0
 40
0.0
 40
0.0
 40
0.0
 40
0.4999999999999984
 40
0.4999999999999984
 40
0.4999999999999984
 40
0.4999999999999984
 10
2.999999999999989
 20
35.3
 30
0.0
 10
3.151041253001863
 20
35.3
 30
0.0
 10
3.301228701601433
 20
35.3
 30
0.0
 10
3.442409358508536
 20
35.3
 30
0.0
  0
SPLINE
  5
283
330
1F
100
AcDbEntity
  8
SK3
  6
HIDDEN
370
    18
100
AcDbSpline
210
0.0
220
0.0
230
1.0
 70
    24
 71
     3
 72
     8
 73
     4
 74
     0
 42
0.000000001
 43
0.00000001
 40
0.4999999999999984
 40
0.4999999999999984
 40
0.4999999999999984
 40
0.4999999999999984
 40
0.7499999999999992
 40
0.7499999999999992
 40
0.7499999999999992
 40
0.7499999999999992
 10
3.442409358508536
 20
35.3
 30
0.0
 10
3.512999686962073
 20
35.3
 30
0.0
 10
3.581751481358197
 20
35.3
 30
0.0
 10
3.640649966598575
 20
35.3
 30
0.0
  0
SPLINE
  5
284
330
1F
100
AcDbEntity
  8
SK3
  6
HIDDEN
370
    18
100
AcDbSpline
210
0.0
220
0.0
230
1.0
 70
    24
 71
     2
 72
     6
 73
     3
 74
     0
 42
0.000000001
 43
0.00000001
 40
0.7499999999999992
 40
0.7499999999999992
 40
0.7499999999999992
 40
1.0
 40
1.0
 40
1.0
 10
3.640649966598575
 20
35.3
 30
0.0
 10
3.69954845183891
 20
35.3
 30
0.0
 10
3.750000000000087
 20
35.3
 30
0.0
  0
SPLINE
  5
285
330
1F
100
AcDbEntity
  8
SK3
  6
HIDDEN
370
    18
100
AcDbSpline
210
0.0
220
0.0
230
1.0
 70
    24
 71
     2
 72
     6
 73
     3
 74
     0
 42
0.000000001
 43
0.00000001
 40
0.0
 40
0.0
 40
0.0
 40
0.1249999999999998
 40
0.1249999999999998
 40
0.1249999999999998
 10
3.750000000000017
 20
-35.3
 30
0.0
 10
3.736967821211398
 20
-35.29999999999998
 30
0.0
 10
3.716604969327047
 20
-35.3
 30
0.0
  0
SPLINE
  5
286
330
1F
100
AcDbEntity
  8
SK3
  6
HIDDEN
370
    18
100
AcDbSpline
210
0.0
220
0.0
230
1.0
 70
    24
 71
     3
 72
     8
 73
     4
 74
     0
 42
0.000000001
 43
0.00000001
 40
0.1249999999999998
 40
0.1249999999999998
 40
0.1249999999999998
 40
0.1249999999999998
 40
0.2499999999999997
 40
0.2499999999999997
 40
0.2499999999999997
 40
0.2499999999999997
 10
3.716604969327047
 20
-35.3
 30
0.0
 10
3.696242117442655
 20
-35.29999999999998
 30
0.0
 10
3.669519274943231
 20
-35.3
 30
0.0
 10
3.64013767643416
 20
-35.3
 30
0.0
  0
SPLINE
  5
287
330
1F
100
AcDbEntity
  8
SK3
  6
HIDDEN
370
    18
100
AcDbSpline
210
0.0
220
0.0
230
1.0
 70
    24
 71
     3
 72
     8
 73
     4
 74
     0
 42
0.000000001
 43
0.00000001
 40
0.2499999999999997
 40
0.2499999999999997
 40
0.2499999999999997
 40
0.2499999999999997
 40
0.4999999999999998
 40
0.4999999999999998
 40
0.4999999999999998
 40
0.4999999999999998
 10
3.64013767643416
 20
-35.3
 30
0.0
 10
3.58137447941595
 20
-35.30000000000001
 30
0.0
 10
3.512332936533733
 20
-35.3
 30
0.0
 10
3.44183425491501
 20
-35.30000000000001
 30
0.0
  0
SPLINE
  5
288
330
1F
100
AcDbEntity
  8
SK3
  6
HIDDEN
370
    18
100
AcDbSpline
210
0.0
220
0.0
230
1.0
 70
    24
 71
     3
 72
     8
 73
     4
 74
     0
 42
0.000000001
 43
0.00000001
 40
0.4999999999999998
 40
0.4999999999999998
 40
0.4999999999999998
 40
0.4999999999999998
 40
1.0
 40
1.0
 40
1.0
 40
1.0
 10
3.44183425491501
 20
-35.30000000000001
 30
0.0
 10
3.300836891677525
 20
-35.3
 30
0.0
 10
3.150896944932577
 20
-35.3
 30
0.0
 10
2.999999999999989
 20
-35.30000000000001
 30
0.0
  0
SPLINE
  5
289
330
1F
100
AcDbEntity
  8
1
  6
HIDDEN
370
    18
100
AcDbSpline
210
0.0
220
0.0
230
1.0
 70
     8
 71
     3
 72
    10
 73
     6
 74
     0
 42
0.000000001
 43
0.00000001
 40
0.0
 40
0.0
 40
0.0
 40
0.0
 40
0.5
 40
0.5
 40
1.0
 40
1.0
 40
1.0
 40
1.0
 10
26.33000000000015
 20
-40.7702452776533
 30
0.0
 10
26.43105474608836
 20
-40.78196924315174
 30
0.0
 10
26.5242386172294
 20
-40.83494772625581
 30
0.0
 10
26.66160793191032
 20
-40.99237978017049
 30
0.0
 10
26.70499999999998
 20
-41.09766982332258
 30
0.0
 10
26.70500000000001
 20
-41.20578418135005
 30
0.0
  0
SPLINE
  5
28A
330
1F
100
AcDbEntity
  8
1
  6
HIDDEN
370
    18
100
AcDbSpline
210
0.0
220
0.0
230
1.0
 70
     8
 71
     3
 72
    10
 73
     6
 74
     0
 42
0.000000001
 43
0.00000001
 40
0.0
 40
0.0
 40
0.0
 40
0.0
 40
0.5
 40
0.5
 40
1.0
 40
1.0
 40
1.0
 40
1.0
 10
21.60000000000001
 20
-40.49493795525558
 30
0.0
 10
22.4194472935256
 20
-40.49493795525558
 30
0.0
 10
23.22275585238487
 20
-40.51980029582823
 30
0.0
 10
24.79922683720337
 20
-40.61349445459271
 30
0.0
 10
25.57238485928232
 20
-40.68234981391015
 30
0.0
 10
26.33000000000002
 20
-40.77024527765315
 30
0.0
  0
SPLINE
  5
28B
330
1F
100
AcDbEntity
  8
SK3
  6
HIDDEN
370
    18
100
AcDbSpline
210
0.0
220
0.0
230
1.0
 70
     8
 71
     3
 72
    18
 73
    14
 74
     0
 42
0.000000001
 43
0.00000001
 40
0.0
 40
0.0
 40
0.0
 40
0.0
 40
0.011459833482917
 40
0.0315065486484936
 40
0.0628754310597579
 40
0.0940858011315212
 40
0.1252215301895056
 40
0.1875783571330939
 40
0.2504222706963383
 40
0.312715928693048
 40
0.3748072341449707
 40
0.4374196159193013
 40
0.5000153146503379
 40
0.5000153146503379
 40
0.5000153146503379
 40
0.5000153146503379
 10
30.23243616778126
 20
-48.17236251682409
 30
0.0
 10
30.29312799370965
 20
-48.18462192095821
 30
0.0
 10
30.45998818142778
 20
-48.21832673118335
 30
0.0
 10
30.78335248089817
 20
-48.28573389264893
 30
0.0
 10
31.19111131914837
 20
-48.37421355750149
 30
0.0
 10
31.62742916388067
 20
-48.47327655680181
 30
0.0
 10
32.17224977947539
 20
-48.60202096014777
 30
0.0
 10
32.78555530164009
 20
-48.75518697911332
 30
0.0
 10
33.40020640421942
 20
-48.91770880352129
 30
0.0
 10
33.8860950721871
 20
-49.05192616256863
 30
0.0
 10
34.23813463178041
 20
-49.15230025030349
 30
0.0
 10
34.45211254762167
 20
-49.21459626298425
 30
0.0
 10
34.50001136227734
 20
-49.2286856585476
 30
0.0
 10
34.49999999580392
 20
-49.2286824052244
 30
0.0
  0
SPLINE
  5
28C
330
1F
100
AcDbEntity
  8
1
  6
HIDDEN
370
    18
100
AcDbSpline
210
0.0
220
0.0
230
1.0
 70
     8
 71
     3
 72
    10
 73
     6
 74
     0
 42
0.000000001
 43
0.00000001
 40
0.0
 40
0.0
 40
0.0
 40
0.0
 40
0.5
 40
0.5
 40
1.0
 40
1.0
 40
1.0
 40
1.0
 10
26.705
 20
-41.34329896850783
 30
0.0
 10
27.31223561630299
 20
-42.51237097810908
 30
0.0
 10
27.91047593411371
 20
-43.66801755962675
 30
0.0
 10
29.0873008966969
 20
-45.94697723660804
 30
0.0
 10
29.66595733378852
 20
-47.07044221835017
 30
0.0
 10
30.23243616778129
 20
-48.17236251682409
 30
0.0
  0
SPLINE
  5
28D
330
1F
100
AcDbEntity
  8
1
  6
HIDDEN
370
    18
100
AcDbSpline
210
0.0
220
0.0
230
1.0
 70
     8
 71
     3
 72
    10
 73
     6
 74
     0
 42
0.000000001
 43
0.00000001
 40
0.0
 40
0.0
 40
0.0
 40
0.0
 40
0.5
 40
0.5
 40
1.0
 40
1.0
 40
1.0
 40
1.0
 10
21.59999999999998
 20
40.49493795525558
 30
0.0
 10
22.41944729352555
 20
40.49493795525558
 30
0.0
 10
23.22275585238484
 20
40.51980029582823
 30
0.0
 10
24.79922683720337
 20
40.61349445459271
 30
0.0
 10
25.57238485928232
 20
40.68234981391016
 30
0.0
 10
26.33000000000002
 20
40.77024527765315
 30
0.0
  0
SPLINE
  5
28E
330
1F
100
AcDbEntity
  8
1
  6
HIDDEN
370
    18
100
AcDbSpline
210
0.0
220
0.0
230
1.0
 70
     8
 71
     3
 72
    10
 73
     6
 74
     0
 42
0.000000001
 43
0.00000001
 40
0.0
 40
0.0
 40
0.0
 40
0.0
 40
0.5
 40
0.5
 40
1.0
 40
1.0
 40
1.0
 40
1.0
 10
26.33000000000015
 20
40.7702452776533
 30
0.0
 10
26.43105474608839
 20
40.78196924315175
 30
0.0
 10
26.52423861722941
 20
40.83494772625581
 30
0.0
 10
26.66160793191035
 20
40.99237978017051
 30
0.0
 10
26.705
 20
41.0976698233226
 30
0.0
 10
26.70500000000001
 20
41.20578418135007
 30
0.0
  0
SPLINE
  5
28F
330
1F
100
AcDbEntity
  8
1
  6
HIDDEN
370
    18
100
AcDbSpline
210
0.0
220
0.0
230
1.0
 70
     8
 71
     3
 72
    10
 73
     6
 74
     0
 42
0.000000001
 43
0.00000001
 40
0.0
 40
0.0
 40
0.0
 40
0.0
 40
0.5
 40
0.5
 40
1.0
 40
1.0
 40
1.0
 40
1.0
 10
26.70500000000001
 20
41.34329896850786
 30
0.0
 10
27.31223561287699
 20
42.5123709712087
 30
0.0
 10
27.91047592736368
 20
43.66801754598124
 30
0.0
 10
29.08730088353837
 20
45.94697720988965
 30
0.0
 10
29.66595731754279
 20
47.07044218529852
 30
0.0
 10
30.23243614862711
 20
48.17236247777635
 30
0.0
  0
SPLINE
  5
290
330
1F
100
AcDbEntity
  8
SK3
  6
HIDDEN
370
    18
100
AcDbSpline
210
0.0
220
0.0
230
1.0
 70
     8
 71
     3
 72
     8
 73
     4
 74
     0
 42
0.000000001
 43
0.00000001
 40
0.0
 40
0.0
 40
0.0
 40
0.0
 40
0.0114576233757514
 40
0.0114576233757514
 40
0.0114576233757514
 40
0.0114576233757514
 10
30.23243614862711
 20
48.17236247777635
 30
0.0
 10
30.29311654579597
 20
48.18461930715284
 30
0.0
 10
30.35379694296478
 20
48.19687613652935
 30
0.0
 10
30.41383878837103
 20
48.20914268938341
 30
0.0
  0
SPLINE
  5
291
330
1F
100
AcDbEntity
  8
SK3
  6
HIDDEN
370
    18
100
AcDbSpline
210
0.0
220
0.0
230
1.0
 70
     8
 71
     3
 72
     8
 73
     4
 74
     0
 42
0.000000001
 43
0.00000001
 40
0.0114576233757514
 40
0.0114576233757514
 40
0.0114576233757514
 40
0.0114576233757514
 40
0.0313181038197606
 40
0.0313181038197606
 40
0.0313181038197606
 40
0.0313181038197606
 10
30.41383878837103
 20
48.20914268938341
 30
0.0
 10
30.51791446422503
 20
48.23040535661238
 30
0.0
 10
30.62007153087415
 20
48.25169723925446
 30
0.0
 10
30.72063407518272
 20
48.27298000909872
 30
0.0
  0
SPLINE
  5
292
330
1F
100
AcDbEntity
  8
SK3
  6
HIDDEN
370
    18
100
AcDbSpline
210
0.0
220
0.0
230
1.0
 70
     8
 71
     3
 72
     8
 73
     4
 74
     0
 42
0.000000001
 43
0.00000001
 40
0.0313181038197606
 40
0.0313181038197606
 40
0.0313181038197606
 40
0.0313181038197606
 40
0.0625127256568183
 40
0.0625127256568183
 40
0.0625127256568183
 40
0.0625127256568183
 10
30.72063407518272
 20
48.27298000909872
 30
0.0
 10
30.87858647464878
 20
48.30640860408202
 30
0.0
 10
31.03260508967437
 20
48.33981471723399
 30
0.0
 10
31.18228441472779
 20
48.37300875694993
 30
0.0
  0
SPLINE
  5
293
330
1F
100
AcDbEntity
  8
SK3
  6
HIDDEN
370
    18
100
AcDbSpline
210
0.0
220
0.0
230
1.0
 70
     8
 71
     3
 72
     8
 73
     4
 74
     0
 42
0.000000001
 43
0.00000001
 40
0.0625127256568183
 40
0.0625127256568183
 40
0.0625127256568183
 40
0.0625127256568183
 40
0.0936688899328413
 40
0.0936688899328413
 40
0.0936688899328413
 40
0.0936688899328413
 10
31.18228441472779
 20
48.37300875694993
 30
0.0
 10
31.33177921112082
 20
48.4061618741692
 30
0.0
 10
31.47694541013119
 20
48.43910344052966
 30
0.0
 10
31.61764785752469
 20
48.47166323547346
 30
0.0
  0
SPLINE
  5
294
330
1F
100
AcDbEntity
  8
SK3
  6
HIDDEN
370
    18
100
AcDbSpline
210
0.0
220
0.0
230
1.0
 70
     8
 71
     3
 72
     8
 73
     4
 74
     0
 42
0.000000001
 43
0.00000001
 40
0.0936688899328413
 40
0.0936688899328413
 40
0.0936688899328413
 40
0.0936688899328413
 40
0.1248686720374489
 40
0.1248686720374489
 40
0.1248686720374489
 40
0.1248686720374489
 10
31.61764785752469
 20
48.47166323547346
 30
0.0
 10
31.75854728472538
 20
48.50426861329267
 30
0.0
 10
31.89497045328568
 20
48.53649115000662
 30
0.0
 10
32.02675276504225
 20
48.5681671420093
 30
0.0
  0
SPLINE
  5
295
330
1F
100
AcDbEntity
  8
SK3
  6
HIDDEN
370
    18
100
AcDbSpline
210
0.0
220
0.0
230
1.0
 70
     8
 71
     3
 72
     8
 73
     4
 74
     0
 42
0.000000001
 43
0.00000001
 40
0.1248686720374489
 40
0.1248686720374489
 40
0.1248686720374489
 40
0.1248686720374489
 40
0.1876770117080417
 40
0.1876770117080417
 40
0.1876770117080417
 40
0.1876770117080417
 10
32.02675276504225
 20
48.5681671420093
 30
0.0
 10
32.29204398315494
 20
48.6319341407158
 30
0.0
 10
32.53852776181449
 20
48.69348622372879
 30
0.0
 10
32.7646915743568
 20
48.75147779844491
 30
0.0
  0
SPLINE
  5
296
330
1F
100
AcDbEntity
  8
SK3
  6
HIDDEN
370
    18
100
AcDbSpline
210
0.0
220
0.0
230
1.0
 70
     8
 71
     3
 72
     8
 73
     4
 74
     0
 42
0.000000001
 43
0.00000001
 40
0.1876770117080417
 40
0.1876770117080417
 40
0.1876770117080417
 40
0.1876770117080417
 40
0.2502254852174406
 40
0.2502254852174406
 40
0.2502254852174406
 40
0.2502254852174406
 10
32.7646915743568
 20
48.75147779844491
 30
0.0
 10
32.98991964616671
 20
48.80922943610837
 30
0.0
 10
33.19499554956856
 20
48.86344996735149
 30
0.0
 10
33.37872065019029
 20
48.91298649031012
 30
0.0
  0
SPLINE
  5
297
330
1F
100
AcDbEntity
  8
SK3
  6
HIDDEN
370
    18
100
AcDbSpline
210
0.0
220
0.0
230
1.0
 70
     8
 71
     3
 72
     8
 73
     4
 74
     0
 42
0.000000001
 43
0.00000001
 40
0.2502254852174406
 40
0.2502254852174406
 40
0.2502254852174406
 40
0.2502254852174406
 40
0.3125016583140416
 40
0.3125016583140416
 40
0.3125016583140416
 40
0.3125016583140416
 10
33.37872065019029
 20
48.91298649031012
 30
0.0
 10
33.56164591641267
 20
48.96230735947428
 30
0.0
 10
33.72340587366568
 20
49.00698491458708
 30
0.0
 10
33.86295163632505
 20
49.04604996813715
 30
0.0
  0
SPLINE
  5
298
330
1F
100
AcDbEntity
  8
SK3
  6
HIDDEN
370
    18
100
AcDbSpline
210
0.0
220
0.0
230
1.0
 70
     8
 71
     3
 72
     8
 73
     4
 74
     0
 42
0.000000001
 43
0.00000001
 40
0.3125016583140416
 40
0.3125016583140416
 40
0.3125016583140416
 40
0.3125016583140416
 40
0.3752092577078838
 40
0.3752092577078838
 40
0.3752092577078838
 40
0.3752092577078838
 10
33.86295163632505
 20
49.04604996813715
 30
0.0
 10
34.00346412042357
 20
49.08538564993181
 30
0.0
 10
34.12145356037305
 20
49.11903079813764
 30
0.0
 10
34.21609796971025
 20
49.14623346137662
 30
0.0
  0
SPLINE
  5
299
330
1F
100
AcDbEntity
  8
SK3
  6
HIDDEN
370
    18
100
AcDbSpline
210
0.0
220
0.0
230
1.0
 70
     8
 71
     3
 72
     8
 73
     4
 74
     0
 42
0.000000001
 43
0.00000001
 40
0.3752092577078838
 40
0.3752092577078838
 40
0.3752092577078838
 40
0.3752092577078838
 40
0.4377772188894205
 40
0.4377772188894205
 40
0.4377772188894205
 40
0.4377772188894205
 10
34.21609796971025
 20
49.14623346137662
 30
0.0
 10
34.31053162347314
 20
49.1733755493217
 30
0.0
 10
34.38172410098345
 20
49.19410381279571
 30
0.0
 10
34.42915671356999
 20
49.20794979216245
 30
0.0
  0
SPLINE
  5
29A
330
1F
100
AcDbEntity
  8
SK3
  6
HIDDEN
370
    18
100
AcDbSpline
210
0.0
220
0.0
230
1.0
 70
     8
 71
     3
 72
     8
 73
     4
 74
     0
 42
0.000000001
 43
0.00000001
 40
0.4377772188894205
 40
0.4377772188894205
 40
0.4377772188894205
 40
0.4377772188894205
 40
0.4999846765355368
 40
0.4999846765355368
 40
0.4999846765355368
 40
0.4999846765355368
 10
34.42915671356999
 20
49.20794979216245
 30
0.0
 10
34.47631602934126
 20
49.2217159938855
 30
0.0
 10
34.49998849016986
 20
49.22867899159121
 30
0.0
 10
34.49999999580677
 20
49.22868236559322
 30
0.0
  0
SPLINE
  5
29B
330
1F
100
AcDbEntity
  8
SK3
  6
HIDDEN
370
    18
100
AcDbSpline
210
0.0
220
0.0
230
1.0
 70
     8
 71
     3
 72
     8
 73
     4
 74
     0
 42
0.000000001
 43
0.00000001
 40
0.562593852032415
 40
0.562593852032415
 40
0.562593852032415
 40
0.562593852032415
 40
0.625204160364444
 40
0.625204160364444
 40
0.625204160364444
 40
0.625204160364444
 10
34.42830854679072
 20
49.2077022001874
 30
0.0
 10
34.38056134587298
 20
49.19376529586042
 30
0.0
 10
34.30902363917687
 20
49.17293839920547
 30
0.0
 10
34.21421937232316
 20
49.14569365252027
 30
0.0
  0
SPLINE
  5
29C
330
1F
100
AcDbEntity
  8
SK3
  6
HIDDEN
370
    18
100
AcDbSpline
210
0.0
220
0.0
230
1.0
 70
     8
 71
     3
 72
     8
 73
     4
 74
     0
 42
0.000000001
 43
0.00000001
 40
0.625204160364444
 40
0.625204160364444
 40
0.625204160364444
 40
0.625204160364444
 40
0.6872935440918243
 40
0.6872935440918243
 40
0.6872935440918243
 40
0.6872935440918243
 10
34.21421937232316
 20
49.14569365252027
 30
0.0
 10
34.12020388732576
 20
49.11867558510359
 30
0.0
 10
34.00330739220547
 20
49.0853460178126
 30
0.0
 10
33.86432627590744
 20
49.04643485916493
 30
0.0
  0
SPLINE
  5
29D
330
1F
100
AcDbEntity
  8
SK3
  6
HIDDEN
370
    18
100
AcDbSpline
210
0.0
220
0.0
230
1.0
 70
     8
 71
     3
 72
     8
 73
     4
 74
     0
 42
0.000000001
 43
0.00000001
 40
0.6872935440918243
 40
0.6872935440918243
 40
0.6872935440918243
 40
0.6872935440918243
 40
0.7495853764250555
 40
0.7495853764250555
 40
0.7495853764250555
 40
0.7495853764250555
 10
33.86432627590744
 20
49.04643485916493
 30
0.0
 10
33.72489199786824
 20
49.00739682681765
 30
0.0
 10
33.56322884565444
 20
48.96274074510634
 30
0.0
 10
33.38038490342552
 20
48.91343524597007
 30
0.0
  0
SPLINE
  5
29E
330
1F
100
AcDbEntity
  8
SK3
  6
HIDDEN
370
    18
100
AcDbSpline
210
0.0
220
0.0
230
1.0
 70
     8
 71
     3
 72
     8
 73
     4
 74
     0
 42
0.000000001
 43
0.00000001
 40
0.7495853764250555
 40
0.7495853764250555
 40
0.7495853764250555
 40
0.7495853764250555
 40
0.8124273759709008
 40
0.8124273759709008
 40
0.8124273759709008
 40
0.8124273759709008
 10
33.38038490342552
 20
48.91343524597007
 30
0.0
 10
33.19592606662255
 20
48.86369427611461
 30
0.0
 10
32.98991064619419
 20
48.80922139798474
 30
0.0
 10
32.76355855168126
 20
48.75118715319224
 30
0.0
  0
SPLINE
  5
29F
330
1F
100
AcDbEntity
  8
SK3
  6
HIDDEN
370
    18
100
AcDbSpline
210
0.0
220
0.0
230
1.0
 70
     8
 71
     3
 72
     8
 73
     4
 74
     0
 42
0.000000001
 43
0.00000001
 40
0.8124273759709008
 40
0.8124273759709008
 40
0.8124273759709008
 40
0.8124273759709008
 40
0.8747822710143797
 40
0.8747822710143797
 40
0.8747822710143797
 40
0.8747822710143797
 10
32.76355855168126
 20
48.75118715319224
 30
0.0
 10
32.53896097047399
 20
48.69360274675835
 30
0.0
 10
32.29434076289775
 20
48.63251196982595
 30
0.0
 10
32.03117406650954
 20
48.56923008402848
 30
0.0
  0
SPLINE
  5
2A0
330
1F
100
AcDbEntity
  8
SK3
  6
HIDDEN
370
    18
100
AcDbSpline
210
0.0
220
0.0
230
1.0
 70
     8
 71
     3
 72
     8
 73
     4
 74
     0
 42
0.000000001
 43
0.00000001
 40
0.8747822710143797
 40
0.8747822710143797
 40
0.8747822710143797
 40
0.8747822710143797
 40
0.9059170529113197
 40
0.9059170529113197
 40
0.9059170529113197
 40
0.9059170529113197
 10
32.03117406650954
 20
48.56923008402848
 30
0.0
 10
31.89977078712189
 20
48.53763244103741
 30
0.0
 10
31.76374356707123
 20
48.50548851904544
 30
0.0
 10
31.62325637044053
 20
48.47296122366372
 30
0.0
  0
SPLINE
  5
2A1
330
1F
100
AcDbEntity
  8
SK3
  6
HIDDEN
370
    18
100
AcDbSpline
210
0.0
220
0.0
230
1.0
 70
     8
 71
     3
 72
     8
 73
     4
 74
     0
 42
0.000000001
 43
0.00000001
 40
0.9059170529113197
 40
0.9059170529113197
 40
0.9059170529113197
 40
0.9059170529113197
 40
0.9371264788216617
 40
0.9371264788216617
 40
0.9371264788216617
 40
0.9371264788216617
 10
31.62325637044053
 20
48.47296122366372
 30
0.0
 10
31.48243236309367
 20
48.44035594579026
 30
0.0
 10
31.3371269684101
 20
48.40736545408814
 30
0.0
 10
31.18747591690824
 20
48.3741605065629
 30
0.0
  0
SPLINE
  5
2A2
330
1F
100
AcDbEntity
  8
SK3
  6
HIDDEN
370
    18
100
AcDbSpline
210
0.0
220
0.0
230
1.0
 70
     8
 71
     3
 72
     8
 73
     4
 74
     0
 42
0.000000001
 43
0.00000001
 40
0.9371264788216617
 40
0.9371264788216617
 40
0.9371264788216617
 40
0.9371264788216617
 40
0.9684944127010916
 40
0.9684944127010916
 40
0.9684944127010916
 40
0.9684944127010916
 10
31.18747591690824
 20
48.3741605065629
 30
0.0
 10
31.0370648102771
 20
48.34078691611514
 30
0.0
 10
30.88226379286107
 20
48.30719668593481
 30
0.0
 10
30.72348340635189
 20
48.27358294907933
 30
0.0
  0
SPLINE
  5
2A3
330
1F
100
AcDbEntity
  8
SK3
  6
HIDDEN
370
    18
100
AcDbSpline
210
0.0
220
0.0
230
1.0
 70
     8
 71
     3
 72
     8
 73
     4
 74
     0
 42
0.000000001
 43
0.00000001
 40
0.9684944127010916
 40
0.9684944127010916
 40
0.9684944127010916
 40
0.9684944127010916
 40
0.9885412945355618
 40
0.9885412945355618
 40
0.9885412945355618
 40
0.9885412945355618
 10
30.72348340635189
 20
48.27358294907933
 30
0.0
 10
30.62200870743751
 20
48.2521008006743
 30
0.0
 10
30.51890869909069
 20
48.23060905134509
 30
0.0
 10
30.41385571467292
 20
48.20914667395367
 30
0.0
  0
SPLINE
  5
2A4
330
1F
100
AcDbEntity
  8
SK3
  6
HIDDEN
370
    18
100
AcDbSpline
210
0.0
220
0.0
230
1.0
 70
     8
 71
     3
 72
    34
 73
    30
 74
     0
 42
0.000000001
 43
0.00000001
 40
0.4999999999999859
 40
0.4999999999999859
 40
0.4999999999999859
 40
0.4999999999999859
 40
0.5624999999999898
 40
0.5624999999999898
 40
0.5937499999999917
 40
0.5937499999999917
 40
0.6249999999999936
 40
0.6249999999999936
 40
0.6562499999999956
 40
0.6562499999999956
 40
0.6874999999999974
 40
0.6874999999999974
 40
0.7187499999999993
 40
0.7187499999999993
 40
0.7500000000000012
 40
0.7500000000000012
 40
0.7812500000000032
 40
0.7812500000000032
 40
0.8125000000000051
 40
0.8125000000000051
 40
0.8750000000000066
 40
0.8750000000000066
 40
0.9062500000000049
 40
0.9062500000000049
 40
0.9375000000000032
 40
0.9375000000000032
 40
0.9687500000000017
 40
0.9687500000000017
 40
1.0
 40
1.0
 40
1.0
 40
1.0
 10
146.9991345275213
 20
3.329203099770695
 30
0.0
 10
147.2610182767344
 20
3.329099074421318
 30
0.0
 10
147.5254653432242
 20
3.37797971764503
 30
0.0
 10
147.8870399737665
 20
3.513094242592794
 30
0.0
 10
148.0040809038093
 20
3.569122353209823
 30
0.0
 10
148.2206760528529
 20
3.696677629019124
 30
0.0
 10
148.3209421026648
 20
3.768218807124336
 30
0.0
 10
148.5055830894048
 20
3.925519605859531
 30
0.0
 10
148.5893293739413
 20
4.011087768493661
 30
0.0
 10
148.7338254092576
 20
4.18816305113226
 30
0.0
 10
148.7955976276346
 20
4.280488449992403
 30
0.0
 10
148.8971561812234
 20
4.472037114235494
 30
0.0
 10
148.9352301674472
 20
4.568069407592954
 30
0.0
 10
148.986638021382
 20
4.759477591762068
 30
0.0
 10
148.999953596858
 20
4.856006483958689
 30
0.0
 10
149.0000461567507
 20
5.042495646318549
 30
0.0
 10
148.9871791124957
 20
5.13200334540171
 30
0.0
 10
148.9359544900248
 20
5.303924965664584
 30
0.0
 10
148.8970867055956
 20
5.386550786582886
 30
0.0
 10
148.7468832248544
 20
5.614070872942606
 30
0.0
 10
148.598134822724
 20
5.744357153438775
 30
0.0
 10
148.3231442594311
 20
5.898840720532067
 30
0.0
 10
148.2213196869398
 20
5.944506418981185
 30
0.0
 10
148.004184722778
 20
6.022187042458299
 30
0.0
 10
147.8896960428862
 20
6.054141542097407
 30
0.0
 10
147.6487160286948
 20
6.105726475334791
 30
0.0
 10
147.5210676412933
 20
6.125361489238403
 30
0.0
 10
147.2636561857236
 20
6.151149472743478
 30
0.0
 10
147.1328777365954
 20
6.157630052625616
 30
0.0
 10
147.0000000000001
 20
6.15763005262561
 30
0.0
  0
SPLINE
  5
2A5
330
1F
100
AcDbEntity
  8
SK3
  6
HIDDEN
370
    18
100
AcDbSpline
210
0.0
220
0.0
230
1.0
 70
     8
 71
     3
 72
    34
 73
    30
 74
     0
 42
0.000000001
 43
0.00000001
 40
0.0
 40
0.0
 40
0.0
 40
0.0
 40
0.0312500000000008
 40
0.0312500000000008
 40
0.0625000000000016
 40
0.0625000000000016
 40
0.0937500000000024
 40
0.0937500000000024
 40
0.1250000000000032
 40
0.1250000000000032
 40
0.1875000000000002
 40
0.1875000000000002
 40
0.2187499999999988
 40
0.2187499999999988
 40
0.2499999999999972
 40
0.2499999999999972
 40
0.2812499999999957
 40
0.2812499999999957
 40
0.3124999999999942
 40
0.3124999999999942
 40
0.3749999999999913
 40
0.3749999999999913
 40
0.40624999999999
 40
0.40624999999999
 40
0.4374999999999886
 40
0.4374999999999886
 40
0.4687499999999872
 40
0.4687499999999872
 40
0.4999999999999859
 40
0.4999999999999859
 40
0.4999999999999859
 40
0.4999999999999859
 10
147.0000000000001
 20
6.15763005262561
 30
0.0
 10
146.8671222634046
 20
6.15763005262561
 30
0.0
 10
146.7366116415205
 20
6.15115166326953
 30
0.0
 10
146.4800832297054
 20
6.125501290774666
 30
0.0
 10
146.3527026880779
 20
6.10598834237884
 30
0.0
 10
146.1108767343412
 20
6.054305637367994
 30
0.0
 10
145.9962924101725
 20
6.022323249742431
 30
0.0
 10
145.779435350068
 20
5.944810828413083
 30
0.0
 10
145.677340193983
 20
5.899076102204089
 30
0.0
 10
145.4022266933183
 20
5.744633525847018
 30
0.0
 10
145.2534390853687
 20
5.614282512318547
 30
0.0
 10
145.1034243736886
 20
5.387462302979832
 30
0.0
 10
145.0646238673979
 20
5.305427360451059
 30
0.0
 10
145.0129573264111
 20
5.13289393012148
 30
0.0
 10
145.000084927999
 20
5.043425864012831
 30
0.0
 10
144.9999159016529
 20
4.85789060951336
 30
0.0
 10
145.0130709639586
 20
4.760944742260111
 30
0.0
 10
145.0644269090556
 20
4.568967312132494
 30
0.0
 10
145.1024173024187
 20
4.47308276267247
 30
0.0
 10
145.2537905845789
 20
4.186860710587367
 30
0.0
 10
145.4011342451586
 20
4.005148675128307
 30
0.0
 10
145.678365976063
 20
3.768729293038849
 30
0.0
 10
145.7785793681398
 20
3.697196159829122
 30
0.0
 10
145.994608092802
 20
3.56981513544613
 30
0.0
 10
146.1116957195395
 20
3.51365061205048
 30
0.0
 10
146.3527657579536
 20
3.423399713119432
 30
0.0
 10
146.4774531575119
 20
3.388657567272732
 30
0.0
 10
146.7354415142958
 20
3.341360701155343
 30
0.0
 10
146.8681926529148
 20
3.32925511244539
 30
0.0
 10
146.9991345275213
 20
3.329203099770695
 30
0.0
  0
SPLINE
  5
2A6
330
1F
100
AcDbEntity
  8
SK3
  6
HIDDEN
370
    18
100
AcDbSpline
210
0.0
220
0.0
230
1.0
 70
     8
 71
     3
 72
    34
 73
    30
 74
     0
 42
0.000000001
 43
0.00000001
 40
0.4999999999999866
 40
0.4999999999999866
 40
0.4999999999999866
 40
0.4999999999999866
 40
0.5624999999999905
 40
0.5624999999999905
 40
0.5937499999999925
 40
0.5937499999999925
 40
0.6249999999999943
 40
0.6249999999999943
 40
0.6562499999999962
 40
0.6562499999999962
 40
0.6874999999999981
 40
0.6874999999999981
 40
0.7187500000000001
 40
0.7187500000000001
 40
0.750000000000002
 40
0.750000000000002
 40
0.7812500000000039
 40
0.7812500000000039
 40
0.8125000000000058
 40
0.8125000000000058
 40
0.875000000000007
 40
0.875000000000007
 40
0.9062500000000052
 40
0.9062500000000052
 40
0.9375000000000034
 40
0.9375000000000034
 40
0.9687500000000018
 40
0.9687500000000018
 40
1.0
 40
1.0
 40
1.0
 40
1.0
 10
147.0008654724787
 20
-3.329203099770833
 30
0.0
 10
146.7389817232657
 20
-3.329099074421464
 30
0.0
 10
146.4745346567759
 20
-3.377979717645162
 30
0.0
 10
146.1129600262336
 20
-3.513094242592926
 30
0.0
 10
145.9959190961907
 20
-3.569122353209949
 30
0.0
 10
145.7793239471471
 20
-3.696677629019249
 30
0.0
 10
145.6790578973352
 20
-3.768218807124468
 30
0.0
 10
145.4944169105953
 20
-3.925519605859663
 30
0.0
 10
145.4106706260588
 20
-4.011087768493779
 30
0.0
 10
145.2661745907425
 20
-4.188163051132392
 30
0.0
 10
145.2044023723654
 20
-4.280488449992529
 30
0.0
 10
145.1028438187768
 20
-4.472037114235605
 30
0.0
 10
145.0647698325529
 20
-4.568069407593072
 30
0.0
 10
145.0133619786181
 20
-4.759477591762158
 30
0.0
 10
145.0000464031421
 20
-4.856006483958793
 30
0.0
 10
144.9999538432494
 20
-5.042495646318638
 30
0.0
 10
145.0128208875044
 20
-5.132003345401793
 30
0.0
 10
145.0640455099753
 20
-5.303924965664689
 30
0.0
 10
145.1029132944044
 20
-5.386550786582969
 30
0.0
 10
145.2531167751455
 20
-5.614070872942689
 30
0.0
 10
145.4018651772759
 20
-5.74435715343885
 30
0.0
 10
145.6768557405689
 20
-5.89884072053215
 30
0.0
 10
145.7786803130602
 20
-5.944506418981262
 30
0.0
 10
145.9958152772219
 20
-6.022187042458368
 30
0.0
 10
146.1103039571138
 20
-6.054141542097484
 30
0.0
 10
146.3512839713053
 20
-6.10572647533486
 30
0.0
 10
146.4789323587067
 20
-6.125361489238486
 30
0.0
 10
146.7363438142764
 20
-6.151149472743541
 30
0.0
 10
146.8671222634047
 20
-6.157630052625672
 30
0.0
 10
147.0000000000001
 20
-6.157630052625672
 30
0.0
  0
SPLINE
  5
2A7
330
1F
100
AcDbEntity
  8
SK3
  6
HIDDEN
370
    18
100
AcDbSpline
210
0.0
220
0.0
230
1.0
 70
     8
 71
     3
 72
    34
 73
    30
 74
     0
 42
0.000000001
 43
0.00000001
 40
0.0
 40
0.0
 40
0.0
 40
0.0
 40
0.0312500000000008
 40
0.0312500000000008
 40
0.0625000000000016
 40
0.0625000000000016
 40
0.0937500000000024
 40
0.0937500000000024
 40
0.1250000000000032
 40
0.1250000000000032
 40
0.1875000000000002
 40
0.1875000000000002
 40
0.2187499999999988
 40
0.2187499999999988
 40
0.2499999999999974
 40
0.2499999999999974
 40
0.281249999999996
 40
0.281249999999996
 40
0.3124999999999947
 40
0.3124999999999947
 40
0.3749999999999921
 40
0.3749999999999921
 40
0.4062499999999907
 40
0.4062499999999907
 40
0.4374999999999893
 40
0.4374999999999893
 40
0.468749999999988
 40
0.468749999999988
 40
0.4999999999999866
 40
0.4999999999999866
 40
0.4999999999999866
 40
0.4999999999999866
 10
147.0000000000001
 20
-6.157630052625672
 30
0.0
 10
147.1328777365954
 20
-6.157630052625672
 30
0.0
 10
147.2633883584795
 20
-6.1511516632696
 30
0.0
 10
147.5199167702947
 20
-6.12550129077475
 30
0.0
 10
147.6472973119221
 20
-6.105988342378903
 30
0.0
 10
147.8891232656588
 20
-6.054305637368071
 30
0.0
 10
148.0037075898277
 20
-6.022323249742493
 30
0.0
 10
148.220564649932
 20
-5.944810828413166
 30
0.0
 10
148.322659806017
 20
-5.899076102204158
 30
0.0
 10
148.5977733066817
 20
-5.744633525847122
 30
0.0
 10
148.7465609146313
 20
-5.614282512318623
 30
0.0
 10
148.8965756263114
 20
-5.387462302979908
 30
0.0
 10
148.9353761326021
 20
-5.305427360451157
 30
0.0
 10
148.9870426735889
 20
-5.132893930121583
 30
0.0
 10
148.999915072001
 20
-5.043425864012928
 30
0.0
 10
149.000084098347
 20
-4.857890609513471
 30
0.0
 10
148.9869290360415
 20
-4.760944742260236
 30
0.0
 10
148.9355730909446
 20
-4.568967312132612
 30
0.0
 10
148.8975826975813
 20
-4.473082762672588
 30
0.0
 10
148.7462094154211
 20
-4.186860710587492
 30
0.0
 10
148.5988657548412
 20
-4.005148675128425
 30
0.0
 10
148.3216340239371
 20
-3.768729293038987
 30
0.0
 10
148.2214206318602
 20
-3.697196159829247
 30
0.0
 10
148.005391907198
 20
-3.569815135446276
 30
0.0
 10
147.8883042804606
 20
-3.513650612050612
 30
0.0
 10
147.6472342420465
 20
-3.423399713119564
 30
0.0
 10
147.5225468424881
 20
-3.388657567272871
 30
0.0
 10
147.2645584857042
 20
-3.341360701155462
 30
0.0
 10
147.1318073470852
 20
-3.329255112445521
 30
0.0
 10
147.0008654724787
 20
-3.329203099770833
 30
0.0
  0
SPLINE
  5
2A8
330
1F
100
AcDbEntity
  8
SK3
  6
HIDDEN
370
    18
100
AcDbSpline
210
0.0
220
0.0
230
1.0
 70
     8
 71
     3
 72
    28
 73
    24
 74
     0
 42
0.000000001
 43
0.00000001
 40
0.5000000000000028
 40
0.5000000000000028
 40
0.5000000000000028
 40
0.5000000000000028
 40
0.5625000000000023
 40
0.5625000000000023
 40
0.6250000000000019
 40
0.6250000000000019
 40
0.6562500000000017
 40
0.6562500000000017
 40
0.6875000000000013
 40
0.6875000000000013
 40
0.7500000000000012
 40
0.7500000000000012
 40
0.7812500000000011
 40
0.7812500000000011
 40
0.8125000000000009
 40
0.8125000000000009
 40
0.8437500000000008
 40
0.8437500000000008
 40
0.8750000000000007
 40
0.8750000000000007
 40
0.9375000000000003
 40
0.9375000000000003
 40
1.0
 40
1.0
 40
1.0
 40
1.0
 10
11.10065881517897
 20
4.576501309852245
 30
0.0
 10
10.88506346911523
 20
4.57657671091699
 30
0.0
 10
10.66749783984604
 20
4.53872300982465
 30
0.0
 10
10.27017497517659
 20
4.393817210953984
 30
0.0
 10
10.08658336833665
 20
4.285521512567669
 30
0.0
 10
9.85822807109292
 20
4.081533561018633
 30
0.0
 10
9.788600817815366
 20
4.005386551211347
 30
0.0
 10
9.668988257778038
 20
3.843720315286486
 30
0.0
 10
9.618182879170961
 20
3.757667057991513
 30
0.0
 10
9.493340106399614
 20
3.482915635306047
 30
0.0
 10
9.450164810998473
 20
3.284172491920603
 30
0.0
 10
9.449918297922967
 20
2.976939107068269
 30
0.0
 10
9.460530429142008
 20
2.875430432756724
 30
0.0
 10
9.50241870946808
 20
2.674223628320697
 30
0.0
 10
9.534250833329413
 20
2.573470389076481
 30
0.0
 10
9.616860421983093
 20
2.381226925102377
 30
0.0
 10
9.667455235283755
 20
2.289341051658435
 30
0.0
 10
9.787251437852113
 20
2.114296453166749
 30
0.0
 10
9.856595646186115
 20
2.031432858743729
 30
0.0
 10
10.08405970273338
 20
1.807193759595982
 30
0.0
 10
10.26769361255668
 20
1.684691621020931
 30
0.0
 10
10.6645109615103
 20
1.519829367022246
 30
0.0
 10
10.88149020267849
 20
1.475515776463869
 30
0.0
 10
11.09999999999999
 20
1.475515776463869
 30
0.0
  0
SPLINE
  5
2A9
330
1F
100
AcDbEntity
  8
SK3
  6
HIDDEN
370
    18
100
AcDbSpline
210
0.0
220
0.0
230
1.0
 70
     8
 71
     3
 72
    32
 73
    28
 74
     0
 42
0.000000001
 43
0.00000001
 40
0.0
 40
0.0
 40
0.0
 40
0.0
 40
0.0312500000000003
 40
0.0312500000000003
 40
0.0625000000000006
 40
0.0625000000000006
 40
0.0937500000000009
 40
0.0937500000000009
 40
0.1250000000000012
 40
0.1250000000000012
 40
0.1875000000000017
 40
0.1875000000000017
 40
0.2500000000000023
 40
0.2500000000000023
 40
0.2812500000000024
 40
0.2812500000000024
 40
0.3125000000000026
 40
0.3125000000000026
 40
0.3750000000000027
 40
0.3750000000000027
 40
0.4062500000000027
 40
0.4062500000000027
 40
0.4375000000000028
 40
0.4375000000000028
 40
0.4687500000000028
 40
0.4687500000000028
 40
0.5000000000000028
 40
0.5000000000000028
 40
0.5000000000000028
 40
0.5000000000000028
 10
11.09999999999999
 20
1.475515776463869
 30
0.0
 10
11.20925489866076
 20
1.475515776463869
 30
0.0
 10
11.31663682792437
 20
1.486303589041317
 30
0.0
 10
11.52782276102803
 20
1.528448801618523
 30
0.0
 10
11.63273762490891
 20
1.560332796569613
 30
0.0
 10
11.83243445642071
 20
1.643099603894457
 30
0.0
 10
11.92711141693692
 20
1.693616087234493
 30
0.0
 10
12.10629079755182
 20
1.812437333275005
 30
0.0
 10
12.19094422491497
 20
1.881225152521045
 30
0.0
 10
12.41869546989505
 20
2.105476073088294
 30
0.0
 10
12.54155828585621
 20
2.284895655862977
 30
0.0
 10
12.70629816241248
 20
2.66740208083676
 30
0.0
 10
12.74987401660831
 20
2.874557762403786
 30
0.0
 10
12.75006257150138
 20
3.178637795646741
 30
0.0
 10
12.7392959730088
 20
3.280937709391758
 30
0.0
 10
12.69710175908377
 20
3.477360544833476
 30
0.0
 10
12.66588530475937
 20
3.57221524674152
 30
0.0
 10
12.54162197512124
 20
3.846984168789168
 30
0.0
 10
12.42047208488441
 20
4.010903515360847
 30
0.0
 10
12.19027422727677
 20
4.217026997172059
 30
0.0
 10
12.10721430865175
 20
4.277636466682631
 30
0.0
 10
11.92876967383526
 20
4.383610290792081
 30
0.0
 10
11.83220082706253
 20
4.429332461069412
 30
0.0
 10
11.63271320100984
 20
4.502263179857156
 30
0.0
 10
11.52987280108504
 20
4.529750104411902
 30
0.0
 10
11.31795505859846
 20
4.566967079788709
 30
0.0
 10
11.20845648821082
 20
4.576463609319875
 30
0.0
 10
11.10065881517897
 20
4.576501309852245
 30
0.0
  0
SPLINE
  5
2AA
330
1F
100
AcDbEntity
  8
SK3
  6
HIDDEN
370
    18
100
AcDbSpline
210
0.0
220
0.0
230
1.0
 70
     8
 71
     3
 72
    34
 73
    30
 74
     0
 42
0.000000001
 43
0.00000001
 40
0.4999999999999862
 40
0.4999999999999862
 40
0.4999999999999862
 40
0.4999999999999862
 40
0.5624999999999899
 40
0.5624999999999899
 40
0.5937499999999917
 40
0.5937499999999917
 40
0.6249999999999936
 40
0.6249999999999936
 40
0.6562499999999954
 40
0.6562499999999954
 40
0.6874999999999974
 40
0.6874999999999974
 40
0.7187499999999993
 40
0.7187499999999993
 40
0.7500000000000013
 40
0.7500000000000013
 40
0.7812500000000032
 40
0.7812500000000032
 40
0.8125000000000052
 40
0.8125000000000052
 40
0.8750000000000066
 40
0.8750000000000066
 40
0.9062500000000049
 40
0.9062500000000049
 40
0.9375000000000033
 40
0.9375000000000033
 40
0.9687500000000017
 40
0.9687500000000017
 40
1.0
 40
1.0
 40
1.0
 40
1.0
 10
147.0008654724787
 20
-6.157629959690339
 30
0.0
 10
146.7389817232657
 20
-6.157686202354781
 30
0.0
 10
146.4745346567758
 20
-6.131884394623991
 30
0.0
 10
146.1129600262336
 20
-6.054820983573676
 30
0.0
 10
145.9959190961907
 20
-6.022203307658
 30
0.0
 10
145.7793239471471
 20
-5.944757485218243
 30
0.0
 10
145.6790578973353
 20
-5.899948256202332
 30
0.0
 10
145.4944169105953
 20
-5.796478088308715
 30
0.0
 10
145.4106706260588
 20
-5.737866002512234
 30
0.0
 10
145.2661745907425
 20
-5.609921711260839
 30
0.0
 10
145.2044023723655
 20
-5.54007913983788
 30
0.0
 10
145.1028438187768
 20
-5.386644808699145
 30
0.0
 10
145.0647698325529
 20
-5.305583120322837
 30
0.0
 10
145.013361978618
 20
-5.134573342815939
 30
0.0
 10
145.0000464031421
 20
-5.0434697029531
 30
0.0
 10
144.9999538432494
 20
-4.857017940435596
 30
0.0
 10
145.0128208875045
 20
-4.762265349870544
 30
0.0
 10
145.0640455099752
 20
-4.57001198667923
 30
0.0
 10
145.1029132944044
 20
-4.472111174404263
 30
0.0
 10
145.2531167751457
 20
-4.188202378616987
 30
0.0
 10
145.4018651772761
 20
-4.004679457425733
 30
0.0
 10
145.6768557405689
 20
-3.769940625466074
 30
0.0
 10
145.7786803130602
 20
-3.697085827320048
 30
0.0
 10
145.995815277222
 20
-3.56915443845271
 30
0.0
 10
146.1103039571138
 20
-3.514267898975417
 30
0.0
 10
146.3512839713053
 20
-3.423859355451753
 30
0.0
 10
146.4789323587067
 20
-3.388313174077451
 30
0.0
 10
146.7363438142764
 20
-3.341269175543844
 30
0.0
 10
146.8671222634046
 20
-3.329202927879408
 30
0.0
 10
147.0000000000001
 20
-3.329202927879408
 30
0.0
  0
SPLINE
  5
2AB
330
1F
100
AcDbEntity
  8
SK3
  6
HIDDEN
370
    18
100
AcDbSpline
210
0.0
220
0.0
230
1.0
 70
     8
 71
     3
 72
    34
 73
    30
 74
     0
 42
0.000000001
 43
0.00000001
 40
0.0
 40
0.0
 40
0.0
 40
0.0
 40
0.0312500000000009
 40
0.0312500000000009
 40
0.0625000000000019
 40
0.0625000000000019
 40
0.0937500000000028
 40
0.0937500000000028
 40
0.1250000000000038
 40
0.1250000000000038
 40
0.1875000000000008
 40
0.1875000000000008
 40
0.2187499999999994
 40
0.2187499999999994
 40
0.249999999999998
 40
0.249999999999998
 40
0.2812499999999966
 40
0.2812499999999966
 40
0.3124999999999952
 40
0.3124999999999952
 40
0.3749999999999922
 40
0.3749999999999922
 40
0.4062499999999907
 40
0.4062499999999907
 40
0.4374999999999892
 40
0.4374999999999892
 40
0.4687499999999877
 40
0.4687499999999877
 40
0.4999999999999862
 40
0.4999999999999862
 40
0.4999999999999862
 40
0.4999999999999862
 10
147.0000000000001
 20
-3.329202927879408
 30
0.0
 10
147.1328777365954
 20
-3.329202927879408
 30
0.0
 10
147.2633883584795
 20
-3.341264004975669
 30
0.0
 10
147.5199167702945
 20
-3.388059307657912
 30
0.0
 10
147.6472973119221
 20
-3.423393915846514
 30
0.0
 10
147.8891232656588
 20
-3.51398673726231
 30
0.0
 10
148.0037075898276
 20
-3.568921369755937
 30
0.0
 10
148.220564649932
 20
-3.696593199456956
 30
0.0
 10
148.3226598060169
 20
-3.769571908801991
 30
0.0
 10
148.5977733066817
 20
-4.004281532886435
 30
0.0
 10
148.7465609146314
 20
-4.187878226115458
 30
0.0
 10
148.8965756263115
 20
-4.471003575842326
 30
0.0
 10
148.9353761326021
 20
-4.568281767026415
 30
0.0
 10
148.9870426735889
 20
-4.761318901532515
 30
0.0
 10
148.999915072001
 20
-4.856034756511543
 30
0.0
 10
149.000084098347
 20
-5.041638307955405
 30
0.0
 10
148.9869290360415
 20
-5.133223192269762
 30
0.0
 10
148.9355730909444
 20
-5.304819778387864
 30
0.0
 10
148.8975826975813
 20
-5.385766413493073
 30
0.0
 10
148.7462094154211
 20
-5.615157561445073
 30
0.0
 10
148.5988657548412
 20
-5.744073455790241
 30
0.0
 10
148.3216340239371
 20
-5.899625281290239
 30
0.0
 10
148.2214206318602
 20
-5.944433790487418
 30
0.0
 10
148.005391907198
 20
-6.021791463716071
 30
0.0
 10
147.8883042804605
 20
-6.054499016702068
 30
0.0
 10
147.6472342420465
 20
-6.105983407365484
 30
0.0
 10
147.5225468424881
 20
-6.12517160703082
 30
0.0
 10
147.2645584857042
 20
-6.151100388433445
 30
0.0
 10
147.1318073470852
 20
-6.157601838358118
 30
0.0
 10
147.0008654724787
 20
-6.157629959690339
 30
0.0
  0
SPLINE
  5
2AC
330
1F
100
AcDbEntity
  8
SK3
  6
HIDDEN
370
    18
100
AcDbSpline
210
0.0
220
0.0
230
1.0
 70
     8
 71
     3
 72
    34
 73
    30
 74
     0
 42
0.000000001
 43
0.00000001
 40
0.4999999999999864
 40
0.4999999999999864
 40
0.4999999999999864
 40
0.4999999999999864
 40
0.5624999999999902
 40
0.5624999999999902
 40
0.5937499999999921
 40
0.5937499999999921
 40
0.624999999999994
 40
0.624999999999994
 40
0.6562499999999959
 40
0.6562499999999959
 40
0.6874999999999978
 40
0.6874999999999978
 40
0.7187499999999997
 40
0.7187499999999997
 40
0.7500000000000014
 40
0.7500000000000014
 40
0.7812500000000033
 40
0.7812500000000033
 40
0.8125000000000052
 40
0.8125000000000052
 40
0.8750000000000067
 40
0.8750000000000067
 40
0.906250000000005
 40
0.906250000000005
 40
0.9375000000000033
 40
0.9375000000000033
 40
0.9687500000000017
 40
0.9687500000000017
 40
1.0
 40
1.0
 40
1.0
 40
1.0
 10
146.9991345275214
 20
6.157629959690415
 30
0.0
 10
147.2610182767343
 20
6.157686202354864
 30
0.0
 10
147.5254653432242
 20
6.131884394624053
 30
0.0
 10
147.8870399737665
 20
6.05482098357376
 30
0.0
 10
148.0040809038094
 20
6.022203307658076
 30
0.0
 10
148.2206760528529
 20
5.944757485218332
 30
0.0
 10
148.3209421026648
 20
5.899948256202416
 30
0.0
 10
148.5055830894047
 20
5.796478088308799
 30
0.0
 10
148.5893293739412
 20
5.737866002512325
 30
0.0
 10
148.7338254092576
 20
5.609921711260936
 30
0.0
 10
148.7955976276347
 20
5.540079139837971
 30
0.0
 10
148.8971561812233
 20
5.386644808699242
 30
0.0
 10
148.9352301674471
 20
5.305583120322941
 30
0.0
 10
148.986638021382
 20
5.13457334281605
 30
0.0
 10
148.999953596858
 20
5.043469702953218
 30
0.0
 10
149.0000461567507
 20
4.857017940435707
 30
0.0
 10
148.9871791124957
 20
4.762265349870662
 30
0.0
 10
148.9359544900248
 20
4.570011986679348
 30
0.0
 10
148.8970867055956
 20
4.472111174404388
 30
0.0
 10
148.7468832248544
 20
4.188202378617126
 30
0.0
 10
148.5981348227239
 20
4.004679457425858
 30
0.0
 10
148.3231442594311
 20
3.769940625466213
 30
0.0
 10
148.2213196869398
 20
3.697085827320174
 30
0.0
 10
148.0041847227781
 20
3.569154438452841
 30
0.0
 10
147.8896960428863
 20
3.514267898975562
 30
0.0
 10
147.6487160286948
 20
3.423859355451885
 30
0.0
 10
147.5210676412933
 20
3.38831317407759
 30
0.0
 10
147.2636561857236
 20
3.341269175543976
 30
0.0
 10
147.1328777365955
 20
3.329202927879547
 30
0.0
 10
147.0000000000001
 20
3.329202927879547
 30
0.0
  0
SPLINE
  5
2AD
330
1F
100
AcDbEntity
  8
SK3
  6
HIDDEN
370
    18
100
AcDbSpline
210
0.0
220
0.0
230
1.0
 70
     8
 71
     3
 72
    34
 73
    30
 74
     0
 42
0.000000001
 43
0.00000001
 40
0.0
 40
0.0
 40
0.0
 40
0.0
 40
0.0312500000000009
 40
0.0312500000000009
 40
0.0625000000000018
 40
0.0625000000000018
 40
0.0937500000000026
 40
0.0937500000000026
 40
0.1250000000000035
 40
0.1250000000000035
 40
0.1875000000000005
 40
0.1875000000000005
 40
0.2187499999999991
 40
0.2187499999999991
 40
0.2499999999999977
 40
0.2499999999999977
 40
0.2812499999999963
 40
0.2812499999999963
 40
0.3124999999999948
 40
0.3124999999999948
 40
0.374999999999992
 40
0.374999999999992
 40
0.4062499999999906
 40
0.4062499999999906
 40
0.4374999999999892
 40
0.4374999999999892
 40
0.4687499999999878
 40
0.4687499999999878
 40
0.4999999999999864
 40
0.4999999999999864
 40
0.4999999999999864
 40
0.4999999999999864
 10
147.0000000000001
 20
3.32920292787954
 30
0.0
 10
146.8671222634046
 20
3.329202927879547
 30
0.0
 10
146.7366116415204
 20
3.341264004975801
 30
0.0
 10
146.4800832297054
 20
3.388059307658051
 30
0.0
 10
146.3527026880778
 20
3.423393915846673
 30
0.0
 10
146.1108767343412
 20
3.513986737262456
 30
0.0
 10
145.9962924101723
 20
3.568921369756089
 30
0.0
 10
145.779435350068
 20
3.696593199457095
 30
0.0
 10
145.677340193983
 20
3.769571908802144
 30
0.0
 10
145.4022266933183
 20
4.004281532886587
 30
0.0
 10
145.2534390853687
 20
4.187878226115611
 30
0.0
 10
145.1034243736885
 20
4.471003575842479
 30
0.0
 10
145.0646238673978
 20
4.568281767026567
 30
0.0
 10
145.012957326411
 20
4.761318901532661
 30
0.0
 10
145.0000849279989
 20
4.856034756511675
 30
0.0
 10
144.9999159016529
 20
5.041638307955544
 30
0.0
 10
145.0130709639585
 20
5.133223192269893
 30
0.0
 10
145.0644269090556
 20
5.304819778388002
 30
0.0
 10
145.1024173024186
 20
5.385766413493205
 30
0.0
 10
145.253790584579
 20
5.615157561445192
 30
0.0
 10
145.4011342451588
 20
5.744073455790366
 30
0.0
 10
145.6783659760629
 20
5.899625281290358
 30
0.0
 10
145.7785793681397
 20
5.944433790487529
 30
0.0
 10
145.9946080928019
 20
6.021791463716161
 30
0.0
 10
146.1116957195394
 20
6.054499016702144
 30
0.0
 10
146.3527657579535
 20
6.105983407365574
 30
0.0
 10
146.4774531575118
 20
6.125171607030904
 30
0.0
 10
146.7354415142958
 20
6.151100388433514
 30
0.0
 10
146.8681926529149
 20
6.157601838358194
 30
0.0
 10
146.9991345275214
 20
6.157629959690415
 30
0.0
  0
SPLINE
  5
2AE
330
1F
100
AcDbEntity
  8
SK3
  6
HIDDEN
370
    18
100
AcDbSpline
210
0.0
220
0.0
230
1.0
 70
     8
 71
     3
 72
    34
 73
    30
 74
     0
 42
0.000000001
 43
0.00000001
 40
0.4999999999999994
 40
0.4999999999999994
 40
0.4999999999999994
 40
0.4999999999999994
 40
0.5312499999999992
 40
0.5312499999999992
 40
0.562499999999999
 40
0.562499999999999
 40
0.5937499999999988
 40
0.5937499999999988
 40
0.6249999999999986
 40
0.6249999999999986
 40
0.6562499999999982
 40
0.6562499999999982
 40
0.687499999999998
 40
0.687499999999998
 40
0.7499999999999978
 40
0.7499999999999978
 40
0.8124999999999976
 40
0.8124999999999976
 40
0.8437499999999979
 40
0.8437499999999979
 40
0.8749999999999983
 40
0.8749999999999983
 40
0.9062499999999987
 40
0.9062499999999987
 40
0.9374999999999991
 40
0.9374999999999991
 40
0.9687499999999996
 40
0.9687499999999996
 40
1.0
 40
1.0
 40
1.0
 40
1.0
 10
9.613805742161711
 20
10.90716232481946
 30
0.0
 10
9.668881160736303
 20
10.80029617155304
 30
0.0
 10
9.738179283156622
 20
10.69763375951881
 30
0.0
 10
9.898515798149987
 20
10.50916445243492
 30
0.0
 10
9.988902763524516
 20
10.42344465460576
 30
0.0
 10
10.1894569494921
 20
10.26620282844662
 30
0.0
 10
10.29767837600207
 20
10.19657238658012
 30
0.0
 10
10.5180752649812
 20
10.07612666067176
 30
0.0
 10
10.63291658596821
 20
10.02394104847505
 30
0.0
 10
10.85319871140987
 20
9.937700483198697
 30
0.0
 10
10.96108094611135
 20
9.902442580895663
 30
0.0
 10
11.16468749579592
 20
9.845541560626822
 30
0.0
 10
11.26027842069083
 20
9.823817349771655
 30
0.0
 10
11.5339829745022
 20
9.774007191467815
 30
0.0
 10
11.69837034356694
 20
9.761334090706564
 30
0.0
 10
11.99694861504763
 20
9.77471483385759
 30
0.0
 10
12.13420875119765
 20
9.800547489334551
 30
0.0
 10
12.32260730605758
 20
9.881061993902263
 30
0.0
 10
12.38188352391457
 20
9.914741048161195
 30
0.0
 10
12.49280294837553
 20
10.00073538762963
 30
0.0
 10
12.54469006353044
 20
10.05345559201613
 30
0.0
 10
12.63491931900841
 20
10.18257506914711
 30
0.0
 10
12.67429072119648
 20
10.260721235286
 30
0.0
 10
12.73086568636478
 20
10.44626462156813
 30
0.0
 10
12.74803399215493
 20
10.55614078497286
 30
0.0
 10
12.75163319740261
 20
10.79225096143697
 30
0.0
 10
12.73806993948383
 20
10.92090501223913
 30
0.0
 10
12.68670841969949
 20
11.17161468255935
 30
0.0
 10
12.6496999389252
 20
11.29381148541116
 30
0.0
 10
12.60540931107558
 20
11.41069337006345
 30
0.0
  0
SPLINE
  5
2AF
330
1F
100
AcDbEntity
  8
SK3
  6
HIDDEN
370
    18
100
AcDbSpline
210
0.0
220
0.0
230
1.0
 70
     8
 71
     3
 72
    26
 73
    22
 74
     0
 42
0.000000001
 43
0.00000001
 40
0.0
 40
0.0
 40
0.0
 40
0.0
 40
0.0625
 40
0.0625
 40
0.1249999999999999
 40
0.1249999999999999
 40
0.1874999999999999
 40
0.1874999999999999
 40
0.2499999999999999
 40
0.2499999999999999
 40
0.2812499999999999
 40
0.2812499999999999
 40
0.3124999999999999
 40
0.3124999999999999
 40
0.375
 40
0.375
 40
0.4375
 40
0.4375
 40
0.4687499999999997
 40
0.4687499999999997
 40
0.4999999999999994
 40
0.4999999999999994
 40
0.4999999999999994
 40
0.4999999999999994
 10
12.60540931107558
 20
11.41069337006345
 30
0.0
 10
12.51682805537632
 20
11.64445713936802
 30
0.0
 10
12.40700682775374
 20
11.8437988723096
 30
0.0
 10
12.1591993275916
 20
12.20838141929532
 30
0.0
 10
12.02334522926918
 20
12.36787129268407
 30
0.0
 10
11.72814013646128
 20
12.64497254527587
 30
0.0
 10
11.56591385222423
 20
12.76526488716913
 30
0.0
 10
11.20504729019511
 20
12.94565160909028
 30
0.0
 10
11.00228334192553
 20
13.00667563690432
 30
0.0
 10
10.67487000905189
 20
13.00970724342622
 30
0.0
 10
10.56031472788944
 20
12.99521337121304
 30
0.0
 10
10.33896153134628
 20
12.93268343776061
 30
0.0
 10
10.22949961952681
 20
12.8842642454611
 30
0.0
 10
9.922578697971307
 20
12.69271892030072
 30
0.0
 10
9.751646578307197
 20
12.50669770943282
 30
0.0
 10
9.517451961566156
 20
12.08001761115037
 30
0.0
 10
9.453612055377924
 20
11.83904370818367
 30
0.0
 10
9.448421112414271
 20
11.47889250871112
 30
0.0
 10
9.461345898652635
 20
11.36073091682664
 30
0.0
 10
9.516390615621011
 20
11.12782882024474
 30
0.0
 10
9.558730323587117
 20
11.01402847808588
 30
0.0
 10
9.613805742161711
 20
10.90716232481946
 30
0.0
  0
SPLINE
  5
2B0
330
1F
100
AcDbEntity
  8
SK3
  6
HIDDEN
370
    18
100
AcDbSpline
210
0.0
220
0.0
230
1.0
 70
    24
 71
     2
 72
     6
 73
     3
 74
     0
 42
0.000000001
 43
0.00000001
 40
0.0
 40
0.0
 40
0.0
 40
0.1249999999999989
 40
0.1249999999999989
 40
0.1249999999999989
 10
3.749999999999989
 20
35.3
 30
0.0
 10
3.73696782121137
 20
35.3
 30
0.0
 10
3.71660496932702
 20
35.3
 30
0.0
  0
SPLINE
  5
2B1
330
1F
100
AcDbEntity
  8
SK3
  6
HIDDEN
370
    18
100
AcDbSpline
210
0.0
220
0.0
230
1.0
 70
    24
 71
     3
 72
     8
 73
     4
 74
     0
 42
0.000000001
 43
0.00000001
 40
0.1249999999999989
 40
0.1249999999999989
 40
0.1249999999999989
 40
0.1249999999999989
 40
0.2499999999999979
 40
0.2499999999999979
 40
0.2499999999999979
 40
0.2499999999999979
 10
3.71660496932702
 20
35.3
 30
0.0
 10
3.696242117442627
 20
35.3
 30
0.0
 10
3.669519274943203
 20
35.3
 30
0.0
 10
3.640137676434132
 20
35.3
 30
0.0
  0
SPLINE
  5
2B2
330
1F
100
AcDbEntity
  8
SK3
  6
HIDDEN
370
    18
100
AcDbSpline
210
0.0
220
0.0
230
1.0
 70
    24
 71
     3
 72
     8
 73
     4
 74
     0
 42
0.000000001
 43
0.00000001
 40
0.2499999999999979
 40
0.2499999999999979
 40
0.2499999999999979
 40
0.2499999999999979
 40
0.4999999999999986
 40
0.4999999999999986
 40
0.4999999999999986
 40
0.4999999999999986
 10
3.640137676434132
 20
35.3
 30
0.0
 10
3.58137447941595
 20
35.3
 30
0.0
 10
3.512332936533733
 20
35.3
 30
0.0
 10
3.441834254914983
 20
35.3
 30
0.0
  0
SPLINE
  5
2B3
330
1F
100
AcDbEntity
  8
SK3
  6
HIDDEN
370
    18
100
AcDbSpline
210
0.0
220
0.0
230
1.0
 70
    24
 71
     3
 72
     8
 73
     4
 74
     0
 42
0.000000001
 43
0.00000001
 40
0.4999999999999986
 40
0.4999999999999986
 40
0.4999999999999986
 40
0.4999999999999986
 40
1.0
 40
1.0
 40
1.0
 40
1.0
 10
3.441834254914983
 20
35.3
 30
0.0
 10
3.300836891677497
 20
35.3
 30
0.0
 10
3.150896944932577
 20
35.3
 30
0.0
 10
2.999999999999989
 20
35.3
 30
0.0
  0
SPLINE
  5
2B4
330
1F
100
AcDbEntity
  8
SK3
  6
HIDDEN
370
    18
100
AcDbSpline
210
0.0
220
0.0
230
1.0
 70
    24
 71
     3
 72
     8
 73
     4
 74
     0
 42
0.000000001
 43
0.00000001
 40
0.0
 40
0.0
 40
0.0
 40
0.0
 40
0.5000000000000016
 40
0.5000000000000016
 40
0.5000000000000016
 40
0.5000000000000016
 10
2.999999999999989
 20
-35.30000000000001
 30
0.0
 10
3.151041253001835
 20
-35.30000000000002
 30
0.0
 10
3.301228701601405
 20
-35.30000000000001
 30
0.0
 10
3.44240935850848
 20
-35.3
 30
0.0
  0
SPLINE
  5
2B5
330
1F
100
AcDbEntity
  8
SK3
  6
HIDDEN
370
    18
100
AcDbSpline
210
0.0
220
0.0
230
1.0
 70
    24
 71
     3
 72
     8
 73
     4
 74
     0
 42
0.000000001
 43
0.00000001
 40
0.5000000000000016
 40
0.5000000000000016
 40
0.5000000000000016
 40
0.5000000000000016
 40
0.7500000000000008
 40
0.7500000000000008
 40
0.7500000000000008
 40
0.7500000000000008
 10
3.44240935850848
 20
-35.3
 30
0.0
 10
3.51299968696199
 20
-35.29999999999998
 30
0.0
 10
3.5817514813581
 20
-35.29999999999998
 30
0.0
 10
3.640649966598478
 20
-35.3
 30
0.0
  0
SPLINE
  5
2B6
330
1F
100
AcDbEntity
  8
SK3
  6
HIDDEN
370
    18
100
AcDbSpline
210
0.0
220
0.0
230
1.0
 70
    24
 71
     2
 72
     6
 73
     3
 74
     0
 42
0.000000001
 43
0.00000001
 40
0.7500000000000008
 40
0.7500000000000008
 40
0.7500000000000008
 40
1.0
 40
1.0
 40
1.0
 10
3.640649966598464
 20
-35.3
 30
0.0
 10
3.699548451838814
 20
-35.3
 30
0.0
 10
3.749999999999948
 20
-35.3
 30
0.0
  0
SPLINE
  5
2B7
330
1F
100
AcDbEntity
  8
1
  6
HIDDEN
370
    18
100
AcDbSpline
210
0.0
220
0.0
230
1.0
 70
     8
 71
     3
 72
    10
 73
     6
 74
     0
 42
0.000000001
 43
0.00000001
 40
0.0
 40
0.0
 40
0.0
 40
0.0
 40
0.5
 40
0.5
 40
1.0
 40
1.0
 40
1.0
 40
1.0
 10
19.70500000000001
 20
-40.88833115939064
 30
0.0
 10
19.70500000000003
 20
-40.78817010856138
 30
0.0
 10
19.74335670622615
 20
-40.68702226230888
 30
0.0
 10
19.87981820626392
 20
-40.54026941991145
 30
0.0
 10
19.97834545492386
 20
-40.49493795525557
 30
0.0
 10
20.08000000000002
 20
-40.49493795525558
 30
0.0
  0
SPLINE
  5
2B8
330
1F
100
AcDbEntity
  8
1
  6
HIDDEN
370
    18
100
AcDbSpline
210
0.0
220
0.0
230
1.0
 70
     8
 71
     3
 72
     8
 73
     4
 74
     0
 42
0.000000001
 43
0.00000001
 40
0.0
 40
0.0
 40
0.0
 40
0.0
 40
1.0
 40
1.0
 40
1.0
 40
1.0
 10
16.2300196942418
 20
-47.29842136528811
 30
0.0
 10
17.39303935599186
 20
-45.21043490199493
 30
0.0
 10
18.55203671462702
 20
-43.12029082781908
 30
0.0
 10
19.70500000000001
 20
-41.02691000550032
 30
0.0
  0
SPLINE
  5
2B9
330
1F
100
AcDbEntity
  8
1
  6
HIDDEN
370
    18
100
AcDbSpline
210
0.0
220
0.0
230
1.0
 70
     8
 71
     3
 72
    10
 73
     6
 74
     0
 42
0.000000001
 43
0.00000001
 40
0.0
 40
0.0
 40
0.0
 40
0.0
 40
0.5
 40
0.5
 40
1.0
 40
1.0
 40
1.0
 40
1.0
 10
19.705
 20
40.88833115939067
 30
0.0
 10
19.705
 20
40.78785700331393
 30
0.0
 10
19.74338373915055
 20
40.68707612346073
 30
0.0
 10
19.87949500418879
 20
40.54053424392843
 30
0.0
 10
19.97908463495332
 20
40.49493795525558
 30
0.0
 10
20.08000000000002
 20
40.49493795525558
 30
0.0
  0
SPLINE
  5
2BA
330
1F
100
AcDbEntity
  8
1
  6
HIDDEN
370
    18
100
AcDbSpline
210
0.0
220
0.0
230
1.0
 70
     8
 71
     3
 72
     8
 73
     4
 74
     0
 42
0.000000001
 43
0.00000001
 40
0.0
 40
0.0
 40
0.0
 40
0.0
 40
1.0
 40
1.0
 40
1.0
 40
1.0
 10
16.23001969424189
 20
47.29842136528794
 30
0.0
 10
17.39299174097686
 20
45.21052038593816
 30
0.0
 10
18.55200333802344
 20
43.12035142813719
 30
0.0
 10
19.70500000000001
 20
41.02691000550033
 30
0.0
  0
SPLINE
  5
2BB
330
1F
100
AcDbEntity
  8
SK3
  6
HIDDEN
370
    18
100
AcDbSpline
210
0.0
220
0.0
230
1.0
 70
     8
 71
     3
 72
    34
 73
    30
 74
     0
 42
0.000000001
 43
0.00000001
 40
0.4999999999999962
 40
0.4999999999999962
 40
0.4999999999999962
 40
0.4999999999999962
 40
0.5624999999999959
 40
0.5624999999999959
 40
0.5937499999999963
 40
0.5937499999999963
 40
0.6249999999999967
 40
0.6249999999999967
 40
0.656249999999997
 40
0.656249999999997
 40
0.6874999999999973
 40
0.6874999999999973
 40
0.7187499999999977
 40
0.7187499999999977
 40
0.749999999999998
 40
0.749999999999998
 40
0.7812499999999984
 40
0.7812499999999984
 40
0.8124999999999988
 40
0.8124999999999988
 40
0.8437499999999991
 40
0.8437499999999991
 40
0.8749999999999994
 40
0.8749999999999994
 40
0.9062499999999998
 40
0.9062499999999998
 40
0.9375000000000002
 40
0.9375000000000002
 40
1.0
 40
1.0
 40
1.0
 40
1.0
 10
10.58308274902045
 20
14.62842261501449
 30
0.0
 10
10.7464399435272
 20
14.61595130338687
 30
0.0
 10
10.9289607682107
 20
14.58461707288063
 30
0.0
 10
11.23312245907615
 20
14.50015500712344
 30
0.0
 10
11.34141585866905
 20
14.46495618260171
 30
0.0
 10
11.56074352105284
 20
14.37958393042089
 30
0.0
 10
11.67215944869877
 20
14.3294927572339
 30
0.0
 10
11.89617180667889
 20
14.20807441746602
 30
0.0
 10
12.00393523597722
 20
14.13911064101067
 30
0.0
 10
12.2046103085303
 20
13.9830706368053
 30
0.0
 10
12.29767742835869
 20
13.89550631671879
 30
0.0
 10
12.45872543018652
 20
13.70738749332895
 30
0.0
 10
12.52866053916099
 20
13.60454053215046
 30
0.0
 10
12.63989321927143
 20
13.39015504100231
 30
0.0
 10
12.68217730188427
 20
13.27758844010356
 30
0.0
 10
12.7382641756493
 20
13.04311897935237
 30
0.0
 10
12.75135511926061
 20
12.92472769173533
 30
0.0
 10
12.74842672652902
 20
12.68534814453355
 30
0.0
 10
12.73184979458239
 20
12.56384474106832
 30
0.0
 10
12.67052150102994
 20
12.330972273127
 30
0.0
 10
12.62533349294084
 20
12.2169763959061
 30
0.0
 10
12.50798957942555
 20
12.00233343048589
 30
0.0
 10
12.43714536200849
 20
11.90346130197446
 30
0.0
 10
12.27151277322139
 20
11.72467140402964
 30
0.0
 10
12.17650676240364
 20
11.64543318855285
 30
0.0
 10
11.97426684334575
 20
11.51856750209626
 30
0.0
 10
11.86385801145314
 20
11.46911227285066
 30
0.0
 10
11.52899205333034
 20
11.37393005842412
 30
0.0
 10
11.30216468948123
 20
11.38194813997109
 30
0.0
 10
11.10000000000001
 20
11.43596966277543
 30
0.0
  0
SPLINE
  5
2BC
330
1F
100
AcDbEntity
  8
SK3
  6
HIDDEN
370
    18
100
AcDbSpline
210
0.0
220
0.0
230
1.0
 70
     8
 71
     3
 72
    30
 73
    26
 74
     0
 42
0.000000001
 43
0.00000001
 40
0.0
 40
0.0
 40
0.0
 40
0.0
 40
0.0624999999999985
 40
0.0624999999999985
 40
0.124999999999997
 40
0.124999999999997
 40
0.1562499999999969
 40
0.1562499999999969
 40
0.1874999999999969
 40
0.1874999999999969
 40
0.2187499999999969
 40
0.2187499999999969
 40
0.2499999999999968
 40
0.2499999999999968
 40
0.2812499999999968
 40
0.2812499999999968
 40
0.3124999999999968
 40
0.3124999999999968
 40
0.3437499999999967
 40
0.3437499999999967
 40
0.3749999999999967
 40
0.3749999999999967
 40
0.4374999999999964
 40
0.4374999999999964
 40
0.4999999999999962
 40
0.4999999999999962
 40
0.4999999999999962
 40
0.4999999999999962
 10
11.10000000000001
 20
11.43596966277542
 30
0.0
 10
10.89783531051879
 20
11.48999118557977
 30
0.0
 10
10.72214710048237
 20
11.58348246510713
 30
0.0
 10
10.39566988662173
 20
11.81778164838017
 30
0.0
 10
10.24875737476431
 20
11.95731114402996
 30
0.0
 10
10.04648943268484
 20
12.19501569319418
 30
0.0
 10
9.981990152996694
 20
12.27933069886468
 30
0.0
 10
9.858509956371178
 20
12.46024737290919
 30
0.0
 10
9.799268573097846
 20
12.55739459464192
 30
0.0
 10
9.690154706090318
 20
12.7625838124734
 30
0.0
 10
9.639396735733454
 20
12.87227353005596
 30
0.0
 10
9.551981863499106
 20
13.10215583857426
 30
0.0
 10
9.515303532497466
 20
13.2215499634384
 30
0.0
 10
9.462704529937985
 20
13.47404712221983
 30
0.0
 10
9.448745253197972
 20
13.60170425787095
 30
0.0
 10
9.451438089560533
 20
13.840239879726
 30
0.0
 10
9.468197896427972
 20
13.95005783787261
 30
0.0
 10
9.524353346861233
 20
14.13698669911057
 30
0.0
 10
9.563589477848037
 20
14.21555240578226
 30
0.0
 10
9.653480018824323
 20
14.34524919507794
 30
0.0
 10
9.705204466999184
 20
14.3982039561676
 30
0.0
 10
9.871348595184445
 20
14.5279498893035
 30
0.0
 10
9.99583275682618
 20
14.57778939463077
 30
0.0
 10
10.27208420272975
 20
14.63501792265949
 30
0.0
 10
10.41972555451372
 20
14.64089392664208
 30
0.0
 10
10.58308274902045
 20
14.62842261501449
 30
0.0
  0
SPLINE
  5
2BD
330
1F
100
AcDbEntity
  8
SK3
  6
HIDDEN
370
    18
100
AcDbSpline
210
0.0
220
0.0
230
1.0
 70
     8
 71
     3
 72
    32
 73
    28
 74
     0
 42
0.000000001
 43
0.00000001
 40
0.5000000000000024
 40
0.5000000000000024
 40
0.5000000000000024
 40
0.5000000000000024
 40
0.5625000000000029
 40
0.5625000000000029
 40
0.6250000000000033
 40
0.6250000000000033
 40
0.656250000000003
 40
0.656250000000003
 40
0.6875000000000028
 40
0.6875000000000028
 40
0.7187500000000026
 40
0.7187500000000026
 40
0.7500000000000023
 40
0.7500000000000023
 40
0.7812500000000021
 40
0.7812500000000021
 40
0.8125000000000019
 40
0.8125000000000019
 40
0.8437500000000017
 40
0.8437500000000017
 40
0.8750000000000013
 40
0.8750000000000013
 40
0.9062500000000011
 40
0.9062500000000011
 40
0.9375000000000009
 40
0.9375000000000009
 40
1.0
 40
1.0
 40
1.0
 40
1.0
 10
11.10071146249393
 20
18.95940909228647
 30
0.0
 10
10.83966036263012
 20
18.95949508392322
 30
0.0
 10
10.57654432887647
 20
18.9110827339862
 30
0.0
 10
10.0950396931868
 20
18.72651722868189
 30
0.0
 10
9.87173679775892
 20
18.58839775992277
 30
0.0
 10
9.594869119672236
 20
18.3314092654716
 30
0.0
 10
9.51035580802792
 20
18.23575282781649
 30
0.0
 10
9.364898225395837
 20
18.03306921593144
 30
0.0
 10
9.303391160574353
 20
17.9259346664543
 30
0.0
 10
9.20288790583089
 20
17.69995542999257
 30
0.0
 10
9.164237099226021
 20
17.58095959977288
 30
0.0
 10
9.11318938056445
 20
17.3413992195441
 30
0.0
 10
9.100134371086934
 20
17.21957298460659
 30
0.0
 10
9.099867672658371
 20
16.9716588275597
 30
0.0
 10
9.112745529051406
 20
16.84887051827422
 30
0.0
 10
9.163318778191181
 20
16.60799445644037
 30
0.0
 10
9.201564549821587
 20
16.48833425787469
 30
0.0
 10
9.301851471514244
 20
16.25910364824258
 30
0.0
 10
9.363213060780042
 20
16.1503460685298
 30
0.0
 10
9.508037288393695
 20
15.94445135605049
 30
0.0
 10
9.592426282887992
 20
15.84671892122776
 30
0.0
 10
9.776893191111718
 20
15.67131280329975
 30
0.0
 10
9.877477150479361
 20
15.59259093469142
 30
0.0
 10
10.09565052704871
 20
15.4535304152057
 30
0.0
 10
10.21229123388062
 20
15.39411502703218
 30
0.0
 10
10.57316681370772
 20
15.25131259711657
 30
0.0
 10
10.83571231733926
 20
15.20063872632263
 30
0.0
 10
11.10000000000001
 20
15.20063872632263
 30
0.0
  0
SPLINE
  5
2BE
330
1F
100
AcDbEntity
  8
SK3
  6
HIDDEN
370
    18
100
AcDbSpline
210
0.0
220
0.0
230
1.0
 70
     8
 71
     3
 72
    34
 73
    30
 74
     0
 42
0.000000001
 43
0.00000001
 40
0.0
 40
0.0
 40
0.0
 40
0.0
 40
0.0312500000000001
 40
0.0312500000000001
 40
0.0625000000000002
 40
0.0625000000000002
 40
0.0937500000000003
 40
0.0937500000000003
 40
0.1250000000000004
 40
0.1250000000000004
 40
0.1875000000000006
 40
0.1875000000000006
 40
0.2500000000000008
 40
0.2500000000000008
 40
0.281250000000001
 40
0.281250000000001
 40
0.3125000000000012
 40
0.3125000000000012
 40
0.3437500000000014
 40
0.3437500000000014
 40
0.3750000000000016
 40
0.3750000000000016
 40
0.4062500000000018
 40
0.4062500000000018
 40
0.4375000000000021
 40
0.4375000000000021
 40
0.4687500000000022
 40
0.4687500000000022
 40
0.5000000000000024
 40
0.5000000000000024
 40
0.5000000000000024
 40
0.5000000000000024
 10
11.10000000000001
 20
15.20063872632262
 30
0.0
 10
11.23214384133038
 20
15.20063872632263
 30
0.0
 10
11.36207683011832
 20
15.21300366956796
 30
0.0
 10
11.61770274340579
 20
15.26142991294575
 30
0.0
 10
11.74472034796746
 20
15.29807928696865
 30
0.0
 10
11.98691872226756
 20
15.39368649190845
 30
0.0
 10
12.10178825693582
 20
15.45216608318073
 30
0.0
 10
12.31918389765141
 20
15.59020177037089
 30
0.0
 10
12.42210399098252
 20
15.670482925424
 30
0.0
 10
12.69882146131235
 20
15.93323931693799
 30
0.0
 10
12.8478254923194
 20
16.1446814579695
 30
0.0
 10
13.04732370421205
 20
16.59948122829186
 30
0.0
 10
13.09986054057427
 20
16.84755397556366
 30
0.0
 10
13.10006930284498
 20
17.21529328281686
 30
0.0
 10
13.08708888085484
 20
17.33961998402066
 30
0.0
 10
13.03607100299481
 20
17.57998170651963
 30
0.0
 10
12.99832227536035
 20
17.69663871376956
 30
0.0
 10
12.89820560779054
 20
17.92292358836764
 30
0.0
 10
12.83559212600235
 20
18.03221760939899
 30
0.0
 10
12.69084705245927
 20
18.23424312112873
 30
0.0
 10
12.60821628179985
 20
18.32828618578591
 30
0.0
 10
12.42162673177076
 20
18.50199126043449
 30
0.0
 10
12.32044387441547
 20
18.57901439621877
 30
0.0
 10
12.10388934784862
 20
18.71351785608448
 30
0.0
 10
11.98703949363667
 20
18.77159807513181
 30
0.0
 10
11.7446998281336
 20
18.86472639130621
 30
0.0
 10
11.62003428466962
 20
18.89978409519356
 30
0.0
 10
11.36379198463243
 20
18.94721337815951
 30
0.0
 10
11.23123701242582
 20
18.95936609646809
 30
0.0
 10
11.10071146249393
 20
18.95940909228647
 30
0.0
  0
ELLIPSE
  5
2BF
330
1F
100
AcDbEntity
  8
SK3
  6
HIDDEN
370
    18
100
AcDbEllipse
 10
147.0
 20
8.4852813742
 30
0.0
 11
1.847759065022586
 21
-1.847759065022576
 31
0.0
210
0.0
220
0.0
230
1.0
 40
0.4142135624
 41
1.963495408493615
 42
5.105088062083418
  0
ELLIPSE
  5
2C0
330
1F
100
AcDbEntity
  8
SK3
  6
HIDDEN
370
    18
100
AcDbEllipse
 10
147.0
 20
8.4852813742
 30
0.0
 11
1.847759065022586
 21
1.847759065022567
 31
0.0
210
0.0
220
0.0
230
1.0
 40
0.4142135624
 41
4.319689898685983
 42
7.461282552275765
  0
ELLIPSE
  5
2C1
330
1F
100
AcDbEntity
  8
SK3
  6
HIDDEN
370
    18
100
AcDbEllipse
 10
147.0
 20
-8.4852813742
 30
0.0
 11
1.847759065022586
 21
-1.847759065022574
 31
0.0
210
0.0
220
0.0
230
1.0
 40
0.4142135624
 41
5.105088062083444
 42
8.2466807156732
  0
ELLIPSE
  5
2C2
330
1F
100
AcDbEntity
  8
SK3
  6
HIDDEN
370
    18
100
AcDbEllipse
 10
147.0
 20
-8.4852813742
 30
0.0
 11
1.847759065022586
 21
1.847759065022576
 31
0.0
210
0.0
220
0.0
230
1.0
 40
0.4142135624
 41
1.17809724509618
 42
4.319689898686011
  0
ELLIPSE
  5
2C3
330
1F
100
AcDbEntity
  8
SK3
  6
HIDDEN
370
    18
100
AcDbEllipse
 10
147.0
 20
8.4852813742
 30
0.0
 11
1.847759065022586
 21
1.847759065022567
 31
0.0
210
0.0
220
0.0
230
1.0
 40
0.4142135624
 41
1.178097245096179
 42
4.319689898685983
  0
ELLIPSE
  5
2C4
330
1F
100
AcDbEntity
  8
SK3
  6
HIDDEN
370
    18
100
AcDbEllipse
 10
147.0
 20
8.4852813742
 30
0.0
 11
1.847759065022586
 21
-1.847759065022576
 31
0.0
210
0.0
220
0.0
230
1.0
 40
0.4142135624
 41
5.105088062083418
 42
8.2466807156732
  0
ELLIPSE
  5
2C5
330
1F
100
AcDbEntity
  8
SK3
  6
HIDDEN
370
    18
100
AcDbEllipse
 10
147.0
 20
-8.4852813742
 30
0.0
 11
1.847759065022586
 21
1.847759065022576
 31
0.0
210
0.0
220
0.0
230
1.0
 40
0.4142135624
 41
4.319689898686011
 42
7.461282552275765
  0
ELLIPSE
  5
2C6
330
1F
100
AcDbEntity
  8
SK3
  6
HIDDEN
370
    18
100
AcDbEllipse
 10
147.0
 20
-8.4852813742
 30
0.0
 11
1.847759065022586
 21
-1.847759065022574
 31
0.0
210
0.0
220
0.0
230
1.0
 40
0.4142135624
 41
1.963495408493614
 42
5.105088062083444
  0
ELLIPSE
  5
2C7
330
1F
100
AcDbEntity
  8
SK3
  6
HIDDEN
370
    18
100
AcDbEllipse
 10
147.0
 20
8.4852813742
 30
0.0
 11
1.847759065022587
 21
-1.847759065022403
 31
0.0
210
0.0
220
0.0
230
1.0
 40
0.4142135624
 41
5.105088062083442
 42
8.246680715673223
  0
ELLIPSE
  5
2C8
330
1F
100
AcDbEntity
  8
SK3
  6
HIDDEN
370
    18
100
AcDbEllipse
 10
147.0
 20
8.4852813742
 30
0.0
 11
1.847759065022586
 21
1.847759065022762
 31
0.0
210
0.0
220
0.0
230
1.0
 40
0.4142135624
 41
1.178097245096123
 42
4.319689898685926
  0
ELLIPSE
  5
2C9
330
1F
100
AcDbEntity
  8
SK3
  6
HIDDEN
370
    18
100
AcDbEllipse
 10
147.0
 20
-8.4852813742
 30
0.0
 11
1.847759065022586
 21
-1.847759065022407
 31
0.0
210
0.0
220
0.0
230
1.0
 40
0.4142135624
 41
1.963495408493637
 42
5.105088062083468
  0
ELLIPSE
  5
2CA
330
1F
100
AcDbEntity
  8
SK3
  6
HIDDEN
370
    18
100
AcDbEllipse
 10
147.0
 20
-8.4852813742
 30
0.0
 11
1.847759065022587
 21
1.847759065022729
 31
0.0
210
0.0
220
0.0
230
1.0
 40
0.4142135624
 41
4.319689898685958
 42
7.461282552275712
  0
ELLIPSE
  5
2CB
330
1F
100
AcDbEntity
  8
SK3
  6
HIDDEN
370
    18
100
AcDbEllipse
 10
147.0
 20
8.4852813742
 30
0.0
 11
1.847759065022586
 21
1.847759065022762
 31
0.0
210
0.0
220
0.0
230
1.0
 40
0.4142135624
 41
4.319689898685926
 42
7.461282552275708
  0
ELLIPSE
  5
2CC
330
1F
100
AcDbEntity
  8
SK3
  6
HIDDEN
370
    18
100
AcDbEllipse
 10
147.0
 20
8.4852813742
 30
0.0
 11
1.847759065022587
 21
-1.847759065022403
 31
0.0
210
0.0
220
0.0
230
1.0
 40
0.4142135624
 41
1.96349540849364
 42
5.105088062083443
  0
ELLIPSE
  5
2CD
330
1F
100
AcDbEntity
  8
SK3
  6
HIDDEN
370
    18
100
AcDbEllipse
 10
147.0
 20
-8.4852813742
 30
0.0
 11
1.847759065022586
 21
-1.847759065022407
 31
0.0
210
0.0
220
0.0
230
1.0
 40
0.4142135624
 41
5.105088062083468
 42
8.246680715673222
  0
ELLIPSE
  5
2CE
330
1F
100
AcDbEntity
  8
SK3
  6
HIDDEN
370
    18
100
AcDbEllipse
 10
147.0
 20
-8.4852813742
 30
0.0
 11
1.847759065022587
 21
1.847759065022729
 31
0.0
210
0.0
220
0.0
230
1.0
 40
0.4142135624
 41
1.178097245096128
 42
4.319689898685959
  0
INSERT
  5
2CF
330
1F
100
AcDbEntity
  8
81
100
AcDbBlockReference
  2
Block11
 10
9.0340819891
 20
-130.2676275275
 30
0.0
  0
INSERT
  5
2D0
330
1F
100
AcDbEntity
  8
80
100
AcDbBlockReference
  2
Block12
 10
-61.7273641656
 20
-130.3356800267
 30
0.0
  0
DIMENSION
  5
2D1
330
1F
100
AcDbEntity
  8
SK2
100
AcDbDimension
  2
_D
 10
-120.7466403628
 20
-34.925
 30
0.0
 11
-120.7466403628
 21
-0.7405499971
 31
0.0
 70
   160
  1
%%c<>
 71
     2
 42
-1.0
  3
SLDDIMSTYLE0
100
AcDbAlignedDimension
 13
0.0
 23
34.925
 33
0.0
 14
0.0
 24
-34.925
 34
0.0
 50
90.0
100
AcDbRotatedDimension
  0
DIMENSION
  5
2DE
330
1F
100
AcDbEntity
  8
SK2
100
AcDbDimension
  2
_D_1
 10
-110.7858703621
 20
12.0
 30
0.0
 11
-110.7858703621
 21
0.2064290571
 31
0.0
 70
   160
  1
M<>
 71
     2
 42
-1.0
  3
SLDDIMSTYLE0
100
AcDbAlignedDimension
 13
-88.1169872981
 23
-12.0
 33
0.0
 14
-88.1169872981
 24
12.0
 34
0.0
 50
90.0
100
AcDbRotatedDimension
  0
DIMENSION
  5
2E9
330
1F
100
AcDbEntity
  8
SK2
100
AcDbDimension
  2
_D_2
 10
-131.7696373134
 20
-49.978682327
 30
0.0
 11
-131.7696373134
 21
-0.7405499971
 31
0.0
 70
   160
  1
%%c<>
 71
     2
 42
-1.0
  3
SLDDIMSTYLE1
100
AcDbAlignedDimension
 13
35.2499629447
 23
49.978682327
 33
0.0
 14
35.2499629843
 24
-49.978682327
 34
0.0
 50
90.0
100
AcDbRotatedDimension
  0
DIMENSION
  5
2F5
330
1F
100
AcDbEntity
  8
SK2
100
AcDbDimension
  2
_D_3
 10
38.0
 20
58.9623244292
 30
0.0
 11
18.6408515541
 21
58.9623244292
 31
0.0
 70
   160
  1
<>
 71
     2
 42
-1.0
  3
SLDDIMSTYLE0
100
AcDbAlignedDimension
 13
0.0
 23
34.925
 33
0.0
 14
38.0
 24
49.228682327
 34
0.0
100
AcDbRotatedDimension
  0
DIMENSION
  5
2FF
330
1F
100
AcDbEntity
  8
SK2
100
AcDbDimension
  2
_D_4
 10
160.0
 20
58.9623244292
 30
0.0
 11
98.6533633085
 21
58.9623244292
 31
0.0
 70
   160
  1
<>
 71
     2
 42
-1.0
  3
SLDDIMSTYLE0
100
AcDbAlignedDimension
 13
38.0
 23
49.228682327
 33
0.0
 14
160.0
 24
38.2
 34
0.0
100
AcDbRotatedDimension
  0
DIMENSION
  5
309
330
1F
100
AcDbEntity
  8
2
100
AcDbDimension
  2
_D_5
 10
160.0
 20
68.3477475623
 30
0.0
 11
80.1234066739
 21
68.3477475623
 31
0.0
 70
   160
  1
<>
 71
     2
 42
-1.0
  3
SLDDIMSTYLE0
100
AcDbAlignedDimension
 13
0.0
 23
34.925
 33
0.0
 14
160.0
 24
38.2
 34
0.0
100
AcDbRotatedDimension
  0
DIMENSION
  5
313
330
1F
100
AcDbEntity
  8
SK2
100
AcDbDimension
  2
_D_6
 10
224.4580406751
 20
39.0
 30
0.0
 11
224.4580406751
 21
-0.4515633866
 31
0.0
 70
   160
  1
%%c<>
 71
     2
 42
-1.0
  3
SLDDIMSTYLE0
100
AcDbAlignedDimension
 13
159.2
 23
-39.0
 33
0.0
 14
159.2
 24
39.0
 34
0.0
 50
90.0
100
AcDbRotatedDimension
  0
DIMENSION
  5
31E
330
1F
100
AcDbEntity
  8
SK2
100
AcDbDimension
  2
_D_7
 10
213.768064288
 20
-16.0
 30
0.0
 11
213.768064288
 21
-0.4515633866
 31
0.0
 70
   160
  1
%%c<>
 71
     2
 42
-1.0
  3
SLDDIMSTYLE0
100
AcDbAlignedDimension
 13
181.0
 23
16.0
 33
0.0
 14
181.0
 24
-16.0
 34
0.0
 50
90.0
100
AcDbRotatedDimension
  0
DIMENSION
  5
329
330
1F
100
AcDbEntity
  8
SK2
100
AcDbDimension
  2
_D_8
 10
184.0
 20
-61.5129683583
 30
0.0
 11
41.7572262433
 21
-61.5129683583
 31
0.0
 70
   160
  1
<>
 71
     2
 42
-1.0
  3
SLDDIMSTYLE0
100
AcDbAlignedDimension
 13
-101.8
 23
-19.2132836634
 33
0.0
 14
184.0
 24
-15.4710190579
 34
0.0
 50
0.0
100
AcDbRotatedDimension
  0
MTEXT
  5
333
330
1F
100
AcDbEntity
  8
SK6
 62
     5
100
AcDbMText
 10
-100.5907691729
 20
-65.798948928
 30
0.0
 40
3.5
 41
0.0
 71
     1
 72
     1
  1
A2B05-50 32 160
  7
SLDTEXTSTYLE0
 73
     1
 44
1.0
  0
MTEXT
  5
334
330
1F
100
AcDbEntity
  8
SK6
 62
     5
100
AcDbMText
 10
-32.7610398287
 20
43.2832628217
 30
0.0
 40
3.5
 41
0.0
 71
     1
 72
     1
  1
MAS-403 BT50
  7
SLDTEXTSTYLE0
 73
     1
 44
1.0
  0
ENDSEC
  0
SECTION
  2
OBJECTS
  0
DICTIONARY
  5
C
330
0
100
AcDbDictionary
281
     1
  3
ACAD_GROUP
350
D
  3
ACAD_LAYOUT
350
1A
  3
ACAD_MLINESTYLE
350
17
  3
ACAD_PLOTSETTINGS
350
19
  3
ACAD_PLOTSTYLENAME
350
E
  3
ACAD_SCALELIST
350
47
  0
DICTIONARY
  5
D
102
{ACAD_REACTORS
330
C
102
}
330
C
100
AcDbDictionary
281
     1
  0
DICTIONARY
  5
1A
102
{ACAD_REACTORS
330
C
102
}
330
C
100
AcDbDictionary
281
     1
  3
Layout1
350
1E
  3
Layout2
350
26
  3
Model
350
22
  0
DICTIONARY
  5
17
102
{ACAD_REACTORS
330
C
102
}
330
C
100
AcDbDictionary
281
     1
  3
Standard
350
18
  0
DICTIONARY
  5
19
102
{ACAD_REACTORS
330
C
102
}
330
C
100
AcDbDictionary
281
     1
  0
ACDBDICTIONARYWDFLT
  5
E
102
{ACAD_REACTORS
330
C
102
}
330
C
100
AcDbDictionary
281
     1
  3
Normal
350
F
100
AcDbDictionaryWithDefault
340
F
  0
DICTIONARY
  5
47
102
{ACAD_REACTORS
330
C
102
}
330
C
100
AcDbDictionary
281
     1
  3
A0
350
48
  3
A1
350
49
  3
A2
350
4A
  3
A3
350
4B
  3
A4
350
4C
  3
A5
350
4D
  3
A6
350
4E
  3
A7
350
4F
  3
A8
350
50
  3
A9
350
51
  3
B0
350
52
  3
B1
350
53
  3
B2
350
54
  3
B3
350
55
  3
B4
350
56
  3
B5
350
57
  3
B6
350
58
  3
B7
350
59
  3
B8
350
5A
  3
B9
350
5B
  3
C0
350
5C
  3
C1
350
5D
  3
C2
350
5E
  3
C3
350
5F
  3
C4
350
60
  3
C5
350
61
  3
C6
350
62
  3
C7
350
63
  3
C8
350
64
  3
C9
350
65
  3
D0
350
66
  3
D1
350
67
  3
D2
350
68
  0
LAYOUT
  5
1E
102
{ACAD_REACTORS
330
1A
102
}
330
1A
100
AcDbPlotSettings
  1

  2
none_device
  4

  6

 40
0.0
 41
0.0
 42
0.0
 43
0.0
 44
0.0
 45
0.0
 46
0.0
 47
0.0
 48
0.0
 49
0.0
140
0.0
141
0.0
142
1.0
143
1.0
 70
   688
 72
     1
 73
     0
 74
     5
  7

 75
    16
147
1.0
148
0.0
149
0.0
100
AcDbLayout
  1
Layout1
 70
     1
 71
     1
 10
0.0
 20
0.0
 11
420.0
 21
297.0
 12
0.0
 22
0.0
 32
0.0
 14
1.0000000000E+20
 24
1.0000000000E+20
 34
1.0000000000E+20
 15
-1.0000000000E+20
 25
-1.0000000000E+20
 35
-1.0000000000E+20
146
0.0
 13
0.0
 23
0.0
 33
0.0
 16
1.0
 26
0.0
 36
0.0
 17
0.0
 27
1.0
 37
0.0
 76
     0
330
1B
  0
LAYOUT
  5
26
102
{ACAD_REACTORS
330
1A
102
}
330
1A
100
AcDbPlotSettings
  1

  2
none_device
  4

  6

 40
0.0
 41
0.0
 42
0.0
 43
0.0
 44
0.0
 45
0.0
 46
0.0
 47
0.0
 48
0.0
 49
0.0
140
0.0
141
0.0
142
1.0
143
1.0
 70
   688
 72
     1
 73
     0
 74
     5
  7

 75
    16
147
1.0
148
0.0
149
0.0
100
AcDbLayout
  1
Layout2
 70
     1
 71
     2
 10
0.0
 20
0.0
 11
0.0
 21
0.0
 12
0.0
 22
0.0
 32
0.0
 14
0.0
 24
0.0
 34
0.0
 15
0.0
 25
0.0
 35
0.0
146
0.0
 13
0.0
 23
0.0
 33
0.0
 16
1.0
 26
0.0
 36
0.0
 17
0.0
 27
1.0
 37
0.0
 76
     0
330
23
  0
LAYOUT
  5
22
102
{ACAD_REACTORS
330
1A
102
}
330
1A
100
AcDbPlotSettings
  1

  2
none_device
  4
Letter_(8.50_x_11.00_Inches)
  6

 40
6.35
 41
6.35
 42
6.35000508
 43
6.35000508
 44
215.9
 45
279.4
 46
0.0
 47
0.0
 48
0.0
 49
0.0
140
0.0
141
0.0
142
1.0
143
1.0
 70
  1712
 72
     1
 73
     0
 74
     0
  7

 75
     0
147
1.0
148
0.0
149
0.0
100
AcDbLayout
  1
Model
 70
     1
 71
     0
 10
0.0
 20
0.0
 11
297.0
 21
210.0
 12
0.0
 22
0.0
 32
0.0
 14
0.0
 24
0.0
 34
0.0
 15
297.0
 25
210.0
 35
0.0
146
0.0
 13
0.0
 23
0.0
 33
0.0
 16
1.0
 26
0.0
 36
0.0
 17
0.0
 27
1.0
 37
0.0
 76
     0
330
1F
331
29
  0
MLINESTYLE
  5
18
102
{ACAD_REACTORS
330
17
102
}
330
17
100
AcDbMlineStyle
  2
Standard
 70
     0
  3

 62
   256
 51
90.0
 52
90.0
 71
     2
 49
0.5
 62
   256
  6
BYLAYER
 49
-0.5
 62
   256
  6
BYLAYER
  0
ACDBPLACEHOLDER
  5
F
102
{ACAD_REACTORS
330
E
102
}
330
E
  0
SCALE
  5
48
102
{ACAD_REACTORS
330
47
102
}
330
47
100
AcDbScale
 70
     0
300
1:1
140
1.0
141
1.0
290
     1
  0
SCALE
  5
49
102
{ACAD_REACTORS
330
47
102
}
330
47
100
AcDbScale
 70
     0
300
1:2
140
1.0
141
2.0
290
     0
  0
SCALE
  5
4A
102
{ACAD_REACTORS
330
47
102
}
330
47
100
AcDbScale
 70
     0
300
1:4
140
1.0
141
4.0
290
     0
  0
SCALE
  5
4B
102
{ACAD_REACTORS
330
47
102
}
330
47
100
AcDbScale
 70
     0
300
1:5
140
1.0
141
5.0
290
     0
  0
SCALE
  5
4C
102
{ACAD_REACTORS
330
47
102
}
330
47
100
AcDbScale
 70
     0
300
1:8
140
1.0
141
8.0
290
     0
  0
SCALE
  5
4D
102
{ACAD_REACTORS
330
47
102
}
330
47
100
AcDbScale
 70
     0
300
1:10
140
1.0
141
10.0
290
     0
  0
SCALE
  5
4E
102
{ACAD_REACTORS
330
47
102
}
330
47
100
AcDbScale
 70
     0
300
1:16
140
1.0
141
16.0
290
     0
  0
SCALE
  5
4F
102
{ACAD_REACTORS
330
47
102
}
330
47
100
AcDbScale
 70
     0
300
1:20
140
1.0
141
20.0
290
     0
  0
SCALE
  5
50
102
{ACAD_REACTORS
330
47
102
}
330
47
100
AcDbScale
 70
     0
300
1:30
140
1.0
141
30.0
290
     0
  0
SCALE
  5
51
102
{ACAD_REACTORS
330
47
102
}
330
47
100
AcDbScale
 70
     0
300
1:40
140
1.0
141
40.0
290
     0
  0
SCALE
  5
52
102
{ACAD_REACTORS
330
47
102
}
330
47
100
AcDbScale
 70
     0
300
1:50
140
1.0
141
50.0
290
     0
  0
SCALE
  5
53
102
{ACAD_REACTORS
330
47
102
}
330
47
100
AcDbScale
 70
     0
300
1:100
140
1.0
141
100.0
290
     0
  0
SCALE
  5
54
102
{ACAD_REACTORS
330
47
102
}
330
47
100
AcDbScale
 70
     0
300
2:1
140
2.0
141
1.0
290
     0
  0
SCALE
  5
55
102
{ACAD_REACTORS
330
47
102
}
330
47
100
AcDbScale
 70
     0
300
4:1
140
4.0
141
1.0
290
     0
  0
SCALE
  5
56
102
{ACAD_REACTORS
330
47
102
}
330
47
100
AcDbScale
 70
     0
300
8:1
140
8.0
141
1.0
290
     0
  0
SCALE
  5
57
102
{ACAD_REACTORS
330
47
102
}
330
47
100
AcDbScale
 70
     0
300
10:1
140
10.0
141
1.0
290
     0
  0
SCALE
  5
58
102
{ACAD_REACTORS
330
47
102
}
330
47
100
AcDbScale
 70
     0
300
100:1
140
100.0
141
1.0
290
     0
  0
SCALE
  5
59
102
{ACAD_REACTORS
330
47
102
}
330
47
100
AcDbScale
 70
     0
300
1/128" = 1'-0"
140
0.0078125
141
12.0
290
     0
  0
SCALE
  5
5A
102
{ACAD_REACTORS
330
47
102
}
330
47
100
AcDbScale
 70
     0
300
1/64" = 1'-0"
140
0.015625
141
12.0
290
     0
  0
SCALE
  5
5B
102
{ACAD_REACTORS
330
47
102
}
330
47
100
AcDbScale
 70
     0
300
1/32" = 1'-0"
140
0.03125
141
12.0
290
     0
  0
SCALE
  5
5C
102
{ACAD_REACTORS
330
47
102
}
330
47
100
AcDbScale
 70
     0
300
1/16" = 1'-0"
140
0.0625
141
12.0
290
     0
  0
SCALE
  5
5D
102
{ACAD_REACTORS
330
47
102
}
330
47
100
AcDbScale
 70
     0
300
3/32" = 1'-0"
140
0.09375
141
12.0
290
     0
  0
SCALE
  5
5E
102
{ACAD_REACTORS
330
47
102
}
330
47
100
AcDbScale
 70
     0
300
1/8" = 1'-0"
140
0.125
141
12.0
290
     0
  0
SCALE
  5
5F
102
{ACAD_REACTORS
330
47
102
}
330
47
100
AcDbScale
 70
     0
300
3/16" = 1'-0"
140
0.1875
141
12.0
290
     0
  0
SCALE
  5
60
102
{ACAD_REACTORS
330
47
102
}
330
47
100
AcDbScale
 70
     0
300
1/4" = 1'-0"
140
0.25
141
12.0
290
     0
  0
SCALE
  5
61
102
{ACAD_REACTORS
330
47
102
}
330
47
100
AcDbScale
 70
     0
300
3/8" = 1'-0"
140
0.375
141
12.0
290
     0
  0
SCALE
  5
62
102
{ACAD_REACTORS
330
47
102
}
330
47
100
AcDbScale
 70
     0
300
1/2" = 1'-0"
140
0.5
141
12.0
290
     0
  0
SCALE
  5
63
102
{ACAD_REACTORS
330
47
102
}
330
47
100
AcDbScale
 70
     0
300
3/4" = 1'-0"
140
0.75
141
12.0
290
     0
  0
SCALE
  5
64
102
{ACAD_REACTORS
330
47
102
}
330
47
100
AcDbScale
 70
     0
300
1" = 1'-0"
140
1.0
141
12.0
290
     0
  0
SCALE
  5
65
102
{ACAD_REACTORS
330
47
102
}
330
47
100
AcDbScale
 70
     0
300
1-1/2" = 1'-0"
140
1.5
141
12.0
290
     0
  0
SCALE
  5
66
102
{ACAD_REACTORS
330
47
102
}
330
47
100
AcDbScale
 70
     0
300
3" = 1'-0"
140
3.0
141
12.0
290
     0
  0
SCALE
  5
67
102
{ACAD_REACTORS
330
47
102
}
330
47
100
AcDbScale
 70
     0
300
6" = 1'-0"
140
6.0
141
12.0
290
     0
  0
SCALE
  5
68
102
{ACAD_REACTORS
330
47
102
}
330
47
100
AcDbScale
 70
     0
300
1'-0" = 1'-0"
140
12.0
141
12.0
290
     0
  0
ENDSEC
  0
EOF
