  0
SECTION
  2
HEADER
  9
$ACADVER
  1
AC1015
  9
$ACADMAINTVER
 70
     6
  9
$DWGCODEPAGE
  3
ANSI_1250
  9
$INSBASE
 10
0.0
 20
0.0
 30
0.0
  9
$EXTMIN
 10
0.0
 20
0.0
 30
0.0
  9
$EXTMAX
 10
297.0
 20
210.0
 30
0.0
  9
$LIMMIN
 10
0.0
 20
0.0
  9
$LIMMAX
 10
297.0
 20
210.0
  9
$ORTHOMODE
 70
     0
  9
$REGENMODE
 70
     1
  9
$FILLMODE
 70
     1
  9
$QTEXTMODE
 70
     0
  9
$MIRRTEXT
 70
     1
  9
$LTSCALE
 40
1.0
  9
$ATTMODE
 70
     1
  9
$TEXTSIZE
 40
3.5
  9
$TRACEWID
 40
1.0
  9
$TEXTSTYLE
  7
Standard
  9
$CLAYER
  8
0
  9
$CELTYPE
  6
ByLayer
  9
$CECOLOR
 62
   256
  9
$CELTSCALE
 40
1.0
  9
$DISPSILH
 70
     0
  9
$DIMSCALE
 40
1.0
  9
$DIMASZ
 40
3.302
  9
$DIMEXO
 40
1.0
  9
$DIMDLI
 40
3.75
  9
$DIMRND
 40
0.0
  9
$DIMDLE
 40
0.0
  9
$DIMEXE
 40
1.0
  9
$DIMTP
 40
0.0
  9
$DIMTM
 40
0.0
  9
$DIMTXT
 40
3.5
  9
$DIMCEN
 40
2.5
  9
$DIMTSZ
 40
0.0
  9
$DIMTOL
 70
     0
  9
$DIMLIM
 70
     0
  9
$DIMTIH
 70
     1
  9
$DIMTOH
 70
     1
  9
$DIMSE1
 70
     0
  9
$DIMSE2
 70
     0
  9
$DIMTAD
 70
     1
  9
$DIMZIN
 70
     0
  9
$DIMBLK
  1

  9
$DIMASO
 70
     1
  9
$DIMSHO
 70
     1
  9
$DIMPOST
  1

  9
$DIMAPOST
  1

  9
$DIMALT
 70
     0
  9
$DIMALTD
 70
     3
  9
$DIMALTF
 40
0.0393700787
  9
$DIMLFAC
 40
1.0
  9
$DIMTOFL
 70
     1
  9
$DIMTVP
 40
0.0
  9
$DIMTIX
 70
     0
  9
$DIMSOXD
 70
     0
  9
$DIMSAH
 70
     0
  9
$DIMBLK1
  1

  9
$DIMBLK2
  1

  9
$DIMSTYLE
  2
ISO-25
  9
$DIMCLRD
 70
     0
  9
$DIMCLRE
 70
     0
  9
$DIMCLRT
 70
     0
  9
$DIMTFAC
 40
1.0
  9
$DIMGAP
 40
1.524
  9
$DIMJUST
 70
     0
  9
$DIMSD1
 70
     0
  9
$DIMSD2
 70
     0
  9
$DIMTOLJ
 70
     0
  9
$DIMTZIN
 70
     0
  9
$DIMALTZ
 70
     0
  9
$DIMALTTZ
 70
     0
  9
$DIMUPT
 70
     0
  9
$DIMDEC
 70
     2
  9
$DIMTDEC
 70
     2
  9
$DIMALTU
 70
     2
  9
$DIMALTTD
 70
     3
  9
$DIMTXSTY
  7
Standard
  9
$DIMAUNIT
 70
     0
  9
$DIMADEC
 70
     2
  9
$DIMALTRND
 40
0.0
  9
$DIMAZIN
 70
     0
  9
$DIMDSEP
 70
    44
  9
$DIMATFIT
 70
     3
  9
$DIMFRAC
 70
     0
  9
$DIMLDRBLK
  1

  9
$DIMLUNIT
 70
     2
  9
$DIMLWD
 70
    -2
  9
$DIMLWE
 70
    -2
  9
$DIMTMOVE
 70
     0
  9
$LUNITS
 70
     2
  9
$LUPREC
 70
     2
  9
$SKETCHINC
 40
1.0
  9
$FILLETRAD
 40
10.0
  9
$AUNITS
 70
     0
  9
$AUPREC
 70
     2
  9
$MENU
  1
.
  9
$ELEVATION
 40
0.0
  9
$PELEVATION
 40
0.0
  9
$THICKNESS
 40
0.0
  9
$LIMCHECK
 70
     0
  9
$CHAMFERA
 40
0.0
  9
$CHAMFERB
 40
0.0
  9
$CHAMFERC
 40
0.0
  9
$CHAMFERD
 40
0.0
  9
$SKPOLY
 70
     0
  9
$TDCREATE
 40
2459723.563218588
  9
$TDUCREATE
 40
2459723.479885255
  9
$TDUPDATE
 40
2459723.563219792
  9
$TDUUPDATE
 40
2459723.479886458
  9
$TDINDWG
 40
0.0000000116
  9
$TDUSRTIMER
 40
0.0000000116
  9
$USRTIMER
 70
     1
  9
$ANGBASE
 50
0.0
  9
$ANGDIR
 70
     0
  9
$PDMODE
 70
     0
  9
$PDSIZE
 40
-1.0
  9
$PLINEWID
 40
0.0
  9
$SPLFRAME
 70
     0
  9
$SPLINETYPE
 70
     6
  9
$SPLINESEGS
 70
     8
  9
$HANDSEED
  5
33A
  9
$SURFTAB1
 70
     6
  9
$SURFTAB2
 70
     6
  9
$SURFTYPE
 70
     6
  9
$SURFU
 70
     6
  9
$SURFV
 70
     6
  9
$UCSBASE
  2

  9
$UCSNAME
  2

  9
$UCSORG
 10
0.0
 20
0.0
 30
0.0
  9
$UCSXDIR
 10
1.0
 20
0.0
 30
0.0
  9
$UCSYDIR
 10
0.0
 20
1.0
 30
0.0
  9
$UCSORTHOREF
  2

  9
$UCSORTHOVIEW
 70
     0
  9
$UCSORGTOP
 10
0.0
 20
0.0
 30
0.0
  9
$UCSORGBOTTOM
 10
0.0
 20
0.0
 30
0.0
  9
$UCSORGLEFT
 10
0.0
 20
0.0
 30
0.0
  9
$UCSORGRIGHT
 10
0.0
 20
0.0
 30
0.0
  9
$UCSORGFRONT
 10
0.0
 20
0.0
 30
0.0
  9
$UCSORGBACK
 10
0.0
 20
0.0
 30
0.0
  9
$PUCSBASE
  2

  9
$PUCSNAME
  2

  9
$PUCSORG
 10
0.0
 20
0.0
 30
0.0
  9
$PUCSXDIR
 10
1.0
 20
0.0
 30
0.0
  9
$PUCSYDIR
 10
0.0
 20
1.0
 30
0.0
  9
$PUCSORTHOREF
  2

  9
$PUCSORTHOVIEW
 70
     0
  9
$PUCSORGTOP
 10
0.0
 20
0.0
 30
0.0
  9
$PUCSORGBOTTOM
 10
0.0
 20
0.0
 30
0.0
  9
$PUCSORGLEFT
 10
0.0
 20
0.0
 30
0.0
  9
$PUCSORGRIGHT
 10
0.0
 20
0.0
 30
0.0
  9
$PUCSORGFRONT
 10
0.0
 20
0.0
 30
0.0
  9
$PUCSORGBACK
 10
0.0
 20
0.0
 30
0.0
  9
$USERI1
 70
     0
  9
$USERI2
 70
     0
  9
$USERI3
 70
     0
  9
$USERI4
 70
     0
  9
$USERI5
 70
     0
  9
$USERR1
 40
0.0
  9
$USERR2
 40
0.0
  9
$USERR3
 40
0.0
  9
$USERR4
 40
0.0
  9
$USERR5
 40
0.0
  9
$WORLDVIEW
 70
     1
  9
$SHADEDGE
 70
     3
  9
$SHADEDIF
 70
    70
  9
$TILEMODE
 70
     1
  9
$MAXACTVP
 70
    64
  9
$PINSBASE
 10
0.0
 20
0.0
 30
0.0
  9
$PLIMCHECK
 70
     0
  9
$PEXTMIN
 10
1.0000000000E+20
 20
1.0000000000E+20
 30
1.0000000000E+20
  9
$PEXTMAX
 10
-1.0000000000E+20
 20
-1.0000000000E+20
 30
-1.0000000000E+20
  9
$PLIMMIN
 10
0.0
 20
0.0
  9
$PLIMMAX
 10
420.0
 20
297.0
  9
$UNITMODE
 70
     0
  9
$VISRETAIN
 70
     1
  9
$PLINEGEN
 70
     0
  9
$PSLTSCALE
 70
     1
  9
$TREEDEPTH
 70
  3020
  9
$CMLSTYLE
  2
Standard
  9
$CMLJUST
 70
     0
  9
$CMLSCALE
 40
20.0
  9
$PROXYGRAPHICS
 70
     1
  9
$MEASUREMENT
 70
     1
  9
$CELWEIGHT
370
    -1
  9
$ENDCAPS
280
     0
  9
$JOINSTYLE
280
     0
  9
$LWDISPLAY
290
     1
  9
$INSUNITS
 70
     4
  9
$HYPERLINKBASE
  1

  9
$STYLESHEET
  1

  9
$XEDIT
290
     1
  9
$CEPSNTYPE
380
     0
  9
$PSTYLEMODE
290
     1
  9
$FINGERPRINTGUID
  2
{3DA70774-1E3E-4A42-BE3B-30B6A834360E}
  9
$VERSIONGUID
  2
{FAEB1C32-E019-11D5-929B-00C0DF256EC4}
  9
$EXTNAMES
290
     1
  9
$PSVPSCALE
 40
0.0
  9
$OLESTARTUP
290
     0
  0
ENDSEC
  0
SECTION
  2
CLASSES
  0
CLASS
  1
ACDBDICTIONARYWDFLT
  2
AcDbDictionaryWithDefault
  3
ObjectDBX Classes
 90
        0
280
     0
281
     0
  0
CLASS
  1
VISUALSTYLE
  2
AcDbVisualStyle
  3
ObjectDBX Classes
 90
     4095
280
     0
281
     0
  0
CLASS
  1
MATERIAL
  2
AcDbMaterial
  3
ObjectDBX Classes
 90
     1153
280
     0
281
     0
  0
CLASS
  1
SCALE
  2
AcDbScale
  3
ObjectDBX Classes
 90
     1153
280
     0
281
     0
  0
CLASS
  1
TABLESTYLE
  2
AcDbTableStyle
  3
ObjectDBX Classes
 90
     4095
280
     0
281
     0
  0
CLASS
  1
MLEADERSTYLE
  2
AcDbMLeaderStyle
  3
ACDB_MLEADERSTYLE_CLASS
 90
     4095
280
     0
281
     0
  0
CLASS
  1
SUN
  2
AcDbSun
  3
SCENEOE
 90
     1153
280
     0
281
     0
  0
CLASS
  1
ACDBPLACEHOLDER
  2
AcDbPlaceHolder
  3
ObjectDBX Classes
 90
        0
280
     0
281
     0
  0
CLASS
  1
LAYOUT
  2
AcDbLayout
  3
ObjectDBX Classes
 90
        0
280
     0
281
     0
  0
ENDSEC
  0
SECTION
  2
TABLES
  0
TABLE
  2
VPORT
  5
8
330
0
100
AcDbSymbolTable
 70
     1
  0
VPORT
  5
29
330
8
100
AcDbSymbolTableRecord
100
AcDbViewportTableRecord
  2
*Active
 70
     0
 10
0.0
 20
0.0
 11
1.0
 21
1.0
 12
148.5
 22
105.0
 13
0.0
 23
0.0
 14
10.0
 24
10.0
 15
10.0
 25
10.0
 16
0.0
 26
0.0
 36
1.0
 17
0.0
 27
0.0
 37
0.0
 40
210.0
 41
1.4142857143
 42
50.0
 43
0.0
 44
0.0
 50
0.0
 51
0.0
 71
     0
 72
  2000
 73
     1
 74
     3
 75
     0
 76
     0
 77
     0
 78
     0
281
     0
 65
     1
110
0.0
120
0.0
130
0.0
111
1.0
121
0.0
131
0.0
112
0.0
122
1.0
132
0.0
 79
     0
146
0.0
  0
ENDTAB
  0
TABLE
  2
LTYPE
  5
5
330
0
100
AcDbSymbolTable
 70
     6
  0
LTYPE
  5
14
330
5
100
AcDbSymbolTableRecord
100
AcDbLinetypeTableRecord
  2
ByBlock
 70
     0
  3

 72
    65
 73
     0
 40
0.0
  0
LTYPE
  5
15
330
5
100
AcDbSymbolTableRecord
100
AcDbLinetypeTableRecord
  2
ByLayer
 70
     0
  3

 72
    65
 73
     0
 40
0.0
  0
LTYPE
  5
16
330
5
100
AcDbSymbolTableRecord
100
AcDbLinetypeTableRecord
  2
Continuous
 70
     0
  3
Solid line
 72
    65
 73
     0
 40
0.0
  0
LTYPE
  5
6E
330
5
100
AcDbSymbolTableRecord
100
AcDbLinetypeTableRecord
  2
HIDDEN
 70
     0
  3
Hidden __ __ __ __ __ __ __ __ __ __ __ __ __ __
 72
    65
 73
     2
 40
1.905
 49
1.27
 74
     0
 49
-0.635
 74
     0
  0
LTYPE
  5
6F
330
5
100
AcDbSymbolTableRecord
100
AcDbLinetypeTableRecord
  2
PHANTOM
 70
     0
  3
Phantom ______  __  __  ______  __  __  ______
 72
    65
 73
     6
 40
12.7
 49
6.35
 74
     0
 49
-1.27
 74
     0
 49
1.27
 74
     0
 49
-1.27
 74
     0
 49
1.27
 74
     0
 49
-1.27
 74
     0
  0
LTYPE
  5
70
330
5
100
AcDbSymbolTableRecord
100
AcDbLinetypeTableRecord
  2
CENTER
 70
     0
  3
Center ____ _ ____ _ ____ _ ____ _ ____ _ ____
 72
    65
 73
     4
 40
10.16
 49
6.35
 74
     0
 49
-1.27
 74
     0
 49
1.27
 74
     0
 49
-1.27
 74
     0
  0
LTYPE
  5
71
330
5
100
AcDbSymbolTableRecord
100
AcDbLinetypeTableRecord
  2
CENTERX2
 70
     0
  3
Center (2x) ________  __  ________  __  _____
 72
    65
 73
     4
 40
20.32
 49
12.7
 74
     0
 49
-2.54
 74
     0
 49
2.54
 74
     0
 49
-2.54
 74
     0
  0
LTYPE
  5
72
330
5
100
AcDbSymbolTableRecord
100
AcDbLinetypeTableRecord
  2
DOT2
 70
     0
  3
Dot (.5x) ........................................
 72
    65
 73
     2
 40
0.635
 49
0.0
 74
     0
 49
-0.635
 74
     0
  0
ENDTAB
  0
TABLE
  2
LAYER
  5
2
330
0
100
AcDbSymbolTable
 70
    12
  0
LAYER
  5
10
330
2
100
AcDbSymbolTableRecord
100
AcDbLayerTableRecord
  2
0
 70
     0
 62
     7
  6
Continuous
370
    -3
390
F
  0
LAYER
  5
73
330
2
100
AcDbSymbolTableRecord
100
AcDbLayerTableRecord
  2
SLD-0
 70
     0
 62
   179
  6
Continuous
370
    -3
390
F
  0
LAYER
  5
74
330
2
100
AcDbSymbolTableRecord
100
AcDbLayerTableRecord
  2
80
 70
     0
 62
    -6
  6
Continuous
290
     0
370
    -3
390
F
  0
LAYER
  5
75
330
2
100
AcDbSymbolTableRecord
100
AcDbLayerTableRecord
  2
81
 70
     0
 62
    -3
  6
Continuous
290
     0
370
    -3
390
F
  0
LAYER
  5
76
330
2
100
AcDbSymbolTableRecord
100
AcDbLayerTableRecord
  2
1
 70
     0
 62
     4
  6
Continuous
290
     0
370
    -3
390
F
  0
LAYER
  5
77
330
2
100
AcDbSymbolTableRecord
100
AcDbLayerTableRecord
  2
4
 70
     0
 62
    -2
  6
CENTER
290
     0
370
    -3
390
F
  0
LAYER
  5
78
330
2
100
AcDbSymbolTableRecord
100
AcDbLayerTableRecord
  2
2
 70
     0
 62
     7
  6
Continuous
290
     0
370
    -3
390
F
  0
LAYER
  5
79
330
2
100
AcDbSymbolTableRecord
100
AcDbLayerTableRecord
  2
SK3
 70
     0
 62
     1
  6
HIDDEN
290
     0
370
    -3
390
F
  0
LAYER
  5
7A
330
2
100
AcDbSymbolTableRecord
100
AcDbLayerTableRecord
  2
SK4
 70
     0
 62
     2
  6
CENTER
290
     0
370
    -3
390
F
  0
LAYER
  5
7B
330
2
100
AcDbSymbolTableRecord
100
AcDbLayerTableRecord
  2
SK2
 70
     0
 62
     7
  6
Continuous
290
     0
370
    -3
390
F
  0
LAYER
  5
7C
330
2
100
AcDbSymbolTableRecord
100
AcDbLayerTableRecord
  2
SK6
 70
     0
 62
     5
  6
Continuous
290
     0
370
    -3
390
F
  0
LAYER
  5
7D
330
2
100
AcDbSymbolTableRecord
100
AcDbLayerTableRecord
  2
SK1
 70
     0
 62
     4
  6
Continuous
370
    -3
390
F
  0
ENDTAB
  0
TABLE
  2
STYLE
  5
3
330
0
100
AcDbSymbolTable
 70
     2
  0
STYLE
  5
11
330
3
100
AcDbSymbolTableRecord
100
AcDbTextStyleTableRecord
  2
Standard
 70
     0
 40
0.0
 41
1.0
 50
0.0
 71
     0
 42
3.5
  3
txt
  4

  0
STYLE
  5
2CD
330
3
100
AcDbSymbolTableRecord
100
AcDbTextStyleTableRecord
  2
SLDTEXTSTYLE0
 70
     0
 40
0.0
 41
0.75
 50
0.0
 71
     0
 42
3.5
  3
TXT
  4

  0
ENDTAB
  0
TABLE
  2
VIEW
  5
6
330
0
100
AcDbSymbolTable
 70
     0
  0
ENDTAB
  0
TABLE
  2
UCS
  5
7
330
0
100
AcDbSymbolTable
 70
     0
  0
ENDTAB
  0
TABLE
  2
APPID
  5
9
330
0
100
AcDbSymbolTable
 70
     1
  0
APPID
  5
12
330
9
100
AcDbSymbolTableRecord
100
AcDbRegAppTableRecord
  2
ACAD
 70
     0
  0
ENDTAB
  0
TABLE
  2
DIMSTYLE
  5
A
330
0
100
AcDbSymbolTable
 70
     3
100
AcDbDimStyleTable
  0
DIMSTYLE
105
27
330
A
100
AcDbSymbolTableRecord
100
AcDbDimStyleTableRecord
  2
ISO-25
 70
     0
 41
2.5
 42
0.625
 43
3.75
 44
1.25
 73
     0
 74
     0
 77
     1
 78
     8
140
2.5
141
2.5
143
0.0393700787
147
0.625
171
     3
172
     1
178
     0
271
     2
272
     2
274
     3
278
    44
283
     0
284
     8
340
11
  0
DIMSTYLE
105
2CE
102
{ACAD_REACTORS
330
2CC
330
2D9
330
2F0
330
2FA
330
304
330
30E
330
318
330
323
330
32E
102
}
330
A
100
AcDbSymbolTableRecord
100
AcDbDimStyleTableRecord
  2
SLDDIMSTYLE0
 70
     0
 41
3.302
 44
0.0
 45
0.000000001
 73
     0
 74
     0
 77
     1
 78
    12
 79
     3
140
3.5
147
0.875
173
     1
178
     0
271
     2
272
     2
276
     2
284
    12
340
2CD
  0
DIMSTYLE
105
2E5
102
{ACAD_REACTORS
330
2E4
102
}
330
A
100
AcDbSymbolTableRecord
100
AcDbDimStyleTableRecord
  2
SLDDIMSTYLE1
 70
     0
 41
3.302
 44
0.0
 45
0.000000001
 73
     0
 74
     0
 77
     1
 78
    12
 79
     3
140
3.5
147
0.875
173
     1
178
     0
271
     0
272
     2
276
     2
284
    12
340
2CD
  0
ENDTAB
  0
TABLE
  2
BLOCK_RECORD
  5
1
330
0
100
AcDbSymbolTable
 70
    13
  0
BLOCK_RECORD
  5
1F
330
1
100
AcDbSymbolTableRecord
100
AcDbBlockTableRecord
  2
*Model_Space
340
22
  0
BLOCK_RECORD
  5
1B
330
1
100
AcDbSymbolTableRecord
100
AcDbBlockTableRecord
  2
*Paper_Space
340
1E
  0
BLOCK_RECORD
  5
23
330
1
100
AcDbSymbolTableRecord
100
AcDbBlockTableRecord
  2
*Paper_Space0
340
26
  0
BLOCK_RECORD
  5
7E
330
1
100
AcDbSymbolTableRecord
100
AcDbBlockTableRecord
  2
Block11
340
0
102
{BLKREFS
331
2CA
102
}
  0
BLOCK_RECORD
  5
87
330
1
100
AcDbSymbolTableRecord
100
AcDbBlockTableRecord
  2
Block12
340
0
102
{BLKREFS
331
2CB
102
}
  0
BLOCK_RECORD
  5
2CF
330
1
100
AcDbSymbolTableRecord
100
AcDbBlockTableRecord
  2
_D
340
0
  0
BLOCK_RECORD
  5
2DA
330
1
100
AcDbSymbolTableRecord
100
AcDbBlockTableRecord
  2
_D_1
340
0
  0
BLOCK_RECORD
  5
2E6
330
1
100
AcDbSymbolTableRecord
100
AcDbBlockTableRecord
  2
_D_2
340
0
  0
BLOCK_RECORD
  5
2F1
330
1
100
AcDbSymbolTableRecord
100
AcDbBlockTableRecord
  2
_D_3
340
0
  0
BLOCK_RECORD
  5
2FB
330
1
100
AcDbSymbolTableRecord
100
AcDbBlockTableRecord
  2
_D_4
340
0
  0
BLOCK_RECORD
  5
305
330
1
100
AcDbSymbolTableRecord
100
AcDbBlockTableRecord
  2
_D_5
340
0
  0
BLOCK_RECORD
  5
30F
330
1
100
AcDbSymbolTableRecord
100
AcDbBlockTableRecord
  2
_D_6
340
0
  0
BLOCK_RECORD
  5
319
330
1
100
AcDbSymbolTableRecord
100
AcDbBlockTableRecord
  2
_D_7
340
0
  0
BLOCK_RECORD
  5
324
330
1
100
AcDbSymbolTableRecord
100
AcDbBlockTableRecord
  2
_D_8
340
0
  0
BLOCK_RECORD
  5
32F
330
1
100
AcDbSymbolTableRecord
100
AcDbBlockTableRecord
  2
_D_9
340
0
  0
ENDTAB
  0
ENDSEC
  0
SECTION
  2
BLOCKS
  0
BLOCK
  5
20
330
1F
100
AcDbEntity
  8
0
100
AcDbBlockBegin
  2
*Model_Space
 70
     0
 10
0.0
 20
0.0
 30
0.0
  3
*Model_Space
  1

  0
ENDBLK
  5
21
330
1F
100
AcDbEntity
  8
0
100
AcDbBlockEnd
  0
BLOCK
  5
1C
330
1B
100
AcDbEntity
 67
     1
  8
0
100
AcDbBlockBegin
  2
*Paper_Space
 70
     0
 10
0.0
 20
0.0
 30
0.0
  3
*Paper_Space
  1

  0
ENDBLK
  5
1D
330
1B
100
AcDbEntity
 67
     1
  8
0
100
AcDbBlockEnd
  0
BLOCK
  5
24
330
23
100
AcDbEntity
  8
0
100
AcDbBlockBegin
  2
*Paper_Space0
 70
     0
 10
0.0
 20
0.0
 30
0.0
  3
*Paper_Space0
  1

  0
ENDBLK
  5
25
330
23
100
AcDbEntity
  8
0
100
AcDbBlockEnd
  0
BLOCK
  5
7F
330
7E
100
AcDbEntity
  8
0
100
AcDbBlockBegin
  2
Block11
 70
     0
 10
0.0
 20
0.0
 30
0.0
  3
Block11
  1

  0
CIRCLE
  5
81
330
7E
100
AcDbEntity
  8
81
370
    18
100
AcDbCircle
 10
91.6264826505
 20
130.2676275275
 30
0.0
 40
2.499999999999981
  0
LINE
  5
82
330
7E
100
AcDbEntity
  8
81
370
    18
100
AcDbLine
 10
91.6264826505
 20
130.2676275275
 30
0.0
 11
95.1620165565
 21
133.8031614334
 31
0.0
  0
LINE
  5
83
330
7E
100
AcDbEntity
  8
81
370
    18
100
AcDbLine
 10
91.6264826505
 20
130.2676275275
 30
0.0
 11
88.0909487446
 21
126.7320936216
 31
0.0
  0
LINE
  5
84
330
7E
100
AcDbEntity
  8
81
370
    18
100
AcDbLine
 10
91.6264826505
 20
130.2676275275
 30
0.0
 11
88.0909487446
 21
133.8031614334
 31
0.0
  0
LINE
  5
85
330
7E
100
AcDbEntity
  8
81
100
AcDbLine
 10
91.6264826505
 20
130.2676275275
 30
0.0
 11
101.6264826505
 21
130.2676275275
 31
0.0
  0
LINE
  5
86
330
7E
100
AcDbEntity
  8
81
370
    18
100
AcDbLine
 10
91.6264826505
 20
130.2676275275
 30
0.0
 11
95.1620165565
 21
126.7320936216
 31
0.0
  0
ENDBLK
  5
80
330
7E
100
AcDbEntity
  8
0
100
AcDbBlockEnd
  0
BLOCK
  5
88
330
87
100
AcDbEntity
  8
0
100
AcDbBlockBegin
  2
Block12
 70
     0
 10
0.0
 20
0.0
 30
0.0
  3
Block12
  1

  0
CIRCLE
  5
8A
330
87
100
AcDbEntity
  8
80
370
    18
100
AcDbCircle
 10
61.7273641656
 20
130.3356800267
 30
0.0
 40
2.500000000000004
  0
LINE
  5
8B
330
87
100
AcDbEntity
  8
80
370
    18
100
AcDbLine
 10
61.7273641656
 20
130.3356800267
 30
0.0
 11
65.2628980715
 21
133.8712139326
 31
0.0
  0
LINE
  5
8C
330
87
100
AcDbEntity
  8
80
370
    18
100
AcDbLine
 10
61.7273641656
 20
130.3356800267
 30
0.0
 11
58.1918302597
 21
126.8001461208
 31
0.0
  0
LINE
  5
8D
330
87
100
AcDbEntity
  8
80
370
    18
100
AcDbLine
 10
61.7273641656
 20
130.3356800267
 30
0.0
 11
58.1918302597
 21
133.8712139326
 31
0.0
  0
LINE
  5
8E
330
87
100
AcDbEntity
  8
80
370
    18
100
AcDbLine
 10
61.7273641656
 20
130.3356800267
 30
0.0
 11
51.7273641656
 21
130.3356800267
 31
0.0
  0
LINE
  5
8F
330
87
100
AcDbEntity
  8
80
370
    18
100
AcDbLine
 10
61.7273641656
 20
130.3356800267
 30
0.0
 11
65.2628980715
 21
126.8001461208
 31
0.0
  0
ENDBLK
  5
89
330
87
100
AcDbEntity
  8
0
100
AcDbBlockEnd
  0
BLOCK
  5
2D0
330
2CF
100
AcDbEntity
  8
0
100
AcDbBlockBegin
  2
_D
 70
     0
 10
0.0
 20
0.0
 30
0.0
  3
_D
  1

  0
SOLID
  5
2D2
330
2CF
100
AcDbEntity
  8
SK2
100
AcDbTrace
 10
-71.0590692746
 20
-8.0
 30
0.0
 11
-70.5510692746
 21
-4.698
 31
0.0
 12
-71.5670692746
 22
-4.698
 32
0.0
 13
-71.5670692746
 23
-4.698
 33
0.0
  0
SOLID
  5
2D3
330
2CF
100
AcDbEntity
  8
SK2
100
AcDbTrace
 10
-71.0590692746
 20
8.0
 30
0.0
 11
-71.5670692746
 21
4.698
 31
0.0
 12
-70.5510692746
 22
4.698
 32
0.0
 13
-70.5510692746
 23
4.698
 33
0.0
  0
LINE
  5
2D4
330
2CF
100
AcDbEntity
  8
SK2
100
AcDbLine
 10
-56.6881197846
 20
-8.0
 30
0.0
 11
-72.0590692746
 21
-8.0
 31
0.0
  0
LINE
  5
2D5
330
2CF
100
AcDbEntity
  8
SK2
100
AcDbLine
 10
-56.6881197846
 20
8.0
 30
0.0
 11
-72.0590692746
 21
8.0
 31
0.0
  0
LINE
  5
2D6
330
2CF
100
AcDbEntity
  8
SK2
100
AcDbLine
 10
-71.0590692746
 20
-8.0
 30
0.0
 11
-71.0590692746
 21
8.0
 31
0.0
  0
MTEXT
  5
2D7
330
2CF
100
AcDbEntity
  8
SK2
100
AcDbMText
 10
-75.5708061892
 20
-4.3272406916
 30
0.0
 40
3.5
 41
0.0
 71
     1
 72
     1
  1
M
  7
SLDTEXTSTYLE0
 11
6.123233995736766E-17
 21
1.0
 31
0.0
 73
     1
 44
1.0
  0
MTEXT
  5
2D8
330
2CF
100
AcDbEntity
  8
SK2
100
AcDbMText
 10
-75.5708061892
 20
-0.0397407572
 30
0.0
 40
3.5
 41
0.0
 71
     1
 72
     1
  1
16
  7
SLDTEXTSTYLE0
 11
6.123233995736766E-17
 21
1.0
 31
0.0
 73
     1
 44
1.0
  0
ENDBLK
  5
2D1
330
2CF
100
AcDbEntity
  8
0
100
AcDbBlockEnd
  0
BLOCK
  5
2DB
330
2DA
100
AcDbEntity
  8
0
100
AcDbBlockBegin
  2
_D_1
 70
     0
 10
0.0
 20
0.0
 30
0.0
  3
_D_1
  1

  0
SOLID
  5
2DD
330
2DA
100
AcDbEntity
  8
SK2
100
AcDbTrace
 10
-81.0313303732
 20
22.225
 30
0.0
 11
-81.5393303732
 21
18.923
 31
0.0
 12
-80.5233303732
 22
18.923
 32
0.0
 13
-80.5233303732
 23
18.923
 33
0.0
  0
SOLID
  5
2DE
330
2DA
100
AcDbEntity
  8
SK2
100
AcDbTrace
 10
-81.0313303732
 20
-22.225
 30
0.0
 11
-80.5233303732
 21
-18.923
 31
0.0
 12
-81.5393303732
 22
-18.923
 32
0.0
 13
-81.5393303732
 23
-18.923
 33
0.0
  0
LINE
  5
2DF
330
2DA
100
AcDbEntity
  8
SK2
100
AcDbLine
 10
-1.0
 20
22.225
 30
0.0
 11
-82.0313303732
 21
22.225
 31
0.0
  0
LINE
  5
2E0
330
2DA
100
AcDbEntity
  8
SK2
100
AcDbLine
 10
-1.0
 20
-22.225
 30
0.0
 11
-82.0313303732
 21
-22.225
 31
0.0
  0
LINE
  5
2E1
330
2DA
100
AcDbEntity
  8
SK2
100
AcDbLine
 10
-81.0313303732
 20
22.225
 30
0.0
 11
-81.0313303732
 21
-22.225
 31
0.0
  0
MTEXT
  5
2E2
330
2DA
100
AcDbEntity
  8
SK2
100
AcDbMText
 10
-85.5430674624
 20
-8.0553482409
 30
0.0
 40
3.5
 41
0.0
 71
     1
 72
     1
  1
%%c
  7
SLDTEXTSTYLE0
 11
-7.044195017643634E-15
 21
1.0
 31
0.0
 73
     1
 44
1.0
  0
MTEXT
  5
2E3
330
2DA
100
AcDbEntity
  8
SK2
100
AcDbMText
 10
-85.596539639
 20
-2.7769108425
 30
0.0
 40
3.5
 41
0.0
 71
     1
 72
     1
  1
44,45
  7
SLDTEXTSTYLE0
 11
-7.044195017643634E-15
 21
1.0
 31
0.0
 73
     1
 44
1.0
  0
ENDBLK
  5
2DC
330
2DA
100
AcDbEntity
  8
0
100
AcDbBlockEnd
  0
BLOCK
  5
2E7
330
2E6
100
AcDbEntity
  8
0
100
AcDbBlockBegin
  2
_D_2
 70
     0
 10
0.0
 20
0.0
 30
0.0
  3
_D_2
  1

  0
SOLID
  5
2E9
330
2E6
100
AcDbEntity
  8
SK2
100
AcDbTrace
 10
-91.8463517531
 20
31.474895054
 30
0.0
 11
-92.3543517531
 21
28.172895054
 31
0.0
 12
-91.3383517531
 22
28.172895054
 32
0.0
 13
-91.3383517531
 23
28.172895054
 33
0.0
  0
SOLID
  5
2EA
330
2E6
100
AcDbEntity
  8
SK2
100
AcDbTrace
 10
-91.8463517531
 20
-31.474895054
 30
0.0
 11
-91.3383517531
 21
-28.172895054
 31
0.0
 12
-92.3543517531
 22
-28.172895054
 32
0.0
 13
-92.3543517531
 23
-28.172895054
 33
0.0
  0
LINE
  5
2EB
330
2E6
100
AcDbEntity
  8
SK2
100
AcDbLine
 10
22.8749115524
 20
31.474895054
 30
0.0
 11
-92.8463517531
 21
31.474895054
 31
0.0
  0
LINE
  5
2EC
330
2E6
100
AcDbEntity
  8
SK2
100
AcDbLine
 10
22.8749115472
 20
-31.474895054
 30
0.0
 11
-92.8463517531
 21
-31.474895054
 31
0.0
  0
LINE
  5
2ED
330
2E6
100
AcDbEntity
  8
SK2
100
AcDbLine
 10
-91.8463517531
 20
31.474895054
 30
0.0
 11
-91.8463517531
 21
-31.474895054
 31
0.0
  0
MTEXT
  5
2EE
330
2E6
100
AcDbEntity
  8
SK2
100
AcDbMText
 10
-96.3580888423
 20
-4.8227094236
 30
0.0
 40
3.5
 41
0.0
 71
     1
 72
     1
  1
%%c
  7
SLDTEXTSTYLE0
 11
-7.044195017643634E-15
 21
1.0
 31
0.0
 73
     1
 44
1.0
  0
MTEXT
  5
2EF
330
2E6
100
AcDbEntity
  8
SK2
100
AcDbMText
 10
-96.411561019
 20
0.4557279748
 30
0.0
 40
3.5
 41
0.0
 71
     1
 72
     1
  1
63
  7
SLDTEXTSTYLE0
 11
-7.044195017643634E-15
 21
1.0
 31
0.0
 73
     1
 44
1.0
  0
ENDBLK
  5
2E8
330
2E6
100
AcDbEntity
  8
0
100
AcDbBlockEnd
  0
BLOCK
  5
2F2
330
2F1
100
AcDbEntity
  8
0
100
AcDbBlockBegin
  2
_D_3
 70
     0
 10
0.0
 20
0.0
 30
0.0
  3
_D_3
  1

  0
SOLID
  5
2F4
330
2F1
100
AcDbEntity
  8
SK2
100
AcDbTrace
 10
0.0
 20
39.797220155
 30
0.0
 11
3.302
 21
39.289220155
 31
0.0
 12
3.302
 22
40.305220155
 32
0.0
 13
3.302
 23
40.305220155
 33
0.0
  0
SOLID
  5
2F5
330
2F1
100
AcDbEntity
  8
SK2
100
AcDbTrace
 10
27.0
 20
39.797220155
 30
0.0
 11
23.698
 21
40.305220155
 31
0.0
 12
23.698
 22
39.289220155
 32
0.0
 13
23.698
 23
39.289220155
 33
0.0
  0
LINE
  5
2F6
330
2F1
100
AcDbEntity
  8
SK2
100
AcDbLine
 10
0.0
 20
23.225
 30
0.0
 11
0.0
 21
40.797220155
 31
0.0
  0
LINE
  5
2F7
330
2F1
100
AcDbEntity
  8
SK2
100
AcDbLine
 10
27.0
 20
31.724895054
 30
0.0
 11
27.0
 21
40.797220155
 31
0.0
  0
LINE
  5
2F8
330
2F1
100
AcDbEntity
  8
SK2
100
AcDbLine
 10
0.0
 20
39.797220155
 30
0.0
 11
27.0
 21
39.797220155
 31
0.0
  0
MTEXT
  5
2F9
330
2F1
100
AcDbEntity
  8
SK2
100
AcDbMText
 10
11.0153018363
 20
44.3089570695
 30
0.0
 40
3.5
 41
0.0
 71
     1
 72
     1
  1
27
  7
SLDTEXTSTYLE0
 73
     1
 44
1.0
  0
ENDBLK
  5
2F3
330
2F1
100
AcDbEntity
  8
0
100
AcDbBlockEnd
  0
BLOCK
  5
2FC
330
2FB
100
AcDbEntity
  8
0
100
AcDbBlockBegin
  2
_D_4
 70
     0
 10
0.0
 20
0.0
 30
0.0
  3
_D_4
  1

  0
SOLID
  5
2FE
330
2FB
100
AcDbEntity
  8
SK2
100
AcDbTrace
 10
27.0
 20
39.797220155
 30
0.0
 11
30.302
 21
39.289220155
 31
0.0
 12
30.302
 22
40.305220155
 32
0.0
 13
30.302
 23
40.305220155
 33
0.0
  0
SOLID
  5
2FF
330
2FB
100
AcDbEntity
  8
SK2
100
AcDbTrace
 10
160.0
 20
39.797220155
 30
0.0
 11
156.698
 21
40.305220155
 31
0.0
 12
156.698
 22
39.289220155
 32
0.0
 13
156.698
 23
39.289220155
 33
0.0
  0
LINE
  5
300
330
2FB
100
AcDbEntity
  8
SK2
100
AcDbLine
 10
27.0
 20
31.724895054
 30
0.0
 11
27.0
 21
40.797220155
 31
0.0
  0
LINE
  5
301
330
2FB
100
AcDbEntity
  8
SK2
100
AcDbLine
 10
160.0
 20
24.5
 30
0.0
 11
160.0
 21
40.797220155
 31
0.0
  0
LINE
  5
302
330
2FB
100
AcDbEntity
  8
SK2
100
AcDbLine
 10
27.0
 20
39.797220155
 30
0.0
 11
160.0
 21
39.797220155
 31
0.0
  0
MTEXT
  5
303
330
2FB
100
AcDbEntity
  8
SK2
100
AcDbMText
 10
84.8742593965
 20
44.3089570695
 30
0.0
 40
3.5
 41
0.0
 71
     1
 72
     1
  1
133
  7
SLDTEXTSTYLE0
 73
     1
 44
1.0
  0
ENDBLK
  5
2FD
330
2FB
100
AcDbEntity
  8
0
100
AcDbBlockEnd
  0
BLOCK
  5
306
330
305
100
AcDbEntity
  8
0
100
AcDbBlockBegin
  2
_D_5
 70
     0
 10
0.0
 20
0.0
 30
0.0
  3
_D_5
  1

  0
SOLID
  5
308
330
305
100
AcDbEntity
  8
SK2
100
AcDbTrace
 10
160.0
 20
39.797220155
 30
0.0
 11
163.302
 21
39.289220155
 31
0.0
 12
163.302
 22
40.305220155
 32
0.0
 13
163.302
 23
40.305220155
 33
0.0
  0
SOLID
  5
309
330
305
100
AcDbEntity
  8
SK2
100
AcDbTrace
 10
179.0
 20
39.797220155
 30
0.0
 11
175.698
 21
40.305220155
 31
0.0
 12
175.698
 22
39.289220155
 32
0.0
 13
175.698
 23
39.289220155
 33
0.0
  0
LINE
  5
30A
330
305
100
AcDbEntity
  8
SK2
100
AcDbLine
 10
160.0
 20
24.5
 30
0.0
 11
160.0
 21
40.797220155
 31
0.0
  0
LINE
  5
30B
330
305
100
AcDbEntity
  8
SK2
100
AcDbLine
 10
179.0
 20
11.4710190579
 30
0.0
 11
179.0
 21
40.797220155
 31
0.0
  0
LINE
  5
30C
330
305
100
AcDbEntity
  8
SK2
100
AcDbLine
 10
160.0
 20
39.797220155
 30
0.0
 11
179.0
 21
39.797220155
 31
0.0
  0
MTEXT
  5
30D
330
305
100
AcDbEntity
  8
SK2
100
AcDbMText
 10
166.7006642204
 20
44.3089570695
 30
0.0
 40
3.5
 41
0.0
 71
     1
 72
     1
  1
19
  7
SLDTEXTSTYLE0
 73
     1
 44
1.0
  0
ENDBLK
  5
307
330
305
100
AcDbEntity
  8
0
100
AcDbBlockEnd
  0
BLOCK
  5
310
330
30F
100
AcDbEntity
  8
0
100
AcDbBlockBegin
  2
_D_6
 70
     0
 10
0.0
 20
0.0
 30
0.0
  3
_D_6
  1

  0
SOLID
  5
312
330
30F
100
AcDbEntity
  8
2
100
AcDbTrace
 10
0.0
 20
49.7942080905
 30
0.0
 11
3.302
 21
49.2862080905
 31
0.0
 12
3.302
 22
50.3022080905
 32
0.0
 13
3.302
 23
50.3022080905
 33
0.0
  0
SOLID
  5
313
330
30F
100
AcDbEntity
  8
2
100
AcDbTrace
 10
160.0
 20
49.7942080905
 30
0.0
 11
156.698
 21
50.3022080905
 31
0.0
 12
156.698
 22
49.2862080905
 32
0.0
 13
156.698
 23
49.2862080905
 33
0.0
  0
LINE
  5
314
330
30F
100
AcDbEntity
  8
2
100
AcDbLine
 10
0.0
 20
23.225
 30
0.0
 11
0.0
 21
50.7942080905
 31
0.0
  0
LINE
  5
315
330
30F
100
AcDbEntity
  8
2
100
AcDbLine
 10
160.0
 20
24.5
 30
0.0
 11
160.0
 21
50.7942080905
 31
0.0
  0
LINE
  5
316
330
30F
100
AcDbEntity
  8
2
100
AcDbLine
 10
0.0
 20
49.7942080905
 30
0.0
 11
160.0
 21
49.7942080905
 31
0.0
  0
MTEXT
  5
317
330
30F
100
AcDbEntity
  8
2
100
AcDbMText
 10
76.728853113
 20
54.3059450051
 30
0.0
 40
3.5
 41
0.0
 71
     1
 72
     1
  1
160
  7
SLDTEXTSTYLE0
 73
     1
 44
1.0
  0
ENDBLK
  5
311
330
30F
100
AcDbEntity
  8
0
100
AcDbBlockEnd
  0
BLOCK
  5
31A
330
319
100
AcDbEntity
  8
0
100
AcDbBlockBegin
  2
_D_7
 70
     0
 10
0.0
 20
0.0
 30
0.0
  3
_D_7
  1

  0
SOLID
  5
31C
330
319
100
AcDbEntity
  8
SK2
100
AcDbTrace
 10
211.4855835804
 20
24.0
 30
0.0
 11
210.9775835804
 21
20.698
 31
0.0
 12
211.9935835804
 22
20.698
 32
0.0
 13
211.9935835804
 23
20.698
 33
0.0
  0
SOLID
  5
31D
330
319
100
AcDbEntity
  8
SK2
100
AcDbTrace
 10
211.4855835804
 20
-24.0
 30
0.0
 11
211.9935835804
 21
-20.698
 31
0.0
 12
210.9775835804
 22
-20.698
 32
0.0
 13
210.9775835804
 23
-20.698
 33
0.0
  0
LINE
  5
31E
330
319
100
AcDbEntity
  8
SK2
100
AcDbLine
 10
160.5
 20
24.0
 30
0.0
 11
212.4855835804
 21
24.0
 31
0.0
  0
LINE
  5
31F
330
319
100
AcDbEntity
  8
SK2
100
AcDbLine
 10
160.5
 20
-24.0
 30
0.0
 11
212.4855835804
 21
-24.0
 31
0.0
  0
LINE
  5
320
330
319
100
AcDbEntity
  8
SK2
100
AcDbLine
 10
211.4855835804
 20
24.0
 30
0.0
 11
211.4855835804
 21
-24.0
 31
0.0
  0
MTEXT
  5
321
330
319
100
AcDbEntity
  8
SK2
100
AcDbMText
 10
206.9738464912
 20
-5.5935827814
 30
0.0
 40
3.5
 41
0.0
 71
     1
 72
     1
  1
%%c
  7
SLDTEXTSTYLE0
 11
-7.044195017643634E-15
 21
1.0
 31
0.0
 73
     1
 44
1.0
  0
MTEXT
  5
322
330
319
100
AcDbEntity
  8
SK2
100
AcDbMText
 10
206.9203743145
 20
-0.315145383
 30
0.0
 40
3.5
 41
0.0
 71
     1
 72
     1
  1
48
  7
SLDTEXTSTYLE0
 11
-7.044195017643634E-15
 21
1.0
 31
0.0
 73
     1
 44
1.0
  0
ENDBLK
  5
31B
330
319
100
AcDbEntity
  8
0
100
AcDbBlockEnd
  0
BLOCK
  5
325
330
324
100
AcDbEntity
  8
0
100
AcDbBlockBegin
  2
_D_8
 70
     0
 10
0.0
 20
0.0
 30
0.0
  3
_D_8
  1

  0
SOLID
  5
327
330
324
100
AcDbEntity
  8
SK2
100
AcDbTrace
 10
201.6458157179
 20
11.0
 30
0.0
 11
201.1378157179
 21
7.698
 31
0.0
 12
202.1538157179
 22
7.698
 32
0.0
 13
202.1538157179
 23
7.698
 33
0.0
  0
SOLID
  5
328
330
324
100
AcDbEntity
  8
SK2
100
AcDbTrace
 10
201.6458157179
 20
-11.0
 30
0.0
 11
202.1538157179
 21
-7.698
 31
0.0
 12
201.1378157179
 22
-7.698
 32
0.0
 13
201.1378157179
 23
-7.698
 33
0.0
  0
LINE
  5
329
330
324
100
AcDbEntity
  8
SK2
100
AcDbLine
 10
177.0
 20
11.0
 30
0.0
 11
202.6458157179
 21
11.0
 31
0.0
  0
LINE
  5
32A
330
324
100
AcDbEntity
  8
SK2
100
AcDbLine
 10
177.0
 20
-11.0
 30
0.0
 11
202.6458157179
 21
-11.0
 31
0.0
  0
LINE
  5
32B
330
324
100
AcDbEntity
  8
SK2
100
AcDbLine
 10
201.6458157179
 20
11.0
 30
0.0
 11
201.6458157179
 21
-11.0
 31
0.0
  0
MTEXT
  5
32C
330
324
100
AcDbEntity
  8
SK2
100
AcDbMText
 10
197.1340786287
 20
-5.5935827814
 30
0.0
 40
3.5
 41
0.0
 71
     1
 72
     1
  1
%%c
  7
SLDTEXTSTYLE0
 11
-7.044195017643634E-15
 21
1.0
 31
0.0
 73
     1
 44
1.0
  0
MTEXT
  5
32D
330
324
100
AcDbEntity
  8
SK2
100
AcDbMText
 10
197.080606452
 20
-0.315145383
 30
0.0
 40
3.5
 41
0.0
 71
     1
 72
     1
  1
22
  7
SLDTEXTSTYLE0
 11
-7.044195017643634E-15
 21
1.0
 31
0.0
 73
     1
 44
1.0
  0
ENDBLK
  5
326
330
324
100
AcDbEntity
  8
0
100
AcDbBlockEnd
  0
BLOCK
  5
330
330
32F
100
AcDbEntity
  8
0
100
AcDbBlockBegin
  2
_D_9
 70
     0
 10
0.0
 20
0.0
 30
0.0
  3
_D_9
  1

  0
SOLID
  5
332
330
32F
100
AcDbEntity
  8
SK2
100
AcDbTrace
 10
179.0
 20
-40.8863975061
 30
0.0
 11
175.698
 21
-40.3783975061
 31
0.0
 12
175.698
 22
-41.3943975061
 32
0.0
 13
175.698
 23
-41.3943975061
 33
0.0
  0
SOLID
  5
333
330
32F
100
AcDbEntity
  8
SK2
100
AcDbTrace
 10
-65.4
 20
-40.8863975061
 30
0.0
 11
-62.098
 21
-41.3943975061
 31
0.0
 12
-62.098
 22
-40.3783975061
 32
0.0
 13
-62.098
 23
-40.3783975061
 33
0.0
  0
LINE
  5
334
330
32F
100
AcDbEntity
  8
SK2
100
AcDbLine
 10
179.0
 20
-7.7300775542
 30
0.0
 11
179.0
 21
-41.8863975061
 31
0.0
  0
LINE
  5
335
330
32F
100
AcDbEntity
  8
SK2
100
AcDbLine
 10
-65.4
 20
-12.8220275702
 30
0.0
 11
-65.4
 21
-41.8863975061
 31
0.0
  0
LINE
  5
336
330
32F
100
AcDbEntity
  8
SK2
100
AcDbLine
 10
179.0
 20
-40.8863975061
 30
0.0
 11
-65.4
 21
-40.8863975061
 31
0.0
  0
MTEXT
  5
337
330
32F
100
AcDbEntity
  8
SK2
100
AcDbMText
 10
48.3270048697
 20
-36.3746605915
 30
0.0
 40
3.5
 41
0.0
 71
     1
 72
     1
  1
244,4
  7
SLDTEXTSTYLE0
 73
     1
 44
1.0
  0
ENDBLK
  5
331
330
32F
100
AcDbEntity
  8
0
100
AcDbBlockEnd
  0
ENDSEC
  0
SECTION
  2
ENTITIES
  0
LINE
  5
90
330
1F
100
AcDbEntity
  8
SK1
  6
Continuous
370
    25
100
AcDbLine
 10
187.4568260264
 20
-6.5
 30
0.0
 11
191.1568260264
 21
-6.5
 31
0.0
  0
LINE
  5
91
330
1F
100
AcDbEntity
  8
SK1
  6
Continuous
370
    25
100
AcDbLine
 10
191.1568260264
 20
6.5
 30
0.0
 11
187.4568260264
 21
6.5
 31
0.0
  0
LINE
  5
92
330
1F
100
AcDbEntity
  8
SK1
  6
Continuous
370
    25
100
AcDbLine
 10
191.1568260264
 20
-6.5
 30
0.0
 11
192.1568260264
 21
-5.5
 31
0.0
  0
LINE
  5
93
330
1F
100
AcDbEntity
  8
SK1
  6
Continuous
370
    25
100
AcDbLine
 10
192.1568260264
 20
5.5
 30
0.0
 11
191.1568260264
 21
6.5
 31
0.0
  0
LINE
  5
94
330
1F
100
AcDbEntity
  8
SK1
  6
Continuous
370
    25
100
AcDbLine
 10
179.0
 20
-4.35
 30
0.0
 11
182.1568260264
 21
-4.35
 31
0.0
  0
LINE
  5
95
330
1F
100
AcDbEntity
  8
SK1
  6
Continuous
370
    25
100
AcDbLine
 10
182.1568260264
 20
4.35
 30
0.0
 11
179.0
 21
4.35
 31
0.0
  0
LINE
  5
96
330
1F
100
AcDbEntity
  8
SK1
  6
Continuous
370
    25
100
AcDbLine
 10
182.4568260264
 20
-14.0
 30
0.0
 11
186.1568260264
 21
-14.0
 31
0.0
  0
LINE
  5
97
330
1F
100
AcDbEntity
  8
SK1
  6
Continuous
370
    25
100
AcDbLine
 10
186.1568260264
 20
14.0
 30
0.0
 11
182.4568260264
 21
14.0
 31
0.0
  0
LINE
  5
98
330
1F
100
AcDbEntity
  8
SK1
  6
Continuous
370
    25
100
AcDbLine
 10
182.4568260264
 20
14.0
 30
0.0
 11
182.1568260264
 21
13.7
 31
0.0
  0
LINE
  5
99
330
1F
100
AcDbEntity
  8
SK1
  6
Continuous
370
    25
100
AcDbLine
 10
182.1568260264
 20
-13.7
 30
0.0
 11
182.4568260264
 21
-14.0
 31
0.0
  0
LINE
  5
9A
330
1F
100
AcDbEntity
  8
SK1
  6
Continuous
370
    25
100
AcDbLine
 10
186.1568260264
 20
-14.0
 30
0.0
 11
187.1568260264
 21
-13.0
 31
0.0
  0
LINE
  5
9B
330
1F
100
AcDbEntity
  8
SK1
  6
Continuous
370
    25
100
AcDbLine
 10
187.1568260264
 20
13.0
 30
0.0
 11
186.1568260264
 21
14.0
 31
0.0
  0
LINE
  5
9C
330
1F
100
AcDbEntity
  8
1
  6
Continuous
370
    25
100
AcDbLine
 10
26.25
 20
31.474895054
 30
0.0
 11
23.8749115524
 21
31.474895054
 31
0.0
  0
LINE
  5
9D
330
1F
100
AcDbEntity
  8
1
  6
Continuous
370
    25
100
AcDbLine
 10
23.8749115472
 20
-31.474895054
 30
0.0
 11
26.25
 21
-31.474895054
 31
0.0
  0
LINE
  5
9E
330
1F
100
AcDbEntity
  8
1
  6
Continuous
370
    25
100
AcDbLine
 10
159.5
 20
24.0
 30
0.0
 11
29.0
 21
24.0
 31
0.0
  0
LINE
  5
9F
330
1F
100
AcDbEntity
  8
1
  6
Continuous
370
    25
100
AcDbLine
 10
146.7982789779
 20
-24.0
 30
0.0
 11
159.5
 21
-24.0
 31
0.0
  0
LINE
  5
A0
330
1F
100
AcDbEntity
  8
1
  6
Continuous
370
    25
100
AcDbLine
 10
29.0
 20
-24.0
 30
0.0
 11
137.2133721893
 21
-24.0
 31
0.0
  0
LINE
  5
A1
330
1F
100
AcDbEntity
  8
SK1
  6
Continuous
370
    25
100
AcDbLine
 10
0.0
 20
22.225
 30
0.0
 11
-64.544317822
 21
12.8115589574
 31
0.0
  0
LINE
  5
A2
330
1F
100
AcDbEntity
  8
SK1
  6
Continuous
370
    25
100
AcDbLine
 10
-64.544317822
 20
-12.8115589574
 30
0.0
 11
0.0
 21
-22.225
 31
0.0
  0
LINE
  5
A3
330
1F
100
AcDbEntity
  8
1
  6
Continuous
370
    25
100
AcDbLine
 10
0.2
 20
22.225
 30
0.0
 11
0.0
 21
22.225
 31
0.0
  0
LINE
  5
A4
330
1F
100
AcDbEntity
  8
1
  6
Continuous
370
    25
100
AcDbLine
 10
0.0
 20
-22.225
 30
0.0
 11
0.2
 21
-22.225
 31
0.0
  0
LINE
  5
A5
330
1F
100
AcDbEntity
  8
1
  6
Continuous
370
    25
100
AcDbLine
 10
0.2
 20
-22.225
 30
0.0
 11
0.9330363037
 21
-21.8831795579
 31
0.0
  0
LINE
  5
A6
330
1F
100
AcDbEntity
  8
1
  6
Continuous
370
    25
100
AcDbLine
 10
0.9330363037
 20
21.8831795579
 30
0.0
 11
0.2
 21
22.225
 31
0.0
  0
LINE
  5
A7
330
1F
100
AcDbEntity
  8
SK1
  6
Continuous
370
    25
100
AcDbLine
 10
161.3360304774
 20
11.0
 30
0.0
 11
160.6605646396
 21
10.7870264394
 31
0.0
  0
LINE
  5
A8
330
1F
100
AcDbEntity
  8
SK1
  6
Continuous
370
    25
100
AcDbLine
 10
160.6605646396
 20
-10.7870264394
 30
0.0
 11
161.3360304774
 21
-11.0
 31
0.0
  0
LINE
  5
A9
330
1F
100
AcDbEntity
  8
SK1
  6
Continuous
370
    25
100
AcDbLine
 10
176.0
 20
11.0
 30
0.0
 11
161.3360304774
 21
11.0
 31
0.0
  0
LINE
  5
AA
330
1F
100
AcDbEntity
  8
SK1
  6
Continuous
370
    25
100
AcDbLine
 10
161.3360304774
 20
-11.0
 30
0.0
 11
176.0
 21
-11.0
 31
0.0
  0
LINE
  5
AB
330
1F
100
AcDbEntity
  8
SK1
  6
Continuous
370
    25
100
AcDbLine
 10
176.0
 20
-11.0
 30
0.0
 11
179.0
 21
-10.4710190579
 31
0.0
  0
LINE
  5
AC
330
1F
100
AcDbEntity
  8
SK1
  6
Continuous
370
    25
100
AcDbLine
 10
179.0
 20
10.4710190579
 30
0.0
 11
176.0
 21
11.0
 31
0.0
  0
LINE
  5
AD
330
1F
100
AcDbEntity
  8
SK1
  6
Continuous
370
    25
100
AcDbLine
 10
191.1568260264
 20
-6.0687678889
 30
0.0
 11
191.1568260264
 21
6.5
 31
0.0
  0
LINE
  5
AE
330
1F
100
AcDbEntity
  8
SK1
  6
Continuous
370
    25
100
AcDbLine
 10
191.1568260264
 20
-6.5
 30
0.0
 11
191.1568260264
 21
-6.0687678889
 31
0.0
  0
LINE
  5
AF
330
1F
100
AcDbEntity
  8
SK1
  6
Continuous
370
    25
100
AcDbLine
 10
192.1568260264
 20
-5.1351112906
 30
0.0
 11
192.1568260264
 21
-5.5
 31
0.0
  0
LINE
  5
B0
330
1F
100
AcDbEntity
  8
SK1
  6
Continuous
370
    25
100
AcDbLine
 10
192.1568260264
 20
5.5
 30
0.0
 11
192.1568260264
 21
-5.1351112906
 31
0.0
  0
LINE
  5
B1
330
1F
100
AcDbEntity
  8
SK1
  6
Continuous
370
    25
100
AcDbLine
 10
186.1568260264
 20
0.0
 30
0.0
 11
186.1568260264
 21
14.0
 31
0.0
  0
LINE
  5
B2
330
1F
100
AcDbEntity
  8
SK1
  6
Continuous
370
    25
100
AcDbLine
 10
186.1568260264
 20
-14.0
 30
0.0
 11
186.1568260264
 21
0.0
 31
0.0
  0
LINE
  5
B3
330
1F
100
AcDbEntity
  8
SK1
  6
Continuous
370
    25
100
AcDbLine
 10
182.4568260264
 20
14.0
 30
0.0
 11
182.4568260264
 21
-14.0
 31
0.0
  0
LINE
  5
B4
330
1F
100
AcDbEntity
  8
SK1
  6
Continuous
370
    25
100
AcDbLine
 10
182.1568260264
 20
-13.7
 30
0.0
 11
182.1568260264
 21
13.7
 31
0.0
  0
LINE
  5
B5
330
1F
100
AcDbEntity
  8
SK1
  6
Continuous
370
    25
100
AcDbLine
 10
187.1568260264
 20
0.0
 30
0.0
 11
187.1568260264
 21
13.0
 31
0.0
  0
LINE
  5
B6
330
1F
100
AcDbEntity
  8
SK1
  6
Continuous
370
    25
100
AcDbLine
 10
187.1568260264
 20
-13.0
 30
0.0
 11
187.1568260264
 21
0.0
 31
0.0
  0
LINE
  5
B7
330
1F
100
AcDbEntity
  8
SK1
  6
Continuous
370
    25
100
AcDbLine
 10
160.0296155741
 20
18.0610661726
 30
0.0
 11
160.0
 21
18.0610661726
 31
0.0
  0
LINE
  5
B8
330
1F
100
AcDbEntity
  8
SK1
  6
Continuous
370
    25
100
AcDbLine
 10
160.0
 20
16.9389338274
 30
0.0
 11
160.0296155741
 21
16.9389338274
 31
0.0
  0
LINE
  5
B9
330
1F
100
AcDbEntity
  8
SK1
  6
Continuous
370
    25
100
AcDbLine
 10
164.5896370289
 20
22.0554515693
 30
0.0
 11
160.0
 21
22.0554515693
 31
0.0
  0
LINE
  5
BA
330
1F
100
AcDbEntity
  8
SK1
  6
Continuous
370
    25
100
AcDbLine
 10
165.6
 20
17.0645243979
 30
0.0
 11
165.6
 21
17.9354756021
 31
0.0
  0
LINE
  5
BB
330
1F
100
AcDbEntity
  8
SK1
  6
Continuous
370
    25
100
AcDbLine
 10
160.0
 20
12.9445484307
 30
0.0
 11
164.5896370289
 21
12.9445484307
 31
0.0
  0
LINE
  5
BC
330
1F
100
AcDbEntity
  8
SK1
  6
Continuous
370
    25
100
AcDbLine
 10
165.6
 20
22.48
 30
0.0
 11
165.6
 21
17.9354756021
 31
0.0
  0
LINE
  5
BD
330
1F
100
AcDbEntity
  8
SK1
  6
Continuous
370
    25
100
AcDbLine
 10
164.5896370289
 20
22.48
 30
0.0
 11
164.5896370289
 21
22.0554515693
 31
0.0
  0
LINE
  5
BE
330
1F
100
AcDbEntity
  8
SK1
  6
Continuous
370
    25
100
AcDbLine
 10
164.5896370289
 20
12.9445484307
 30
0.0
 11
164.5896370289
 21
12.52
 31
0.0
  0
LINE
  5
BF
330
1F
100
AcDbEntity
  8
SK1
  6
Continuous
370
    25
100
AcDbLine
 10
165.6
 20
17.0645243979
 30
0.0
 11
165.6
 21
12.52
 31
0.0
  0
LINE
  5
C0
330
1F
100
AcDbEntity
  8
SK1
  6
Continuous
370
    25
100
AcDbLine
 10
160.0
 20
22.48
 30
0.0
 11
164.5896370289
 21
22.48
 31
0.0
  0
LINE
  5
C1
330
1F
100
AcDbEntity
  8
SK1
  6
Continuous
370
    25
100
AcDbLine
 10
164.5896370289
 20
12.52
 30
0.0
 11
160.0
 21
12.52
 31
0.0
  0
LINE
  5
C2
330
1F
100
AcDbEntity
  8
SK1
  6
Continuous
370
    25
100
AcDbLine
 10
160.0296155741
 20
-16.9389338274
 30
0.0
 11
160.0
 21
-16.9389338274
 31
0.0
  0
LINE
  5
C3
330
1F
100
AcDbEntity
  8
SK1
  6
Continuous
370
    25
100
AcDbLine
 10
160.0
 20
-18.0610661726
 30
0.0
 11
160.0296155741
 21
-18.0610661726
 31
0.0
  0
LINE
  5
C4
330
1F
100
AcDbEntity
  8
SK1
  6
Continuous
370
    25
100
AcDbLine
 10
160.0
 20
-22.0554515693
 30
0.0
 11
164.5896370289
 21
-22.0554515693
 31
0.0
  0
LINE
  5
C5
330
1F
100
AcDbEntity
  8
SK1
  6
Continuous
370
    25
100
AcDbLine
 10
164.5896370289
 20
-22.0554515693
 30
0.0
 11
164.5896370289
 21
-22.48
 31
0.0
  0
LINE
  5
C6
330
1F
100
AcDbEntity
  8
SK1
  6
Continuous
370
    25
100
AcDbLine
 10
164.5896370289
 20
-22.48
 30
0.0
 11
160.0
 21
-22.48
 31
0.0
  0
LINE
  5
C7
330
1F
100
AcDbEntity
  8
SK1
  6
Continuous
370
    25
100
AcDbLine
 10
165.6
 20
-17.9354756021
 30
0.0
 11
165.6
 21
-22.48
 31
0.0
  0
LINE
  5
C8
330
1F
100
AcDbEntity
  8
SK1
  6
Continuous
370
    25
100
AcDbLine
 10
165.6
 20
-12.52
 30
0.0
 11
165.6
 21
-17.0645243979
 31
0.0
  0
LINE
  5
C9
330
1F
100
AcDbEntity
  8
SK1
  6
Continuous
370
    25
100
AcDbLine
 10
164.5896370289
 20
-12.52
 30
0.0
 11
164.5896370289
 21
-12.9445484307
 31
0.0
  0
LINE
  5
CA
330
1F
100
AcDbEntity
  8
SK1
  6
Continuous
370
    25
100
AcDbLine
 10
164.5896370289
 20
-12.9445484307
 30
0.0
 11
160.0
 21
-12.9445484307
 31
0.0
  0
LINE
  5
CB
330
1F
100
AcDbEntity
  8
SK1
  6
Continuous
370
    25
100
AcDbLine
 10
160.0
 20
-12.52
 30
0.0
 11
164.5896370289
 21
-12.52
 31
0.0
  0
LINE
  5
CC
330
1F
100
AcDbEntity
  8
SK1
  6
Continuous
370
    25
100
AcDbLine
 10
165.6
 20
-17.9354756021
 30
0.0
 11
165.6
 21
-17.0645243979
 31
0.0
  0
LINE
  5
CD
330
1F
100
AcDbEntity
  8
1
  6
Continuous
370
    25
100
AcDbLine
 10
2.75
 20
30.2851051865
 30
0.0
 11
2.75
 21
-30.3091903905
 31
0.0
  0
LINE
  5
CE
330
1F
100
AcDbEntity
  8
1
  6
Continuous
370
    25
100
AcDbLine
 10
2.0
 20
-29.5495194269
 30
0.0
 11
2.0
 21
29.5343575532
 31
0.0
  0
LINE
  5
CF
330
1F
100
AcDbEntity
  8
1
  6
Continuous
370
    25
100
AcDbLine
 10
2.75
 20
-30.3091903905
 30
0.0
 11
11.58
 21
-30.3091903905
 31
0.0
  0
LINE
  5
D0
330
1F
100
AcDbEntity
  8
1
  6
Continuous
370
    25
100
AcDbLine
 10
11.58
 20
30.2851051865
 30
0.0
 11
2.75
 21
30.2851051865
 31
0.0
  0
LINE
  5
D1
330
1F
100
AcDbEntity
  8
1
  6
Continuous
370
    25
100
AcDbLine
 10
11.58
 20
30.2851051865
 30
0.0
 11
11.58
 21
-30.3091903905
 31
0.0
  0
LINE
  5
D2
330
1F
100
AcDbEntity
  8
1
  6
Continuous
370
    25
100
AcDbLine
 10
19.1
 20
26.1358563468
 30
0.0
 11
19.1
 21
-26.1358563468
 31
0.0
  0
LINE
  5
D3
330
1F
100
AcDbEntity
  8
1
  6
Continuous
370
    25
100
AcDbLine
 10
21.62
 20
30.9313908675
 30
0.0
 11
21.3771985668
 21
30.5697697753
 31
0.0
  0
LINE
  5
D4
330
1F
100
AcDbEntity
  8
1
  6
Continuous
370
    25
100
AcDbLine
 10
21.62
 20
30.9313908675
 30
0.0
 11
21.62
 21
-30.9313908683
 31
0.0
  0
LINE
  5
D5
330
1F
100
AcDbEntity
  8
1
  6
Continuous
370
    25
100
AcDbLine
 10
21.3771985697
 20
-30.5697697761
 30
0.0
 11
21.62
 21
-30.9313908683
 31
0.0
  0
LINE
  5
D6
330
1F
100
AcDbEntity
  8
1
  6
Continuous
370
    25
100
AcDbLine
 10
14.1
 20
25.873344623
 30
0.0
 11
14.1
 21
-25.873344623
 31
0.0
  0
LINE
  5
D7
330
1F
100
AcDbEntity
  8
1
  6
Continuous
370
    25
100
AcDbLine
 10
27.0
 20
0.0
 30
0.0
 11
27.0
 21
-30.724895054
 31
0.0
  0
LINE
  5
D8
330
1F
100
AcDbEntity
  8
1
  6
Continuous
370
    25
100
AcDbLine
 10
27.0
 20
30.724895054
 30
0.0
 11
27.0
 21
0.0
 31
0.0
  0
LINE
  5
D9
330
1F
100
AcDbEntity
  8
1
  6
Continuous
370
    25
100
AcDbLine
 10
18.725
 20
25.4508030325
 30
0.0
 11
18.725
 21
-19.1110901028
 31
0.0
  0
LINE
  5
DA
330
1F
100
AcDbEntity
  8
1
  6
Continuous
370
    25
100
AcDbLine
 10
14.475
 20
25.2333306363
 30
0.0
 11
14.475
 21
-19.1110901028
 31
0.0
  0
LINE
  5
DB
330
1F
100
AcDbEntity
  8
1
  6
Continuous
370
    25
100
AcDbLine
 10
14.475
 20
25.2333306363
 30
0.0
 11
15.405
 21
25.2333306363
 31
0.0
  0
LINE
  5
DC
330
1F
100
AcDbEntity
  8
1
  6
Continuous
370
    25
100
AcDbLine
 10
160.0
 20
0.0
 30
0.0
 11
160.0
 21
-23.5
 31
0.0
  0
LINE
  5
DD
330
1F
100
AcDbEntity
  8
1
  6
Continuous
370
    25
100
AcDbLine
 10
160.0
 20
23.5
 30
0.0
 11
160.0
 21
0.0
 31
0.0
  0
LINE
  5
DE
330
1F
100
AcDbEntity
  8
1
  6
Continuous
370
    25
100
AcDbLine
 10
0.0
 20
22.225
 30
0.0
 11
0.0
 21
-22.225
 31
0.0
  0
LINE
  5
DF
330
1F
100
AcDbEntity
  8
1
  6
Continuous
370
    25
100
AcDbLine
 10
0.2
 20
22.225
 30
0.0
 11
0.2
 21
-22.225
 31
0.0
  0
LINE
  5
E0
330
1F
100
AcDbEntity
  8
1
  6
Continuous
370
    25
100
AcDbLine
 10
18.725
 20
-20.8390927955
 30
0.0
 11
18.725
 21
-25.4508030325
 31
0.0
  0
LINE
  5
E1
330
1F
100
AcDbEntity
  8
1
  6
Continuous
370
    25
100
AcDbLine
 10
14.475
 20
-20.8390927955
 30
0.0
 11
14.475
 21
-25.2333306363
 31
0.0
  0
LINE
  5
E2
330
1F
100
AcDbEntity
  8
1
  6
Continuous
370
    25
100
AcDbLine
 10
14.475
 20
-25.2333306363
 30
0.0
 11
15.405
 21
-25.2333306363
 31
0.0
  0
LINE
  5
E3
330
1F
100
AcDbEntity
  8
SK1
  6
Continuous
370
    25
100
AcDbLine
 10
-65.4
 20
-11.8220275702
 30
0.0
 11
-65.4
 21
11.8220275702
 31
0.0
  0
LINE
  5
E4
330
1F
100
AcDbEntity
  8
SK1
  6
Continuous
370
    25
100
AcDbLine
 10
161.3360304774
 20
11.0
 30
0.0
 11
161.3360304774
 21
-11.0
 31
0.0
  0
LINE
  5
E5
330
1F
100
AcDbEntity
  8
SK1
  6
Continuous
370
    25
100
AcDbLine
 10
176.0
 20
11.0
 30
0.0
 11
176.0
 21
-11.0
 31
0.0
  0
LINE
  5
E6
330
1F
100
AcDbEntity
  8
SK1
  6
Continuous
370
    25
100
AcDbLine
 10
179.0
 20
10.4710190579
 30
0.0
 11
179.0
 21
-10.4710190579
 31
0.0
  0
LINE
  5
E7
330
1F
100
AcDbEntity
  8
1
  6
Continuous
370
    25
100
AcDbLine
 10
21.3771985668
 20
30.5697697753
 30
0.0
 11
21.62
 21
30.9313908675
 31
0.0
  0
LINE
  5
E8
330
1F
100
AcDbEntity
  8
1
  6
Continuous
370
    25
100
AcDbLine
 10
21.62
 20
-30.9313908683
 30
0.0
 11
21.3771985697
 21
-30.5697697761
 31
0.0
  0
LINE
  5
E9
330
1F
100
AcDbEntity
  8
SK1
  6
Continuous
370
    25
100
AcDbLine
 10
187.4568260264
 20
6.5
 30
0.0
 11
187.4568260264
 21
-6.5
 31
0.0
  0
LINE
  5
EA
330
1F
100
AcDbEntity
  8
SK1
  6
Continuous
370
    25
100
AcDbLine
 10
160.0296155741
 20
20.0649636919
 30
0.0
 11
160.0296155741
 21
18.0610661726
 31
0.0
  0
LINE
  5
EB
330
1F
100
AcDbEntity
  8
SK1
  6
Continuous
370
    25
100
AcDbLine
 10
160.0296155741
 20
16.9389338274
 30
0.0
 11
160.0296155741
 21
14.9582931277
 31
0.0
  0
LINE
  5
EC
330
1F
100
AcDbEntity
  8
SK1
  6
Continuous
370
    25
100
AcDbLine
 10
160.0296155741
 20
-14.9350363081
 30
0.0
 11
160.0296155741
 21
-16.9389338274
 31
0.0
  0
LINE
  5
ED
330
1F
100
AcDbEntity
  8
SK1
  6
Continuous
370
    25
100
AcDbLine
 10
160.0296155741
 20
-18.0610661726
 30
0.0
 11
160.0296155741
 21
-20.0417068723
 31
0.0
  0
LINE
  5
EE
330
1F
100
AcDbEntity
  8
1
  6
Continuous
370
    25
100
AcDbLine
 10
26.25
 20
0.0
 30
0.0
 11
26.25
 21
31.474895054
 31
0.0
  0
LINE
  5
EF
330
1F
100
AcDbEntity
  8
1
  6
Continuous
370
    25
100
AcDbLine
 10
26.25
 20
-31.474895054
 30
0.0
 11
26.25
 21
0.0
 31
0.0
  0
LINE
  5
F0
330
1F
100
AcDbEntity
  8
1
  6
Continuous
370
    25
100
AcDbLine
 10
29.0
 20
0.0
 30
0.0
 11
29.0
 21
-24.0
 31
0.0
  0
LINE
  5
F1
330
1F
100
AcDbEntity
  8
1
  6
Continuous
370
    25
100
AcDbLine
 10
29.0
 20
24.0
 30
0.0
 11
29.0
 21
0.0
 31
0.0
  0
LINE
  5
F2
330
1F
100
AcDbEntity
  8
1
  6
Continuous
370
    25
100
AcDbLine
 10
159.5
 20
0.0
 30
0.0
 11
159.5
 21
24.0
 31
0.0
  0
LINE
  5
F3
330
1F
100
AcDbEntity
  8
1
  6
Continuous
370
    25
100
AcDbLine
 10
159.5
 20
-24.0
 30
0.0
 11
159.5
 21
0.0
 31
0.0
  0
LINE
  5
F4
330
1F
100
AcDbEntity
  8
1
  6
Continuous
370
    25
100
AcDbLine
 10
0.9330363037
 20
21.8831795579
 30
0.0
 11
0.9330363037
 21
-21.8831795579
 31
0.0
  0
LINE
  5
F5
330
1F
100
AcDbEntity
  8
SK1
  6
Continuous
370
    25
100
AcDbLine
 10
-64.544317822
 20
0.0
 30
0.0
 11
-64.544317822
 21
-12.8115589574
 31
0.0
  0
LINE
  5
F6
330
1F
100
AcDbEntity
  8
SK1
  6
Continuous
370
    25
100
AcDbLine
 10
-64.544317822
 20
12.8115589574
 30
0.0
 11
-64.544317822
 21
0.0
 31
0.0
  0
LINE
  5
F7
330
1F
100
AcDbEntity
  8
SK1
  6
Continuous
370
    25
100
AcDbLine
 10
160.6605646396
 20
10.7870264394
 30
0.0
 11
160.6605646396
 21
-10.7870264394
 31
0.0
  0
LINE
  5
F8
330
1F
100
AcDbEntity
  8
SK3
  6
HIDDEN
370
    18
100
AcDbLine
 10
4.5468573445
 20
-8.9010468883
 30
0.0
 11
4.3941348847
 21
-8.29408856
 31
0.0
  0
LINE
  5
F9
330
1F
100
AcDbEntity
  8
SK3
  6
HIDDEN
370
    18
100
AcDbLine
 10
4.3941348847
 20
-8.29408856
 30
0.0
 11
4.1524179656
 21
-7.7410611428
 31
0.0
  0
LINE
  5
FA
330
1F
100
AcDbEntity
  8
SK3
  6
HIDDEN
370
    18
100
AcDbLine
 10
4.1524179656
 20
-7.7410611428
 30
0.0
 11
3.8431841962
 21
-7.2911035495
 31
0.0
  0
LINE
  5
FB
330
1F
100
AcDbEntity
  8
SK3
  6
HIDDEN
370
    18
100
AcDbLine
 10
3.8431841962
 20
-7.2911035495
 30
0.0
 11
3.4939103539
 21
-6.9841964871
 31
0.0
  0
LINE
  5
FC
330
1F
100
AcDbEntity
  8
SK3
  6
HIDDEN
370
    18
100
AcDbLine
 10
3.4939103539
 20
-6.9841964871
 30
0.0
 11
3.1356309525
 21
-6.8476099947
 31
0.0
  0
LINE
  5
FD
330
1F
100
AcDbEntity
  8
SK3
  6
HIDDEN
370
    18
100
AcDbLine
 10
3.1356309525
 20
-6.8476099947
 30
0.0
 11
2.800180689
 21
-6.8934803817
 31
0.0
  0
LINE
  5
FE
330
1F
100
AcDbEntity
  8
SK3
  6
HIDDEN
370
    18
100
AcDbLine
 10
2.800180689
 20
-6.8934803817
 30
0.0
 11
2.5173657914
 21
-7.1177318629
 31
0.0
  0
LINE
  5
FF
330
1F
100
AcDbEntity
  8
SK3
  6
HIDDEN
370
    18
100
AcDbLine
 10
2.5173657914
 20
-7.1177318629
 30
0.0
 11
2.3123156045
 21
-7.50043871
 31
0.0
  0
LINE
  5
100
330
1F
100
AcDbEntity
  8
SK3
  6
HIDDEN
370
    18
100
AcDbLine
 10
2.3123156045
 20
-7.50043871
 30
0.0
 11
2.2032497372
 21
-8.0075957403
 31
0.0
  0
LINE
  5
101
330
1F
100
AcDbEntity
  8
SK3
  6
HIDDEN
370
    18
100
AcDbLine
 10
2.2032497372
 20
-8.0075957403
 30
0.0
 11
2.1998591705
 21
-8.5941398259
 31
0.0
  0
LINE
  5
102
330
1F
100
AcDbEntity
  8
SK3
  6
HIDDEN
370
    18
100
AcDbLine
 10
2.1998591705
 20
-8.5941398259
 30
0.0
 11
2.3024451711
 21
-9.2079539508
 31
0.0
  0
LINE
  5
103
330
1F
100
AcDbEntity
  8
SK3
  6
HIDDEN
370
    18
100
AcDbLine
 10
2.3024451711
 20
-9.2079539508
 30
0.0
 11
2.5018925227
 21
-9.7944980364
 31
0.0
  0
LINE
  5
104
330
1F
100
AcDbEntity
  8
SK3
  6
HIDDEN
370
    18
100
AcDbLine
 10
2.5018925227
 20
-9.7944980364
 30
0.0
 11
2.7804794527
 21
-10.3016550667
 31
0.0
  0
LINE
  5
105
330
1F
100
AcDbEntity
  8
SK3
  6
HIDDEN
370
    18
100
AcDbLine
 10
2.7804794527
 20
-10.3016550667
 30
0.0
 11
3.11345229
 21
-10.6843619138
 31
0.0
  0
LINE
  5
106
330
1F
100
AcDbEntity
  8
SK3
  6
HIDDEN
370
    18
100
AcDbLine
 10
3.11345229
 20
-10.6843619138
 30
0.0
 11
3.4712249367
 21
-10.908613395
 31
0.0
  0
LINE
  5
107
330
1F
100
AcDbEntity
  8
SK3
  6
HIDDEN
370
    18
100
AcDbLine
 10
3.4712249367
 20
-10.908613395
 30
0.0
 11
3.8220077231
 21
-10.954483782
 31
0.0
  0
LINE
  5
108
330
1F
100
AcDbEntity
  8
SK3
  6
HIDDEN
370
    18
100
AcDbLine
 10
3.8220077231
 20
-10.954483782
 30
0.0
 11
4.1346320592
 21
-10.8178972896
 31
0.0
  0
LINE
  5
109
330
1F
100
AcDbEntity
  8
SK3
  6
HIDDEN
370
    18
100
AcDbLine
 10
4.1346320592
 20
-10.8178972896
 30
0.0
 11
4.3813199008
 21
-10.5109902272
 31
0.0
  0
LINE
  5
10A
330
1F
100
AcDbEntity
  8
SK3
  6
HIDDEN
370
    18
100
AcDbLine
 10
4.3813199008
 20
-10.5109902272
 30
0.0
 11
4.5401519507
 21
-10.0610326339
 31
0.0
  0
LINE
  5
10B
330
1F
100
AcDbEntity
  8
SK3
  6
HIDDEN
370
    18
100
AcDbLine
 10
4.5401519507
 20
-10.0610326339
 30
0.0
 11
4.5970152841
 21
-9.5080052167
 31
0.0
  0
LINE
  5
10C
330
1F
100
AcDbEntity
  8
SK3
  6
HIDDEN
370
    18
100
AcDbLine
 10
4.5970152841
 20
-9.5080052167
 30
0.0
 11
4.5468573445
 21
-8.9010468883
 31
0.0
  0
LINE
  5
10D
330
1F
100
AcDbEntity
  8
SK3
  6
HIDDEN
370
    18
100
AcDbLine
 10
2.0
 20
-7.0803098558
 30
0.0
 11
2.0
 21
-11.3887778837
 31
0.0
  0
LINE
  5
10E
330
1F
100
AcDbEntity
  8
SK3
  6
HIDDEN
370
    18
100
AcDbLine
 10
4.4644074252
 20
-8.9010468883
 30
0.0
 11
4.3131953039
 21
-8.3101725652
 31
0.0
  0
LINE
  5
10F
330
1F
100
AcDbEntity
  8
SK3
  6
HIDDEN
370
    18
100
AcDbLine
 10
4.3131953039
 20
-8.3101725652
 30
0.0
 11
4.0718648353
 21
-7.7771371378
 31
0.0
  0
LINE
  5
110
330
1F
100
AcDbEntity
  8
SK3
  6
HIDDEN
370
    18
100
AcDbLine
 10
4.0718648353
 20
-7.7771371378
 30
0.0
 11
3.7640391273
 21
-7.3541178274
 31
0.0
  0
LINE
  5
111
330
1F
100
AcDbEntity
  8
SK3
  6
HIDDEN
370
    18
100
AcDbLine
 10
3.7640391273
 20
-7.3541178274
 30
0.0
 11
3.4198503047
 21
-7.0825227116
 31
0.0
  0
LINE
  5
112
330
1F
100
AcDbEntity
  8
SK3
  6
HIDDEN
370
    18
100
AcDbLine
 10
3.4198503047
 20
-7.0825227116
 30
0.0
 11
3.0729899677
 21
-6.9889374126
 31
0.0
  0
LINE
  5
113
330
1F
100
AcDbEntity
  8
SK3
  6
HIDDEN
370
    18
100
AcDbLine
 10
3.0729899677
 20
-6.9889374126
 30
0.0
 11
2.7574112228
 21
-7.0825227116
 31
0.0
  0
LINE
  5
114
330
1F
100
AcDbEntity
  8
SK3
  6
HIDDEN
370
    18
100
AcDbLine
 10
2.7574112228
 20
-7.0825227116
 30
0.0
 11
2.5040051163
 21
-7.3541178274
 31
0.0
  0
LINE
  5
115
330
1F
100
AcDbEntity
  8
SK3
  6
HIDDEN
370
    18
100
AcDbLine
 10
2.5040051163
 20
-7.3541178274
 30
0.0
 11
2.3375768035
 21
-7.7771371378
 31
0.0
  0
LINE
  5
116
330
1F
100
AcDbEntity
  8
SK3
  6
HIDDEN
370
    18
100
AcDbLine
 10
2.3375768035
 20
-7.7771371378
 30
0.0
 11
2.2744174473
 21
-8.3101725652
 31
0.0
  0
LINE
  5
117
330
1F
100
AcDbEntity
  8
SK3
  6
HIDDEN
370
    18
100
AcDbLine
 10
2.2744174473
 20
-8.3101725652
 30
0.0
 11
2.3207095254
 21
-8.9010468883
 31
0.0
  0
LINE
  5
118
330
1F
100
AcDbEntity
  8
SK3
  6
HIDDEN
370
    18
100
AcDbLine
 10
2.3207095254
 20
-8.9010468883
 30
0.0
 11
2.4719216467
 21
-9.4919212114
 31
0.0
  0
LINE
  5
119
330
1F
100
AcDbEntity
  8
SK3
  6
HIDDEN
370
    18
100
AcDbLine
 10
2.4719216467
 20
-9.4919212114
 30
0.0
 11
2.7132521152
 21
-10.0249566389
 31
0.0
  0
LINE
  5
11A
330
1F
100
AcDbEntity
  8
SK3
  6
HIDDEN
370
    18
100
AcDbLine
 10
2.7132521152
 20
-10.0249566389
 30
0.0
 11
3.0210778233
 21
-10.4479759493
 31
0.0
  0
LINE
  5
11B
330
1F
100
AcDbEntity
  8
SK3
  6
HIDDEN
370
    18
100
AcDbLine
 10
3.0210778233
 20
-10.4479759493
 30
0.0
 11
3.3652666459
 21
-10.7195710651
 31
0.0
  0
LINE
  5
11C
330
1F
100
AcDbEntity
  8
SK3
  6
HIDDEN
370
    18
100
AcDbLine
 10
3.3652666459
 20
-10.7195710651
 30
0.0
 11
3.7121269829
 21
-10.8131563641
 31
0.0
  0
LINE
  5
11D
330
1F
100
AcDbEntity
  8
SK3
  6
HIDDEN
370
    18
100
AcDbLine
 10
3.7121269829
 20
-10.8131563641
 30
0.0
 11
4.0277057277
 21
-10.7195710651
 31
0.0
  0
LINE
  5
11E
330
1F
100
AcDbEntity
  8
SK3
  6
HIDDEN
370
    18
100
AcDbLine
 10
4.0277057277
 20
-10.7195710651
 30
0.0
 11
4.2811118342
 21
-10.4479759493
 31
0.0
  0
LINE
  5
11F
330
1F
100
AcDbEntity
  8
SK3
  6
HIDDEN
370
    18
100
AcDbLine
 10
4.2811118342
 20
-10.4479759493
 30
0.0
 11
4.447540147
 21
-10.0249566389
 31
0.0
  0
LINE
  5
120
330
1F
100
AcDbEntity
  8
SK3
  6
HIDDEN
370
    18
100
AcDbLine
 10
4.447540147
 20
-10.0249566389
 30
0.0
 11
4.5106995033
 21
-9.4919212114
 31
0.0
  0
LINE
  5
121
330
1F
100
AcDbEntity
  8
SK3
  6
HIDDEN
370
    18
100
AcDbLine
 10
4.5106995033
 20
-9.4919212114
 30
0.0
 11
4.4644074252
 21
-8.9010468883
 31
0.0
  0
LINE
  5
122
330
1F
100
AcDbEntity
  8
SK3
  6
HIDDEN
370
    18
100
AcDbLine
 10
15.686790432
 20
-6.2134535673
 30
0.0
 11
15.5355783107
 21
-5.6225792442
 31
0.0
  0
LINE
  5
123
330
1F
100
AcDbEntity
  8
SK3
  6
HIDDEN
370
    18
100
AcDbLine
 10
15.5355783107
 20
-5.6225792442
 30
0.0
 11
15.2942478421
 21
-5.0895438167
 31
0.0
  0
LINE
  5
124
330
1F
100
AcDbEntity
  8
SK3
  6
HIDDEN
370
    18
100
AcDbLine
 10
15.2942478421
 20
-5.0895438167
 30
0.0
 11
14.986422134
 21
-4.6665245063
 31
0.0
  0
LINE
  5
125
330
1F
100
AcDbEntity
  8
SK3
  6
HIDDEN
370
    18
100
AcDbLine
 10
14.986422134
 20
-4.6665245063
 30
0.0
 11
14.6422333115
 21
-4.3949293905
 31
0.0
  0
LINE
  5
126
330
1F
100
AcDbEntity
  8
SK3
  6
HIDDEN
370
    18
100
AcDbLine
 10
14.6422333115
 20
-4.3949293905
 30
0.0
 11
14.2953729745
 21
-4.3013440916
 31
0.0
  0
LINE
  5
127
330
1F
100
AcDbEntity
  8
SK3
  6
HIDDEN
370
    18
100
AcDbLine
 10
14.2953729745
 20
-4.3013440916
 30
0.0
 11
13.9797942296
 21
-4.3949293905
 31
0.0
  0
LINE
  5
128
330
1F
100
AcDbEntity
  8
SK3
  6
HIDDEN
370
    18
100
AcDbLine
 10
13.9797942296
 20
-4.3949293905
 30
0.0
 11
13.7263881231
 21
-4.6665245063
 31
0.0
  0
LINE
  5
129
330
1F
100
AcDbEntity
  8
SK3
  6
HIDDEN
370
    18
100
AcDbLine
 10
13.7263881231
 20
-4.6665245063
 30
0.0
 11
13.5599598103
 21
-5.0895438167
 31
0.0
  0
LINE
  5
12A
330
1F
100
AcDbEntity
  8
SK3
  6
HIDDEN
370
    18
100
AcDbLine
 10
13.5599598103
 20
-5.0895438167
 30
0.0
 11
13.496800454
 21
-5.6225792442
 31
0.0
  0
LINE
  5
12B
330
1F
100
AcDbEntity
  8
SK3
  6
HIDDEN
370
    18
100
AcDbLine
 10
13.496800454
 20
-5.6225792442
 30
0.0
 11
13.5430925321
 21
-6.2134535673
 31
0.0
  0
LINE
  5
12C
330
1F
100
AcDbEntity
  8
SK3
  6
HIDDEN
370
    18
100
AcDbLine
 10
13.5430925321
 20
-6.2134535673
 30
0.0
 11
13.6943046534
 21
-6.8043278904
 31
0.0
  0
LINE
  5
12D
330
1F
100
AcDbEntity
  8
SK3
  6
HIDDEN
370
    18
100
AcDbLine
 10
13.6943046534
 20
-6.8043278904
 30
0.0
 11
13.935635122
 21
-7.3373633179
 31
0.0
  0
LINE
  5
12E
330
1F
100
AcDbEntity
  8
SK3
  6
HIDDEN
370
    18
100
AcDbLine
 10
13.935635122
 20
-7.3373633179
 30
0.0
 11
14.2434608301
 21
-7.7603826282
 31
0.0
  0
LINE
  5
12F
330
1F
100
AcDbEntity
  8
SK3
  6
HIDDEN
370
    18
100
AcDbLine
 10
14.2434608301
 20
-7.7603826282
 30
0.0
 11
14.5876496526
 21
-8.031977744
 31
0.0
  0
LINE
  5
130
330
1F
100
AcDbEntity
  8
SK3
  6
HIDDEN
370
    18
100
AcDbLine
 10
14.5876496526
 20
-8.031977744
 30
0.0
 11
14.9345099896
 21
-8.125563043
 31
0.0
  0
LINE
  5
131
330
1F
100
AcDbEntity
  8
SK3
  6
HIDDEN
370
    18
100
AcDbLine
 10
14.9345099896
 20
-8.125563043
 30
0.0
 11
15.2500887345
 21
-8.031977744
 31
0.0
  0
LINE
  5
132
330
1F
100
AcDbEntity
  8
SK3
  6
HIDDEN
370
    18
100
AcDbLine
 10
15.2500887345
 20
-8.031977744
 30
0.0
 11
15.503494841
 21
-7.7603826282
 31
0.0
  0
LINE
  5
133
330
1F
100
AcDbEntity
  8
SK3
  6
HIDDEN
370
    18
100
AcDbLine
 10
15.503494841
 20
-7.7603826282
 30
0.0
 11
15.6699231538
 21
-7.3373633179
 31
0.0
  0
LINE
  5
134
330
1F
100
AcDbEntity
  8
SK3
  6
HIDDEN
370
    18
100
AcDbLine
 10
15.6699231538
 20
-7.3373633179
 30
0.0
 11
15.7330825101
 21
-6.8043278904
 31
0.0
  0
LINE
  5
135
330
1F
100
AcDbEntity
  8
SK3
  6
HIDDEN
370
    18
100
AcDbLine
 10
15.7330825101
 20
-6.8043278904
 30
0.0
 11
15.686790432
 21
-6.2134535673
 31
0.0
  0
LINE
  5
136
330
1F
100
AcDbEntity
  8
SK3
  6
HIDDEN
370
    18
100
AcDbLine
 10
9.0
 20
-10.6140266224
 30
0.0
 11
8.4356667635
 21
-10.5205204637
 31
0.0
  0
LINE
  5
137
330
1F
100
AcDbEntity
  8
SK3
  6
HIDDEN
370
    18
100
AcDbLine
 10
8.4356667635
 20
-10.5205204637
 30
0.0
 11
7.939400444
 21
-10.2512802103
 31
0.0
  0
LINE
  5
138
330
1F
100
AcDbEntity
  8
SK3
  6
HIDDEN
370
    18
100
AcDbLine
 10
7.939400444
 20
-10.2512802103
 30
0.0
 11
7.5710580838
 21
-9.8387802103
 31
0.0
  0
LINE
  5
139
330
1F
100
AcDbEntity
  8
SK3
  6
HIDDEN
370
    18
100
AcDbLine
 10
7.5710580838
 20
-9.8387802103
 30
0.0
 11
7.3750672075
 21
-9.3327740516
 31
0.0
  0
LINE
  5
13A
330
1F
100
AcDbEntity
  8
SK3
  6
HIDDEN
370
    18
100
AcDbLine
 10
7.3750672075
 20
-9.3327740516
 30
0.0
 11
7.3750672075
 21
-8.7942935447
 31
0.0
  0
LINE
  5
13B
330
1F
100
AcDbEntity
  8
SK3
  6
HIDDEN
370
    18
100
AcDbLine
 10
7.3750672075
 20
-8.7942935447
 30
0.0
 11
7.5710580838
 21
-8.288287386
 31
0.0
  0
LINE
  5
13C
330
1F
100
AcDbEntity
  8
SK3
  6
HIDDEN
370
    18
100
AcDbLine
 10
7.5710580838
 20
-8.288287386
 30
0.0
 11
7.939400444
 21
-7.875787386
 31
0.0
  0
LINE
  5
13D
330
1F
100
AcDbEntity
  8
SK3
  6
HIDDEN
370
    18
100
AcDbLine
 10
7.939400444
 20
-7.875787386
 30
0.0
 11
8.4356667635
 21
-7.6065471326
 31
0.0
  0
LINE
  5
13E
330
1F
100
AcDbEntity
  8
SK3
  6
HIDDEN
370
    18
100
AcDbLine
 10
8.4356667635
 20
-7.6065471326
 30
0.0
 11
9.0
 21
-7.5130409738
 31
0.0
  0
LINE
  5
13F
330
1F
100
AcDbEntity
  8
SK3
  6
HIDDEN
370
    18
100
AcDbLine
 10
9.0
 20
-7.5130409738
 30
0.0
 11
9.5643332365
 21
-7.6065471326
 31
0.0
  0
LINE
  5
140
330
1F
100
AcDbEntity
  8
SK3
  6
HIDDEN
370
    18
100
AcDbLine
 10
9.5643332365
 20
-7.6065471326
 30
0.0
 11
10.060599556
 21
-7.875787386
 31
0.0
  0
LINE
  5
141
330
1F
100
AcDbEntity
  8
SK3
  6
HIDDEN
370
    18
100
AcDbLine
 10
10.060599556
 20
-7.875787386
 30
0.0
 11
10.4289419162
 21
-8.288287386
 31
0.0
  0
LINE
  5
142
330
1F
100
AcDbEntity
  8
SK3
  6
HIDDEN
370
    18
100
AcDbLine
 10
10.4289419162
 20
-8.288287386
 30
0.0
 11
10.6249327925
 21
-8.7942935447
 31
0.0
  0
LINE
  5
143
330
1F
100
AcDbEntity
  8
SK3
  6
HIDDEN
370
    18
100
AcDbLine
 10
10.6249327925
 20
-8.7942935447
 30
0.0
 11
10.6249327925
 21
-9.3327740516
 31
0.0
  0
LINE
  5
144
330
1F
100
AcDbEntity
  8
SK3
  6
HIDDEN
370
    18
100
AcDbLine
 10
10.6249327925
 20
-9.3327740516
 30
0.0
 11
10.4289419162
 21
-9.8387802103
 31
0.0
  0
LINE
  5
145
330
1F
100
AcDbEntity
  8
SK3
  6
HIDDEN
370
    18
100
AcDbLine
 10
10.4289419162
 20
-9.8387802103
 30
0.0
 11
10.060599556
 21
-10.2512802103
 31
0.0
  0
LINE
  5
146
330
1F
100
AcDbEntity
  8
SK3
  6
HIDDEN
370
    18
100
AcDbLine
 10
10.060599556
 20
-10.2512802103
 30
0.0
 11
9.5643332365
 21
-10.5205204637
 31
0.0
  0
LINE
  5
147
330
1F
100
AcDbEntity
  8
SK3
  6
HIDDEN
370
    18
100
AcDbLine
 10
9.5643332365
 20
-10.5205204637
 30
0.0
 11
9.0
 21
-10.6140266224
 31
0.0
  0
LINE
  5
148
330
1F
100
AcDbEntity
  8
SK3
  6
HIDDEN
370
    18
100
AcDbLine
 10
-63.65
 20
-8.505
 30
0.0
 11
-63.65
 21
8.505
 31
0.0
  0
LINE
  5
149
330
1F
100
AcDbEntity
  8
SK3
  6
HIDDEN
370
    18
100
AcDbLine
 10
-65.4
 20
-9.5153629711
 30
0.0
 11
-65.4
 21
9.5153629711
 31
0.0
  0
LINE
  5
14A
330
1F
100
AcDbEntity
  8
SK3
  6
HIDDEN
370
    18
100
AcDbLine
 10
-56.15
 20
-8.8
 30
0.0
 11
-56.15
 21
8.8
 31
0.0
  0
LINE
  5
14B
330
1F
100
AcDbEntity
  8
SK3
  6
HIDDEN
370
    18
100
AcDbLine
 10
-59.15
 20
-8.8
 30
0.0
 11
-59.15
 21
8.8
 31
0.0
  0
LINE
  5
14C
330
1F
100
AcDbEntity
  8
SK3
  6
HIDDEN
370
    18
100
AcDbLine
 10
-55.1107695155
 20
-7.0
 30
0.0
 11
-55.1107695155
 21
7.0
 31
0.0
  0
LINE
  5
14D
330
1F
100
AcDbEntity
  8
SK3
  6
HIDDEN
370
    18
100
AcDbLine
 10
-59.6609549882
 20
-8.505
 30
0.0
 11
-59.6609549882
 21
8.505
 31
0.0
  0
LINE
  5
14E
330
1F
100
AcDbEntity
  8
SK3
  6
HIDDEN
370
    18
100
AcDbLine
 10
2.375
 20
22.875
 30
0.0
 11
2.375
 21
29.5343575532
 31
0.0
  0
LINE
  5
14F
330
1F
100
AcDbEntity
  8
SK3
  6
HIDDEN
370
    18
100
AcDbLine
 10
2.75
 20
29.9242806492
 30
0.0
 11
11.8542590336
 21
29.9242806492
 31
0.0
  0
LINE
  5
150
330
1F
100
AcDbEntity
  8
1
  6
HIDDEN
370
    18
100
AcDbLine
 10
14.1
 20
25.873344623
 30
0.0
 11
14.1
 21
25.6268726145
 31
0.0
  0
LINE
  5
151
330
1F
100
AcDbEntity
  8
SK3
  6
HIDDEN
370
    18
100
AcDbLine
 10
2.2582265122
 20
-29.5495194269
 30
0.0
 11
2.2582265122
 21
-22.875
 31
0.0
  0
LINE
  5
152
330
1F
100
AcDbEntity
  8
SK3
  6
HIDDEN
370
    18
100
AcDbLine
 10
11.778314401
 20
-30.0605275591
 30
0.0
 11
2.75
 21
-30.0605275591
 31
0.0
  0
LINE
  5
153
330
1F
100
AcDbEntity
  8
1
  6
HIDDEN
370
    18
100
AcDbLine
 10
14.1
 20
-25.873344623
 30
0.0
 11
14.1
 21
-25.6268726145
 31
0.0
  0
LINE
  5
154
330
1F
100
AcDbEntity
  8
SK3
  6
HIDDEN
370
    18
100
AcDbLine
 10
2.375
 20
22.5
 30
0.0
 11
15.405
 21
22.5
 31
0.0
  0
LINE
  5
155
330
1F
100
AcDbEntity
  8
SK3
  6
HIDDEN
370
    18
100
AcDbLine
 10
15.405
 20
22.875
 30
0.0
 11
2.375
 21
22.875
 31
0.0
  0
LINE
  5
156
330
1F
100
AcDbEntity
  8
SK3
  6
HIDDEN
370
    18
100
AcDbLine
 10
15.405
 20
-22.5
 30
0.0
 11
23.125
 21
-22.5
 31
0.0
  0
LINE
  5
157
330
1F
100
AcDbEntity
  8
SK3
  6
HIDDEN
370
    18
100
AcDbLine
 10
15.405
 20
-22.875
 30
0.0
 11
23.5
 21
-22.875
 31
0.0
  0
LINE
  5
158
330
1F
100
AcDbEntity
  8
SK3
  6
HIDDEN
370
    18
100
AcDbLine
 10
15.405
 20
22.875
 30
0.0
 11
23.5
 21
22.875
 31
0.0
  0
LINE
  5
159
330
1F
100
AcDbEntity
  8
SK3
  6
HIDDEN
370
    18
100
AcDbLine
 10
15.405
 20
25.2333306363
 30
0.0
 11
15.405
 21
22.875
 31
0.0
  0
LINE
  5
15A
330
1F
100
AcDbEntity
  8
1
  6
HIDDEN
370
    18
100
AcDbLine
 10
19.1
 20
26.1358563468
 30
0.0
 11
19.1
 21
25.8918833807
 31
0.0
  0
LINE
  5
15B
330
1F
100
AcDbEntity
  8
1
  6
HIDDEN
370
    18
100
AcDbLine
 10
19.1
 20
-26.1358563468
 30
0.0
 11
19.1
 21
-25.8918833807
 31
0.0
  0
LINE
  5
15C
330
1F
100
AcDbEntity
  8
SK3
  6
HIDDEN
370
    18
100
AcDbLine
 10
15.405
 20
-25.2333306363
 30
0.0
 11
15.405
 21
-22.875
 31
0.0
  0
LINE
  5
15D
330
1F
100
AcDbEntity
  8
SK3
  6
HIDDEN
370
    18
100
AcDbLine
 10
15.405
 20
-22.5
 30
0.0
 11
2.2582265122
 21
-22.5
 31
0.0
  0
LINE
  5
15E
330
1F
100
AcDbEntity
  8
SK3
  6
HIDDEN
370
    18
100
AcDbLine
 10
2.2582265122
 20
-22.875
 30
0.0
 11
15.405
 21
-22.875
 31
0.0
  0
LINE
  5
15F
330
1F
100
AcDbEntity
  8
SK3
  6
HIDDEN
370
    18
100
AcDbLine
 10
15.405
 20
22.5
 30
0.0
 11
23.125
 21
22.5
 31
0.0
  0
LINE
  5
160
330
1F
100
AcDbEntity
  8
SK3
  6
HIDDEN
370
    18
100
AcDbLine
 10
24.6
 20
-7.0
 30
0.0
 11
24.6
 21
7.0
 31
0.0
  0
LINE
  5
161
330
1F
100
AcDbEntity
  8
SK3
  6
HIDDEN
370
    18
100
AcDbLine
 10
25.200860619
 20
6.0
 30
0.0
 11
25.200860619
 21
-6.0
 31
0.0
  0
LINE
  5
162
330
1F
100
AcDbEntity
  8
SK1
  6
HIDDEN
370
    18
100
AcDbLine
 10
179.0
 20
4.2300775542
 30
0.0
 11
179.0
 21
6.7300775542
 31
0.0
  0
LINE
  5
163
330
1F
100
AcDbEntity
  8
SK3
  6
HIDDEN
370
    18
100
AcDbLine
 10
149.0
 20
4.2300775542
 30
0.0
 11
149.0
 21
6.7300775542
 31
0.0
  0
LINE
  5
164
330
1F
100
AcDbEntity
  8
SK1
  6
HIDDEN
370
    18
100
AcDbLine
 10
179.0
 20
-6.7300775542
 30
0.0
 11
179.0
 21
-4.2300775542
 31
0.0
  0
LINE
  5
165
330
1F
100
AcDbEntity
  8
SK3
  6
HIDDEN
370
    18
100
AcDbLine
 10
149.0
 20
-6.7300775542
 30
0.0
 11
149.0
 21
-4.2300775542
 31
0.0
  0
LINE
  5
166
330
1F
100
AcDbEntity
  8
SK3
  6
HIDDEN
370
    18
100
AcDbLine
 10
134.6
 20
-6.0
 30
0.0
 11
134.6
 21
6.0
 31
0.0
  0
LINE
  5
167
330
1F
100
AcDbEntity
  8
SK3
  6
HIDDEN
370
    18
100
AcDbLine
 10
135.6515060833
 20
-4.25
 30
0.0
 11
135.6515060833
 21
4.25
 31
0.0
  0
LINE
  5
168
330
1F
100
AcDbEntity
  8
SK3
  6
HIDDEN
370
    18
100
AcDbLine
 10
177.5
 20
4.25
 30
0.0
 11
177.5
 21
-4.25
 31
0.0
  0
LINE
  5
169
330
1F
100
AcDbEntity
  8
SK1
  6
HIDDEN
370
    18
100
AcDbLine
 10
179.0
 20
-5.1160254038
 30
0.0
 11
179.0
 21
5.1160254038
 31
0.0
  0
LINE
  5
16A
330
1F
100
AcDbEntity
  8
SK3
  6
HIDDEN
370
    18
100
AcDbLine
 10
19.5
 20
18.1
 30
0.0
 11
9.5
 21
18.1
 31
0.0
  0
LINE
  5
16B
330
1F
100
AcDbEntity
  8
SK3
  6
HIDDEN
370
    18
100
AcDbLine
 10
9.5
 20
22.5
 30
0.0
 11
19.5
 21
22.5
 31
0.0
  0
LINE
  5
16C
330
1F
100
AcDbEntity
  8
SK3
  6
HIDDEN
370
    18
100
AcDbLine
 10
9.800000411
 20
17.8
 30
0.0
 11
19.2
 21
17.8
 31
0.0
  0
LINE
  5
16D
330
1F
100
AcDbEntity
  8
SK1
  6
HIDDEN
370
    18
100
AcDbLine
 10
179.0
 20
4.2300775542
 30
0.0
 11
179.0
 21
6.7300775542
 31
0.0
  0
LINE
  5
16E
330
1F
100
AcDbEntity
  8
SK3
  6
HIDDEN
370
    18
100
AcDbLine
 10
149.0
 20
4.2300775542
 30
0.0
 11
149.0
 21
6.7300775542
 31
0.0
  0
LINE
  5
16F
330
1F
100
AcDbEntity
  8
SK1
  6
HIDDEN
370
    18
100
AcDbLine
 10
179.0
 20
-6.7300775542
 30
0.0
 11
179.0
 21
-4.2300775542
 31
0.0
  0
LINE
  5
170
330
1F
100
AcDbEntity
  8
SK3
  6
HIDDEN
370
    18
100
AcDbLine
 10
149.0
 20
-6.7300775542
 30
0.0
 11
149.0
 21
-4.2300775542
 31
0.0
  0
LINE
  5
171
330
1F
100
AcDbEntity
  8
SK3
  6
HIDDEN
370
    18
100
AcDbLine
 10
15.405
 20
-22.875
 30
0.0
 11
2.375
 21
-22.875
 31
0.0
  0
LINE
  5
172
330
1F
100
AcDbEntity
  8
SK3
  6
HIDDEN
370
    18
100
AcDbLine
 10
2.375
 20
-22.5
 30
0.0
 11
15.405
 21
-22.5
 31
0.0
  0
LINE
  5
173
330
1F
100
AcDbEntity
  8
SK3
  6
HIDDEN
370
    18
100
AcDbLine
 10
2.375
 20
-22.875
 30
0.0
 11
2.375
 21
-29.5343575532
 31
0.0
  0
LINE
  5
174
330
1F
100
AcDbEntity
  8
SK3
  6
HIDDEN
370
    18
100
AcDbLine
 10
2.75
 20
-29.9242806492
 30
0.0
 11
11.8542590336
 21
-29.9242806492
 31
0.0
  0
LINE
  5
175
330
1F
100
AcDbEntity
  8
1
  6
HIDDEN
370
    18
100
AcDbLine
 10
15.405
 20
-25.2333306363
 30
0.0
 11
14.475
 21
-25.2333306363
 31
0.0
  0
LINE
  5
176
330
1F
100
AcDbEntity
  8
1
  6
HIDDEN
370
    18
100
AcDbLine
 10
15.405
 20
25.2333306363
 30
0.0
 11
14.475
 21
25.2333306363
 31
0.0
  0
LINE
  5
177
330
1F
100
AcDbEntity
  8
SK3
  6
HIDDEN
370
    18
100
AcDbLine
 10
2.3207095254
 20
8.9010468883
 30
0.0
 11
2.4719216467
 21
9.4919212114
 31
0.0
  0
LINE
  5
178
330
1F
100
AcDbEntity
  8
SK3
  6
HIDDEN
370
    18
100
AcDbLine
 10
2.4719216467
 20
9.4919212114
 30
0.0
 11
2.7132521152
 21
10.0249566389
 31
0.0
  0
LINE
  5
179
330
1F
100
AcDbEntity
  8
SK3
  6
HIDDEN
370
    18
100
AcDbLine
 10
2.7132521152
 20
10.0249566389
 30
0.0
 11
3.0210778233
 21
10.4479759493
 31
0.0
  0
LINE
  5
17A
330
1F
100
AcDbEntity
  8
SK3
  6
HIDDEN
370
    18
100
AcDbLine
 10
3.0210778233
 20
10.4479759493
 30
0.0
 11
3.3652666459
 21
10.7195710651
 31
0.0
  0
LINE
  5
17B
330
1F
100
AcDbEntity
  8
SK3
  6
HIDDEN
370
    18
100
AcDbLine
 10
3.3652666459
 20
10.7195710651
 30
0.0
 11
3.7121269829
 21
10.8131563641
 31
0.0
  0
LINE
  5
17C
330
1F
100
AcDbEntity
  8
SK3
  6
HIDDEN
370
    18
100
AcDbLine
 10
3.7121269829
 20
10.8131563641
 30
0.0
 11
4.0277057277
 21
10.7195710651
 31
0.0
  0
LINE
  5
17D
330
1F
100
AcDbEntity
  8
SK3
  6
HIDDEN
370
    18
100
AcDbLine
 10
4.0277057277
 20
10.7195710651
 30
0.0
 11
4.2811118342
 21
10.4479759493
 31
0.0
  0
LINE
  5
17E
330
1F
100
AcDbEntity
  8
SK3
  6
HIDDEN
370
    18
100
AcDbLine
 10
4.2811118342
 20
10.4479759493
 30
0.0
 11
4.447540147
 21
10.0249566389
 31
0.0
  0
LINE
  5
17F
330
1F
100
AcDbEntity
  8
SK3
  6
HIDDEN
370
    18
100
AcDbLine
 10
4.447540147
 20
10.0249566389
 30
0.0
 11
4.5106995033
 21
9.4919212114
 31
0.0
  0
LINE
  5
180
330
1F
100
AcDbEntity
  8
SK3
  6
HIDDEN
370
    18
100
AcDbLine
 10
4.5106995033
 20
9.4919212114
 30
0.0
 11
4.4644074252
 21
8.9010468883
 31
0.0
  0
LINE
  5
181
330
1F
100
AcDbEntity
  8
SK3
  6
HIDDEN
370
    18
100
AcDbLine
 10
4.4644074252
 20
8.9010468883
 30
0.0
 11
4.3131953039
 21
8.3101725652
 31
0.0
  0
LINE
  5
182
330
1F
100
AcDbEntity
  8
SK3
  6
HIDDEN
370
    18
100
AcDbLine
 10
4.3131953039
 20
8.3101725652
 30
0.0
 11
4.0718648353
 21
7.7771371378
 31
0.0
  0
LINE
  5
183
330
1F
100
AcDbEntity
  8
SK3
  6
HIDDEN
370
    18
100
AcDbLine
 10
4.0718648353
 20
7.7771371378
 30
0.0
 11
3.7640391273
 21
7.3541178274
 31
0.0
  0
LINE
  5
184
330
1F
100
AcDbEntity
  8
SK3
  6
HIDDEN
370
    18
100
AcDbLine
 10
3.7640391273
 20
7.3541178274
 30
0.0
 11
3.4198503047
 21
7.0825227116
 31
0.0
  0
LINE
  5
185
330
1F
100
AcDbEntity
  8
SK3
  6
HIDDEN
370
    18
100
AcDbLine
 10
3.4198503047
 20
7.0825227116
 30
0.0
 11
3.0729899677
 21
6.9889374126
 31
0.0
  0
LINE
  5
186
330
1F
100
AcDbEntity
  8
SK3
  6
HIDDEN
370
    18
100
AcDbLine
 10
3.0729899677
 20
6.9889374126
 30
0.0
 11
2.7574112228
 21
7.0825227116
 31
0.0
  0
LINE
  5
187
330
1F
100
AcDbEntity
  8
SK3
  6
HIDDEN
370
    18
100
AcDbLine
 10
2.7574112228
 20
7.0825227116
 30
0.0
 11
2.5040051163
 21
7.3541178274
 31
0.0
  0
LINE
  5
188
330
1F
100
AcDbEntity
  8
SK3
  6
HIDDEN
370
    18
100
AcDbLine
 10
2.5040051163
 20
7.3541178274
 30
0.0
 11
2.3375768035
 21
7.7771371378
 31
0.0
  0
LINE
  5
189
330
1F
100
AcDbEntity
  8
SK3
  6
HIDDEN
370
    18
100
AcDbLine
 10
2.3375768035
 20
7.7771371378
 30
0.0
 11
2.2744174473
 21
8.3101725652
 31
0.0
  0
LINE
  5
18A
330
1F
100
AcDbEntity
  8
SK3
  6
HIDDEN
370
    18
100
AcDbLine
 10
2.2744174473
 20
8.3101725652
 30
0.0
 11
2.3207095254
 21
8.9010468883
 31
0.0
  0
LINE
  5
18B
330
1F
100
AcDbEntity
  8
SK3
  6
HIDDEN
370
    18
100
AcDbLine
 10
13.5430925321
 20
6.2134535673
 30
0.0
 11
13.6943046534
 21
6.8043278904
 31
0.0
  0
LINE
  5
18C
330
1F
100
AcDbEntity
  8
SK3
  6
HIDDEN
370
    18
100
AcDbLine
 10
13.6943046534
 20
6.8043278904
 30
0.0
 11
13.935635122
 21
7.3373633179
 31
0.0
  0
LINE
  5
18D
330
1F
100
AcDbEntity
  8
SK3
  6
HIDDEN
370
    18
100
AcDbLine
 10
13.935635122
 20
7.3373633179
 30
0.0
 11
14.2434608301
 21
7.7603826282
 31
0.0
  0
LINE
  5
18E
330
1F
100
AcDbEntity
  8
SK3
  6
HIDDEN
370
    18
100
AcDbLine
 10
14.2434608301
 20
7.7603826282
 30
0.0
 11
14.5876496526
 21
8.031977744
 31
0.0
  0
LINE
  5
18F
330
1F
100
AcDbEntity
  8
SK3
  6
HIDDEN
370
    18
100
AcDbLine
 10
14.5876496526
 20
8.031977744
 30
0.0
 11
14.9345099896
 21
8.125563043
 31
0.0
  0
LINE
  5
190
330
1F
100
AcDbEntity
  8
SK3
  6
HIDDEN
370
    18
100
AcDbLine
 10
14.9345099896
 20
8.125563043
 30
0.0
 11
15.2500887345
 21
8.031977744
 31
0.0
  0
LINE
  5
191
330
1F
100
AcDbEntity
  8
SK3
  6
HIDDEN
370
    18
100
AcDbLine
 10
15.2500887345
 20
8.031977744
 30
0.0
 11
15.503494841
 21
7.7603826282
 31
0.0
  0
LINE
  5
192
330
1F
100
AcDbEntity
  8
SK3
  6
HIDDEN
370
    18
100
AcDbLine
 10
15.503494841
 20
7.7603826282
 30
0.0
 11
15.6699231538
 21
7.3373633179
 31
0.0
  0
LINE
  5
193
330
1F
100
AcDbEntity
  8
SK3
  6
HIDDEN
370
    18
100
AcDbLine
 10
15.6699231538
 20
7.3373633179
 30
0.0
 11
15.7330825101
 21
6.8043278904
 31
0.0
  0
LINE
  5
194
330
1F
100
AcDbEntity
  8
SK3
  6
HIDDEN
370
    18
100
AcDbLine
 10
15.7330825101
 20
6.8043278904
 30
0.0
 11
15.686790432
 21
6.2134535673
 31
0.0
  0
LINE
  5
195
330
1F
100
AcDbEntity
  8
SK3
  6
HIDDEN
370
    18
100
AcDbLine
 10
15.686790432
 20
6.2134535673
 30
0.0
 11
15.5355783107
 21
5.6225792442
 31
0.0
  0
LINE
  5
196
330
1F
100
AcDbEntity
  8
SK3
  6
HIDDEN
370
    18
100
AcDbLine
 10
15.5355783107
 20
5.6225792442
 30
0.0
 11
15.2942478421
 21
5.0895438167
 31
0.0
  0
LINE
  5
197
330
1F
100
AcDbEntity
  8
SK3
  6
HIDDEN
370
    18
100
AcDbLine
 10
15.2942478421
 20
5.0895438167
 30
0.0
 11
14.986422134
 21
4.6665245063
 31
0.0
  0
LINE
  5
198
330
1F
100
AcDbEntity
  8
SK3
  6
HIDDEN
370
    18
100
AcDbLine
 10
14.986422134
 20
4.6665245063
 30
0.0
 11
14.6422333115
 21
4.3949293905
 31
0.0
  0
LINE
  5
199
330
1F
100
AcDbEntity
  8
SK3
  6
HIDDEN
370
    18
100
AcDbLine
 10
14.6422333115
 20
4.3949293905
 30
0.0
 11
14.2953729745
 21
4.3013440916
 31
0.0
  0
LINE
  5
19A
330
1F
100
AcDbEntity
  8
SK3
  6
HIDDEN
370
    18
100
AcDbLine
 10
14.2953729745
 20
4.3013440916
 30
0.0
 11
13.9797942296
 21
4.3949293905
 31
0.0
  0
LINE
  5
19B
330
1F
100
AcDbEntity
  8
SK3
  6
HIDDEN
370
    18
100
AcDbLine
 10
13.9797942296
 20
4.3949293905
 30
0.0
 11
13.7263881231
 21
4.6665245063
 31
0.0
  0
LINE
  5
19C
330
1F
100
AcDbEntity
  8
SK3
  6
HIDDEN
370
    18
100
AcDbLine
 10
13.7263881231
 20
4.6665245063
 30
0.0
 11
13.5599598103
 21
5.0895438167
 31
0.0
  0
LINE
  5
19D
330
1F
100
AcDbEntity
  8
SK3
  6
HIDDEN
370
    18
100
AcDbLine
 10
13.5599598103
 20
5.0895438167
 30
0.0
 11
13.496800454
 21
5.6225792442
 31
0.0
  0
LINE
  5
19E
330
1F
100
AcDbEntity
  8
SK3
  6
HIDDEN
370
    18
100
AcDbLine
 10
13.496800454
 20
5.6225792442
 30
0.0
 11
13.5430925321
 21
6.2134535673
 31
0.0
  0
LINE
  5
19F
330
1F
100
AcDbEntity
  8
SK3
  6
HIDDEN
370
    18
100
AcDbLine
 10
9.0
 20
7.7517462052
 30
0.0
 11
8.4356667635
 21
7.8452523639
 31
0.0
  0
LINE
  5
1A0
330
1F
100
AcDbEntity
  8
SK3
  6
HIDDEN
370
    18
100
AcDbLine
 10
8.4356667635
 20
7.8452523639
 30
0.0
 11
7.939400444
 21
8.1144926173
 31
0.0
  0
LINE
  5
1A1
330
1F
100
AcDbEntity
  8
SK3
  6
HIDDEN
370
    18
100
AcDbLine
 10
7.939400444
 20
8.1144926173
 30
0.0
 11
7.5710580838
 21
8.5269926173
 31
0.0
  0
LINE
  5
1A2
330
1F
100
AcDbEntity
  8
SK3
  6
HIDDEN
370
    18
100
AcDbLine
 10
7.5710580838
 20
8.5269926173
 30
0.0
 11
7.3750672075
 21
9.0329987761
 31
0.0
  0
LINE
  5
1A3
330
1F
100
AcDbEntity
  8
SK3
  6
HIDDEN
370
    18
100
AcDbLine
 10
7.3750672075
 20
9.0329987761
 30
0.0
 11
7.3750672075
 21
9.5714792829
 31
0.0
  0
LINE
  5
1A4
330
1F
100
AcDbEntity
  8
SK3
  6
HIDDEN
370
    18
100
AcDbLine
 10
7.3750672075
 20
9.5714792829
 30
0.0
 11
7.5710580838
 21
10.0774854416
 31
0.0
  0
LINE
  5
1A5
330
1F
100
AcDbEntity
  8
SK3
  6
HIDDEN
370
    18
100
AcDbLine
 10
7.5710580838
 20
10.0774854416
 30
0.0
 11
7.939400444
 21
10.4899854416
 31
0.0
  0
LINE
  5
1A6
330
1F
100
AcDbEntity
  8
SK3
  6
HIDDEN
370
    18
100
AcDbLine
 10
7.939400444
 20
10.4899854416
 30
0.0
 11
8.4356667635
 21
10.7592256951
 31
0.0
  0
LINE
  5
1A7
330
1F
100
AcDbEntity
  8
SK3
  6
HIDDEN
370
    18
100
AcDbLine
 10
8.4356667635
 20
10.7592256951
 30
0.0
 11
9.0
 21
10.8527318538
 31
0.0
  0
LINE
  5
1A8
330
1F
100
AcDbEntity
  8
SK3
  6
HIDDEN
370
    18
100
AcDbLine
 10
9.0
 20
10.8527318538
 30
0.0
 11
9.5643332365
 21
10.7592256951
 31
0.0
  0
LINE
  5
1A9
330
1F
100
AcDbEntity
  8
SK3
  6
HIDDEN
370
    18
100
AcDbLine
 10
9.5643332365
 20
10.7592256951
 30
0.0
 11
10.060599556
 21
10.4899854416
 31
0.0
  0
LINE
  5
1AA
330
1F
100
AcDbEntity
  8
SK3
  6
HIDDEN
370
    18
100
AcDbLine
 10
10.060599556
 20
10.4899854416
 30
0.0
 11
10.4289419162
 21
10.0774854416
 31
0.0
  0
LINE
  5
1AB
330
1F
100
AcDbEntity
  8
SK3
  6
HIDDEN
370
    18
100
AcDbLine
 10
10.4289419162
 20
10.0774854416
 30
0.0
 11
10.6249327925
 21
9.5714792829
 31
0.0
  0
LINE
  5
1AC
330
1F
100
AcDbEntity
  8
SK3
  6
HIDDEN
370
    18
100
AcDbLine
 10
10.6249327925
 20
9.5714792829
 30
0.0
 11
10.6249327925
 21
9.0329987761
 31
0.0
  0
LINE
  5
1AD
330
1F
100
AcDbEntity
  8
SK3
  6
HIDDEN
370
    18
100
AcDbLine
 10
10.6249327925
 20
9.0329987761
 30
0.0
 11
10.4289419162
 21
8.5269926173
 31
0.0
  0
LINE
  5
1AE
330
1F
100
AcDbEntity
  8
SK3
  6
HIDDEN
370
    18
100
AcDbLine
 10
10.4289419162
 20
8.5269926173
 30
0.0
 11
10.060599556
 21
8.1144926173
 31
0.0
  0
LINE
  5
1AF
330
1F
100
AcDbEntity
  8
SK3
  6
HIDDEN
370
    18
100
AcDbLine
 10
10.060599556
 20
8.1144926173
 30
0.0
 11
9.5643332365
 21
7.8452523639
 31
0.0
  0
LINE
  5
1B0
330
1F
100
AcDbEntity
  8
SK3
  6
HIDDEN
370
    18
100
AcDbLine
 10
9.5643332365
 20
7.8452523639
 30
0.0
 11
9.0
 21
7.7517462052
 31
0.0
  0
LINE
  5
1B1
330
1F
100
AcDbEntity
  8
SK3
  6
HIDDEN
370
    18
100
AcDbLine
 10
2.2382596061
 20
8.9010468883
 30
0.0
 11
2.3909820659
 21
9.5080052167
 31
0.0
  0
LINE
  5
1B2
330
1F
100
AcDbEntity
  8
SK3
  6
HIDDEN
370
    18
100
AcDbLine
 10
2.3909820659
 20
9.5080052167
 30
0.0
 11
2.632698985
 21
10.0610326339
 31
0.0
  0
LINE
  5
1B3
330
1F
100
AcDbEntity
  8
SK3
  6
HIDDEN
370
    18
100
AcDbLine
 10
2.632698985
 20
10.0610326339
 30
0.0
 11
2.9419327544
 21
10.5109902272
 31
0.0
  0
LINE
  5
1B4
330
1F
100
AcDbEntity
  8
SK3
  6
HIDDEN
370
    18
100
AcDbLine
 10
2.9419327544
 20
10.5109902272
 30
0.0
 11
3.2912065966
 21
10.8178972896
 31
0.0
  0
LINE
  5
1B5
330
1F
100
AcDbEntity
  8
SK3
  6
HIDDEN
370
    18
100
AcDbLine
 10
3.2912065966
 20
10.8178972896
 30
0.0
 11
3.6494859981
 21
10.954483782
 31
0.0
  0
LINE
  5
1B6
330
1F
100
AcDbEntity
  8
SK3
  6
HIDDEN
370
    18
100
AcDbLine
 10
3.6494859981
 20
10.954483782
 30
0.0
 11
3.9849362616
 21
10.908613395
 31
0.0
  0
LINE
  5
1B7
330
1F
100
AcDbEntity
  8
SK3
  6
HIDDEN
370
    18
100
AcDbLine
 10
3.9849362616
 20
10.908613395
 30
0.0
 11
4.2677511592
 21
10.6843619138
 31
0.0
  0
LINE
  5
1B8
330
1F
100
AcDbEntity
  8
SK3
  6
HIDDEN
370
    18
100
AcDbLine
 10
4.2677511592
 20
10.6843619138
 30
0.0
 11
4.4728013461
 21
10.3016550667
 31
0.0
  0
LINE
  5
1B9
330
1F
100
AcDbEntity
  8
SK3
  6
HIDDEN
370
    18
100
AcDbLine
 10
4.4728013461
 20
10.3016550667
 30
0.0
 11
4.5818672134
 21
9.7944980364
 31
0.0
  0
LINE
  5
1BA
330
1F
100
AcDbEntity
  8
SK3
  6
HIDDEN
370
    18
100
AcDbLine
 10
4.5818672134
 20
9.7944980364
 30
0.0
 11
4.5852577801
 21
9.2079539508
 31
0.0
  0
LINE
  5
1BB
330
1F
100
AcDbEntity
  8
SK3
  6
HIDDEN
370
    18
100
AcDbLine
 10
4.5852577801
 20
9.2079539508
 30
0.0
 11
4.4826717795
 21
8.5941398259
 31
0.0
  0
LINE
  5
1BC
330
1F
100
AcDbEntity
  8
SK3
  6
HIDDEN
370
    18
100
AcDbLine
 10
4.4826717795
 20
8.5941398259
 30
0.0
 11
4.2832244279
 21
8.0075957403
 31
0.0
  0
LINE
  5
1BD
330
1F
100
AcDbEntity
  8
SK3
  6
HIDDEN
370
    18
100
AcDbLine
 10
4.2832244279
 20
8.0075957403
 30
0.0
 11
4.0046374978
 21
7.50043871
 31
0.0
  0
LINE
  5
1BE
330
1F
100
AcDbEntity
  8
SK3
  6
HIDDEN
370
    18
100
AcDbLine
 10
4.0046374978
 20
7.50043871
 30
0.0
 11
3.6716646605
 21
7.1177318629
 31
0.0
  0
LINE
  5
1BF
330
1F
100
AcDbEntity
  8
SK3
  6
HIDDEN
370
    18
100
AcDbLine
 10
3.6716646605
 20
7.1177318629
 30
0.0
 11
3.3138920138
 21
6.8934803817
 31
0.0
  0
LINE
  5
1C0
330
1F
100
AcDbEntity
  8
SK3
  6
HIDDEN
370
    18
100
AcDbLine
 10
3.3138920138
 20
6.8934803817
 30
0.0
 11
2.9631092275
 21
6.8476099947
 31
0.0
  0
LINE
  5
1C1
330
1F
100
AcDbEntity
  8
SK3
  6
HIDDEN
370
    18
100
AcDbLine
 10
2.9631092275
 20
6.8476099947
 30
0.0
 11
2.6504848914
 21
6.9841964871
 31
0.0
  0
LINE
  5
1C2
330
1F
100
AcDbEntity
  8
SK3
  6
HIDDEN
370
    18
100
AcDbLine
 10
2.6504848914
 20
6.9841964871
 30
0.0
 11
2.4037970497
 21
7.2911035495
 31
0.0
  0
LINE
  5
1C3
330
1F
100
AcDbEntity
  8
SK3
  6
HIDDEN
370
    18
100
AcDbLine
 10
2.4037970497
 20
7.2911035495
 30
0.0
 11
2.2449649999
 21
7.7410611428
 31
0.0
  0
LINE
  5
1C4
330
1F
100
AcDbEntity
  8
SK3
  6
HIDDEN
370
    18
100
AcDbLine
 10
2.2449649999
 20
7.7410611428
 30
0.0
 11
2.1881016664
 21
8.29408856
 31
0.0
  0
LINE
  5
1C5
330
1F
100
AcDbEntity
  8
SK3
  6
HIDDEN
370
    18
100
AcDbLine
 10
2.1881016664
 20
8.29408856
 30
0.0
 11
2.2382596061
 21
8.9010468883
 31
0.0
  0
LINE
  5
1C6
330
1F
100
AcDbEntity
  8
SK3
  6
HIDDEN
370
    18
100
AcDbLine
 10
2.0
 20
7.0803098558
 30
0.0
 11
2.0
 21
11.3887778837
 31
0.0
  0
LINE
  5
1C7
330
1F
100
AcDbEntity
  8
SK3
  6
HIDDEN
370
    18
100
AcDbLine
 10
9.0
 20
7.4919666856
 30
0.0
 11
8.3819660113
 21
7.5839503465
 31
0.0
  0
LINE
  5
1C8
330
1F
100
AcDbEntity
  8
SK3
  6
HIDDEN
370
    18
100
AcDbLine
 10
8.3819660113
 20
7.5839503465
 30
0.0
 11
7.8244294954
 21
7.8508973277
 31
0.0
  0
LINE
  5
1C9
330
1F
100
AcDbEntity
  8
SK3
  6
HIDDEN
370
    18
100
AcDbLine
 10
7.8244294954
 20
7.8508973277
 30
0.0
 11
7.3819660113
 21
8.2666769988
 31
0.0
  0
LINE
  5
1CA
330
1F
100
AcDbEntity
  8
SK3
  6
HIDDEN
370
    18
100
AcDbLine
 10
7.3819660113
 20
8.2666769988
 30
0.0
 11
7.0978869674
 21
8.7905899485
 31
0.0
  0
LINE
  5
1CB
330
1F
100
AcDbEntity
  8
SK3
  6
HIDDEN
370
    18
100
AcDbLine
 10
7.0978869674
 20
8.7905899485
 30
0.0
 11
7.0
 21
9.3713519271
 31
0.0
  0
LINE
  5
1CC
330
1F
100
AcDbEntity
  8
SK3
  6
HIDDEN
370
    18
100
AcDbLine
 10
7.0
 20
9.3713519271
 30
0.0
 11
7.0978869674
 21
9.9521139057
 31
0.0
  0
LINE
  5
1CD
330
1F
100
AcDbEntity
  8
SK3
  6
HIDDEN
370
    18
100
AcDbLine
 10
7.0978869674
 20
9.9521139057
 30
0.0
 11
7.3819660113
 21
10.4760268555
 31
0.0
  0
LINE
  5
1CE
330
1F
100
AcDbEntity
  8
SK3
  6
HIDDEN
370
    18
100
AcDbLine
 10
7.3819660113
 20
10.4760268555
 30
0.0
 11
7.8244294954
 21
10.8918065265
 31
0.0
  0
LINE
  5
1CF
330
1F
100
AcDbEntity
  8
SK3
  6
HIDDEN
370
    18
100
AcDbLine
 10
7.8244294954
 20
10.8918065265
 30
0.0
 11
8.3819660113
 21
11.1587535077
 31
0.0
  0
LINE
  5
1D0
330
1F
100
AcDbEntity
  8
SK3
  6
HIDDEN
370
    18
100
AcDbLine
 10
8.3819660113
 20
11.1587535077
 30
0.0
 11
9.0
 21
11.2507371687
 31
0.0
  0
LINE
  5
1D1
330
1F
100
AcDbEntity
  8
SK3
  6
HIDDEN
370
    18
100
AcDbLine
 10
9.0
 20
11.2507371687
 30
0.0
 11
9.6180339887
 21
11.1587535077
 31
0.0
  0
LINE
  5
1D2
330
1F
100
AcDbEntity
  8
SK3
  6
HIDDEN
370
    18
100
AcDbLine
 10
9.6180339887
 20
11.1587535077
 30
0.0
 11
10.1755705046
 21
10.8918065265
 31
0.0
  0
LINE
  5
1D3
330
1F
100
AcDbEntity
  8
SK3
  6
HIDDEN
370
    18
100
AcDbLine
 10
10.1755705046
 20
10.8918065265
 30
0.0
 11
10.6180339887
 21
10.4760268555
 31
0.0
  0
LINE
  5
1D4
330
1F
100
AcDbEntity
  8
SK3
  6
HIDDEN
370
    18
100
AcDbLine
 10
10.6180339887
 20
10.4760268555
 30
0.0
 11
10.9021130326
 21
9.9521139057
 31
0.0
  0
LINE
  5
1D5
330
1F
100
AcDbEntity
  8
SK3
  6
HIDDEN
370
    18
100
AcDbLine
 10
10.9021130326
 20
9.9521139057
 30
0.0
 11
11.0
 21
9.3713519271
 31
0.0
  0
LINE
  5
1D6
330
1F
100
AcDbEntity
  8
SK3
  6
HIDDEN
370
    18
100
AcDbLine
 10
11.0
 20
9.3713519271
 30
0.0
 11
10.9021130326
 21
8.7905899485
 31
0.0
  0
LINE
  5
1D7
330
1F
100
AcDbEntity
  8
SK3
  6
HIDDEN
370
    18
100
AcDbLine
 10
10.9021130326
 20
8.7905899485
 30
0.0
 11
10.6180339887
 21
8.2666769988
 31
0.0
  0
LINE
  5
1D8
330
1F
100
AcDbEntity
  8
SK3
  6
HIDDEN
370
    18
100
AcDbLine
 10
10.6180339887
 20
8.2666769988
 30
0.0
 11
10.1755705046
 21
7.8508973277
 31
0.0
  0
LINE
  5
1D9
330
1F
100
AcDbEntity
  8
SK3
  6
HIDDEN
370
    18
100
AcDbLine
 10
10.1755705046
 20
7.8508973277
 30
0.0
 11
9.6180339887
 21
7.5839503465
 31
0.0
  0
LINE
  5
1DA
330
1F
100
AcDbEntity
  8
SK3
  6
HIDDEN
370
    18
100
AcDbLine
 10
9.6180339887
 20
7.5839503465
 30
0.0
 11
9.0
 21
7.4919666856
 31
0.0
  0
LINE
  5
1DB
330
1F
100
AcDbEntity
  8
SK3
  6
HIDDEN
370
    18
100
AcDbLine
 10
2.0
 20
-11.3939250756
 30
0.0
 11
3.8816472991
 21
-10.9432986168
 31
0.0
  0
LINE
  5
1DC
330
1F
100
AcDbEntity
  8
SK3
  6
HIDDEN
370
    18
100
AcDbLine
 10
2.9034696515
 20
-6.8587951599
 30
0.0
 11
2.0
 21
-7.075162664
 31
0.0
  0
LINE
  5
1DD
330
1F
100
AcDbEntity
  8
SK3
  6
HIDDEN
370
    18
100
AcDbLine
 10
3.8467123831
 20
-10.7974234933
 30
0.0
 11
15.0690953899
 21
-8.1098301723
 31
0.0
  0
LINE
  5
1DE
330
1F
100
AcDbEntity
  8
SK3
  6
HIDDEN
370
    18
100
AcDbLine
 10
14.1607875742
 20
-4.3170769623
 30
0.0
 11
2.9384045674
 21
-7.0046702833
 31
0.0
  0
LINE
  5
1DF
330
1F
100
AcDbEntity
  8
SK3
  6
HIDDEN
370
    18
100
AcDbLine
 10
7.35
 20
-8.7656841456
 30
0.0
 11
7.35
 21
-9.0635337981
 31
0.0
  0
LINE
  5
1E0
330
1F
100
AcDbEntity
  8
SK3
  6
HIDDEN
370
    18
100
AcDbLine
 10
10.65
 20
-9.0635337981
 30
0.0
 11
10.65
 21
-7.9746640807
 31
0.0
  0
LINE
  5
1E1
330
1F
100
AcDbEntity
  8
SK3
  6
HIDDEN
370
    18
100
AcDbLine
 10
7.35
 20
-2.3938599274
 30
0.0
 11
7.35
 21
-7.1397870993
 31
0.0
  0
LINE
  5
1E2
330
1F
100
AcDbEntity
  8
SK3
  6
HIDDEN
370
    18
100
AcDbLine
 10
10.65
 20
-6.349147305
 30
0.0
 11
10.65
 21
-2.3936806223
 31
0.0
  0
LINE
  5
1E3
330
1F
100
AcDbEntity
  8
SK3
  6
HIDDEN
370
    18
100
AcDbLine
 10
-65.4
 20
-9.5153629711
 30
0.0
 11
-63.65
 21
-8.505
 31
0.0
  0
LINE
  5
1E4
330
1F
100
AcDbEntity
  8
SK3
  6
HIDDEN
370
    18
100
AcDbLine
 10
-63.65
 20
8.505
 30
0.0
 11
-65.4
 21
9.5153629711
 31
0.0
  0
LINE
  5
1E5
330
1F
100
AcDbEntity
  8
SK3
  6
HIDDEN
370
    18
100
AcDbLine
 10
-59.15
 20
-8.8
 30
0.0
 11
-56.15
 21
-8.8
 31
0.0
  0
LINE
  5
1E6
330
1F
100
AcDbEntity
  8
SK3
  6
HIDDEN
370
    18
100
AcDbLine
 10
-56.15
 20
8.8
 30
0.0
 11
-59.15
 21
8.8
 31
0.0
  0
LINE
  5
1E7
330
1F
100
AcDbEntity
  8
SK3
  6
HIDDEN
370
    18
100
AcDbLine
 10
-56.15
 20
-8.8
 30
0.0
 11
-55.1107695155
 21
-7.0
 31
0.0
  0
LINE
  5
1E8
330
1F
100
AcDbEntity
  8
SK3
  6
HIDDEN
370
    18
100
AcDbLine
 10
-55.1107695155
 20
7.0
 30
0.0
 11
-56.15
 21
8.8
 31
0.0
  0
LINE
  5
1E9
330
1F
100
AcDbEntity
  8
SK3
  6
HIDDEN
370
    18
100
AcDbLine
 10
-59.15
 20
8.8
 30
0.0
 11
-59.6609549882
 21
8.505
 31
0.0
  0
LINE
  5
1EA
330
1F
100
AcDbEntity
  8
SK3
  6
HIDDEN
370
    18
100
AcDbLine
 10
-59.6609549882
 20
-8.505
 30
0.0
 11
-59.15
 21
-8.8
 31
0.0
  0
LINE
  5
1EB
330
1F
100
AcDbEntity
  8
SK3
  6
HIDDEN
370
    18
100
AcDbLine
 10
-63.65
 20
-8.505
 30
0.0
 11
-59.6609549882
 21
-8.505
 31
0.0
  0
LINE
  5
1EC
330
1F
100
AcDbEntity
  8
SK3
  6
HIDDEN
370
    18
100
AcDbLine
 10
-59.6609549882
 20
8.505
 30
0.0
 11
-63.65
 21
8.505
 31
0.0
  0
LINE
  5
1ED
330
1F
100
AcDbEntity
  8
SK3
  6
HIDDEN
370
    18
100
AcDbLine
 10
23.5
 20
22.875
 30
0.0
 11
23.5
 21
31.1000827301
 31
0.0
  0
LINE
  5
1EE
330
1F
100
AcDbEntity
  8
SK3
  6
HIDDEN
370
    18
100
AcDbLine
 10
23.5
 20
-31.100089382
 30
0.0
 11
23.5
 21
-22.875
 31
0.0
  0
LINE
  5
1EF
330
1F
100
AcDbEntity
  8
SK3
  6
HIDDEN
370
    18
100
AcDbLine
 10
-55.1107695155
 20
-7.0
 30
0.0
 11
24.6
 21
-7.0
 31
0.0
  0
LINE
  5
1F0
330
1F
100
AcDbEntity
  8
SK3
  6
HIDDEN
370
    18
100
AcDbLine
 10
24.6
 20
7.0
 30
0.0
 11
-55.1107695155
 21
7.0
 31
0.0
  0
LINE
  5
1F1
330
1F
100
AcDbEntity
  8
SK3
  6
HIDDEN
370
    18
100
AcDbLine
 10
24.6
 20
-7.0
 30
0.0
 11
25.200860619
 21
-6.0
 31
0.0
  0
LINE
  5
1F2
330
1F
100
AcDbEntity
  8
SK3
  6
HIDDEN
370
    18
100
AcDbLine
 10
25.200860619
 20
6.0
 30
0.0
 11
24.6
 21
7.0
 31
0.0
  0
LINE
  5
1F3
330
1F
100
AcDbEntity
  8
SK3
  6
HIDDEN
370
    18
100
AcDbLine
 10
179.0
 20
6.7300775542
 30
0.0
 11
152.2073279684
 21
6.7300775542
 31
0.0
  0
LINE
  5
1F4
330
1F
100
AcDbEntity
  8
SK3
  6
HIDDEN
370
    18
100
AcDbLine
 10
152.2067553679
 20
4.2300775542
 30
0.0
 11
179.0
 21
4.2300775542
 31
0.0
  0
LINE
  5
1F5
330
1F
100
AcDbEntity
  8
SK3
  6
HIDDEN
370
    18
100
AcDbLine
 10
149.7890719734
 20
6.7300775542
 30
0.0
 11
149.0
 21
6.7300775542
 31
0.0
  0
LINE
  5
1F6
330
1F
100
AcDbEntity
  8
SK3
  6
HIDDEN
370
    18
100
AcDbLine
 10
149.0
 20
4.2300775542
 30
0.0
 11
149.7909847814
 21
4.2300775542
 31
0.0
  0
LINE
  5
1F7
330
1F
100
AcDbEntity
  8
SK3
  6
HIDDEN
370
    18
100
AcDbLine
 10
149.0
 20
6.7300775542
 30
0.0
 11
148.2489242262
 21
5.4800775542
 31
0.0
  0
LINE
  5
1F8
330
1F
100
AcDbEntity
  8
SK3
  6
HIDDEN
370
    18
100
AcDbLine
 10
148.2489242262
 20
5.4800775542
 30
0.0
 11
149.0
 21
4.2300775542
 31
0.0
  0
LINE
  5
1F9
330
1F
100
AcDbEntity
  8
SK3
  6
HIDDEN
370
    18
100
AcDbLine
 10
179.0
 20
-4.2300775542
 30
0.0
 11
152.2090152186
 21
-4.2300775542
 31
0.0
  0
LINE
  5
1FA
330
1F
100
AcDbEntity
  8
SK3
  6
HIDDEN
370
    18
100
AcDbLine
 10
152.2109280266
 20
-6.7300775542
 30
0.0
 11
179.0
 21
-6.7300775542
 31
0.0
  0
LINE
  5
1FB
330
1F
100
AcDbEntity
  8
SK3
  6
HIDDEN
370
    18
100
AcDbLine
 10
149.7932446321
 20
-4.2300775542
 30
0.0
 11
149.0
 21
-4.2300775542
 31
0.0
  0
LINE
  5
1FC
330
1F
100
AcDbEntity
  8
SK3
  6
HIDDEN
370
    18
100
AcDbLine
 10
149.0
 20
-6.7300775542
 30
0.0
 11
149.7926720316
 21
-6.7300775542
 31
0.0
  0
LINE
  5
1FD
330
1F
100
AcDbEntity
  8
SK3
  6
HIDDEN
370
    18
100
AcDbLine
 10
149.0
 20
-4.2300775542
 30
0.0
 11
148.2489242262
 21
-5.4800775542
 31
0.0
  0
LINE
  5
1FE
330
1F
100
AcDbEntity
  8
SK3
  6
HIDDEN
370
    18
100
AcDbLine
 10
148.2489242262
 20
-5.4800775542
 30
0.0
 11
149.0
 21
-6.7300775542
 31
0.0
  0
LINE
  5
1FF
330
1F
100
AcDbEntity
  8
SK3
  6
HIDDEN
370
    18
100
AcDbLine
 10
25.200860619
 20
-6.0
 30
0.0
 11
134.6
 21
-6.0
 31
0.0
  0
LINE
  5
200
330
1F
100
AcDbEntity
  8
SK3
  6
HIDDEN
370
    18
100
AcDbLine
 10
134.6
 20
6.0
 30
0.0
 11
25.200860619
 21
6.0
 31
0.0
  0
LINE
  5
201
330
1F
100
AcDbEntity
  8
SK3
  6
HIDDEN
370
    18
100
AcDbLine
 10
134.6
 20
-6.0
 30
0.0
 11
135.6515060833
 21
-4.25
 31
0.0
  0
LINE
  5
202
330
1F
100
AcDbEntity
  8
SK3
  6
HIDDEN
370
    18
100
AcDbLine
 10
135.6515060833
 20
4.25
 30
0.0
 11
134.6
 21
6.0
 31
0.0
  0
LINE
  5
203
330
1F
100
AcDbEntity
  8
SK3
  6
HIDDEN
370
    18
100
AcDbLine
 10
179.0
 20
5.1160254038
 30
0.0
 11
177.5
 21
4.25
 31
0.0
  0
LINE
  5
204
330
1F
100
AcDbEntity
  8
SK3
  6
HIDDEN
370
    18
100
AcDbLine
 10
177.5
 20
-4.25
 30
0.0
 11
179.0
 21
-5.1160254038
 31
0.0
  0
LINE
  5
205
330
1F
100
AcDbEntity
  8
SK3
  6
HIDDEN
370
    18
100
AcDbLine
 10
9.5
 20
22.5
 30
0.0
 11
9.5
 21
18.1
 31
0.0
  0
LINE
  5
206
330
1F
100
AcDbEntity
  8
SK3
  6
HIDDEN
370
    18
100
AcDbLine
 10
19.5
 20
18.1
 30
0.0
 11
19.5
 21
22.5
 31
0.0
  0
LINE
  5
207
330
1F
100
AcDbEntity
  8
SK3
  6
HIDDEN
370
    18
100
AcDbLine
 10
177.5
 20
4.25
 30
0.0
 11
135.6515060833
 21
4.25
 31
0.0
  0
LINE
  5
208
330
1F
100
AcDbEntity
  8
SK3
  6
HIDDEN
370
    18
100
AcDbLine
 10
135.6515060833
 20
-4.25
 30
0.0
 11
177.5
 21
-4.25
 31
0.0
  0
LINE
  5
209
330
1F
100
AcDbEntity
  8
SK3
  6
HIDDEN
370
    18
100
AcDbLine
 10
179.0
 20
6.7300775542
 30
0.0
 11
152.2090152186
 21
6.7300775542
 31
0.0
  0
LINE
  5
20A
330
1F
100
AcDbEntity
  8
SK3
  6
HIDDEN
370
    18
100
AcDbLine
 10
152.2109280266
 20
4.2300775542
 30
0.0
 11
179.0
 21
4.2300775542
 31
0.0
  0
LINE
  5
20B
330
1F
100
AcDbEntity
  8
SK3
  6
HIDDEN
370
    18
100
AcDbLine
 10
149.7932446321
 20
6.7300775542
 30
0.0
 11
149.7890719734
 21
6.7300775542
 31
0.0
  0
LINE
  5
20C
330
1F
100
AcDbEntity
  8
SK3
  6
HIDDEN
370
    18
100
AcDbLine
 10
149.7909847814
 20
4.2300775542
 30
0.0
 11
149.7926720316
 21
4.2300775542
 31
0.0
  0
LINE
  5
20D
330
1F
100
AcDbEntity
  8
SK3
  6
HIDDEN
370
    18
100
AcDbLine
 10
149.0
 20
6.7300775542
 30
0.0
 11
148.2489242262
 21
5.4800775542
 31
0.0
  0
LINE
  5
20E
330
1F
100
AcDbEntity
  8
SK3
  6
HIDDEN
370
    18
100
AcDbLine
 10
148.2489242262
 20
5.4800775542
 30
0.0
 11
149.0
 21
4.2300775542
 31
0.0
  0
LINE
  5
20F
330
1F
100
AcDbEntity
  8
SK3
  6
HIDDEN
370
    18
100
AcDbLine
 10
152.2090152186
 20
-4.2300775542
 30
0.0
 11
152.2073279684
 21
-4.2300775542
 31
0.0
  0
LINE
  5
210
330
1F
100
AcDbEntity
  8
SK3
  6
HIDDEN
370
    18
100
AcDbLine
 10
152.2067553679
 20
-6.7300775542
 30
0.0
 11
152.2109280266
 21
-6.7300775542
 31
0.0
  0
LINE
  5
211
330
1F
100
AcDbEntity
  8
SK3
  6
HIDDEN
370
    18
100
AcDbLine
 10
149.7890719734
 20
-4.2300775542
 30
0.0
 11
149.0
 21
-4.2300775542
 31
0.0
  0
LINE
  5
212
330
1F
100
AcDbEntity
  8
SK3
  6
HIDDEN
370
    18
100
AcDbLine
 10
149.0
 20
-6.7300775542
 30
0.0
 11
149.7909847814
 21
-6.7300775542
 31
0.0
  0
LINE
  5
213
330
1F
100
AcDbEntity
  8
SK3
  6
HIDDEN
370
    18
100
AcDbLine
 10
149.0
 20
-4.2300775542
 30
0.0
 11
148.2489242262
 21
-5.4800775542
 31
0.0
  0
LINE
  5
214
330
1F
100
AcDbEntity
  8
SK3
  6
HIDDEN
370
    18
100
AcDbLine
 10
148.2489242262
 20
-5.4800775542
 30
0.0
 11
149.0
 21
-6.7300775542
 31
0.0
  0
LINE
  5
215
330
1F
100
AcDbEntity
  8
SK3
  6
HIDDEN
370
    18
100
AcDbLine
 10
7.35
 20
7.1414545689
 30
0.0
 11
7.35
 21
2.3925727663
 31
0.0
  0
LINE
  5
216
330
1F
100
AcDbEntity
  8
SK3
  6
HIDDEN
370
    18
100
AcDbLine
 10
10.65
 20
2.3935154777
 30
0.0
 11
10.65
 21
6.3516008968
 31
0.0
  0
LINE
  5
217
330
1F
100
AcDbEntity
  8
SK3
  6
HIDDEN
370
    18
100
AcDbLine
 10
2.9384045674
 20
7.0046702833
 30
0.0
 11
14.1607875742
 21
4.3170769623
 31
0.0
  0
LINE
  5
218
330
1F
100
AcDbEntity
  8
SK3
  6
HIDDEN
370
    18
100
AcDbLine
 10
15.0690953899
 20
8.1098301723
 30
0.0
 11
3.8467123831
 21
10.7974234933
 31
0.0
  0
LINE
  5
219
330
1F
100
AcDbEntity
  8
SK3
  6
HIDDEN
370
    18
100
AcDbLine
 10
7.35
 20
9.3022390295
 30
0.0
 11
7.35
 21
8.7637530955
 31
0.0
  0
LINE
  5
21A
330
1F
100
AcDbEntity
  8
SK3
  6
HIDDEN
370
    18
100
AcDbLine
 10
10.65
 20
7.9753410965
 30
0.0
 11
10.65
 21
9.3022390295
 31
0.0
  0
LINE
  5
21B
330
1F
100
AcDbEntity
  8
SK3
  6
HIDDEN
370
    18
100
AcDbLine
 10
2.0
 20
7.075162664
 30
0.0
 11
2.9034696515
 21
6.8587951599
 31
0.0
  0
LINE
  5
21C
330
1F
100
AcDbEntity
  8
SK3
  6
HIDDEN
370
    18
100
AcDbLine
 10
3.8816472991
 20
10.9432986168
 30
0.0
 11
2.0
 21
11.3939250756
 31
0.0
  0
LINE
  5
21D
330
1F
100
AcDbEntity
  8
SK3
  6
HIDDEN
370
    18
100
AcDbLine
 10
7.0
 20
10.7649960652
 30
0.0
 11
7.0
 21
9.3713519271
 31
0.0
  0
LINE
  5
21E
330
1F
100
AcDbEntity
  8
SK3
  6
HIDDEN
370
    18
100
AcDbLine
 10
11.0
 20
9.3713519271
 30
0.0
 11
11.0
 21
10.7644998954
 31
0.0
  0
LINE
  5
21F
330
1F
100
AcDbEntity
  8
SK3
  6
HIDDEN
370
    18
100
AcDbLine
 10
149.7890719734
 20
6.7300775542
 30
0.0
 11
149.0
 21
6.7300775542
 31
0.0
  0
LINE
  5
220
330
1F
100
AcDbEntity
  8
SK3
  6
HIDDEN
370
    18
100
AcDbLine
 10
149.0
 20
4.2300775542
 30
0.0
 11
149.7909847814
 21
4.2300775542
 31
0.0
  0
LINE
  5
221
330
1F
100
AcDbEntity
  8
SK3
  6
HIDDEN
370
    18
100
AcDbLine
 10
179.0
 20
-4.2300775542
 30
0.0
 11
152.2090152186
 21
-4.2300775542
 31
0.0
  0
LINE
  5
222
330
1F
100
AcDbEntity
  8
SK3
  6
HIDDEN
370
    18
100
AcDbLine
 10
152.2109280266
 20
-6.7300775542
 30
0.0
 11
179.0
 21
-6.7300775542
 31
0.0
  0
LINE
  5
223
330
1F
100
AcDbEntity
  8
SK3
  6
Continuous
370
    18
100
AcDbLine
 10
-34.4
 20
8.0
 30
0.0
 11
-55.6881197846
 21
8.0
 31
0.0
  0
LINE
  5
224
330
1F
100
AcDbEntity
  8
SK3
  6
Continuous
370
    18
100
AcDbLine
 10
-55.6881197846
 20
-8.0
 30
0.0
 11
-34.4
 21
-8.0
 31
0.0
  0
LINE
  5
225
330
1F
100
AcDbEntity
  8
SK3
  6
Continuous
370
    18
100
AcDbLine
 10
-34.4
 20
0.0
 30
0.0
 11
-34.4
 21
-1.5140099549
 31
0.0
  0
LINE
  5
226
330
1F
100
AcDbEntity
  8
SK3
  6
Continuous
370
    18
100
AcDbLine
 10
-34.4
 20
-1.5140099549
 30
0.0
 11
-34.4
 21
-2.9732996453
 31
0.0
  0
LINE
  5
227
330
1F
100
AcDbEntity
  8
SK3
  6
Continuous
370
    18
100
AcDbLine
 10
-34.4
 20
-2.9732996453
 30
0.0
 11
-34.4
 21
-4.3251265396
 31
0.0
  0
LINE
  5
228
330
1F
100
AcDbEntity
  8
SK3
  6
Continuous
370
    18
100
AcDbLine
 10
-34.4
 20
-4.3251265396
 30
0.0
 11
-34.4
 21
-5.5206320919
 31
0.0
  0
LINE
  5
229
330
1F
100
AcDbEntity
  8
SK3
  6
Continuous
370
    18
100
AcDbLine
 10
-34.4
 20
-5.5206320919
 30
0.0
 11
-34.4
 21
-6.5166076164
 31
0.0
  0
LINE
  5
22A
330
1F
100
AcDbEntity
  8
SK3
  6
Continuous
370
    18
100
AcDbLine
 10
-34.4
 20
-6.5166076164
 30
0.0
 11
-34.4
 21
-7.2770559628
 31
0.0
  0
LINE
  5
22B
330
1F
100
AcDbEntity
  8
SK3
  6
Continuous
370
    18
100
AcDbLine
 10
-34.4
 20
-7.2770559628
 30
0.0
 11
-34.4
 21
-7.7744925466
 31
0.0
  0
LINE
  5
22C
330
1F
100
AcDbEntity
  8
SK3
  6
Continuous
370
    18
100
AcDbLine
 10
-34.4
 20
-7.7744925466
 30
0.0
 11
-34.4
 21
-7.9909387135
 31
0.0
  0
LINE
  5
22D
330
1F
100
AcDbEntity
  8
SK3
  6
Continuous
370
    18
100
AcDbLine
 10
-34.4
 20
-7.9909387135
 30
0.0
 11
-34.4
 21
-8.0
 31
0.0
  0
LINE
  5
22E
330
1F
100
AcDbEntity
  8
SK3
  6
Continuous
370
    18
100
AcDbLine
 10
-34.4
 20
8.0
 30
0.0
 11
-34.4
 21
7.9909387135
 31
0.0
  0
LINE
  5
22F
330
1F
100
AcDbEntity
  8
SK3
  6
Continuous
370
    18
100
AcDbLine
 10
-34.4
 20
7.9909387135
 30
0.0
 11
-34.4
 21
7.7744925466
 31
0.0
  0
LINE
  5
230
330
1F
100
AcDbEntity
  8
SK3
  6
Continuous
370
    18
100
AcDbLine
 10
-34.4
 20
7.7744925466
 30
0.0
 11
-34.4
 21
7.2770559628
 31
0.0
  0
LINE
  5
231
330
1F
100
AcDbEntity
  8
SK3
  6
Continuous
370
    18
100
AcDbLine
 10
-34.4
 20
7.2770559628
 30
0.0
 11
-34.4
 21
6.5166076164
 31
0.0
  0
LINE
  5
232
330
1F
100
AcDbEntity
  8
SK3
  6
Continuous
370
    18
100
AcDbLine
 10
-34.4
 20
6.5166076164
 30
0.0
 11
-34.4
 21
5.5206320919
 31
0.0
  0
LINE
  5
233
330
1F
100
AcDbEntity
  8
SK3
  6
Continuous
370
    18
100
AcDbLine
 10
-34.4
 20
5.5206320919
 30
0.0
 11
-34.4
 21
4.3251265396
 31
0.0
  0
LINE
  5
234
330
1F
100
AcDbEntity
  8
SK3
  6
Continuous
370
    18
100
AcDbLine
 10
-34.4
 20
4.3251265396
 30
0.0
 11
-34.4
 21
2.9732996453
 31
0.0
  0
LINE
  5
235
330
1F
100
AcDbEntity
  8
SK3
  6
Continuous
370
    18
100
AcDbLine
 10
-34.4
 20
2.9732996453
 30
0.0
 11
-34.4
 21
1.5140099549
 31
0.0
  0
LINE
  5
236
330
1F
100
AcDbEntity
  8
SK3
  6
Continuous
370
    18
100
AcDbLine
 10
-34.4
 20
1.5140099549
 30
0.0
 11
-34.4
 21
0.0
 31
0.0
  0
LINE
  5
237
330
1F
100
AcDbEntity
  8
SK3
  6
Continuous
370
    18
100
AcDbLine
 10
152.0
 20
-5.0
 30
0.0
 11
178.7990381057
 21
-5.0
 31
0.0
  0
LINE
  5
238
330
1F
100
AcDbEntity
  8
SK3
  6
Continuous
370
    18
100
AcDbLine
 10
178.7990381057
 20
5.0
 30
0.0
 11
152.0
 21
5.0
 31
0.0
  0
LINE
  5
239
330
1F
100
AcDbEntity
  8
SK3
  6
Continuous
370
    18
100
AcDbLine
 10
152.0
 20
4.2365816031
 30
0.0
 11
152.0
 21
3.6899227912
 31
0.0
  0
LINE
  5
23A
330
1F
100
AcDbEntity
  8
SK3
  6
Continuous
370
    18
100
AcDbLine
 10
152.0
 20
-3.6899227912
 30
0.0
 11
152.0
 21
-4.2365816031
 31
0.0
  0
LINE
  5
23B
330
1F
100
AcDbEntity
  8
SK3
  6
Continuous
370
    18
100
AcDbLine
 10
151.9999908062
 20
-2.655442773
 30
0.0
 11
152.0
 21
-2.0384076577
 31
0.0
  0
LINE
  5
23C
330
1F
100
AcDbEntity
  8
SK3
  6
Continuous
370
    18
100
AcDbLine
 10
152.0
 20
-2.0384076577
 30
0.0
 11
152.0
 21
-1.3815013544
 31
0.0
  0
LINE
  5
23D
330
1F
100
AcDbEntity
  8
SK3
  6
Continuous
370
    18
100
AcDbLine
 10
152.0
 20
-1.3815013544
 30
0.0
 11
152.0
 21
-0.6975729292
 31
0.0
  0
LINE
  5
23E
330
1F
100
AcDbEntity
  8
SK3
  6
Continuous
370
    18
100
AcDbLine
 10
152.0
 20
-0.6975729292
 30
0.0
 11
152.0
 21
0.0
 31
0.0
  0
LINE
  5
23F
330
1F
100
AcDbEntity
  8
SK3
  6
Continuous
370
    18
100
AcDbLine
 10
152.0
 20
0.0
 30
0.0
 11
152.0
 21
0.6975729292
 31
0.0
  0
LINE
  5
240
330
1F
100
AcDbEntity
  8
SK3
  6
Continuous
370
    18
100
AcDbLine
 10
152.0
 20
0.6975729292
 30
0.0
 11
152.0
 21
1.3815013544
 31
0.0
  0
LINE
  5
241
330
1F
100
AcDbEntity
  8
SK3
  6
Continuous
370
    18
100
AcDbLine
 10
152.0
 20
1.3815013544
 30
0.0
 11
152.0
 21
2.0384076577
 31
0.0
  0
LINE
  5
242
330
1F
100
AcDbEntity
  8
SK3
  6
Continuous
370
    18
100
AcDbLine
 10
152.0
 20
2.0384076577
 30
0.0
 11
152.0
 21
2.655442773
 31
0.0
  0
LINE
  5
243
330
1F
100
AcDbEntity
  8
SK1
  6
Continuous
370
    18
100
AcDbLine
 10
182.1568260264
 20
4.25
 30
0.0
 11
179.0
 21
4.25
 31
0.0
  0
LINE
  5
244
330
1F
100
AcDbEntity
  8
SK1
  6
Continuous
370
    18
100
AcDbLine
 10
179.0
 20
-4.25
 30
0.0
 11
182.1568260264
 21
-4.25
 31
0.0
  0
LINE
  5
245
330
1F
100
AcDbEntity
  8
4
  6
CENTERX2
370
    18
100
AcDbLine
 10
178.1173205081
 20
0.0
 30
0.0
 11
-1.055530974
 21
0.0
 31
0.0
  0
LINE
  5
246
330
1F
100
AcDbEntity
  8
SK4
  6
CENTERX2
370
    18
100
AcDbLine
 10
178.4263649004
 20
0.0
 30
0.0
 11
-67.732216591
 21
0.0
 31
0.0
  0
ARC
  5
247
330
1F
100
AcDbEntity
  8
SK1
  6
Continuous
370
    25
100
AcDbCircle
 10
187.4568260264
 20
6.2
 30
0.0
 40
0.2999999999999954
100
AcDbArc
 50
90.0
 51
180.0
  0
ARC
  5
248
330
1F
100
AcDbEntity
  8
SK1
  6
Continuous
370
    25
100
AcDbCircle
 10
187.4568260264
 20
-6.2
 30
0.0
 40
0.3000000000000052
100
AcDbArc
 50
180.0
 51
270.0
  0
ARC
  5
249
330
1F
100
AcDbEntity
  8
1
  6
Continuous
370
    25
100
AcDbCircle
 10
26.25
 20
-30.724895054
 30
0.0
 40
0.7500000000000036
100
AcDbArc
 50
270.0
 51
0.0
  0
ARC
  5
24A
330
1F
100
AcDbEntity
  8
1
  6
Continuous
370
    25
100
AcDbCircle
 10
26.25
 20
30.724895054
 30
0.0
 40
0.75
100
AcDbArc
 50
0.0
 51
90.0
  0
ARC
  5
24B
330
1F
100
AcDbEntity
  8
1
  6
Continuous
370
    25
100
AcDbCircle
 10
29.0
 20
-26.0
 30
0.0
 40
2.0
100
AcDbArc
 50
90.0
 51
180.0
  0
ARC
  5
24C
330
1F
100
AcDbEntity
  8
1
  6
Continuous
370
    25
100
AcDbCircle
 10
29.0
 20
26.0
 30
0.0
 40
2.000000000000004
100
AcDbArc
 50
180.0
 51
270.0
  0
ARC
  5
24D
330
1F
100
AcDbEntity
  8
1
  6
Continuous
370
    25
100
AcDbCircle
 10
159.5
 20
-23.5
 30
0.0
 40
0.5
100
AcDbArc
 50
270.0
 51
0.0
  0
ARC
  5
24E
330
1F
100
AcDbEntity
  8
1
  6
Continuous
370
    25
100
AcDbCircle
 10
159.5
 20
23.5
 30
0.0
 40
0.5
100
AcDbArc
 50
0.0
 51
90.0
  0
ARC
  5
24F
330
1F
100
AcDbEntity
  8
1
  6
Continuous
370
    25
100
AcDbCircle
 10
1.25
 20
22.5629103982
 30
0.0
 40
0.7500000000000147
100
AcDbArc
 50
245.0
 51
0.0
  0
ARC
  5
250
330
1F
100
AcDbEntity
  8
1
  6
Continuous
370
    25
100
AcDbCircle
 10
1.25
 20
-22.5629103982
 30
0.0
 40
0.7500000000000147
100
AcDbArc
 50
0.0
 51
115.0
  0
ARC
  5
251
330
1F
100
AcDbEntity
  8
SK1
  6
Continuous
370
    25
100
AcDbCircle
 10
-64.4
 20
11.8220275702
 30
0.0
 40
1.0
100
AcDbArc
 50
98.2977777777
 51
180.0
  0
ARC
  5
252
330
1F
100
AcDbEntity
  8
SK1
  6
Continuous
370
    25
100
AcDbCircle
 10
-64.4
 20
-11.8220275702
 30
0.0
 40
1.000000000000002
100
AcDbArc
 50
180.0
 51
261.7022222223
  0
ARC
  5
253
330
1F
100
AcDbEntity
  8
SK1
  6
Continuous
370
    25
100
AcDbCircle
 10
160.42
 20
11.55
 30
0.0
 40
0.8000000000000176
100
AcDbArc
 50
238.3317567465
 51
287.5
  0
ARC
  5
254
330
1F
100
AcDbEntity
  8
SK1
  6
Continuous
370
    25
100
AcDbCircle
 10
160.42
 20
-11.55
 30
0.0
 40
0.8000000000000116
100
AcDbArc
 50
72.5
 51
121.6682432535
  0
ARC
  5
255
330
1F
100
AcDbEntity
  8
1
370
    25
100
AcDbCircle
 10
142.0000091469
 20
-48.0362276659
 30
0.0
 40
24.51048008052189
100
AcDbArc
 50
78.7106417083
 51
101.2616300475
  0
SPLINE
  5
256
330
1F
100
AcDbEntity
  8
SK1
  6
Continuous
370
    25
100
AcDbSpline
210
0.0
220
0.0
230
1.0
 70
     8
 71
     3
 72
    20
 73
    16
 74
     0
 42
0.000000001
 43
0.00000001
 40
0.0
 40
0.0
 40
0.0
 40
0.0
 40
0.0035578209436648
 40
0.0098478565722508
 40
0.0205255659347067
 40
0.0549045177515131
 40
0.2160623218955901
 40
0.5912478141841732
 40
0.7047699999641538
 40
0.8383002263636467
 40
0.9051645636732575
 40
0.9354898920268443
 40
0.9660967374665619
 40
0.9858861426297015
 40
1.0
 40
1.0
 40
1.0
 40
1.0
 10
160.0296155740811
 20
16.9389338274321
 30
0.0
 10
160.0321823318807
 20
16.93874454778983
 30
0.0
 10
160.0392869790976
 20
16.93822063194396
 30
0.0
 10
160.0529757399223
 20
16.93167304626186
 30
0.0
 10
160.0799568546257
 20
16.90583141647853
 30
0.0
 10
160.1484466324652
 20
16.77159337329243
 30
0.0
 10
160.2509895814927
 20
16.37324611657242
 30
0.0
 10
160.3261579514402
 20
15.90681449784488
 30
0.0
 10
160.3092202739512
 20
15.45865275972699
 30
0.0
 10
160.2670524256044
 20
15.23429836819563
 30
0.0
 10
160.1934972202547
 20
15.08276764619751
 30
0.0
 10
160.1316836055881
 20
15.01363009503901
 30
0.0
 10
160.0810243491117
 20
14.98259530762201
 30
0.0
 10
160.0342822548978
 20
14.97375380399987
 30
0.0
 10
160.0100767154909
 20
14.97766743790821
 30
0.0
 10
160.0
 20
14.97929667552885
 30
0.0
  0
SPLINE
  5
257
330
1F
100
AcDbEntity
  8
SK1
  6
Continuous
370
    25
100
AcDbSpline
210
0.0
220
0.0
230
1.0
 70
     8
 71
     3
 72
    25
 73
    21
 74
     0
 42
0.000000001
 43
0.00000001
 40
0.0
 40
0.0
 40
0.0
 40
0.0
 40
0.0025943223763481
 40
0.0229960102257151
 40
0.0433584332678294
 40
0.0734171064171988
 40
0.1240439658432092
 40
0.2278048123040039
 40
0.5324608024114886
 40
0.6823627321894962
 40
0.7851479092559127
 40
0.854917143496422
 40
0.9021038979422193
 40
0.9340669771974668
 40
0.955862813330278
 40
0.9758588614274195
 40
0.9861768590225803
 40
0.9936209263762327
 40
0.9990236174764682
 40
1.0
 40
1.0
 40
1.0
 40
1.0
 10
160.0
 20
20.02070332447117
 30
0.0
 10
160.0018248367221
 20
20.02109966423428
 30
0.0
 10
160.018000144889
 20
20.02461281022126
 30
0.0
 10
160.049961472915
 20
20.02503104649587
 30
0.0
 10
160.0990501587514
 20
20.00864327380213
 30
0.0
 10
160.1577896657293
 20
19.96350364267806
 30
0.0
 10
160.2330857460706
 20
19.8517463624033
 30
0.0
 10
160.329705316036
 20
19.53135552897711
 30
0.0
 10
160.3198395540737
 20
19.1219744378819
 30
0.0
 10
160.2632367978417
 20
18.72537673395363
 30
0.0
 10
160.2155758406702
 20
18.49794405868679
 30
0.0
 10
160.1758657228114
 20
18.34477362065656
 30
0.0
 10
160.1439963922937
 20
18.24236951131486
 30
0.0
 10
160.118518663427
 20
18.17424017008623
 30
0.0
 10
160.0963123191795
 20
18.12598736320238
 30
0.0
 10
160.0770759391974
 20
18.09355572762814
 30
0.0
 10
160.0588090179888
 20
18.07317922344728
 30
0.0
 10
160.0447564835632
 20
18.06377662428408
 30
0.0
 10
160.0349108772679
 20
18.0611754800593
 30
0.0
 10
160.0303184865022
 20
18.06108068233075
 30
0.0
 10
160.0296155740811
 20
18.06106617256791
 30
0.0
  0
SPLINE
  5
258
330
1F
100
AcDbEntity
  8
SK1
  6
Continuous
370
    25
100
AcDbSpline
210
0.0
220
0.0
230
1.0
 70
     8
 71
     3
 72
    10
 73
     6
 74
     0
 42
0.000000001
 43
0.00000001
 40
0.0
 40
0.0
 40
0.0
 40
0.0
 40
0.3171071243465329
 40
0.6396162682836685
 40
1.0
 40
1.0
 40
1.0
 40
1.0
 10
165.6
 20
17.93547560207204
 30
0.0
 10
165.5566169696591
 20
18.38416980849677
 30
0.0
 10
165.4691118654118
 20
19.28920186826299
 30
0.0
 10
165.1024482783316
 20
20.66624147507801
 30
0.0
 10
164.7667797257104
 20
21.57557047700395
 30
0.0
 10
164.5896370289182
 20
22.0554515692739
 30
0.0
  0
SPLINE
  5
259
330
1F
100
AcDbEntity
  8
SK1
  6
Continuous
370
    25
100
AcDbSpline
210
0.0
220
0.0
230
1.0
 70
     8
 71
     3
 72
    10
 73
     6
 74
     0
 42
0.000000001
 43
0.00000001
 40
0.0
 40
0.0
 40
0.0
 40
0.0
 40
0.4469301939747622
 40
0.9007442175022088
 40
1.0
 40
1.0
 40
1.0
 40
1.0
 10
164.5896370289182
 20
12.94454843072612
 30
0.0
 10
164.8079240651807
 20
13.54021357847909
 30
0.0
 10
165.2478602975496
 20
14.74071858941683
 30
0.0
 10
165.5392227940303
 20
16.14071244265974
 30
0.0
 10
165.590752334045
 20
16.92396011513082
 30
0.0
 10
165.6
 20
17.06452439792799
 30
0.0
  0
SPLINE
  5
25A
330
1F
100
AcDbEntity
  8
SK1
  6
Continuous
370
    25
100
AcDbSpline
210
0.0
220
0.0
230
1.0
 70
    24
 71
     3
 72
    10
 73
     6
 74
     0
 42
0.000000001
 43
0.00000001
 40
0.0
 40
0.0
 40
0.0
 40
0.0
 40
0.4479448328922588
 40
0.9027822398770494
 40
1.0
 40
1.0
 40
1.0
 40
1.0
 10
164.5896370289182
 20
22.48000000000001
 30
0.0
 10
164.8079679899069
 20
22.48000000000001
 30
0.0
 10
165.2479893932642
 20
22.48000000000001
 30
0.0
 10
165.5387784191142
 20
22.47999999999999
 30
0.0
 10
165.590833092348
 20
22.48000000000001
 30
0.0
 10
165.6
 20
22.48000000000001
 30
0.0
  0
SPLINE
  5
25B
330
1F
100
AcDbEntity
  8
SK1
  6
Continuous
370
    25
100
AcDbSpline
210
0.0
220
0.0
230
1.0
 70
    24
 71
     3
 72
    10
 73
     6
 74
     0
 42
0.000000001
 43
0.00000001
 40
0.0
 40
0.0
 40
0.0
 40
0.0
 40
0.3163970595221872
 40
0.6381225222235934
 40
1.0
 40
1.0
 40
1.0
 40
1.0
 10
165.6
 20
12.52000000000001
 30
0.0
 10
165.5563491931558
 20
12.52000000000001
 30
0.0
 10
165.4683124617062
 20
12.52000000000001
 30
0.0
 10
165.1024254484016
 20
12.52000000000001
 30
0.0
 10
164.7671311040205
 20
12.52000000000001
 30
0.0
 10
164.5896370289182
 20
12.52000000000001
 30
0.0
  0
SPLINE
  5
25C
330
1F
100
AcDbEntity
  8
SK1
  6
Continuous
370
    25
100
AcDbSpline
210
0.0
220
0.0
230
1.0
 70
     8
 71
     3
 72
    10
 73
     6
 74
     0
 42
0.000000001
 43
0.00000001
 40
0.0
 40
0.0
 40
0.0
 40
0.0
 40
0.4469301939747622
 40
0.9007442175022088
 40
1.0
 40
1.0
 40
1.0
 40
1.0
 10
164.5896370289182
 20
-22.0554515692739
 30
0.0
 10
164.8079240651807
 20
-21.45978642152093
 30
0.0
 10
165.2478602975496
 20
-20.25928141058317
 30
0.0
 10
165.5392227940303
 20
-18.85928755734029
 30
0.0
 10
165.590752334045
 20
-18.07603988486919
 30
0.0
 10
165.6
 20
-17.93547560207205
 30
0.0
  0
SPLINE
  5
25D
330
1F
100
AcDbEntity
  8
SK1
  6
Continuous
370
    25
100
AcDbSpline
210
0.0
220
0.0
230
1.0
 70
    24
 71
     3
 72
    10
 73
     6
 74
     0
 42
0.000000001
 43
0.00000001
 40
0.0
 40
0.0
 40
0.0
 40
0.0
 40
0.3163970595221872
 40
0.6381225222235934
 40
1.0
 40
1.0
 40
1.0
 40
1.0
 10
165.6
 20
-22.48
 30
0.0
 10
165.5563491931558
 20
-22.48
 30
0.0
 10
165.4683124617062
 20
-22.48
 30
0.0
 10
165.1024254484016
 20
-22.48000000000002
 30
0.0
 10
164.7671311040205
 20
-22.48
 30
0.0
 10
164.5896370289182
 20
-22.48
 30
0.0
  0
SPLINE
  5
25E
330
1F
100
AcDbEntity
  8
SK1
  6
Continuous
370
    25
100
AcDbSpline
210
0.0
220
0.0
230
1.0
 70
     8
 71
     3
 72
    20
 73
    16
 74
     0
 42
0.000000001
 43
0.00000001
 40
0.0
 40
0.0
 40
0.0
 40
0.0
 40
0.0035578209436648
 40
0.0098478565722508
 40
0.0205255659347067
 40
0.0549045177515131
 40
0.2160623218955901
 40
0.5912478141841732
 40
0.7047699999641538
 40
0.8383002263636467
 40
0.9051645636732575
 40
0.9354898920268443
 40
0.9660967374665619
 40
0.9858861426297015
 40
1.0
 40
1.0
 40
1.0
 40
1.0
 10
160.0296155740811
 20
-18.06106617256791
 30
0.0
 10
160.0321823318807
 20
-18.06125545221019
 30
0.0
 10
160.0392869790976
 20
-18.06177936805607
 30
0.0
 10
160.0529757399223
 20
-18.06832695373816
 30
0.0
 10
160.0799568546257
 20
-18.09416858352148
 30
0.0
 10
160.1484466324652
 20
-18.22840662670764
 30
0.0
 10
160.2509895814927
 20
-18.62675388342754
 30
0.0
 10
160.3261579514402
 20
-19.09318550215513
 30
0.0
 10
160.3092202739512
 20
-19.54134724027302
 30
0.0
 10
160.2670524256044
 20
-19.76570163180439
 30
0.0
 10
160.1934972202547
 20
-19.9172323538025
 30
0.0
 10
160.1316836055881
 20
-19.98636990496102
 30
0.0
 10
160.0810243491117
 20
-20.01740469237799
 30
0.0
 10
160.0342822548978
 20
-20.02624619600014
 30
0.0
 10
160.0100767154909
 20
-20.02233256209182
 30
0.0
 10
160.0
 20
-20.02070332447119
 30
0.0
  0
SPLINE
  5
25F
330
1F
100
AcDbEntity
  8
SK1
  6
Continuous
370
    25
100
AcDbSpline
210
0.0
220
0.0
230
1.0
 70
     8
 71
     3
 72
    10
 73
     6
 74
     0
 42
0.000000001
 43
0.00000001
 40
0.0
 40
0.0
 40
0.0
 40
0.0
 40
0.3171071243465329
 40
0.6396162682836685
 40
1.0
 40
1.0
 40
1.0
 40
1.0
 10
165.6
 20
-17.06452439792798
 30
0.0
 10
165.556616969659
 20
-16.61583019150325
 30
0.0
 10
165.4691118654118
 20
-15.71079813173703
 30
0.0
 10
165.1024482783316
 20
-14.33375852492201
 30
0.0
 10
164.7667797257104
 20
-13.42442952299608
 30
0.0
 10
164.5896370289182
 20
-12.94454843072612
 30
0.0
  0
SPLINE
  5
260
330
1F
100
AcDbEntity
  8
SK1
  6
Continuous
370
    25
100
AcDbSpline
210
0.0
220
0.0
230
1.0
 70
    24
 71
     3
 72
    10
 73
     6
 74
     0
 42
0.000000001
 43
0.00000001
 40
0.0
 40
0.0
 40
0.0
 40
0.0
 40
0.4479448328922588
 40
0.9027822398770494
 40
1.0
 40
1.0
 40
1.0
 40
1.0
 10
164.5896370289182
 20
-12.52000000000001
 30
0.0
 10
164.8079679899069
 20
-12.52000000000001
 30
0.0
 10
165.2479893932642
 20
-12.52000000000001
 30
0.0
 10
165.5387784191142
 20
-12.52
 30
0.0
 10
165.590833092348
 20
-12.52000000000001
 30
0.0
 10
165.6
 20
-12.52000000000001
 30
0.0
  0
SPLINE
  5
261
330
1F
100
AcDbEntity
  8
SK1
  6
Continuous
370
    25
100
AcDbSpline
210
0.0
220
0.0
230
1.0
 70
     8
 71
     3
 72
    25
 73
    21
 74
     0
 42
0.000000001
 43
0.00000001
 40
0.0
 40
0.0
 40
0.0
 40
0.0
 40
0.0025943223763481
 40
0.0229960102257151
 40
0.0433584332678294
 40
0.0734171064171988
 40
0.1240439658432092
 40
0.2278048123040039
 40
0.5324608024114886
 40
0.6823627321894962
 40
0.7851479092559127
 40
0.854917143496422
 40
0.9021038979422193
 40
0.9340669771974668
 40
0.955862813330278
 40
0.9758588614274195
 40
0.9861768590225803
 40
0.9936209263762327
 40
0.9990236174764682
 40
1.0
 40
1.0
 40
1.0
 40
1.0
 10
160.0
 20
-14.97929667552884
 30
0.0
 10
160.0018248367221
 20
-14.97890033576573
 30
0.0
 10
160.018000144889
 20
-14.97538718977875
 30
0.0
 10
160.049961472915
 20
-14.97496895350414
 30
0.0
 10
160.0990501587514
 20
-14.99135672619787
 30
0.0
 10
160.1577896657293
 20
-15.03649635732195
 30
0.0
 10
160.2330857460706
 20
-15.14825363759673
 30
0.0
 10
160.329705316036
 20
-15.46864447102292
 30
0.0
 10
160.3198395540737
 20
-15.87802556211811
 30
0.0
 10
160.2632367978417
 20
-16.27462326604639
 30
0.0
 10
160.2155758406703
 20
-16.50205594131322
 30
0.0
 10
160.1758657228115
 20
-16.65522637934346
 30
0.0
 10
160.1439963922938
 20
-16.75763048868516
 30
0.0
 10
160.118518663427
 20
-16.82575982991379
 30
0.0
 10
160.0963123191795
 20
-16.87401263679763
 30
0.0
 10
160.0770759391974
 20
-16.90644427237187
 30
0.0
 10
160.0588090179888
 20
-16.92682077655272
 30
0.0
 10
160.0447564835632
 20
-16.93622337571592
 30
0.0
 10
160.0349108772679
 20
-16.93882451994071
 30
0.0
 10
160.0303184865022
 20
-16.93891931766927
 30
0.0
 10
160.0296155740811
 20
-16.93893382743211
 30
0.0
  0
SPLINE
  5
262
330
1F
100
AcDbEntity
  8
1
  6
Continuous
370
    25
100
AcDbSpline
210
0.0
220
0.0
230
1.0
 70
     8
 71
     3
 72
    18
 73
    14
 74
     0
 42
0.000000001
 43
0.00000001
 40
0.0
 40
0.0
 40
0.0
 40
0.0
 40
0.0627579384740259
 40
0.125923618866305
 40
0.1895094567874234
 40
0.2535275525789492
 40
0.3762719952103722
 40
0.5044894117534732
 40
0.629008524052268
 40
0.7526965353922894
 40
0.8763987421632937
 40
0.930125081995013
 40
1.0
 40
1.0
 40
1.0
 40
1.0
 10
2.750000000000003
 20
30.28510518647364
 30
0.0
 10
2.725247004559922
 20
30.28439543393772
 30
0.0
 10
2.675580192051608
 20
30.28297131756305
 30
0.0
 10
2.601584343617971
 20
30.27144101343938
 30
0.0
 10
2.528604493601927
 20
30.25299009489737
 30
0.0
 10
2.43583930943897
 20
30.21912784393474
 30
0.0
 10
2.326166243984837
 20
30.15965080872991
 30
0.0
 10
2.212102312927386
 20
30.06458077929916
 30
0.0
 10
2.119026744014735
 20
29.94884899387606
 30
0.0
 10
2.050928106131708
 20
29.81915082193435
 30
0.0
 10
2.01734857534315
 20
29.70556869534365
 30
0.0
 10
2.002350099426314
 20
29.60996855014605
 30
0.0
 10
2.000848750519285
 20
29.56166485440319
 30
0.0
 10
2.000000000000002
 20
29.53435755317955
 30
0.0
  0
SPLINE
  5
263
330
1F
100
AcDbEntity
  8
1
  6
Continuous
370
    25
100
AcDbSpline
210
0.0
220
0.0
230
1.0
 70
     8
 71
     3
 72
    16
 73
    12
 74
     0
 42
0.000000001
 43
0.00000001
 40
0.0
 40
0.0
 40
0.0
 40
0.0
 40
0.0694020339616631
 40
0.1236666568071977
 40
0.2476711944689437
 40
0.3714558525590501
 40
0.4964121686074741
 40
0.6210687757848897
 40
0.7470442951941945
 40
0.8743646403191013
 40
1.0
 40
1.0
 40
1.0
 40
1.0
 10
2.000000000000002
 20
-29.54951942694616
 30
0.0
 10
2.000831768950065
 20
-29.57686491991741
 30
0.0
 10
2.002313888124676
 20
-29.62559152779129
 30
0.0
 10
2.017194887963245
 20
-29.72214832343209
 30
0.0
 10
2.050682418880623
 20
-29.83709334001735
 30
0.0
 10
2.11864112343664
 20
-29.96840079700335
 30
0.0
 10
2.210766428476147
 20
-30.08449829056606
 30
0.0
 10
2.324530110737619
 20
-30.18122482137694
 30
0.0
 10
2.456056029226855
 20
-30.25358346677481
 30
0.0
 10
2.600018019458722
 20
-30.30041577615653
 30
0.0
 10
2.700228513458108
 20
-30.3062785367153
 30
0.0
 10
2.749999999999919
 20
-30.30919039052026
 30
0.0
  0
SPLINE
  5
264
330
1F
100
AcDbEntity
  8
1
  6
Continuous
370
    25
100
AcDbSpline
210
0.0
220
0.0
230
1.0
 70
     8
 71
     3
 72
    10
 73
     6
 74
     0
 42
0.000000001
 43
0.00000001
 40
0.0
 40
0.0
 40
0.0
 40
0.0
 40
0.5
 40
0.5
 40
1.0
 40
1.0
 40
1.0
 40
1.0
 10
19.1
 20
26.13585634682924
 30
0.0
 10
19.49568963348792
 20
26.90270024941192
 30
0.0
 10
19.88420462171463
 20
27.65781410725751
 30
0.0
 10
20.64456767747194
 20
29.13870291691156
 30
0.0
 10
21.01652879891044
 20
29.86470743343795
 30
0.0
 10
21.37719856678903
 20
30.56976977530603
 30
0.0
  0
SPLINE
  5
265
330
1F
100
AcDbEntity
  8
1
  6
Continuous
370
    25
100
AcDbSpline
210
0.0
220
0.0
230
1.0
 70
     8
 71
     3
 72
    10
 73
     6
 74
     0
 42
0.000000001
 43
0.00000001
 40
0.0
 40
0.0
 40
0.0
 40
0.0
 40
0.5
 40
0.5
 40
1.0
 40
1.0
 40
1.0
 40
1.0
 10
19.1
 20
-26.13585634682925
 30
0.0
 10
19.49568963397057
 20
-26.90270024950858
 30
0.0
 10
19.8842046226807
 20
-27.6578141074638
 30
0.0
 10
20.64456767941036
 20
-29.13870291737944
 30
0.0
 10
21.01652880133711
 20
-29.86470743405623
 30
0.0
 10
21.37719856971537
 20
-30.56976977612044
 30
0.0
  0
SPLINE
  5
266
330
1F
100
AcDbEntity
  8
1
  6
Continuous
370
    25
100
AcDbSpline
210
0.0
220
0.0
230
1.0
 70
     8
 71
     3
 72
     8
 73
     4
 74
     0
 42
0.000000001
 43
0.00000001
 40
0.0
 40
0.0
 40
0.0
 40
0.0
 40
1.0
 40
1.0
 40
1.0
 40
1.0
 10
11.77831440101428
 20
-30.06052755908995
 30
0.0
 10
12.55544467728084
 20
-28.66654746625407
 30
0.0
 10
13.3298334865613
 20
-27.27107768563674
 30
0.0
 10
14.1
 20
-25.87334462303036
 30
0.0
  0
SPLINE
  5
267
330
1F
100
AcDbEntity
  8
1
  6
Continuous
370
    25
100
AcDbSpline
210
0.0
220
0.0
230
1.0
 70
     8
 71
     3
 72
     8
 73
     4
 74
     0
 42
0.000000001
 43
0.00000001
 40
0.0
 40
0.0
 40
0.0
 40
0.0
 40
0.0005044746689848
 40
0.0005044746689848
 40
0.0005044746689848
 40
0.0005044746689848
 10
11.58000000000001
 20
-30.30919039052026
 30
0.0
 10
11.64635572552546
 20
-30.2263604181975
 30
0.0
 10
11.71246382653555
 20
-30.1434733025814
 30
0.0
 10
11.77831440101428
 20
-30.06052755908994
 30
0.0
  0
SPLINE
  5
268
330
1F
100
AcDbEntity
  8
1
  6
Continuous
370
    25
100
AcDbSpline
210
0.0
220
0.0
230
1.0
 70
     8
 71
     3
 72
     8
 73
     4
 74
     0
 42
0.000000001
 43
0.00000001
 40
0.0
 40
0.0
 40
0.0
 40
0.0
 40
0.0006580774610835
 40
0.0006580774610835
 40
0.0006580774610835
 40
0.0006580774610835
 10
11.8542590335767
 20
29.92428064915762
 30
0.0
 10
11.76317881805253
 20
30.04464915920001
 30
0.0
 10
11.67175324177074
 20
30.16492278839548
 30
0.0
 10
11.58000000000001
 20
30.28510518647364
 30
0.0
  0
SPLINE
  5
269
330
1F
100
AcDbEntity
  8
1
  6
Continuous
370
    25
100
AcDbSpline
210
0.0
220
0.0
230
1.0
 70
     8
 71
     3
 72
     8
 73
     4
 74
     0
 42
0.000000001
 43
0.00000001
 40
0.0
 40
0.0
 40
0.0
 40
0.0
 40
1.0
 40
1.0
 40
1.0
 40
1.0
 10
11.8542590335767
 20
29.92428064915762
 30
0.0
 10
12.60586728865158
 20
28.57566484509083
 30
0.0
 10
13.35490602558602
 20
27.22557490650152
 30
0.0
 10
14.1
 20
25.87334462303037
 30
0.0
  0
SPLINE
  5
26A
330
1F
100
AcDbEntity
  8
1
  6
Continuous
370
    25
100
AcDbSpline
210
0.0
220
0.0
230
1.0
 70
     8
 71
     3
 72
    12
 73
     8
 74
     0
 42
0.000000001
 43
0.00000001
 40
0.0
 40
0.0
 40
0.0
 40
0.0
 40
0.4999999999999993
 40
0.4999999999999993
 40
0.7499999999999997
 40
0.7499999999999997
 40
1.0
 40
1.0
 40
1.0
 40
1.0
 10
18.72499999999999
 20
25.45080303251746
 30
0.0
 10
18.82551825775716
 20
25.46391541311021
 30
0.0
 10
18.9173591308259
 20
25.51717207066937
 30
0.0
 10
19.02076349175202
 20
25.63605233185314
 30
0.0
 10
19.0486910220987
 20
25.68119742214312
 30
0.0
 10
19.08877066590452
 20
25.7823484457152
 30
0.0
 10
19.09999999999942
 20
25.8370982383804
 30
0.0
 10
19.1
 20
25.89188338070005
 30
0.0
  0
SPLINE
  5
26B
330
1F
100
AcDbEntity
  8
1
  6
Continuous
370
    25
100
AcDbSpline
210
0.0
220
0.0
230
1.0
 70
     8
 71
     3
 72
    14
 73
    10
 74
     0
 42
0.000000001
 43
0.00000001
 40
0.0
 40
0.0
 40
0.0
 40
0.0
 40
0.25
 40
0.25
 40
0.5
 40
0.5
 40
0.75
 40
0.75
 40
1.0
 40
1.0
 40
1.0
 40
1.0
 10
18.72500000000003
 20
-19.11109010278434
 30
0.0
 10
18.78913410191542
 20
-19.18286836630555
 30
0.0
 10
18.84413252549888
 20
-19.26728231143425
 30
0.0
 10
18.93848187992475
 20
-19.45052821639275
 30
0.0
 10
18.97747348753069
 20
-19.54941445107776
 30
0.0
 10
19.03886935785171
 20
-19.75147897328955
 30
0.0
 10
19.06167311461871
 20
-19.85552182444331
 30
0.0
 10
19.0922806664203
 20
-20.06744889830236
 30
0.0
 10
19.10000000000951
 20
-20.17616183904754
 30
0.0
 10
19.10000000001046
 20
-20.28281996849742
 30
0.0
  0
SPLINE
  5
26C
330
1F
100
AcDbEntity
  8
1
  6
Continuous
370
    25
100
AcDbSpline
210
0.0
220
0.0
230
1.0
 70
     8
 71
     3
 72
    10
 73
     6
 74
     0
 42
0.000000001
 43
0.00000001
 40
0.0
 40
0.0
 40
0.0
 40
0.0
 40
0.5
 40
0.5
 40
1.0
 40
1.0
 40
1.0
 40
1.0
 10
14.1
 20
25.6268726145037
 30
0.0
 10
14.1
 20
25.52615414234215
 30
0.0
 10
14.13833775894857
 20
25.42560543058238
 30
0.0
 10
14.27459772642589
 20
25.27886420189905
 30
0.0
 10
14.37375021474616
 20
25.23333063628343
 30
0.0
 10
14.475
 20
25.23333063628343
 30
0.0
  0
SPLINE
  5
26D
330
1F
100
AcDbEntity
  8
1
  6
Continuous
370
    25
100
AcDbSpline
210
0.0
220
0.0
230
1.0
 70
     8
 71
     3
 72
    12
 73
     8
 74
     0
 42
0.000000001
 43
0.00000001
 40
0.0
 40
0.0
 40
0.0
 40
0.0
 40
0.4999999999999982
 40
0.4999999999999982
 40
0.7499999999999991
 40
0.7499999999999991
 40
1.0
 40
1.0
 40
1.0
 40
1.0
 10
14.1
 20
-20.28281996848703
 30
0.0
 10
14.1
 20
-20.06968462960823
 30
0.0
 10
14.12983075599493
 20
-19.85476891465508
 30
0.0
 10
14.22250450681638
 20
-19.54934931950395
 30
0.0
 10
14.2613069078494
 20
-19.45110214871113
 30
0.0
 10
14.35507688503276
 20
-19.26865582352474
 30
0.0
 10
14.41071073365341
 20
-19.18304202481642
 30
0.0
 10
14.475
 20
-19.11109010277065
 30
0.0
  0
SPLINE
  5
26E
330
1F
100
AcDbEntity
  8
1
  6
Continuous
370
    25
100
AcDbSpline
210
0.0
220
0.0
230
1.0
 70
     8
 71
     3
 72
    10
 73
     6
 74
     0
 42
0.000000001
 43
0.00000001
 40
0.0
 40
0.0
 40
0.0
 40
0.0
 40
0.5000000000000001
 40
0.5000000000000001
 40
1.0
 40
1.0
 40
1.0
 40
1.0
 10
15.405
 20
25.23333063628343
 30
0.0
 10
15.98112657985154
 20
25.23333063628343
 30
0.0
 10
16.54624836374909
 20
25.25306180193077
 30
0.0
 10
17.65561942498761
 20
25.32745487293397
 30
0.0
 10
18.20339005803119
 20
25.38276018903138
 30
0.0
 10
18.72499999999999
 20
25.45080303251746
 30
0.0
  0
SPLINE
  5
26F
330
1F
100
AcDbEntity
  8
1
  6
Continuous
370
    25
100
AcDbSpline
210
0.0
220
0.0
230
1.0
 70
     8
 71
     3
 72
    22
 73
    18
 74
     0
 42
0.000000001
 43
0.00000001
 40
0.0
 40
0.0
 40
0.0
 40
0.0
 40
0.125
 40
0.125
 40
0.25
 40
0.25
 40
0.375
 40
0.375
 40
0.5
 40
0.5
 40
0.625
 40
0.625
 40
0.75
 40
0.75
 40
0.875
 40
0.875
 40
1.0
 40
1.0
 40
1.0
 40
1.0
 10
14.475
 20
-19.11109010277065
 30
0.0
 10
14.58755452000715
 20
-18.98512017793525
 30
0.0
 10
14.72057017762431
 20
-18.87033159566814
 30
0.0
 10
15.02625830847536
 20
-18.66374742988475
 30
0.0
 10
15.19958533737796
 20
-18.57247925345186
 30
0.0
 10
15.56764035837792
 20
-18.42520786830749
 30
0.0
 10
15.76762481138216
 20
-18.36713740846266
 30
0.0
 10
16.17700135147125
 20
-18.29012462897987
 30
0.0
 10
16.38648940172946
 20
-18.27044384126228
 30
0.0
 10
16.81398615444076
 20
-18.27047342435822
 30
0.0
 10
17.02320646851264
 20
-18.29014097660989
 30
0.0
 10
17.4328665562434
 20
-18.36725263234635
 30
0.0
 10
17.63262849602647
 20
-18.42529301011385
 30
0.0
 10
18.00072386469435
 20
-18.5726254470583
 30
0.0
 10
18.17423071680414
 20
-18.66404715163155
 30
0.0
 10
18.47949931288749
 20
-18.87040937547311
 30
0.0
 10
18.612445340549
 20
-18.98512002188302
 30
0.0
 10
18.72500000000003
 20
-19.11109010278434
 30
0.0
  0
SPLINE
  5
270
330
1F
100
AcDbEntity
  8
1
  6
Continuous
370
    25
100
AcDbSpline
210
0.0
220
0.0
230
1.0
 70
     8
 71
     3
 72
    12
 73
     8
 74
     0
 42
0.000000001
 43
0.00000001
 40
0.0
 40
0.0
 40
0.0
 40
0.0
 40
0.5000000000000009
 40
0.5000000000000009
 40
0.7500000000000004
 40
0.7500000000000004
 40
1.0
 40
1.0
 40
1.0
 40
1.0
 10
19.10000000001046
 20
-20.28281996849742
 30
0.0
 10
19.10000000001046
 20
-20.36453248622647
 30
0.0
 10
19.07016924401556
 20
-20.44349537408155
 30
0.0
 10
18.97749549319409
 20
-20.57480005488206
 30
0.0
 10
18.93869309216108
 20
-20.6204976716749
 30
0.0
 10
18.84492311497771
 20
-20.72036595667852
 30
0.0
 10
18.78928926635705
 20
-20.77493196575375
 30
0.0
 10
18.72500000001044
 20
-20.83909279550019
 30
0.0
  0
SPLINE
  5
271
330
1F
100
AcDbEntity
  8
1
  6
Continuous
370
    25
100
AcDbSpline
210
0.0
220
0.0
230
1.0
 70
     8
 71
     3
 72
    22
 73
    18
 74
     0
 42
0.000000001
 43
0.00000001
 40
0.0
 40
0.0
 40
0.0
 40
0.0
 40
0.1250000000000002
 40
0.1250000000000002
 40
0.2500000000000004
 40
0.2500000000000004
 40
0.3750000000000003
 40
0.3750000000000003
 40
0.5000000000000001
 40
0.5000000000000001
 40
0.6249999999999999
 40
0.6249999999999999
 40
0.7499999999999997
 40
0.7499999999999997
 40
0.8749999999999999
 40
0.8749999999999999
 40
1.0
 40
1.0
 40
1.0
 40
1.0
 10
18.72500000001044
 20
-20.83909279550019
 30
0.0
 10
18.61244548000415
 20
-20.95142245495511
 30
0.0
 10
18.479429822388
 20
-21.05113708314771
 30
0.0
 10
18.17374169153908
 20
-21.22758814475281
 30
0.0
 10
18.00041466263762
 20
-21.30383158011353
 30
0.0
 10
17.63235964163994
 20
-21.42551541695801
 30
0.0
 10
17.43237518863694
 20
-21.4726931968648
 30
0.0
 10
17.02299864854989
 20
-21.53500831014356
 30
0.0
 10
16.81351059829296
 20
-21.55076564657329
 30
0.0
 10
16.38601384558303
 20
-21.5507418792853
 30
0.0
 10
16.17679353151171
 20
-21.53499533379077
 30
0.0
 10
15.76713344378194
 20
-21.47259971132973
 30
0.0
 10
15.56737150399888
 20
-21.42544593473218
 30
0.0
 10
15.19927613533077
 20
-21.30370991877402
 30
0.0
 10
15.02576928322064
 20
-21.22733420760395
 30
0.0
 10
14.72050068713565
 20
-21.05106857872167
 30
0.0
 10
14.58755465946145
 20
-20.95142259412123
 30
0.0
 10
14.47500000001041
 20
-20.83909279550016
 30
0.0
  0
SPLINE
  5
272
330
1F
100
AcDbEntity
  8
1
  6
Continuous
370
    25
100
AcDbSpline
210
0.0
220
0.0
230
1.0
 70
     8
 71
     3
 72
    14
 73
    10
 74
     0
 42
0.000000001
 43
0.00000001
 40
0.0
 40
0.0
 40
0.0
 40
0.0
 40
0.25
 40
0.25
 40
0.5
 40
0.5
 40
0.75
 40
0.75
 40
1.0
 40
1.0
 40
1.0
 40
1.0
 10
14.47500000001041
 20
-20.83909279550016
 30
0.0
 10
14.41077522372122
 20
-20.77499632697319
 30
0.0
 10
14.35571159543775
 20
-20.72102365379314
 30
0.0
 10
14.26127391427409
 20
-20.62048070763051
 30
0.0
 10
14.22228084311759
 20
-20.57448000865946
 30
0.0
 10
14.16097772087274
 20
-20.48762905680368
 30
0.0
 10
14.13824703523558
 20
-20.44642866960152
 30
0.0
 10
14.1077384787041
 20
-20.36469593660779
 30
0.0
 10
14.1
 20
-20.32376872066669
 30
0.0
 10
14.1
 20
-20.28281996848703
 30
0.0
  0
SPLINE
  5
273
330
1F
100
AcDbEntity
  8
1
  6
Continuous
370
    25
100
AcDbSpline
210
0.0
220
0.0
230
1.0
 70
     8
 71
     3
 72
    12
 73
     8
 74
     0
 42
0.000000001
 43
0.00000001
 40
0.0
 40
0.0
 40
0.0
 40
0.0
 40
0.4999999999999993
 40
0.4999999999999993
 40
0.7499999999999997
 40
0.7499999999999997
 40
1.0
 40
1.0
 40
1.0
 40
1.0
 10
18.72499999999999
 20
-25.45080303251747
 30
0.0
 10
18.82551825775716
 20
-25.46391541311021
 30
0.0
 10
18.9173591308259
 20
-25.51717207066937
 30
0.0
 10
19.02076349175202
 20
-25.63605233185314
 30
0.0
 10
19.0486910220987
 20
-25.68119742214313
 30
0.0
 10
19.08877066590452
 20
-25.7823484457152
 30
0.0
 10
19.09999999999942
 20
-25.83709823838039
 30
0.0
 10
19.1
 20
-25.89188338070005
 30
0.0
  0
SPLINE
  5
274
330
1F
100
AcDbEntity
  8
1
  6
Continuous
370
    25
100
AcDbSpline
210
0.0
220
0.0
230
1.0
 70
     8
 71
     3
 72
    10
 73
     6
 74
     0
 42
0.000000001
 43
0.00000001
 40
0.0
 40
0.0
 40
0.0
 40
0.0
 40
0.5
 40
0.5
 40
1.0
 40
1.0
 40
1.0
 40
1.0
 10
14.1
 20
-25.6268726145037
 30
0.0
 10
14.1
 20
-25.52639292124678
 30
0.0
 10
14.13771329602109
 20
-25.42620816819718
 30
0.0
 10
14.27546880503477
 20
-25.27799600369184
 30
0.0
 10
14.37447515822651
 20
-25.23333063628344
 30
0.0
 10
14.47499999999993
 20
-25.23333063628343
 30
0.0
  0
SPLINE
  5
275
330
1F
100
AcDbEntity
  8
1
  6
Continuous
370
    25
100
AcDbSpline
210
0.0
220
0.0
230
1.0
 70
     8
 71
     3
 72
    10
 73
     6
 74
     0
 42
0.000000001
 43
0.00000001
 40
0.0
 40
0.0
 40
0.0
 40
0.0
 40
0.5000000000000001
 40
0.5000000000000001
 40
1.0
 40
1.0
 40
1.0
 40
1.0
 10
15.405
 20
-25.23333063628344
 30
0.0
 10
15.98112657985154
 20
-25.23333063628343
 30
0.0
 10
16.54624836374909
 20
-25.25306180193078
 30
0.0
 10
17.65561942498764
 20
-25.32745487293398
 30
0.0
 10
18.20339005803119
 20
-25.3827601890314
 30
0.0
 10
18.72499999999999
 20
-25.45080303251747
 30
0.0
  0
SPLINE
  5
276
330
1F
100
AcDbEntity
  8
SK3
  6
HIDDEN
370
    18
100
AcDbSpline
210
0.0
220
0.0
230
1.0
 70
     8
 71
     3
 72
    30
 73
    26
 74
     0
 42
0.000000001
 43
0.00000001
 40
0.5000000000000007
 40
0.5000000000000007
 40
0.5000000000000007
 40
0.5000000000000007
 40
0.5625000000000007
 40
0.5625000000000007
 40
0.6250000000000008
 40
0.6250000000000008
 40
0.6562500000000008
 40
0.6562500000000008
 40
0.6875000000000007
 40
0.6875000000000007
 40
0.7187500000000007
 40
0.7187500000000007
 40
0.7500000000000007
 40
0.7500000000000007
 40
0.7812500000000007
 40
0.7812500000000007
 40
0.8125000000000006
 40
0.8125000000000006
 40
0.8750000000000004
 40
0.8750000000000004
 40
0.9375000000000002
 40
0.9375000000000002
 40
0.9687500000000001
 40
0.9687500000000001
 40
1.0
 40
1.0
 40
1.0
 40
1.0
 10
9.604893377742036
 20
-5.468681092357687
 30
0.0
 10
9.755793318841786
 20
-5.45672219871747
 30
0.0
 10
9.893662796082031
 20
-5.460869106421455
 30
0.0
 10
10.14805664695104
 20
-5.513772078774588
 30
0.0
 10
10.26529533769357
 20
-5.560942753016461
 30
0.0
 10
10.42392440395892
 20
-5.692797488812959
 30
0.0
 10
10.47259202337669
 20
-5.746318869513493
 30
0.0
 10
10.55785759585894
 20
-5.882418514211594
 30
0.0
 10
10.59326128133256
 20
-5.963007065021023
 30
0.0
 10
10.64183233662708
 20
-6.161028251455824
 30
0.0
 10
10.65339514528471
 20
-6.277201039625993
 30
0.0
 10
10.64476472747594
 20
-6.525063559276907
 30
0.0
 10
10.62471573718476
 20
-6.655966045911014
 30
0.0
 10
10.56411130935854
 20
-6.905493737240691
 30
0.0
 10
10.52329695534177
 20
-7.027072204733656
 30
0.0
 10
10.43204397918218
 20
-7.252682864471154
 30
0.0
 10
10.38099542270571
 20
-7.358840828532203
 30
0.0
 10
10.21662618950936
 20
-7.6608899175311
 30
0.0
 10
10.09647406147368
 20
-7.834513229125592
 30
0.0
 10
9.835453713206126
 20
-8.148340760801231
 30
0.0
 10
9.694824864369608
 20
-8.287671325696758
 30
0.0
 10
9.462561182676854
 20
-8.463597880780585
 30
0.0
 10
9.381211268074729
 20
-8.516955837812
 30
0.0
 10
9.204128124353284
 20
-8.609398870524677
 30
0.0
 10
9.106631126133136
 20
-8.64919516760456
 30
0.0
 10
9.000000000000007
 20
-8.674731731651748
 30
0.0
  0
SPLINE
  5
277
330
1F
100
AcDbEntity
  8
SK3
  6
HIDDEN
370
    18
100
AcDbSpline
210
0.0
220
0.0
230
1.0
 70
     8
 71
     3
 72
    36
 73
    32
 74
     0
 42
0.000000001
 43
0.00000001
 40
0.0
 40
0.0
 40
0.0
 40
0.0
 40
0.0312500000000001
 40
0.0312500000000001
 40
0.0625000000000002
 40
0.0625000000000002
 40
0.0937500000000002
 40
0.0937500000000002
 40
0.1250000000000003
 40
0.1250000000000003
 40
0.1875000000000004
 40
0.1875000000000004
 40
0.2187500000000004
 40
0.2187500000000004
 40
0.2500000000000004
 40
0.2500000000000004
 40
0.2812500000000004
 40
0.2812500000000004
 40
0.3125000000000005
 40
0.3125000000000005
 40
0.3437500000000005
 40
0.3437500000000005
 40
0.3750000000000006
 40
0.3750000000000006
 40
0.4062500000000006
 40
0.4062500000000006
 40
0.4375000000000006
 40
0.4375000000000006
 40
0.4687500000000006
 40
0.4687500000000006
 40
0.5000000000000007
 40
0.5000000000000007
 40
0.5000000000000007
 40
0.5000000000000007
 10
9.000000000000007
 20
-8.674731731651748
 30
0.0
 10
8.89336887386688
 20
-8.700268295698924
 30
0.0
 10
8.779078496880519
 20
-8.711044093486022
 30
0.0
 10
8.53588822531287
 20
-8.689005665811981
 30
0.0
 10
8.41398183279131
 20
-8.656529925258418
 30
0.0
 10
8.179271157767856
 20
-8.553873609798677
 30
0.0
 10
8.070803189778514
 20
-8.486301561999172
 30
0.0
 10
7.870144624719091
 20
-8.324839577616181
 30
0.0
 10
7.780090866186306
 20
-8.232324303709289
 30
0.0
 10
7.544512767225509
 20
-7.929628224859955
 30
0.0
 10
7.434195142488748
 20
-7.694171237070065
 30
0.0
 10
7.357340922935024
 20
-7.329696441165913
 30
0.0
 10
7.346659110617145
 20
-7.208688007072802
 30
0.0
 10
7.355124597261023
 20
-6.967803421201908
 30
0.0
 10
7.37472226444652
 20
-6.848858503175556
 30
0.0
 10
7.442070988465901
 20
-6.624761399515036
 30
0.0
 10
7.490734580698655
 20
-6.516727330301945
 30
0.0
 10
7.612774729317498
 20
-6.318831502796058
 30
0.0
 10
7.685839339782341
 20
-6.228436226368927
 30
0.0
 10
7.857040323147602
 20
-6.062565429620754
 30
0.0
 10
7.952261026647978
 20
-5.989997556678246
 30
0.0
 10
8.161504958136973
 20
-5.861631205929866
 30
0.0
 10
8.277588162150144
 20
-5.805281260512083
 30
0.0
 10
8.516407933335564
 20
-5.710022206369899
 30
0.0
 10
8.6416795178252
 20
-5.669887483677322
 30
0.0
 10
8.87595150365178
 20
-5.603367813788011
 30
0.0
 10
8.987353019303729
 20
-5.575932420217398
 30
0.0
 10
9.187585804504128
 20
-5.530956380099212
 30
0.0
 10
9.279840777074986
 20
-5.512783497258114
 30
0.0
 10
9.450435476899097
 20
-5.484694328765427
 30
0.0
 10
9.529443407192154
 20
-5.474660539177798
 30
0.0
 10
9.604893377742036
 20
-5.468681092357687
 30
0.0
  0
SPLINE
  5
278
330
1F
100
AcDbEntity
  8
SK3
  6
HIDDEN
370
    18
100
AcDbSpline
210
0.0
220
0.0
230
1.0
 70
     8
 71
     3
 72
    30
 73
    26
 74
     0
 42
0.000000001
 43
0.00000001
 40
0.5000000000000057
 40
0.5000000000000057
 40
0.5000000000000057
 40
0.5000000000000057
 40
0.562500000000005
 40
0.562500000000005
 40
0.6250000000000043
 40
0.6250000000000043
 40
0.6875000000000037
 40
0.6875000000000037
 40
0.7187500000000033
 40
0.7187500000000033
 40
0.750000000000003
 40
0.750000000000003
 40
0.7812500000000027
 40
0.7812500000000027
 40
0.8125000000000023
 40
0.8125000000000023
 40
0.8750000000000017
 40
0.8750000000000017
 40
0.9062500000000013
 40
0.9062500000000013
 40
0.937500000000001
 40
0.937500000000001
 40
0.9687500000000007
 40
0.9687500000000007
 40
1.0
 40
1.0
 40
1.0
 40
1.0
 10
7.4368590875247
 20
-9.212661652265547
 30
0.0
 10
7.509676830095513
 20
-9.372368601700169
 30
0.0
 10
7.613065511401701
 20
-9.469616379498659
 30
0.0
 10
7.838608917670714
 20
-9.600222792771788
 30
0.0
 10
7.961638321792017
 20
-9.633141404314046
 30
0.0
 10
8.230578655852472
 20
-9.660525614616747
 30
0.0
 10
8.372972987343408
 20
-9.654182136122058
 30
0.0
 10
8.614583211177626
 20
-9.62188338460624
 30
0.0
 10
8.700413567216472
 20
-9.607152580078365
 30
0.0
 10
8.888908212879048
 20
-9.56897110848355
 30
0.0
 10
8.990084514875582
 20
-9.54600608776874
 30
0.0
 10
9.215143367245119
 20
-9.488163558546745
 30
0.0
 10
9.335814515638848
 20
-9.45406674359158
 30
0.0
 10
9.580074120962582
 20
-9.370386147714953
 30
0.0
 10
9.701232200183915
 20
-9.321084223339483
 30
0.0
 10
10.0376702753448
 20
-9.14796750323648
 30
0.0
 10
10.22849536548449
 20
-8.997361804772261
 30
0.0
 10
10.44177370626159
 20
-8.718179614406852
 30
0.0
 10
10.50075442010857
 20
-8.61624745005328
 30
0.0
 10
10.59000233868145
 20
-8.401641764125074
 30
0.0
 10
10.62131569445651
 20
-8.286190696614417
 30
0.0
 10
10.65323980420377
 20
-8.049624599893532
 30
0.0
 10
10.65426054449234
 20
-7.92929835791677
 30
0.0
 10
10.62603895192979
 20
-7.684491032744566
 30
0.0
 10
10.59666888514466
 20
-7.56174170740885
 30
0.0
 10
10.55308824864452
 20
-7.442898658568977
 30
0.0
  0
SPLINE
  5
279
330
1F
100
AcDbEntity
  8
SK3
  6
HIDDEN
370
    18
100
AcDbSpline
210
0.0
220
0.0
230
1.0
 70
     8
 71
     3
 72
    34
 73
    30
 74
     0
 42
0.000000001
 43
0.00000001
 40
0.0
 40
0.0
 40
0.0
 40
0.0
 40
0.0312500000000004
 40
0.0312500000000004
 40
0.0625000000000009
 40
0.0625000000000009
 40
0.0937500000000013
 40
0.0937500000000013
 40
0.1250000000000018
 40
0.1250000000000018
 40
0.1562500000000022
 40
0.1562500000000022
 40
0.1875000000000027
 40
0.1875000000000027
 40
0.2500000000000036
 40
0.2500000000000036
 40
0.3125000000000046
 40
0.3125000000000046
 40
0.3437500000000049
 40
0.3437500000000049
 40
0.3750000000000052
 40
0.3750000000000052
 40
0.4062500000000053
 40
0.4062500000000053
 40
0.4375000000000054
 40
0.4375000000000054
 40
0.4687500000000056
 40
0.4687500000000056
 40
0.5000000000000057
 40
0.5000000000000057
 40
0.5000000000000057
 40
0.5000000000000057
 10
10.55308824864452
 20
-7.442898658568977
 30
0.0
 10
10.50950761214438
 20
-7.324055609729114
 30
0.0
 10
10.45292012691666
 20
-7.211416232307897
 30
0.0
 10
10.31491468618434
 20
-6.998642227380003
 30
0.0
 10
10.23248693779769
 20
-6.897894382855392
 30
0.0
 10
10.04949690181169
 20
-6.720622789798802
 30
0.0
 10
9.947721621783007
 20
-6.642277548990754
 30
0.0
 10
9.724652921572902
 20
-6.514087210809066
 30
0.0
 10
9.605773300435258
 20
-6.465999374288947
 30
0.0
 10
9.361805299436005
 20
-6.41112685945737
 30
0.0
 10
9.24183556472201
 20
-6.405788661659726
 30
0.0
 10
9.015162187552828
 20
-6.431820766485293
 30
0.0
 10
8.913205789306405
 20
-6.461611897148452
 30
0.0
 10
8.627007347227323
 20
-6.580666068259335
 30
0.0
 10
8.470259171177108
 20
-6.693148934497295
 30
0.0
 10
8.176663877968393
 20
-6.954366066792998
 30
0.0
 10
8.043399477505819
 20
-7.10329875367001
 30
0.0
 10
7.858241400008431
 20
-7.353996567964486
 30
0.0
 10
7.798957391259603
 20
-7.442413584607878
 30
0.0
 10
7.68539466536014
 20
-7.631858345624628
 30
0.0
 10
7.630639807790246
 20
-7.733840149419121
 30
0.0
 10
7.530619547365461
 20
-7.950046365785845
 30
0.0
 10
7.484680739878735
 20
-8.065769284758238
 30
0.0
 10
7.409402768177253
 20
-8.306960591941033
 30
0.0
 10
7.37943416882475
 20
-8.435363911939769
 30
0.0
 10
7.347373564233969
 20
-8.689257452940764
 30
0.0
 10
7.345809739794388
 20
-8.815350083813414
 30
0.0
 10
7.372756994200216
 20
-9.03709530197893
 30
0.0
 10
7.400450216239279
 20
-9.132808177548236
 30
0.0
 10
7.4368590875247
 20
-9.212661652265547
 30
0.0
  0
SPLINE
  5
27A
330
1F
100
AcDbEntity
  8
1
  6
HIDDEN
370
    18
100
AcDbSpline
210
0.0
220
0.0
230
1.0
 70
    24
 71
     2
 72
     6
 73
     3
 74
     0
 42
0.000000001
 43
0.00000001
 40
0.0
 40
0.0
 40
0.0
 40
0.4999999999999999
 40
0.4999999999999999
 40
0.4999999999999999
 10
2.000000000000002
 20
22.50000000000001
 30
0.0
 10
1.99738219282454
 20
22.5
 30
0.0
 10
1.997357134050332
 20
22.5
 30
0.0
  0
SPLINE
  5
27B
330
1F
100
AcDbEntity
  8
1
  6
HIDDEN
370
    18
100
AcDbSpline
210
0.0
220
0.0
230
1.0
 70
    24
 71
     3
 72
     8
 73
     4
 74
     0
 42
0.000000001
 43
0.00000001
 40
0.4999999999999999
 40
0.4999999999999999
 40
0.4999999999999999
 40
0.4999999999999999
 40
0.6249999999999999
 40
0.6249999999999999
 40
0.6249999999999999
 40
0.6249999999999999
 10
1.997357134050332
 20
22.5
 30
0.0
 10
1.997350869356776
 20
22.5
 30
0.0
 10
1.997459903751275
 20
22.5
 30
0.0
 10
1.997664470276828
 20
22.5
 30
0.0
  0
SPLINE
  5
27C
330
1F
100
AcDbEntity
  8
1
  6
HIDDEN
370
    18
100
AcDbSpline
210
0.0
220
0.0
230
1.0
 70
    24
 71
     3
 72
     8
 73
     4
 74
     0
 42
0.000000001
 43
0.00000001
 40
0.6249999999999999
 40
0.6249999999999999
 40
0.6249999999999999
 40
0.6249999999999999
 40
0.7499999999999998
 40
0.7499999999999998
 40
0.7499999999999998
 40
0.7499999999999998
 10
1.997664470276828
 20
22.5
 30
0.0
 10
1.99786903680238
 20
22.5
 30
0.0
 10
1.998168915110843
 20
22.5
 30
0.0
 10
1.998501079157083
 20
22.5
 30
0.0
  0
SPLINE
  5
27D
330
1F
100
AcDbEntity
  8
1
  6
HIDDEN
370
    18
100
AcDbSpline
210
0.0
220
0.0
230
1.0
 70
    24
 71
     2
 72
     6
 73
     3
 74
     0
 42
0.000000001
 43
0.00000001
 40
0.7499999999999998
 40
0.7499999999999998
 40
0.7499999999999998
 40
1.0
 40
1.0
 40
1.0
 10
1.998501079157111
 20
22.5
 30
0.0
 10
1.999165407249565
 20
22.50000000000001
 30
0.0
 10
2.000000000000029
 20
22.50000000000001
 30
0.0
  0
SPLINE
  5
27E
330
1F
100
AcDbEntity
  8
SK3
  6
HIDDEN
370
    18
100
AcDbSpline
210
0.0
220
0.0
230
1.0
 70
    24
 71
     2
 72
     6
 73
     3
 74
     0
 42
0.000000001
 43
0.00000001
 40
0.0
 40
0.0
 40
0.0
 40
0.4999999999999999
 40
0.4999999999999999
 40
0.4999999999999999
 10
2.000000000000002
 20
-22.50000000000001
 30
0.0
 10
1.99738219282454
 20
-22.5
 30
0.0
 10
1.997357134050332
 20
-22.5
 30
0.0
  0
SPLINE
  5
27F
330
1F
100
AcDbEntity
  8
SK3
  6
HIDDEN
370
    18
100
AcDbSpline
210
0.0
220
0.0
230
1.0
 70
    24
 71
     3
 72
     8
 73
     4
 74
     0
 42
0.000000001
 43
0.00000001
 40
0.4999999999999999
 40
0.4999999999999999
 40
0.4999999999999999
 40
0.4999999999999999
 40
0.6249999999999999
 40
0.6249999999999999
 40
0.6249999999999999
 40
0.6249999999999999
 10
1.997357134050332
 20
-22.5
 30
0.0
 10
1.997350869356776
 20
-22.5
 30
0.0
 10
1.997459903751275
 20
-22.5
 30
0.0
 10
1.997664470276828
 20
-22.5
 30
0.0
  0
SPLINE
  5
280
330
1F
100
AcDbEntity
  8
SK3
  6
HIDDEN
370
    18
100
AcDbSpline
210
0.0
220
0.0
230
1.0
 70
    24
 71
     3
 72
     8
 73
     4
 74
     0
 42
0.000000001
 43
0.00000001
 40
0.6249999999999999
 40
0.6249999999999999
 40
0.6249999999999999
 40
0.6249999999999999
 40
0.7499999999999998
 40
0.7499999999999998
 40
0.7499999999999998
 40
0.7499999999999998
 10
1.997664470276828
 20
-22.5
 30
0.0
 10
1.99786903680238
 20
-22.50000000000001
 30
0.0
 10
1.998168915110843
 20
-22.5
 30
0.0
 10
1.998501079157083
 20
-22.5
 30
0.0
  0
SPLINE
  5
281
330
1F
100
AcDbEntity
  8
SK3
  6
HIDDEN
370
    18
100
AcDbSpline
210
0.0
220
0.0
230
1.0
 70
    24
 71
     2
 72
     6
 73
     3
 74
     0
 42
0.000000001
 43
0.00000001
 40
0.7499999999999998
 40
0.7499999999999998
 40
0.7499999999999998
 40
1.0
 40
1.0
 40
1.0
 10
1.998501079157084
 20
-22.5
 30
0.0
 10
1.999165407249537
 20
-22.5
 30
0.0
 10
2.000000000000002
 20
-22.50000000000001
 30
0.0
  0
SPLINE
  5
282
330
1F
100
AcDbEntity
  8
SK3
  6
HIDDEN
370
    18
100
AcDbSpline
210
0.0
220
0.0
230
1.0
 70
     8
 71
     3
 72
    30
 73
    26
 74
     0
 42
0.000000001
 43
0.00000001
 40
0.5000000000000011
 40
0.5000000000000011
 40
0.5000000000000011
 40
0.5000000000000011
 40
0.5625000000000013
 40
0.5625000000000013
 40
0.5937500000000014
 40
0.5937500000000014
 40
0.6250000000000017
 40
0.6250000000000017
 40
0.6562500000000014
 40
0.6562500000000014
 40
0.6875000000000013
 40
0.6875000000000013
 40
0.750000000000001
 40
0.750000000000001
 40
0.7812500000000008
 40
0.7812500000000008
 40
0.8125000000000007
 40
0.8125000000000007
 40
0.8750000000000004
 40
0.8750000000000004
 40
0.9375
 40
0.9375
 40
0.96875
 40
0.96875
 40
1.0
 40
1.0
 40
1.0
 40
1.0
 10
9.000696315892897
 20
-0.7761871796929838
 30
0.0
 10
8.784908731128041
 20
-0.7760940527120896
 30
0.0
 10
8.567048710880293
 20
-0.8206453475713484
 30
0.0
 10
8.2689468243414
 20
-0.9461590508833446
 30
0.0
 10
8.172466069380949
 20
-0.9984249815306184
 30
0.0
 10
7.993203245317853
 20
-1.119257329460901
 30
0.0
 10
7.910379016221075
 20
-1.187498351242104
 30
0.0
 10
7.758121294980866
 20
-1.339130272886003
 30
0.0
 10
7.688681930597935
 20
-1.422966399572744
 30
0.0
 10
7.569279931119318
 20
-1.598597124628499
 30
0.0
 10
7.518412098306893
 20
-1.691166254699148
 30
0.0
 10
7.393205595727038
 20
-1.983206633486736
 30
0.0
 10
7.350125330464197
 20
-2.188626025134012
 30
0.0
 10
7.34993774296483
 20
-2.495562715383912
 30
0.0
 10
7.360546982397659
 20
-2.595594457577854
 30
0.0
 10
7.402585032662973
 20
-2.791308244238472
 30
0.0
 10
7.43454878770311
 20
-2.887772084563891
 30
0.0
 10
7.558420645566388
 20
-3.159224968162389
 30
0.0
 10
7.681132052843403
 20
-3.322668800155682
 30
0.0
 10
7.983931171643907
 20
-3.590052108657409
 30
0.0
 10
8.167181990474656
 20
-3.696740205200649
 30
0.0
 10
8.464950091544466
 20
-3.803806145853121
 30
0.0
 10
8.56994779055134
 20
-3.831410842413681
 30
0.0
 10
8.78269529526729
 20
-3.867947222441295
 30
0.0
 10
8.890578691604755
 20
-3.877172678032694
 30
0.0
 10
9.000000000000007
 20
-3.877172678032694
 30
0.0
  0
SPLINE
  5
283
330
1F
100
AcDbEntity
  8
SK3
  6
HIDDEN
370
    18
100
AcDbSpline
210
0.0
220
0.0
230
1.0
 70
     8
 71
     3
 72
    32
 73
    28
 74
     0
 42
0.000000001
 43
0.00000001
 40
0.0
 40
0.0
 40
0.0
 40
0.0
 40
0.0312499999999999
 40
0.0312499999999999
 40
0.0624999999999999
 40
0.0624999999999999
 40
0.0937499999999998
 40
0.0937499999999998
 40
0.1249999999999998
 40
0.1249999999999998
 40
0.1875
 40
0.1875
 40
0.2500000000000002
 40
0.2500000000000002
 40
0.2812500000000003
 40
0.2812500000000003
 40
0.3125000000000004
 40
0.3125000000000004
 40
0.3750000000000007
 40
0.3750000000000007
 40
0.4062500000000008
 40
0.4062500000000008
 40
0.4375000000000009
 40
0.4375000000000009
 40
0.468750000000001
 40
0.468750000000001
 40
0.5000000000000011
 40
0.5000000000000011
 40
0.5000000000000011
 40
0.5000000000000011
 10
9.000000000000007
 20
-3.877172678032694
 30
0.0
 10
9.10942130839526
 20
-3.877172678032694
 30
0.0
 10
9.216934130666903
 20
-3.867949144079213
 30
0.0
 10
9.428324424907208
 20
-3.831768674567484
 30
0.0
 10
9.533320961714525
 20
-3.804348043195148
 30
0.0
 10
9.732933046643078
 20
-3.732733819274806
 30
0.0
 10
9.827545174762545
 20
-3.688830288348554
 30
0.0
 10
10.00660220610711
 20
-3.584517425655357
 30
0.0
 10
10.09106744927403
 20
-3.523753458917034
 30
0.0
 10
10.31845669318054
 20
-3.323175041199312
 30
0.0
 10
10.441270088489
 20
-3.159519466276278
 30
0.0
 10
10.60612946070208
 20
-2.799010829243626
 30
0.0
 10
10.64986706341027
 20
-2.598123691223364
 30
0.0
 10
10.65006600206292
 20
-2.293577165403463
 30
0.0
 10
10.63926006744514
 20
-2.189545011981067
 30
0.0
 10
10.59698912166744
 20
-1.987057576095751
 30
0.0
 10
10.56571768734325
 20
-1.88777159307444
 30
0.0
 10
10.44118181218156
 20
-1.596181771180285
 30
0.0
 10
10.31980939117336
 20
-1.417011034108476
 30
0.0
 10
10.09031420885773
 20
-1.18805493987981
 30
0.0
 10
10.0074373878862
 20
-1.119792609414753
 30
0.0
 10
9.829108434117078
 20
-0.9993840943401215
 30
0.0
 10
9.732492324804248
 20
-0.946858294428865
 30
0.0
 10
9.533290568654914
 20
-0.8628003181327775
 30
0.0
 10
9.430444238263085
 20
-0.8307938811982253
 30
0.0
 10
9.218127820457514
 20
-0.7873446954405651
 30
0.0
 10
9.108590108275319
 20
-0.7762337431834326
 30
0.0
 10
9.000696315892897
 20
-0.7761871796929838
 30
0.0
  0
SPLINE
  5
284
330
1F
100
AcDbEntity
  8
SK3
  6
HIDDEN
370
    18
100
AcDbSpline
210
0.0
220
0.0
230
1.0
 70
     8
 71
     3
 72
    30
 73
    26
 74
     0
 42
0.000000001
 43
0.00000001
 40
0.4999999999999393
 40
0.4999999999999393
 40
0.4999999999999393
 40
0.4999999999999393
 40
0.5624999999999467
 40
0.5624999999999467
 40
0.5937499999999504
 40
0.5937499999999504
 40
0.624999999999954
 40
0.624999999999954
 40
0.6874999999999616
 40
0.6874999999999616
 40
0.7187499999999654
 40
0.7187499999999654
 40
0.7499999999999691
 40
0.7499999999999691
 40
0.8124999999999768
 40
0.8124999999999768
 40
0.8749999999999845
 40
0.8749999999999845
 40
0.9062499999999883
 40
0.9062499999999883
 40
0.9374999999999922
 40
0.9374999999999922
 40
0.9687499999999962
 40
0.9687499999999962
 40
1.0
 40
1.0
 40
1.0
 40
1.0
 10
150.9994177126347
 20
1.751145408083507
 30
0.0
 10
151.1963139659437
 20
1.751070974164395
 30
0.0
 10
151.3950361733901
 20
1.790232137952923
 30
0.0
 10
151.6666464882927
 20
1.897661297629083
 30
0.0
 10
151.7542600312449
 20
1.941999437984648
 30
0.0
 10
151.9160061929528
 20
2.042163635487711
 30
0.0
 10
151.9911054854726
 20
2.098276138588477
 30
0.0
 10
152.199119069193
 20
2.28320437716966
 30
0.0
 10
152.3089348212202
 20
2.423320620560582
 30
0.0
 10
152.4226621021951
 20
2.642898440811233
 30
0.0
 10
152.4512550071446
 20
2.716119781862751
 30
0.0
 10
152.4899904446538
 20
2.861973694651972
 30
0.0
 10
152.5000092862827
 20
2.935408884104033
 30
0.0
 10
152.499981407549
 20
3.145092827980069
 30
0.0
 10
152.4598867400267
 20
3.275108910359342
 30
0.0
 10
152.3092991022211
 20
3.495622158329319
 30
0.0
 10
152.1979194539682
 20
3.588114867949195
 30
0.0
 10
151.9915981683192
 20
3.696336949449784
 30
0.0
 10
151.9150354799567
 20
3.728008911938224
 30
0.0
 10
151.7532435905177
 20
3.781068327039484
 30
0.0
 10
151.6675399975851
 20
3.802823841941111
 30
0.0
 10
151.4859602722487
 20
3.837873724525841
 30
0.0
 10
151.3905382026559
 20
3.850946908398087
 30
0.0
 10
151.1980879634334
 20
3.868132388227509
 30
0.0
 10
151.0999743726138
 20
3.872465641580294
 30
0.0
 10
151.0
 20
3.872465641580294
 30
0.0
  0
SPLINE
  5
285
330
1F
100
AcDbEntity
  8
SK3
  6
HIDDEN
370
    18
100
AcDbSpline
210
0.0
220
0.0
230
1.0
 70
     8
 71
     3
 72
    30
 73
    26
 74
     0
 42
0.000000001
 43
0.00000001
 40
0.0
 40
0.0
 40
0.0
 40
0.0
 40
0.0312499999999933
 40
0.0312499999999933
 40
0.0624999999999865
 40
0.0624999999999865
 40
0.124999999999973
 40
0.124999999999973
 40
0.1874999999999596
 40
0.1874999999999596
 40
0.2187499999999545
 40
0.2187499999999545
 40
0.2499999999999494
 40
0.2499999999999494
 40
0.2812499999999444
 40
0.2812499999999444
 40
0.3124999999999393
 40
0.3124999999999393
 40
0.3749999999999325
 40
0.3749999999999325
 40
0.4062499999999322
 40
0.4062499999999322
 40
0.4374999999999319
 40
0.4374999999999319
 40
0.4999999999999393
 40
0.4999999999999393
 40
0.4999999999999393
 40
0.4999999999999393
 10
151.0
 20
3.872465641580288
 30
0.0
 10
150.9000256273862
 20
3.872465641580294
 30
0.0
 10
150.8018982820551
 20
3.868136591703756
 30
0.0
 10
150.6091269914305
 20
3.850911569237177
 30
0.0
 10
150.5134634226299
 20
3.83777740173704
 30
0.0
 10
150.2416633049196
 20
3.785267645765061
 30
0.0
 10
150.0764293013089
 20
3.732075639936168
 30
0.0
 10
149.8021280103665
 20
3.588083504018305
 30
0.0
 10
149.690643433862
 20
3.495479687448518
 30
0.0
 10
149.5779320471772
 20
3.330518018034252
 30
0.0
 10
149.548666185001
 20
3.270169814479113
 30
0.0
 10
149.509790907267
 20
3.142502114368055
 30
0.0
 10
149.5000662554444
 20
3.075730989554132
 30
0.0
 10
149.4999344128336
 20
2.936092405320702
 30
0.0
 10
149.5098730071373
 20
2.862685776255064
 30
0.0
 10
149.5485534293516
 20
2.716644837366895
 30
0.0
 10
149.5771652373798
 20
2.643246640881141
 30
0.0
 10
149.6912721165837
 20
2.422891429088414
 30
0.0
 10
149.801907634536
 20
2.282236081975988
 30
0.0
 10
150.0087862680517
 20
2.09840022103773
 30
0.0
 10
150.0836820548369
 20
2.042374207097714
 30
0.0
 10
150.2456149952083
 20
1.942059363761794
 30
0.0
 10
150.3332347848078
 20
1.897740896961972
 30
0.0
 10
150.6037974440876
 20
1.790628447539813
 30
0.0
 10
150.8025214593257
 20
1.751219842002626
 30
0.0
 10
150.9994177126347
 20
1.751145408083507
 30
0.0
  0
SPLINE
  5
286
330
1F
100
AcDbEntity
  8
SK3
  6
HIDDEN
370
    18
100
AcDbSpline
210
0.0
220
0.0
230
1.0
 70
     8
 71
     3
 72
    28
 73
    24
 74
     0
 42
0.000000001
 43
0.00000001
 40
0.0
 40
0.0
 40
0.0
 40
0.0
 40
0.031250000000001
 40
0.031250000000001
 40
0.062500000000002
 40
0.062500000000002
 40
0.1250000000000042
 40
0.1250000000000042
 40
0.1875000000000064
 40
0.1875000000000064
 40
0.2500000000000086
 40
0.2500000000000086
 40
0.3125000000000108
 40
0.3125000000000108
 40
0.3437500000000119
 40
0.3437500000000119
 40
0.375000000000013
 40
0.375000000000013
 40
0.4062500000000142
 40
0.4062500000000142
 40
0.4375000000000153
 40
0.4375000000000153
 40
0.5000000000000131
 40
0.5000000000000131
 40
0.5000000000000131
 40
0.5000000000000131
 10
152.2119199643541
 20
5.480077554195733
 30
0.0
 10
152.2521544521967
 20
5.402059987680001
 30
0.0
 10
152.2902792181712
 20
5.324225004706
 30
0.0
 10
152.3600220974408
 20
5.168022837068821
 30
0.0
 10
152.3919738492493
 20
5.088707796633922
 30
0.0
 10
152.470948552887
 20
4.857672666433325
 30
0.0
 10
152.5013498842388
 20
4.709272969338878
 30
0.0
 10
152.4985527907307
 20
4.46611063047243
 30
0.0
 10
152.465072111483
 20
4.371086943655979
 30
0.0
 10
152.3553613898582
 20
4.252970409855218
 30
0.0
 10
152.2799281209489
 20
4.227443439072021
 30
0.0
 10
152.1199034508732
 20
4.233141024575306
 30
0.0
 10
152.0322185308614
 20
4.263981918842253
 30
0.0
 10
151.9231255199424
 20
4.353083762401254
 30
0.0
 10
151.8900815709756
 20
4.390413632903584
 30
0.0
 10
151.8420615197066
 20
4.483957440365378
 30
0.0
 10
151.8283283808565
 20
4.539346648993184
 30
0.0
 10
151.8300646743549
 20
4.664644927663131
 30
0.0
 10
151.84547963222
 20
4.733072003538473
 30
0.0
 10
151.8956337932738
 20
4.874732044944434
 30
0.0
 10
151.9292289196527
 20
4.946628244245311
 30
0.0
 10
152.041714094612
 20
5.168368539110028
 30
0.0
 10
152.128132070617
 20
5.318014699736166
 30
0.0
 10
152.2087764125512
 20
5.473989814431632
 30
0.0
  0
SPLINE
  5
287
330
1F
100
AcDbEntity
  8
SK3
  6
HIDDEN
370
    18
100
AcDbSpline
210
0.0
220
0.0
230
1.0
 70
     8
 71
     3
 72
    30
 73
    26
 74
     0
 42
0.000000001
 43
0.00000001
 40
0.0
 40
0.0
 40
0.0
 40
0.0
 40
0.0624999999999982
 40
0.0624999999999982
 40
0.0937499999999973
 40
0.0937499999999973
 40
0.1249999999999963
 40
0.1249999999999963
 40
0.1562499999999953
 40
0.1562499999999953
 40
0.1874999999999944
 40
0.1874999999999944
 40
0.2499999999999927
 40
0.2499999999999927
 40
0.3124999999999911
 40
0.3124999999999911
 40
0.3437499999999918
 40
0.3437499999999918
 40
0.3749999999999926
 40
0.3749999999999926
 40
0.4062499999999934
 40
0.4062499999999934
 40
0.4374999999999942
 40
0.4374999999999942
 40
0.4999999999999959
 40
0.4999999999999959
 40
0.4999999999999959
 40
0.4999999999999959
 10
149.788080035646
 20
5.480077554195731
 30
0.0
 10
149.8687532745967
 20
5.636508768393236
 30
0.0
 10
149.9548544868797
 20
5.785673690901757
 30
0.0
 10
150.0680032762514
 20
6.00776416148558
 30
0.0
 10
150.1019155829784
 20
6.079772757904708
 30
0.0
 10
150.153021850814
 20
6.221674815755154
 30
0.0
 10
150.1690746286118
 20
6.289998470975076
 30
0.0
 10
150.1723299212735
 20
6.416124393793715
 30
0.0
 10
150.1594459966809
 20
6.471595315183945
 30
0.0
 10
150.1124974448242
 20
6.56624614493892
 30
0.0
 10
150.0799211602099
 20
6.603991319728081
 30
0.0
 10
149.9702941199982
 20
6.695237533866104
 30
0.0
 10
149.8832541853918
 20
6.726278475105138
 30
0.0
 10
149.7221302271688
 20
6.733241695857456
 30
0.0
 10
149.6469300759424
 20
6.7086187554872
 30
0.0
 10
149.5634812937861
 20
6.620304876625467
 30
0.0
 10
149.5411225670213
 20
6.582778602909019
 30
0.0
 10
149.5098593897547
 20
6.491135921327988
 30
0.0
 10
149.5010559393166
 20
6.436255399716234
 30
0.0
 10
149.4991286356283
 20
6.315041039065377
 30
0.0
 10
149.5059055418902
 20
6.247021676670663
 30
0.0
 10
149.5337587263807
 20
6.103333084712885
 30
0.0
 10
149.5545125674781
 20
6.028229628646839
 30
0.0
 10
149.6341493531327
 20
5.794570040894634
 30
0.0
 10
149.7082730394072
 20
5.634846638705802
 30
0.0
 10
149.7879423453531
 20
5.480344560752109
 30
0.0
  0
SPLINE
  5
288
330
1F
100
AcDbEntity
  8
SK3
  6
HIDDEN
370
    18
100
AcDbSpline
210
0.0
220
0.0
230
1.0
 70
     8
 71
     3
 72
    30
 73
    26
 74
     0
 42
0.000000001
 43
0.00000001
 40
0.4999999999999413
 40
0.4999999999999413
 40
0.4999999999999413
 40
0.4999999999999413
 40
0.5624999999999489
 40
0.5624999999999489
 40
0.5937499999999527
 40
0.5937499999999527
 40
0.6249999999999565
 40
0.6249999999999565
 40
0.6874999999999639
 40
0.6874999999999639
 40
0.7187499999999676
 40
0.7187499999999676
 40
0.7499999999999711
 40
0.7499999999999711
 40
0.8124999999999784
 40
0.8124999999999784
 40
0.8749999999999856
 40
0.8749999999999856
 40
0.9062499999999892
 40
0.9062499999999892
 40
0.9374999999999928
 40
0.9374999999999928
 40
0.9687499999999964
 40
0.9687499999999964
 40
1.0
 40
1.0
 40
1.0
 40
1.0
 10
151.0005822873653
 20
-1.751145408083625
 30
0.0
 10
150.8036860340563
 20
-1.751070974164506
 30
0.0
 10
150.6049638266101
 20
-1.790232137953034
 30
0.0
 10
150.3333535117073
 20
-1.897661297629204
 30
0.0
 10
150.2457399687551
 20
-1.941999437984756
 30
0.0
 10
150.0839938070473
 20
-2.042163635487825
 30
0.0
 10
150.0088945145273
 20
-2.098276138588588
 30
0.0
 10
149.8008809308071
 20
-2.283204377169768
 30
0.0
 10
149.69106517878
 20
-2.423320620560686
 30
0.0
 10
149.5773378978049
 20
-2.642898440811329
 30
0.0
 10
149.5487449928555
 20
-2.716119781862852
 30
0.0
 10
149.5100095553462
 20
-2.861973694652072
 30
0.0
 10
149.4999907137172
 20
-2.93540888410412
 30
0.0
 10
149.500018592451
 20
-3.145092827980155
 30
0.0
 10
149.5401132599734
 20
-3.275108910359422
 30
0.0
 10
149.6907008977789
 20
-3.495622158329381
 30
0.0
 10
149.802080546032
 20
-3.588114867949257
 30
0.0
 10
150.0084018316808
 20
-3.696336949449857
 30
0.0
 10
150.0849645200434
 20
-3.72800891193829
 30
0.0
 10
150.2467564094823
 20
-3.78106832703954
 30
0.0
 10
150.3324600024149
 20
-3.802823841941163
 30
0.0
 10
150.5140397277513
 20
-3.8378737245259
 30
0.0
 10
150.6094617973442
 20
-3.850946908398142
 30
0.0
 10
150.8019120365665
 20
-3.868132388227564
 30
0.0
 10
150.9000256273862
 20
-3.872465641580346
 30
0.0
 10
151.0000000000001
 20
-3.872465641580346
 30
0.0
  0
SPLINE
  5
289
330
1F
100
AcDbEntity
  8
SK3
  6
HIDDEN
370
    18
100
AcDbSpline
210
0.0
220
0.0
230
1.0
 70
     8
 71
     3
 72
    30
 73
    26
 74
     0
 42
0.000000001
 43
0.00000001
 40
0.0
 40
0.0
 40
0.0
 40
0.0
 40
0.0312499999999934
 40
0.0312499999999934
 40
0.0624999999999868
 40
0.0624999999999868
 40
0.1249999999999736
 40
0.1249999999999736
 40
0.1874999999999604
 40
0.1874999999999604
 40
0.2187499999999554
 40
0.2187499999999554
 40
0.2499999999999505
 40
0.2499999999999505
 40
0.2812499999999455
 40
0.2812499999999455
 40
0.3124999999999406
 40
0.3124999999999406
 40
0.3749999999999341
 40
0.3749999999999341
 40
0.4062499999999338
 40
0.4062499999999338
 40
0.4374999999999336
 40
0.4374999999999336
 40
0.4999999999999413
 40
0.4999999999999413
 40
0.4999999999999413
 40
0.4999999999999413
 10
151.0000000000001
 20
-3.872465641580346
 30
0.0
 10
151.0999743726138
 20
-3.872465641580346
 30
0.0
 10
151.1981017179449
 20
-3.868136591703823
 30
0.0
 10
151.3908730085694
 20
-3.850911569237232
 30
0.0
 10
151.4865365773701
 20
-3.837777401737106
 30
0.0
 10
151.7583366950803
 20
-3.785267645765117
 30
0.0
 10
151.9235706986913
 20
-3.732075639936234
 30
0.0
 10
152.1978719896335
 20
-3.588083504018385
 30
0.0
 10
152.309356566138
 20
-3.495479687448587
 30
0.0
 10
152.4220679528228
 20
-3.330518018034332
 30
0.0
 10
152.451333814999
 20
-3.270169814479189
 30
0.0
 10
152.490209092733
 20
-3.142502114368135
 30
0.0
 10
152.4999337445556
 20
-3.075730989554215
 30
0.0
 10
152.5000655871664
 20
-2.936092405320785
 30
0.0
 10
152.4901269928627
 20
-2.862685776255147
 30
0.0
 10
152.4514465706484
 20
-2.716644837366986
 30
0.0
 10
152.4228347626203
 20
-2.643246640881235
 30
0.0
 10
152.3087278834163
 20
-2.422891429088529
 30
0.0
 10
152.1980923654641
 20
-2.282236081976093
 30
0.0
 10
151.9912137319483
 20
-2.098400221037841
 30
0.0
 10
151.9163179451631
 20
-2.042374207097835
 30
0.0
 10
151.7543850047917
 20
-1.942059363761899
 30
0.0
 10
151.6667652151922
 20
-1.89774089696209
 30
0.0
 10
151.3962025559124
 20
-1.790628447539924
 30
0.0
 10
151.1974785406743
 20
-1.75121984200274
 30
0.0
 10
151.0005822873653
 20
-1.751145408083625
 30
0.0
  0
SPLINE
  5
28A
330
1F
100
AcDbEntity
  8
SK3
  6
HIDDEN
370
    18
100
AcDbSpline
210
0.0
220
0.0
230
1.0
 70
     8
 71
     3
 72
    28
 73
    24
 74
     0
 42
0.000000001
 43
0.00000001
 40
0.0
 40
0.0
 40
0.0
 40
0.0
 40
0.031250000000001
 40
0.031250000000001
 40
0.0625000000000021
 40
0.0625000000000021
 40
0.1250000000000044
 40
0.1250000000000044
 40
0.1875000000000068
 40
0.1875000000000068
 40
0.2500000000000091
 40
0.2500000000000091
 40
0.3125000000000114
 40
0.3125000000000114
 40
0.3437500000000104
 40
0.3437500000000104
 40
0.3750000000000094
 40
0.3750000000000094
 40
0.4062500000000084
 40
0.4062500000000084
 40
0.4375000000000074
 40
0.4375000000000074
 40
0.5000000000000051
 40
0.5000000000000051
 40
0.5000000000000051
 40
0.5000000000000051
 10
149.7880800356459
 20
-5.480077554195773
 30
0.0
 10
149.7478455478033
 20
-5.402059987680079
 30
0.0
 10
149.7097207818278
 20
-5.324225004706195
 30
0.0
 10
149.6399779025583
 20
-5.168022837069106
 30
0.0
 10
149.6080261507491
 20
-5.088707796634257
 30
0.0
 10
149.5290514471114
 20
-4.857672666433811
 30
0.0
 10
149.4986501157597
 20
-4.709272969339406
 30
0.0
 10
149.5014472092677
 20
-4.466110630472944
 30
0.0
 10
149.5349278885146
 20
-4.371086943656453
 30
0.0
 10
149.6446386101393
 20
-4.252970409855484
 30
0.0
 10
149.7200718790487
 20
-4.22744343907216
 30
0.0
 10
149.8800965491245
 20
-4.2331410245752
 30
0.0
 10
149.9677814691362
 20
-4.263981918841975
 30
0.0
 10
150.0768744800553
 20
-4.35308376240075
 30
0.0
 10
150.1099184290221
 20
-4.390413632903053
 30
0.0
 10
150.1579384802919
 20
-4.483957440364751
 30
0.0
 10
150.1716716191413
 20
-4.539346648992525
 30
0.0
 10
150.1699353256437
 20
-4.664644927662472
 30
0.0
 10
150.1545203677785
 20
-4.733072003537817
 30
0.0
 10
150.1043662067249
 20
-4.87473204494385
 30
0.0
 10
150.0707710803469
 20
-4.946628244244796
 30
0.0
 10
149.9582859053875
 20
-5.168368539109665
 30
0.0
 10
149.8718679293824
 20
-5.318014699735969
 30
0.0
 10
149.7912235874491
 20
-5.473989814431556
 30
0.0
  0
SPLINE
  5
28B
330
1F
100
AcDbEntity
  8
SK3
  6
HIDDEN
370
    18
100
AcDbSpline
210
0.0
220
0.0
230
1.0
 70
     8
 71
     3
 72
    30
 73
    26
 74
     0
 42
0.000000001
 43
0.00000001
 40
0.0
 40
0.0
 40
0.0
 40
0.0
 40
0.0625000000000025
 40
0.0625000000000025
 40
0.0937500000000058
 40
0.0937500000000058
 40
0.1250000000000091
 40
0.1250000000000091
 40
0.1562500000000124
 40
0.1562500000000124
 40
0.1875000000000157
 40
0.1875000000000157
 40
0.2500000000000182
 40
0.2500000000000182
 40
0.3125000000000207
 40
0.3125000000000207
 40
0.343750000000022
 40
0.343750000000022
 40
0.3750000000000233
 40
0.3750000000000233
 40
0.4062500000000246
 40
0.4062500000000246
 40
0.437500000000026
 40
0.437500000000026
 40
0.5000000000000253
 40
0.5000000000000253
 40
0.5000000000000253
 40
0.5000000000000253
 10
152.2119199643541
 20
-5.480077554195772
 30
0.0
 10
152.1312467254035
 20
-5.636508768393292
 30
0.0
 10
152.0451455131207
 20
-5.785673690901858
 30
0.0
 10
151.9319967237487
 20
-6.007764161485682
 30
0.0
 10
151.8980844170218
 20
-6.079772757904799
 30
0.0
 10
151.8469781491862
 20
-6.221674815755258
 30
0.0
 10
151.8309253713886
 20
-6.289998470975177
 30
0.0
 10
151.8276700787267
 20
-6.416124393793795
 30
0.0
 10
151.8405540033195
 20
-6.471595315184032
 30
0.0
 10
151.887502555176
 20
-6.566246144939
 30
0.0
 10
151.9200788397903
 20
-6.60399131972815
 30
0.0
 10
152.0297058800019
 20
-6.69523753386617
 30
0.0
 10
152.1167458146085
 20
-6.726278475105197
 30
0.0
 10
152.2778697728315
 20
-6.733241695857494
 30
0.0
 10
152.3530699240578
 20
-6.708618755487221
 30
0.0
 10
152.4365187062139
 20
-6.620304876625446
 30
0.0
 10
152.4588774329788
 20
-6.582778602908994
 30
0.0
 10
152.4901406102453
 20
-6.491135921327946
 30
0.0
 10
152.4989440606835
 20
-6.436255399716182
 30
0.0
 10
152.5008713643718
 20
-6.3150410390653
 30
0.0
 10
152.4940944581098
 20
-6.247021676670583
 30
0.0
 10
152.4662412736192
 20
-6.103333084712795
 30
0.0
 10
152.4454874325218
 20
-6.028229628646748
 30
0.0
 10
152.3658506468672
 20
-5.79457004089454
 30
0.0
 10
152.2917269605926
 20
-5.634846638705723
 30
0.0
 10
152.2120576546467
 20
-5.480344560752047
 30
0.0
  0
SPLINE
  5
28C
330
1F
100
AcDbEntity
  8
SK3
  6
HIDDEN
370
    18
100
AcDbSpline
210
0.0
220
0.0
230
1.0
 70
    24
 71
     3
 72
     8
 73
     4
 74
     0
 42
0.000000001
 43
0.00000001
 40
0.0
 40
0.0
 40
0.0
 40
0.0
 40
0.4999999999999986
 40
0.4999999999999986
 40
0.4999999999999986
 40
0.4999999999999986
 10
2.000000000000029
 20
22.50000000000001
 30
0.0
 10
2.08347723059249
 20
22.50000000000001
 30
0.0
 10
2.165250237669267
 20
22.49999999999999
 30
0.0
 10
2.237167806898824
 20
22.49999999999999
 30
0.0
  0
SPLINE
  5
28D
330
1F
100
AcDbEntity
  8
SK3
  6
HIDDEN
370
    18
100
AcDbSpline
210
0.0
220
0.0
230
1.0
 70
    24
 71
     3
 72
     8
 73
     4
 74
     0
 42
0.000000001
 43
0.00000001
 40
0.4999999999999986
 40
0.4999999999999986
 40
0.4999999999999986
 40
0.4999999999999986
 40
0.7499999999999992
 40
0.7499999999999992
 40
0.7499999999999992
 40
0.7499999999999992
 10
2.237167806898796
 20
22.49999999999999
 30
0.0
 10
2.273126591513547
 20
22.5
 30
0.0
 10
2.306332390229787
 20
22.49999999999999
 30
0.0
 10
2.332123478181944
 20
22.5
 30
0.0
  0
SPLINE
  5
28E
330
1F
100
AcDbEntity
  8
SK3
  6
HIDDEN
370
    18
100
AcDbSpline
210
0.0
220
0.0
230
1.0
 70
    24
 71
     2
 72
     6
 73
     3
 74
     0
 42
0.000000001
 43
0.00000001
 40
0.7499999999999992
 40
0.7499999999999992
 40
0.7499999999999992
 40
1.0
 40
1.0
 40
1.0
 10
2.332123478181944
 20
22.5
 30
0.0
 10
2.357914566134101
 20
22.49999999999998
 30
0.0
 10
2.375000000000016
 20
22.49999999999996
 30
0.0
  0
SPLINE
  5
28F
330
1F
100
AcDbEntity
  8
SK3
  6
HIDDEN
370
    18
100
AcDbSpline
210
0.0
220
0.0
230
1.0
 70
    24
 71
     2
 72
     6
 73
     3
 74
     0
 42
0.000000001
 43
0.00000001
 40
0.0
 40
0.0
 40
0.0
 40
0.5
 40
0.5
 40
0.5
 10
2.258226512231301
 20
-22.5
 30
0.0
 10
2.217596011637651
 20
-22.5
 30
0.0
 10
2.168434546971729
 20
-22.49999999999999
 30
0.0
  0
SPLINE
  5
290
330
1F
100
AcDbEntity
  8
SK3
  6
HIDDEN
370
    18
100
AcDbSpline
210
0.0
220
0.0
230
1.0
 70
    24
 71
     3
 72
     8
 73
     4
 74
     0
 42
0.000000001
 43
0.00000001
 40
0.5
 40
0.5
 40
0.5
 40
0.5
 40
1.0
 40
1.0
 40
1.0
 40
1.0
 10
2.168434546971729
 20
-22.49999999999999
 30
0.0
 10
2.119273082305806
 20
-22.49999999999999
 30
0.0
 10
2.060704526852947
 20
-22.50000000000001
 30
0.0
 10
2.000000000000002
 20
-22.50000000000001
 30
0.0
  0
SPLINE
  5
291
330
1F
100
AcDbEntity
  8
SK3
  6
HIDDEN
370
    18
100
AcDbSpline
210
0.0
220
0.0
230
1.0
 70
     8
 71
     3
 72
    33
 73
    29
 74
     0
 42
0.000000001
 43
0.00000001
 40
0.0
 40
0.0
 40
0.0
 40
0.0
 40
0.0314237011767243
 40
0.0627338405838476
 40
0.0877464954133457
 40
0.125283238617863
 40
0.1539645866459635
 40
0.1970563067230784
 40
0.2505255177847359
 40
0.27895945492924
 40
0.3216329583856287
 40
0.3752682204637777
 40
0.4040082420405283
 40
0.4468773540298215
 40
0.500214808281461
 40
0.5286826550732888
 40
0.5715495672142542
 40
0.6253905027017016
 40
0.6539239774352674
 40
0.6965997818910233
 40
0.7499747437940917
 40
0.7785995635307187
 40
0.8217149157189417
 40
0.8751793187678311
 40
0.9000505647746738
 40
0.9373747247573464
 40
0.9685907020195166
 40
1.0
 40
1.0
 40
1.0
 40
1.0
 10
2.375000000000016
 20
29.53435755317955
 30
0.0
 10
2.375084653143275
 20
29.54065054665652
 30
0.0
 10
2.37525365350269
 20
29.55321379143024
 30
0.0
 10
2.376523288498758
 20
29.57074878351026
 30
0.0
 10
2.378604433210155
 20
29.58943061230195
 30
0.0
 10
2.381481695767837
 20
29.60748253443748
 30
0.0
 10
2.385982972786818
 20
29.62890925450897
 30
0.0
 10
2.392449659118473
 20
29.65315822272133
 30
0.0
 10
2.40063816376572
 20
29.67684232694531
 30
0.0
 10
2.410229138285009
 20
29.69987740641963
 30
0.0
 10
2.421063479730284
 20
29.72240392143897
 30
0.0
 10
2.43355497492323
 20
29.74414232458068
 30
0.0
 10
2.447402504695592
 20
29.76506024365918
 30
0.0
 10
2.462353574794601
 20
29.7851445967745
 30
0.0
 10
2.478736246500302
 20
29.80402570440029
 30
0.0
 10
2.496277991375001
 20
29.82179847992355
 30
0.0
 10
2.514873650347998
 20
29.83863468290667
 30
0.0
 10
2.534730261353507
 20
29.85401037825961
 30
0.0
 10
2.555504834926739
 20
29.8680033542855
 30
0.0
 10
2.57697704594062
 20
29.88074321862895
 30
0.0
 10
2.599407555219063
 20
29.89178500632615
 30
0.0
 10
2.622583009878068
 20
29.90132189816605
 30
0.0
 10
2.646309265266211
 20
29.9094895456227
 30
0.0
 10
2.669897011154582
 20
29.91555645697576
 30
0.0
 10
2.692658387484031
 20
29.91986541147198
 30
0.0
 10
2.711206195171914
 20
29.92237236762035
 30
0.0
 10
2.731167694149245
 20
29.92399644689239
 30
0.0
 10
2.743709659268373
 20
29.9241857203104
 30
0.0
 10
2.750000000000003
 20
29.92428064915762
 30
0.0
  0
SPLINE
  5
292
330
1F
100
AcDbEntity
  8
SK3
  6
HIDDEN
370
    18
100
AcDbSpline
210
0.0
220
0.0
230
1.0
 70
     8
 71
     3
 72
    72
 73
    68
 74
     0
 42
0.000000001
 43
0.00000001
 40
0.0
 40
0.0
 40
0.0
 40
0.0
 40
0.0157612185525208
 40
0.0314944407588271
 40
0.0440673091864105
 40
0.0629143037699352
 40
0.0772790376670817
 40
0.0859037612261758
 40
0.0988488079275004
 40
0.1096540900806784
 40
0.1258620425689153
 40
0.1422708624367861
 40
0.1520835571792733
 40
0.1667663019716717
 40
0.1789770964729742
 40
0.1972662154014631
 40
0.2185786216224277
 40
0.2313634955280866
 40
0.2505508222716325
 40
0.2668164379324776
 40
0.276590897984364
 40
0.2912803868537554
 40
0.3035526137576178
 40
0.3220237137227273
 40
0.3436158044249226
 40
0.3565194039252786
 40
0.3758141840073973
 40
0.3920976812821951
 40
0.4018537423720779
 40
0.4164733577995061
 40
0.4286480299791514
 40
0.446905097736751
 40
0.4682146751085022
 40
0.4810146809829249
 40
0.5002461321365271
 40
0.5165743628185527
 40
0.5263959719527899
 40
0.5411665783947772
 40
0.553507577496481
 40
0.5719868553676599
 40
0.5934451143937443
 40
0.6062801785983514
 40
0.6254949303689047
 40
0.6417388720507333
 40
0.6514789421481791
 40
0.6660854566292315
 40
0.6782591279109474
 40
0.6965317096011892
 40
0.7178857269524808
 40
0.7307253207445228
 40
0.7500334386405894
 40
0.7664445277476002
 40
0.7763129779222369
 40
0.7911069392023091
 40
0.8033958440407837
 40
0.8217688954785624
 40
0.8431510727298546
 40
0.8559607889270998
 40
0.8751541048842995
 40
0.8893625747022456
 40
0.9106786391464772
 40
0.9213445519244039
 40
0.9373601961855798
 40
0.9498361394260063
 40
0.968591599488756
 40
0.9842692788384599
 40
1.0
 40
1.0
 40
1.0
 40
1.0
 10
2.750000000000003
 20
-30.06052755908995
 30
0.0
 10
2.745861672223321
 20
-30.06049623438801
 30
0.0
 10
2.737592367501165
 20
-30.06043364062562
 30
0.0
 10
2.726029731145829
 20
-30.05996155340181
 30
0.0
 10
2.713673037514491
 20
-30.05918814521118
 30
0.0
 10
2.701697345698584
 20
-30.05811873703169
 30
0.0
 10
2.690786376669405
 20
-30.05684171029793
 30
0.0
 10
2.681437928977903
 20
-30.05556577756115
 30
0.0
 10
2.673036860898717
 20
-30.05426600621349
 30
0.0
 10
2.662702104855474
 20
-30.05245747037748
 30
0.0
 10
2.651517345425611
 20
-30.05024141225735
 30
0.0
 10
2.640650638305917
 20
-30.04778171862085
 30
0.0
 10
2.630229352913016
 20
-30.04518446314695
 30
0.0
 10
2.620926078075334
 20
-30.0426644477225
 30
0.0
 10
2.609546797764539
 20
-30.03930888653558
 30
0.0
 10
2.59659727323909
 20
-30.03513444379982
 30
0.0
 10
2.583647572423617
 20
-30.03048966858656
 30
0.0
 10
2.570615568390791
 20
-30.02539887104323
 30
0.0
 10
2.558941272485724
 20
-30.02048208543575
 30
0.0
 10
2.548134132423954
 20
-30.01555771205546
 30
0.0
 10
2.538498989767976
 20
-30.01091769348228
 30
0.0
 10
2.529893005891876
 20
-30.00656001980231
 30
0.0
 10
2.519370868759016
 20
-30.00093908221151
 30
0.0
 10
2.507414099247401
 20
-29.99416353177613
 30
0.0
 10
2.495540866609899
 20
-29.98691706949539
 30
0.0
 10
2.483693765651246
 20
-29.97922751798153
 30
0.0
 10
2.473197989019376
 20
-29.97202127793947
 30
0.0
 10
2.46358184579347
 20
-29.96500416195117
 30
0.0
 10
2.455089469467403
 20
-29.95853501995387
 30
0.0
 10
2.447569222119319
 20
-29.95257195013376
 30
0.0
 10
2.43845920984917
 20
-29.94502626010771
 30
0.0
 10
2.428208469765866
 20
-29.93610842912057
 30
0.0
 10
2.418121516368832
 20
-29.92676106582368
 30
0.0
 10
2.408108336447709
 20
-29.91696829992846
 30
0.0
 10
2.399254020198333
 20
-29.90786487670001
 30
0.0
 10
2.391187801522435
 20
-29.89909336276191
 30
0.0
 10
2.38407959394002
 20
-29.8910365021516
 30
0.0
 10
2.377803430976794
 20
-29.88364317042578
 30
0.0
 10
2.370250947610952
 20
-29.87435547870689
 30
0.0
 10
2.36184764959263
 20
-29.86349997694656
 30
0.0
 10
2.353706617708895
 20
-29.85228462241692
 30
0.0
 10
2.345757628003362
 20
-29.84069989938752
 30
0.0
 10
2.338843009575042
 20
-29.83006891679047
 30
0.0
 10
2.332644345721752
 20
-29.81994777166258
 30
0.0
 10
2.327260044052981
 20
-29.81075023968679
 30
0.0
 10
2.322570350441033
 20
-29.80238567586875
 30
0.0
 10
2.316997363543155
 20
-29.79195116322386
 30
0.0
 10
2.310868596394053
 20
-29.77980785256826
 30
0.0
 10
2.305033441188153
 20
-29.76732649201752
 30
0.0
 10
2.299415582272257
 20
-29.75445077440485
 30
0.0
 10
2.294600779993411
 20
-29.74264331307304
 30
0.0
 10
2.290381171159983
 20
-29.73144107762455
 30
0.0
 10
2.286780010895773
 20
-29.72127564742935
 30
0.0
 10
2.28370993406099
 20
-29.7120714536845
 30
0.0
 10
2.280163779893138
 20
-29.70067506908867
 30
0.0
 10
2.276405551154451
 20
-29.68753570631935
 30
0.0
 10
2.273004314469654
 20
-29.67415743909958
 30
0.0
 10
2.269898193315509
 20
-29.66048861644927
 30
0.0
 10
2.26749242093352
 20
-29.64859442308452
 30
0.0
 10
2.26499479529424
 20
-29.63444581670355
 30
0.0
 10
2.263202414824139
 20
-29.62244894433552
 30
0.0
 10
2.261637133568972
 20
-29.60994407024954
 30
0.0
 10
2.260562742126979
 20
-29.59971819548463
 30
0.0
 10
2.259525667984319
 20
-29.58735593043978
 30
0.0
 10
2.258786454142153
 20
-29.5750603714305
 30
0.0
 10
2.258309856624507
 20
-29.56189641680355
 30
0.0
 10
2.258254324955841
 20
-29.55364973250456
 30
0.0
 10
2.25822651223119
 20
-29.54951942694607
 30
0.0
  0
SPLINE
  5
293
330
1F
100
AcDbEntity
  8
1
  6
HIDDEN
370
    18
100
AcDbSpline
210
0.0
220
0.0
230
1.0
 70
     8
 71
     3
 72
    10
 73
     6
 74
     0
 42
0.000000001
 43
0.00000001
 40
0.0
 40
0.0
 40
0.0
 40
0.0
 40
0.4999999999999999
 40
0.4999999999999999
 40
1.0
 40
1.0
 40
1.0
 40
1.0
 10
18.72499999999999
 20
25.45080303251746
 30
0.0
 10
18.20352426803766
 20
25.3827776964248
 30
0.0
 10
17.66546726494324
 20
25.3283355643006
 30
0.0
 10
16.5564065954473
 20
25.25352663193743
 30
0.0
 10
15.98103477800686
 20
25.23333063628343
 30
0.0
 10
15.405
 20
25.23333063628343
 30
0.0
  0
SPLINE
  5
294
330
1F
100
AcDbEntity
  8
1
  6
HIDDEN
370
    18
100
AcDbSpline
210
0.0
220
0.0
230
1.0
 70
     8
 71
     3
 72
    10
 73
     6
 74
     0
 42
0.000000001
 43
0.00000001
 40
0.0
 40
0.0
 40
0.0
 40
0.0
 40
0.5
 40
0.5
 40
1.0
 40
1.0
 40
1.0
 40
1.0
 10
19.10000000000301
 20
25.89188338070358
 30
0.0
 10
19.10000000000216
 20
25.78181125020743
 30
0.0
 10
19.05448203142779
 20
25.67472639940333
 30
0.0
 10
18.91775493242108
 20
25.51771826549043
 30
0.0
 10
18.82528755215369
 20
25.46388531808258
 30
0.0
 10
18.72499999999999
 20
25.45080303251746
 30
0.0
  0
SPLINE
  5
295
330
1F
100
AcDbEntity
  8
1
  6
HIDDEN
370
    18
100
AcDbSpline
210
0.0
220
0.0
230
1.0
 70
     8
 71
     3
 72
    10
 73
     6
 74
     0
 42
0.000000001
 43
0.00000001
 40
0.0
 40
0.0
 40
0.0
 40
0.0
 40
0.5
 40
0.5
 40
1.0
 40
1.0
 40
1.0
 40
1.0
 10
21.37719856678903
 20
30.56976977530603
 30
0.0
 10
21.01735230238044
 20
29.86631727537959
 30
0.0
 10
20.6457449411535
 20
29.14099892315881
 30
0.0
 10
19.88530540526508
 20
27.65995485274542
 30
0.0
 10
19.49582638782492
 20
26.90296527856378
 30
0.0
 10
19.1
 20
26.13585634682925
 30
0.0
  0
SPLINE
  5
296
330
1F
100
AcDbEntity
  8
SK3
  6
HIDDEN
370
    18
100
AcDbSpline
210
0.0
220
0.0
230
1.0
 70
     8
 71
     3
 72
     8
 73
     4
 74
     0
 42
0.000000001
 43
0.00000001
 40
0.0
 40
0.0
 40
0.0
 40
0.0
 40
0.0230715775316607
 40
0.0230715775316607
 40
0.0230715775316607
 40
0.0230715775316607
 10
21.37719856678903
 20
30.56976977530603
 30
0.0
 10
21.43847205378298
 20
30.58298351551453
 30
0.0
 10
21.4997455407769
 20
30.59619725572301
 30
0.0
 10
21.55951825574064
 20
30.60932238420415
 30
0.0
  0
SPLINE
  5
297
330
1F
100
AcDbEntity
  8
SK3
  6
HIDDEN
370
    18
100
AcDbSpline
210
0.0
220
0.0
230
1.0
 70
     8
 71
     3
 72
     8
 73
     4
 74
     0
 42
0.000000001
 43
0.00000001
 40
0.0230715775316607
 40
0.0230715775316607
 40
0.0230715775316607
 40
0.0230715775316607
 40
0.0440279221544181
 40
0.0440279221544181
 40
0.0440279221544181
 40
0.0440279221544181
 10
21.55951825574064
 20
30.60932238420415
 30
0.0
 10
21.6138109287102
 20
30.62124418345221
 30
0.0
 10
21.66686540051188
 20
30.63309287423206
 30
0.0
 10
21.71899505086301
 20
30.64486241558713
 30
0.0
  0
SPLINE
  5
298
330
1F
100
AcDbEntity
  8
SK3
  6
HIDDEN
370
    18
100
AcDbSpline
210
0.0
220
0.0
230
1.0
 70
     8
 71
     3
 72
     8
 73
     4
 74
     0
 42
0.000000001
 43
0.00000001
 40
0.0440279221544181
 40
0.0440279221544181
 40
0.0440279221544181
 40
0.0440279221544181
 40
0.0628690454311713
 40
0.0628690454311713
 40
0.0628690454311713
 40
0.0628690454311713
 10
21.71899505086301
 20
30.64486241558713
 30
0.0
 10
21.76586301311119
 20
30.65544400238453
 30
0.0
 10
21.81198342507129
 20
30.66596161123762
 30
0.0
 10
21.85727129832142
 20
30.67638986945502
 30
0.0
  0
SPLINE
  5
299
330
1F
100
AcDbEntity
  8
SK3
  6
HIDDEN
370
    18
100
AcDbSpline
210
0.0
220
0.0
230
1.0
 70
     8
 71
     3
 72
     8
 73
     4
 74
     0
 42
0.000000001
 43
0.00000001
 40
0.0628690454311713
 40
0.0628690454311713
 40
0.0628690454311713
 40
0.0628690454311713
 40
0.0952120618571596
 40
0.0952120618571596
 40
0.0952120618571596
 40
0.0952120618571596
 10
21.85727129832142
 20
30.67638986945502
 30
0.0
 10
21.93501328890829
 20
30.69429120802523
 30
0.0
 10
22.01030197250608
 20
30.71192925008283
 30
0.0
 10
22.08308404315656
 20
30.72924534537002
 30
0.0
  0
SPLINE
  5
29A
330
1F
100
AcDbEntity
  8
SK3
  6
HIDDEN
370
    18
100
AcDbSpline
210
0.0
220
0.0
230
1.0
 70
     8
 71
     3
 72
     8
 73
     4
 74
     0
 42
0.000000001
 43
0.00000001
 40
0.0952120618571596
 40
0.0952120618571596
 40
0.0952120618571596
 40
0.0952120618571596
 40
0.1252082824845316
 40
0.1252082824845316
 40
0.1252082824845316
 40
0.1252082824845316
 10
22.08308404315656
 20
30.72924534537002
 30
0.0
 10
22.15058507707976
 20
30.7453049919966
 30
0.0
 10
22.21593005858882
 20
30.76108771748452
 30
0.0
 10
22.27905775482791
 20
30.77652662386562
 30
0.0
  0
SPLINE
  5
29B
330
1F
100
AcDbEntity
  8
SK3
  6
HIDDEN
370
    18
100
AcDbSpline
210
0.0
220
0.0
230
1.0
 70
     8
 71
     3
 72
     8
 73
     4
 74
     0
 42
0.000000001
 43
0.00000001
 40
0.1252082824845316
 40
0.1252082824845316
 40
0.1252082824845316
 40
0.1252082824845316
 40
0.1874443143946091
 40
0.1874443143946091
 40
0.1874443143946091
 40
0.1874443143946091
 10
22.27905775482791
 20
30.77652662386562
 30
0.0
 10
22.41003483245214
 20
30.80855920164026
 30
0.0
 10
22.53146699029091
 20
30.83911171465294
 30
0.0
 10
22.64275720187067
 20
30.86767874348244
 30
0.0
  0
SPLINE
  5
29C
330
1F
100
AcDbEntity
  8
SK3
  6
HIDDEN
370
    18
100
AcDbSpline
210
0.0
220
0.0
230
1.0
 70
     8
 71
     3
 72
     8
 73
     4
 74
     0
 42
0.000000001
 43
0.00000001
 40
0.1874443143946091
 40
0.1874443143946091
 40
0.1874443143946091
 40
0.1874443143946091
 40
0.2501296237171894
 40
0.2501296237171894
 40
0.2501296237171894
 40
0.2501296237171894
 10
22.64275720187067
 20
30.86767874348244
 30
0.0
 10
22.75485080943766
 20
30.89645199562663
 30
0.0
 10
22.85665551426638
 20
30.92321099398487
 30
0.0
 10
22.94768740588889
 20
30.94750125886348
 30
0.0
  0
SPLINE
  5
29D
330
1F
100
AcDbEntity
  8
SK3
  6
HIDDEN
370
    18
100
AcDbSpline
210
0.0
220
0.0
230
1.0
 70
     8
 71
     3
 72
     8
 73
     4
 74
     0
 42
0.000000001
 43
0.00000001
 40
0.2501296237171894
 40
0.2501296237171894
 40
0.2501296237171894
 40
0.2501296237171894
 40
0.3127676613642624
 40
0.3127676613642624
 40
0.3127676613642624
 40
0.3127676613642624
 10
22.94768740588889
 20
30.94750125886348
 30
0.0
 10
23.03865064936895
 20
30.97177320618838
 30
0.0
 10
23.11885732130835
 20
30.99358014202742
 30
0.0
 10
23.1878881099451
 20
31.01254612663389
 30
0.0
  0
SPLINE
  5
29E
330
1F
100
AcDbEntity
  8
SK3
  6
HIDDEN
370
    18
100
AcDbSpline
210
0.0
220
0.0
230
1.0
 70
     8
 71
     3
 72
     8
 73
     4
 74
     0
 42
0.000000001
 43
0.00000001
 40
0.3127676613642624
 40
0.3127676613642624
 40
0.3127676613642624
 40
0.3127676613642624
 40
0.374909679964516
 40
0.374909679964516
 40
0.374909679964516
 40
0.374909679964516
 10
23.1878881099451
 20
31.01254612663389
 30
0.0
 10
23.25637225652109
 20
31.0313619231125
 30
0.0
 10
23.31385681849117
 20
31.04738158414499
 30
0.0
 10
23.3600347811655
 20
31.0603295678442
 30
0.0
  0
SPLINE
  5
29F
330
1F
100
AcDbEntity
  8
SK3
  6
HIDDEN
370
    18
100
AcDbSpline
210
0.0
220
0.0
230
1.0
 70
     8
 71
     3
 72
     8
 73
     4
 74
     0
 42
0.000000001
 43
0.00000001
 40
0.374909679964516
 40
0.374909679964516
 40
0.374909679964516
 40
0.374909679964516
 40
0.4371223082215359
 40
0.4371223082215359
 40
0.4371223082215359
 40
0.4371223082215359
 10
23.3600347811655
 20
31.0603295678442
 30
0.0
 10
23.40626521413558
 20
31.07329226385409
 30
0.0
 10
23.44116333867836
 20
31.08317629810022
 30
0.0
 10
23.46453392598054
 20
31.08980898206577
 30
0.0
  0
SPLINE
  5
2A0
330
1F
100
AcDbEntity
  8
SK3
  6
HIDDEN
370
    18
100
AcDbSpline
210
0.0
220
0.0
230
1.0
 70
     8
 71
     3
 72
     8
 73
     4
 74
     0
 42
0.000000001
 43
0.00000001
 40
0.4371223082215359
 40
0.4371223082215359
 40
0.4371223082215359
 40
0.4371223082215359
 40
0.499911456350327
 40
0.499911456350327
 40
0.499911456350327
 40
0.499911456350327
 10
23.46453392598054
 20
31.08980898206577
 30
0.0
 10
23.48812108680441
 20
31.09650313062809
 30
0.0
 10
23.49996607076224
 20
31.09988538964706
 30
0.0
 10
23.4999999226604
 20
31.0998950338485
 30
0.0
  0
SPLINE
  5
2A1
330
1F
100
AcDbEntity
  8
SK3
  6
HIDDEN
370
    18
100
AcDbSpline
210
0.0
220
0.0
230
1.0
 70
     8
 71
     3
 72
     8
 73
     4
 74
     0
 42
0.000000001
 43
0.00000001
 40
0.5624697494052605
 40
0.5624697494052605
 40
0.5624697494052605
 40
0.5624697494052605
 40
0.6246519449431386
 40
0.6246519449431386
 40
0.6246519449431386
 40
0.6246519449431386
 10
23.46498710154374
 20
31.08993810414976
 30
0.0
 10
23.44178013594589
 20
31.08335149603938
 30
0.0
 10
23.40705608208741
 20
31.07351598974055
 30
0.0
 10
23.36100893253316
 20
31.06060315533087
 30
0.0
  0
SPLINE
  5
2A2
330
1F
100
AcDbEntity
  8
SK3
  6
HIDDEN
370
    18
100
AcDbSpline
210
0.0
220
0.0
230
1.0
 70
     8
 71
     3
 72
     8
 73
     4
 74
     0
 42
0.000000001
 43
0.00000001
 40
0.6246519449431386
 40
0.6246519449431386
 40
0.6246519449431386
 40
0.6246519449431386
 40
0.687125378978679
 40
0.687125378978679
 40
0.687125378978679
 40
0.687125378978679
 10
23.36100893253316
 20
31.06060315533087
 30
0.0
 10
23.31474611509295
 20
31.04762984196155
 30
0.0
 10
23.25705388715067
 20
31.03155030683333
 30
0.0
 10
23.18824290479946
 20
31.012644023779
 30
0.0
  0
SPLINE
  5
2A3
330
1F
100
AcDbEntity
  8
SK3
  6
HIDDEN
370
    18
100
AcDbSpline
210
0.0
220
0.0
230
1.0
 70
     8
 71
     3
 72
     8
 73
     4
 74
     0
 42
0.000000001
 43
0.00000001
 40
0.687125378978679
 40
0.687125378978679
 40
0.687125378978679
 40
0.687125378978679
 40
0.749941391460512
 40
0.749941391460512
 40
0.749941391460512
 40
0.749941391460512
 10
23.18824290479946
 20
31.012644023779
 30
0.0
 10
23.11905459151091
 20
30.9936340664962
 30
0.0
 10
23.03862524818427
 20
30.97176627485725
 30
0.0
 10
22.94738183152883
 20
30.94742018868744
 30
0.0
  0
SPLINE
  5
2A4
330
1F
100
AcDbEntity
  8
SK3
  6
HIDDEN
370
    18
100
AcDbSpline
210
0.0
220
0.0
230
1.0
 70
     8
 71
     3
 72
     8
 73
     4
 74
     0
 42
0.000000001
 43
0.00000001
 40
0.749941391460512
 40
0.749941391460512
 40
0.749941391460512
 40
0.749941391460512
 40
0.8122668496053744
 40
0.8122668496053744
 40
0.8122668496053744
 40
0.8122668496053744
 10
22.94738183152883
 20
30.94742018868744
 30
0.0
 10
22.85685096971403
 20
30.92326423044341
 30
0.0
 10
22.75567427755178
 20
30.89666853443133
 30
0.0
 10
22.64431411412131
 20
30.86807885553445
 30
0.0
  0
SPLINE
  5
2A5
330
1F
100
AcDbEntity
  8
SK3
  6
HIDDEN
370
    18
100
AcDbSpline
210
0.0
220
0.0
230
1.0
 70
     8
 71
     3
 72
     8
 73
     4
 74
     0
 42
0.000000001
 43
0.00000001
 40
0.8122668496053744
 40
0.8122668496053744
 40
0.8122668496053744
 40
0.8122668496053744
 40
0.8745780800877345
 40
0.8745780800877345
 40
0.8745780800877345
 40
0.8745780800877345
 10
22.64431411412131
 20
30.86807885553445
 30
0.0
 10
22.5329793720013
 20
30.83949570309264
 30
0.0
 10
22.41146580745029
 20
30.80891947803538
 30
0.0
 10
22.2804172997591
 20
30.77685934982614
 30
0.0
  0
SPLINE
  5
2A6
330
1F
100
AcDbEntity
  8
SK3
  6
HIDDEN
370
    18
100
AcDbSpline
210
0.0
220
0.0
230
1.0
 70
     8
 71
     3
 72
     8
 73
     4
 74
     0
 42
0.000000001
 43
0.00000001
 40
0.8745780800877345
 40
0.8745780800877345
 40
0.8745780800877345
 40
0.8745780800877345
 40
0.9047897694322812
 40
0.9047897694322812
 40
0.9047897694322812
 40
0.9047897694322812
 10
22.2804172997591
 20
30.77685934982614
 30
0.0
 10
22.21687824311099
 20
30.76131495074582
 30
0.0
 10
22.15109770333975
 20
30.74542171436016
 30
0.0
 10
22.08308404315656
 20
30.72924534537002
 30
0.0
  0
SPLINE
  5
2A7
330
1F
100
AcDbEntity
  8
SK3
  6
HIDDEN
370
    18
100
AcDbSpline
210
0.0
220
0.0
230
1.0
 70
     8
 71
     3
 72
     8
 73
     4
 74
     0
 42
0.000000001
 43
0.00000001
 40
0.9047897694322812
 40
0.9047897694322812
 40
0.9047897694322812
 40
0.9047897694322812
 40
0.9373962146516616
 40
0.9373962146516616
 40
0.9373962146516616
 40
0.9373962146516616
 10
22.08308404315656
 20
30.72924534537002
 30
0.0
 10
22.00967922094885
 20
30.71178674239982
 30
0.0
 10
21.93367322698904
 20
30.69399834237571
 30
0.0
 10
21.85537187046764
 20
30.67595259481805
 30
0.0
  0
SPLINE
  5
2A8
330
1F
100
AcDbEntity
  8
SK3
  6
HIDDEN
370
    18
100
AcDbSpline
210
0.0
220
0.0
230
1.0
 70
     8
 71
     3
 72
     8
 73
     4
 74
     0
 42
0.000000001
 43
0.00000001
 40
0.9373962146516616
 40
0.9373962146516616
 40
0.9373962146516616
 40
0.9373962146516616
 40
0.9663311415724875
 40
0.9663311415724875
 40
0.9663311415724875
 40
0.9663311415724875
 10
21.85537187046764
 20
30.67595259481805
 30
0.0
 10
21.78594594334464
 20
30.65968656230809
 30
0.0
 10
21.71471321896831
 20
30.64321131108094
 30
0.0
 10
21.64108545742969
 20
30.62657045846045
 30
0.0
  0
SPLINE
  5
2A9
330
1F
100
AcDbEntity
  8
SK3
  6
HIDDEN
370
    18
100
AcDbSpline
210
0.0
220
0.0
230
1.0
 70
     8
 71
     3
 72
     8
 73
     4
 74
     0
 42
0.000000001
 43
0.00000001
 40
0.9663311415724875
 40
0.9663311415724875
 40
0.9663311415724875
 40
0.9663311415724875
 40
0.9999999999999999
 40
0.9999999999999999
 40
0.9999999999999999
 40
0.9999999999999999
 10
21.64108545742969
 20
30.62657045846045
 30
0.0
 10
21.55528598582428
 20
30.6077721264821
 30
0.0
 10
21.46624227630665
 20
30.58877095089407
 30
0.0
 10
21.37719856678903
 20
30.56976977530603
 30
0.0
  0
SPLINE
  5
2AA
330
1F
100
AcDbEntity
  8
1
  6
HIDDEN
370
    18
100
AcDbSpline
210
0.0
220
0.0
230
1.0
 70
     8
 71
     3
 72
    10
 73
     6
 74
     0
 42
0.000000001
 43
0.00000001
 40
0.0
 40
0.0
 40
0.0
 40
0.0
 40
0.5
 40
0.5
 40
1.0
 40
1.0
 40
1.0
 40
1.0
 10
19.10000000000303
 20
-25.8918833807036
 30
0.0
 10
19.10000000000217
 20
-25.78181125020744
 30
0.0
 10
19.0544820314278
 20
-25.67472639940335
 30
0.0
 10
18.91775493242109
 20
-25.51771826549046
 30
0.0
 10
18.82528755215371
 20
-25.46388531808259
 30
0.0
 10
18.72499999999999
 20
-25.45080303251747
 30
0.0
  0
SPLINE
  5
2AB
330
1F
100
AcDbEntity
  8
1
  6
HIDDEN
370
    18
100
AcDbSpline
210
0.0
220
0.0
230
1.0
 70
     8
 71
     3
 72
    10
 73
     6
 74
     0
 42
0.000000001
 43
0.00000001
 40
0.0
 40
0.0
 40
0.0
 40
0.0
 40
0.4999999999999999
 40
0.4999999999999999
 40
1.0
 40
1.0
 40
1.0
 40
1.0
 10
18.72499999999999
 20
-25.45080303251747
 30
0.0
 10
18.20352426803766
 20
-25.3827776964248
 30
0.0
 10
17.66546726494324
 20
-25.3283355643006
 30
0.0
 10
16.5564065954473
 20
-25.25352663193743
 30
0.0
 10
15.98103477800686
 20
-25.23333063628344
 30
0.0
 10
15.405
 20
-25.23333063628344
 30
0.0
  0
SPLINE
  5
2AC
330
1F
100
AcDbEntity
  8
SK3
  6
HIDDEN
370
    18
100
AcDbSpline
210
0.0
220
0.0
230
1.0
 70
     8
 71
     3
 72
    18
 73
    14
 74
     0
 42
0.000000001
 43
0.00000001
 40
0.0
 40
0.0
 40
0.0
 40
0.0
 40
0.0229754047839607
 40
0.0438482003608436
 40
0.0626183981417361
 40
0.0952267560523073
 40
0.125447902994535
 40
0.1877704366526562
 40
0.2501074993620106
 40
0.312935229781184
 40
0.3754195309366838
 40
0.4376131166539915
 40
0.5000916007165477
 40
0.5000916007165477
 40
0.5000916007165477
 40
0.5000916007165477
 10
21.37719856971539
 20
-30.56976977612044
 30
0.0
 10
21.43821931903661
 20
-30.58292858507242
 30
0.0
 10
21.55467646386458
 20
-30.60804196596219
 30
0.0
 10
21.71324531647767
 20
-30.64344921022898
 30
0.0
 10
21.89017705253121
 20
-30.68378816708808
 30
0.0
 10
22.080173200913
 20
-30.72829411925838
 30
0.0
 10
22.35273297345035
 20
-30.79413401379433
 30
0.0
 10
22.65470782409157
 20
-30.87012859763727
 30
0.0
 10
22.95903919696378
 20
-30.95012582986937
 30
0.0
 10
23.19924690430467
 20
-31.01543784117947
 30
0.0
 10
23.37233503531819
 20
-31.06368049056141
 30
0.0
 10
23.47676543950514
 20
-31.09326063923664
 30
0.0
 10
23.50003366098451
 20
-31.09990467716163
 30
0.0
 10
23.4999999272322
 20
-31.09989503850065
 30
0.0
  0
SPLINE
  5
2AD
330
1F
100
AcDbEntity
  8
1
  6
HIDDEN
370
    18
100
AcDbSpline
210
0.0
220
0.0
230
1.0
 70
     8
 71
     3
 72
    10
 73
     6
 74
     0
 42
0.000000001
 43
0.00000001
 40
0.0
 40
0.0
 40
0.0
 40
0.0
 40
0.5
 40
0.5
 40
1.0
 40
1.0
 40
1.0
 40
1.0
 10
21.37719856971537
 20
-30.56976977612044
 30
0.0
 10
21.01735230642601
 20
-29.86631727905846
 30
0.0
 10
20.64574494515684
 20
-29.14099892747468
 30
0.0
 10
19.88530540807159
 20
-27.65995485632392
 30
0.0
 10
19.49582638943331
 20
-26.90296528068282
 30
0.0
 10
19.1
 20
-26.13585634682926
 30
0.0
  0
SPLINE
  5
2AE
330
1F
100
AcDbEntity
  8
SK3
  6
HIDDEN
370
    18
100
AcDbSpline
210
0.0
220
0.0
230
1.0
 70
     8
 71
     3
 72
    30
 73
    26
 74
     0
 42
0.000000001
 43
0.00000001
 40
0.4999999999999998
 40
0.4999999999999998
 40
0.4999999999999998
 40
0.4999999999999998
 40
0.5624999999999999
 40
0.5624999999999999
 40
0.59375
 40
0.59375
 40
0.6250000000000001
 40
0.6250000000000001
 40
0.6562500000000002
 40
0.6562500000000002
 40
0.6875000000000003
 40
0.6875000000000003
 40
0.7500000000000004
 40
0.7500000000000004
 40
0.7812500000000006
 40
0.7812500000000006
 40
0.8125000000000004
 40
0.8125000000000004
 40
0.8750000000000004
 40
0.8750000000000004
 40
0.9375000000000004
 40
0.9375000000000004
 40
0.9687500000000002
 40
0.9687500000000002
 40
1.0
 40
1.0
 40
1.0
 40
1.0
 10
8.999303684107119
 20
3.877172552155875
 30
0.0
 10
9.215091268871975
 20
3.877250570353367
 30
0.0
 10
9.432951289119709
 20
3.840163879053018
 30
0.0
 10
9.731053175658616
 20
3.733503950163426
 30
0.0
 10
9.827533930619067
 20
3.688844576862374
 30
0.0
 10
10.00679675468216
 20
3.584396341963815
 30
0.0
 10
10.08962098377896
 20
3.524896024259282
 30
0.0
 10
10.24187870501916
 20
3.39085534748642
 30
0.0
 10
10.31131806940208
 20
3.315889249412181
 30
0.0
 10
10.43072006888068
 20
3.156394907283588
 30
0.0
 10
10.48158790169311
 20
3.071195911952117
 30
0.0
 10
10.60679440427298
 20
2.7978706014977
 30
0.0
 10
10.64987466953581
 20
2.599635773386629
 30
0.0
 10
10.6500622570352
 20
2.292729329377928
 30
0.0
 10
10.63945301760236
 20
2.190971671629377
 30
0.0
 10
10.59741496733704
 20
1.988602412505161
 30
0.0
 10
10.56545121229692
 20
1.887128696729759
 30
0.0
 10
10.44157935443364
 20
1.597150549416205
 30
0.0
 10
10.31886794715661
 20
1.41623703939206
 30
0.0
 10
10.0160688283561
 20
1.113819439191394
 30
0.0
 10
9.832818009525345
 20
0.9894109901842572
 30
0.0
 10
9.535049908455552
 20
0.863434944832972
 30
0.0
 10
9.43005220944869
 20
0.8306714940699498
 30
0.0
 10
9.21730470473274
 20
0.7872186525825984
 30
0.0
 10
9.10942130839526
 20
0.7761870294392057
 30
0.0
 10
8.999999999999995
 20
0.7761870294392057
 30
0.0
  0
SPLINE
  5
2AF
330
1F
100
AcDbEntity
  8
SK3
  6
HIDDEN
370
    18
100
AcDbSpline
210
0.0
220
0.0
230
1.0
 70
     8
 71
     3
 72
    32
 73
    28
 74
     0
 42
0.000000001
 43
0.00000001
 40
0.0
 40
0.0
 40
0.0
 40
0.0
 40
0.0312499999999999
 40
0.0312499999999999
 40
0.0624999999999998
 40
0.0624999999999998
 40
0.0937499999999997
 40
0.0937499999999997
 40
0.1249999999999996
 40
0.1249999999999996
 40
0.1874999999999996
 40
0.1874999999999996
 40
0.2499999999999996
 40
0.2499999999999996
 40
0.2812499999999996
 40
0.2812499999999996
 40
0.3124999999999995
 40
0.3124999999999995
 40
0.3749999999999995
 40
0.3749999999999995
 40
0.4062499999999996
 40
0.4062499999999996
 40
0.4374999999999997
 40
0.4374999999999997
 40
0.4687499999999997
 40
0.4687499999999997
 40
0.4999999999999998
 40
0.4999999999999998
 40
0.4999999999999998
 40
0.4999999999999998
 10
8.999999999999995
 20
0.7761870294391987
 30
0.0
 10
8.890578691604729
 20
0.7761870294392057
 30
0.0
 10
8.783065869333084
 20
0.7872158517148592
 30
0.0
 10
8.57167557509278
 20
0.8302464334251775
 30
0.0
 10
8.466679038285491
 20
0.8627949969944315
 30
0.0
 10
8.267066953356924
 20
0.9470624567166491
 30
0.0
 10
8.172454825237443
 20
0.9984411012338851
 30
0.0
 10
7.993397793892923
 20
1.119117661897581
 30
0.0
 10
7.908932550725972
 20
1.188799965596045
 30
0.0
 10
7.681543306819472
 20
1.415674410817802
 30
0.0
 10
7.558729911511019
 20
1.596813358985823
 30
0.0
 10
7.393870539297937
 20
1.981969919632974
 30
0.0
 10
7.350132936589731
 20
2.19013688090098
 30
0.0
 10
7.349933997937097
 20
2.494715483199086
 30
0.0
 10
7.360739932554871
 20
2.596989968316712
 30
0.0
 10
7.403010878332561
 20
2.792786270541962
 30
0.0
 10
7.434282312656762
 20
2.887169215205696
 30
0.0
 10
7.558818187818436
 20
3.160133943201991
 30
0.0
 10
7.680190608826631
 20
3.321994093354229
 30
0.0
 10
7.909685791142262
 20
3.524411755127764
 30
0.0
 10
7.992562612113799
 20
3.583929339277793
 30
0.0
 10
8.170891565882924
 20
3.688019764047513
 30
0.0
 10
8.26750767519574
 20
3.73290771849974
 30
0.0
 10
8.466709431345087
 20
3.804343127065283
 30
0.0
 10
8.569555761736916
 20
3.831307682281064
 30
0.0
 10
8.781872179542502
 20
3.867841494158406
 30
0.0
 10
8.891409891724683
 20
3.877133543057118
 30
0.0
 10
8.999303684107119
 20
3.877172552155875
 30
0.0
  0
SPLINE
  5
2B0
330
1F
100
AcDbEntity
  8
SK3
  6
HIDDEN
370
    18
100
AcDbSpline
210
0.0
220
0.0
230
1.0
 70
     8
 71
     3
 72
    30
 73
    26
 74
     0
 42
0.000000001
 43
0.00000001
 40
0.4999999999999397
 40
0.4999999999999397
 40
0.4999999999999397
 40
0.4999999999999397
 40
0.5624999999999472
 40
0.5624999999999472
 40
0.5937499999999508
 40
0.5937499999999508
 40
0.6249999999999546
 40
0.6249999999999546
 40
0.687499999999962
 40
0.687499999999962
 40
0.7187499999999657
 40
0.7187499999999657
 40
0.7499999999999694
 40
0.7499999999999694
 40
0.812499999999977
 40
0.812499999999977
 40
0.8749999999999847
 40
0.8749999999999847
 40
0.9062499999999886
 40
0.9062499999999886
 40
0.9374999999999923
 40
0.9374999999999923
 40
0.9687499999999962
 40
0.9687499999999962
 40
1.0
 40
1.0
 40
1.0
 40
1.0
 10
151.0005822873653
 20
-3.872465591809399
 30
0.0
 10
150.8036860340563
 20
-3.872499251144149
 30
0.0
 10
150.6049638266101
 20
-3.855375005661108
 30
0.0
 10
150.3333535117073
 20
-3.803020968255289
 30
0.0
 10
150.2457399687551
 20
-3.7807873018742
 30
0.0
 10
150.0839938070472
 20
-3.727637606452304
 30
0.0
 10
150.0088945145273
 20
-3.696601177743942
 30
0.0
 10
149.8008809308071
 20
-3.587474021696166
 30
0.0
 10
149.69106517878
 20
-3.496254308410846
 30
0.0
 10
149.5773378978049
 20
-3.329569354486573
 30
0.0
 10
149.5487449928555
 20
-3.270249922603531
 30
0.0
 10
149.5100095553463
 20
-3.143397492655787
 30
0.0
 10
149.4999907137173
 20
-3.075003391082815
 30
0.0
 10
149.5000185924511
 20
-2.865305531977398
 30
0.0
 10
149.5401132599735
 20
-2.714667903428818
 30
0.0
 10
149.6907008977789
 20
-2.424125806722678
 30
0.0
 10
149.802080546032
 20
-2.282123235095454
 30
0.0
 10
150.0084018316807
 20
-2.098721479275447
 30
0.0
 10
150.0849645200434
 20
-2.041483543673016
 30
0.0
 10
150.2467564094823
 20
-1.941449925400442
 30
0.0
 10
150.332460002415
 20
-1.898059717090866
 30
0.0
 10
150.5140397277514
 20
-1.826150359930126
 30
0.0
 10
150.6094617973442
 20
-1.798090400675193
 30
0.0
 10
150.8019120365665
 20
-1.760816006130796
 30
0.0
 10
150.9000256273862
 20
-1.751145298020645
 30
0.0
 10
151.0
 20
-1.751145298020645
 30
0.0
  0
SPLINE
  5
2B1
330
1F
100
AcDbEntity
  8
SK3
  6
HIDDEN
370
    18
100
AcDbSpline
210
0.0
220
0.0
230
1.0
 70
     8
 71
     3
 72
    30
 73
    26
 74
     0
 42
0.000000001
 43
0.00000001
 40
0.0
 40
0.0
 40
0.0
 40
0.0
 40
0.0312499999999933
 40
0.0312499999999933
 40
0.0624999999999866
 40
0.0624999999999866
 40
0.1249999999999731
 40
0.1249999999999731
 40
0.1874999999999596
 40
0.1874999999999596
 40
0.2187499999999546
 40
0.2187499999999546
 40
0.2499999999999496
 40
0.2499999999999496
 40
0.2812499999999446
 40
0.2812499999999446
 40
0.3124999999999395
 40
0.3124999999999395
 40
0.3749999999999328
 40
0.3749999999999328
 40
0.4062499999999325
 40
0.4062499999999325
 40
0.4374999999999322
 40
0.4374999999999322
 40
0.4999999999999397
 40
0.4999999999999397
 40
0.4999999999999397
 40
0.4999999999999397
 10
151.0
 20
-1.751145298020645
 30
0.0
 10
151.0999743726138
 20
-1.751145298020639
 30
0.0
 10
151.1981017179449
 20
-1.760807318422843
 30
0.0
 10
151.3908730085694
 20
-1.798166619255387
 30
0.0
 10
151.48653657737
 20
-1.826351624734719
 30
0.0
 10
151.7583366950804
 20
-1.93407120338011
 30
0.0
 10
151.9235706986912
 20
-2.038179478004952
 30
0.0
 10
152.1978719896335
 20
-2.282152697554912
 30
0.0
 10
152.309356566138
 20
-2.424297149832971
 30
0.0
 10
152.4220679528228
 20
-2.641670581386361
 30
0.0
 10
152.451333814999
 20
-2.716237703781023
 30
0.0
 10
152.490209092733
 20
-2.862977181216125
 30
0.0
 10
152.4999337445556
 20
-2.93464358017971
 30
0.0
 10
152.5000655871664
 20
-3.074347971556202
 30
0.0
 10
152.4901269928628
 20
-3.142753329065918
 30
0.0
 10
152.4514465706484
 20
-3.269817910608448
 30
0.0
 10
152.4228347626202
 20
-3.329301982064121
 30
0.0
 10
152.3087278834163
 20
-3.496586205440057
 30
0.0
 10
152.1980923654641
 20
-3.588056243051269
 30
0.0
 10
151.9912137319484
 20
-3.696522527544169
 30
0.0
 10
151.9163179451632
 20
-3.727523552820918
 30
0.0
 10
151.7543850047917
 20
-3.780757816401081
 30
0.0
 10
151.6667652151921
 20
-3.802980029566739
 30
0.0
 10
151.3962025559123
 20
-3.855186147516638
 30
0.0
 10
151.1974785406744
 20
-3.872431932474645
 30
0.0
 10
151.0005822873653
 20
-3.872465591809399
 30
0.0
  0
SPLINE
  5
2B2
330
1F
100
AcDbEntity
  8
SK3
  6
HIDDEN
370
    18
100
AcDbSpline
210
0.0
220
0.0
230
1.0
 70
     8
 71
     3
 72
    30
 73
    26
 74
     0
 42
0.000000001
 43
0.00000001
 40
0.4999999999999405
 40
0.4999999999999405
 40
0.4999999999999405
 40
0.4999999999999405
 40
0.562499999999948
 40
0.562499999999948
 40
0.5937499999999518
 40
0.5937499999999518
 40
0.6249999999999556
 40
0.6249999999999556
 40
0.687499999999963
 40
0.687499999999963
 40
0.7187499999999667
 40
0.7187499999999667
 40
0.7499999999999704
 40
0.7499999999999704
 40
0.8124999999999778
 40
0.8124999999999778
 40
0.8749999999999852
 40
0.8749999999999852
 40
0.9062499999999889
 40
0.9062499999999889
 40
0.9374999999999926
 40
0.9374999999999926
 40
0.9687499999999963
 40
0.9687499999999963
 40
1.0
 40
1.0
 40
1.0
 40
1.0
 10
150.9994177126347
 20
3.872465591809447
 30
0.0
 10
151.1963139659437
 20
3.872499251144197
 30
0.0
 10
151.3950361733899
 20
3.855375005661153
 30
0.0
 10
151.6666464882927
 20
3.803020968255341
 30
0.0
 10
151.7542600312448
 20
3.780787301874248
 30
0.0
 10
151.9160061929527
 20
3.727637606452352
 30
0.0
 10
151.9911054854727
 20
3.696601177743994
 30
0.0
 10
152.199119069193
 20
3.587474021696222
 30
0.0
 10
152.3089348212201
 20
3.496254308410912
 30
0.0
 10
152.4226621021951
 20
3.329569354486646
 30
0.0
 10
152.4512550071446
 20
3.270249922603615
 30
0.0
 10
152.4899904446538
 20
3.143397492655867
 30
0.0
 10
152.5000092862828
 20
3.075003391082895
 30
0.0
 10
152.499981407549
 20
2.865305531977475
 30
0.0
 10
152.4598867400267
 20
2.714667903428905
 30
0.0
 10
152.3092991022211
 20
2.424125806722771
 30
0.0
 10
152.1979194539681
 20
2.282123235095544
 30
0.0
 10
151.9915981683193
 20
2.098721479275541
 30
0.0
 10
151.9150354799566
 20
2.04148354367311
 30
0.0
 10
151.7532435905178
 20
1.941449925400539
 30
0.0
 10
151.667539997585
 20
1.898059717090963
 30
0.0
 10
151.4859602722487
 20
1.82615035993023
 30
0.0
 10
151.3905382026559
 20
1.798090400675294
 30
0.0
 10
151.1980879634334
 20
1.760816006130893
 30
0.0
 10
151.0999743726138
 20
1.751145298020742
 30
0.0
 10
151.0
 20
1.751145298020742
 30
0.0
  0
SPLINE
  5
2B3
330
1F
100
AcDbEntity
  8
SK3
  6
HIDDEN
370
    18
100
AcDbSpline
210
0.0
220
0.0
230
1.0
 70
     8
 71
     3
 72
    30
 73
    26
 74
     0
 42
0.000000001
 43
0.00000001
 40
0.0
 40
0.0
 40
0.0
 40
0.0
 40
0.0312499999999934
 40
0.0312499999999934
 40
0.0624999999999867
 40
0.0624999999999867
 40
0.1249999999999735
 40
0.1249999999999735
 40
0.1874999999999603
 40
0.1874999999999603
 40
0.2187499999999553
 40
0.2187499999999553
 40
0.2499999999999503
 40
0.2499999999999503
 40
0.2812499999999453
 40
0.2812499999999453
 40
0.3124999999999402
 40
0.3124999999999402
 40
0.3749999999999336
 40
0.3749999999999336
 40
0.4062499999999333
 40
0.4062499999999333
 40
0.4374999999999331
 40
0.4374999999999331
 40
0.4999999999999405
 40
0.4999999999999405
 40
0.4999999999999405
 40
0.4999999999999405
 10
151.0
 20
1.751145298020742
 30
0.0
 10
150.9000256273862
 20
1.751145298020742
 30
0.0
 10
150.8018982820551
 20
1.760807318422958
 30
0.0
 10
150.6091269914306
 20
1.798166619255498
 30
0.0
 10
150.51346342263
 20
1.82635162473483
 30
0.0
 10
150.2416633049195
 20
1.934071203380218
 30
0.0
 10
150.0764293013089
 20
2.03817947800506
 30
0.0
 10
149.8021280103665
 20
2.282152697555023
 30
0.0
 10
149.6906434338619
 20
2.424297149833082
 30
0.0
 10
149.5779320471771
 20
2.641670581386472
 30
0.0
 10
149.548666185001
 20
2.716237703781127
 30
0.0
 10
149.5097909072671
 20
2.862977181216225
 30
0.0
 10
149.5000662554444
 20
2.934643580179808
 30
0.0
 10
149.4999344128336
 20
3.074347971556306
 30
0.0
 10
149.5098730071373
 20
3.142753329066016
 30
0.0
 10
149.5485534293515
 20
3.269817910608541
 30
0.0
 10
149.5771652373798
 20
3.329301982064214
 30
0.0
 10
149.6912721165839
 20
3.49658620544014
 30
0.0
 10
149.8019076345359
 20
3.588056243051342
 30
0.0
 10
150.0087862680516
 20
3.696522527544238
 30
0.0
 10
150.0836820548369
 20
3.72752355282098
 30
0.0
 10
150.2456149952083
 20
3.780757816401144
 30
0.0
 10
150.3332347848078
 20
3.802980029566798
 30
0.0
 10
150.6037974440877
 20
3.855186147516697
 30
0.0
 10
150.8025214593257
 20
3.872431932474697
 30
0.0
 10
150.9994177126347
 20
3.872465591809447
 30
0.0
  0
SPLINE
  5
2B4
330
1F
100
AcDbEntity
  8
SK3
  6
HIDDEN
370
    18
100
AcDbSpline
210
0.0
220
0.0
230
1.0
 70
     8
 71
     3
 72
    30
 73
    26
 74
     0
 42
0.000000001
 43
0.00000001
 40
0.0
 40
0.0
 40
0.0
 40
0.0
 40
0.0625000000000008
 40
0.0625000000000008
 40
0.0937500000000013
 40
0.0937500000000013
 40
0.1250000000000017
 40
0.1250000000000017
 40
0.1562500000000021
 40
0.1562500000000021
 40
0.1875000000000026
 40
0.1875000000000026
 40
0.2500000000000038
 40
0.2500000000000038
 40
0.312500000000005
 40
0.312500000000005
 40
0.3437500000000041
 40
0.3437500000000041
 40
0.3750000000000032
 40
0.3750000000000032
 40
0.4062500000000023
 40
0.4062500000000023
 40
0.4375000000000014
 40
0.4375000000000014
 40
0.4999999999999996
 40
0.4999999999999996
 40
0.4999999999999996
 40
0.4999999999999996
 10
152.211919964354
 20
5.480077554195828
 30
0.0
 10
152.1312467253801
 20
5.323646340010356
 30
0.0
 10
152.045145513075
 20
5.174481417514659
 30
0.0
 10
151.9319967236701
 20
4.952390946947726
 30
0.0
 10
151.8980844169321
 20
4.880382350533661
 30
0.0
 10
151.8469781490755
 20
4.738480292690829
 30
0.0
 10
151.8309253712676
 20
4.670156637473302
 30
0.0
 10
151.827670078587
 20
4.544030714655151
 30
0.0
 10
151.8405540031713
 20
4.488559793262997
 30
0.0
 10
151.887502555014
 20
4.393908963501019
 30
0.0
 10
151.9200788396227
 20
4.356163788707001
 30
0.0
 10
152.0297058798207
 20
4.264917574552633
 30
0.0
 10
152.1167458144225
 20
4.233876633300603
 30
0.0
 10
152.2778697726445
 20
4.226913412524265
 30
0.0
 10
152.3530699238744
 20
4.251536352883302
 30
0.0
 10
152.4365187060438
 20
4.339850231732593
 30
0.0
 10
152.4588774328144
 20
4.377376505445708
 30
0.0
 10
152.4901406100946
 20
4.46901918702207
 30
0.0
 10
152.4989440605407
 20
4.523899708632518
 30
0.0
 10
152.5008713642474
 20
4.645114069283095
 30
0.0
 10
152.4940944579956
 20
4.713133431678814
 30
0.0
 10
152.4662412735263
 20
4.856822023640754
 30
0.0
 10
152.4454874324402
 20
4.93192547970989
 30
0.0
 10
152.3658506468205
 20
5.165585067473976
 30
0.0
 10
152.2917269605696
 20
5.325308469673858
 30
0.0
 10
152.2120576546467
 20
5.479810547639436
 30
0.0
  0
SPLINE
  5
2B5
330
1F
100
AcDbEntity
  8
SK3
  6
HIDDEN
370
    18
100
AcDbSpline
210
0.0
220
0.0
230
1.0
 70
     8
 71
     3
 72
    28
 73
    24
 74
     0
 42
0.000000001
 43
0.00000001
 40
0.0
 40
0.0
 40
0.0
 40
0.0
 40
0.0312499999999989
 40
0.0312499999999989
 40
0.0624999999999978
 40
0.0624999999999978
 40
0.1249999999999956
 40
0.1249999999999956
 40
0.1874999999999934
 40
0.1874999999999934
 40
0.2499999999999912
 40
0.2499999999999912
 40
0.312499999999989
 40
0.312499999999989
 40
0.3437499999999877
 40
0.3437499999999877
 40
0.3749999999999866
 40
0.3749999999999866
 40
0.4062499999999853
 40
0.4062499999999853
 40
0.4374999999999841
 40
0.4374999999999841
 40
0.4999999999999859
 40
0.4999999999999859
 40
0.4999999999999859
 40
0.4999999999999859
 10
149.788080035646
 20
5.480077554195781
 30
0.0
 10
149.7478455478027
 20
5.558095120711305
 30
0.0
 10
149.7097207818273
 20
5.635930103685045
 30
0.0
 10
149.6399779025572
 20
5.792132271321835
 30
0.0
 10
149.608026150748
 20
5.871447311756533
 30
0.0
 10
149.529051447109
 20
6.102482441956662
 30
0.0
 10
149.4986501157567
 20
6.250882139050924
 30
0.0
 10
149.5014472092633
 20
6.494044477917426
 30
0.0
 10
149.5349278885101
 20
6.589068164734059
 30
0.0
 10
149.6446386101346
 20
6.707184698535459
 30
0.0
 10
149.7200718790438
 20
6.732711669319105
 30
0.0
 10
149.8800965491194
 20
6.72701408381675
 30
0.0
 10
149.9677814691314
 20
6.696173189550332
 30
0.0
 10
150.0768744800504
 20
6.607071345992003
 30
0.0
 10
150.1099184290176
 20
6.569741475489848
 30
0.0
 10
150.1579384802874
 20
6.476197668028324
 30
0.0
 10
150.1716716191374
 20
6.420808459400599
 30
0.0
 10
150.16993532564
 20
6.295510180730655
 30
0.0
 10
150.1545203677756
 20
6.227083104855246
 30
0.0
 10
150.1043662067223
 20
6.08542306344897
 30
0.0
 10
150.0707710803442
 20
6.013526864147891
 30
0.0
 10
149.9582859053862
 20
5.791786569282531
 30
0.0
 10
149.8718679293816
 20
5.642140408655866
 30
0.0
 10
149.7912235874489
 20
5.486165293959941
 30
0.0
  0
SPLINE
  5
2B6
330
1F
100
AcDbEntity
  8
SK3
  6
HIDDEN
370
    18
100
AcDbSpline
210
0.0
220
0.0
230
1.0
 70
     8
 71
     3
 72
    30
 73
    26
 74
     0
 42
0.000000001
 43
0.00000001
 40
0.0
 40
0.0
 40
0.0
 40
0.0
 40
0.0624999999999936
 40
0.0624999999999936
 40
0.0937499999999926
 40
0.0937499999999926
 40
0.1249999999999915
 40
0.1249999999999915
 40
0.1562499999999904
 40
0.1562499999999904
 40
0.1874999999999894
 40
0.1874999999999894
 40
0.2499999999999913
 40
0.2499999999999913
 40
0.3124999999999932
 40
0.3124999999999932
 40
0.3437499999999925
 40
0.3437499999999925
 40
0.3749999999999917
 40
0.3749999999999917
 40
0.406249999999991
 40
0.406249999999991
 40
0.4374999999999902
 40
0.4374999999999902
 40
0.4999999999999915
 40
0.4999999999999915
 40
0.4999999999999915
 40
0.4999999999999915
 10
149.7880800356459
 20
-5.48007755419572
 30
0.0
 10
149.8687532745686
 20
-5.323646339984099
 30
0.0
 10
149.9548544868259
 20
-5.174481417460499
 30
0.0
 10
150.0680032761587
 20
-4.95239094685691
 30
0.0
 10
150.1019155828733
 20
-4.880382350431856
 30
0.0
 10
150.1530218506838
 20
-4.73848029257247
 30
0.0
 10
150.1690746284695
 20
-4.670156637349731
 30
0.0
 10
150.1723299211094
 20
-4.54403071453053
 30
0.0
 10
150.1594459965075
 20
-4.488559793142548
 30
0.0
 10
150.1124974446336
 20
-4.393908963395785
 30
0.0
 10
150.0799211600134
 20
-4.356163788612337
 30
0.0
 10
149.9702941197856
 20
-4.264917574493476
 30
0.0
 10
149.8832541851738
 20
-4.233876633269669
 30
0.0
 10
149.7221302269494
 20
-4.226913412545542
 30
0.0
 10
149.6469300757271
 20
-4.251536352928929
 30
0.0
 10
149.5634812935865
 20
-4.339850231805304
 30
0.0
 10
149.5411225668284
 20
-4.37737650552567
 30
0.0
 10
149.509859389578
 20
-4.469019187112186
 30
0.0
 10
149.5010559391491
 20
-4.523899708725465
 30
0.0
 10
149.499128635482
 20
-4.645114069376675
 30
0.0
 10
149.5059055417562
 20
-4.713133431770213
 30
0.0
 10
149.5337587262719
 20
-4.856822023723137
 30
0.0
 10
149.554512567382
 20
-4.931925479785564
 30
0.0
 10
149.6341493530776
 20
-5.16558506752383
 30
0.0
 10
149.7082730393795
 20
-5.325308469699712
 30
0.0
 10
149.7879423453533
 20
-5.479810547639456
 30
0.0
  0
SPLINE
  5
2B7
330
1F
100
AcDbEntity
  8
SK3
  6
HIDDEN
370
    18
100
AcDbSpline
210
0.0
220
0.0
230
1.0
 70
     8
 71
     3
 72
    28
 73
    24
 74
     0
 42
0.000000001
 43
0.00000001
 40
0.0
 40
0.0
 40
0.0
 40
0.0
 40
0.0312499999999995
 40
0.0312499999999995
 40
0.0624999999999989
 40
0.0624999999999989
 40
0.1249999999999981
 40
0.1249999999999981
 40
0.1874999999999973
 40
0.1874999999999973
 40
0.2499999999999965
 40
0.2499999999999965
 40
0.3124999999999957
 40
0.3124999999999957
 40
0.3437499999999954
 40
0.3437499999999954
 40
0.3749999999999951
 40
0.3749999999999951
 40
0.4062499999999947
 40
0.4062499999999947
 40
0.4374999999999944
 40
0.4374999999999944
 40
0.4999999999999936
 40
0.4999999999999936
 40
0.4999999999999936
 40
0.4999999999999936
 10
152.2119199643541
 20
-5.480077554195771
 30
0.0
 10
152.2521544521959
 20
-5.558095120711941
 30
0.0
 10
152.2902792181697
 20
-5.635930103686349
 30
0.0
 10
152.3600220974376
 20
-5.792132271324269
 30
0.0
 10
152.3919738492452
 20
-5.871447311759517
 30
0.0
 10
152.4709485528805
 20
-6.102482441960965
 30
0.0
 10
152.5013498842306
 20
-6.250882139055723
 30
0.0
 10
152.4985527907199
 20
-6.494044477922133
 30
0.0
 10
152.4650721114713
 20
-6.589068164738227
 30
0.0
 10
152.3553613898452
 20
-6.707184698537809
 30
0.0
 10
152.2799281209355
 20
-6.732711669320206
 30
0.0
 10
152.1199034508599
 20
-6.727014083815207
 30
0.0
 10
152.0322185308485
 20
-6.696173189547337
 30
0.0
 10
151.9231255199304
 20
-6.607071345987186
 30
0.0
 10
151.890081570964
 20
-6.56974147548451
 30
0.0
 10
151.8420615196959
 20
-6.476197668022209
 30
0.0
 10
151.8283283808463
 20
-6.420808459394268
 30
0.0
 10
151.8300646743461
 20
-6.295510180724328
 30
0.0
 10
151.8454796322121
 20
-6.227083104849159
 30
0.0
 10
151.8956337932681
 20
-6.085423063443738
 30
0.0
 10
151.9292289196469
 20
-6.0135268641432
 30
0.0
 10
152.0417140946084
 20
-5.791786569279711
 30
0.0
 10
152.1281320706152
 20
-5.642140408654495
 30
0.0
 10
152.2087764125511
 20
-5.486165293959893
 30
0.0
  0
SPLINE
  5
2B8
330
1F
100
AcDbEntity
  8
SK3
  6
HIDDEN
370
    18
100
AcDbSpline
210
0.0
220
0.0
230
1.0
 70
     8
 71
     3
 72
    32
 73
    28
 74
     0
 42
0.000000001
 43
0.00000001
 40
0.5000000000000012
 40
0.5000000000000012
 40
0.5000000000000012
 40
0.5000000000000012
 40
0.5625000000000009
 40
0.5625000000000009
 40
0.5937500000000006
 40
0.5937500000000006
 40
0.6250000000000002
 40
0.6250000000000002
 40
0.6562499999999999
 40
0.6562499999999999
 40
0.6874999999999996
 40
0.6874999999999996
 40
0.7187499999999992
 40
0.7187499999999992
 40
0.7499999999999989
 40
0.7499999999999989
 40
0.8124999999999992
 40
0.8124999999999992
 40
0.8749999999999996
 40
0.8749999999999996
 40
0.9062499999999997
 40
0.9062499999999997
 40
0.9374999999999998
 40
0.9374999999999998
 40
0.9687499999999999
 40
0.9687499999999999
 40
1.0
 40
1.0
 40
1.0
 40
1.0
 10
7.456230207610131
 20
6.603500872744091
 30
0.0
 10
7.546439438622002
 20
6.388472904278991
 30
0.0
 10
7.69273357117399
 20
6.200160753913115
 30
0.0
 10
7.972968724529419
 20
5.975240885503178
 30
0.0
 10
8.07528136341637
 20
5.910149460892147
 30
0.0
 10
8.299556825010102
 20
5.794866297623172
 30
0.0
 10
8.420055834779811
 20
5.74586030609553
 30
0.0
 10
8.664330351546527
 20
5.662185824703382
 30
0.0
 10
8.784295625434757
 20
5.628292737524639
 30
0.0
 10
9.008919125679387
 20
5.570531150363156
 30
0.0
 10
9.10983818418437
 20
5.547613548992462
 30
0.0
 10
9.297290894689974
 20
5.509575484140688
 30
0.0
 10
9.383733967009256
 20
5.494680647194842
 30
0.0
 10
9.545098872194638
 20
5.473025017462281
 30
0.0
 10
9.620726716161613
 20
5.4661472124422
 30
0.0
 10
9.83847521104514
 20
5.458291161108505
 30
0.0
 10
9.972459158192185
 20
5.469996351178431
 30
0.0
 10
10.21810753497551
 20
5.541642435610422
 30
0.0
 10
10.33101402996077
 20
5.599482546533204
 30
0.0
 10
10.47999063705327
 20
5.756904002708847
 30
0.0
 10
10.52474319299181
 20
5.820415257606744
 30
0.0
 10
10.59843589743609
 20
5.98009079385068
 30
0.0
 10
10.62620768260131
 20
6.074193417974897
 30
0.0
 10
10.65415209263677
 20
6.297254935075124
 30
0.0
 10
10.65286856709549
 20
6.423118112757622
 30
0.0
 10
10.62120361374108
 20
6.67783103535112
 30
0.0
 10
10.59130436150139
 20
6.806996453454471
 30
0.0
 10
10.55308824864454
 20
6.929514990000767
 30
0.0
  0
SPLINE
  5
2B9
330
1F
100
AcDbEntity
  8
SK3
  6
HIDDEN
370
    18
100
AcDbSpline
210
0.0
220
0.0
230
1.0
 70
     8
 71
     3
 72
    32
 73
    28
 74
     0
 42
0.000000001
 43
0.00000001
 40
0.0
 40
0.0
 40
0.0
 40
0.0
 40
0.0312499999999999
 40
0.0312499999999999
 40
0.0624999999999998
 40
0.0624999999999998
 40
0.1250000000000003
 40
0.1250000000000003
 40
0.1875000000000009
 40
0.1875000000000009
 40
0.218750000000001
 40
0.218750000000001
 40
0.2500000000000012
 40
0.2500000000000012
 40
0.2812500000000013
 40
0.2812500000000013
 40
0.3125000000000014
 40
0.3125000000000014
 40
0.3437500000000016
 40
0.3437500000000016
 40
0.3750000000000016
 40
0.3750000000000016
 40
0.4062500000000016
 40
0.4062500000000016
 40
0.4375000000000016
 40
0.4375000000000016
 40
0.5000000000000012
 40
0.5000000000000012
 40
0.5000000000000012
 40
0.5000000000000012
 10
10.55308824864454
 20
6.929514990000767
 30
0.0
 10
10.51487213578767
 20
7.052033526547056
 30
0.0
 10
10.46983022717768
 20
7.165068548857491
 30
0.0
 10
10.3708190435485
 20
7.37950837624704
 30
0.0
 10
10.31630583330356
 20
7.481437824085522
 30
0.0
 10
10.14470275204582
 20
7.768190729888415
 30
0.0
 10
10.02087178413282
 20
7.934240428990289
 30
0.0
 10
9.751365665135792
 20
8.233024479180576
 30
0.0
 10
9.60624404303484
 20
8.365422277239249
 30
0.0
 10
9.360735956978687
 20
8.52861546014478
 30
0.0
 10
9.273067061356318
 20
8.577594662612327
 30
0.0
 10
9.08248159836958
 20
8.656063206161129
 30
0.0
 10
8.978191466547603
 20
8.685912348115817
 30
0.0
 10
8.752139650361437
 20
8.710487767279382
 30
0.0
 10
8.62934137328375
 20
8.704062676055495
 30
0.0
 10
8.387204787212305
 20
8.64777371623035
 30
0.0
 10
8.266814367632227
 20
8.598127372842226
 30
0.0
 10
8.046561717486494
 20
8.469857513938853
 30
0.0
 10
7.944121662684156
 20
8.390449459625339
 30
0.0
 10
7.760725737691584
 20
8.210798145505509
 30
0.0
 10
7.68037729254964
 20
8.111590926169567
 30
0.0
 10
7.541999915856009
 20
7.895765598520489
 30
0.0
 10
7.486162551754938
 20
7.782337092514573
 30
0.0
 10
7.401526261015659
 20
7.547587644509004
 30
0.0
 10
7.372625165964458
 20
7.42441672714092
 30
0.0
 10
7.332227545734399
 20
7.061065547870962
 30
0.0
 10
7.366020976598275
 20
6.81852884120919
 30
0.0
 10
7.456230207610131
 20
6.603500872744091
 30
0.0
  0
SPLINE
  5
2BA
330
1F
100
AcDbEntity
  8
SK3
  6
HIDDEN
370
    18
100
AcDbSpline
210
0.0
220
0.0
230
1.0
 70
    24
 71
     3
 72
     8
 73
     4
 74
     0
 42
0.000000001
 43
0.00000001
 40
0.0
 40
0.0
 40
0.0
 40
0.0
 40
0.4999999999999986
 40
0.4999999999999986
 40
0.4999999999999986
 40
0.4999999999999986
 10
2.000000000000002
 20
-22.50000000000001
 30
0.0
 10
2.083477230592462
 20
-22.5
 30
0.0
 10
2.165250237669239
 20
-22.5
 30
0.0
 10
2.237167806898797
 20
-22.50000000000001
 30
0.0
  0
SPLINE
  5
2BB
330
1F
100
AcDbEntity
  8
SK3
  6
HIDDEN
370
    18
100
AcDbSpline
210
0.0
220
0.0
230
1.0
 70
    24
 71
     3
 72
     8
 73
     4
 74
     0
 42
0.000000001
 43
0.00000001
 40
0.4999999999999986
 40
0.4999999999999986
 40
0.4999999999999986
 40
0.4999999999999986
 40
0.7499999999999992
 40
0.7499999999999992
 40
0.7499999999999992
 40
0.7499999999999992
 10
2.237167806898796
 20
-22.50000000000001
 30
0.0
 10
2.273126591513547
 20
-22.5
 30
0.0
 10
2.306332390229787
 20
-22.5
 30
0.0
 10
2.332123478181944
 20
-22.50000000000001
 30
0.0
  0
SPLINE
  5
2BC
330
1F
100
AcDbEntity
  8
SK3
  6
HIDDEN
370
    18
100
AcDbSpline
210
0.0
220
0.0
230
1.0
 70
    24
 71
     2
 72
     6
 73
     3
 74
     0
 42
0.000000001
 43
0.00000001
 40
0.7499999999999992
 40
0.7499999999999992
 40
0.7499999999999992
 40
1.0
 40
1.0
 40
1.0
 10
2.332123478181944
 20
-22.50000000000001
 30
0.0
 10
2.357914566134101
 20
-22.50000000000001
 30
0.0
 10
2.375000000000016
 20
-22.5
 30
0.0
  0
SPLINE
  5
2BD
330
1F
100
AcDbEntity
  8
SK3
  6
HIDDEN
370
    18
100
AcDbSpline
210
0.0
220
0.0
230
1.0
 70
    24
 71
     2
 72
     6
 73
     3
 74
     0
 42
0.000000001
 43
0.00000001
 40
0.0
 40
0.0
 40
0.0
 40
0.25
 40
0.25
 40
0.25
 10
2.375000000000016
 20
22.49999999999996
 30
0.0
 10
2.357424479332932
 20
22.49999999999998
 30
0.0
 10
2.331652105107246
 20
22.5
 30
0.0
  0
SPLINE
  5
2BE
330
1F
100
AcDbEntity
  8
SK3
  6
HIDDEN
370
    18
100
AcDbSpline
210
0.0
220
0.0
230
1.0
 70
    24
 71
     3
 72
     8
 73
     4
 74
     0
 42
0.000000001
 43
0.00000001
 40
0.25
 40
0.25
 40
0.25
 40
0.25
 40
0.5
 40
0.5
 40
0.5
 40
0.5
 10
2.331652105107246
 20
22.5
 30
0.0
 10
2.305879730881561
 20
22.49999999999999
 30
0.0
 10
2.272790772310324
 20
22.5
 30
0.0
 10
2.236965951746453
 20
22.5
 30
0.0
  0
SPLINE
  5
2BF
330
1F
100
AcDbEntity
  8
SK3
  6
HIDDEN
370
    18
100
AcDbSpline
210
0.0
220
0.0
230
1.0
 70
    24
 71
     3
 72
     8
 73
     4
 74
     0
 42
0.000000001
 43
0.00000001
 40
0.5
 40
0.5
 40
0.5
 40
0.5
 40
1.0
 40
1.0
 40
1.0
 40
1.0
 10
2.236965951746481
 20
22.5
 30
0.0
 10
2.165316310618754
 20
22.5
 30
0.0
 10
2.083397657057354
 20
22.5
 30
0.0
 10
2.000000000000029
 20
22.50000000000001
 30
0.0
  0
SPLINE
  5
2C0
330
1F
100
AcDbEntity
  8
1
  6
HIDDEN
370
    18
100
AcDbSpline
210
0.0
220
0.0
230
1.0
 70
     8
 71
     3
 72
    10
 73
     6
 74
     0
 42
0.000000001
 43
0.00000001
 40
0.0
 40
0.0
 40
0.0
 40
0.0
 40
0.5
 40
0.5
 40
1.0
 40
1.0
 40
1.0
 40
1.0
 10
14.47500000000007
 20
-25.23333063628328
 30
0.0
 10
14.37465202603049
 20
-25.23333063628325
 30
0.0
 10
14.27532760647722
 20
-25.27825156892351
 30
0.0
 10
14.13822249352419
 20
-25.42555694812185
 30
0.0
 10
14.09999999999997
 20
-25.52587758576918
 30
0.0
 10
14.1
 20
-25.6268726145037
 30
0.0
  0
SPLINE
  5
2C1
330
1F
100
AcDbEntity
  8
1
  6
HIDDEN
370
    18
100
AcDbSpline
210
0.0
220
0.0
230
1.0
 70
     8
 71
     3
 72
     8
 73
     4
 74
     0
 42
0.000000001
 43
0.00000001
 40
0.0
 40
0.0
 40
0.0
 40
0.0
 40
1.0
 40
1.0
 40
1.0
 40
1.0
 10
14.1
 20
-25.87334462303036
 30
0.0
 10
13.35492445838161
 20
-27.22554145382942
 30
0.0
 10
12.60589504630893
 20
-28.57561503933746
 30
0.0
 10
11.85425903357673
 20
-29.92428064915762
 30
0.0
  0
SPLINE
  5
2C2
330
1F
100
AcDbEntity
  8
SK3
  6
HIDDEN
370
    18
100
AcDbSpline
210
0.0
220
0.0
230
1.0
 70
     8
 71
     3
 72
    33
 73
    29
 74
     0
 42
0.000000001
 43
0.00000001
 40
0.0
 40
0.0
 40
0.0
 40
0.0
 40
0.031423701176736
 40
0.0627338405838476
 40
0.0877464954133451
 40
0.1252832386178629
 40
0.1539645866459634
 40
0.1970563067230895
 40
0.250525517784736
 40
0.2789594549292284
 40
0.3216329583856272
 40
0.3752682204637769
 40
0.4040082420405275
 40
0.4468773540298254
 40
0.5002148082814606
 40
0.5286826550732904
 40
0.5715495672142574
 40
0.6253905027017036
 40
0.6539239774352693
 40
0.6965997818910203
 40
0.7499747437940912
 40
0.77859956353072
 40
0.8217149157189365
 40
0.8751793187678286
 40
0.9000505647746762
 40
0.9373747247573435
 40
0.9685907020195162
 40
1.0
 40
1.0
 40
1.0
 40
1.0
 10
2.375000000000017
 20
-29.53435755317954
 30
0.0
 10
2.375084653143276
 20
-29.54065054665652
 30
0.0
 10
2.375253653502691
 20
-29.55321379143023
 30
0.0
 10
2.376523288498759
 20
-29.57074878351025
 30
0.0
 10
2.378604433210142
 20
-29.58943061230193
 30
0.0
 10
2.381481695767838
 20
-29.60748253443749
 30
0.0
 10
2.385982972786819
 20
-29.62890925450896
 30
0.0
 10
2.392449659118474
 20
-29.65315822272132
 30
0.0
 10
2.400638163765721
 20
-29.6768423269453
 30
0.0
 10
2.410229138285009
 20
-29.69987740641962
 30
0.0
 10
2.421063479730285
 20
-29.72240392143895
 30
0.0
 10
2.43355497492323
 20
-29.74414232458069
 30
0.0
 10
2.447402504695593
 20
-29.76506024365917
 30
0.0
 10
2.462353574794601
 20
-29.78514459677452
 30
0.0
 10
2.478736246500302
 20
-29.80402570440028
 30
0.0
 10
2.496277991375001
 20
-29.82179847992355
 30
0.0
 10
2.514873650347999
 20
-29.83863468290668
 30
0.0
 10
2.534730261353522
 20
-29.85401037825959
 30
0.0
 10
2.555504834926739
 20
-29.8680033542855
 30
0.0
 10
2.576977045940621
 20
-29.88074321862894
 30
0.0
 10
2.599407555219063
 20
-29.89178500632615
 30
0.0
 10
2.622583009878068
 20
-29.90132189816605
 30
0.0
 10
2.646309265266211
 20
-29.90948954562268
 30
0.0
 10
2.669897011154582
 20
-29.91555645697575
 30
0.0
 10
2.692658387484031
 20
-29.91986541147195
 30
0.0
 10
2.711206195171928
 20
-29.92237236762036
 30
0.0
 10
2.731167694149245
 20
-29.92399644689238
 30
0.0
 10
2.743709659268373
 20
-29.9241857203104
 30
0.0
 10
2.750000000000003
 20
-29.92428064915763
 30
0.0
  0
SPLINE
  5
2C3
330
1F
100
AcDbEntity
  8
SK3
  6
HIDDEN
370
    18
100
AcDbSpline
210
0.0
220
0.0
230
1.0
 70
     8
 71
     3
 72
    33
 73
    29
 74
     0
 42
0.000000001
 43
0.00000001
 40
0.0
 40
0.0
 40
0.0
 40
0.0
 40
0.0252074824815502
 40
0.0503579512879936
 40
0.1006534270886772
 40
0.1499358844483621
 40
0.1865967979878393
 40
0.2121849653061248
 40
0.2505508094801742
 40
0.2790356761955122
 40
0.3220357786263506
 40
0.3758118528652132
 40
0.4042895816645317
 40
0.4469018084879653
 40
0.5002394139146283
 40
0.5288518672268662
 40
0.5719843088306625
 40
0.6254852111034898
 40
0.6539060878876481
 40
0.6965245109396124
 40
0.7500237094317301
 40
0.7787622199762761
 40
0.8217598195003203
 40
0.8751426117198166
 40
0.9000107283364241
 40
0.937354161406308
 40
0.9685886636354971
 40
1.0
 40
1.0
 40
1.0
 40
1.0
 10
2.750000000000095
 20
29.92428064915772
 30
0.0
 10
2.744951890107589
 20
29.92421926073917
 30
0.0
 10
2.734867088015647
 20
29.92409662274888
 30
0.0
 10
2.714746689273789
 20
29.92278570930052
 30
0.0
 10
2.689935974604272
 20
29.9196725940638
 30
0.0
 10
2.663214788992516
 20
29.91401719689722
 30
0.0
 10
2.641734385249029
 20
29.90785358760454
 30
0.0
 10
2.622673664278633
 20
29.90130971621329
 30
0.0
 10
2.605493847259508
 20
29.89438141143326
 30
0.0
 10
2.585566331205167
 20
29.88505035427631
 30
0.0
 10
2.563490717180465
 20
29.87309890632956
 30
0.0
 10
2.542405605456484
 20
29.85945099869896
 30
0.0
 10
2.522353516277993
 20
29.84450295728992
 30
0.0
 10
2.503235577485548
 20
29.82849463014731
 30
0.0
 10
2.485360680176098
 20
29.81105096924295
 30
0.0
 10
2.468590756819638
 20
29.79243754200219
 30
0.0
 10
2.452859611815944
 20
29.77288037262743
 30
0.0
 10
2.438649216258051
 20
29.75222303359588
 30
0.0
 10
2.425829245839795
 20
29.7308246518454
 30
0.0
 10
2.414183803254975
 20
29.70875259066342
 30
0.0
 10
2.404145436199071
 20
29.68582123764258
 30
0.0
 10
2.395530154489565
 20
29.66226321181001
 30
0.0
 10
2.388194882538343
 20
29.63828839333731
 30
0.0
 10
2.382776911486028
 20
29.61459176710769
 30
0.0
 10
2.3789326148647
 20
29.59176172577706
 30
0.0
 10
2.376698235289839
 20
29.57317439262061
 30
0.0
 10
2.375252733072861
 20
29.55319389468336
 30
0.0
 10
2.375084402742977
 20
29.54064813823184
 30
0.0
 10
2.375000000000016
 20
29.53435755317955
 30
0.0
  0
SPLINE
  5
2C4
330
1F
100
AcDbEntity
  8
1
  6
HIDDEN
370
    18
100
AcDbSpline
210
0.0
220
0.0
230
1.0
 70
     8
 71
     3
 72
    10
 73
     6
 74
     0
 42
0.000000001
 43
0.00000001
 40
0.0
 40
0.0
 40
0.0
 40
0.0
 40
0.5
 40
0.5
 40
1.0
 40
1.0
 40
1.0
 40
1.0
 10
14.47499999999998
 20
25.23333063628344
 30
0.0
 10
14.37490757871314
 20
25.23333063628345
 30
0.0
 10
14.27461163852707
 20
25.27882845511642
 30
0.0
 10
14.13824980540784
 20
25.42572092542743
 30
0.0
 10
14.1
 20
25.52667526569739
 30
0.0
 10
14.1
 20
25.6268726145037
 30
0.0
  0
SPLINE
  5
2C5
330
1F
100
AcDbEntity
  8
1
  6
HIDDEN
370
    18
100
AcDbSpline
210
0.0
220
0.0
230
1.0
 70
     8
 71
     3
 72
     8
 73
     4
 74
     0
 42
0.000000001
 43
0.00000001
 40
0.0
 40
0.0
 40
0.0
 40
0.0
 40
1.0
 40
1.0
 40
1.0
 40
1.0
 10
14.1
 20
25.87334462303037
 30
0.0
 10
13.35489499866904
 20
27.22559491864978
 30
0.0
 10
12.60586652431965
 20
28.57566621653683
 30
0.0
 10
11.8542590335767
 20
29.92428064915762
 30
0.0
  0
SPLINE
  5
2C6
330
1F
100
AcDbEntity
  8
SK3
  6
HIDDEN
370
    18
100
AcDbSpline
210
0.0
220
0.0
230
1.0
 70
     8
 71
     3
 72
    38
 73
    34
 74
     0
 42
0.000000001
 43
0.00000001
 40
0.4999999999999948
 40
0.4999999999999948
 40
0.4999999999999948
 40
0.4999999999999948
 40
0.5312499999999951
 40
0.5312499999999951
 40
0.5624999999999954
 40
0.5624999999999954
 40
0.5937499999999958
 40
0.5937499999999958
 40
0.6249999999999961
 40
0.6249999999999961
 40
0.6562499999999964
 40
0.6562499999999964
 40
0.6874999999999968
 40
0.6874999999999968
 40
0.7187499999999971
 40
0.7187499999999971
 40
0.7499999999999973
 40
0.7499999999999973
 40
0.7812499999999977
 40
0.7812499999999977
 40
0.812499999999998
 40
0.812499999999998
 40
0.8437499999999983
 40
0.8437499999999983
 40
0.8749999999999987
 40
0.8749999999999987
 40
0.906249999999999
 40
0.906249999999999
 40
0.9374999999999993
 40
0.9374999999999993
 40
0.9687499999999997
 40
0.9687499999999997
 40
1.0
 40
1.0
 40
1.0
 40
1.0
 10
8.389615677742809
 20
9.648043876300209
 30
0.0
 10
8.464552773645398
 20
9.642290323183838
 30
0.0
 10
8.543233548381906
 20
9.63248979225611
 30
0.0
 10
8.713916410064623
 20
9.604684896272135
 30
0.0
 10
8.805663761173685
 20
9.586736710228202
 30
0.0
 10
9.006172024809315
 20
9.541930687009224
 30
0.0
 10
9.116713426886108
 20
9.51482782514091
 30
0.0
 10
9.351563167496677
 20
9.448500742080999
 30
0.0
 10
9.476232506091447
 20
9.408847517657817
 30
0.0
 10
9.716528990621837
 20
9.313704761455329
 30
0.0
 10
9.831917245784776
 20
9.258167143694102
 30
0.0
 10
10.04289827390622
 20
9.129774075081448
 30
0.0
 10
10.14022771182216
 20
9.055890093204379
 30
0.0
 10
10.31063412821963
 20
8.891747434195144
 30
0.0
 10
10.38562569486491
 20
8.799603579416928
 30
0.0
 10
10.50796370028681
 20
8.602124698358491
 30
0.0
 10
10.55606402350247
 20
8.496553043536602
 30
0.0
 10
10.62492158793414
 20
8.269772982873423
 30
0.0
 10
10.64435392420918
 20
8.152485473419256
 30
0.0
 10
10.65353346741674
 20
7.912577473763012
 30
0.0
 10
10.64282065621594
 20
7.788273550261564
 30
0.0
 10
10.59223103275128
 20
7.546559330265344
 30
0.0
 10
10.55218811311154
 20
7.426685205863912
 30
0.0
 10
10.44469162253342
 20
7.196429313423208
 30
0.0
 10
10.37851141132157
 20
7.088070769969882
 30
0.0
 10
10.22144238602042
 20
6.885639147431649
 30
0.0
 10
10.13084925405602
 20
6.792541239081927
 30
0.0
 10
9.932439369296443
 20
6.632325689024117
 30
0.0
 10
9.821730225994251
 20
6.563056326804102
 30
0.0
 10
9.588348489887919
 20
6.460593275528351
 30
0.0
 10
9.463550429519922
 20
6.427351525227499
 30
0.0
 10
9.22342444545908
 20
6.405368732000594
 30
0.0
 10
9.107139849438935
 20
6.415906456177456
 30
0.0
 10
9.000000000000007
 20
6.441564851867539
 30
0.0
  0
SPLINE
  5
2C7
330
1F
100
AcDbEntity
  8
SK3
  6
HIDDEN
370
    18
100
AcDbSpline
210
0.0
220
0.0
230
1.0
 70
     8
 71
     3
 72
    28
 73
    24
 74
     0
 42
0.000000001
 43
0.00000001
 40
0.0
 40
0.0
 40
0.0
 40
0.0
 40
0.0312499999999995
 40
0.0312499999999995
 40
0.0624999999999991
 40
0.0624999999999991
 40
0.1249999999999981
 40
0.1249999999999981
 40
0.1874999999999971
 40
0.1874999999999971
 40
0.2499999999999963
 40
0.2499999999999963
 40
0.2812499999999961
 40
0.2812499999999961
 40
0.3124999999999958
 40
0.3124999999999958
 40
0.3437499999999956
 40
0.3437499999999956
 40
0.3749999999999953
 40
0.3749999999999953
 40
0.4374999999999951
 40
0.4374999999999951
 40
0.4999999999999948
 40
0.4999999999999948
 40
0.4999999999999948
 40
0.4999999999999948
 10
9.000000000000007
 20
6.441564851867532
 30
0.0
 10
8.892860150561066
 20
6.467223247557621
 30
0.0
 10
8.798385236899255
 20
6.505828312401062
 30
0.0
 10
8.621939216902907
 20
6.597461104232989
 30
0.0
 10
8.540182184178791
 20
6.650774040005414
 30
0.0
 10
8.305768068220893
 20
6.827875468245759
 30
0.0
 10
8.1665349692093
 20
6.966053998769262
 30
0.0
 10
7.907638346472123
 20
7.276361173580992
 30
0.0
 10
7.787080491755749
 20
7.44963188704268
 30
0.0
 10
7.567189363434201
 20
7.851667093586832
 30
0.0
 10
7.469088099480686
 20
8.077596152447269
 30
0.0
 10
7.376384877224584
 20
8.454127479057362
 30
0.0
 10
7.355974983827146
 20
8.58460859122339
 30
0.0
 10
7.346322109364658
 20
8.83330870332634
 30
0.0
 10
7.357377282906683
 20
8.949444708488866
 30
0.0
 10
7.404737655688956
 20
9.147585243818
 30
0.0
 10
7.440626644395682
 20
9.2305857256866
 30
0.0
 10
7.524523969418023
 20
9.36620277982831
 30
0.0
 10
7.573578154217775
 20
9.420870493341434
 30
0.0
 10
7.730197706592848
 20
9.552664280820384
 30
0.0
 10
7.848951803330853
 20
9.601580199829248
 30
0.0
 10
8.104485198360074
 20
9.65535848681022
 30
0.0
 10
8.239741485937632
 20
9.659550982532947
 30
0.0
 10
8.389615677742809
 20
9.648043876300209
 30
0.0
  0
SPLINE
  5
2C8
330
1F
100
AcDbEntity
  8
SK3
  6
HIDDEN
370
    18
100
AcDbSpline
210
0.0
220
0.0
230
1.0
 70
     8
 71
     3
 72
    32
 73
    28
 74
     0
 42
0.000000001
 43
0.00000001
 40
0.4999999999999981
 40
0.4999999999999981
 40
0.4999999999999981
 40
0.4999999999999981
 40
0.5624999999999982
 40
0.5624999999999982
 40
0.6249999999999982
 40
0.6249999999999982
 40
0.6562499999999984
 40
0.6562499999999984
 40
0.6874999999999987
 40
0.6874999999999987
 40
0.718749999999999
 40
0.718749999999999
 40
0.7499999999999992
 40
0.7499999999999992
 40
0.7812499999999994
 40
0.7812499999999994
 40
0.8124999999999997
 40
0.8124999999999997
 40
0.84375
 40
0.84375
 40
0.8750000000000002
 40
0.8750000000000002
 40
0.9062500000000002
 40
0.9062500000000002
 40
0.9375000000000001
 40
0.9375000000000001
 40
1.0
 40
1.0
 40
1.0
 40
1.0
 10
9.000718329482584
 20
12.62267837332125
 30
0.0
 10
8.739648814239484
 20
12.62276444349868
 30
0.0
 10
8.47648345730885
 20
12.57477393540838
 30
0.0
 10
7.99497829084797
 20
12.39167659747988
 30
0.0
 10
7.771727080162383
 20
12.25463498526464
 30
0.0
 10
7.494870707924956
 20
11.99923308374856
 30
0.0
 10
7.410357180072463
 20
11.90410657315361
 30
0.0
 10
7.264939882707836
 20
11.70246138580328
 30
0.0
 10
7.203428601889953
 20
11.59578157585553
 30
0.0
 10
7.102898578439889
 20
11.37050962949027
 30
0.0
 10
7.064253547477334
 20
11.25183938944579
 30
0.0
 10
7.013197171924252
 20
11.01268002118998
 30
0.0
 10
7.000132287801025
 20
10.89093226976172
 30
0.0
 10
6.999869691689073
 20
10.64290336960509
 30
0.0
 10
7.012746687881377
 20
10.52008121488645
 30
0.0
 10
7.063332748869416
 20
10.27876937369137
 30
0.0
 10
7.101609222188499
 20
10.15874668683338
 30
0.0
 10
7.201880148290179
 20
9.928837609471698
 30
0.0
 10
7.263236224076097
 20
9.819648132126567
 30
0.0
 10
7.408082691640713
 20
9.612764428771126
 30
0.0
 10
7.492460248430755
 20
9.51452338638551
 30
0.0
 10
7.676867509218615
 20
9.3381228325993
 30
0.0
 10
7.777440543983174
 20
9.258877136061292
 30
0.0
 10
7.995666701594962
 20
9.118800814817696
 30
0.0
 10
8.112221508822625
 20
9.058979714885783
 30
0.0
 10
8.47307079587173
 20
8.915052493220582
 30
0.0
 10
8.73566933932575
 20
8.863908008588114
 30
0.0
 10
8.999999999999995
 20
8.86390800858812
 30
0.0
  0
SPLINE
  5
2C9
330
1F
100
AcDbEntity
  8
SK3
  6
HIDDEN
370
    18
100
AcDbSpline
210
0.0
220
0.0
230
1.0
 70
     8
 71
     3
 72
    34
 73
    30
 74
     0
 42
0.000000001
 43
0.00000001
 40
0.0
 40
0.0
 40
0.0
 40
0.0
 40
0.0312499999999999
 40
0.0312499999999999
 40
0.0624999999999998
 40
0.0624999999999998
 40
0.0937499999999998
 40
0.0937499999999998
 40
0.1249999999999997
 40
0.1249999999999997
 40
0.1874999999999997
 40
0.1874999999999997
 40
0.2499999999999997
 40
0.2499999999999997
 40
0.2812499999999994
 40
0.2812499999999994
 40
0.3124999999999993
 40
0.3124999999999993
 40
0.3437499999999991
 40
0.3437499999999991
 40
0.3749999999999989
 40
0.3749999999999989
 40
0.4062499999999987
 40
0.4062499999999987
 40
0.4374999999999985
 40
0.4374999999999985
 40
0.4687499999999983
 40
0.4687499999999983
 40
0.4999999999999981
 40
0.4999999999999981
 40
0.4999999999999981
 40
0.4999999999999981
 10
8.999999999999995
 20
8.863908008588114
 30
0.0
 10
9.13216533033713
 20
8.863908008588114
 30
0.0
 10
9.262115418905758
 20
8.876382676198467
 30
0.0
 10
9.517768349322733
 20
8.925223409355414
 30
0.0
 10
9.64479783001103
 20
8.96218390125137
 30
0.0
 10
9.88698576345795
 20
9.058546396376453
 30
0.0
 10
10.00184716466068
 20
9.117470661985726
 30
0.0
 10
10.21922725879588
 20
9.256479604264824
 30
0.0
 10
10.32212473398293
 20
9.337281856759132
 30
0.0
 10
10.5987916825741
 20
9.601569203508028
 30
0.0
 10
10.74778999337624
 20
9.814034511808158
 30
0.0
 10
10.94730137021326
 20
10.27029981750493
 30
0.0
 10
10.9998595277659
 20
10.51883671805041
 30
0.0
 10
11.00006980318367
 20
10.88663929852606
 30
0.0
 10
10.98708400981417
 20
11.01088544527237
 30
0.0
 10
10.93605682005547
 20
11.25085752478767
 30
0.0
 10
10.89830158413792
 20
11.36722815749031
 30
0.0
 10
10.79816310838259
 20
11.59279065516355
 30
0.0
 10
10.73555737259532
 20
11.70160527400208
 30
0.0
 10
10.59082396794621
 20
11.90263338094983
 30
0.0
 10
10.50819657307253
 20
11.99614878433027
 30
0.0
 10
10.32159147462158
 20
12.1687971582542
 30
0.0
 10
10.22047653184147
 20
12.24524233717
 30
0.0
 10
10.00394386320708
 20
12.3787682476601
 30
0.0
 10
9.887073702976895
 20
12.43640943644745
 30
0.0
 10
9.64477609833503
 20
12.52878024232892
 30
0.0
 10
9.520112184998943
 20
12.56354863243926
 30
0.0
 10
9.263825145385526
 20
12.61058744619421
 30
0.0
 10
9.131253087104135
 20
12.62263533823253
 30
0.0
 10
9.000718329482584
 20
12.62267837332125
 30
0.0
  0
INSERT
  5
2CA
330
1F
100
AcDbEntity
  8
81
100
AcDbBlockReference
  2
Block11
 10
68.3735173495
 20
-130.2676275275
 30
0.0
  0
INSERT
  5
2CB
330
1F
100
AcDbEntity
  8
80
100
AcDbBlockReference
  2
Block12
 10
-61.7273641656
 20
-130.3356800267
 30
0.0
  0
DIMENSION
  5
2CC
330
1F
100
AcDbEntity
  8
SK2
100
AcDbDimension
  2
_D
 10
-71.0590692746
 20
8.0
 30
0.0
 11
-71.0590692746
 21
0.402620702
 31
0.0
 70
   160
  1
M<>
 71
     2
 42
-1.0
  3
SLDDIMSTYLE0
100
AcDbAlignedDimension
 13
-55.6881197846
 23
-8.0
 33
0.0
 14
-55.6881197846
 24
8.0
 34
0.0
 50
90.0
100
AcDbRotatedDimension
  0
DIMENSION
  5
2D9
330
1F
100
AcDbEntity
  8
SK2
100
AcDbDimension
  2
_D_1
 10
-81.0313303732
 20
-22.225
 30
0.0
 11
-81.0313303732
 21
0.402620702
 31
0.0
 70
   160
  1
%%c<>
 71
     2
 42
-1.0
  3
SLDDIMSTYLE0
100
AcDbAlignedDimension
 13
0.0
 23
22.225
 33
0.0
 14
0.0
 24
-22.225
 34
0.0
 50
90.0
100
AcDbRotatedDimension
  0
DIMENSION
  5
2E4
330
1F
100
AcDbEntity
  8
SK2
100
AcDbDimension
  2
_D_2
 10
-91.8463517531
 20
-31.474895054
 30
0.0
 11
-91.8463517531
 21
0.402620702
 31
0.0
 70
   160
  1
%%c<>
 71
     2
 42
-1.0
  3
SLDDIMSTYLE1
100
AcDbAlignedDimension
 13
23.8749115524
 23
31.474895054
 33
0.0
 14
23.8749115472
 24
-31.474895054
 34
0.0
 50
90.0
100
AcDbRotatedDimension
  0
DIMENSION
  5
2F0
330
1F
100
AcDbEntity
  8
SK2
100
AcDbDimension
  2
_D_3
 10
27.0
 20
39.797220155
 30
0.0
 11
13.6014130298
 21
39.797220155
 31
0.0
 70
   160
  1
<>
 71
     2
 42
-1.0
  3
SLDDIMSTYLE0
100
AcDbAlignedDimension
 13
0.0
 23
22.225
 33
0.0
 14
27.0
 24
30.724895054
 34
0.0
100
AcDbRotatedDimension
  0
DIMENSION
  5
2FA
330
1F
100
AcDbEntity
  8
SK2
100
AcDbDimension
  2
_D_4
 10
160.0
 20
39.797220155
 30
0.0
 11
88.7534260703
 21
39.797220155
 31
0.0
 70
   160
  1
<>
 71
     2
 42
-1.0
  3
SLDDIMSTYLE0
100
AcDbAlignedDimension
 13
27.0
 23
30.724895054
 33
0.0
 14
160.0
 24
23.5
 34
0.0
100
AcDbRotatedDimension
  0
DIMENSION
  5
304
330
1F
100
AcDbEntity
  8
SK2
100
AcDbDimension
  2
_D_5
 10
179.0
 20
39.797220155
 30
0.0
 11
169.2867754139
 21
39.797220155
 31
0.0
 70
   160
  1
<>
 71
     2
 42
-1.0
  3
SLDDIMSTYLE0
100
AcDbAlignedDimension
 13
160.0
 23
23.5
 33
0.0
 14
179.0
 24
10.4710190579
 34
0.0
100
AcDbRotatedDimension
  0
DIMENSION
  5
30E
330
1F
100
AcDbEntity
  8
2
100
AcDbDimension
  2
_D_6
 10
160.0
 20
49.7942080905
 30
0.0
 11
80.6080197868
 21
49.7942080905
 31
0.0
 70
   160
  1
<>
 71
     2
 42
-1.0
  3
SLDDIMSTYLE0
100
AcDbAlignedDimension
 13
0.0
 23
22.225
 33
0.0
 14
160.0
 24
23.5
 34
0.0
100
AcDbRotatedDimension
  0
DIMENSION
  5
318
330
1F
100
AcDbEntity
  8
SK2
100
AcDbDimension
  2
_D_7
 10
211.4855835804
 20
-24.0
 30
0.0
 11
211.4855835804
 21
-0.3682526559
 31
0.0
 70
   160
  1
%%c<>
 71
     2
 42
-1.0
  3
SLDDIMSTYLE0
100
AcDbAlignedDimension
 13
159.5
 23
24.0
 33
0.0
 14
159.5
 24
-24.0
 34
0.0
 50
90.0
100
AcDbRotatedDimension
  0
DIMENSION
  5
323
330
1F
100
AcDbEntity
  8
SK2
100
AcDbDimension
  2
_D_8
 10
201.6458157179
 20
-11.0
 30
0.0
 11
201.6458157179
 21
-0.3682526559
 31
0.0
 70
   160
  1
%%c<>
 71
     2
 42
-1.0
  3
SLDDIMSTYLE0
100
AcDbAlignedDimension
 13
176.0
 23
11.0
 33
0.0
 14
176.0
 24
-11.0
 34
0.0
 50
90.0
100
AcDbRotatedDimension
  0
DIMENSION
  5
32E
330
1F
100
AcDbEntity
  8
SK2
100
AcDbDimension
  2
_D_9
 10
-65.4
 20
-40.8863975061
 30
0.0
 11
54.1457551134
 21
-40.8863975061
 31
0.0
 70
   160
  1
<>
 71
     2
 42
-1.0
  3
SLDDIMSTYLE0
100
AcDbAlignedDimension
 13
179.0
 23
-6.7300775542
 33
0.0
 14
-65.4
 24
-11.8220275702
 34
0.0
 50
0.0
100
AcDbRotatedDimension
  0
MTEXT
  5
338
330
1F
100
AcDbEntity
  8
SK6
 62
     5
100
AcDbMText
 10
-64.2351026645
 20
-44.5228880862
 30
0.0
 40
3.5
 41
0.0
 71
     1
 72
     1
  1
A2B05-40 22 160
  7
SLDTEXTSTYLE0
 73
     1
 44
1.0
  0
MTEXT
  5
339
330
1F
100
AcDbEntity
  8
SK6
 62
     5
100
AcDbMText
 10
-32.7610398287
 20
43.2832628217
 30
0.0
 40
3.5
 41
0.0
 71
     1
 72
     1
  1
MAS-403 BT40
  7
SLDTEXTSTYLE0
 73
     1
 44
1.0
  0
ENDSEC
  0
SECTION
  2
OBJECTS
  0
DICTIONARY
  5
C
330
0
100
AcDbDictionary
281
     1
  3
ACAD_GROUP
350
D
  3
ACAD_LAYOUT
350
1A
  3
ACAD_MLINESTYLE
350
17
  3
ACAD_PLOTSETTINGS
350
19
  3
ACAD_PLOTSTYLENAME
350
E
  3
ACAD_SCALELIST
350
47
  0
DICTIONARY
  5
D
102
{ACAD_REACTORS
330
C
102
}
330
C
100
AcDbDictionary
281
     1
  0
DICTIONARY
  5
1A
102
{ACAD_REACTORS
330
C
102
}
330
C
100
AcDbDictionary
281
     1
  3
Layout1
350
1E
  3
Layout2
350
26
  3
Model
350
22
  0
DICTIONARY
  5
17
102
{ACAD_REACTORS
330
C
102
}
330
C
100
AcDbDictionary
281
     1
  3
Standard
350
18
  0
DICTIONARY
  5
19
102
{ACAD_REACTORS
330
C
102
}
330
C
100
AcDbDictionary
281
     1
  0
ACDBDICTIONARYWDFLT
  5
E
102
{ACAD_REACTORS
330
C
102
}
330
C
100
AcDbDictionary
281
     1
  3
Normal
350
F
100
AcDbDictionaryWithDefault
340
F
  0
DICTIONARY
  5
47
102
{ACAD_REACTORS
330
C
102
}
330
C
100
AcDbDictionary
281
     1
  3
A0
350
48
  3
A1
350
49
  3
A2
350
4A
  3
A3
350
4B
  3
A4
350
4C
  3
A5
350
4D
  3
A6
350
4E
  3
A7
350
4F
  3
A8
350
50
  3
A9
350
51
  3
B0
350
52
  3
B1
350
53
  3
B2
350
54
  3
B3
350
55
  3
B4
350
56
  3
B5
350
57
  3
B6
350
58
  3
B7
350
59
  3
B8
350
5A
  3
B9
350
5B
  3
C0
350
5C
  3
C1
350
5D
  3
C2
350
5E
  3
C3
350
5F
  3
C4
350
60
  3
C5
350
61
  3
C6
350
62
  3
C7
350
63
  3
C8
350
64
  3
C9
350
65
  3
D0
350
66
  3
D1
350
67
  3
D2
350
68
  0
LAYOUT
  5
1E
102
{ACAD_REACTORS
330
1A
102
}
330
1A
100
AcDbPlotSettings
  1

  2
none_device
  4

  6

 40
0.0
 41
0.0
 42
0.0
 43
0.0
 44
0.0
 45
0.0
 46
0.0
 47
0.0
 48
0.0
 49
0.0
140
0.0
141
0.0
142
1.0
143
1.0
 70
   688
 72
     1
 73
     0
 74
     5
  7

 75
    16
147
1.0
148
0.0
149
0.0
100
AcDbLayout
  1
Layout1
 70
     1
 71
     1
 10
0.0
 20
0.0
 11
420.0
 21
297.0
 12
0.0
 22
0.0
 32
0.0
 14
1.0000000000E+20
 24
1.0000000000E+20
 34
1.0000000000E+20
 15
-1.0000000000E+20
 25
-1.0000000000E+20
 35
-1.0000000000E+20
146
0.0
 13
0.0
 23
0.0
 33
0.0
 16
1.0
 26
0.0
 36
0.0
 17
0.0
 27
1.0
 37
0.0
 76
     0
330
1B
  0
LAYOUT
  5
26
102
{ACAD_REACTORS
330
1A
102
}
330
1A
100
AcDbPlotSettings
  1

  2
none_device
  4

  6

 40
0.0
 41
0.0
 42
0.0
 43
0.0
 44
0.0
 45
0.0
 46
0.0
 47
0.0
 48
0.0
 49
0.0
140
0.0
141
0.0
142
1.0
143
1.0
 70
   688
 72
     1
 73
     0
 74
     5
  7

 75
    16
147
1.0
148
0.0
149
0.0
100
AcDbLayout
  1
Layout2
 70
     1
 71
     2
 10
0.0
 20
0.0
 11
0.0
 21
0.0
 12
0.0
 22
0.0
 32
0.0
 14
0.0
 24
0.0
 34
0.0
 15
0.0
 25
0.0
 35
0.0
146
0.0
 13
0.0
 23
0.0
 33
0.0
 16
1.0
 26
0.0
 36
0.0
 17
0.0
 27
1.0
 37
0.0
 76
     0
330
23
  0
LAYOUT
  5
22
102
{ACAD_REACTORS
330
1A
102
}
330
1A
100
AcDbPlotSettings
  1

  2
none_device
  4
Letter_(8.50_x_11.00_Inches)
  6

 40
6.35
 41
6.35
 42
6.35000508
 43
6.35000508
 44
215.9
 45
279.4
 46
0.0
 47
0.0
 48
0.0
 49
0.0
140
0.0
141
0.0
142
1.0
143
1.0
 70
  1712
 72
     1
 73
     0
 74
     0
  7

 75
     0
147
1.0
148
0.0
149
0.0
100
AcDbLayout
  1
Model
 70
     1
 71
     0
 10
0.0
 20
0.0
 11
297.0
 21
210.0
 12
0.0
 22
0.0
 32
0.0
 14
0.0
 24
0.0
 34
0.0
 15
297.0
 25
210.0
 35
0.0
146
0.0
 13
0.0
 23
0.0
 33
0.0
 16
1.0
 26
0.0
 36
0.0
 17
0.0
 27
1.0
 37
0.0
 76
     0
330
1F
331
29
  0
MLINESTYLE
  5
18
102
{ACAD_REACTORS
330
17
102
}
330
17
100
AcDbMlineStyle
  2
Standard
 70
     0
  3

 62
   256
 51
90.0
 52
90.0
 71
     2
 49
0.5
 62
   256
  6
BYLAYER
 49
-0.5
 62
   256
  6
BYLAYER
  0
ACDBPLACEHOLDER
  5
F
102
{ACAD_REACTORS
330
E
102
}
330
E
  0
SCALE
  5
48
102
{ACAD_REACTORS
330
47
102
}
330
47
100
AcDbScale
 70
     0
300
1:1
140
1.0
141
1.0
290
     1
  0
SCALE
  5
49
102
{ACAD_REACTORS
330
47
102
}
330
47
100
AcDbScale
 70
     0
300
1:2
140
1.0
141
2.0
290
     0
  0
SCALE
  5
4A
102
{ACAD_REACTORS
330
47
102
}
330
47
100
AcDbScale
 70
     0
300
1:4
140
1.0
141
4.0
290
     0
  0
SCALE
  5
4B
102
{ACAD_REACTORS
330
47
102
}
330
47
100
AcDbScale
 70
     0
300
1:5
140
1.0
141
5.0
290
     0
  0
SCALE
  5
4C
102
{ACAD_REACTORS
330
47
102
}
330
47
100
AcDbScale
 70
     0
300
1:8
140
1.0
141
8.0
290
     0
  0
SCALE
  5
4D
102
{ACAD_REACTORS
330
47
102
}
330
47
100
AcDbScale
 70
     0
300
1:10
140
1.0
141
10.0
290
     0
  0
SCALE
  5
4E
102
{ACAD_REACTORS
330
47
102
}
330
47
100
AcDbScale
 70
     0
300
1:16
140
1.0
141
16.0
290
     0
  0
SCALE
  5
4F
102
{ACAD_REACTORS
330
47
102
}
330
47
100
AcDbScale
 70
     0
300
1:20
140
1.0
141
20.0
290
     0
  0
SCALE
  5
50
102
{ACAD_REACTORS
330
47
102
}
330
47
100
AcDbScale
 70
     0
300
1:30
140
1.0
141
30.0
290
     0
  0
SCALE
  5
51
102
{ACAD_REACTORS
330
47
102
}
330
47
100
AcDbScale
 70
     0
300
1:40
140
1.0
141
40.0
290
     0
  0
SCALE
  5
52
102
{ACAD_REACTORS
330
47
102
}
330
47
100
AcDbScale
 70
     0
300
1:50
140
1.0
141
50.0
290
     0
  0
SCALE
  5
53
102
{ACAD_REACTORS
330
47
102
}
330
47
100
AcDbScale
 70
     0
300
1:100
140
1.0
141
100.0
290
     0
  0
SCALE
  5
54
102
{ACAD_REACTORS
330
47
102
}
330
47
100
AcDbScale
 70
     0
300
2:1
140
2.0
141
1.0
290
     0
  0
SCALE
  5
55
102
{ACAD_REACTORS
330
47
102
}
330
47
100
AcDbScale
 70
     0
300
4:1
140
4.0
141
1.0
290
     0
  0
SCALE
  5
56
102
{ACAD_REACTORS
330
47
102
}
330
47
100
AcDbScale
 70
     0
300
8:1
140
8.0
141
1.0
290
     0
  0
SCALE
  5
57
102
{ACAD_REACTORS
330
47
102
}
330
47
100
AcDbScale
 70
     0
300
10:1
140
10.0
141
1.0
290
     0
  0
SCALE
  5
58
102
{ACAD_REACTORS
330
47
102
}
330
47
100
AcDbScale
 70
     0
300
100:1
140
100.0
141
1.0
290
     0
  0
SCALE
  5
59
102
{ACAD_REACTORS
330
47
102
}
330
47
100
AcDbScale
 70
     0
300
1/128" = 1'-0"
140
0.0078125
141
12.0
290
     0
  0
SCALE
  5
5A
102
{ACAD_REACTORS
330
47
102
}
330
47
100
AcDbScale
 70
     0
300
1/64" = 1'-0"
140
0.015625
141
12.0
290
     0
  0
SCALE
  5
5B
102
{ACAD_REACTORS
330
47
102
}
330
47
100
AcDbScale
 70
     0
300
1/32" = 1'-0"
140
0.03125
141
12.0
290
     0
  0
SCALE
  5
5C
102
{ACAD_REACTORS
330
47
102
}
330
47
100
AcDbScale
 70
     0
300
1/16" = 1'-0"
140
0.0625
141
12.0
290
     0
  0
SCALE
  5
5D
102
{ACAD_REACTORS
330
47
102
}
330
47
100
AcDbScale
 70
     0
300
3/32" = 1'-0"
140
0.09375
141
12.0
290
     0
  0
SCALE
  5
5E
102
{ACAD_REACTORS
330
47
102
}
330
47
100
AcDbScale
 70
     0
300
1/8" = 1'-0"
140
0.125
141
12.0
290
     0
  0
SCALE
  5
5F
102
{ACAD_REACTORS
330
47
102
}
330
47
100
AcDbScale
 70
     0
300
3/16" = 1'-0"
140
0.1875
141
12.0
290
     0
  0
SCALE
  5
60
102
{ACAD_REACTORS
330
47
102
}
330
47
100
AcDbScale
 70
     0
300
1/4" = 1'-0"
140
0.25
141
12.0
290
     0
  0
SCALE
  5
61
102
{ACAD_REACTORS
330
47
102
}
330
47
100
AcDbScale
 70
     0
300
3/8" = 1'-0"
140
0.375
141
12.0
290
     0
  0
SCALE
  5
62
102
{ACAD_REACTORS
330
47
102
}
330
47
100
AcDbScale
 70
     0
300
1/2" = 1'-0"
140
0.5
141
12.0
290
     0
  0
SCALE
  5
63
102
{ACAD_REACTORS
330
47
102
}
330
47
100
AcDbScale
 70
     0
300
3/4" = 1'-0"
140
0.75
141
12.0
290
     0
  0
SCALE
  5
64
102
{ACAD_REACTORS
330
47
102
}
330
47
100
AcDbScale
 70
     0
300
1" = 1'-0"
140
1.0
141
12.0
290
     0
  0
SCALE
  5
65
102
{ACAD_REACTORS
330
47
102
}
330
47
100
AcDbScale
 70
     0
300
1-1/2" = 1'-0"
140
1.5
141
12.0
290
     0
  0
SCALE
  5
66
102
{ACAD_REACTORS
330
47
102
}
330
47
100
AcDbScale
 70
     0
300
3" = 1'-0"
140
3.0
141
12.0
290
     0
  0
SCALE
  5
67
102
{ACAD_REACTORS
330
47
102
}
330
47
100
AcDbScale
 70
     0
300
6" = 1'-0"
140
6.0
141
12.0
290
     0
  0
SCALE
  5
68
102
{ACAD_REACTORS
330
47
102
}
330
47
100
AcDbScale
 70
     0
300
1'-0" = 1'-0"
140
12.0
141
12.0
290
     0
  0
ENDSEC
  0
EOF
