  0
SECTION
  2
HEADER
  9
$ACADVER
  1
AC1015
  9
$ACADMAINTVER
 70
     6
  9
$DWGCODEPAGE
  3
ANSI_1250
  9
$INSBASE
 10
0.0
 20
0.0
 30
0.0
  9
$EXTMIN
 10
0.0
 20
0.0
 30
0.0
  9
$EXTMAX
 10
297.0
 20
210.0
 30
0.0
  9
$LIMMIN
 10
0.0
 20
0.0
  9
$LIMMAX
 10
297.0
 20
210.0
  9
$ORTHOMODE
 70
     0
  9
$REGENMODE
 70
     1
  9
$FILLMODE
 70
     1
  9
$QTEXTMODE
 70
     0
  9
$MIRRTEXT
 70
     1
  9
$LTSCALE
 40
1.0
  9
$ATTMODE
 70
     1
  9
$TEXTSIZE
 40
3.5
  9
$TRACEWID
 40
1.0
  9
$TEXTSTYLE
  7
Standard
  9
$CLAYER
  8
0
  9
$CELTYPE
  6
ByLayer
  9
$CECOLOR
 62
   256
  9
$CELTSCALE
 40
1.0
  9
$DISPSILH
 70
     0
  9
$DIMSCALE
 40
1.0
  9
$DIMASZ
 40
3.302
  9
$DIMEXO
 40
1.0
  9
$DIMDLI
 40
3.75
  9
$DIMRND
 40
0.0
  9
$DIMDLE
 40
0.0
  9
$DIMEXE
 40
1.0
  9
$DIMTP
 40
0.0
  9
$DIMTM
 40
0.0
  9
$DIMTXT
 40
3.5
  9
$DIMCEN
 40
2.5
  9
$DIMTSZ
 40
0.0
  9
$DIMTOL
 70
     0
  9
$DIMLIM
 70
     0
  9
$DIMTIH
 70
     1
  9
$DIMTOH
 70
     1
  9
$DIMSE1
 70
     0
  9
$DIMSE2
 70
     0
  9
$DIMTAD
 70
     1
  9
$DIMZIN
 70
     0
  9
$DIMBLK
  1

  9
$DIMASO
 70
     1
  9
$DIMSHO
 70
     1
  9
$DIMPOST
  1

  9
$DIMAPOST
  1

  9
$DIMALT
 70
     0
  9
$DIMALTD
 70
     3
  9
$DIMALTF
 40
0.0393700787
  9
$DIMLFAC
 40
1.0
  9
$DIMTOFL
 70
     1
  9
$DIMTVP
 40
0.0
  9
$DIMTIX
 70
     0
  9
$DIMSOXD
 70
     0
  9
$DIMSAH
 70
     0
  9
$DIMBLK1
  1

  9
$DIMBLK2
  1

  9
$DIMSTYLE
  2
ISO-25
  9
$DIMCLRD
 70
     0
  9
$DIMCLRE
 70
     0
  9
$DIMCLRT
 70
     0
  9
$DIMTFAC
 40
1.0
  9
$DIMGAP
 40
1.524
  9
$DIMJUST
 70
     0
  9
$DIMSD1
 70
     0
  9
$DIMSD2
 70
     0
  9
$DIMTOLJ
 70
     0
  9
$DIMTZIN
 70
     0
  9
$DIMALTZ
 70
     0
  9
$DIMALTTZ
 70
     0
  9
$DIMUPT
 70
     0
  9
$DIMDEC
 70
     2
  9
$DIMTDEC
 70
     2
  9
$DIMALTU
 70
     2
  9
$DIMALTTD
 70
     3
  9
$DIMTXSTY
  7
Standard
  9
$DIMAUNIT
 70
     0
  9
$DIMADEC
 70
     2
  9
$DIMALTRND
 40
0.0
  9
$DIMAZIN
 70
     0
  9
$DIMDSEP
 70
    44
  9
$DIMATFIT
 70
     3
  9
$DIMFRAC
 70
     0
  9
$DIMLDRBLK
  1

  9
$DIMLUNIT
 70
     2
  9
$DIMLWD
 70
    -2
  9
$DIMLWE
 70
    -2
  9
$DIMTMOVE
 70
     0
  9
$LUNITS
 70
     2
  9
$LUPREC
 70
     2
  9
$SKETCHINC
 40
1.0
  9
$FILLETRAD
 40
10.0
  9
$AUNITS
 70
     0
  9
$AUPREC
 70
     2
  9
$MENU
  1
.
  9
$ELEVATION
 40
0.0
  9
$PELEVATION
 40
0.0
  9
$THICKNESS
 40
0.0
  9
$LIMCHECK
 70
     0
  9
$CHAMFERA
 40
0.0
  9
$CHAMFERB
 40
0.0
  9
$CHAMFERC
 40
0.0
  9
$CHAMFERD
 40
0.0
  9
$SKPOLY
 70
     0
  9
$TDCREATE
 40
2459730.511466783
  9
$TDUCREATE
 40
2459730.428133449
  9
$TDUPDATE
 40
2459730.511468507
  9
$TDUUPDATE
 40
2459730.428135173
  9
$TDINDWG
 40
0.0000000116
  9
$TDUSRTIMER
 40
0.0000000116
  9
$USRTIMER
 70
     1
  9
$ANGBASE
 50
0.0
  9
$ANGDIR
 70
     0
  9
$PDMODE
 70
     0
  9
$PDSIZE
 40
-1.0
  9
$PLINEWID
 40
0.0
  9
$SPLFRAME
 70
     0
  9
$SPLINETYPE
 70
     6
  9
$SPLINESEGS
 70
     8
  9
$HANDSEED
  5
330
  9
$SURFTAB1
 70
     6
  9
$SURFTAB2
 70
     6
  9
$SURFTYPE
 70
     6
  9
$SURFU
 70
     6
  9
$SURFV
 70
     6
  9
$UCSBASE
  2

  9
$UCSNAME
  2

  9
$UCSORG
 10
0.0
 20
0.0
 30
0.0
  9
$UCSXDIR
 10
1.0
 20
0.0
 30
0.0
  9
$UCSYDIR
 10
0.0
 20
1.0
 30
0.0
  9
$UCSORTHOREF
  2

  9
$UCSORTHOVIEW
 70
     0
  9
$UCSORGTOP
 10
0.0
 20
0.0
 30
0.0
  9
$UCSORGBOTTOM
 10
0.0
 20
0.0
 30
0.0
  9
$UCSORGLEFT
 10
0.0
 20
0.0
 30
0.0
  9
$UCSORGRIGHT
 10
0.0
 20
0.0
 30
0.0
  9
$UCSORGFRONT
 10
0.0
 20
0.0
 30
0.0
  9
$UCSORGBACK
 10
0.0
 20
0.0
 30
0.0
  9
$PUCSBASE
  2

  9
$PUCSNAME
  2

  9
$PUCSORG
 10
0.0
 20
0.0
 30
0.0
  9
$PUCSXDIR
 10
1.0
 20
0.0
 30
0.0
  9
$PUCSYDIR
 10
0.0
 20
1.0
 30
0.0
  9
$PUCSORTHOREF
  2

  9
$PUCSORTHOVIEW
 70
     0
  9
$PUCSORGTOP
 10
0.0
 20
0.0
 30
0.0
  9
$PUCSORGBOTTOM
 10
0.0
 20
0.0
 30
0.0
  9
$PUCSORGLEFT
 10
0.0
 20
0.0
 30
0.0
  9
$PUCSORGRIGHT
 10
0.0
 20
0.0
 30
0.0
  9
$PUCSORGFRONT
 10
0.0
 20
0.0
 30
0.0
  9
$PUCSORGBACK
 10
0.0
 20
0.0
 30
0.0
  9
$USERI1
 70
     0
  9
$USERI2
 70
     0
  9
$USERI3
 70
     0
  9
$USERI4
 70
     0
  9
$USERI5
 70
     0
  9
$USERR1
 40
0.0
  9
$USERR2
 40
0.0
  9
$USERR3
 40
0.0
  9
$USERR4
 40
0.0
  9
$USERR5
 40
0.0
  9
$WORLDVIEW
 70
     1
  9
$SHADEDGE
 70
     3
  9
$SHADEDIF
 70
    70
  9
$TILEMODE
 70
     1
  9
$MAXACTVP
 70
    64
  9
$PINSBASE
 10
0.0
 20
0.0
 30
0.0
  9
$PLIMCHECK
 70
     0
  9
$PEXTMIN
 10
1.0000000000E+20
 20
1.0000000000E+20
 30
1.0000000000E+20
  9
$PEXTMAX
 10
-1.0000000000E+20
 20
-1.0000000000E+20
 30
-1.0000000000E+20
  9
$PLIMMIN
 10
0.0
 20
0.0
  9
$PLIMMAX
 10
420.0
 20
297.0
  9
$UNITMODE
 70
     0
  9
$VISRETAIN
 70
     1
  9
$PLINEGEN
 70
     0
  9
$PSLTSCALE
 70
     1
  9
$TREEDEPTH
 70
  3020
  9
$CMLSTYLE
  2
Standard
  9
$CMLJUST
 70
     0
  9
$CMLSCALE
 40
20.0
  9
$PROXYGRAPHICS
 70
     1
  9
$MEASUREMENT
 70
     1
  9
$CELWEIGHT
370
    -1
  9
$ENDCAPS
280
     0
  9
$JOINSTYLE
280
     0
  9
$LWDISPLAY
290
     1
  9
$INSUNITS
 70
     4
  9
$HYPERLINKBASE
  1

  9
$STYLESHEET
  1

  9
$XEDIT
290
     1
  9
$CEPSNTYPE
380
     0
  9
$PSTYLEMODE
290
     1
  9
$FINGERPRINTGUID
  2
{7E96635B-98DF-4171-AC41-5A3CFEE8F2C8}
  9
$VERSIONGUID
  2
{FAEB1C32-E019-11D5-929B-00C0DF256EC4}
  9
$EXTNAMES
290
     1
  9
$PSVPSCALE
 40
0.0
  9
$OLESTARTUP
290
     0
  0
ENDSEC
  0
SECTION
  2
CLASSES
  0
CLASS
  1
ACDBDICTIONARYWDFLT
  2
AcDbDictionaryWithDefault
  3
ObjectDBX Classes
 90
        0
280
     0
281
     0
  0
CLASS
  1
VISUALSTYLE
  2
AcDbVisualStyle
  3
ObjectDBX Classes
 90
     4095
280
     0
281
     0
  0
CLASS
  1
MATERIAL
  2
AcDbMaterial
  3
ObjectDBX Classes
 90
     1153
280
     0
281
     0
  0
CLASS
  1
SCALE
  2
AcDbScale
  3
ObjectDBX Classes
 90
     1153
280
     0
281
     0
  0
CLASS
  1
TABLESTYLE
  2
AcDbTableStyle
  3
ObjectDBX Classes
 90
     4095
280
     0
281
     0
  0
CLASS
  1
MLEADERSTYLE
  2
AcDbMLeaderStyle
  3
ACDB_MLEADERSTYLE_CLASS
 90
     4095
280
     0
281
     0
  0
CLASS
  1
SUN
  2
AcDbSun
  3
SCENEOE
 90
     1153
280
     0
281
     0
  0
CLASS
  1
ACDBPLACEHOLDER
  2
AcDbPlaceHolder
  3
ObjectDBX Classes
 90
        0
280
     0
281
     0
  0
CLASS
  1
LAYOUT
  2
AcDbLayout
  3
ObjectDBX Classes
 90
        0
280
     0
281
     0
  0
ENDSEC
  0
SECTION
  2
TABLES
  0
TABLE
  2
VPORT
  5
8
330
0
100
AcDbSymbolTable
 70
     1
  0
VPORT
  5
29
330
8
100
AcDbSymbolTableRecord
100
AcDbViewportTableRecord
  2
*Active
 70
     0
 10
0.0
 20
0.0
 11
1.0
 21
1.0
 12
148.5
 22
105.0
 13
0.0
 23
0.0
 14
10.0
 24
10.0
 15
10.0
 25
10.0
 16
0.0
 26
0.0
 36
1.0
 17
0.0
 27
0.0
 37
0.0
 40
210.0
 41
1.4142857143
 42
50.0
 43
0.0
 44
0.0
 50
0.0
 51
0.0
 71
     0
 72
  2000
 73
     1
 74
     3
 75
     0
 76
     0
 77
     0
 78
     0
281
     0
 65
     1
110
0.0
120
0.0
130
0.0
111
1.0
121
0.0
131
0.0
112
0.0
122
1.0
132
0.0
 79
     0
146
0.0
  0
ENDTAB
  0
TABLE
  2
LTYPE
  5
5
330
0
100
AcDbSymbolTable
 70
     6
  0
LTYPE
  5
14
330
5
100
AcDbSymbolTableRecord
100
AcDbLinetypeTableRecord
  2
ByBlock
 70
     0
  3

 72
    65
 73
     0
 40
0.0
  0
LTYPE
  5
15
330
5
100
AcDbSymbolTableRecord
100
AcDbLinetypeTableRecord
  2
ByLayer
 70
     0
  3

 72
    65
 73
     0
 40
0.0
  0
LTYPE
  5
16
330
5
100
AcDbSymbolTableRecord
100
AcDbLinetypeTableRecord
  2
Continuous
 70
     0
  3
Solid line
 72
    65
 73
     0
 40
0.0
  0
LTYPE
  5
6E
330
5
100
AcDbSymbolTableRecord
100
AcDbLinetypeTableRecord
  2
HIDDEN
 70
     0
  3
Hidden __ __ __ __ __ __ __ __ __ __ __ __ __ __
 72
    65
 73
     2
 40
1.905
 49
1.27
 74
     0
 49
-0.635
 74
     0
  0
LTYPE
  5
6F
330
5
100
AcDbSymbolTableRecord
100
AcDbLinetypeTableRecord
  2
PHANTOM
 70
     0
  3
Phantom ______  __  __  ______  __  __  ______
 72
    65
 73
     6
 40
12.7
 49
6.35
 74
     0
 49
-1.27
 74
     0
 49
1.27
 74
     0
 49
-1.27
 74
     0
 49
1.27
 74
     0
 49
-1.27
 74
     0
  0
LTYPE
  5
70
330
5
100
AcDbSymbolTableRecord
100
AcDbLinetypeTableRecord
  2
CENTER
 70
     0
  3
Center ____ _ ____ _ ____ _ ____ _ ____ _ ____
 72
    65
 73
     4
 40
10.16
 49
6.35
 74
     0
 49
-1.27
 74
     0
 49
1.27
 74
     0
 49
-1.27
 74
     0
  0
LTYPE
  5
71
330
5
100
AcDbSymbolTableRecord
100
AcDbLinetypeTableRecord
  2
CENTERX2
 70
     0
  3
Center (2x) ________  __  ________  __  _____
 72
    65
 73
     4
 40
20.32
 49
12.7
 74
     0
 49
-2.54
 74
     0
 49
2.54
 74
     0
 49
-2.54
 74
     0
  0
LTYPE
  5
72
330
5
100
AcDbSymbolTableRecord
100
AcDbLinetypeTableRecord
  2
DOT2
 70
     0
  3
Dot (.5x) ........................................
 72
    65
 73
     2
 40
0.635
 49
0.0
 74
     0
 49
-0.635
 74
     0
  0
ENDTAB
  0
TABLE
  2
LAYER
  5
2
330
0
100
AcDbSymbolTable
 70
    12
  0
LAYER
  5
10
330
2
100
AcDbSymbolTableRecord
100
AcDbLayerTableRecord
  2
0
 70
     0
 62
     7
  6
Continuous
370
    -3
390
F
  0
LAYER
  5
73
330
2
100
AcDbSymbolTableRecord
100
AcDbLayerTableRecord
  2
SLD-0
 70
     0
 62
   179
  6
Continuous
370
    -3
390
F
  0
LAYER
  5
74
330
2
100
AcDbSymbolTableRecord
100
AcDbLayerTableRecord
  2
80
 70
     0
 62
    -6
  6
Continuous
290
     0
370
    -3
390
F
  0
LAYER
  5
75
330
2
100
AcDbSymbolTableRecord
100
AcDbLayerTableRecord
  2
81
 70
     0
 62
    -3
  6
Continuous
290
     0
370
    -3
390
F
  0
LAYER
  5
76
330
2
100
AcDbSymbolTableRecord
100
AcDbLayerTableRecord
  2
1
 70
     0
 62
     4
  6
Continuous
290
     0
370
    -3
390
F
  0
LAYER
  5
77
330
2
100
AcDbSymbolTableRecord
100
AcDbLayerTableRecord
  2
4
 70
     0
 62
    -2
  6
CENTER
290
     0
370
    -3
390
F
  0
LAYER
  5
78
330
2
100
AcDbSymbolTableRecord
100
AcDbLayerTableRecord
  2
2
 70
     0
 62
     7
  6
Continuous
290
     0
370
    -3
390
F
  0
LAYER
  5
79
330
2
100
AcDbSymbolTableRecord
100
AcDbLayerTableRecord
  2
SK3
 70
     0
 62
     1
  6
HIDDEN
290
     0
370
    -3
390
F
  0
LAYER
  5
7A
330
2
100
AcDbSymbolTableRecord
100
AcDbLayerTableRecord
  2
SK4
 70
     0
 62
     2
  6
CENTER
290
     0
370
    -3
390
F
  0
LAYER
  5
7B
330
2
100
AcDbSymbolTableRecord
100
AcDbLayerTableRecord
  2
SK2
 70
     0
 62
     7
  6
Continuous
290
     0
370
    -3
390
F
  0
LAYER
  5
7C
330
2
100
AcDbSymbolTableRecord
100
AcDbLayerTableRecord
  2
SK6
 70
     0
 62
     5
  6
Continuous
290
     0
370
    -3
390
F
  0
LAYER
  5
7D
330
2
100
AcDbSymbolTableRecord
100
AcDbLayerTableRecord
  2
SK1
 70
     0
 62
     4
  6
Continuous
370
    -3
390
F
  0
ENDTAB
  0
TABLE
  2
STYLE
  5
3
330
0
100
AcDbSymbolTable
 70
     2
  0
STYLE
  5
11
330
3
100
AcDbSymbolTableRecord
100
AcDbTextStyleTableRecord
  2
Standard
 70
     0
 40
0.0
 41
1.0
 50
0.0
 71
     0
 42
3.5
  3
txt
  4

  0
STYLE
  5
2B5
330
3
100
AcDbSymbolTableRecord
100
AcDbTextStyleTableRecord
  2
SLDTEXTSTYLE0
 70
     0
 40
0.0
 41
0.75
 50
0.0
 71
     0
 42
3.5
  3
TXT
  4

  0
ENDTAB
  0
TABLE
  2
VIEW
  5
6
330
0
100
AcDbSymbolTable
 70
     0
  0
ENDTAB
  0
TABLE
  2
UCS
  5
7
330
0
100
AcDbSymbolTable
 70
     0
  0
ENDTAB
  0
TABLE
  2
APPID
  5
9
330
0
100
AcDbSymbolTable
 70
     1
  0
APPID
  5
12
330
9
100
AcDbSymbolTableRecord
100
AcDbRegAppTableRecord
  2
ACAD
 70
     0
  0
ENDTAB
  0
TABLE
  2
DIMSTYLE
  5
A
330
0
100
AcDbSymbolTable
 70
     2
100
AcDbDimStyleTable
  0
DIMSTYLE
105
27
330
A
100
AcDbSymbolTableRecord
100
AcDbDimStyleTableRecord
  2
ISO-25
 70
     0
 41
2.5
 42
0.625
 43
3.75
 44
1.25
 73
     0
 74
     0
 77
     1
 78
     8
140
2.5
141
2.5
143
0.0393700787
147
0.625
171
     3
172
     1
178
     0
271
     2
272
     2
274
     3
278
    44
283
     0
284
     8
340
11
  0
DIMSTYLE
105
2B6
102
{ACAD_REACTORS
330
2B4
330
2C1
330
2CC
330
2D7
330
2E1
330
2EB
330
2F5
330
2FF
330
309
330
313
330
31E
102
}
330
A
100
AcDbSymbolTableRecord
100
AcDbDimStyleTableRecord
  2
SLDDIMSTYLE0
 70
     0
 41
3.302
 44
0.0
 45
0.000000001
 73
     0
 74
     0
 77
     1
 78
    12
 79
     3
140
3.5
147
0.875
173
     1
178
     0
271
     2
272
     2
276
     2
284
    12
340
2B5
  0
ENDTAB
  0
TABLE
  2
BLOCK_RECORD
  5
1
330
0
100
AcDbSymbolTable
 70
    15
  0
BLOCK_RECORD
  5
1F
330
1
100
AcDbSymbolTableRecord
100
AcDbBlockTableRecord
  2
*Model_Space
340
22
  0
BLOCK_RECORD
  5
1B
330
1
100
AcDbSymbolTableRecord
100
AcDbBlockTableRecord
  2
*Paper_Space
340
1E
  0
BLOCK_RECORD
  5
23
330
1
100
AcDbSymbolTableRecord
100
AcDbBlockTableRecord
  2
*Paper_Space0
340
26
  0
BLOCK_RECORD
  5
7E
330
1
100
AcDbSymbolTableRecord
100
AcDbBlockTableRecord
  2
Block11
340
0
102
{BLKREFS
331
2B3
102
}
  0
BLOCK_RECORD
  5
87
330
1
100
AcDbSymbolTableRecord
100
AcDbBlockTableRecord
  2
Block12
340
0
102
{BLKREFS
331
2B2
102
}
  0
BLOCK_RECORD
  5
2B7
330
1
100
AcDbSymbolTableRecord
100
AcDbBlockTableRecord
  2
_D
340
0
  0
BLOCK_RECORD
  5
2C2
330
1
100
AcDbSymbolTableRecord
100
AcDbBlockTableRecord
  2
_D_1
340
0
  0
BLOCK_RECORD
  5
2CD
330
1
100
AcDbSymbolTableRecord
100
AcDbBlockTableRecord
  2
_D_2
340
0
  0
BLOCK_RECORD
  5
2D8
330
1
100
AcDbSymbolTableRecord
100
AcDbBlockTableRecord
  2
_D_3
340
0
  0
BLOCK_RECORD
  5
2E2
330
1
100
AcDbSymbolTableRecord
100
AcDbBlockTableRecord
  2
_D_4
340
0
  0
BLOCK_RECORD
  5
2EC
330
1
100
AcDbSymbolTableRecord
100
AcDbBlockTableRecord
  2
_D_5
340
0
  0
BLOCK_RECORD
  5
2F6
330
1
100
AcDbSymbolTableRecord
100
AcDbBlockTableRecord
  2
_D_6
340
0
  0
BLOCK_RECORD
  5
300
330
1
100
AcDbSymbolTableRecord
100
AcDbBlockTableRecord
  2
_D_7
340
0
  0
BLOCK_RECORD
  5
30A
330
1
100
AcDbSymbolTableRecord
100
AcDbBlockTableRecord
  2
_D_8
340
0
  0
BLOCK_RECORD
  5
314
330
1
100
AcDbSymbolTableRecord
100
AcDbBlockTableRecord
  2
_D_9
340
0
  0
BLOCK_RECORD
  5
31F
330
1
100
AcDbSymbolTableRecord
100
AcDbBlockTableRecord
  2
_D_10
340
0
  0
BLOCK_RECORD
  5
32A
330
1
100
AcDbSymbolTableRecord
100
AcDbBlockTableRecord
  2
SW_NOTE_0
340
0
102
{BLKREFS
331
32F
102
}
  0
ENDTAB
  0
ENDSEC
  0
SECTION
  2
BLOCKS
  0
BLOCK
  5
20
330
1F
100
AcDbEntity
  8
0
100
AcDbBlockBegin
  2
*Model_Space
 70
     0
 10
0.0
 20
0.0
 30
0.0
  3
*Model_Space
  1

  0
ENDBLK
  5
21
330
1F
100
AcDbEntity
  8
0
100
AcDbBlockEnd
  0
BLOCK
  5
1C
330
1B
100
AcDbEntity
 67
     1
  8
0
100
AcDbBlockBegin
  2
*Paper_Space
 70
     0
 10
0.0
 20
0.0
 30
0.0
  3
*Paper_Space
  1

  0
ENDBLK
  5
1D
330
1B
100
AcDbEntity
 67
     1
  8
0
100
AcDbBlockEnd
  0
BLOCK
  5
24
330
23
100
AcDbEntity
  8
0
100
AcDbBlockBegin
  2
*Paper_Space0
 70
     0
 10
0.0
 20
0.0
 30
0.0
  3
*Paper_Space0
  1

  0
ENDBLK
  5
25
330
23
100
AcDbEntity
  8
0
100
AcDbBlockEnd
  0
BLOCK
  5
7F
330
7E
100
AcDbEntity
  8
0
100
AcDbBlockBegin
  2
Block11
 70
     0
 10
0.0
 20
0.0
 30
0.0
  3
Block11
  1

  0
CIRCLE
  5
81
330
7E
100
AcDbEntity
  8
81
370
    18
100
AcDbCircle
 10
91.6264826505
 20
130.2676275275
 30
0.0
 40
2.499999999999981
  0
LINE
  5
82
330
7E
100
AcDbEntity
  8
81
370
    18
100
AcDbLine
 10
91.6264826505
 20
130.2676275275
 30
0.0
 11
95.1620165565
 21
133.8031614334
 31
0.0
  0
LINE
  5
83
330
7E
100
AcDbEntity
  8
81
370
    18
100
AcDbLine
 10
91.6264826505
 20
130.2676275275
 30
0.0
 11
88.0909487446
 21
126.7320936216
 31
0.0
  0
LINE
  5
84
330
7E
100
AcDbEntity
  8
81
370
    18
100
AcDbLine
 10
91.6264826505
 20
130.2676275275
 30
0.0
 11
88.0909487446
 21
133.8031614334
 31
0.0
  0
LINE
  5
85
330
7E
100
AcDbEntity
  8
81
100
AcDbLine
 10
91.6264826505
 20
130.2676275275
 30
0.0
 11
101.6264826505
 21
130.2676275275
 31
0.0
  0
LINE
  5
86
330
7E
100
AcDbEntity
  8
81
370
    18
100
AcDbLine
 10
91.6264826505
 20
130.2676275275
 30
0.0
 11
95.1620165565
 21
126.7320936216
 31
0.0
  0
ENDBLK
  5
80
330
7E
100
AcDbEntity
  8
0
100
AcDbBlockEnd
  0
BLOCK
  5
88
330
87
100
AcDbEntity
  8
0
100
AcDbBlockBegin
  2
Block12
 70
     0
 10
0.0
 20
0.0
 30
0.0
  3
Block12
  1

  0
CIRCLE
  5
8A
330
87
100
AcDbEntity
  8
80
370
    18
100
AcDbCircle
 10
61.7273641656
 20
130.3356800267
 30
0.0
 40
2.500000000000004
  0
LINE
  5
8B
330
87
100
AcDbEntity
  8
80
370
    18
100
AcDbLine
 10
61.7273641656
 20
130.3356800267
 30
0.0
 11
65.2628980715
 21
133.8712139326
 31
0.0
  0
LINE
  5
8C
330
87
100
AcDbEntity
  8
80
370
    18
100
AcDbLine
 10
61.7273641656
 20
130.3356800267
 30
0.0
 11
58.1918302597
 21
126.8001461208
 31
0.0
  0
LINE
  5
8D
330
87
100
AcDbEntity
  8
80
370
    18
100
AcDbLine
 10
61.7273641656
 20
130.3356800267
 30
0.0
 11
58.1918302597
 21
133.8712139326
 31
0.0
  0
LINE
  5
8E
330
87
100
AcDbEntity
  8
80
370
    18
100
AcDbLine
 10
61.7273641656
 20
130.3356800267
 30
0.0
 11
51.7273641656
 21
130.3356800267
 31
0.0
  0
LINE
  5
8F
330
87
100
AcDbEntity
  8
80
370
    18
100
AcDbLine
 10
61.7273641656
 20
130.3356800267
 30
0.0
 11
65.2628980715
 21
126.8001461208
 31
0.0
  0
ENDBLK
  5
89
330
87
100
AcDbEntity
  8
0
100
AcDbBlockEnd
  0
BLOCK
  5
2B8
330
2B7
100
AcDbEntity
  8
0
100
AcDbBlockBegin
  2
_D
 70
     0
 10
0.0
 20
0.0
 30
0.0
  3
_D
  1

  0
SOLID
  5
2BA
330
2B7
100
AcDbEntity
  8
SK2
100
AcDbTrace
 10
-121.5883516705
 20
34.925
 30
0.0
 11
-122.0963516705
 21
31.623
 31
0.0
 12
-121.0803516705
 22
31.623
 32
0.0
 13
-121.0803516705
 23
31.623
 33
0.0
  0
SOLID
  5
2BB
330
2B7
100
AcDbEntity
  8
SK2
100
AcDbTrace
 10
-121.5883516705
 20
-34.925
 30
0.0
 11
-121.0803516705
 21
-31.623
 31
0.0
 12
-122.0963516705
 22
-31.623
 32
0.0
 13
-122.0963516705
 23
-31.623
 33
0.0
  0
LINE
  5
2BC
330
2B7
100
AcDbEntity
  8
SK2
100
AcDbLine
 10
-1.0
 20
34.925
 30
0.0
 11
-122.5883516705
 21
34.925
 31
0.0
  0
LINE
  5
2BD
330
2B7
100
AcDbEntity
  8
SK2
100
AcDbLine
 10
-1.0
 20
-34.925
 30
0.0
 11
-122.5883516705
 21
-34.925
 31
0.0
  0
LINE
  5
2BE
330
2B7
100
AcDbEntity
  8
SK2
100
AcDbLine
 10
-121.5883516705
 20
34.925
 30
0.0
 11
-121.5883516705
 21
-34.925
 31
0.0
  0
MTEXT
  5
2BF
330
2B7
100
AcDbEntity
  8
SK2
100
AcDbMText
 10
-126.1000887597
 20
-8.6471769634
 30
0.0
 40
3.5
 41
0.0
 71
     1
 72
     1
  1
%%c
  7
SLDTEXTSTYLE0
 11
-7.044195017643634E-15
 21
1.0
 31
0.0
 73
     1
 44
1.0
  0
MTEXT
  5
2C0
330
2B7
100
AcDbEntity
  8
SK2
100
AcDbMText
 10
-126.1535609363
 20
-3.368739565
 30
0.0
 40
3.5
 41
0.0
 71
     1
 72
     1
  1
69,85
  7
SLDTEXTSTYLE0
 11
-7.044195017643634E-15
 21
1.0
 31
0.0
 73
     1
 44
1.0
  0
ENDBLK
  5
2B9
330
2B7
100
AcDbEntity
  8
0
100
AcDbBlockEnd
  0
BLOCK
  5
2C3
330
2C2
100
AcDbEntity
  8
0
100
AcDbBlockBegin
  2
_D_1
 70
     0
 10
0.0
 20
0.0
 30
0.0
  3
_D_1
  1

  0
SOLID
  5
2C5
330
2C2
100
AcDbEntity
  8
SK2
100
AcDbTrace
 10
-111.4027708666
 20
-12.0
 30
0.0
 11
-110.8947708666
 21
-8.698
 31
0.0
 12
-111.9107708666
 22
-8.698
 32
0.0
 13
-111.9107708666
 23
-8.698
 33
0.0
  0
SOLID
  5
2C6
330
2C2
100
AcDbEntity
  8
SK2
100
AcDbTrace
 10
-111.4027708666
 20
12.0
 30
0.0
 11
-111.9107708666
 21
8.698
 31
0.0
 12
-110.8947708666
 22
8.698
 32
0.0
 13
-110.8947708666
 23
8.698
 33
0.0
  0
LINE
  5
2C7
330
2C2
100
AcDbEntity
  8
SK2
100
AcDbLine
 10
-90.3448185145
 20
-12.0
 30
0.0
 11
-112.4027708666
 21
-12.0
 31
0.0
  0
LINE
  5
2C8
330
2C2
100
AcDbEntity
  8
SK2
100
AcDbLine
 10
-90.3448185145
 20
12.0
 30
0.0
 11
-112.4027708666
 21
12.0
 31
0.0
  0
LINE
  5
2C9
330
2C2
100
AcDbEntity
  8
SK2
100
AcDbLine
 10
-111.4027708666
 20
-12.0
 30
0.0
 11
-111.4027708666
 21
12.0
 31
0.0
  0
MTEXT
  5
2CA
330
2C2
100
AcDbEntity
  8
SK2
100
AcDbMText
 10
-115.9145077812
 20
-4.0081084282
 30
0.0
 40
3.5
 41
0.0
 71
     1
 72
     1
  1
M
  7
SLDTEXTSTYLE0
 11
6.123233995736766E-17
 21
1.0
 31
0.0
 73
     1
 44
1.0
  0
MTEXT
  5
2CB
330
2C2
100
AcDbEntity
  8
SK2
100
AcDbMText
 10
-115.9145077812
 20
0.2793915063
 30
0.0
 40
3.5
 41
0.0
 71
     1
 72
     1
  1
24
  7
SLDTEXTSTYLE0
 11
6.123233995736766E-17
 21
1.0
 31
0.0
 73
     1
 44
1.0
  0
ENDBLK
  5
2C4
330
2C2
100
AcDbEntity
  8
0
100
AcDbBlockEnd
  0
BLOCK
  5
2CE
330
2CD
100
AcDbEntity
  8
0
100
AcDbBlockBegin
  2
_D_2
 70
     0
 10
0.0
 20
0.0
 30
0.0
  3
_D_2
  1

  0
SOLID
  5
2D0
330
2CD
100
AcDbEntity
  8
SK2
100
AcDbTrace
 10
-131.9672054309
 20
46.8582312707
 30
0.0
 11
-132.4752054309
 21
43.5562312707
 31
0.0
 12
-131.4592054309
 22
43.5562312707
 32
0.0
 13
-131.4592054309
 23
43.5562312707
 33
0.0
  0
SOLID
  5
2D1
330
2CD
100
AcDbEntity
  8
SK2
100
AcDbTrace
 10
-131.9672054309
 20
-46.8399994947
 30
0.0
 11
-131.4592054309
 21
-43.5379994947
 31
0.0
 12
-132.4752054309
 22
-43.5379994947
 32
0.0
 13
-132.4752054309
 23
-43.5379994947
 33
0.0
  0
LINE
  5
2D2
330
2CD
100
AcDbEntity
  8
SK2
100
AcDbLine
 10
2.95
 20
46.8582312707
 30
0.0
 11
-132.9672054309
 21
46.8582312707
 31
0.0
  0
LINE
  5
2D3
330
2CD
100
AcDbEntity
  8
SK2
100
AcDbLine
 10
2.95
 20
-46.8399994947
 30
0.0
 11
-132.9672054309
 21
-46.8399994947
 31
0.0
  0
LINE
  5
2D4
330
2CD
100
AcDbEntity
  8
SK2
100
AcDbLine
 10
-131.9672054309
 20
46.8582312707
 30
0.0
 11
-131.9672054309
 21
-46.8399994947
 31
0.0
  0
MTEXT
  5
2D5
330
2CD
100
AcDbEntity
  8
SK2
100
AcDbMText
 10
-136.4789425201
 20
-8.6471769634
 30
0.0
 40
3.5
 41
0.0
 71
     1
 72
     1
  1
%%c
  7
SLDTEXTSTYLE0
 11
-3.491481338843133E-15
 21
1.0
 31
0.0
 73
     1
 44
1.0
  0
MTEXT
  5
2D6
330
2CD
100
AcDbEntity
  8
SK2
100
AcDbMText
 10
-136.5324146967
 20
-3.368739565
 30
0.0
 40
3.5
 41
0.0
 71
     1
 72
     1
  1
97,45
  7
SLDTEXTSTYLE0
 11
-3.491481338843133E-15
 21
1.0
 31
0.0
 73
     1
 44
1.0
  0
ENDBLK
  5
2CF
330
2CD
100
AcDbEntity
  8
0
100
AcDbBlockEnd
  0
BLOCK
  5
2D9
330
2D8
100
AcDbEntity
  8
0
100
AcDbBlockBegin
  2
_D_3
 70
     0
 10
0.0
 20
0.0
 30
0.0
  3
_D_3
  1

  0
SOLID
  5
2DB
330
2D8
100
AcDbEntity
  8
SK2
100
AcDbTrace
 10
0.0
 20
55.2399563014
 30
0.0
 11
3.302
 21
54.7319563014
 31
0.0
 12
3.302
 22
55.7479563014
 32
0.0
 13
3.302
 23
55.7479563014
 33
0.0
  0
SOLID
  5
2DC
330
2D8
100
AcDbEntity
  8
SK2
100
AcDbTrace
 10
19.05
 20
55.2399563014
 30
0.0
 11
15.748
 21
55.7479563014
 31
0.0
 12
15.748
 22
54.7319563014
 32
0.0
 13
15.748
 23
54.7319563014
 33
0.0
  0
LINE
  5
2DD
330
2D8
100
AcDbEntity
  8
SK2
100
AcDbLine
 10
0.0
 20
35.925
 30
0.0
 11
0.0
 21
56.2399563014
 31
0.0
  0
LINE
  5
2DE
330
2D8
100
AcDbEntity
  8
SK2
100
AcDbLine
 10
19.05
 20
38.5576639982
 30
0.0
 11
19.05
 21
56.2399563014
 31
0.0
  0
LINE
  5
2DF
330
2D8
100
AcDbEntity
  8
SK2
100
AcDbLine
 10
0.0
 20
55.2399563014
 30
0.0
 11
19.05
 21
55.2399563014
 31
0.0
  0
MTEXT
  5
2E0
330
2D8
100
AcDbEntity
  8
SK2
100
AcDbMText
 10
4.1376730357
 20
59.751693216
 30
0.0
 40
3.5
 41
0.0
 71
     1
 72
     1
  1
19,05
  7
SLDTEXTSTYLE0
 73
     1
 44
1.0
  0
ENDBLK
  5
2DA
330
2D8
100
AcDbEntity
  8
0
100
AcDbBlockEnd
  0
BLOCK
  5
2E3
330
2E2
100
AcDbEntity
  8
0
100
AcDbBlockBegin
  2
_D_4
 70
     0
 10
0.0
 20
0.0
 30
0.0
  3
_D_4
  1

  0
SOLID
  5
2E5
330
2E2
100
AcDbEntity
  8
SK2
100
AcDbTrace
 10
19.05
 20
55.2399563014
 30
0.0
 11
22.352
 21
54.7319563014
 31
0.0
 12
22.352
 22
55.7479563014
 32
0.0
 13
22.352
 23
55.7479563014
 33
0.0
  0
SOLID
  5
2E6
330
2E2
100
AcDbEntity
  8
SK2
100
AcDbTrace
 10
160.0
 20
55.2399563014
 30
0.0
 11
156.698
 21
55.7479563014
 31
0.0
 12
156.698
 22
54.7319563014
 32
0.0
 13
156.698
 23
54.7319563014
 33
0.0
  0
LINE
  5
2E7
330
2E2
100
AcDbEntity
  8
SK2
100
AcDbLine
 10
19.05
 20
38.5576639982
 30
0.0
 11
19.05
 21
56.2399563014
 31
0.0
  0
LINE
  5
2E8
330
2E2
100
AcDbEntity
  8
SK2
100
AcDbLine
 10
160.0
 20
21.0
 30
0.0
 11
160.0
 21
56.2399563014
 31
0.0
  0
LINE
  5
2E9
330
2E2
100
AcDbEntity
  8
SK2
100
AcDbLine
 10
19.05
 20
55.2399563014
 30
0.0
 11
160.0
 21
55.2399563014
 31
0.0
  0
MTEXT
  5
2EA
330
2E2
100
AcDbEntity
  8
SK2
100
AcDbMText
 10
79.2071204571
 20
59.751693216
 30
0.0
 40
3.5
 41
0.0
 71
     1
 72
     1
  1
140,95
  7
SLDTEXTSTYLE0
 73
     1
 44
1.0
  0
ENDBLK
  5
2E4
330
2E2
100
AcDbEntity
  8
0
100
AcDbBlockEnd
  0
BLOCK
  5
2ED
330
2EC
100
AcDbEntity
  8
0
100
AcDbBlockBegin
  2
_D_5
 70
     0
 10
0.0
 20
0.0
 30
0.0
  3
_D_5
  1

  0
SOLID
  5
2EF
330
2EC
100
AcDbEntity
  8
SK2
100
AcDbTrace
 10
137.5
 20
36.1713604506
 30
0.0
 11
140.802
 21
35.6633604506
 31
0.0
 12
140.802
 22
36.6793604506
 32
0.0
 13
140.802
 23
36.6793604506
 33
0.0
  0
SOLID
  5
2F0
330
2EC
100
AcDbEntity
  8
SK2
100
AcDbTrace
 10
160.0
 20
36.1713604506
 30
0.0
 11
156.698
 21
36.6793604506
 31
0.0
 12
156.698
 22
35.6633604506
 32
0.0
 13
156.698
 23
35.6633604506
 33
0.0
  0
LINE
  5
2F1
330
2EC
100
AcDbEntity
  8
SK2
100
AcDbLine
 10
137.5
 20
25.2
 30
0.0
 11
137.5
 21
37.1713604506
 31
0.0
  0
LINE
  5
2F2
330
2EC
100
AcDbEntity
  8
SK2
100
AcDbLine
 10
160.0
 20
21.0
 30
0.0
 11
160.0
 21
37.1713604506
 31
0.0
  0
LINE
  5
2F3
330
2EC
100
AcDbEntity
  8
SK2
100
AcDbLine
 10
137.5
 20
36.1713604506
 30
0.0
 11
160.0
 21
36.1713604506
 31
0.0
  0
MTEXT
  5
2F4
330
2EC
100
AcDbEntity
  8
SK2
100
AcDbMText
 10
143.913958549
 20
40.6830973651
 30
0.0
 40
3.5
 41
0.0
 71
     1
 72
     1
  1
22,5
  7
SLDTEXTSTYLE0
 73
     1
 44
1.0
  0
ENDBLK
  5
2EE
330
2EC
100
AcDbEntity
  8
0
100
AcDbBlockEnd
  0
BLOCK
  5
2F7
330
2F6
100
AcDbEntity
  8
0
100
AcDbBlockBegin
  2
_D_6
 70
     0
 10
0.0
 20
0.0
 30
0.0
  3
_D_6
  1

  0
SOLID
  5
2F9
330
2F6
100
AcDbEntity
  8
2
100
AcDbTrace
 10
0.0
 20
65.0757202816
 30
0.0
 11
3.302
 21
64.5677202816
 31
0.0
 12
3.302
 22
65.5837202816
 32
0.0
 13
3.302
 23
65.5837202816
 33
0.0
  0
SOLID
  5
2FA
330
2F6
100
AcDbEntity
  8
2
100
AcDbTrace
 10
160.0
 20
65.0757202816
 30
0.0
 11
156.698
 21
65.5837202816
 31
0.0
 12
156.698
 22
64.5677202816
 32
0.0
 13
156.698
 23
64.5677202816
 33
0.0
  0
LINE
  5
2FB
330
2F6
100
AcDbEntity
  8
2
100
AcDbLine
 10
0.0
 20
35.925
 30
0.0
 11
0.0
 21
66.0757202816
 31
0.0
  0
LINE
  5
2FC
330
2F6
100
AcDbEntity
  8
2
100
AcDbLine
 10
160.0
 20
21.0
 30
0.0
 11
160.0
 21
66.0757202816
 31
0.0
  0
LINE
  5
2FD
330
2F6
100
AcDbEntity
  8
2
100
AcDbLine
 10
0.0
 20
65.0757202816
 30
0.0
 11
160.0
 21
65.0757202816
 31
0.0
  0
MTEXT
  5
2FE
330
2F6
100
AcDbEntity
  8
2
100
AcDbMText
 10
69.072997125
 20
69.5874571962
 30
0.0
 40
3.5
 41
0.0
 71
     1
 72
     1
  1
160
  7
SLDTEXTSTYLE0
 73
     1
 44
1.0
  0
ENDBLK
  5
2F8
330
2F6
100
AcDbEntity
  8
0
100
AcDbBlockEnd
  0
BLOCK
  5
301
330
300
100
AcDbEntity
  8
0
100
AcDbBlockBegin
  2
_D_7
 70
     0
 10
0.0
 20
0.0
 30
0.0
  3
_D_7
  1

  0
SOLID
  5
303
330
300
100
AcDbEntity
  8
SK2
100
AcDbTrace
 10
0.0
 20
-58.5059977779
 30
0.0
 11
3.302
 21
-59.0139977779
 31
0.0
 12
3.302
 22
-57.9979977779
 32
0.0
 13
3.302
 23
-57.9979977779
 33
0.0
  0
SOLID
  5
304
330
300
100
AcDbEntity
  8
SK2
100
AcDbTrace
 10
147.34
 20
-58.5059977779
 30
0.0
 11
144.038
 21
-57.9979977779
 31
0.0
 12
144.038
 22
-59.0139977779
 32
0.0
 13
144.038
 23
-59.0139977779
 33
0.0
  0
LINE
  5
305
330
300
100
AcDbEntity
  8
SK2
100
AcDbLine
 10
0.0
 20
-35.925
 30
0.0
 11
0.0
 21
-59.5059977779
 31
0.0
  0
LINE
  5
306
330
300
100
AcDbEntity
  8
SK2
100
AcDbLine
 10
147.34
 20
-17.9838169833
 30
0.0
 11
147.34
 21
-59.5059977779
 31
0.0
  0
LINE
  5
307
330
300
100
AcDbEntity
  8
SK2
100
AcDbLine
 10
0.0
 20
-58.5059977779
 30
0.0
 11
147.34
 21
-58.5059977779
 31
0.0
  0
MTEXT
  5
308
330
300
100
AcDbEntity
  8
SK2
100
AcDbMText
 10
65.7378304652
 20
-53.9942608633
 30
0.0
 40
3.5
 41
0.0
 71
     1
 72
     1
  1
147,34
  7
SLDTEXTSTYLE0
 73
     1
 44
1.0
  0
ENDBLK
  5
302
330
300
100
AcDbEntity
  8
0
100
AcDbBlockEnd
  0
BLOCK
  5
30B
330
30A
100
AcDbEntity
  8
0
100
AcDbBlockBegin
  2
_D_8
 70
     0
 10
0.0
 20
0.0
 30
0.0
  3
_D_8
  1

  0
SOLID
  5
30D
330
30A
100
AcDbEntity
  8
SK2
100
AcDbTrace
 10
-101.6
 20
-69.9385488527
 30
0.0
 11
-98.298
 21
-70.4465488527
 31
0.0
 12
-98.298
 22
-69.4305488527
 32
0.0
 13
-98.298
 23
-69.4305488527
 33
0.0
  0
SOLID
  5
30E
330
30A
100
AcDbEntity
  8
SK2
100
AcDbTrace
 10
160.0
 20
-69.9385488527
 30
0.0
 11
156.698
 21
-69.4305488527
 31
0.0
 12
156.698
 22
-70.4465488527
 32
0.0
 13
156.698
 23
-70.4465488527
 33
0.0
  0
LINE
  5
30F
330
30A
100
AcDbEntity
  8
SK2
100
AcDbLine
 10
-101.6
 20
-19.1625211762
 30
0.0
 11
-101.6
 21
-70.9385488527
 31
0.0
  0
LINE
  5
310
330
30A
100
AcDbEntity
  8
SK2
100
AcDbLine
 10
160.0
 20
-21.0
 30
0.0
 11
160.0
 21
-70.9385488527
 31
0.0
  0
LINE
  5
311
330
30A
100
AcDbEntity
  8
SK2
100
AcDbLine
 10
-101.6
 20
-69.9385488527
 30
0.0
 11
160.0
 21
-69.9385488527
 31
0.0
  0
MTEXT
  5
312
330
30A
100
AcDbEntity
  8
SK2
100
AcDbMText
 10
21.4821509438
 20
-65.4268119381
 30
0.0
 40
3.5
 41
0.0
 71
     1
 72
     1
  1
261,6
  7
SLDTEXTSTYLE0
 73
     1
 44
1.0
  0
ENDBLK
  5
30C
330
30A
100
AcDbEntity
  8
0
100
AcDbBlockEnd
  0
BLOCK
  5
315
330
314
100
AcDbEntity
  8
0
100
AcDbBlockBegin
  2
_D_9
 70
     0
 10
0.0
 20
0.0
 30
0.0
  3
_D_9
  1

  0
SOLID
  5
317
330
314
100
AcDbEntity
  8
SK2
100
AcDbTrace
 10
182.6520000319
 20
-25.0
 30
0.0
 11
183.1600000319
 21
-21.698
 31
0.0
 12
182.1440000319
 22
-21.698
 32
0.0
 13
182.1440000319
 23
-21.698
 33
0.0
  0
SOLID
  5
318
330
314
100
AcDbEntity
  8
SK2
100
AcDbTrace
 10
182.6520000319
 20
25.0
 30
0.0
 11
182.1440000319
 21
21.698
 31
0.0
 12
183.1600000319
 22
21.698
 32
0.0
 13
183.1600000319
 23
21.698
 33
0.0
  0
LINE
  5
319
330
314
100
AcDbEntity
  8
SK2
100
AcDbLine
 10
141.8042311538
 20
-25.0
 30
0.0
 11
183.6520000319
 21
-25.0
 31
0.0
  0
LINE
  5
31A
330
314
100
AcDbEntity
  8
SK2
100
AcDbLine
 10
141.8042311538
 20
25.0
 30
0.0
 11
183.6520000319
 21
25.0
 31
0.0
  0
LINE
  5
31B
330
314
100
AcDbEntity
  8
SK2
100
AcDbLine
 10
182.6520000319
 20
-25.0
 30
0.0
 11
182.6520000319
 21
25.0
 31
0.0
  0
MTEXT
  5
31C
330
314
100
AcDbEntity
  8
SK2
100
AcDbMText
 10
178.1402629426
 20
-5.6288636039
 30
0.0
 40
3.5
 41
0.0
 71
     1
 72
     1
  1
%%c
  7
SLDTEXTSTYLE0
 11
5.612347463083150E-15
 21
1.0
 31
0.0
 73
     1
 44
1.0
  0
MTEXT
  5
31D
330
314
100
AcDbEntity
  8
SK2
100
AcDbMText
 10
178.086790766
 20
-0.3504262055
 30
0.0
 40
3.5
 41
0.0
 71
     1
 72
     1
  1
50
  7
SLDTEXTSTYLE0
 11
5.612347463083150E-15
 21
1.0
 31
0.0
 73
     1
 44
1.0
  0
ENDBLK
  5
316
330
314
100
AcDbEntity
  8
0
100
AcDbBlockEnd
  0
BLOCK
  5
320
330
31F
100
AcDbEntity
  8
0
100
AcDbBlockBegin
  2
_D_10
 70
     0
 10
0.0
 20
0.0
 30
0.0
  3
_D_10
  1

  0
SOLID
  5
322
330
31F
100
AcDbEntity
  8
SK2
100
AcDbTrace
 10
172.0279792191
 20
-16.0
 30
0.0
 11
172.5359792191
 21
-12.698
 31
0.0
 12
171.5199792191
 22
-12.698
 32
0.0
 13
171.5199792191
 23
-12.698
 33
0.0
  0
SOLID
  5
323
330
31F
100
AcDbEntity
  8
SK2
100
AcDbTrace
 10
172.0279792191
 20
16.0
 30
0.0
 11
171.5199792191
 21
12.698
 31
0.0
 12
172.5359792191
 22
12.698
 32
0.0
 13
172.5359792191
 23
12.698
 33
0.0
  0
LINE
  5
324
330
31F
100
AcDbEntity
  8
SK2
100
AcDbLine
 10
147.479173101
 20
-16.0
 30
0.0
 11
173.0279792191
 21
-16.0
 31
0.0
  0
LINE
  5
325
330
31F
100
AcDbEntity
  8
SK2
100
AcDbLine
 10
147.479173101
 20
16.0
 30
0.0
 11
173.0279792191
 21
16.0
 31
0.0
  0
LINE
  5
326
330
31F
100
AcDbEntity
  8
SK2
100
AcDbLine
 10
172.0279792191
 20
-16.0
 30
0.0
 11
172.0279792191
 21
16.0
 31
0.0
  0
MTEXT
  5
327
330
31F
100
AcDbEntity
  8
SK2
100
AcDbMText
 10
167.5162421299
 20
-5.6288636039
 30
0.0
 40
3.5
 41
0.0
 71
     1
 72
     1
  1
%%c
  7
SLDTEXTSTYLE0
 11
6.123233995736766E-17
 21
1.0
 31
0.0
 73
     1
 44
1.0
  0
MTEXT
  5
328
330
31F
100
AcDbEntity
  8
SK2
100
AcDbMText
 10
167.4627699533
 20
-0.3504262055
 30
0.0
 40
3.5
 41
0.0
 71
     1
 72
     1
  1
32
  7
SLDTEXTSTYLE0
 11
6.123233995736766E-17
 21
1.0
 31
0.0
 73
     1
 44
1.0
  0
ENDBLK
  5
321
330
31F
100
AcDbEntity
  8
0
100
AcDbBlockEnd
  0
BLOCK
  5
32B
330
32A
100
AcDbEntity
  8
0
100
AcDbBlockBegin
  2
SW_NOTE_0
 70
     0
 10
0.0
 20
0.0
 30
0.0
  3
SW_NOTE_0
  1

  0
MTEXT
  5
32D
330
32A
100
AcDbEntity
  8
SK6
 62
     0
100
AcDbMText
 10
0.0
 20
4.5117370892
 30
0.0
 40
3.5
 41
0.0
 71
     1
 72
     1
  1
TAPER ISO 50
  7
SLDTEXTSTYLE0
 73
     1
 44
1.0
  0
MTEXT
  5
32E
330
32A
100
AcDbEntity
  8
SK6
 62
     0
100
AcDbMText
 10
0.0
 20
-0.0139574413
 30
0.0
 40
3.5
 41
0.0
 71
     1
 72
     1
  1
DIN 69871-AD/B
  7
SLDTEXTSTYLE0
 73
     1
 44
1.0
  0
ENDBLK
  5
32C
330
32A
100
AcDbEntity
  8
0
100
AcDbBlockEnd
  0
ENDSEC
  0
SECTION
  2
ENTITIES
  0
LINE
  5
90
330
1F
100
AcDbEntity
  8
1
  6
Continuous
370
    25
100
AcDbLine
 10
158.8302916355
 20
-22.0259943174
 30
0.0
 11
160.0
 21
-20.0
 31
0.0
  0
LINE
  5
91
330
1F
100
AcDbEntity
  8
1
  6
Continuous
370
    25
100
AcDbLine
 10
160.0
 20
20.0
 30
0.0
 11
158.8302916355
 21
22.0259943174
 31
0.0
  0
LINE
  5
92
330
1F
100
AcDbEntity
  8
1
  6
Continuous
370
    25
100
AcDbLine
 10
138.3
 20
25.0
 30
0.0
 11
137.5
 21
24.2
 31
0.0
  0
LINE
  5
93
330
1F
100
AcDbEntity
  8
1
  6
Continuous
370
    25
100
AcDbLine
 10
137.5
 20
-24.2
 30
0.0
 11
138.3
 21
-25.0
 31
0.0
  0
LINE
  5
94
330
1F
100
AcDbEntity
  8
1
  6
Continuous
370
    25
100
AcDbLine
 10
140.8042311538
 20
25.0
 30
0.0
 11
138.3
 21
25.0
 31
0.0
  0
LINE
  5
95
330
1F
100
AcDbEntity
  8
1
  6
Continuous
370
    25
100
AcDbLine
 10
138.3
 20
-25.0
 30
0.0
 11
140.8042311538
 21
-25.0
 31
0.0
  0
LINE
  5
96
330
1F
100
AcDbEntity
  8
1
  6
Continuous
370
    25
100
AcDbLine
 10
1.7476022729
 20
-34.925
 30
0.0
 11
2.1330363037
 21
-34.7452691597
 31
0.0
  0
LINE
  5
97
330
1F
100
AcDbEntity
  8
1
  6
Continuous
370
    25
100
AcDbLine
 10
2.1330363037
 20
34.7452691597
 30
0.0
 11
1.7476022729
 21
34.925
 31
0.0
  0
LINE
  5
98
330
1F
100
AcDbEntity
  8
SK1
  6
Continuous
370
    25
100
AcDbLine
 10
0.0
 20
34.925
 30
0.0
 11
-99.6746935114
 21
20.3889699458
 31
0.0
  0
LINE
  5
99
330
1F
100
AcDbEntity
  8
SK1
  6
Continuous
370
    25
100
AcDbLine
 10
-99.6746935114
 20
-20.3889699458
 30
0.0
 11
0.0
 21
-34.925
 31
0.0
  0
LINE
  5
9A
330
1F
100
AcDbEntity
  8
1
  6
Continuous
370
    25
100
AcDbLine
 10
1.7476022729
 20
34.925
 30
0.0
 11
0.0
 21
34.925
 31
0.0
  0
LINE
  5
9B
330
1F
100
AcDbEntity
  8
1
  6
Continuous
370
    25
100
AcDbLine
 10
0.0
 20
-34.925
 30
0.0
 11
1.7476022729
 21
-34.925
 31
0.0
  0
LINE
  5
9C
330
1F
100
AcDbEntity
  8
1
  6
Continuous
370
    25
100
AcDbLine
 10
118.8962523131
 20
24.8
 30
0.0
 11
22.05
 21
24.8
 31
0.0
  0
LINE
  5
9D
330
1F
100
AcDbEntity
  8
1
  6
Continuous
370
    25
100
AcDbLine
 10
22.05
 20
-24.8
 30
0.0
 11
118.8962523131
 21
-24.8
 31
0.0
  0
LINE
  5
9E
330
1F
100
AcDbEntity
  8
1
  6
Continuous
370
    25
100
AcDbLine
 10
118.8962523131
 20
-24.8
 30
0.0
 11
127.34
 21
-19.925
 31
0.0
  0
LINE
  5
9F
330
1F
100
AcDbEntity
  8
1
  6
Continuous
370
    25
100
AcDbLine
 10
127.34
 20
19.925
 30
0.0
 11
118.8962523131
 21
24.8
 31
0.0
  0
LINE
  5
A0
330
1F
100
AcDbEntity
  8
1
  6
Continuous
370
    25
100
AcDbLine
 10
137.5
 20
19.925
 30
0.0
 11
127.34
 21
19.925
 31
0.0
  0
LINE
  5
A1
330
1F
100
AcDbEntity
  8
1
  6
Continuous
370
    25
100
AcDbLine
 10
127.34
 20
-19.925
 30
0.0
 11
137.5
 21
-19.925
 31
0.0
  0
LINE
  5
A2
330
1F
100
AcDbEntity
  8
1
  6
Continuous
370
    25
100
AcDbLine
 10
157.1132486541
 20
24.7885843684
 30
0.0
 11
157.1132486541
 21
15.204018818
 31
0.0
  0
LINE
  5
A3
330
1F
100
AcDbEntity
  8
1
  6
Continuous
370
    25
100
AcDbLine
 10
158.7633963662
 20
22.0
 30
0.0
 11
157.1132486541
 21
24.7885843684
 31
0.0
  0
LINE
  5
A4
330
1F
100
AcDbEntity
  8
1
  6
Continuous
370
    25
100
AcDbLine
 10
157.1132486541
 20
-24.7885843684
 30
0.0
 11
158.7633963662
 21
-22.0
 31
0.0
  0
LINE
  5
A5
330
1F
100
AcDbEntity
  8
1
  6
Continuous
370
    25
100
AcDbLine
 10
157.1132486541
 20
-15.204018818
 30
0.0
 11
157.1132486541
 21
-24.7885843684
 31
0.0
  0
LINE
  5
A6
330
1F
100
AcDbEntity
  8
1
  6
Continuous
370
    25
100
AcDbLine
 10
158.7633963662
 20
-13.1671372615
 30
0.0
 11
157.1132486541
 21
-15.204018818
 31
0.0
  0
LINE
  5
A7
330
1F
100
AcDbEntity
  8
1
  6
Continuous
370
    25
100
AcDbLine
 10
157.1132486541
 20
-9.5845655504
 30
0.0
 11
158.7633963662
 21
-8.8328627385
 31
0.0
  0
LINE
  5
A8
330
1F
100
AcDbEntity
  8
1
  6
Continuous
370
    25
100
AcDbLine
 10
157.1132486541
 20
9.5845655504
 30
0.0
 11
157.1132486541
 21
-9.5845655504
 31
0.0
  0
LINE
  5
A9
330
1F
100
AcDbEntity
  8
1
  6
Continuous
370
    25
100
AcDbLine
 10
158.7633963662
 20
8.8328627385
 30
0.0
 11
157.1132486541
 21
9.5845655504
 31
0.0
  0
LINE
  5
AA
330
1F
100
AcDbEntity
  8
1
  6
Continuous
370
    25
100
AcDbLine
 10
157.1132486541
 20
15.204018818
 30
0.0
 11
158.7633963662
 21
13.1671372615
 31
0.0
  0
LINE
  5
AB
330
1F
100
AcDbEntity
  8
1
  6
Continuous
370
    25
100
AcDbLine
 10
160.0
 20
20.0
 30
0.0
 11
160.0
 21
-20.0
 31
0.0
  0
LINE
  5
AC
330
1F
100
AcDbEntity
  8
1
  6
Continuous
370
    25
100
AcDbLine
 10
137.5
 20
24.2
 30
0.0
 11
137.5
 21
-24.2
 31
0.0
  0
LINE
  5
AD
330
1F
100
AcDbEntity
  8
1
  6
Continuous
370
    25
100
AcDbLine
 10
138.3
 20
25.0
 30
0.0
 11
138.3
 21
-25.0
 31
0.0
  0
LINE
  5
AE
330
1F
100
AcDbEntity
  8
1
  6
Continuous
370
    25
100
AcDbLine
 10
157.1132486541
 20
9.5845655504
 30
0.0
 11
141.0593551787
 21
9.5845655504
 31
0.0
  0
LINE
  5
AF
330
1F
100
AcDbEntity
  8
1
  6
Continuous
370
    25
100
AcDbLine
 10
141.0593551787
 20
-9.5845655504
 30
0.0
 11
157.1132486541
 21
-9.5845655504
 31
0.0
  0
LINE
  5
B0
330
1F
100
AcDbEntity
  8
1
  6
Continuous
370
    25
100
AcDbLine
 10
157.1132486541
 20
-15.204018818
 30
0.0
 11
141.0593551787
 21
-15.204018818
 31
0.0
  0
LINE
  5
B1
330
1F
100
AcDbEntity
  8
1
  6
Continuous
370
    25
100
AcDbLine
 10
141.0593551787
 20
-24.7885843684
 30
0.0
 11
157.1132486541
 21
-24.7885843684
 31
0.0
  0
LINE
  5
B2
330
1F
100
AcDbEntity
  8
1
  6
Continuous
370
    25
100
AcDbLine
 10
157.1132486541
 20
24.7885843684
 30
0.0
 11
141.0593551787
 21
24.7885843684
 31
0.0
  0
LINE
  5
B3
330
1F
100
AcDbEntity
  8
1
  6
Continuous
370
    25
100
AcDbLine
 10
141.0593551787
 20
15.204018818
 30
0.0
 11
157.1132486541
 21
15.204018818
 31
0.0
  0
LINE
  5
B4
330
1F
100
AcDbEntity
  8
1
  6
Continuous
370
    25
100
AcDbLine
 10
149.0
 20
-13.1671372615
 30
0.0
 11
158.7633963662
 21
-13.1671372615
 31
0.0
  0
LINE
  5
B5
330
1F
100
AcDbEntity
  8
1
  6
Continuous
370
    25
100
AcDbLine
 10
158.7633963662
 20
13.1671372615
 30
0.0
 11
149.0
 21
13.1671372615
 31
0.0
  0
LINE
  5
B6
330
1F
100
AcDbEntity
  8
1
  6
Continuous
370
    25
100
AcDbLine
 10
3.95
 20
29.85
 30
0.0
 11
3.95
 21
-46.8399994947
 31
0.0
  0
LINE
  5
B7
330
1F
100
AcDbEntity
  8
1
  6
Continuous
370
    25
100
AcDbLine
 10
3.2
 20
-46.0865531391
 30
0.0
 11
3.2
 21
29.85
 31
0.0
  0
LINE
  5
B8
330
1F
100
AcDbEntity
  8
1
  6
Continuous
370
    25
100
AcDbLine
 10
18.3
 20
29.85
 30
0.0
 11
14.3331615075
 21
29.85
 31
0.0
  0
LINE
  5
B9
330
1F
100
AcDbEntity
  8
1
  6
Continuous
370
    25
100
AcDbLine
 10
18.3
 20
-46.8399836917
 30
0.0
 11
18.3
 21
29.85
 31
0.0
  0
LINE
  5
BA
330
1F
100
AcDbEntity
  8
1
  6
Continuous
370
    25
100
AcDbLine
 10
14.3331615075
 20
-46.8399836917
 30
0.0
 11
18.3
 21
-46.8399836917
 31
0.0
  0
LINE
  5
BB
330
1F
100
AcDbEntity
  8
1
  6
Continuous
370
    25
100
AcDbLine
 10
14.3331615075
 20
29.85
 30
0.0
 11
14.3331615075
 21
-46.8399836917
 31
0.0
  0
LINE
  5
BC
330
1F
100
AcDbEntity
  8
1
  6
Continuous
370
    25
100
AcDbLine
 10
7.8668384925
 20
29.85
 30
0.0
 11
3.95
 21
29.85
 31
0.0
  0
LINE
  5
BD
330
1F
100
AcDbEntity
  8
1
  6
Continuous
370
    25
100
AcDbLine
 10
7.8668384925
 20
29.85
 30
0.0
 11
7.8668384925
 21
-46.8399994947
 31
0.0
  0
LINE
  5
BE
330
1F
100
AcDbEntity
  8
1
  6
Continuous
370
    25
100
AcDbLine
 10
3.95
 20
-46.8399994947
 30
0.0
 11
7.8668384925
 21
-46.8399994947
 31
0.0
  0
LINE
  5
BF
330
1F
100
AcDbEntity
  8
1
  6
Continuous
370
    25
100
AcDbLine
 10
19.05
 20
29.85
 30
0.0
 11
19.05
 21
-46.0865437781
 31
0.0
  0
LINE
  5
C0
330
1F
100
AcDbEntity
  8
1
  6
Continuous
370
    25
100
AcDbLine
 10
9.185
 20
29.85
 30
0.0
 11
9.185
 21
-44.6143246819
 31
0.0
  0
LINE
  5
C1
330
1F
100
AcDbEntity
  8
1
  6
Continuous
370
    25
100
AcDbLine
 10
13.015
 20
29.85
 30
0.0
 11
13.015
 21
-44.6143246819
 31
0.0
  0
LINE
  5
C2
330
1F
100
AcDbEntity
  8
1
  6
Continuous
370
    25
100
AcDbLine
 10
12.265
 20
29.85
 30
0.0
 11
12.265
 21
-43.633015023
 31
0.0
  0
LINE
  5
C3
330
1F
100
AcDbEntity
  8
1
  6
Continuous
370
    25
100
AcDbLine
 10
9.935
 20
29.85
 30
0.0
 11
9.935
 21
-43.633015023
 31
0.0
  0
LINE
  5
C4
330
1F
100
AcDbEntity
  8
1
  6
Continuous
370
    25
100
AcDbLine
 10
9.935
 20
-43.633015023
 30
0.0
 11
12.265
 21
-43.633015023
 31
0.0
  0
LINE
  5
C5
330
1F
100
AcDbEntity
  8
1
  6
Continuous
370
    25
100
AcDbLine
 10
12.265
 20
29.85
 30
0.0
 11
9.935
 21
29.85
 31
0.0
  0
LINE
  5
C6
330
1F
100
AcDbEntity
  8
1
  6
Continuous
370
    25
100
AcDbLine
 10
1.7476022729
 20
34.925
 30
0.0
 11
1.7476022729
 21
-34.925
 31
0.0
  0
LINE
  5
C7
330
1F
100
AcDbEntity
  8
1
  6
Continuous
370
    25
100
AcDbLine
 10
0.0
 20
34.925
 30
0.0
 11
0.0
 21
-34.925
 31
0.0
  0
LINE
  5
C8
330
1F
100
AcDbEntity
  8
1
  6
Continuous
370
    25
100
AcDbLine
 10
3.2
 20
30.35
 30
0.0
 11
19.05
 21
30.35
 31
0.0
  0
LINE
  5
C9
330
1F
100
AcDbEntity
  8
1
  6
Continuous
370
    25
100
AcDbLine
 10
19.05
 20
30.35
 30
0.0
 11
19.05
 21
29.85
 31
0.0
  0
LINE
  5
CA
330
1F
100
AcDbEntity
  8
1
  6
Continuous
370
    25
100
AcDbLine
 10
3.2
 20
29.85
 30
0.0
 11
3.2
 21
30.35
 31
0.0
  0
LINE
  5
CB
330
1F
100
AcDbEntity
  8
1
  6
Continuous
370
    25
100
AcDbLine
 10
7.8668384925
 20
38.5110779517
 30
0.0
 11
3.95
 21
38.5110779517
 31
0.0
  0
LINE
  5
CC
330
1F
100
AcDbEntity
  8
1
  6
Continuous
370
    25
100
AcDbLine
 10
3.95
 20
46.8582312707
 30
0.0
 11
3.95
 21
38.5110779517
 31
0.0
  0
LINE
  5
CD
330
1F
100
AcDbEntity
  8
1
  6
Continuous
370
    25
100
AcDbLine
 10
7.8668384925
 20
46.8582312707
 30
0.0
 11
3.95
 21
46.8582312707
 31
0.0
  0
LINE
  5
CE
330
1F
100
AcDbEntity
  8
1
  6
Continuous
370
    25
100
AcDbLine
 10
7.8668384925
 20
46.8582312707
 30
0.0
 11
7.8668384925
 21
38.5110779517
 31
0.0
  0
LINE
  5
CF
330
1F
100
AcDbEntity
  8
1
  6
Continuous
370
    25
100
AcDbLine
 10
3.2
 20
37.5576639982
 30
0.0
 11
3.2
 21
46.1116918345
 31
0.0
  0
LINE
  5
D0
330
1F
100
AcDbEntity
  8
1
  6
Continuous
370
    25
100
AcDbLine
 10
18.3
 20
38.5110779517
 30
0.0
 11
18.3
 21
46.8582302434
 31
0.0
  0
LINE
  5
D1
330
1F
100
AcDbEntity
  8
1
  6
Continuous
370
    25
100
AcDbLine
 10
19.05
 20
46.1116909097
 30
0.0
 11
19.05
 21
37.5576639982
 31
0.0
  0
LINE
  5
D2
330
1F
100
AcDbEntity
  8
1
  6
Continuous
370
    25
100
AcDbLine
 10
18.3
 20
38.5110779517
 30
0.0
 11
14.3331615075
 21
38.5110779517
 31
0.0
  0
LINE
  5
D3
330
1F
100
AcDbEntity
  8
1
  6
Continuous
370
    25
100
AcDbLine
 10
14.3331615075
 20
46.8582302434
 30
0.0
 11
14.3331615075
 21
38.5110779517
 31
0.0
  0
LINE
  5
D4
330
1F
100
AcDbEntity
  8
1
  6
Continuous
370
    25
100
AcDbLine
 10
18.3
 20
46.8582302434
 30
0.0
 11
14.3331615075
 21
46.8582302434
 31
0.0
  0
LINE
  5
D5
330
1F
100
AcDbEntity
  8
1
  6
Continuous
370
    25
100
AcDbLine
 10
9.935
 20
43.633015023
 30
0.0
 11
9.935
 21
34.3398820615
 31
0.0
  0
LINE
  5
D6
330
1F
100
AcDbEntity
  8
1
  6
Continuous
370
    25
100
AcDbLine
 10
9.935
 20
43.633015023
 30
0.0
 11
12.265
 21
43.633015023
 31
0.0
  0
LINE
  5
D7
330
1F
100
AcDbEntity
  8
1
  6
Continuous
370
    25
100
AcDbLine
 10
12.265
 20
43.633015023
 30
0.0
 11
12.265
 21
34.3398820615
 31
0.0
  0
LINE
  5
D8
330
1F
100
AcDbEntity
  8
1
  6
Continuous
370
    25
100
AcDbLine
 10
12.265
 20
34.3398820615
 30
0.0
 11
9.935
 21
34.3398820615
 31
0.0
  0
LINE
  5
D9
330
1F
100
AcDbEntity
  8
1
  6
Continuous
370
    25
100
AcDbLine
 10
9.185
 20
44.6143246819
 30
0.0
 11
9.185
 21
35.5784410398
 31
0.0
  0
LINE
  5
DA
330
1F
100
AcDbEntity
  8
1
  6
Continuous
370
    25
100
AcDbLine
 10
13.015
 20
35.5784410398
 30
0.0
 11
13.015
 21
35.3276095993
 31
0.0
  0
LINE
  5
DB
330
1F
100
AcDbEntity
  8
1
  6
Continuous
370
    25
100
AcDbLine
 10
9.185
 20
35.3276095993
 30
0.0
 11
9.185
 21
35.5784410398
 31
0.0
  0
LINE
  5
DC
330
1F
100
AcDbEntity
  8
1
  6
Continuous
370
    25
100
AcDbLine
 10
19.05
 20
30.35
 30
0.0
 11
19.05
 21
37.5576639982
 31
0.0
  0
LINE
  5
DD
330
1F
100
AcDbEntity
  8
1
  6
Continuous
370
    25
100
AcDbLine
 10
3.2
 20
37.5576639982
 30
0.0
 11
3.2
 21
30.35
 31
0.0
  0
LINE
  5
DE
330
1F
100
AcDbEntity
  8
1
  6
Continuous
370
    25
100
AcDbLine
 10
13.015
 20
44.6143246819
 30
0.0
 11
13.015
 21
35.5784410398
 31
0.0
  0
LINE
  5
DF
330
1F
100
AcDbEntity
  8
1
  6
Continuous
370
    25
100
AcDbLine
 10
118.8962523131
 20
24.8
 30
0.0
 11
118.8962523131
 21
-24.8
 31
0.0
  0
LINE
  5
E0
330
1F
100
AcDbEntity
  8
1
  6
Continuous
370
    25
100
AcDbLine
 10
127.34
 20
19.925
 30
0.0
 11
127.34
 21
-19.925
 31
0.0
  0
LINE
  5
E1
330
1F
100
AcDbEntity
  8
SK1
  6
Continuous
370
    25
100
AcDbLine
 10
-101.6
 20
-18.1625211762
 30
0.0
 11
-101.6
 21
18.1625211762
 31
0.0
  0
LINE
  5
E2
330
1F
100
AcDbEntity
  8
1
  6
Continuous
370
    25
100
AcDbLine
 10
149.0
 20
-13.1671372615
 30
0.0
 11
149.0
 21
-9.5845655504
 31
0.0
  0
LINE
  5
E3
330
1F
100
AcDbEntity
  8
1
  6
Continuous
370
    25
100
AcDbLine
 10
149.0
 20
9.5845655504
 30
0.0
 11
149.0
 21
13.1671372615
 31
0.0
  0
LINE
  5
E4
330
1F
100
AcDbEntity
  8
1
  6
Continuous
370
    25
100
AcDbLine
 10
2.1330363037
 20
34.7452691597
 30
0.0
 11
2.1330363037
 21
-34.7452691597
 31
0.0
  0
LINE
  5
E5
330
1F
100
AcDbEntity
  8
SK1
  6
Continuous
370
    25
100
AcDbLine
 10
-99.6746935114
 20
0.0
 30
0.0
 11
-99.6746935114
 21
-20.3889699458
 31
0.0
  0
LINE
  5
E6
330
1F
100
AcDbEntity
  8
SK1
  6
Continuous
370
    25
100
AcDbLine
 10
-99.6746935114
 20
20.3889699458
 30
0.0
 11
-99.6746935114
 21
0.0
 31
0.0
  0
LINE
  5
E7
330
1F
100
AcDbEntity
  8
1
  6
Continuous
370
    25
100
AcDbLine
 10
22.05
 20
0.0
 30
0.0
 11
22.05
 21
-24.8
 31
0.0
  0
LINE
  5
E8
330
1F
100
AcDbEntity
  8
1
  6
Continuous
370
    25
100
AcDbLine
 10
22.05
 20
24.8
 30
0.0
 11
22.05
 21
0.0
 31
0.0
  0
LINE
  5
E9
330
1F
100
AcDbEntity
  8
SK3
  6
HIDDEN
370
    18
100
AcDbLine
 10
6.4723069743
 20
-13.9015950424
 30
0.0
 11
6.2856470952
 21
-13.1855138242
 31
0.0
  0
LINE
  5
EA
330
1F
100
AcDbEntity
  8
SK3
  6
HIDDEN
370
    18
100
AcDbLine
 10
6.2856470952
 20
-13.1855138242
 30
0.0
 11
5.989454318
 21
-12.5274452476
 31
0.0
  0
LINE
  5
EB
330
1F
100
AcDbEntity
  8
SK3
  6
HIDDEN
370
    18
100
AcDbLine
 10
5.989454318
 20
-12.5274452476
 30
0.0
 11
5.60772442
 21
-11.980702115
 31
0.0
  0
LINE
  5
EC
330
1F
100
AcDbEntity
  8
SK3
  6
HIDDEN
370
    18
100
AcDbLine
 10
5.60772442
 20
-11.980702115
 30
0.0
 11
5.1713828873
 21
-11.5895783033
 31
0.0
  0
LINE
  5
ED
330
1F
100
AcDbEntity
  8
SK3
  6
HIDDEN
370
    18
100
AcDbLine
 10
5.1713828873
 20
-11.5895783033
 30
0.0
 11
4.7157795159
 21
-11.3857603378
 31
0.0
  0
LINE
  5
EE
330
1F
100
AcDbEntity
  8
SK3
  6
HIDDEN
370
    18
100
AcDbLine
 10
4.7157795159
 20
-11.3857603378
 30
0.0
 11
4.2778245812
 21
-11.3857603378
 31
0.0
  0
LINE
  5
EF
330
1F
100
AcDbEntity
  8
SK3
  6
HIDDEN
370
    18
100
AcDbLine
 10
4.2778245812
 20
-11.3857603378
 30
0.0
 11
3.8929985876
 21
-11.5895783033
 31
0.0
  0
LINE
  5
F0
330
1F
100
AcDbEntity
  8
SK3
  6
HIDDEN
370
    18
100
AcDbLine
 10
3.8929985876
 20
-11.5895783033
 30
0.0
 11
3.5924778483
 21
-11.980702115
 31
0.0
  0
LINE
  5
F1
330
1F
100
AcDbEntity
  8
SK3
  6
HIDDEN
370
    18
100
AcDbLine
 10
3.5924778483
 20
-11.980702115
 30
0.0
 11
3.4006087665
 21
-12.5274452476
 31
0.0
  0
LINE
  5
F2
330
1F
100
AcDbEntity
  8
SK3
  6
HIDDEN
370
    18
100
AcDbLine
 10
3.4006087665
 20
-12.5274452476
 30
0.0
 11
3.3329354339
 21
-13.1855138242
 31
0.0
  0
LINE
  5
F3
330
1F
100
AcDbEntity
  8
SK3
  6
HIDDEN
370
    18
100
AcDbLine
 10
3.3329354339
 20
-13.1855138242
 30
0.0
 11
3.3949403416
 21
-13.9015950424
 31
0.0
  0
LINE
  5
F4
330
1F
100
AcDbEntity
  8
SK3
  6
HIDDEN
370
    18
100
AcDbLine
 10
3.3949403416
 20
-13.9015950424
 30
0.0
 11
3.5816002207
 21
-14.6176762606
 31
0.0
  0
LINE
  5
F5
330
1F
100
AcDbEntity
  8
SK3
  6
HIDDEN
370
    18
100
AcDbLine
 10
3.5816002207
 20
-14.6176762606
 30
0.0
 11
3.8777929979
 21
-15.2757448372
 31
0.0
  0
LINE
  5
F6
330
1F
100
AcDbEntity
  8
SK3
  6
HIDDEN
370
    18
100
AcDbLine
 10
3.8777929979
 20
-15.2757448372
 30
0.0
 11
4.2595228959
 21
-15.8224879698
 31
0.0
  0
LINE
  5
F7
330
1F
100
AcDbEntity
  8
SK3
  6
HIDDEN
370
    18
100
AcDbLine
 10
4.2595228959
 20
-15.8224879698
 30
0.0
 11
4.6958644286
 21
-16.2136117815
 31
0.0
  0
LINE
  5
F8
330
1F
100
AcDbEntity
  8
SK3
  6
HIDDEN
370
    18
100
AcDbLine
 10
4.6958644286
 20
-16.2136117815
 30
0.0
 11
5.1514678
 21
-16.417429747
 31
0.0
  0
LINE
  5
F9
330
1F
100
AcDbEntity
  8
SK3
  6
HIDDEN
370
    18
100
AcDbLine
 10
5.1514678
 20
-16.417429747
 30
0.0
 11
5.5894227346
 21
-16.417429747
 31
0.0
  0
LINE
  5
FA
330
1F
100
AcDbEntity
  8
SK3
  6
HIDDEN
370
    18
100
AcDbLine
 10
5.5894227346
 20
-16.417429747
 30
0.0
 11
5.9742487283
 21
-16.2136117815
 31
0.0
  0
LINE
  5
FB
330
1F
100
AcDbEntity
  8
SK3
  6
HIDDEN
370
    18
100
AcDbLine
 10
5.9742487283
 20
-16.2136117815
 30
0.0
 11
6.2747694675
 21
-15.8224879698
 31
0.0
  0
LINE
  5
FC
330
1F
100
AcDbEntity
  8
SK3
  6
HIDDEN
370
    18
100
AcDbLine
 10
6.2747694675
 20
-15.8224879698
 30
0.0
 11
6.4666385494
 21
-15.2757448372
 31
0.0
  0
LINE
  5
FD
330
1F
100
AcDbEntity
  8
SK3
  6
HIDDEN
370
    18
100
AcDbLine
 10
6.4666385494
 20
-15.2757448372
 30
0.0
 11
6.5343118819
 21
-14.6176762606
 31
0.0
  0
LINE
  5
FE
330
1F
100
AcDbEntity
  8
SK3
  6
HIDDEN
370
    18
100
AcDbLine
 10
6.5343118819
 20
-14.6176762606
 30
0.0
 11
6.4723069743
 21
-13.9015950424
 31
0.0
  0
LINE
  5
FF
330
1F
100
AcDbEntity
  8
SK3
  6
HIDDEN
370
    18
100
AcDbLine
 10
3.2
 20
-11.6748484571
 30
0.0
 11
3.2
 21
-17.0506447969
 31
0.0
  0
LINE
  5
100
330
1F
100
AcDbEntity
  8
SK3
  6
HIDDEN
370
    18
100
AcDbLine
 10
3.2
 20
-15.0483796974
 30
0.0
 11
3.2
 21
-15.9034435425
 31
0.0
  0
LINE
  5
101
330
1F
100
AcDbEntity
  8
SK3
  6
HIDDEN
370
    18
100
AcDbLine
 10
6.3835367829
 20
-13.9015950424
 30
0.0
 11
6.1965463437
 21
-13.1956361379
 31
0.0
  0
LINE
  5
102
330
1F
100
AcDbEntity
  8
SK3
  6
HIDDEN
370
    18
100
AcDbLine
 10
6.1965463437
 20
-13.1956361379
 30
0.0
 11
5.8973396816
 21
-12.5524047801
 31
0.0
  0
LINE
  5
103
330
1F
100
AcDbEntity
  8
SK3
  6
HIDDEN
370
    18
100
AcDbLine
 10
5.8973396816
 20
-12.5524047801
 30
0.0
 11
5.5125026217
 21
-12.029054898
 31
0.0
  0
LINE
  5
104
330
1F
100
AcDbEntity
  8
SK3
  6
HIDDEN
370
    18
100
AcDbLine
 10
5.5125026217
 20
-12.029054898
 30
0.0
 11
5.0762296254
 21
-11.6720884251
 31
0.0
  0
LINE
  5
105
330
1F
100
AcDbEntity
  8
SK3
  6
HIDDEN
370
    18
100
AcDbLine
 10
5.0762296254
 20
-11.6720884251
 30
0.0
 11
4.6272854631
 21
-11.5132233993
 31
0.0
  0
LINE
  5
106
330
1F
100
AcDbEntity
  8
SK3
  6
HIDDEN
370
    18
100
AcDbLine
 10
4.6272854631
 20
-11.5132233993
 30
0.0
 11
4.2055607937
 21
-11.5665756751
 31
0.0
  0
LINE
  5
107
330
1F
100
AcDbEntity
  8
SK3
  6
HIDDEN
370
    18
100
AcDbLine
 10
4.2055607937
 20
-11.5665756751
 30
0.0
 11
3.8485277049
 21
-11.8274046688
 31
0.0
  0
LINE
  5
108
330
1F
100
AcDbEntity
  8
SK3
  6
HIDDEN
370
    18
100
AcDbLine
 10
3.8485277049
 20
-11.8274046688
 30
0.0
 11
3.5879101534
 21
-12.2725345796
 31
0.0
  0
LINE
  5
109
330
1F
100
AcDbEntity
  8
SK3
  6
HIDDEN
370
    18
100
AcDbLine
 10
3.5879101534
 20
-12.2725345796
 30
0.0
 11
3.4468651523
 21
-12.8624136616
 31
0.0
  0
LINE
  5
10A
330
1F
100
AcDbEntity
  8
SK3
  6
HIDDEN
370
    18
100
AcDbLine
 10
3.4468651523
 20
-12.8624136616
 30
0.0
 11
3.437925169
 21
-13.5446285696
 31
0.0
  0
LINE
  5
10B
330
1F
100
AcDbEntity
  8
SK3
  6
HIDDEN
370
    18
100
AcDbLine
 10
3.437925169
 20
-13.5446285696
 30
0.0
 11
3.5618845602
 21
-14.2585615152
 31
0.0
  0
LINE
  5
10C
330
1F
100
AcDbEntity
  8
SK3
  6
HIDDEN
370
    18
100
AcDbLine
 10
3.5618845602
 20
-14.2585615152
 30
0.0
 11
3.80772899
 21
-14.9407764232
 31
0.0
  0
LINE
  5
10D
330
1F
100
AcDbEntity
  8
SK3
  6
HIDDEN
370
    18
100
AcDbLine
 10
3.80772899
 20
-14.9407764232
 30
0.0
 11
4.1536141019
 21
-15.5306555052
 31
0.0
  0
LINE
  5
10E
330
1F
100
AcDbEntity
  8
SK3
  6
HIDDEN
370
    18
100
AcDbLine
 10
4.1536141019
 20
-15.5306555052
 30
0.0
 11
4.568806486
 21
-15.975785416
 31
0.0
  0
LINE
  5
10F
330
1F
100
AcDbEntity
  8
SK3
  6
HIDDEN
370
    18
100
AcDbLine
 10
4.568806486
 20
-15.975785416
 30
0.0
 11
5.0164144767
 21
-16.2366144097
 31
0.0
  0
LINE
  5
110
330
1F
100
AcDbEntity
  8
SK3
  6
HIDDEN
370
    18
100
AcDbLine
 10
5.0164144767
 20
-16.2366144097
 30
0.0
 11
5.4566661398
 21
-16.2899666855
 31
0.0
  0
LINE
  5
111
330
1F
100
AcDbEntity
  8
SK3
  6
HIDDEN
370
    18
100
AcDbLine
 10
5.4566661398
 20
-16.2899666855
 30
0.0
 11
5.8504431831
 21
-16.1311016597
 31
0.0
  0
LINE
  5
112
330
1F
100
AcDbEntity
  8
SK3
  6
HIDDEN
370
    18
100
AcDbLine
 10
5.8504431831
 20
-16.1311016597
 30
0.0
 11
6.1627567882
 21
-15.7741351869
 31
0.0
  0
LINE
  5
113
330
1F
100
AcDbEntity
  8
SK3
  6
HIDDEN
370
    18
100
AcDbLine
 10
6.1627567882
 20
-15.7741351869
 30
0.0
 11
6.3658565207
 21
-15.2507853047
 31
0.0
  0
LINE
  5
114
330
1F
100
AcDbEntity
  8
SK3
  6
HIDDEN
370
    18
100
AcDbLine
 10
6.3658565207
 20
-15.2507853047
 30
0.0
 11
6.4416960781
 21
-14.6075539469
 31
0.0
  0
LINE
  5
115
330
1F
100
AcDbEntity
  8
SK3
  6
HIDDEN
370
    18
100
AcDbLine
 10
6.4416960781
 20
-14.6075539469
 30
0.0
 11
6.3835367829
 21
-13.9015950424
 31
0.0
  0
LINE
  5
116
330
1F
100
AcDbEntity
  8
SK3
  6
HIDDEN
370
    18
100
AcDbLine
 10
17.1792841073
 20
-11.0168048658
 30
0.0
 11
16.9922936681
 21
-10.3108459613
 31
0.0
  0
LINE
  5
117
330
1F
100
AcDbEntity
  8
SK3
  6
HIDDEN
370
    18
100
AcDbLine
 10
16.9922936681
 20
-10.3108459613
 30
0.0
 11
16.6930870061
 21
-9.6676146035
 31
0.0
  0
LINE
  5
118
330
1F
100
AcDbEntity
  8
SK3
  6
HIDDEN
370
    18
100
AcDbLine
 10
16.6930870061
 20
-9.6676146035
 30
0.0
 11
16.3082499461
 21
-9.1442647213
 31
0.0
  0
LINE
  5
119
330
1F
100
AcDbEntity
  8
SK3
  6
HIDDEN
370
    18
100
AcDbLine
 10
16.3082499461
 20
-9.1442647213
 30
0.0
 11
15.8719769498
 21
-8.7872982485
 31
0.0
  0
LINE
  5
11A
330
1F
100
AcDbEntity
  8
SK3
  6
HIDDEN
370
    18
100
AcDbLine
 10
15.8719769498
 20
-8.7872982485
 30
0.0
 11
15.4230327875
 21
-8.6284332227
 31
0.0
  0
LINE
  5
11B
330
1F
100
AcDbEntity
  8
SK3
  6
HIDDEN
370
    18
100
AcDbLine
 10
15.4230327875
 20
-8.6284332227
 30
0.0
 11
15.0013081181
 21
-8.6817854985
 31
0.0
  0
LINE
  5
11C
330
1F
100
AcDbEntity
  8
SK3
  6
HIDDEN
370
    18
100
AcDbLine
 10
15.0013081181
 20
-8.6817854985
 30
0.0
 11
14.6442750293
 21
-8.9426144922
 31
0.0
  0
LINE
  5
11D
330
1F
100
AcDbEntity
  8
SK3
  6
HIDDEN
370
    18
100
AcDbLine
 10
14.6442750293
 20
-8.9426144922
 30
0.0
 11
14.3836574778
 21
-9.387744403
 31
0.0
  0
LINE
  5
11E
330
1F
100
AcDbEntity
  8
SK3
  6
HIDDEN
370
    18
100
AcDbLine
 10
14.3836574778
 20
-9.387744403
 30
0.0
 11
14.2426124767
 21
-9.977623485
 31
0.0
  0
LINE
  5
11F
330
1F
100
AcDbEntity
  8
SK3
  6
HIDDEN
370
    18
100
AcDbLine
 10
14.2426124767
 20
-9.977623485
 30
0.0
 11
14.2336724934
 21
-10.659838393
 31
0.0
  0
LINE
  5
120
330
1F
100
AcDbEntity
  8
SK3
  6
HIDDEN
370
    18
100
AcDbLine
 10
14.2336724934
 20
-10.659838393
 30
0.0
 11
14.3576318846
 21
-11.3737713386
 31
0.0
  0
LINE
  5
121
330
1F
100
AcDbEntity
  8
SK3
  6
HIDDEN
370
    18
100
AcDbLine
 10
14.3576318846
 20
-11.3737713386
 30
0.0
 11
14.6034763144
 21
-12.0559862466
 31
0.0
  0
LINE
  5
122
330
1F
100
AcDbEntity
  8
SK3
  6
HIDDEN
370
    18
100
AcDbLine
 10
14.6034763144
 20
-12.0559862466
 30
0.0
 11
14.9493614264
 21
-12.6458653286
 31
0.0
  0
LINE
  5
123
330
1F
100
AcDbEntity
  8
SK3
  6
HIDDEN
370
    18
100
AcDbLine
 10
14.9493614264
 20
-12.6458653286
 30
0.0
 11
15.3645538104
 21
-13.0909952394
 31
0.0
  0
LINE
  5
124
330
1F
100
AcDbEntity
  8
SK3
  6
HIDDEN
370
    18
100
AcDbLine
 10
15.3645538104
 20
-13.0909952394
 30
0.0
 11
15.8121618011
 21
-13.3518242331
 31
0.0
  0
LINE
  5
125
330
1F
100
AcDbEntity
  8
SK3
  6
HIDDEN
370
    18
100
AcDbLine
 10
15.8121618011
 20
-13.3518242331
 30
0.0
 11
16.2524134643
 21
-13.4051765089
 31
0.0
  0
LINE
  5
126
330
1F
100
AcDbEntity
  8
SK3
  6
HIDDEN
370
    18
100
AcDbLine
 10
16.2524134643
 20
-13.4051765089
 30
0.0
 11
16.6461905076
 21
-13.2463114831
 31
0.0
  0
LINE
  5
127
330
1F
100
AcDbEntity
  8
SK3
  6
HIDDEN
370
    18
100
AcDbLine
 10
16.6461905076
 20
-13.2463114831
 30
0.0
 11
16.9585041126
 21
-12.8893450102
 31
0.0
  0
LINE
  5
128
330
1F
100
AcDbEntity
  8
SK3
  6
HIDDEN
370
    18
100
AcDbLine
 10
16.9585041126
 20
-12.8893450102
 30
0.0
 11
17.1616038452
 21
-12.3659951281
 31
0.0
  0
LINE
  5
129
330
1F
100
AcDbEntity
  8
SK3
  6
HIDDEN
370
    18
100
AcDbLine
 10
17.1616038452
 20
-12.3659951281
 30
0.0
 11
17.2374434025
 21
-11.7227637703
 31
0.0
  0
LINE
  5
12A
330
1F
100
AcDbEntity
  8
SK3
  6
HIDDEN
370
    18
100
AcDbLine
 10
17.2374434025
 20
-11.7227637703
 30
0.0
 11
17.1792841073
 21
-11.0168048658
 31
0.0
  0
LINE
  5
12B
330
1F
100
AcDbEntity
  8
SK3
  6
HIDDEN
370
    18
100
AcDbLine
 10
11.125
 20
-15.6673742401
 30
0.0
 11
10.5289512508
 21
-15.5626729163
 31
0.0
  0
LINE
  5
12C
330
1F
100
AcDbEntity
  8
SK3
  6
HIDDEN
370
    18
100
AcDbLine
 10
10.5289512508
 20
-15.5626729163
 30
0.0
 11
10.013402188
 21
-15.262709439
 31
0.0
  0
LINE
  5
12D
330
1F
100
AcDbEntity
  8
SK3
  6
HIDDEN
370
    18
100
AcDbLine
 10
10.013402188
 20
-15.262709439
 30
0.0
 11
9.6479805693
 21
-14.8079955379
 31
0.0
  0
LINE
  5
12E
330
1F
100
AcDbEntity
  8
SK3
  6
HIDDEN
370
    18
100
AcDbLine
 10
9.6479805693
 20
-14.8079955379
 30
0.0
 11
9.4820386091
 21
-14.259942845
 31
0.0
  0
LINE
  5
12F
330
1F
100
AcDbEntity
  8
SK3
  6
HIDDEN
370
    18
100
AcDbLine
 10
9.4820386091
 20
-14.259942845
 30
0.0
 11
9.5379876888
 21
-13.6925689134
 31
0.0
  0
LINE
  5
130
330
1F
100
AcDbEntity
  8
SK3
  6
HIDDEN
370
    18
100
AcDbLine
 10
9.5379876888
 20
-13.6925689134
 30
0.0
 11
9.808271575
 21
-13.1825007364
 31
0.0
  0
LINE
  5
131
330
1F
100
AcDbEntity
  8
SK3
  6
HIDDEN
370
    18
100
AcDbLine
 10
9.808271575
 20
-13.1825007364
 30
0.0
 11
10.2563869313
 21
-12.7986258477
 31
0.0
  0
LINE
  5
132
330
1F
100
AcDbEntity
  8
SK3
  6
HIDDEN
370
    18
100
AcDbLine
 10
10.2563869313
 20
-12.7986258477
 30
0.0
 11
10.8218132956
 21
-12.5927886782
 31
0.0
  0
LINE
  5
133
330
1F
100
AcDbEntity
  8
SK3
  6
HIDDEN
370
    18
100
AcDbLine
 10
10.8218132956
 20
-12.5927886782
 30
0.0
 11
11.4281867044
 21
-12.5927886782
 31
0.0
  0
LINE
  5
134
330
1F
100
AcDbEntity
  8
SK3
  6
HIDDEN
370
    18
100
AcDbLine
 10
11.4281867044
 20
-12.5927886782
 30
0.0
 11
11.9936130687
 21
-12.7986258477
 31
0.0
  0
LINE
  5
135
330
1F
100
AcDbEntity
  8
SK3
  6
HIDDEN
370
    18
100
AcDbLine
 10
11.9936130687
 20
-12.7986258477
 30
0.0
 11
12.441728425
 21
-13.1825007364
 31
0.0
  0
LINE
  5
136
330
1F
100
AcDbEntity
  8
SK3
  6
HIDDEN
370
    18
100
AcDbLine
 10
12.441728425
 20
-13.1825007364
 30
0.0
 11
12.7120123112
 21
-13.6925689134
 31
0.0
  0
LINE
  5
137
330
1F
100
AcDbEntity
  8
SK3
  6
HIDDEN
370
    18
100
AcDbLine
 10
12.7120123112
 20
-13.6925689134
 30
0.0
 11
12.7679613909
 21
-14.259942845
 31
0.0
  0
LINE
  5
138
330
1F
100
AcDbEntity
  8
SK3
  6
HIDDEN
370
    18
100
AcDbLine
 10
12.7679613909
 20
-14.259942845
 30
0.0
 11
12.6020194307
 21
-14.8079955379
 31
0.0
  0
LINE
  5
139
330
1F
100
AcDbEntity
  8
SK3
  6
HIDDEN
370
    18
100
AcDbLine
 10
12.6020194307
 20
-14.8079955379
 30
0.0
 11
12.236597812
 21
-15.262709439
 31
0.0
  0
LINE
  5
13A
330
1F
100
AcDbEntity
  8
SK3
  6
HIDDEN
370
    18
100
AcDbLine
 10
12.236597812
 20
-15.262709439
 30
0.0
 11
11.7210487492
 21
-15.5626729163
 31
0.0
  0
LINE
  5
13B
330
1F
100
AcDbEntity
  8
SK3
  6
HIDDEN
370
    18
100
AcDbLine
 10
11.7210487492
 20
-15.5626729163
 30
0.0
 11
11.125
 21
-15.6673742401
 31
0.0
  0
LINE
  5
13C
330
1F
100
AcDbEntity
  8
SK3
  6
HIDDEN
370
    18
100
AcDbLine
 10
3.2
 20
-35.3
 30
0.0
 11
3.2
 21
-35.425
 31
0.0
  0
LINE
  5
13D
330
1F
100
AcDbEntity
  8
SK3
  6
HIDDEN
370
    18
100
AcDbLine
 10
146.479173101
 20
-16.0
 30
0.0
 11
146.479173101
 21
16.0
 31
0.0
  0
LINE
  5
13E
330
1F
100
AcDbEntity
  8
SK3
  6
HIDDEN
370
    18
100
AcDbLine
 10
147.34
 20
-16.9838169833
 30
0.0
 11
147.34
 21
16.9838169833
 31
0.0
  0
LINE
  5
13F
330
1F
100
AcDbEntity
  8
SK3
  6
HIDDEN
370
    18
100
AcDbLine
 10
117.34
 20
-11.9047562899
 30
0.0
 11
117.34
 21
11.9047562899
 31
0.0
  0
LINE
  5
140
330
1F
100
AcDbEntity
  8
SK3
  6
HIDDEN
370
    18
100
AcDbLine
 10
-99.85
 20
-12.505
 30
0.0
 11
-99.85
 21
12.505
 31
0.0
  0
LINE
  5
141
330
1F
100
AcDbEntity
  8
SK3
  6
HIDDEN
370
    18
100
AcDbLine
 10
-101.6
 20
-13.5089529009
 30
0.0
 11
-101.6
 21
13.5089529009
 31
0.0
  0
LINE
  5
142
330
1F
100
AcDbEntity
  8
SK3
  6
HIDDEN
370
    18
100
AcDbLine
 10
3.540624663
 20
-46.0865531391
 30
0.0
 11
3.540624663
 21
-35.8
 31
0.0
  0
LINE
  5
143
330
1F
100
AcDbEntity
  8
SK3
  6
HIDDEN
370
    18
100
AcDbLine
 10
18.7092940355
 20
-36.2297308753
 30
0.0
 11
18.7092940355
 21
-46.0865437781
 31
0.0
  0
LINE
  5
144
330
1F
100
AcDbEntity
  8
SK3
  6
HIDDEN
370
    18
100
AcDbLine
 10
8.1305218536
 20
-46.5125524132
 30
0.0
 11
3.95
 21
-46.5125524132
 31
0.0
  0
LINE
  5
145
330
1F
100
AcDbEntity
  8
SK3
  6
HIDDEN
370
    18
100
AcDbLine
 10
18.3
 20
-46.5124585645
 30
0.0
 11
14.0694259337
 21
-46.5124585645
 31
0.0
  0
LINE
  5
146
330
1F
100
AcDbEntity
  8
1
  6
HIDDEN
370
    18
100
AcDbLine
 10
9.185
 20
-44.6143246819
 30
0.0
 11
9.185
 21
-44.4145527952
 31
0.0
  0
LINE
  5
147
330
1F
100
AcDbEntity
  8
1
  6
HIDDEN
370
    18
100
AcDbLine
 10
13.015
 20
-44.4145527952
 30
0.0
 11
13.015
 21
-44.6143246819
 31
0.0
  0
LINE
  5
148
330
1F
100
AcDbEntity
  8
SK3
  6
HIDDEN
370
    18
100
AcDbLine
 10
3.6277750383
 20
38.2782829617
 30
0.0
 11
3.6277750383
 21
46.1116918345
 31
0.0
  0
LINE
  5
149
330
1F
100
AcDbEntity
  8
SK3
  6
HIDDEN
370
    18
100
AcDbLine
 10
18.6222236797
 20
46.1116909097
 30
0.0
 11
18.6222236797
 21
38.2782803256
 31
0.0
  0
LINE
  5
14A
330
1F
100
AcDbEntity
  8
SK3
  6
HIDDEN
370
    18
100
AcDbLine
 10
3.95
 20
46.4468452948
 30
0.0
 11
8.1670761257
 21
46.4468452948
 31
0.0
  0
LINE
  5
14B
330
1F
100
AcDbEntity
  8
SK3
  6
HIDDEN
370
    18
100
AcDbLine
 10
14.032922622
 20
46.4468430436
 30
0.0
 11
18.3
 21
46.4468430436
 31
0.0
  0
LINE
  5
14C
330
1F
100
AcDbEntity
  8
1
  6
HIDDEN
370
    18
100
AcDbLine
 10
13.015
 20
44.4145527952
 30
0.0
 11
13.015
 21
44.6143246819
 31
0.0
  0
LINE
  5
14D
330
1F
100
AcDbEntity
  8
1
  6
HIDDEN
370
    18
100
AcDbLine
 10
9.185
 20
44.6143246819
 30
0.0
 11
9.185
 21
44.4145527952
 31
0.0
  0
LINE
  5
14E
330
1F
100
AcDbEntity
  8
SK3
  6
HIDDEN
370
    18
100
AcDbLine
 10
18.55
 20
-35.3
 30
0.0
 11
3.540624663
 21
-35.3
 31
0.0
  0
LINE
  5
14F
330
1F
100
AcDbEntity
  8
SK3
  6
HIDDEN
370
    18
100
AcDbLine
 10
3.540624663
 20
-35.8
 30
0.0
 11
18.55
 21
-35.8
 31
0.0
  0
LINE
  5
150
330
1F
100
AcDbEntity
  8
SK3
  6
HIDDEN
370
    18
100
AcDbLine
 10
3.7
 20
37.5
 30
0.0
 11
18.55
 21
37.5
 31
0.0
  0
LINE
  5
151
330
1F
100
AcDbEntity
  8
SK3
  6
HIDDEN
370
    18
100
AcDbLine
 10
18.55
 20
38.0
 30
0.0
 11
3.7
 21
38.0
 31
0.0
  0
LINE
  5
152
330
1F
100
AcDbEntity
  8
SK3
  6
HIDDEN
370
    18
100
AcDbLine
 10
-92.85
 20
-12.875
 30
0.0
 11
-92.85
 21
12.875
 31
0.0
  0
LINE
  5
153
330
1F
100
AcDbEntity
  8
SK3
  6
HIDDEN
370
    18
100
AcDbLine
 10
-93.4908587988
 20
-12.505
 30
0.0
 11
-93.4908587988
 21
12.505
 31
0.0
  0
LINE
  5
154
330
1F
100
AcDbEntity
  8
SK3
  6
HIDDEN
370
    18
100
AcDbLine
 10
-89.85
 20
-12.875
 30
0.0
 11
-89.85
 21
12.875
 31
0.0
  0
LINE
  5
155
330
1F
100
AcDbEntity
  8
SK3
  6
HIDDEN
370
    18
100
AcDbLine
 10
-88.4787931107
 20
-10.5
 30
0.0
 11
-88.4787931107
 21
10.5
 31
0.0
  0
LINE
  5
156
330
1F
100
AcDbEntity
  8
SK3
  6
HIDDEN
370
    18
100
AcDbLine
 10
117.34
 20
-12.05
 30
0.0
 11
117.34
 21
12.05
 31
0.0
  0
LINE
  5
157
330
1F
100
AcDbEntity
  8
SK3
  6
HIDDEN
370
    18
100
AcDbLine
 10
112.34
 20
-12.05
 30
0.0
 11
112.34
 21
12.05
 31
0.0
  0
LINE
  5
158
330
1F
100
AcDbEntity
  8
SK3
  6
HIDDEN
370
    18
100
AcDbLine
 10
111.2584508858
 20
10.25
 30
0.0
 11
111.2584508858
 21
-10.25
 31
0.0
  0
LINE
  5
159
330
1F
100
AcDbEntity
  8
SK3
  6
HIDDEN
370
    18
100
AcDbLine
 10
18.4
 20
-10.5
 30
0.0
 11
18.4
 21
10.5
 31
0.0
  0
LINE
  5
15A
330
1F
100
AcDbEntity
  8
SK3
  6
HIDDEN
370
    18
100
AcDbLine
 10
18.5502151548
 20
10.25
 30
0.0
 11
18.5502151548
 21
-10.25
 31
0.0
  0
LINE
  5
15B
330
1F
100
AcDbEntity
  8
SK3
  6
HIDDEN
370
    18
100
AcDbLine
 10
6.4
 20
32.8
 30
0.0
 11
15.8
 21
32.8
 31
0.0
  0
LINE
  5
15C
330
1F
100
AcDbEntity
  8
SK3
  6
HIDDEN
370
    18
100
AcDbLine
 10
16.1
 20
33.1
 30
0.0
 11
6.125653383
 21
33.1
 31
0.0
  0
LINE
  5
15D
330
1F
100
AcDbEntity
  8
SK3
  6
HIDDEN
370
    18
100
AcDbLine
 10
6.1
 20
37.5
 30
0.0
 11
16.074346617
 21
37.5
 31
0.0
  0
LINE
  5
15E
330
1F
100
AcDbEntity
  8
SK3
  6
HIDDEN
370
    18
100
AcDbLine
 10
18.55
 20
-35.8
 30
0.0
 11
3.5407342411
 21
-35.8
 31
0.0
  0
LINE
  5
15F
330
1F
100
AcDbEntity
  8
SK3
  6
HIDDEN
370
    18
100
AcDbLine
 10
3.5407342411
 20
-35.3
 30
0.0
 11
18.55
 21
-35.3
 31
0.0
  0
LINE
  5
160
330
1F
100
AcDbEntity
  8
SK3
  6
HIDDEN
370
    18
100
AcDbLine
 10
14.0694081417
 20
-46.5124265845
 30
0.0
 11
18.3
 21
-46.5124265845
 31
0.0
  0
LINE
  5
161
330
1F
100
AcDbEntity
  8
1
  6
HIDDEN
370
    18
100
AcDbLine
 10
12.265
 20
-43.633015023
 30
0.0
 11
9.935
 21
-43.633015023
 31
0.0
  0
LINE
  5
162
330
1F
100
AcDbEntity
  8
SK3
  6
HIDDEN
370
    18
100
AcDbLine
 10
3.95
 20
-46.5124259237
 30
0.0
 11
8.130592226
 21
-46.5124259237
 31
0.0
  0
LINE
  5
163
330
1F
100
AcDbEntity
  8
SK3
  6
HIDDEN
370
    18
100
AcDbLine
 10
3.5407342411
 20
-35.8
 30
0.0
 11
3.5407342411
 21
-46.0865405219
 31
0.0
  0
LINE
  5
164
330
1F
100
AcDbEntity
  8
SK3
  6
HIDDEN
370
    18
100
AcDbLine
 10
18.7092663314
 20
-46.0865405879
 30
0.0
 11
18.7092663314
 21
-36.2296883704
 31
0.0
  0
LINE
  5
165
330
1F
100
AcDbEntity
  8
SK3
  6
HIDDEN
370
    18
100
AcDbLine
 10
18.3
 20
46.4467826513
 30
0.0
 11
14.0328890261
 21
46.4467826513
 31
0.0
  0
LINE
  5
166
330
1F
100
AcDbEntity
  8
SK3
  6
HIDDEN
370
    18
100
AcDbLine
 10
3.6277899929
 20
46.1116810474
 30
0.0
 11
3.6277899929
 21
38.2782522098
 31
0.0
  0
LINE
  5
167
330
1F
100
AcDbEntity
  8
SK3
  6
HIDDEN
370
    18
100
AcDbLine
 10
8.1670907337
 20
46.4468190352
 30
0.0
 11
3.95
 21
46.4468190352
 31
0.0
  0
LINE
  5
168
330
1F
100
AcDbEntity
  8
1
  6
HIDDEN
370
    18
100
AcDbLine
 10
12.265
 20
43.633015023
 30
0.0
 11
9.935
 21
43.633015023
 31
0.0
  0
LINE
  5
169
330
1F
100
AcDbEntity
  8
SK3
  6
HIDDEN
370
    18
100
AcDbLine
 10
18.6221892861
 20
38.2782095956
 30
0.0
 11
18.6221892861
 21
46.1116661022
 31
0.0
  0
LINE
  5
16A
330
1F
100
AcDbEntity
  8
SK3
  6
HIDDEN
370
    18
100
AcDbLine
 10
3.4837105329
 20
13.9015950424
 30
0.0
 11
3.6707009721
 21
14.6075539469
 31
0.0
  0
LINE
  5
16B
330
1F
100
AcDbEntity
  8
SK3
  6
HIDDEN
370
    18
100
AcDbLine
 10
3.6707009721
 20
14.6075539469
 30
0.0
 11
3.9699076342
 21
15.2507853047
 31
0.0
  0
LINE
  5
16C
330
1F
100
AcDbEntity
  8
SK3
  6
HIDDEN
370
    18
100
AcDbLine
 10
3.9699076342
 20
15.2507853047
 30
0.0
 11
4.3547446942
 21
15.7741351869
 31
0.0
  0
LINE
  5
16D
330
1F
100
AcDbEntity
  8
SK3
  6
HIDDEN
370
    18
100
AcDbLine
 10
4.3547446942
 20
15.7741351869
 30
0.0
 11
4.7910176905
 21
16.1311016597
 31
0.0
  0
LINE
  5
16E
330
1F
100
AcDbEntity
  8
SK3
  6
HIDDEN
370
    18
100
AcDbLine
 10
4.7910176905
 20
16.1311016597
 30
0.0
 11
5.2399618528
 21
16.2899666855
 31
0.0
  0
LINE
  5
16F
330
1F
100
AcDbEntity
  8
SK3
  6
HIDDEN
370
    18
100
AcDbLine
 10
5.2399618528
 20
16.2899666855
 30
0.0
 11
5.6616865221
 21
16.2366144097
 31
0.0
  0
LINE
  5
170
330
1F
100
AcDbEntity
  8
SK3
  6
HIDDEN
370
    18
100
AcDbLine
 10
5.6616865221
 20
16.2366144097
 30
0.0
 11
6.018719611
 21
15.975785416
 31
0.0
  0
LINE
  5
171
330
1F
100
AcDbEntity
  8
SK3
  6
HIDDEN
370
    18
100
AcDbLine
 10
6.018719611
 20
15.975785416
 30
0.0
 11
6.2793371625
 21
15.5306555052
 31
0.0
  0
LINE
  5
172
330
1F
100
AcDbEntity
  8
SK3
  6
HIDDEN
370
    18
100
AcDbLine
 10
6.2793371625
 20
15.5306555052
 30
0.0
 11
6.4203821635
 21
14.9407764232
 31
0.0
  0
LINE
  5
173
330
1F
100
AcDbEntity
  8
SK3
  6
HIDDEN
370
    18
100
AcDbLine
 10
6.4203821635
 20
14.9407764232
 30
0.0
 11
6.4293221469
 21
14.2585615152
 31
0.0
  0
LINE
  5
174
330
1F
100
AcDbEntity
  8
SK3
  6
HIDDEN
370
    18
100
AcDbLine
 10
6.4293221469
 20
14.2585615152
 30
0.0
 11
6.3053627557
 21
13.5446285696
 31
0.0
  0
LINE
  5
175
330
1F
100
AcDbEntity
  8
SK3
  6
HIDDEN
370
    18
100
AcDbLine
 10
6.3053627557
 20
13.5446285696
 30
0.0
 11
6.0595183259
 21
12.8624136616
 31
0.0
  0
LINE
  5
176
330
1F
100
AcDbEntity
  8
SK3
  6
HIDDEN
370
    18
100
AcDbLine
 10
6.0595183259
 20
12.8624136616
 30
0.0
 11
5.7136332139
 21
12.2725345796
 31
0.0
  0
LINE
  5
177
330
1F
100
AcDbEntity
  8
SK3
  6
HIDDEN
370
    18
100
AcDbLine
 10
5.7136332139
 20
12.2725345796
 30
0.0
 11
5.2984408299
 21
11.8274046688
 31
0.0
  0
LINE
  5
178
330
1F
100
AcDbEntity
  8
SK3
  6
HIDDEN
370
    18
100
AcDbLine
 10
5.2984408299
 20
11.8274046688
 30
0.0
 11
4.8508328392
 21
11.5665756751
 31
0.0
  0
LINE
  5
179
330
1F
100
AcDbEntity
  8
SK3
  6
HIDDEN
370
    18
100
AcDbLine
 10
4.8508328392
 20
11.5665756751
 30
0.0
 11
4.410581176
 21
11.5132233993
 31
0.0
  0
LINE
  5
17A
330
1F
100
AcDbEntity
  8
SK3
  6
HIDDEN
370
    18
100
AcDbLine
 10
4.410581176
 20
11.5132233993
 30
0.0
 11
4.0168041327
 21
11.6720884251
 31
0.0
  0
LINE
  5
17B
330
1F
100
AcDbEntity
  8
SK3
  6
HIDDEN
370
    18
100
AcDbLine
 10
4.0168041327
 20
11.6720884251
 30
0.0
 11
3.7044905276
 21
12.029054898
 31
0.0
  0
LINE
  5
17C
330
1F
100
AcDbEntity
  8
SK3
  6
HIDDEN
370
    18
100
AcDbLine
 10
3.7044905276
 20
12.029054898
 30
0.0
 11
3.5013907951
 21
12.5524047801
 31
0.0
  0
LINE
  5
17D
330
1F
100
AcDbEntity
  8
SK3
  6
HIDDEN
370
    18
100
AcDbLine
 10
3.5013907951
 20
12.5524047801
 30
0.0
 11
3.4255512377
 21
13.1956361379
 31
0.0
  0
LINE
  5
17E
330
1F
100
AcDbEntity
  8
SK3
  6
HIDDEN
370
    18
100
AcDbLine
 10
3.4255512377
 20
13.1956361379
 30
0.0
 11
3.4837105329
 21
13.9015950424
 31
0.0
  0
LINE
  5
17F
330
1F
100
AcDbEntity
  8
SK3
  6
HIDDEN
370
    18
100
AcDbLine
 10
14.2794578574
 20
11.0168048658
 30
0.0
 11
14.4664482966
 21
11.7227637703
 31
0.0
  0
LINE
  5
180
330
1F
100
AcDbEntity
  8
SK3
  6
HIDDEN
370
    18
100
AcDbLine
 10
14.4664482966
 20
11.7227637703
 30
0.0
 11
14.7656549586
 21
12.3659951281
 31
0.0
  0
LINE
  5
181
330
1F
100
AcDbEntity
  8
SK3
  6
HIDDEN
370
    18
100
AcDbLine
 10
14.7656549586
 20
12.3659951281
 30
0.0
 11
15.1504920186
 21
12.8893450102
 31
0.0
  0
LINE
  5
182
330
1F
100
AcDbEntity
  8
SK3
  6
HIDDEN
370
    18
100
AcDbLine
 10
15.1504920186
 20
12.8893450102
 30
0.0
 11
15.5867650149
 21
13.2463114831
 31
0.0
  0
LINE
  5
183
330
1F
100
AcDbEntity
  8
SK3
  6
HIDDEN
370
    18
100
AcDbLine
 10
15.5867650149
 20
13.2463114831
 30
0.0
 11
16.0357091772
 21
13.4051765089
 31
0.0
  0
LINE
  5
184
330
1F
100
AcDbEntity
  8
SK3
  6
HIDDEN
370
    18
100
AcDbLine
 10
16.0357091772
 20
13.4051765089
 30
0.0
 11
16.4574338466
 21
13.3518242331
 31
0.0
  0
LINE
  5
185
330
1F
100
AcDbEntity
  8
SK3
  6
HIDDEN
370
    18
100
AcDbLine
 10
16.4574338466
 20
13.3518242331
 30
0.0
 11
16.8144669354
 21
13.0909952394
 31
0.0
  0
LINE
  5
186
330
1F
100
AcDbEntity
  8
SK3
  6
HIDDEN
370
    18
100
AcDbLine
 10
16.8144669354
 20
13.0909952394
 30
0.0
 11
17.0750844869
 21
12.6458653286
 31
0.0
  0
LINE
  5
187
330
1F
100
AcDbEntity
  8
SK3
  6
HIDDEN
370
    18
100
AcDbLine
 10
17.0750844869
 20
12.6458653286
 30
0.0
 11
17.216129488
 21
12.0559862466
 31
0.0
  0
LINE
  5
188
330
1F
100
AcDbEntity
  8
SK3
  6
HIDDEN
370
    18
100
AcDbLine
 10
17.216129488
 20
12.0559862466
 30
0.0
 11
17.2250694713
 21
11.3737713386
 31
0.0
  0
LINE
  5
189
330
1F
100
AcDbEntity
  8
SK3
  6
HIDDEN
370
    18
100
AcDbLine
 10
17.2250694713
 20
11.3737713386
 30
0.0
 11
17.1011100801
 21
10.659838393
 31
0.0
  0
LINE
  5
18A
330
1F
100
AcDbEntity
  8
SK3
  6
HIDDEN
370
    18
100
AcDbLine
 10
17.1011100801
 20
10.659838393
 30
0.0
 11
16.8552656503
 21
9.977623485
 31
0.0
  0
LINE
  5
18B
330
1F
100
AcDbEntity
  8
SK3
  6
HIDDEN
370
    18
100
AcDbLine
 10
16.8552656503
 20
9.977623485
 30
0.0
 11
16.5093805383
 21
9.387744403
 31
0.0
  0
LINE
  5
18C
330
1F
100
AcDbEntity
  8
SK3
  6
HIDDEN
370
    18
100
AcDbLine
 10
16.5093805383
 20
9.387744403
 30
0.0
 11
16.0941881543
 21
8.9426144922
 31
0.0
  0
LINE
  5
18D
330
1F
100
AcDbEntity
  8
SK3
  6
HIDDEN
370
    18
100
AcDbLine
 10
16.0941881543
 20
8.9426144922
 30
0.0
 11
15.6465801636
 21
8.6817854985
 31
0.0
  0
LINE
  5
18E
330
1F
100
AcDbEntity
  8
SK3
  6
HIDDEN
370
    18
100
AcDbLine
 10
15.6465801636
 20
8.6817854985
 30
0.0
 11
15.2063285004
 21
8.6284332227
 31
0.0
  0
LINE
  5
18F
330
1F
100
AcDbEntity
  8
SK3
  6
HIDDEN
370
    18
100
AcDbLine
 10
15.2063285004
 20
8.6284332227
 30
0.0
 11
14.8125514571
 21
8.7872982485
 31
0.0
  0
LINE
  5
190
330
1F
100
AcDbEntity
  8
SK3
  6
HIDDEN
370
    18
100
AcDbLine
 10
14.8125514571
 20
8.7872982485
 30
0.0
 11
14.500237852
 21
9.1442647213
 31
0.0
  0
LINE
  5
191
330
1F
100
AcDbEntity
  8
SK3
  6
HIDDEN
370
    18
100
AcDbLine
 10
14.500237852
 20
9.1442647213
 30
0.0
 11
14.2971381195
 21
9.6676146035
 31
0.0
  0
LINE
  5
192
330
1F
100
AcDbEntity
  8
SK3
  6
HIDDEN
370
    18
100
AcDbLine
 10
14.2971381195
 20
9.6676146035
 30
0.0
 11
14.2212985621
 21
10.3108459613
 31
0.0
  0
LINE
  5
193
330
1F
100
AcDbEntity
  8
SK3
  6
HIDDEN
370
    18
100
AcDbLine
 10
14.2212985621
 20
10.3108459613
 30
0.0
 11
14.2794578574
 21
11.0168048658
 31
0.0
  0
LINE
  5
194
330
1F
100
AcDbEntity
  8
SK3
  6
HIDDEN
370
    18
100
AcDbLine
 10
11.125
 20
12.5246373053
 30
0.0
 11
10.5289512508
 21
12.629338629
 31
0.0
  0
LINE
  5
195
330
1F
100
AcDbEntity
  8
SK3
  6
HIDDEN
370
    18
100
AcDbLine
 10
10.5289512508
 20
12.629338629
 30
0.0
 11
10.013402188
 21
12.9293021064
 31
0.0
  0
LINE
  5
196
330
1F
100
AcDbEntity
  8
SK3
  6
HIDDEN
370
    18
100
AcDbLine
 10
10.013402188
 20
12.9293021064
 30
0.0
 11
9.6479805693
 21
13.3840160075
 31
0.0
  0
LINE
  5
197
330
1F
100
AcDbEntity
  8
SK3
  6
HIDDEN
370
    18
100
AcDbLine
 10
9.6479805693
 20
13.3840160075
 30
0.0
 11
9.4820386091
 21
13.9320687003
 31
0.0
  0
LINE
  5
198
330
1F
100
AcDbEntity
  8
SK3
  6
HIDDEN
370
    18
100
AcDbLine
 10
9.4820386091
 20
13.9320687003
 30
0.0
 11
9.5379876888
 21
14.499442632
 31
0.0
  0
LINE
  5
199
330
1F
100
AcDbEntity
  8
SK3
  6
HIDDEN
370
    18
100
AcDbLine
 10
9.5379876888
 20
14.499442632
 30
0.0
 11
9.808271575
 21
15.009510809
 31
0.0
  0
LINE
  5
19A
330
1F
100
AcDbEntity
  8
SK3
  6
HIDDEN
370
    18
100
AcDbLine
 10
9.808271575
 20
15.009510809
 30
0.0
 11
10.2563869313
 21
15.3933856976
 31
0.0
  0
LINE
  5
19B
330
1F
100
AcDbEntity
  8
SK3
  6
HIDDEN
370
    18
100
AcDbLine
 10
10.2563869313
 20
15.3933856976
 30
0.0
 11
10.8218132956
 21
15.5992228671
 31
0.0
  0
LINE
  5
19C
330
1F
100
AcDbEntity
  8
SK3
  6
HIDDEN
370
    18
100
AcDbLine
 10
10.8218132956
 20
15.5992228671
 30
0.0
 11
11.4281867044
 21
15.5992228671
 31
0.0
  0
LINE
  5
19D
330
1F
100
AcDbEntity
  8
SK3
  6
HIDDEN
370
    18
100
AcDbLine
 10
11.4281867044
 20
15.5992228671
 30
0.0
 11
11.9936130687
 21
15.3933856976
 31
0.0
  0
LINE
  5
19E
330
1F
100
AcDbEntity
  8
SK3
  6
HIDDEN
370
    18
100
AcDbLine
 10
11.9936130687
 20
15.3933856976
 30
0.0
 11
12.441728425
 21
15.009510809
 31
0.0
  0
LINE
  5
19F
330
1F
100
AcDbEntity
  8
SK3
  6
HIDDEN
370
    18
100
AcDbLine
 10
12.441728425
 20
15.009510809
 30
0.0
 11
12.7120123112
 21
14.499442632
 31
0.0
  0
LINE
  5
1A0
330
1F
100
AcDbEntity
  8
SK3
  6
HIDDEN
370
    18
100
AcDbLine
 10
12.7120123112
 20
14.499442632
 30
0.0
 11
12.7679613909
 21
13.9320687003
 31
0.0
  0
LINE
  5
1A1
330
1F
100
AcDbEntity
  8
SK3
  6
HIDDEN
370
    18
100
AcDbLine
 10
12.7679613909
 20
13.9320687003
 30
0.0
 11
12.6020194307
 21
13.3840160075
 31
0.0
  0
LINE
  5
1A2
330
1F
100
AcDbEntity
  8
SK3
  6
HIDDEN
370
    18
100
AcDbLine
 10
12.6020194307
 20
13.3840160075
 30
0.0
 11
12.236597812
 21
12.9293021064
 31
0.0
  0
LINE
  5
1A3
330
1F
100
AcDbEntity
  8
SK3
  6
HIDDEN
370
    18
100
AcDbLine
 10
12.236597812
 20
12.9293021064
 30
0.0
 11
11.7210487492
 21
12.629338629
 31
0.0
  0
LINE
  5
1A4
330
1F
100
AcDbEntity
  8
SK3
  6
HIDDEN
370
    18
100
AcDbLine
 10
11.7210487492
 20
12.629338629
 30
0.0
 11
11.125
 21
12.5246373053
 31
0.0
  0
LINE
  5
1A5
330
1F
100
AcDbEntity
  8
SK3
  6
HIDDEN
370
    18
100
AcDbLine
 10
3.3949403416
 20
13.9015950424
 30
0.0
 11
3.5816002207
 21
14.6176762606
 31
0.0
  0
LINE
  5
1A6
330
1F
100
AcDbEntity
  8
SK3
  6
HIDDEN
370
    18
100
AcDbLine
 10
3.5816002207
 20
14.6176762606
 30
0.0
 11
3.8777929979
 21
15.2757448372
 31
0.0
  0
LINE
  5
1A7
330
1F
100
AcDbEntity
  8
SK3
  6
HIDDEN
370
    18
100
AcDbLine
 10
3.8777929979
 20
15.2757448372
 30
0.0
 11
4.2595228959
 21
15.8224879698
 31
0.0
  0
LINE
  5
1A8
330
1F
100
AcDbEntity
  8
SK3
  6
HIDDEN
370
    18
100
AcDbLine
 10
4.2595228959
 20
15.8224879698
 30
0.0
 11
4.6958644286
 21
16.2136117815
 31
0.0
  0
LINE
  5
1A9
330
1F
100
AcDbEntity
  8
SK3
  6
HIDDEN
370
    18
100
AcDbLine
 10
4.6958644286
 20
16.2136117815
 30
0.0
 11
5.1514678
 21
16.417429747
 31
0.0
  0
LINE
  5
1AA
330
1F
100
AcDbEntity
  8
SK3
  6
HIDDEN
370
    18
100
AcDbLine
 10
5.1514678
 20
16.417429747
 30
0.0
 11
5.5894227346
 21
16.417429747
 31
0.0
  0
LINE
  5
1AB
330
1F
100
AcDbEntity
  8
SK3
  6
HIDDEN
370
    18
100
AcDbLine
 10
5.5894227346
 20
16.417429747
 30
0.0
 11
5.9742487283
 21
16.2136117815
 31
0.0
  0
LINE
  5
1AC
330
1F
100
AcDbEntity
  8
SK3
  6
HIDDEN
370
    18
100
AcDbLine
 10
5.9742487283
 20
16.2136117815
 30
0.0
 11
6.2747694675
 21
15.8224879698
 31
0.0
  0
LINE
  5
1AD
330
1F
100
AcDbEntity
  8
SK3
  6
HIDDEN
370
    18
100
AcDbLine
 10
6.2747694675
 20
15.8224879698
 30
0.0
 11
6.4666385494
 21
15.2757448372
 31
0.0
  0
LINE
  5
1AE
330
1F
100
AcDbEntity
  8
SK3
  6
HIDDEN
370
    18
100
AcDbLine
 10
6.4666385494
 20
15.2757448372
 30
0.0
 11
6.5343118819
 21
14.6176762606
 31
0.0
  0
LINE
  5
1AF
330
1F
100
AcDbEntity
  8
SK3
  6
HIDDEN
370
    18
100
AcDbLine
 10
6.5343118819
 20
14.6176762606
 30
0.0
 11
6.4723069743
 21
13.9015950424
 31
0.0
  0
LINE
  5
1B0
330
1F
100
AcDbEntity
  8
SK3
  6
HIDDEN
370
    18
100
AcDbLine
 10
6.4723069743
 20
13.9015950424
 30
0.0
 11
6.2856470952
 21
13.1855138242
 31
0.0
  0
LINE
  5
1B1
330
1F
100
AcDbEntity
  8
SK3
  6
HIDDEN
370
    18
100
AcDbLine
 10
6.2856470952
 20
13.1855138242
 30
0.0
 11
5.989454318
 21
12.5274452476
 31
0.0
  0
LINE
  5
1B2
330
1F
100
AcDbEntity
  8
SK3
  6
HIDDEN
370
    18
100
AcDbLine
 10
5.989454318
 20
12.5274452476
 30
0.0
 11
5.60772442
 21
11.980702115
 31
0.0
  0
LINE
  5
1B3
330
1F
100
AcDbEntity
  8
SK3
  6
HIDDEN
370
    18
100
AcDbLine
 10
5.60772442
 20
11.980702115
 30
0.0
 11
5.1713828873
 21
11.5895783033
 31
0.0
  0
LINE
  5
1B4
330
1F
100
AcDbEntity
  8
SK3
  6
HIDDEN
370
    18
100
AcDbLine
 10
5.1713828873
 20
11.5895783033
 30
0.0
 11
4.7157795159
 21
11.3857603378
 31
0.0
  0
LINE
  5
1B5
330
1F
100
AcDbEntity
  8
SK3
  6
HIDDEN
370
    18
100
AcDbLine
 10
4.7157795159
 20
11.3857603378
 30
0.0
 11
4.2778245812
 21
11.3857603378
 31
0.0
  0
LINE
  5
1B6
330
1F
100
AcDbEntity
  8
SK3
  6
HIDDEN
370
    18
100
AcDbLine
 10
4.2778245812
 20
11.3857603378
 30
0.0
 11
3.8929985876
 21
11.5895783033
 31
0.0
  0
LINE
  5
1B7
330
1F
100
AcDbEntity
  8
SK3
  6
HIDDEN
370
    18
100
AcDbLine
 10
3.8929985876
 20
11.5895783033
 30
0.0
 11
3.5924778483
 21
11.980702115
 31
0.0
  0
LINE
  5
1B8
330
1F
100
AcDbEntity
  8
SK3
  6
HIDDEN
370
    18
100
AcDbLine
 10
3.5924778483
 20
11.980702115
 30
0.0
 11
3.4006087665
 21
12.5274452476
 31
0.0
  0
LINE
  5
1B9
330
1F
100
AcDbEntity
  8
SK3
  6
HIDDEN
370
    18
100
AcDbLine
 10
3.4006087665
 20
12.5274452476
 30
0.0
 11
3.3329354339
 21
13.1855138242
 31
0.0
  0
LINE
  5
1BA
330
1F
100
AcDbEntity
  8
SK3
  6
HIDDEN
370
    18
100
AcDbLine
 10
3.3329354339
 20
13.1855138242
 30
0.0
 11
3.3949403416
 21
13.9015950424
 31
0.0
  0
LINE
  5
1BB
330
1F
100
AcDbEntity
  8
SK3
  6
HIDDEN
370
    18
100
AcDbLine
 10
3.2
 20
11.6748484571
 30
0.0
 11
3.2
 21
17.0506447969
 31
0.0
  0
LINE
  5
1BC
330
1F
100
AcDbEntity
  8
SK3
  6
HIDDEN
370
    18
100
AcDbLine
 10
9.185
 20
16.2744453027
 30
0.0
 11
9.185
 21
16.3400748148
 31
0.0
  0
LINE
  5
1BD
330
1F
100
AcDbEntity
  8
SK3
  6
HIDDEN
370
    18
100
AcDbLine
 10
9.185
 20
15.4262992336
 30
0.0
 11
9.185
 21
15.3606697215
 31
0.0
  0
LINE
  5
1BE
330
1F
100
AcDbEntity
  8
SK3
  6
HIDDEN
370
    18
100
AcDbLine
 10
13.015
 20
15.202158234
 30
0.0
 11
13.015
 21
15.2677906723
 31
0.0
  0
LINE
  5
1BF
330
1F
100
AcDbEntity
  8
SK3
  6
HIDDEN
370
    18
100
AcDbLine
 10
13.015
 20
16.4971729702
 30
0.0
 11
13.015
 21
16.4315405319
 31
0.0
  0
LINE
  5
1C0
330
1F
100
AcDbEntity
  8
SK3
  6
HIDDEN
370
    18
100
AcDbLine
 10
11.125
 20
12.2648577857
 30
0.0
 11
10.4756010616
 21
12.366688062
 31
0.0
  0
LINE
  5
1C1
330
1F
100
AcDbEntity
  8
SK3
  6
HIDDEN
370
    18
100
AcDbLine
 10
10.4756010616
 20
12.366688062
 30
0.0
 11
9.8965745746
 21
12.6611440003
 31
0.0
  0
LINE
  5
1C2
330
1F
100
AcDbEntity
  8
SK3
  6
HIDDEN
370
    18
100
AcDbLine
 10
9.8965745746
 20
12.6611440003
 30
0.0
 11
9.4506670435
 21
13.116316731
 31
0.0
  0
LINE
  5
1C3
330
1F
100
AcDbEntity
  8
SK3
  6
HIDDEN
370
    18
100
AcDbLine
 10
9.4506670435
 20
13.116316731
 30
0.0
 11
9.1861994681
 21
13.6828812257
 31
0.0
  0
LINE
  5
1C4
330
1F
100
AcDbEntity
  8
SK3
  6
HIDDEN
370
    18
100
AcDbLine
 10
9.1861994681
 20
13.6828812257
 30
0.0
 11
9.131831014
 21
14.2994414304
 31
0.0
  0
LINE
  5
1C5
330
1F
100
AcDbEntity
  8
SK3
  6
HIDDEN
370
    18
100
AcDbLine
 10
9.131831014
 20
14.2994414304
 30
0.0
 11
9.2934533467
 21
14.8991834799
 31
0.0
  0
LINE
  5
1C6
330
1F
100
AcDbEntity
  8
SK3
  6
HIDDEN
370
    18
100
AcDbLine
 10
9.2934533467
 20
14.8991834799
 30
0.0
 11
9.6535521787
 21
15.4171160173
 31
0.0
  0
LINE
  5
1C7
330
1F
100
AcDbEntity
  8
SK3
  6
HIDDEN
370
    18
100
AcDbLine
 10
9.6535521787
 20
15.4171160173
 30
0.0
 11
10.1731052139
 21
15.7971130156
 31
0.0
  0
LINE
  5
1C8
330
1F
100
AcDbEntity
  8
SK3
  6
HIDDEN
370
    18
100
AcDbLine
 10
10.1731052139
 20
15.7971130156
 30
0.0
 11
10.7958108194
 21
15.9979959037
 31
0.0
  0
LINE
  5
1C9
330
1F
100
AcDbEntity
  8
SK3
  6
HIDDEN
370
    18
100
AcDbLine
 10
10.7958108194
 20
15.9979959037
 30
0.0
 11
11.4541891806
 21
15.9979959037
 31
0.0
  0
LINE
  5
1CA
330
1F
100
AcDbEntity
  8
SK3
  6
HIDDEN
370
    18
100
AcDbLine
 10
11.4541891806
 20
15.9979959037
 30
0.0
 11
12.0768947861
 21
15.7971130156
 31
0.0
  0
LINE
  5
1CB
330
1F
100
AcDbEntity
  8
SK3
  6
HIDDEN
370
    18
100
AcDbLine
 10
12.0768947861
 20
15.7971130156
 30
0.0
 11
12.5964478213
 21
15.4171160173
 31
0.0
  0
LINE
  5
1CC
330
1F
100
AcDbEntity
  8
SK3
  6
HIDDEN
370
    18
100
AcDbLine
 10
12.5964478213
 20
15.4171160173
 30
0.0
 11
12.9565466533
 21
14.8991834799
 31
0.0
  0
LINE
  5
1CD
330
1F
100
AcDbEntity
  8
SK3
  6
HIDDEN
370
    18
100
AcDbLine
 10
12.9565466533
 20
14.8991834799
 30
0.0
 11
13.118168986
 21
14.2994414304
 31
0.0
  0
LINE
  5
1CE
330
1F
100
AcDbEntity
  8
SK3
  6
HIDDEN
370
    18
100
AcDbLine
 10
13.118168986
 20
14.2994414304
 30
0.0
 11
13.0638005319
 21
13.6828812257
 31
0.0
  0
LINE
  5
1CF
330
1F
100
AcDbEntity
  8
SK3
  6
HIDDEN
370
    18
100
AcDbLine
 10
13.0638005319
 20
13.6828812257
 30
0.0
 11
12.7993329565
 21
13.116316731
 31
0.0
  0
LINE
  5
1D0
330
1F
100
AcDbEntity
  8
SK3
  6
HIDDEN
370
    18
100
AcDbLine
 10
12.7993329565
 20
13.116316731
 30
0.0
 11
12.3534254254
 21
12.6611440003
 31
0.0
  0
LINE
  5
1D1
330
1F
100
AcDbEntity
  8
SK3
  6
HIDDEN
370
    18
100
AcDbLine
 10
12.3534254254
 20
12.6611440003
 30
0.0
 11
11.7743989384
 21
12.366688062
 31
0.0
  0
LINE
  5
1D2
330
1F
100
AcDbEntity
  8
SK3
  6
HIDDEN
370
    18
100
AcDbLine
 10
11.7743989384
 20
12.366688062
 30
0.0
 11
11.125
 21
12.2648577857
 31
0.0
  0
LINE
  5
1D3
330
1F
100
AcDbEntity
  8
SK3
  6
HIDDEN
370
    18
100
AcDbLine
 10
3.2
 20
15.0483796974
 30
0.0
 11
3.2
 21
15.9034435425
 31
0.0
  0
LINE
  5
1D4
330
1F
100
AcDbEntity
  8
SK3
  6
HIDDEN
370
    18
100
AcDbLine
 10
3.2
 20
-17.0560709439
 30
0.0
 11
5.6048333499
 21
-16.4134623855
 31
0.0
  0
LINE
  5
1D5
330
1F
100
AcDbEntity
  8
SK3
  6
HIDDEN
370
    18
100
AcDbLine
 10
4.2624139659
 20
-11.3897276993
 30
0.0
 11
3.2
 21
-11.6736210955
 31
0.0
  0
LINE
  5
1D6
330
1F
100
AcDbEntity
  8
SK3
  6
HIDDEN
370
    18
100
AcDbLine
 10
5.5661097138
 20
-16.2685469619
 30
0.0
 11
16.3618570383
 21
-13.3837567853
 31
0.0
  0
LINE
  5
1D7
330
1F
100
AcDbEntity
  8
SK3
  6
HIDDEN
370
    18
100
AcDbLine
 10
15.0968849264
 20
-8.6498529463
 30
0.0
 11
4.301137602
 21
-11.5346431229
 31
0.0
  0
LINE
  5
1D8
330
1F
100
AcDbEntity
  8
SK3
  6
HIDDEN
370
    18
100
AcDbLine
 10
9.475
 20
-13.7489030277
 30
0.0
 11
9.475
 21
-14.1168814158
 31
0.0
  0
LINE
  5
1D9
330
1F
100
AcDbEntity
  8
SK3
  6
HIDDEN
370
    18
100
AcDbLine
 10
12.775
 20
-14.1168814158
 30
0.0
 11
12.775
 21
-12.869174843
 31
0.0
  0
LINE
  5
1DA
330
1F
100
AcDbEntity
  8
SK3
  6
HIDDEN
370
    18
100
AcDbLine
 10
9.475
 20
-3.5910923016
 30
0.0
 11
9.475
 21
-11.6251587266
 31
0.0
  0
LINE
  5
1DB
330
1F
100
AcDbEntity
  8
SK3
  6
HIDDEN
370
    18
100
AcDbLine
 10
12.775
 20
-10.7474202897
 30
0.0
 11
12.775
 21
-3.5901214152
 31
0.0
  0
LINE
  5
1DC
330
1F
100
AcDbEntity
  8
SK3
  6
HIDDEN
370
    18
100
AcDbLine
 10
146.479173101
 20
16.0
 30
0.0
 11
117.34
 21
11.9047562899
 31
0.0
  0
LINE
  5
1DD
330
1F
100
AcDbEntity
  8
SK3
  6
HIDDEN
370
    18
100
AcDbLine
 10
117.34
 20
-11.9047562899
 30
0.0
 11
146.479173101
 21
-16.0
 31
0.0
  0
LINE
  5
1DE
330
1F
100
AcDbEntity
  8
SK3
  6
HIDDEN
370
    18
100
AcDbLine
 10
-101.6
 20
-13.5153629711
 30
0.0
 11
-99.85
 21
-12.505
 31
0.0
  0
LINE
  5
1DF
330
1F
100
AcDbEntity
  8
SK3
  6
HIDDEN
370
    18
100
AcDbLine
 10
-99.85
 20
12.505
 30
0.0
 11
-101.6
 21
13.5153629711
 31
0.0
  0
LINE
  5
1E0
330
1F
100
AcDbEntity
  8
SK3
  6
HIDDEN
370
    18
100
AcDbLine
 10
-92.85
 20
12.875
 30
0.0
 11
-93.4908587988
 21
12.505
 31
0.0
  0
LINE
  5
1E1
330
1F
100
AcDbEntity
  8
SK3
  6
HIDDEN
370
    18
100
AcDbLine
 10
-93.4908587988
 20
-12.505
 30
0.0
 11
-92.85
 21
-12.875
 31
0.0
  0
LINE
  5
1E2
330
1F
100
AcDbEntity
  8
SK3
  6
HIDDEN
370
    18
100
AcDbLine
 10
-89.85
 20
-12.875
 30
0.0
 11
-88.4787931107
 21
-10.5
 31
0.0
  0
LINE
  5
1E3
330
1F
100
AcDbEntity
  8
SK3
  6
HIDDEN
370
    18
100
AcDbLine
 10
-88.4787931107
 20
10.5
 30
0.0
 11
-89.85
 21
12.875
 31
0.0
  0
LINE
  5
1E4
330
1F
100
AcDbEntity
  8
SK3
  6
HIDDEN
370
    18
100
AcDbLine
 10
-92.85
 20
-12.875
 30
0.0
 11
-89.85
 21
-12.875
 31
0.0
  0
LINE
  5
1E5
330
1F
100
AcDbEntity
  8
SK3
  6
HIDDEN
370
    18
100
AcDbLine
 10
-89.85
 20
12.875
 30
0.0
 11
-92.85
 21
12.875
 31
0.0
  0
LINE
  5
1E6
330
1F
100
AcDbEntity
  8
SK3
  6
HIDDEN
370
    18
100
AcDbLine
 10
-99.85
 20
-12.505
 30
0.0
 11
-93.4908587988
 21
-12.505
 31
0.0
  0
LINE
  5
1E7
330
1F
100
AcDbEntity
  8
SK3
  6
HIDDEN
370
    18
100
AcDbLine
 10
-93.4908587988
 20
12.505
 30
0.0
 11
-99.85
 21
12.505
 31
0.0
  0
LINE
  5
1E8
330
1F
100
AcDbEntity
  8
SK3
  6
HIDDEN
370
    18
100
AcDbLine
 10
117.34
 20
12.05
 30
0.0
 11
112.34
 21
12.05
 31
0.0
  0
LINE
  5
1E9
330
1F
100
AcDbEntity
  8
SK3
  6
HIDDEN
370
    18
100
AcDbLine
 10
112.34
 20
-12.05
 30
0.0
 11
117.34
 21
-12.05
 31
0.0
  0
LINE
  5
1EA
330
1F
100
AcDbEntity
  8
SK3
  6
HIDDEN
370
    18
100
AcDbLine
 10
112.34
 20
12.05
 30
0.0
 11
111.2584508858
 21
10.25
 31
0.0
  0
LINE
  5
1EB
330
1F
100
AcDbEntity
  8
SK3
  6
HIDDEN
370
    18
100
AcDbLine
 10
111.2584508858
 20
-10.25
 30
0.0
 11
112.34
 21
-12.05
 31
0.0
  0
LINE
  5
1EC
330
1F
100
AcDbEntity
  8
SK3
  6
HIDDEN
370
    18
100
AcDbLine
 10
-88.4787931107
 20
-10.5
 30
0.0
 11
18.4
 21
-10.5
 31
0.0
  0
LINE
  5
1ED
330
1F
100
AcDbEntity
  8
SK3
  6
HIDDEN
370
    18
100
AcDbLine
 10
18.4
 20
10.5
 30
0.0
 11
-88.4787931107
 21
10.5
 31
0.0
  0
LINE
  5
1EE
330
1F
100
AcDbEntity
  8
SK3
  6
HIDDEN
370
    18
100
AcDbLine
 10
18.4
 20
-10.5
 30
0.0
 11
18.5502151548
 21
-10.25
 31
0.0
  0
LINE
  5
1EF
330
1F
100
AcDbEntity
  8
SK3
  6
HIDDEN
370
    18
100
AcDbLine
 10
18.5502151548
 20
10.25
 30
0.0
 11
18.4
 21
10.5
 31
0.0
  0
LINE
  5
1F0
330
1F
100
AcDbEntity
  8
SK3
  6
HIDDEN
370
    18
100
AcDbLine
 10
111.2584508858
 20
10.25
 30
0.0
 11
18.5502151548
 21
10.25
 31
0.0
  0
LINE
  5
1F1
330
1F
100
AcDbEntity
  8
SK3
  6
HIDDEN
370
    18
100
AcDbLine
 10
18.5502151548
 20
-10.25
 30
0.0
 11
111.2584508858
 21
-10.25
 31
0.0
  0
LINE
  5
1F2
330
1F
100
AcDbEntity
  8
SK3
  6
HIDDEN
370
    18
100
AcDbLine
 10
6.1
 20
37.5
 30
0.0
 11
6.1
 21
33.1
 31
0.0
  0
LINE
  5
1F3
330
1F
100
AcDbEntity
  8
SK3
  6
HIDDEN
370
    18
100
AcDbLine
 10
16.1
 20
33.1
 30
0.0
 11
16.1
 21
37.5
 31
0.0
  0
LINE
  5
1F4
330
1F
100
AcDbEntity
  8
SK3
  6
HIDDEN
370
    18
100
AcDbLine
 10
9.475
 20
11.6250085505
 30
0.0
 11
9.475
 21
3.5901214152
 31
0.0
  0
LINE
  5
1F5
330
1F
100
AcDbEntity
  8
SK3
  6
HIDDEN
370
    18
100
AcDbLine
 10
12.775
 20
3.5910923016
 30
0.0
 11
12.775
 21
10.7474463836
 31
0.0
  0
LINE
  5
1F6
330
1F
100
AcDbEntity
  8
SK3
  6
HIDDEN
370
    18
100
AcDbLine
 10
4.301137602
 20
11.5346431229
 30
0.0
 11
15.0968849264
 21
8.6498529463
 31
0.0
  0
LINE
  5
1F7
330
1F
100
AcDbEntity
  8
SK3
  6
HIDDEN
370
    18
100
AcDbLine
 10
16.3618570383
 20
13.3837567853
 30
0.0
 11
5.5661097138
 21
16.2685469619
 31
0.0
  0
LINE
  5
1F8
330
1F
100
AcDbEntity
  8
SK3
  6
HIDDEN
370
    18
100
AcDbLine
 10
9.475
 20
14.0751301296
 30
0.0
 11
9.475
 21
13.7490254834
 31
0.0
  0
LINE
  5
1F9
330
1F
100
AcDbEntity
  8
SK3
  6
HIDDEN
370
    18
100
AcDbLine
 10
12.775
 20
12.8691681935
 30
0.0
 11
12.775
 21
14.0751301296
 31
0.0
  0
LINE
  5
1FA
330
1F
100
AcDbEntity
  8
SK3
  6
HIDDEN
370
    18
100
AcDbLine
 10
3.2
 20
11.6736210955
 30
0.0
 11
4.2624139659
 21
11.3897276993
 31
0.0
  0
LINE
  5
1FB
330
1F
100
AcDbEntity
  8
SK3
  6
HIDDEN
370
    18
100
AcDbLine
 10
5.6048333499
 20
16.4134623855
 30
0.0
 11
3.2
 21
17.0560709439
 31
0.0
  0
LINE
  5
1FC
330
1F
100
AcDbEntity
  8
SK3
  6
HIDDEN
370
    18
100
AcDbLine
 10
9.125
 20
14.3309344344
 30
0.0
 11
9.125
 21
14.1442430272
 31
0.0
  0
LINE
  5
1FD
330
1F
100
AcDbEntity
  8
SK3
  6
HIDDEN
370
    18
100
AcDbLine
 10
13.125
 20
14.1442430272
 30
0.0
 11
13.125
 21
14.3309344344
 31
0.0
  0
LINE
  5
1FE
330
1F
100
AcDbEntity
  8
SK3
  6
HIDDEN
370
    18
100
AcDbLine
 10
9.125
 20
15.9146138561
 30
0.0
 11
9.125
 21
14.3309344344
 31
0.0
  0
LINE
  5
1FF
330
1F
100
AcDbEntity
  8
SK3
  6
HIDDEN
370
    18
100
AcDbLine
 10
13.125
 20
14.3309344344
 30
0.0
 11
13.125
 21
15.9474324739
 31
0.0
  0
LINE
  5
200
330
1F
100
AcDbEntity
  8
1
  6
Continuous
370
    18
100
AcDbLine
 10
131.34
 20
-19.263
 30
0.0
 11
137.5
 21
-19.263
 31
0.0
  0
LINE
  5
201
330
1F
100
AcDbEntity
  8
1
  6
Continuous
370
    18
100
AcDbLine
 10
137.5
 20
19.263
 30
0.0
 11
131.34
 21
19.263
 31
0.0
  0
LINE
  5
202
330
1F
100
AcDbEntity
  8
1
  6
Continuous
370
    18
100
AcDbLine
 10
131.34
 20
0.0
 30
0.0
 11
131.34
 21
2.4485491915
 31
0.0
  0
LINE
  5
203
330
1F
100
AcDbEntity
  8
1
  6
Continuous
370
    18
100
AcDbLine
 10
131.3399200685
 20
2.4485491915
 30
0.0
 11
131.34
 21
4.8599808732
 31
0.0
  0
LINE
  5
204
330
1F
100
AcDbEntity
  8
1
  6
Continuous
370
    18
100
AcDbLine
 10
131.34
 20
4.8599808732
 30
0.0
 11
131.34
 21
7.1977401988
 31
0.0
  0
LINE
  5
205
330
1F
100
AcDbEntity
  8
1
  6
Continuous
370
    18
100
AcDbLine
 10
131.34
 20
7.1977401988
 30
0.0
 11
131.34
 21
9.42638912
 31
0.0
  0
LINE
  5
206
330
1F
100
AcDbEntity
  8
1
  6
Continuous
370
    18
100
AcDbLine
 10
131.34
 20
9.42638912
 30
0.0
 11
131.34
 21
11.5121435908
 31
0.0
  0
LINE
  5
207
330
1F
100
AcDbEntity
  8
1
  6
Continuous
370
    18
100
AcDbLine
 10
131.34
 20
11.5121435908
 30
0.0
 11
131.34
 21
13.4233856997
 31
0.0
  0
LINE
  5
208
330
1F
100
AcDbEntity
  8
1
  6
Continuous
370
    18
100
AcDbLine
 10
131.34
 20
13.4233856997
 30
0.0
 11
131.34
 21
15.1311429643
 31
0.0
  0
LINE
  5
209
330
1F
100
AcDbEntity
  8
1
  6
Continuous
370
    18
100
AcDbLine
 10
131.34
 20
15.1311429643
 30
0.0
 11
131.34
 21
16.6095275255
 31
0.0
  0
LINE
  5
20A
330
1F
100
AcDbEntity
  8
1
  6
Continuous
370
    18
100
AcDbLine
 10
131.34
 20
16.6095275255
 30
0.0
 11
131.34
 21
17.8361285802
 31
0.0
  0
LINE
  5
20B
330
1F
100
AcDbEntity
  8
1
  6
Continuous
370
    18
100
AcDbLine
 10
131.34
 20
17.8361285802
 30
0.0
 11
131.34
 21
18.7923521068
 31
0.0
  0
LINE
  5
20C
330
1F
100
AcDbEntity
  8
1
  6
Continuous
370
    18
100
AcDbLine
 10
131.34
 20
18.7923521068
 30
0.0
 11
131.34
 21
19.4637027314
 31
0.0
  0
LINE
  5
20D
330
1F
100
AcDbEntity
  8
1
  6
Continuous
370
    18
100
AcDbLine
 10
131.34
 20
19.4637027314
 30
0.0
 11
131.34
 21
19.8400034627
 31
0.0
  0
LINE
  5
20E
330
1F
100
AcDbEntity
  8
1
  6
Continuous
370
    18
100
AcDbLine
 10
131.34
 20
19.8400034627
 30
0.0
 11
131.34
 21
19.925
 31
0.0
  0
LINE
  5
20F
330
1F
100
AcDbEntity
  8
1
  6
Continuous
370
    18
100
AcDbLine
 10
131.3399200685
 20
-19.925
 30
0.0
 11
131.34
 21
-19.8400034627
 31
0.0
  0
LINE
  5
210
330
1F
100
AcDbEntity
  8
1
  6
Continuous
370
    18
100
AcDbLine
 10
131.34
 20
-19.8400034627
 30
0.0
 11
131.34
 21
-19.4637027314
 31
0.0
  0
LINE
  5
211
330
1F
100
AcDbEntity
  8
1
  6
Continuous
370
    18
100
AcDbLine
 10
131.34
 20
-19.4637027314
 30
0.0
 11
131.34
 21
-18.7923521068
 31
0.0
  0
LINE
  5
212
330
1F
100
AcDbEntity
  8
1
  6
Continuous
370
    18
100
AcDbLine
 10
131.34
 20
-18.7923521068
 30
0.0
 11
131.34
 21
-17.8361285802
 31
0.0
  0
LINE
  5
213
330
1F
100
AcDbEntity
  8
1
  6
Continuous
370
    18
100
AcDbLine
 10
131.34
 20
-17.8361285802
 30
0.0
 11
131.34
 21
-16.6095275255
 31
0.0
  0
LINE
  5
214
330
1F
100
AcDbEntity
  8
1
  6
Continuous
370
    18
100
AcDbLine
 10
131.34
 20
-16.6095275255
 30
0.0
 11
131.34
 21
-15.1311429643
 31
0.0
  0
LINE
  5
215
330
1F
100
AcDbEntity
  8
1
  6
Continuous
370
    18
100
AcDbLine
 10
131.34
 20
-15.1311429643
 30
0.0
 11
131.34
 21
-13.4233856997
 31
0.0
  0
LINE
  5
216
330
1F
100
AcDbEntity
  8
1
  6
Continuous
370
    18
100
AcDbLine
 10
131.34
 20
-13.4233856997
 30
0.0
 11
131.34
 21
-11.5121435908
 31
0.0
  0
LINE
  5
217
330
1F
100
AcDbEntity
  8
1
  6
Continuous
370
    18
100
AcDbLine
 10
131.34
 20
-11.5121435908
 30
0.0
 11
131.34
 21
-9.42638912
 31
0.0
  0
LINE
  5
218
330
1F
100
AcDbEntity
  8
1
  6
Continuous
370
    18
100
AcDbLine
 10
131.34
 20
-9.42638912
 30
0.0
 11
131.34
 21
-7.1977401988
 31
0.0
  0
LINE
  5
219
330
1F
100
AcDbEntity
  8
1
  6
Continuous
370
    18
100
AcDbLine
 10
131.34
 20
-7.1977401988
 30
0.0
 11
131.34
 21
-4.8599808732
 31
0.0
  0
LINE
  5
21A
330
1F
100
AcDbEntity
  8
1
  6
Continuous
370
    18
100
AcDbLine
 10
131.34
 20
-4.8599808732
 30
0.0
 11
131.34
 21
-2.4485491915
 31
0.0
  0
LINE
  5
21B
330
1F
100
AcDbEntity
  8
1
  6
Continuous
370
    18
100
AcDbLine
 10
131.34
 20
-2.4485491915
 30
0.0
 11
131.34
 21
0.0
 31
0.0
  0
LINE
  5
21C
330
1F
100
AcDbEntity
  8
SK3
  6
Continuous
370
    18
100
AcDbLine
 10
-52.6
 20
12.0
 30
0.0
 11
-89.3448185145
 21
12.0
 31
0.0
  0
LINE
  5
21D
330
1F
100
AcDbEntity
  8
SK3
  6
Continuous
370
    18
100
AcDbLine
 10
-89.3448185145
 20
-12.0
 30
0.0
 11
-52.6
 21
-12.0
 31
0.0
  0
LINE
  5
21E
330
1F
100
AcDbEntity
  8
SK3
  6
Continuous
370
    18
100
AcDbLine
 10
-52.6
 20
0.0
 30
0.0
 11
-52.6
 21
-1.8772135805
 31
0.0
  0
LINE
  5
21F
330
1F
100
AcDbEntity
  8
SK3
  6
Continuous
370
    18
100
AcDbLine
 10
-52.6000137084
 20
-1.8772135805
 30
0.0
 11
-52.6
 21
-3.7082039325
 31
0.0
  0
LINE
  5
220
330
1F
100
AcDbEntity
  8
SK3
  6
Continuous
370
    18
100
AcDbLine
 10
-52.6
 20
-3.7082039325
 30
0.0
 11
-52.6
 21
-5.4478859969
 31
0.0
  0
LINE
  5
221
330
1F
100
AcDbEntity
  8
SK3
  6
Continuous
370
    18
100
AcDbLine
 10
-52.6
 20
-5.4478859969
 30
0.0
 11
-52.6
 21
-7.0534230275
 31
0.0
  0
LINE
  5
222
330
1F
100
AcDbEntity
  8
SK3
  6
Continuous
370
    18
100
AcDbLine
 10
-52.6
 20
-7.0534230275
 30
0.0
 11
-52.6
 21
-8.4852813742
 31
0.0
  0
LINE
  5
223
330
1F
100
AcDbEntity
  8
SK3
  6
Continuous
370
    18
100
AcDbLine
 10
-52.6
 20
-8.4852813742
 30
0.0
 11
-52.6
 21
-9.7082039325
 31
0.0
  0
LINE
  5
224
330
1F
100
AcDbEntity
  8
SK3
  6
Continuous
370
    18
100
AcDbLine
 10
-52.6
 20
-9.7082039325
 30
0.0
 11
-52.6
 21
-10.6920782903
 31
0.0
  0
LINE
  5
225
330
1F
100
AcDbEntity
  8
SK3
  6
Continuous
370
    18
100
AcDbLine
 10
-52.6
 20
-10.6920782903
 30
0.0
 11
-52.6
 21
-11.4126781955
 31
0.0
  0
LINE
  5
226
330
1F
100
AcDbEntity
  8
SK3
  6
Continuous
370
    18
100
AcDbLine
 10
-52.6
 20
-11.4126781955
 30
0.0
 11
-52.6
 21
-11.8522600871
 31
0.0
  0
LINE
  5
227
330
1F
100
AcDbEntity
  8
SK3
  6
Continuous
370
    18
100
AcDbLine
 10
-52.6
 20
-11.8522600871
 30
0.0
 11
-52.6
 21
-12.0
 31
0.0
  0
LINE
  5
228
330
1F
100
AcDbEntity
  8
SK3
  6
Continuous
370
    18
100
AcDbLine
 10
-52.6000137084
 20
12.0
 30
0.0
 11
-52.6
 21
11.8522600871
 31
0.0
  0
LINE
  5
229
330
1F
100
AcDbEntity
  8
SK3
  6
Continuous
370
    18
100
AcDbLine
 10
-52.6
 20
11.8522600871
 30
0.0
 11
-52.6
 21
11.4126781955
 31
0.0
  0
LINE
  5
22A
330
1F
100
AcDbEntity
  8
SK3
  6
Continuous
370
    18
100
AcDbLine
 10
-52.6
 20
11.4126781955
 30
0.0
 11
-52.6
 21
10.6920782903
 31
0.0
  0
LINE
  5
22B
330
1F
100
AcDbEntity
  8
SK3
  6
Continuous
370
    18
100
AcDbLine
 10
-52.6
 20
10.6920782903
 30
0.0
 11
-52.6
 21
9.7082039325
 31
0.0
  0
LINE
  5
22C
330
1F
100
AcDbEntity
  8
SK3
  6
Continuous
370
    18
100
AcDbLine
 10
-52.6
 20
9.7082039325
 30
0.0
 11
-52.6
 21
8.4852813742
 31
0.0
  0
LINE
  5
22D
330
1F
100
AcDbEntity
  8
SK3
  6
Continuous
370
    18
100
AcDbLine
 10
-52.6
 20
8.4852813742
 30
0.0
 11
-52.6
 21
7.0534230275
 31
0.0
  0
LINE
  5
22E
330
1F
100
AcDbEntity
  8
SK3
  6
Continuous
370
    18
100
AcDbLine
 10
-52.6
 20
7.0534230275
 30
0.0
 11
-52.6
 21
5.4478859969
 31
0.0
  0
LINE
  5
22F
330
1F
100
AcDbEntity
  8
SK3
  6
Continuous
370
    18
100
AcDbLine
 10
-52.6
 20
5.4478859969
 30
0.0
 11
-52.6
 21
3.7082039325
 31
0.0
  0
LINE
  5
230
330
1F
100
AcDbEntity
  8
SK3
  6
Continuous
370
    18
100
AcDbLine
 10
-52.6
 20
3.7082039325
 30
0.0
 11
-52.6
 21
1.8772135805
 31
0.0
  0
LINE
  5
231
330
1F
100
AcDbEntity
  8
SK3
  6
Continuous
370
    18
100
AcDbLine
 10
-52.6
 20
1.8772135805
 30
0.0
 11
-52.6
 21
0.0
 31
0.0
  0
LINE
  5
232
330
1F
100
AcDbEntity
  8
SK3
  6
Continuous
370
    18
100
AcDbLine
 10
47.34
 20
-11.0
 30
0.0
 11
111.70909635
 21
-11.0
 31
0.0
  0
LINE
  5
233
330
1F
100
AcDbEntity
  8
SK3
  6
Continuous
370
    18
100
AcDbLine
 10
111.70909635
 20
11.0
 30
0.0
 11
47.34
 21
11.0
 31
0.0
  0
LINE
  5
234
330
1F
100
AcDbEntity
  8
SK3
  6
Continuous
370
    18
100
AcDbLine
 10
47.34
 20
0.0
 30
0.0
 11
47.34
 21
1.8105404931
 31
0.0
  0
LINE
  5
235
330
1F
100
AcDbEntity
  8
SK3
  6
Continuous
370
    18
100
AcDbLine
 10
47.3399286515
 20
1.8105404931
 30
0.0
 11
47.34
 21
3.5716941613
 31
0.0
  0
LINE
  5
236
330
1F
100
AcDbEntity
  8
SK3
  6
Continuous
370
    18
100
AcDbLine
 10
47.34
 20
3.5716941613
 30
0.0
 11
47.34
 21
5.2354213234
 31
0.0
  0
LINE
  5
237
330
1F
100
AcDbEntity
  8
SK3
  6
Continuous
370
    18
100
AcDbLine
 10
47.34
 20
5.2354213234
 30
0.0
 11
47.34
 21
6.7563398396
 31
0.0
  0
LINE
  5
238
330
1F
100
AcDbEntity
  8
4
  6
CENTERX2
370
    18
100
AcDbLine
 10
162.7543932629
 20
0.0
 30
0.0
 11
-2.4206306082
 21
0.0
 31
0.0
  0
LINE
  5
239
330
1F
100
AcDbEntity
  8
SK4
  6
CENTERX2
370
    18
100
AcDbLine
 10
163.4364703609
 20
0.0
 30
0.0
 11
-104.0547487288
 21
0.0
 31
0.0
  0
LINE
  5
23A
330
1F
100
AcDbEntity
  8
SK3
  6
Continuous
370
    18
100
AcDbLine
 10
47.34
 20
6.7563398396
 30
0.0
 11
47.34
 21
8.0929630174
 31
0.0
  0
LINE
  5
23B
330
1F
100
AcDbEntity
  8
SK3
  6
Continuous
370
    18
100
AcDbLine
 10
47.34
 20
8.0929630174
 30
0.0
 11
47.34
 21
9.2088312609
 31
0.0
  0
LINE
  5
23C
330
1F
100
AcDbEntity
  8
SK3
  6
Continuous
370
    18
100
AcDbLine
 10
47.34
 20
9.2088312609
 30
0.0
 11
47.34
 21
10.0735065932
 31
0.0
  0
LINE
  5
23D
330
1F
100
AcDbEntity
  8
SK3
  6
Continuous
370
    18
100
AcDbLine
 10
47.34
 20
10.0735065932
 30
0.0
 11
47.34
 21
10.6634029253
 31
0.0
  0
LINE
  5
23E
330
1F
100
AcDbEntity
  8
SK3
  6
Continuous
370
    18
100
AcDbLine
 10
47.34
 20
10.6634029253
 30
0.0
 11
47.34
 21
10.9624294231
 31
0.0
  0
LINE
  5
23F
330
1F
100
AcDbEntity
  8
SK3
  6
Continuous
370
    18
100
AcDbLine
 10
47.34
 20
10.9624294231
 30
0.0
 11
47.34
 21
11.0
 31
0.0
  0
LINE
  5
240
330
1F
100
AcDbEntity
  8
SK3
  6
Continuous
370
    18
100
AcDbLine
 10
47.3399286515
 20
-11.0
 30
0.0
 11
47.34
 21
-10.9624294231
 31
0.0
  0
LINE
  5
241
330
1F
100
AcDbEntity
  8
SK3
  6
Continuous
370
    18
100
AcDbLine
 10
47.34
 20
-10.9624294231
 30
0.0
 11
47.34
 21
-10.6634029253
 31
0.0
  0
LINE
  5
242
330
1F
100
AcDbEntity
  8
SK3
  6
Continuous
370
    18
100
AcDbLine
 10
47.34
 20
-10.6634029253
 30
0.0
 11
47.34
 21
-10.0735065932
 31
0.0
  0
LINE
  5
243
330
1F
100
AcDbEntity
  8
SK3
  6
Continuous
370
    18
100
AcDbLine
 10
47.34
 20
-10.0735065932
 30
0.0
 11
47.34
 21
-9.2088312609
 31
0.0
  0
LINE
  5
244
330
1F
100
AcDbEntity
  8
SK3
  6
Continuous
370
    18
100
AcDbLine
 10
47.34
 20
-9.2088312609
 30
0.0
 11
47.34
 21
-8.0929630174
 31
0.0
  0
LINE
  5
245
330
1F
100
AcDbEntity
  8
SK3
  6
Continuous
370
    18
100
AcDbLine
 10
47.34
 20
-8.0929630174
 30
0.0
 11
47.34
 21
-6.7563398396
 31
0.0
  0
LINE
  5
246
330
1F
100
AcDbEntity
  8
SK3
  6
Continuous
370
    18
100
AcDbLine
 10
47.34
 20
-6.7563398396
 30
0.0
 11
47.34
 21
-5.2354213234
 31
0.0
  0
LINE
  5
247
330
1F
100
AcDbEntity
  8
SK3
  6
Continuous
370
    18
100
AcDbLine
 10
47.34
 20
-5.2354213234
 30
0.0
 11
47.34
 21
-3.5716941613
 31
0.0
  0
LINE
  5
248
330
1F
100
AcDbEntity
  8
SK3
  6
Continuous
370
    18
100
AcDbLine
 10
47.34
 20
-3.5716941613
 30
0.0
 11
47.34
 21
-1.8105404931
 31
0.0
  0
LINE
  5
249
330
1F
100
AcDbEntity
  8
SK3
  6
Continuous
370
    18
100
AcDbLine
 10
47.34
 20
-1.8105404931
 30
0.0
 11
47.34
 21
0.0
 31
0.0
  0
ARC
  5
24A
330
1F
100
AcDbEntity
  8
1
  6
Continuous
370
    25
100
AcDbCircle
 10
2.45
 20
35.425
 30
0.0
 40
0.7500000000000013
100
AcDbArc
 50
245.0
 51
0.0
  0
ARC
  5
24B
330
1F
100
AcDbEntity
  8
1
  6
Continuous
370
    25
100
AcDbCircle
 10
2.45
 20
-35.425
 30
0.0
 40
0.7500000000000013
100
AcDbArc
 50
0.0
 51
115.0
  0
ARC
  5
24C
330
1F
100
AcDbEntity
  8
1
  6
Continuous
370
    25
100
AcDbCircle
 10
22.05
 20
-27.8
 30
0.0
 40
3.000000000000004
100
AcDbArc
 50
90.0
 51
180.0
  0
ARC
  5
24D
330
1F
100
AcDbEntity
  8
1
  6
Continuous
370
    25
100
AcDbCircle
 10
22.05
 20
27.8
 30
0.0
 40
3.000000000000014
100
AcDbArc
 50
180.0
 51
270.0
  0
ARC
  5
24E
330
1F
100
AcDbEntity
  8
SK1
  6
Continuous
370
    25
100
AcDbCircle
 10
-99.35
 20
18.1625211762
 30
0.0
 40
2.249999999999999
100
AcDbArc
 50
98.2972222222
 51
180.0
  0
ARC
  5
24F
330
1F
100
AcDbEntity
  8
SK1
  6
Continuous
370
    25
100
AcDbCircle
 10
-99.35
 20
-18.1625211762
 30
0.0
 40
2.250000000000017
100
AcDbArc
 50
180.0
 51
261.7027777778
  0
ARC
  5
250
330
1F
100
AcDbEntity
  8
SK3
  6
HIDDEN
370
    18
100
AcDbCircle
 10
-0.4832596518
 20
-15.47591162
 30
0.0
 40
3.707989375296141
100
AcDbArc
 50
353.3790594847
 51
6.6209405153
  0
ARC
  5
251
330
1F
100
AcDbEntity
  8
SK3
  6
HIDDEN
370
    18
100
AcDbCircle
 10
-0.4832596518
 20
15.47591162
 30
0.0
 40
3.707989375296805
100
AcDbArc
 50
353.3790594847
 51
6.6209405153
  0
ARC
  5
252
330
1F
100
AcDbEntity
  8
SK3
  6
HIDDEN
370
    18
100
AcDbCircle
 10
146.34
 20
16.9902680687
 30
0.0
 40
1.0
100
AcDbArc
 50
278.0
 51
0.0
  0
ARC
  5
253
330
1F
100
AcDbEntity
  8
SK3
  6
HIDDEN
370
    18
100
AcDbCircle
 10
146.34
 20
-16.9902680687
 30
0.0
 40
1.0
100
AcDbArc
 50
0.0
 51
82.0
  0
SPLINE
  5
254
330
1F
100
AcDbEntity
  8
1
  6
Continuous
370
    25
100
AcDbSpline
210
0.0
220
0.0
230
1.0
 70
     8
 71
     3
 72
    10
 73
     6
 74
     0
 42
0.000000001
 43
0.00000001
 40
0.0
 40
0.0
 40
0.0
 40
0.0
 40
0.005438820190111
 40
0.994561179809889
 40
1.0
 40
1.0
 40
1.0
 40
1.0
 10
158.7633963661657
 20
-8.83286273854457
 30
0.0
 10
158.7639850827151
 20
-8.840704111183207
 30
0.0
 10
158.8716397955899
 20
-10.27460421271321
 30
0.0
 10
158.8716397955893
 20
-11.72539578728618
 30
0.0
 10
158.7639850827151
 20
-13.15929588881647
 30
0.0
 10
158.7633963661657
 20
-13.1671372614551
 30
0.0
  0
SPLINE
  5
255
330
1F
100
AcDbEntity
  8
1
  6
Continuous
370
    25
100
AcDbSpline
210
0.0
220
0.0
230
1.0
 70
     8
 71
     3
 72
    10
 73
     6
 74
     0
 42
0.000000001
 43
0.00000001
 40
0.0
 40
0.0
 40
0.0
 40
0.0
 40
0.0054388201901107
 40
0.9945611798098903
 40
1.0
 40
1.0
 40
1.0
 40
1.0
 10
158.7633963661657
 20
13.16713726145544
 30
0.0
 10
158.7639850827151
 20
13.15929588881681
 30
0.0
 10
158.87163979559
 20
11.72539578728641
 30
0.0
 10
158.8716397955924
 20
10.27460421271389
 30
0.0
 10
158.7639850827151
 20
8.840704111183609
 30
0.0
 10
158.7633963661657
 20
8.832862738544978
 30
0.0
  0
SPLINE
  5
256
330
1F
100
AcDbEntity
  8
1
  6
Continuous
370
    25
100
AcDbSpline
210
0.0
220
0.0
230
1.0
 70
     8
 71
     3
 72
    11
 73
     7
 74
     0
 42
0.000000001
 43
0.00000001
 40
0.0
 40
0.0
 40
0.0
 40
0.0
 40
0.1197941731576425
 40
0.4953992706251167
 40
0.8802058268423579
 40
0.9999999999999999
 40
0.9999999999999999
 40
0.9999999999999999
 40
0.9999999999999999
 10
141.0593551786826
 20
-15.20401881804267
 30
0.0
 10
141.0209524634839
 20
-14.99779485927062
 30
0.0
 10
140.862141090627
 20
-14.14497208777693
 30
0.0
 10
140.7581536186267
 20
-12.52818736657994
 30
0.0
 10
140.8592147129587
 20
-10.8212365765012
 30
0.0
 10
141.020956944633
 20
-9.821828831111441
 30
0.0
 10
141.0593551786826
 20
-9.584565550389238
 30
0.0
  0
SPLINE
  5
257
330
1F
100
AcDbEntity
  8
1
  6
Continuous
370
    25
100
AcDbSpline
210
0.0
220
0.0
230
1.0
 70
     8
 71
     3
 72
     9
 73
     5
 74
     0
 42
0.000000001
 43
0.00000001
 40
0.0
 40
0.0
 40
0.0
 40
0.0
 40
0.7604039300922016
 40
1.0
 40
1.0
 40
1.0
 40
1.0
 10
140.8042311537871
 20
-24.99850855772716
 30
0.0
 10
140.8273199348668
 20
-24.97832873445977
 30
0.0
 10
140.857683771988
 20
-24.95179044018117
 30
0.0
 10
141.0203749998728
 20
-24.82012975190471
 30
0.0
 10
141.0593551786826
 20
-24.78858436843231
 30
0.0
  0
SPLINE
  5
258
330
1F
100
AcDbEntity
  8
1
  6
Continuous
370
    25
100
AcDbSpline
210
0.0
220
0.0
230
1.0
 70
     8
 71
     3
 72
    10
 73
     6
 74
     0
 42
0.000000001
 43
0.00000001
 40
0.0
 40
0.0
 40
0.0
 40
0.0
 40
0.2395806232207099
 40
0.9907666030071723
 40
0.9999999999999999
 40
0.9999999999999999
 40
0.9999999999999999
 40
0.9999999999999999
 10
141.0593551786826
 20
24.78858436843229
 30
0.0
 10
141.0220962390163
 20
24.81867412779244
 30
0.0
 10
140.8680148588592
 20
24.94310793327217
 30
0.0
 10
140.7544886488605
 20
25.03991314024584
 30
0.0
 10
140.8036344011851
 20
24.99900528165348
 30
0.0
 10
140.8042311537872
 20
24.99850855772713
 30
0.0
  0
SPLINE
  5
259
330
1F
100
AcDbEntity
  8
1
  6
Continuous
370
    25
100
AcDbSpline
210
0.0
220
0.0
230
1.0
 70
     8
 71
     3
 72
    11
 73
     7
 74
     0
 42
0.000000001
 43
0.00000001
 40
0.0
 40
0.0
 40
0.0
 40
0.0
 40
0.1197941731576418
 40
0.495399270625117
 40
0.8802058268423587
 40
1.0
 40
1.0
 40
1.0
 40
1.0
 10
141.0593551786826
 20
9.584565550389716
 30
0.0
 10
141.020952463484
 20
9.821831010706251
 30
0.0
 10
140.862141090627
 20
10.80302344174937
 30
0.0
 10
140.7581536186266
 20
12.51045490262231
 30
0.0
 10
140.8592147129587
 20
14.12913233731168
 30
0.0
 10
141.0209569446331
 20
14.99779494165447
 30
0.0
 10
141.0593551786826
 20
15.20401881804308
 30
0.0
  0
SPLINE
  5
25A
330
1F
100
AcDbEntity
  8
1
  6
Continuous
370
    25
100
AcDbSpline
210
0.0
220
0.0
230
1.0
 70
    24
 71
     2
 72
     6
 73
     3
 74
     0
 42
0.000000001
 43
0.00000001
 40
0.0
 40
0.0
 40
0.0
 40
0.249999999999998
 40
0.249999999999998
 40
0.249999999999998
 10
3.200000000000022
 20
29.85
 30
0.0
 10
3.215211600272688
 20
29.85
 30
0.0
 10
3.246168525324153
 20
29.85
 30
0.0
  0
SPLINE
  5
25B
330
1F
100
AcDbEntity
  8
1
  6
Continuous
370
    25
100
AcDbSpline
210
0.0
220
0.0
230
1.0
 70
    24
 71
     3
 72
     8
 73
     4
 74
     0
 42
0.000000001
 43
0.00000001
 40
0.249999999999998
 40
0.249999999999998
 40
0.249999999999998
 40
0.249999999999998
 40
0.499999999999996
 40
0.499999999999996
 40
0.499999999999996
 40
0.499999999999996
 10
3.246168525324153
 20
29.85
 30
0.0
 10
3.277125450375618
 20
29.85
 30
0.0
 10
3.324391360501583
 20
29.85
 30
0.0
 10
3.388322433028432
 20
29.85
 30
0.0
  0
SPLINE
  5
25C
330
1F
100
AcDbEntity
  8
1
  6
Continuous
370
    25
100
AcDbSpline
210
0.0
220
0.0
230
1.0
 70
    24
 71
     3
 72
     8
 73
     4
 74
     0
 42
0.000000001
 43
0.00000001
 40
0.499999999999996
 40
0.499999999999996
 40
0.499999999999996
 40
0.499999999999996
 40
0.749999999999994
 40
0.749999999999994
 40
0.749999999999994
 40
0.749999999999994
 10
3.388322433028432
 20
29.85
 30
0.0
 10
3.452253505555322
 20
29.85
 30
0.0
 10
3.533292784974232
 20
29.85
 30
0.0
 10
3.630542153656616
 20
29.85
 30
0.0
  0
SPLINE
  5
25D
330
1F
100
AcDbEntity
  8
1
  6
Continuous
370
    25
100
AcDbSpline
210
0.0
220
0.0
230
1.0
 70
    24
 71
     3
 72
     8
 73
     4
 74
     0
 42
0.000000001
 43
0.00000001
 40
0.749999999999994
 40
0.749999999999994
 40
0.749999999999994
 40
0.749999999999994
 40
0.874999999999997
 40
0.874999999999997
 40
0.874999999999997
 40
0.874999999999997
 10
3.630542153656616
 20
29.85
 30
0.0
 10
3.679166837997822
 20
29.85
 30
0.0
 10
3.730166761843803
 20
29.85
 30
0.0
 10
3.783693176329331
 20
29.85
 30
0.0
  0
SPLINE
  5
25E
330
1F
100
AcDbEntity
  8
1
  6
Continuous
370
    25
100
AcDbSpline
210
0.0
220
0.0
230
1.0
 70
    24
 71
     3
 72
     8
 73
     4
 74
     0
 42
0.000000001
 43
0.00000001
 40
0.874999999999997
 40
0.874999999999997
 40
0.874999999999997
 40
0.874999999999997
 40
1.0
 40
1.0
 40
1.0
 40
1.0
 10
3.783693176329331
 20
29.85
 30
0.0
 10
3.837219590814844
 20
29.85
 30
0.0
 10
3.894124468199686
 20
29.85
 30
0.0
 10
3.950000000000023
 20
29.85
 30
0.0
  0
SPLINE
  5
25F
330
1F
100
AcDbEntity
  8
1
  6
Continuous
370
    25
100
AcDbSpline
210
0.0
220
0.0
230
1.0
 70
     8
 71
     3
 72
    16
 73
    12
 74
     0
 42
0.000000001
 43
0.00000001
 40
0.0
 40
0.0
 40
0.0
 40
0.0
 40
0.0702655834500339
 40
0.1233158853764726
 40
0.2470095128755299
 40
0.3705804022389961
 40
0.4954459633505522
 40
0.6237167738882113
 40
0.7463408569452532
 40
0.8740317336711644
 40
1.0
 40
1.0
 40
1.0
 40
1.0
 10
3.200000000000022
 20
-46.08655313910526
 30
0.0
 10
3.200854846599502
 20
-46.11407658737027
 30
0.0
 10
3.202355099783199
 20
-46.16238015541546
 30
0.0
 10
3.217299603974793
 20
-46.25808782523597
 30
0.0
 10
3.250651885062267
 20
-46.37166478936914
 30
0.0
 10
3.318573453323661
 20
-46.50186807386827
 30
0.0
 10
3.411530055818471
 20
-46.61811229051909
 30
0.0
 10
3.525601915061322
 20
-46.71380220984062
 30
0.0
 10
3.657301012418179
 20
-46.78523407699996
 30
0.0
 10
3.799970313154086
 20
-46.83129392638258
 30
0.0
 10
3.900217031007999
 20
-46.83711080614273
 30
0.0
 10
3.949999999999926
 20
-46.83999949467965
 30
0.0
  0
SPLINE
  5
260
330
1F
100
AcDbEntity
  8
1
  6
Continuous
370
    25
100
AcDbSpline
210
0.0
220
0.0
230
1.0
 70
    24
 71
     3
 72
     8
 73
     4
 74
     0
 42
0.000000001
 43
0.00000001
 40
0.0
 40
0.0
 40
0.0
 40
0.0
 40
0.2499999999999968
 40
0.2499999999999968
 40
0.2499999999999968
 40
0.2499999999999968
 10
18.30000000000001
 20
29.85
 30
0.0
 10
18.41247317381035
 20
29.85
 30
0.0
 10
18.5230959007128
 20
29.85
 30
0.0
 10
18.61937178891966
 20
29.85
 30
0.0
  0
SPLINE
  5
261
330
1F
100
AcDbEntity
  8
1
  6
Continuous
370
    25
100
AcDbSpline
210
0.0
220
0.0
230
1.0
 70
    24
 71
     3
 72
     8
 73
     4
 74
     0
 42
0.000000001
 43
0.00000001
 40
0.2499999999999968
 40
0.2499999999999968
 40
0.2499999999999968
 40
0.2499999999999968
 40
0.4999999999999936
 40
0.4999999999999936
 40
0.4999999999999936
 40
0.4999999999999936
 10
18.61937178891966
 20
29.85
 30
0.0
 10
18.71564767712652
 20
29.85
 30
0.0
 10
18.79771216328974
 20
29.85
 30
0.0
 10
18.86163687579913
 20
29.85
 30
0.0
  0
SPLINE
  5
262
330
1F
100
AcDbEntity
  8
1
  6
Continuous
370
    25
100
AcDbSpline
210
0.0
220
0.0
230
1.0
 70
    24
 71
     2
 72
     6
 73
     3
 74
     0
 42
0.000000001
 43
0.00000001
 40
0.4999999999999936
 40
0.4999999999999936
 40
0.4999999999999936
 40
1.0
 40
1.0
 40
1.0
 10
18.86163687579913
 20
29.85
 30
0.0
 10
18.98948630081787
 20
29.85
 30
0.0
 10
19.05000000000001
 20
29.85
 30
0.0
  0
SPLINE
  5
263
330
1F
100
AcDbEntity
  8
1
  6
Continuous
370
    25
100
AcDbSpline
210
0.0
220
0.0
230
1.0
 70
     8
 71
     3
 72
    18
 73
    14
 74
     0
 42
0.000000001
 43
0.00000001
 40
0.0
 40
0.0
 40
0.0
 40
0.0
 40
0.0626983258492625
 40
0.1258165051847916
 40
0.1893695477193543
 40
0.2533721018638449
 40
0.3759968912843907
 40
0.5042620932989594
 40
0.6288006984026461
 40
0.7525291943939613
 40
0.8763092484220619
 40
0.929519238942835
 40
1.0
 40
1.0
 40
1.0
 40
1.0
 10
18.30000000000001
 20
-46.83998369172548
 30
0.0
 10
18.3247558684264
 20
-46.8392712351408
 30
0.0
 10
18.37443338064117
 20
-46.83784155107244
 30
0.0
 10
18.44845011787388
 20
-46.82626550406231
 30
0.0
 10
18.52146090862539
 20
-46.80773768964372
 30
0.0
 10
18.61423623257469
 20
-46.77374164175332
 30
0.0
 10
18.72393529201954
 20
-46.71402271116256
 30
0.0
 10
18.83799186754576
 20
-46.61859333288464
 30
0.0
 10
18.93104818342119
 20
-46.50242428542084
 30
0.0
 10
18.99910820097194
 20
-46.37228117456017
 30
0.0
 10
19.03260113522134
 20
-46.25853666729891
 30
0.0
 10
19.04762892081985
 20
-46.16262651321793
 30
0.0
 10
19.04913934097294
 20
-46.1141604402796
 30
0.0
 10
19.05000000000001
 20
-46.08654377805899
 30
0.0
  0
SPLINE
  5
264
330
1F
100
AcDbEntity
  8
1
  6
Continuous
370
    25
100
AcDbSpline
210
0.0
220
0.0
230
1.0
 70
    24
 71
     3
 72
     8
 73
     4
 74
     0
 42
0.000000001
 43
0.00000001
 40
0.0
 40
0.0
 40
0.0
 40
0.0
 40
1.0
 40
1.0
 40
1.0
 40
1.0
 10
9.184999999999944
 20
29.85
 30
0.0
 10
8.751488371242885
 20
29.85
 30
0.0
 10
8.31171608151468
 20
29.85
 30
0.0
 10
7.866838492538081
 20
29.85
 30
0.0
  0
SPLINE
  5
265
330
1F
100
AcDbEntity
  8
1
  6
Continuous
370
    25
100
AcDbSpline
210
0.0
220
0.0
230
1.0
 70
     8
 71
     3
 72
     8
 73
     4
 74
     0
 42
0.000000001
 43
0.00000001
 40
0.0
 40
0.0
 40
0.0
 40
0.0
 40
1.0
 40
1.0
 40
1.0
 40
1.0
 10
8.130521853602469
 20
-46.5125524132195
 30
0.0
 10
8.482424487655585
 20
-45.88003154395729
 30
0.0
 10
8.833933628551227
 20
-45.24729785068292
 30
0.0
 10
9.184999999999235
 20
-44.61432468190951
 30
0.0
  0
SPLINE
  5
266
330
1F
100
AcDbEntity
  8
1
  6
Continuous
370
    25
100
AcDbSpline
210
0.0
220
0.0
230
1.0
 70
     8
 71
     3
 72
     8
 73
     4
 74
     0
 42
0.000000001
 43
0.00000001
 40
0.0
 40
0.0
 40
0.0
 40
0.0
 40
0.0006699591573321
 40
0.0006699591573321
 40
0.0006699591573321
 40
0.0006699591573321
 10
7.866838492538081
 20
-46.83999949467965
 30
0.0
 10
7.955017629963409
 20
-46.7309153932617
 30
0.0
 10
8.042915292502881
 20
-46.62176684535437
 30
0.0
 10
8.130521853602469
 20
-46.5125524132195
 30
0.0
  0
SPLINE
  5
267
330
1F
100
AcDbEntity
  8
1
  6
Continuous
370
    25
100
AcDbSpline
210
0.0
220
0.0
230
1.0
 70
    24
 71
     3
 72
     8
 73
     4
 74
     0
 42
0.000000001
 43
0.00000001
 40
0.0
 40
0.0
 40
0.0
 40
0.0
 40
1.0
 40
1.0
 40
1.0
 40
1.0
 10
14.33316150746192
 20
29.85
 30
0.0
 10
13.88822424534007
 20
29.85
 30
0.0
 10
13.44831765806796
 20
29.85
 30
0.0
 10
13.01500000000004
 20
29.85
 30
0.0
  0
SPLINE
  5
268
330
1F
100
AcDbEntity
  8
1
  6
Continuous
370
    25
100
AcDbSpline
210
0.0
220
0.0
230
1.0
 70
     8
 71
     3
 72
     8
 73
     4
 74
     0
 42
0.000000001
 43
0.00000001
 40
0.0
 40
0.0
 40
0.0
 40
0.0
 40
0.0006700607936505
 40
0.0006700607936505
 40
0.0006700607936505
 40
0.0006700607936505
 10
14.06942593373975
 20
-46.51245856453759
 30
0.0
 10
14.15704985947906
 20
-46.6216990307186
 30
0.0
 10
14.24496492723694
 20
-46.73087359359234
 30
0.0
 10
14.33316150746192
 20
-46.83998369172548
 30
0.0
  0
SPLINE
  5
269
330
1F
100
AcDbEntity
  8
1
  6
Continuous
370
    25
100
AcDbSpline
210
0.0
220
0.0
230
1.0
 70
     8
 71
     3
 72
     8
 73
     4
 74
     0
 42
0.000000001
 43
0.00000001
 40
0.0
 40
0.0
 40
0.0
 40
0.0
 40
1.0
 40
1.0
 40
1.0
 40
1.0
 10
13.01499999999998
 20
-44.61432468190731
 30
0.0
 10
13.36604900858748
 20
-45.24726654541842
 30
0.0
 10
13.7175407428891
 20
-45.87996895708407
 30
0.0
 10
14.06942593373975
 20
-46.51245856453759
 30
0.0
  0
SPLINE
  5
26A
330
1F
100
AcDbEntity
  8
1
  6
Continuous
370
    25
100
AcDbSpline
210
0.0
220
0.0
230
1.0
 70
     8
 71
     3
 72
    12
 73
     8
 74
     0
 42
0.000000001
 43
0.00000001
 40
0.0
 40
0.0
 40
0.0
 40
0.0
 40
0.2499999999999961
 40
0.2499999999999961
 40
0.4999999999999922
 40
0.4999999999999922
 40
1.0
 40
1.0
 40
1.0
 40
1.0
 10
12.26499999999998
 20
-43.63301502303043
 30
0.0
 10
12.36488078742804
 20
-43.63301502303046
 30
0.0
 10
12.46496899267101
 20
-43.65414350767924
 30
0.0
 10
12.64924433697573
 20
-43.73539237501941
 30
0.0
 10
12.73213615703764
 20
-43.79468442323347
 30
0.0
 10
12.93857820272237
 20
-44.01450213782636
 30
0.0
 10
13.01499999999998
 20
-44.21514437565123
 30
0.0
 10
13.01499999999998
 20
-44.41455279522693
 30
0.0
  0
SPLINE
  5
26B
330
1F
100
AcDbEntity
  8
1
  6
Continuous
370
    25
100
AcDbSpline
210
0.0
220
0.0
230
1.0
 70
    24
 71
     2
 72
     6
 73
     3
 74
     0
 42
0.000000001
 43
0.00000001
 40
0.0
 40
0.0
 40
0.0
 40
0.25
 40
0.25
 40
0.25
 10
13.01500000000001
 20
29.85
 30
0.0
 10
12.99976712842465
 20
29.85
 30
0.0
 10
12.96940924111184
 20
29.85
 30
0.0
  0
SPLINE
  5
26C
330
1F
100
AcDbEntity
  8
1
  6
Continuous
370
    25
100
AcDbSpline
210
0.0
220
0.0
230
1.0
 70
    24
 71
     3
 72
     8
 73
     4
 74
     0
 42
0.000000001
 43
0.00000001
 40
0.25
 40
0.25
 40
0.25
 40
0.25
 40
0.5
 40
0.5
 40
0.5
 40
0.5
 10
12.96940924111184
 20
29.85
 30
0.0
 10
12.93905135379898
 20
29.85
 30
0.0
 10
12.89250680873127
 20
29.85
 30
0.0
 10
12.82963809767022
 20
29.85
 30
0.0
  0
SPLINE
  5
26D
330
1F
100
AcDbEntity
  8
1
  6
Continuous
370
    25
100
AcDbSpline
210
0.0
220
0.0
230
1.0
 70
    24
 71
     3
 72
     8
 73
     4
 74
     0
 42
0.000000001
 43
0.00000001
 40
0.5
 40
0.5
 40
0.5
 40
0.5
 40
0.75
 40
0.75
 40
0.75
 40
0.75
 10
12.82963809767022
 20
29.85
 30
0.0
 10
12.76676938660919
 20
29.85
 30
0.0
 10
12.68590636195693
 20
29.85
 30
0.0
 10
12.58961969903435
 20
29.85
 30
0.0
  0
SPLINE
  5
26E
330
1F
100
AcDbEntity
  8
1
  6
Continuous
370
    25
100
AcDbSpline
210
0.0
220
0.0
230
1.0
 70
    24
 71
     3
 72
     8
 73
     4
 74
     0
 42
0.000000001
 43
0.00000001
 40
0.75
 40
0.75
 40
0.75
 40
0.75
 40
1.0
 40
1.0
 40
1.0
 40
1.0
 10
12.58961969903435
 20
29.85
 30
0.0
 10
12.49333303611175
 20
29.85
 30
0.0
 10
12.37892259690213
 20
29.85
 30
0.0
 10
12.26499999999998
 20
29.85
 30
0.0
  0
SPLINE
  5
26F
330
1F
100
AcDbEntity
  8
1
  6
Continuous
370
    25
100
AcDbSpline
210
0.0
220
0.0
230
1.0
 70
     8
 71
     3
 72
    12
 73
     8
 74
     0
 42
0.000000001
 43
0.00000001
 40
0.0
 40
0.0
 40
0.0
 40
0.0
 40
0.5000000000000014
 40
0.5000000000000014
 40
0.7500000000000007
 40
0.7500000000000007
 40
1.0
 40
1.0
 40
1.0
 40
1.0
 10
9.18499999999997
 20
-44.41455279522693
 30
0.0
 10
9.18499999999997
 20
-44.21464324025516
 30
0.0
 10
9.262577750173598
 20
-44.01319670577869
 30
0.0
 10
9.467487862287753
 20
-43.79512211107158
 30
0.0
 10
9.551169313489371
 20
-43.73525024845278
 30
0.0
 10
9.734123389872284
 20
-43.65450353783465
 30
0.0
 10
9.834260986428408
 20
-43.63301502303046
 30
0.0
 10
9.934999999999999
 20
-43.63301502303046
 30
0.0
  0
SPLINE
  5
270
330
1F
100
AcDbEntity
  8
1
  6
Continuous
370
    25
100
AcDbSpline
210
0.0
220
0.0
230
1.0
 70
    24
 71
     3
 72
     8
 73
     4
 74
     0
 42
0.000000001
 43
0.00000001
 40
0.0
 40
0.0
 40
0.0
 40
0.0
 40
0.25
 40
0.25
 40
0.25
 40
0.25
 10
9.934999999999944
 20
29.85
 30
0.0
 10
9.820633557571345
 20
29.85
 30
0.0
 10
9.705713694936724
 20
29.85
 30
0.0
 10
9.609616781792424
 20
29.85
 30
0.0
  0
SPLINE
  5
271
330
1F
100
AcDbEntity
  8
1
  6
Continuous
370
    25
100
AcDbSpline
210
0.0
220
0.0
230
1.0
 70
    24
 71
     3
 72
     8
 73
     4
 74
     0
 42
0.000000001
 43
0.00000001
 40
0.25
 40
0.25
 40
0.25
 40
0.25
 40
0.5
 40
0.5
 40
0.5
 40
0.5
 10
9.609616781792424
 20
29.85
 30
0.0
 10
9.51351986864811
 20
29.85
 30
0.0
 10
9.432800300690783
 20
29.85
 30
0.0
 10
9.370104098752247
 20
29.85
 30
0.0
  0
SPLINE
  5
272
330
1F
100
AcDbEntity
  8
1
  6
Continuous
370
    25
100
AcDbSpline
210
0.0
220
0.0
230
1.0
 70
    24
 71
     3
 72
     8
 73
     4
 74
     0
 42
0.000000001
 43
0.00000001
 40
0.5
 40
0.5
 40
0.5
 40
0.5
 40
0.75
 40
0.75
 40
0.75
 40
0.75
 10
9.370104098752247
 20
29.85
 30
0.0
 10
9.307407896813682
 20
29.85
 30
0.0
 10
9.260917188588985
 20
29.85
 30
0.0
 10
9.230556730383935
 20
29.85
 30
0.0
  0
SPLINE
  5
273
330
1F
100
AcDbEntity
  8
1
  6
Continuous
370
    25
100
AcDbSpline
210
0.0
220
0.0
230
1.0
 70
    24
 71
     2
 72
     6
 73
     3
 74
     0
 42
0.000000001
 43
0.00000001
 40
0.75
 40
0.75
 40
0.75
 40
1.0
 40
1.0
 40
1.0
 10
9.230556730383935
 20
29.85
 30
0.0
 10
9.200196272178857
 20
29.85
 30
0.0
 10
9.18499999999997
 20
29.85
 30
0.0
  0
SPLINE
  5
274
330
1F
100
AcDbEntity
  8
1
  6
Continuous
370
    25
100
AcDbSpline
210
0.0
220
0.0
230
1.0
 70
     8
 71
     3
 72
    14
 73
    10
 74
     0
 42
0.000000001
 43
0.00000001
 40
0.0
 40
0.0
 40
0.0
 40
0.0
 40
0.25
 40
0.25
 40
0.5
 40
0.5
 40
0.75
 40
0.75
 40
1.0
 40
1.0
 40
1.0
 40
1.0
 10
3.200000000000022
 20
37.55766399817753
 30
0.0
 10
3.200000000000022
 20
37.67012918224764
 30
0.0
 10
3.215021356358622
 20
37.78022583506725
 30
0.0
 10
3.277170561977336
 20
37.99535666632222
 30
0.0
 10
3.324005286895471
 20
38.0981659073132
 30
0.0
 10
3.452289036616776
 20
38.2823023534051
 30
0.0
 10
3.533762741077223
 20
38.36291800445689
 30
0.0
 10
3.726977015320903
 20
38.47818354595603
 30
0.0
 10
3.838206150636722
 20
38.51107795167555
 30
0.0
 10
3.950000000001577
 20
38.51107795167525
 30
0.0
  0
SPLINE
  5
275
330
1F
100
AcDbEntity
  8
1
  6
Continuous
370
    25
100
AcDbSpline
210
0.0
220
0.0
230
1.0
 70
     8
 71
     3
 72
    18
 73
    14
 74
     0
 42
0.000000001
 43
0.00000001
 40
0.0
 40
0.0
 40
0.0
 40
0.0
 40
0.0628259009467708
 40
0.1260711559913065
 40
0.1897450177972053
 40
0.2538565192576646
 40
0.3765993345906857
 40
0.5049362878691439
 40
0.6294139165169894
 40
0.7529966497956652
 40
0.8765579201829105
 40
0.9293595009785451
 40
1.0
 40
1.0
 40
1.0
 40
1.0
 10
3.950000000000023
 20
46.85823127070511
 30
0.0
 10
3.925252743194219
 20
46.85752588568463
 30
0.0
 10
3.875593045106318
 20
46.85611040729734
 30
0.0
 10
3.801598381450194
 20
46.84464744879475
 30
0.0
 10
3.728603123952664
 20
46.82629781718909
 30
0.0
 10
3.635865625855757
 20
46.79263450848275
 30
0.0
 10
3.526197182764005
 20
46.73350464806285
 30
0.0
 10
3.412129650427569
 20
46.63898088336002
 30
0.0
 10
3.319033717149722
 20
46.52387610759887
 30
0.0
 10
3.250933909624948
 20
46.39490909307989
 30
0.0
 10
3.217445206702727
 20
46.28227483878567
 30
0.0
 10
3.202385206335827
 20
46.18721779718973
 30
0.0
 10
3.200868146779765
 20
46.13918112138801
 30
0.0
 10
3.200000000000008
 20
46.11169183446906
 30
0.0
  0
SPLINE
  5
276
330
1F
100
AcDbEntity
  8
1
  6
Continuous
370
    25
100
AcDbSpline
210
0.0
220
0.0
230
1.0
 70
     8
 71
     3
 72
    12
 73
     8
 74
     0
 42
0.000000001
 43
0.00000001
 40
0.0
 40
0.0
 40
0.0
 40
0.0
 40
0.2500000000000032
 40
0.2500000000000032
 40
0.5000000000000063
 40
0.5000000000000063
 40
1.0
 40
1.0
 40
1.0
 40
1.0
 10
18.30000000000004
 20
38.51107795167515
 30
0.0
 10
18.41289482414816
 20
38.51107795167515
 30
0.0
 10
18.52359129640865
 20
38.47784171459015
 30
0.0
 10
18.71564346709772
 20
38.36327503607398
 30
0.0
 10
18.79756672136534
 20
38.28247143446088
 30
0.0
 10
18.99012152039931
 20
38.00619514557205
 30
0.0
 10
19.05000000000001
 20
37.7818850926318
 30
0.0
 10
19.05000000000001
 20
37.55766399817753
 30
0.0
  0
SPLINE
  5
277
330
1F
100
AcDbEntity
  8
1
  6
Continuous
370
    25
100
AcDbSpline
210
0.0
220
0.0
230
1.0
 70
     8
 71
     3
 72
    16
 73
    12
 74
     0
 42
0.000000001
 43
0.00000001
 40
0.0
 40
0.0
 40
0.0
 40
0.0
 40
0.0704235324917237
 40
0.1230642824258228
 40
0.2465410154952414
 40
0.3699620981847407
 40
0.4947701282137383
 40
0.6231117705492392
 40
0.7458528211405459
 40
0.8737751255143994
 40
1.0
 40
1.0
 40
1.0
 40
1.0
 10
19.04999999999998
 20
46.11169090971544
 30
0.0
 10
19.04913774168568
 20
46.13908679102222
 30
0.0
 10
19.04763095557374
 20
46.1869607665976
 30
0.0
 10
19.03265477540776
 20
46.28181611695538
 30
0.0
 10
18.99930728622395
 20
46.39428270771895
 30
0.0
 10
18.93134576905017
 20
46.52330985766295
 30
0.0
 10
18.83834936054396
 20
46.63848896043993
 30
0.0
 10
18.72426575179409
 20
46.73327046240358
 30
0.0
 10
18.59258107831693
 20
46.80400948842771
 30
0.0
 10
18.44996489220699
 20
46.84961269359084
 30
0.0
 10
18.34976522204934
 20
46.85537054556151
 30
0.0
 10
18.30000000000004
 20
46.85823024341677
 30
0.0
  0
SPLINE
  5
278
330
1F
100
AcDbEntity
  8
1
  6
Continuous
370
    25
100
AcDbSpline
210
0.0
220
0.0
230
1.0
 70
     8
 71
     3
 72
    14
 73
    10
 74
     0
 42
0.000000001
 43
0.00000001
 40
0.0
 40
0.0
 40
0.0
 40
0.0
 40
0.25
 40
0.25
 40
0.5
 40
0.5
 40
0.75
 40
0.75
 40
1.0
 40
1.0
 40
1.0
 40
1.0
 10
9.184999999999999
 20
44.41455279522692
 30
0.0
 10
9.184999999999999
 20
44.31359684058481
 30
0.0
 10
9.20360187658227
 20
44.21433752079794
 30
0.0
 10
9.276534764576239
 20
44.02713873906652
 30
0.0
 10
9.330551489252576
 20
43.94089204401602
 30
0.0
 10
9.46755818463635
 20
43.79501127808648
 30
0.0
 10
9.550563536448717
 20
43.73552784744923
 30
0.0
 10
9.73460417277519
 20
43.65428111190435
 30
0.0
 10
9.834060436032216
 20
43.63301502303044
 30
0.0
 10
9.934999999999999
 20
43.63301502303044
 30
0.0
  0
SPLINE
  5
279
330
1F
100
AcDbEntity
  8
1
  6
Continuous
370
    25
100
AcDbSpline
210
0.0
220
0.0
230
1.0
 70
     8
 71
     3
 72
    12
 73
     8
 74
     0
 42
0.000000001
 43
0.00000001
 40
0.0
 40
0.0
 40
0.0
 40
0.0
 40
0.2499999999999973
 40
0.2499999999999973
 40
0.4999999999999947
 40
0.4999999999999947
 40
1.0
 40
1.0
 40
1.0
 40
1.0
 10
9.934999999999986
 20
34.33988206153305
 30
0.0
 10
9.820340523350652
 20
34.33988206153306
 30
0.0
 10
9.705538166582317
 20
34.37709050155937
 30
0.0
 10
9.513695677358255
 20
34.49933758638669
 30
0.0
 10
9.433027612081798
 20
34.58414775442158
 30
0.0
 10
9.244146091268778
 20
34.86954808682448
 30
0.0
 10
9.184999999999985
 20
35.10067185598796
 30
0.0
 10
9.18499999999997
 20
35.32760959929215
 30
0.0
  0
SPLINE
  5
27A
330
1F
100
AcDbEntity
  8
1
  6
Continuous
370
    25
100
AcDbSpline
210
0.0
220
0.0
230
1.0
 70
     8
 71
     3
 72
     8
 73
     4
 74
     0
 42
0.000000001
 43
0.00000001
 40
0.0
 40
0.0
 40
0.0
 40
0.0
 40
1.0
 40
1.0
 40
1.0
 40
1.0
 10
9.18499999999997
 20
35.57844103980172
 30
0.0
 10
8.751438636104364
 20
36.55868472544871
 30
0.0
 10
8.311697968222468
 20
37.53620135240671
 30
0.0
 10
7.866838492538081
 20
38.51107795167525
 30
0.0
  0
SPLINE
  5
27B
330
1F
100
AcDbEntity
  8
1
  6
Continuous
370
    25
100
AcDbSpline
210
0.0
220
0.0
230
1.0
 70
     8
 71
     3
 72
     8
 73
     4
 74
     0
 42
0.000000001
 43
0.00000001
 40
0.0000000000000066
 40
0.0000000000000066
 40
0.0000000000000066
 40
0.0000000000000066
 40
0.0006848321088936
 40
0.0006848321088936
 40
0.0006848321088936
 40
0.0006848321088936
 10
8.167076125718697
 20
46.44684529478869
 30
0.0
 10
8.067171857459785
 20
46.58403092663991
 30
0.0
 10
7.967090564748301
 20
46.72115902857908
 30
0.0
 10
7.866838492538081
 20
46.85823127070511
 30
0.0
  0
SPLINE
  5
27C
330
1F
100
AcDbEntity
  8
1
  6
Continuous
370
    25
100
AcDbSpline
210
0.0
220
0.0
230
1.0
 70
     8
 71
     3
 72
     8
 73
     4
 74
     0
 42
0.000000001
 43
0.00000001
 40
0.0
 40
0.0
 40
0.0
 40
0.0
 40
1.0
 40
1.0
 40
1.0
 40
1.0
 10
8.167076125718697
 20
46.44684529478869
 30
0.0
 10
8.506763895179702
 20
45.8362180728776
 30
0.0
 10
8.846087230516256
 20
45.22538488900314
 30
0.0
 10
9.18500000000828
 20
44.61432468190231
 30
0.0
  0
SPLINE
  5
27D
330
1F
100
AcDbEntity
  8
1
  6
Continuous
370
    25
100
AcDbSpline
210
0.0
220
0.0
230
1.0
 70
     8
 71
     3
 72
    14
 73
    10
 74
     0
 42
0.000000001
 43
0.00000001
 40
0.0
 40
0.0
 40
0.0
 40
0.0
 40
0.25
 40
0.25
 40
0.5
 40
0.5
 40
0.75
 40
0.75
 40
1.0
 40
1.0
 40
1.0
 40
1.0
 10
13.01499999999997
 20
35.32760959929214
 30
0.0
 10
13.01499999999997
 20
35.21322856537279
 30
0.0
 10
13.00020717297601
 20
35.10084302755592
 30
0.0
 10
12.93903926534706
 20
34.88033227781025
 30
0.0
 10
12.89333758405228
 20
34.77519549750903
 30
0.0
 10
12.76709112923276
 20
34.58421796605324
 30
0.0
 10
12.68685796093917
 20
34.49954708636006
 30
0.0
 10
12.49267738404916
 20
34.37609760771404
 30
0.0
 10
12.37895818171268
 20
34.33988206153305
 30
0.0
 10
12.26499999999998
 20
34.33988206153305
 30
0.0
  0
SPLINE
  5
27E
330
1F
100
AcDbEntity
  8
1
  6
Continuous
370
    25
100
AcDbSpline
210
0.0
220
0.0
230
1.0
 70
     8
 71
     3
 72
     8
 73
     4
 74
     0
 42
0.000000001
 43
0.00000001
 40
0.0
 40
0.0
 40
0.0
 40
0.0
 40
1.0
 40
1.0
 40
1.0
 40
1.0
 10
14.33316150746192
 20
38.51107795167515
 30
0.0
 10
13.88828033603337
 20
37.53615380778988
 30
0.0
 10
13.44843124794119
 20
36.5583905448473
 30
0.0
 10
13.01499999999997
 20
35.57844103980165
 30
0.0
  0
SPLINE
  5
27F
330
1F
100
AcDbEntity
  8
1
  6
Continuous
370
    25
100
AcDbSpline
210
0.0
220
0.0
230
1.0
 70
     8
 71
     3
 72
    12
 73
     8
 74
     0
 42
0.000000001
 43
0.00000001
 40
0.0
 40
0.0
 40
0.0
 40
0.0
 40
0.2500000000000008
 40
0.2500000000000008
 40
0.5000000000000016
 40
0.5000000000000016
 40
1.0
 40
1.0
 40
1.0
 40
1.0
 10
12.26499999999998
 20
43.63301502303044
 30
0.0
 10
12.36479485240281
 20
43.63301502303044
 30
0.0
 10
12.46675930776707
 20
43.65476370384825
 30
0.0
 10
12.64954501029553
 20
43.73569606259787
 30
0.0
 10
12.7329476184594
 20
43.79547861362951
 30
0.0
 10
12.93771265810281
 20
44.01372059499528
 30
0.0
 10
13.01500000000001
 20
44.21436013461167
 30
0.0
 10
13.01500000000001
 20
44.41455279522694
 30
0.0
  0
SPLINE
  5
280
330
1F
100
AcDbEntity
  8
1
  6
Continuous
370
    25
100
AcDbSpline
210
0.0
220
0.0
230
1.0
 70
     8
 71
     3
 72
     8
 73
     4
 74
     0
 42
0.000000001
 43
0.00000001
 40
0.0
 40
0.0
 40
0.0
 40
0.0
 40
1.0
 40
1.0
 40
1.0
 40
1.0
 10
13.01500000000001
 20
44.61432468190729
 30
0.0
 10
13.3539123530121
 20
45.22538413809417
 30
0.0
 10
13.6932352708625
 20
45.83621657161473
 30
0.0
 10
14.03292262199261
 20
46.44684304364807
 30
0.0
  0
SPLINE
  5
281
330
1F
100
AcDbEntity
  8
1
  6
Continuous
370
    25
100
AcDbSpline
210
0.0
220
0.0
230
1.0
 70
     8
 71
     3
 72
     8
 73
     4
 74
     0
 42
0.000000001
 43
0.00000001
 40
0.0
 40
0.0
 40
0.0
 40
0.0
 40
0.0006848358022666
 40
0.0006848358022666
 40
0.0006848358022666
 40
0.0006848358022666
 10
14.33316150746193
 20
46.85823024341677
 30
0.0
 10
14.23290901445182
 20
46.72115759420264
 30
0.0
 10
14.1328273042626
 20
46.5840290843219
 30
0.0
 10
14.03292262199261
 20
46.44684304364807
 30
0.0
  0
SPLINE
  5
282
330
1F
100
AcDbEntity
  8
SK3
  6
HIDDEN
370
    18
100
AcDbSpline
210
0.0
220
0.0
230
1.0
 70
     8
 71
     3
 72
    26
 73
    22
 74
     0
 42
0.000000001
 43
0.00000001
 40
0.5000000000000023
 40
0.5000000000000023
 40
0.5000000000000023
 40
0.5000000000000023
 40
0.562500000000002
 40
0.562500000000002
 40
0.6250000000000018
 40
0.6250000000000018
 40
0.6562500000000016
 40
0.6562500000000016
 40
0.6875000000000014
 40
0.6875000000000014
 40
0.7187500000000013
 40
0.7187500000000013
 40
0.7500000000000011
 40
0.7500000000000011
 40
0.8125000000000009
 40
0.8125000000000009
 40
0.8750000000000006
 40
0.8750000000000006
 40
0.9375000000000003
 40
0.9375000000000003
 40
1.0
 40
1.0
 40
1.0
 40
1.0
 10
11.63869831779565
 20
-9.819390371339171
 30
0.0
 10
11.80317915771346
 20
-9.806594466981524
 30
0.0
 10
11.95081782962316
 20
-9.812432081454652
 30
0.0
 10
12.22616299685254
 20
-9.868839301598985
 30
0.0
 10
12.35236515469922
 20
-9.918953620877934
 30
0.0
 10
12.51874661426346
 20
-10.04837289060642
 30
0.0
 10
12.5705195339626
 20
-10.10115000339706
 30
0.0
 10
12.6607018409839
 20
-10.2307174402682
 30
0.0
 10
12.70001796005851
 20
-10.30921538460792
 30
0.0
 10
12.75624339139554
 20
-10.49493258066069
 30
0.0
 10
12.77323165300573
 20
-10.60488156995179
 30
0.0
 10
12.7764946288975
 20
-10.84110300053594
 30
0.0
 10
12.76278670669286
 20
-10.96977043023355
 30
0.0
 10
12.68516730486988
 20
-11.34647137591039
 30
0.0
 10
12.58996305158956
 20
-11.58088814423521
 30
0.0
 10
12.37315603453726
 20
-11.98947715399228
 30
0.0
 10
12.24747178673939
 20
-12.17132846963914
 30
0.0
 10
11.9767673751945
 20
-12.48981349043051
 30
0.0
 10
11.83102686354766
 20
-12.62828009284707
 30
0.0
 10
11.50508373269929
 20
-12.86276351579462
 30
0.0
 10
11.32747339457478
 20
-12.95749122616793
 30
0.0
 10
11.12500000000002
 20
-13.01159523973413
 30
0.0
  0
SPLINE
  5
283
330
1F
100
AcDbEntity
  8
SK3
  6
HIDDEN
370
    18
100
AcDbSpline
210
0.0
220
0.0
230
1.0
 70
     8
 71
     3
 72
    34
 73
    30
 74
     0
 42
0.000000001
 43
0.00000001
 40
0.0
 40
0.0
 40
0.0
 40
0.0
 40
0.0312499999999995
 40
0.0312499999999995
 40
0.062499999999999
 40
0.062499999999999
 40
0.0937499999999993
 40
0.0937499999999993
 40
0.1249999999999995
 40
0.1249999999999995
 40
0.1562499999999998
 40
0.1562499999999998
 40
0.1875
 40
0.1875
 40
0.2187500000000002
 40
0.2187500000000002
 40
0.2500000000000005
 40
0.2500000000000005
 40
0.2812500000000007
 40
0.2812500000000007
 40
0.312500000000001
 40
0.312500000000001
 40
0.3750000000000016
 40
0.3750000000000016
 40
0.4062500000000021
 40
0.4062500000000021
 40
0.4375000000000026
 40
0.4375000000000026
 40
0.5000000000000023
 40
0.5000000000000023
 40
0.5000000000000023
 40
0.5000000000000023
 10
11.12500000000002
 20
-13.01159523973413
 30
0.0
 10
11.02376330271264
 20
-13.03864724651722
 30
0.0
 10
10.9187543404133
 20
-13.05441768585487
 30
0.0
 10
10.69982193729475
 20
-13.05649587060893
 30
0.0
 10
10.5856550442978
 20
-13.04203538439413
 30
0.0
 10
10.36433306908847
 20
-12.97958779527646
 30
0.0
 10
10.25386240054303
 20
-12.93066318687899
 30
0.0
 10
10.04998753866611
 20
-12.80335962284319
 30
0.0
 10
9.955887873020972
 20
-12.72514830576772
 30
0.0
 10
9.789076352163557
 20
-12.54575166602616
 30
0.0
 10
9.71802220267208
 20
-12.44674722204869
 30
0.0
 10
9.600536001433166
 20
-12.23250861951103
 30
0.0
 10
9.555159683901193
 20
-12.11851015366423
 30
0.0
 10
9.493538953914305
 20
-11.88585378314773
 30
0.0
 10
9.476799814585949
 20
-11.76451266100643
 30
0.0
 10
9.47348088875466
 20
-11.52533259241788
 30
0.0
 10
9.486354225371793
 20
-11.40705029377205
 30
0.0
 10
9.541906609790429
 20
-11.1728202404788
 30
0.0
 10
9.583939125903788
 20
-11.0602565773195
 30
0.0
 10
9.694361385739564
 20
-10.846257319463
 30
0.0
 10
9.764046986917323
 20
-10.74326010657129
 30
0.0
 10
10.00399120049172
 20
-10.46156575413967
 30
0.0
 10
10.21277179464261
 20
-10.30327029353933
 30
0.0
 10
10.54446991129004
 20
-10.12219171688675
 30
0.0
 10
10.65925898590052
 20
-10.0701256725963
 30
0.0
 10
10.87934718809652
 20
-9.984066675225826
 30
0.0
 10
10.98764418607846
 20
-9.948726825148107
 30
0.0
 10
11.29210738731379
 20
-9.863765363482623
 30
0.0
 10
11.47421747787786
 20
-9.83218627569682
 30
0.0
 10
11.63869831779565
 20
-9.819390371339171
 30
0.0
  0
SPLINE
  5
284
330
1F
100
AcDbEntity
  8
SK3
  6
HIDDEN
370
    18
100
AcDbSpline
210
0.0
220
0.0
230
1.0
 70
     8
 71
     3
 72
    30
 73
    26
 74
     0
 42
0.000000001
 43
0.00000001
 40
0.5000000000000019
 40
0.5000000000000019
 40
0.5000000000000019
 40
0.5000000000000019
 40
0.5625000000000014
 40
0.5625000000000014
 40
0.6250000000000009
 40
0.6250000000000009
 40
0.6875000000000004
 40
0.6875000000000004
 40
0.75
 40
0.75
 40
0.78125
 40
0.78125
 40
0.8125
 40
0.8125
 40
0.84375
 40
0.84375
 40
0.8749999999999999
 40
0.8749999999999999
 40
0.9062499999999999
 40
0.9062499999999999
 40
0.9374999999999999
 40
0.9374999999999999
 40
0.9687499999999999
 40
0.9687499999999999
 40
1.0
 40
1.0
 40
1.0
 40
1.0
 10
9.602846279599994
 20
-14.27915034605745
 30
0.0
 10
9.686456538694044
 20
-14.42125418637671
 30
0.0
 10
9.797407143448082
 20
-14.51131733768238
 30
0.0
 10
10.0401022360723
 20
-14.63242374926591
 30
0.0
 10
10.1757110634756
 20
-14.66434400040097
 30
0.0
 10
10.46843928875985
 20
-14.68785090664326
 30
0.0
 10
10.62555865364928
 20
-14.68003033605993
 30
0.0
 10
10.98145473780869
 20
-14.62436653420473
 30
0.0
 10
11.18157682258698
 20
-14.57632221838453
 30
0.0
 10
11.50801002825792
 20
-14.45860893436529
 30
0.0
 10
11.61873162334234
 20
-14.41242944660487
 30
0.0
 10
11.84220113938147
 20
-14.30063256215509
 30
0.0
 10
11.95412269444727
 20
-14.23490090158638
 30
0.0
 10
12.16107863552191
 20
-14.08747705033152
 30
0.0
 10
12.25901625186768
 20
-14.00366784802332
 30
0.0
 10
12.43052677631545
 20
-13.82249974419361
 30
0.0
 10
12.50593330594191
 20
-13.72350506925843
 30
0.0
 10
12.63000303324978
 20
-13.51367430078371
 30
0.0
 10
12.67841410243628
 20
-13.40398486856725
 30
0.0
 10
12.74789370637357
 20
-13.17359881812329
 30
0.0
 10
12.76810124630631
 20
-13.05468203931792
 30
0.0
 10
12.77891027826542
 20
-12.81644825424514
 30
0.0
 10
12.76940813581845
 20
-12.69449512908345
 30
0.0
 10
12.72129905847902
 20
-12.45817259633862
 30
0.0
 10
12.68301625646416
 20
-12.34304803310305
 30
0.0
 10
12.63040931107548
 20
-12.23233436389449
 30
0.0
  0
SPLINE
  5
285
330
1F
100
AcDbEntity
  8
SK3
  6
HIDDEN
370
    18
100
AcDbSpline
210
0.0
220
0.0
230
1.0
 70
     8
 71
     3
 72
    30
 73
    26
 74
     0
 42
0.000000001
 43
0.00000001
 40
0.0
 40
0.0
 40
0.0
 40
0.0
 40
0.0312499999999998
 40
0.0312499999999998
 40
0.0624999999999995
 40
0.0624999999999995
 40
0.0937499999999993
 40
0.0937499999999993
 40
0.1249999999999991
 40
0.1249999999999991
 40
0.1874999999999994
 40
0.1874999999999994
 40
0.2499999999999997
 40
0.2499999999999997
 40
0.3125000000000001
 40
0.3125000000000001
 40
0.3750000000000004
 40
0.3750000000000004
 40
0.4062500000000008
 40
0.4062500000000008
 40
0.4375000000000011
 40
0.4375000000000011
 40
0.4687500000000015
 40
0.4687500000000015
 40
0.5000000000000019
 40
0.5000000000000019
 40
0.5000000000000019
 40
0.5000000000000019
 10
12.63040931107548
 20
-12.23233436389449
 30
0.0
 10
12.57780236568681
 20
-12.12162069468591
 30
0.0
 10
12.51267206459286
 20
-12.01896209858487
 30
0.0
 10
12.35821503903319
 20
-11.83123217673013
 30
0.0
 10
12.26800655859486
 20
-11.74609765066656
 30
0.0
 10
12.07343499093588
 20
-11.60605794329095
 30
0.0
 10
11.96643370486027
 20
-11.54920121804523
 30
0.0
 10
11.74573264298169
 20
-11.46981719393704
 30
0.0
 10
11.63406552497716
 20
-11.44748668283041
 30
0.0
 10
11.2995180174265
 20
-11.42770686560555
 30
0.0
 10
11.09198428069912
 20
-11.47806879673301
 30
0.0
 10
10.72217844091611
 20
-11.6423624380891
 30
0.0
 10
10.55844908096561
 20
-11.75496051093684
 30
0.0
 10
10.25324958882674
 20
-12.02428585488773
 30
0.0
 10
10.1157688226028
 20
-12.17795893248257
 30
0.0
 10
9.862525619365014
 20
-12.5298809477604
 30
0.0
 10
9.746260896401736
 20
-12.72918710194078
 30
0.0
 10
9.60569266085022
 20
-13.06645756895111
 30
0.0
 10
9.56542163640589
 20
-13.18319961587503
 30
0.0
 10
9.503286004234473
 20
-13.42936776111953
 30
0.0
 10
9.482363995141242
 20
-13.55752069830108
 30
0.0
 10
9.470908412243768
 20
-13.80546799718865
 30
0.0
 10
9.48066481746275
 20
-13.92083957613718
 30
0.0
 10
9.525951505689815
 20
-14.12239475073319
 30
0.0
 10
9.561041150052976
 20
-14.20809842589782
 30
0.0
 10
9.602846279599994
 20
-14.27915034605745
 30
0.0
  0
SPLINE
  5
286
330
1F
100
AcDbEntity
  8
SK3
  6
HIDDEN
370
    18
100
AcDbSpline
210
0.0
220
0.0
230
1.0
 70
     8
 71
     3
 72
    28
 73
    24
 74
     0
 42
0.000000001
 43
0.00000001
 40
0.5000000000000018
 40
0.5000000000000018
 40
0.5000000000000018
 40
0.5000000000000018
 40
0.5625000000000017
 40
0.5625000000000017
 40
0.6250000000000014
 40
0.6250000000000014
 40
0.6562500000000013
 40
0.6562500000000013
 40
0.6875000000000013
 40
0.6875000000000013
 40
0.7500000000000011
 40
0.7500000000000011
 40
0.781250000000001
 40
0.781250000000001
 40
0.812500000000001
 40
0.812500000000001
 40
0.8437500000000009
 40
0.8437500000000009
 40
0.8750000000000008
 40
0.8750000000000008
 40
0.9375000000000003
 40
0.9375000000000003
 40
1.0
 40
1.0
 40
1.0
 40
1.0
 10
11.12563994626159
 20
-1.996101168021604
 30
0.0
 10
10.91011437952924
 20
-1.996018069188726
 30
0.0
 10
10.69267832557778
 20
-2.039126344319985
 30
0.0
 10
10.29539433937092
 20
-2.20188212549937
 30
0.0
 10
10.11161083813503
 20
-2.322930192641501
 30
0.0
 10
9.883251825173343
 20
-2.545838823969124
 30
0.0
 10
9.813576404423651
 20
-2.628421736312961
 30
0.0
 10
9.69386526598734
 20
-2.801888809725698
 30
0.0
 10
9.643080692690209
 20
-2.893265101092002
 30
0.0
 10
9.518376273476182
 20
-3.181219677072425
 30
0.0
 10
9.475181111892827
 20
-3.384978395674088
 30
0.0
 10
9.474910292143937
 20
-3.692402665103192
 30
0.0
 10
9.485525364821113
 20
-3.792650637691089
 30
0.0
 10
9.527361605002573
 20
-3.988926781036531
 30
0.0
 10
9.559127005294183
 20
-4.085974642666635
 30
0.0
 10
9.641761889127535
 20
-4.269460320685828
 30
0.0
 10
9.69235783746103
 20
-4.35606778652025
 30
0.0
 10
9.812049533591189
 20
-4.519370626251789
 30
0.0
 10
9.881502931629344
 20
-4.596024389578311
 30
0.0
 10
10.10915986542967
 20
-4.801564579329627
 30
0.0
 10
10.29289812149012
 20
-4.911381338388226
 30
0.0
 10
10.6897041962527
 20
-5.058204639393598
 30
0.0
 10
10.90662329565961
 20
-5.097086693245094
 30
0.0
 10
11.12500000000002
 20
-5.097086693245094
 30
0.0
  0
SPLINE
  5
287
330
1F
100
AcDbEntity
  8
SK3
  6
HIDDEN
370
    18
100
AcDbSpline
210
0.0
220
0.0
230
1.0
 70
     8
 71
     3
 72
    32
 73
    28
 74
     0
 42
0.000000001
 43
0.00000001
 40
0.0
 40
0.0
 40
0.0
 40
0.0
 40
0.03125
 40
0.03125
 40
0.0625000000000001
 40
0.0625000000000001
 40
0.0937500000000001
 40
0.0937500000000001
 40
0.1250000000000001
 40
0.1250000000000001
 40
0.1875000000000004
 40
0.1875000000000004
 40
0.2500000000000006
 40
0.2500000000000006
 40
0.2812500000000007
 40
0.2812500000000007
 40
0.3125000000000007
 40
0.3125000000000007
 40
0.3750000000000011
 40
0.3750000000000011
 40
0.4062500000000013
 40
0.4062500000000013
 40
0.4375000000000014
 40
0.4375000000000014
 40
0.4687500000000017
 40
0.4687500000000017
 40
0.5000000000000018
 40
0.5000000000000018
 40
0.5000000000000018
 40
0.5000000000000018
 10
11.12500000000002
 20
-5.09708669324508
 30
0.0
 10
11.23418835217023
 20
-5.097086693245073
 30
0.0
 10
11.34151770992121
 20
-5.087592280637224
 30
0.0
 10
11.55262119864313
 20
-5.05035328282312
 30
0.0
 10
11.65750188500522
 20
-5.022144718194621
 30
0.0
 10
11.85723206127548
 20
-4.948425651004201
 30
0.0
 10
11.95193469708969
 20
-4.903253657613973
 30
0.0
 10
12.13116276266322
 20
-4.796141864207973
 30
0.0
 10
12.21588967224335
 20
-4.733714962607313
 30
0.0
 10
12.44379001987327
 20
-4.528226954003636
 30
0.0
 10
12.56667185620767
 20
-4.361307298992603
 30
0.0
 10
12.73136644434671
 20
-3.996506848037345
 30
0.0
 10
12.77487701805388
 20
-3.794669554412863
 30
0.0
 10
12.77506109000722
 20
-3.490806318710467
 30
0.0
 10
12.76431049922767
 20
-3.387314094537887
 30
0.0
 10
12.72214620099907
 20
-3.186117396486672
 30
0.0
 10
12.69095101734179
 20
-3.08776111102204
 30
0.0
 10
12.56679370284722
 20
-2.799711533441517
 30
0.0
 10
12.4457525454473
 20
-2.623327713085794
 30
0.0
 10
12.21525712097303
 20
-2.397781040868102
 30
0.0
 10
12.13211918201895
 20
-2.330847797333821
 30
0.0
 10
11.95362050149632
 20
-2.213180055808395
 30
0.0
 10
11.85708682480396
 20
-2.162031547661494
 30
0.0
 10
11.65747885892193
 20
-2.080059091289707
 30
0.0
 10
11.55463804039723
 20
-2.049009526200338
 30
0.0
 10
11.34287187536422
 20
-2.006929379023158
 30
0.0
 10
11.23340272962778
 20
-1.996142717438032
 30
0.0
 10
11.12563994626159
 20
-1.996101168021604
 30
0.0
  0
SPLINE
  5
288
330
1F
100
AcDbEntity
  8
SK3
  6
HIDDEN
370
    18
100
AcDbSpline
210
0.0
220
0.0
230
1.0
 70
     8
 71
     3
 72
     8
 73
     4
 74
     0
 42
0.000000001
 43
0.00000001
 40
0.0
 40
0.0
 40
0.0
 40
0.0
 40
1.0
 40
1.0
 40
1.0
 40
1.0
 10
18.62222367971218
 20
38.27828032561322
 30
0.0
 10
18.57967905741148
 20
38.19079645383315
 30
0.0
 10
18.55
 20
38.09815315408498
 30
0.0
 10
18.54999999999998
 20
38.00000000000014
 30
0.0
  0
SPLINE
  5
289
330
1F
100
AcDbEntity
  8
SK3
  6
HIDDEN
370
    18
100
AcDbSpline
210
0.0
220
0.0
230
1.0
 70
     8
 71
     3
 72
    10
 73
     6
 74
     0
 42
0.000000001
 43
0.00000001
 40
0.0
 40
0.0
 40
0.0
 40
0.0
 40
0.5
 40
0.5
 40
1.0
 40
1.0
 40
1.0
 40
1.0
 10
18.55000000000744
 20
-35.79999999999576
 30
0.0
 10
18.55000000000744
 20
-35.8783298617143
 30
0.0
 10
18.56919261947472
 20
-35.9543536601069
 30
0.0
 10
18.62822766586911
 20
-36.09767651880141
 30
0.0
 10
18.66688319560308
 20
-36.16466407334153
 30
0.0
 10
18.70929403547809
 20
-36.22973087532028
 30
0.0
  0
SPLINE
  5
28A
330
1F
100
AcDbEntity
  8
SK3
  6
HIDDEN
370
    18
100
AcDbSpline
210
0.0
220
0.0
230
1.0
 70
     8
 71
     3
 72
     8
 73
     4
 74
     0
 42
0.000000001
 43
0.00000001
 40
0.0
 40
0.0
 40
0.0
 40
0.0
 40
1.0
 40
1.0
 40
1.0
 40
1.0
 10
3.699999999999979
 20
38.00000000000014
 30
0.0
 10
3.699999999999768
 20
38.09748331858952
 30
0.0
 10
3.670255957673583
 20
38.19093071311188
 30
0.0
 10
3.627775038300658
 20
38.27828296173485
 30
0.0
  0
SPLINE
  5
28B
330
1F
100
AcDbEntity
  8
SK3
  6
HIDDEN
370
    18
100
AcDbSpline
210
0.0
220
0.0
230
1.0
 70
    24
 71
     2
 72
     6
 73
     3
 74
     0
 42
0.000000001
 43
0.00000001
 40
0.0
 40
0.0
 40
0.0
 40
0.5
 40
0.5
 40
0.5
 10
3.540624663026875
 20
-35.30000000000002
 30
0.0
 10
3.487241834976576
 20
-35.30000000000002
 30
0.0
 10
3.422396832222063
 20
-35.3
 30
0.0
  0
SPLINE
  5
28C
330
1F
100
AcDbEntity
  8
SK3
  6
HIDDEN
370
    18
100
AcDbSpline
210
0.0
220
0.0
230
1.0
 70
    24
 71
     3
 72
     8
 73
     4
 74
     0
 42
0.000000001
 43
0.00000001
 40
0.5
 40
0.5
 40
0.5
 40
0.5
 40
1.0
 40
1.0
 40
1.0
 40
1.0
 10
3.422396832222063
 20
-35.3
 30
0.0
 10
3.357551829467523
 20
-35.3
 30
0.0
 10
3.280201683490733
 20
-35.3
 30
0.0
 10
3.199999999999994
 20
-35.3
 30
0.0
  0
SPLINE
  5
28D
330
1F
100
AcDbEntity
  8
SK3
  6
HIDDEN
370
    18
100
AcDbSpline
210
0.0
220
0.0
230
1.0
 70
     8
 71
     3
 72
    41
 73
    37
 74
     0
 42
0.000000001
 43
0.00000001
 40
0.0
 40
0.0
 40
0.0
 40
0.0
 40
0.0157633675970147
 40
0.0314990224856953
 40
0.062921399247048
 40
0.0880715293551422
 40
0.1258724852349553
 40
0.1545373464664311
 40
0.1716556504184346
 40
0.1972674629356937
 40
0.218580565753165
 40
0.250553614255775
 40
0.27903768438853
 40
0.3220404194866058
 40
0.3436278439355497
 40
0.3758194428220551
 40
0.4042923975680548
 40
0.4468999492783287
 40
0.4682119344241838
 40
0.5002468981436254
 40
0.528859451038901
 40
0.5719881174743906
 40
0.5934450420178494
 40
0.6254929612258051
 40
0.653910993304754
 40
0.6965265373552767
 40
0.7178831644931977
 40
0.7500336381150795
 40
0.7787834922557196
 40
0.8217656930061131
 40
0.8431488480037065
 40
0.8751518076539703
 40
0.9000180006497549
 40
0.9373587344622656
 40
0.9685910076474759
 40
1.0
 40
1.0
 40
1.0
 40
1.0
 10
3.949999999999259
 20
-46.5125524132195
 30
0.0
 10
3.946552364403402
 20
-46.51252613338655
 30
0.0
 10
3.939663154309963
 20
-46.51247361992178
 30
0.0
 10
3.925911404360702
 20
-46.51191298574209
 30
0.0
 10
3.910137911437781
 20
-46.51067766605465
 30
0.0
 10
3.889656244752904
 20
-46.50808464042166
 30
0.0
 10
3.869922275361801
 20
-46.50453178496212
 30
0.0
 10
3.852130612943205
 20
-46.50030405796703
 30
0.0
 10
3.837085331182127
 20
-46.49612043902953
 30
0.0
 10
3.823727235772512
 20
-46.49189243637851
 30
0.0
 10
3.807486678462577
 20
-46.48605356442753
 30
0.0
 10
3.790930862409947
 20
-46.47926717866915
 30
0.0
 10
3.770437533719875
 20
-46.46965924674337
 30
0.0
 10
3.752524907784202
 20
-46.45994884321696
 30
0.0
 10
3.73446657854501
 20
-46.44890154541827
 30
0.0
 10
3.719534855686393
 20
-46.43885278190216
 30
0.0
 10
3.701429636317672
 20
-46.42533920403356
 30
0.0
 10
3.685930414200303
 20
-46.41234610195716
 30
0.0
 10
3.670552124823728
 20
-46.39806259976346
 30
0.0
 10
3.657934332865501
 20
-46.38531876508813
 30
0.0
 10
3.642748407604757
 20
-46.36844300077157
 30
0.0
 10
3.629971273470298
 20
-46.35253894325512
 30
0.0
 10
3.617572092933272
 20
-46.33542102208935
 30
0.0
 10
3.60766531943077
 20
-46.32048214913927
 30
0.0
 10
3.596085186951883
 20
-46.30113249715362
 30
0.0
 10
3.586656553419457
 20
-46.28324211302569
 30
0.0
 10
3.577766627581219
 20
-46.26418915531215
 30
0.0
 10
3.57082170986403
 20
-46.24758499146633
 30
0.0
 10
3.563022144170133
 20
-46.22624003556047
 30
0.0
 10
3.557066796628455
 20
-46.20674824240279
 30
0.0
 10
3.551882028926284
 20
-46.18631725041323
 30
0.0
 10
3.548334567726963
 20
-46.1695673477123
 30
0.0
 10
3.544915449864086
 20
-46.14924447934335
 30
0.0
 10
3.542477658706161
 20
-46.12894518106503
 30
0.0
 10
3.540900422917617
 20
-46.10712431110587
 30
0.0
 10
3.540716755706372
 20
-46.09342308075572
 30
0.0
 10
3.540624663026168
 20
-46.08655313910315
 30
0.0
  0
SPLINE
  5
28E
330
1F
100
AcDbEntity
  8
SK3
  6
HIDDEN
370
    18
100
AcDbSpline
210
0.0
220
0.0
230
1.0
 70
     8
 71
     3
 72
    41
 73
    37
 74
     0
 42
0.000000001
 43
0.00000001
 40
0.0
 40
0.0
 40
0.0
 40
0.0
 40
0.0125872535342696
 40
0.0314228812143052
 40
0.0627299162080721
 40
0.0877396404974403
 40
0.1252707865947014
 40
0.1539475319487161
 40
0.1970376121070339
 40
0.2184721920278648
 40
0.2505163813291434
 40
0.2789486892562606
 40
0.3216178740378247
 40
0.3430092675282271
 40
0.3752545160846409
 40
0.4040075601288379
 40
0.4468636571273615
 40
0.4682153834278338
 40
0.500209511259279
 40
0.5286749473692556
 40
0.571535425925226
 40
0.5930955303010891
 40
0.6253853865992955
 40
0.653918612678895
 40
0.6965921507819104
 40
0.7179244320751502
 40
0.7499744878135047
 40
0.7785960199604594
 40
0.7958518824807477
 40
0.8217151668917635
 40
0.8431553291695478
 40
0.8751891354494825
 40
0.9000585620358887
 40
0.9373796874783126
 40
0.9685930903278103
 40
1.0
 40
1.0
 40
1.0
 40
1.0
 10
18.7092940354707
 20
-46.08654377805897
 30
0.0
 10
18.7092784427713
 20
-46.08929615489251
 30
0.0
 10
18.70923951708039
 20
-46.09616720186573
 30
0.0
 10
18.70877781799145
 20
-46.10987811943769
 30
0.0
 10
18.70764245512065
 20
-46.12627796872948
 30
0.0
 10
18.70535835278132
 20
-46.14667539080228
 30
0.0
 10
18.70222472112606
 20
-46.16638525839195
 30
0.0
 10
18.69731388050422
 20
-46.18978030190907
 30
0.0
 10
18.69206332620009
 20
-46.20948905442621
 30
0.0
 10
18.68564978326345
 20
-46.22960988005415
 30
0.0
 10
18.67952755691907
 20
-46.24645025699283
 30
0.0
 10
18.67086447163799
 20
-46.26728011164682
 30
0.0
 10
18.66209824903799
 20
-46.28552458600615
 30
0.0
 10
18.65206570859057
 20
-46.30404233069742
 30
0.0
 10
18.64283742626004
 20
-46.31952446224753
 30
0.0
 10
18.63030940903894
 20
-46.3384721380112
 30
0.0
 10
18.61816939253913
 20
-46.35479755028778
 30
0.0
 10
18.60479037694676
 20
-46.37103356671659
 30
0.0
 10
18.5928439751396
 20
-46.38436043097144
 30
0.0
 10
18.57697919089148
 20
-46.4004533783601
 30
0.0
 10
18.56191799298196
 20
-46.41410729354573
 30
0.0
 10
18.54553968112964
 20
-46.42748848412067
 30
0.0
 10
18.53110856275703
 20
-46.43828561215441
 30
0.0
 10
18.51234032841799
 20
-46.45094234699102
 30
0.0
 10
18.49492763582979
 20
-46.46128676882827
 30
0.0
 10
18.47633355487366
 20
-46.47106114424097
 30
0.0
 10
18.46010639151215
 20
-46.47871116956283
 30
0.0
 10
18.44434566607543
 20
-46.48520510064661
 30
0.0
 10
18.42962535532027
 20
-46.49063134985501
 30
0.0
 10
18.41621030920802
 20
-46.49504171388888
 30
0.0
 10
18.39952858675653
 20
-46.49981430967679
 30
0.0
 10
18.38285721256253
 20
-46.50379289541412
 30
0.0
 10
18.36260918499448
 20
-46.50763160262818
 30
0.0
 10
18.34235795820413
 20
-46.51037218301398
 30
0.0
 10
18.32056257215437
 20
-46.51214785280219
 30
0.0
 10
18.30686829655511
 20
-46.5123547808122
 30
0.0
 10
18.30000000000001
 20
-46.51245856453759
 30
0.0
  0
SPLINE
  5
28F
330
1F
100
AcDbEntity
  8
SK3
  6
HIDDEN
370
    18
100
AcDbSpline
210
0.0
220
0.0
230
1.0
 70
     8
 71
     3
 72
    32
 73
    28
 74
     0
 42
0.000000001
 43
0.00000001
 40
0.0
 40
0.0
 40
0.0
 40
0.0
 40
0.0314240603270557
 40
0.0627343991810464
 40
0.1252671231092239
 40
0.1539479851757582
 40
0.1970410646668633
 40
0.2505123778339538
 40
0.2789469282668068
 40
0.3216205210086991
 40
0.3752542761789156
 40
0.403995057930023
 40
0.4468668315340556
 40
0.5002061036267992
 40
0.5286743408489059
 40
0.5715404866272743
 40
0.6253829174671854
 40
0.6539178150624977
 40
0.6965948721941452
 40
0.7499704847855437
 40
0.7785952804521147
 40
0.8217116212552282
 40
0.8751774005801883
 40
0.9000490865856373
 40
0.9373737626612682
 40
0.9685901628831598
 40
1.0
 40
1.0
 40
1.0
 40
1.0
 10
3.627775038300658
 20
46.11169183446908
 30
0.0
 10
3.627848092221321
 20
46.11710007935891
 30
0.0
 10
3.6279939356856
 20
46.12789699707917
 30
0.0
 10
3.629545366143481
 20
46.14940735963148
 30
0.0
 10
3.632456896300741
 20
46.17032420760673
 30
0.0
 10
3.637212986050152
 20
46.19294750696751
 30
0.0
 10
3.642767957743994
 20
46.21378776470253
 30
0.0
 10
3.649803918628105
 20
46.234142457054
 30
0.0
 10
3.658044157204396
 20
46.25393965539813
 30
0.0
 10
3.667352355727066
 20
46.27329952884136
 30
0.0
 10
3.678084082302659
 20
46.29198270429262
 30
0.0
 10
3.68998105971027
 20
46.30996166746408
 30
0.0
 10
3.70282651468144
 20
46.32722518410414
 30
0.0
 10
3.716902116097054
 20
46.34345515139462
 30
0.0
 10
3.731973438619069
 20
46.35873264604672
 30
0.0
 10
3.747950439649884
 20
46.37320566774686
 30
0.0
 10
3.765011465800992
 20
46.38642407657448
 30
0.0
 10
3.78286202382233
 20
46.39845455637834
 30
0.0
 10
3.801312388577226
 20
46.40940805697361
 30
0.0
 10
3.82058663980049
 20
46.4189020279219
 30
0.0
 10
3.840501538537239
 20
46.42710239461081
 30
0.0
 10
3.860890345575795
 20
46.43412572171953
 30
0.0
 10
3.881160800746408
 20
46.43934286627331
 30
0.0
 10
3.900721374098595
 20
46.44304834858839
 30
0.0
 10
3.916661005905209
 20
46.44520422904171
 30
0.0
 10
3.933815670418908
 20
46.44660088767207
 30
0.0
 10
3.944594126148615
 20
46.44676365816395
 30
0.0
 10
3.950000000000023
 20
46.44684529478869
 30
0.0
  0
SPLINE
  5
290
330
1F
100
AcDbEntity
  8
SK3
  6
HIDDEN
370
    18
100
AcDbSpline
210
0.0
220
0.0
230
1.0
 70
     8
 71
     3
 72
    32
 73
    28
 74
     0
 42
0.000000001
 43
0.00000001
 40
0.0
 40
0.0
 40
0.0
 40
0.0
 40
0.0252082910543527
 40
0.0503596748384706
 40
0.10065753548817
 40
0.1352126321409537
 40
0.1865986884561373
 40
0.2121867652739196
 40
0.2505532496795906
 40
0.27903906311898
 40
0.3220421589077401
 40
0.3758172202617183
 40
0.4042944428242283
 40
0.446906849935723
 40
0.5002460581053237
 40
0.5288597283328373
 40
0.5719927667399867
 40
0.625493849002335
 40
0.6539151420849565
 40
0.6965347981009881
 40
0.750035425816829
 40
0.7787873480767089
 40
0.8217747058557168
 40
0.8751561925759194
 40
0.9373529249286032
 40
0.9685880351929856
 40
1.0
 40
1.0
 40
1.0
 40
1.0
 10
18.30000000000001
 20
46.44684304364807
 30
0.0
 10
18.30433836925363
 20
46.44679025014926
 30
0.0
 10
18.31300531396915
 20
46.44668478233206
 30
0.0
 10
18.33029662669328
 20
46.44555734639307
 30
0.0
 10
18.34910316585334
 20
46.4431965314083
 30
0.0
 10
18.37210736557519
 20
46.43861892527961
 30
0.0
 10
18.39064401177352
 20
46.43354032188032
 30
0.0
 10
18.40941931798734
 20
46.42708997652399
 30
0.0
 10
18.42418244717779
 20
46.42113260451884
 30
0.0
 10
18.44130637518462
 20
46.41310933954964
 30
0.0
 10
18.46027541809499
 20
46.40283343797218
 30
0.0
 10
18.47839247044143
 20
46.39109977580375
 30
0.0
 10
18.49562107331181
 20
46.37824931728601
 30
0.0
 10
18.5120470614261
 20
46.3644876937936
 30
0.0
 10
18.52740483869722
 20
46.34949280980884
 30
0.0
 10
18.5418130470676
 20
46.33349303786237
 30
0.0
 10
18.55532844520202
 20
46.31668284172592
 30
0.0
 10
18.56753715431801
 20
46.29892794055853
 30
0.0
 10
18.57855133917676
 20
46.28053659504977
 30
0.0
 10
18.58855677956037
 20
46.26156659319909
 30
0.0
 10
18.59718165888911
 20
46.24185620614267
 30
0.0
 10
18.60458542020547
 20
46.22161027654785
 30
0.0
 10
18.61088491605213
 20
46.20100480977811
 30
0.0
 10
18.61698108141771
 20
46.17437782793343
 30
0.0
 10
18.62045903264764
 20
46.1493167698831
 30
0.0
 10
18.62200588207887
 20
46.1278788379368
 30
0.0
 10
18.62215094399641
 20
46.11709703157507
 30
0.0
 10
18.62222367971222
 20
46.11169090971534
 30
0.0
  0
SPLINE
  5
291
330
1F
100
AcDbEntity
  8
SK3
  6
HIDDEN
370
    18
100
AcDbSpline
210
0.0
220
0.0
230
1.0
 70
     8
 71
     3
 72
    28
 73
    24
 74
     0
 42
0.000000001
 43
0.00000001
 40
0.5000000000000009
 40
0.5000000000000009
 40
0.5000000000000009
 40
0.5000000000000009
 40
0.5625000000000007
 40
0.5625000000000007
 40
0.6250000000000006
 40
0.6250000000000006
 40
0.6562500000000003
 40
0.6562500000000003
 40
0.6875000000000002
 40
0.6875000000000002
 40
0.7500000000000001
 40
0.7500000000000001
 40
0.7812500000000001
 40
0.7812500000000001
 40
0.8125000000000001
 40
0.8125000000000001
 40
0.8437500000000001
 40
0.8437500000000001
 40
0.875
 40
0.875
 40
0.9375000000000001
 40
0.9375000000000001
 40
1.0
 40
1.0
 40
1.0
 40
1.0
 10
11.12436005373842
 20
5.097086583382731
 30
0.0
 10
11.33988562047077
 20
5.097160583832756
 30
0.0
 10
11.55732167442224
 20
5.058927670124238
 30
0.0
 10
11.95460566062909
 20
4.912677242283801
 30
0.0
 10
12.13838916186498
 20
4.803297967249376
 30
0.0
 10
12.36674817482665
 20
4.597838458596376
 30
0.0
 10
12.43642359557634
 20
4.521151198635012
 30
0.0
 10
12.55613473401265
 20
4.358419513695227
 30
0.0
 10
12.60691930730983
 20
4.271935060808634
 30
0.0
 10
12.73162372652385
 20
3.996380017332039
 30
0.0
 10
12.77481888810721
 20
3.797425146083729
 30
0.0
 10
12.77508970785607
 20
3.490029987613531
 30
0.0
 10
12.76447463517888
 20
3.388630582932692
 30
0.0
 10
12.72263839499743
 20
3.187941017992281
 30
0.0
 10
12.69087299470581
 20
3.087576006019485
 30
0.0
 10
12.60823811087246
 20
2.895868188771702
 30
0.0
 10
12.55764216253898
 20
2.804381628702994
 30
0.0
 10
12.4379504664088
 20
2.630333473030551
 30
0.0
 10
12.36849706837069
 20
2.54779639558464
 30
0.0
 10
12.14084013457034
 20
2.324831507384204
 30
0.0
 10
11.95710187850989
 20
2.203317580297882
 30
0.0
 10
11.56029580374729
 20
2.039937583109545
 30
0.0
 10
11.34337670434035
 20
1.996101044651623
 30
0.0
 10
11.125
 20
1.99610104465163
 30
0.0
  0
SPLINE
  5
292
330
1F
100
AcDbEntity
  8
SK3
  6
HIDDEN
370
    18
100
AcDbSpline
210
0.0
220
0.0
230
1.0
 70
     8
 71
     3
 72
    32
 73
    28
 74
     0
 42
0.000000001
 43
0.00000001
 40
0.0
 40
0.0
 40
0.0
 40
0.0
 40
0.0312500000000004
 40
0.0312500000000004
 40
0.0625000000000008
 40
0.0625000000000008
 40
0.0937500000000012
 40
0.0937500000000012
 40
0.1250000000000016
 40
0.1250000000000016
 40
0.187500000000002
 40
0.187500000000002
 40
0.2500000000000024
 40
0.2500000000000024
 40
0.2812500000000024
 40
0.2812500000000024
 40
0.3125000000000023
 40
0.3125000000000023
 40
0.3750000000000021
 40
0.3750000000000021
 40
0.4062500000000018
 40
0.4062500000000018
 40
0.4375000000000015
 40
0.4375000000000015
 40
0.4687500000000012
 40
0.4687500000000012
 40
0.5000000000000009
 40
0.5000000000000009
 40
0.5000000000000009
 40
0.5000000000000009
 10
11.125
 20
1.99610104465163
 30
0.0
 10
11.01581164782982
 20
1.996101044651623
 30
0.0
 10
10.9084822900788
 20
2.006774489306223
 30
0.0
 10
10.69737880135693
 20
2.048496370893556
 30
0.0
 10
10.59249811499484
 20
2.080062202259231
 30
0.0
 10
10.39276793872451
 20
2.162097541962039
 30
0.0
 10
10.29806530291035
 20
2.212190897345381
 30
0.0
 10
10.11883723733681
 20
2.330096968954823
 30
0.0
 10
10.03411032775671
 20
2.398429092897461
 30
0.0
 10
9.806209980126795
 20
2.621349293016315
 30
0.0
 10
9.683328143792359
 20
2.799888215129359
 30
0.0
 10
9.518633555653341
 20
3.181070070677375
 30
0.0
 10
9.475122981946123
 20
3.387740235847363
 30
0.0
 10
9.474938909992806
 20
3.691623257817335
 30
0.0
 10
9.485689500772304
 20
3.793949374151811
 30
0.0
 10
9.52785379900098
 20
3.990698923252427
 30
0.0
 10
9.559048982658192
 20
4.08579732651665
 30
0.0
 10
9.683206297152788
 20
4.361493222071084
 30
0.0
 10
9.804247454552689
 20
4.526400962507379
 30
0.0
 10
10.03474287902696
 20
4.73431347606152
 30
0.0
 10
10.11788081798108
 20
4.795456382091778
 30
0.0
 10
10.29637949850368
 20
4.902358398560374
 30
0.0
 10
10.39291317519607
 20
4.948485047428383
 30
0.0
 10
10.59252114107807
 20
5.022147421466533
 30
0.0
 10
10.69536195960279
 20
5.04989480533715
 30
0.0
 10
10.90712812463579
 20
5.087454485186403
 30
0.0
 10
11.01659727037224
 20
5.097049583157709
 30
0.0
 10
11.12436005373842
 20
5.097086583382731
 30
0.0
  0
SPLINE
  5
293
330
1F
100
AcDbEntity
  8
SK3
  6
HIDDEN
370
    18
100
AcDbSpline
210
0.0
220
0.0
230
1.0
 70
     8
 71
     3
 72
    34
 73
    30
 74
     0
 42
0.000000001
 43
0.00000001
 40
0.5000000000000008
 40
0.5000000000000008
 40
0.5000000000000008
 40
0.5000000000000008
 40
0.5312500000000002
 40
0.5312500000000002
 40
0.5624999999999997
 40
0.5624999999999997
 40
0.5937499999999992
 40
0.5937499999999992
 40
0.6249999999999987
 40
0.6249999999999987
 40
0.6562499999999981
 40
0.6562499999999981
 40
0.6874999999999976
 40
0.6874999999999976
 40
0.7499999999999981
 40
0.7499999999999981
 40
0.8124999999999986
 40
0.8124999999999986
 40
0.8437499999999989
 40
0.8437499999999989
 40
0.8749999999999991
 40
0.8749999999999991
 40
0.9062499999999993
 40
0.9062499999999993
 40
0.9374999999999996
 40
0.9374999999999996
 40
0.9687499999999999
 40
0.9687499999999999
 40
1.0
 40
1.0
 40
1.0
 40
1.0
 10
9.638805742161832
 20
10.95392502366155
 30
0.0
 10
9.693881160736453
 20
10.84705887039514
 30
0.0
 10
9.7631792831568
 20
10.74439645836092
 30
0.0
 10
9.923515798150193
 20
10.55592715127707
 30
0.0
 10
10.01390276352475
 20
10.47020735344792
 30
0.0
 10
10.21445694949233
 20
10.3129655272888
 30
0.0
 10
10.32267837600233
 20
10.24333508542233
 30
0.0
 10
10.54307526498147
 20
10.12288935951399
 30
0.0
 10
10.65791658596849
 20
10.07070374731731
 30
0.0
 10
10.87819871141013
 20
9.984463182040978
 30
0.0
 10
10.98608094611163
 20
9.949205279737965
 30
0.0
 10
11.18968749579617
 20
9.892304259469139
 30
0.0
 10
11.28527842069107
 20
9.870580048613977
 30
0.0
 10
11.55898297450242
 20
9.820769890310151
 30
0.0
 10
11.72337034356713
 20
9.808096789548921
 30
0.0
 10
12.02194861504779
 20
9.821477532699976
 30
0.0
 10
12.15920875119778
 20
9.847310188176952
 30
0.0
 10
12.34760730605772
 20
9.927824692744668
 30
0.0
 10
12.40688352391467
 20
9.961503747003615
 30
0.0
 10
12.51780294837562
 20
10.04749808647206
 30
0.0
 10
12.56969006353052
 20
10.10021829085857
 30
0.0
 10
12.65991931900848
 20
10.22933776798957
 30
0.0
 10
12.69929072119652
 20
10.30748393412848
 30
0.0
 10
12.75586568636482
 20
10.49302732041062
 30
0.0
 10
12.77303399215494
 20
10.60290348381535
 30
0.0
 10
12.77663319740259
 20
10.83901366027947
 30
0.0
 10
12.76306993948378
 20
10.96766771108162
 30
0.0
 10
12.71170841969944
 20
11.21837738140183
 30
0.0
 10
12.67469993892516
 20
11.34057418425363
 30
0.0
 10
12.63040931107551
 20
11.4574560689059
 30
0.0
  0
SPLINE
  5
294
330
1F
100
AcDbEntity
  8
SK3
  6
HIDDEN
370
    18
100
AcDbSpline
210
0.0
220
0.0
230
1.0
 70
     8
 71
     3
 72
    26
 73
    22
 74
     0
 42
0.000000001
 43
0.00000001
 40
0.0
 40
0.0
 40
0.0
 40
0.0
 40
0.0625000000000005
 40
0.0625000000000005
 40
0.125000000000001
 40
0.125000000000001
 40
0.1875000000000015
 40
0.1875000000000015
 40
0.250000000000002
 40
0.250000000000002
 40
0.2812500000000018
 40
0.2812500000000018
 40
0.3125000000000017
 40
0.3125000000000017
 40
0.3750000000000017
 40
0.3750000000000017
 40
0.4375000000000017
 40
0.4375000000000017
 40
0.4687500000000012
 40
0.4687500000000012
 40
0.5000000000000008
 40
0.5000000000000008
 40
0.5000000000000008
 40
0.5000000000000008
 10
12.63040931107552
 20
11.4574560689059
 30
0.0
 10
12.54182805537622
 20
11.69121983821046
 30
0.0
 10
12.43200682775368
 20
11.89056157115205
 30
0.0
 10
12.18419932759149
 20
12.25514411813773
 30
0.0
 10
12.04834522926906
 20
12.41463399152649
 30
0.0
 10
11.75314013646117
 20
12.69173524411826
 30
0.0
 10
11.59091385222412
 20
12.81202758601151
 30
0.0
 10
11.23004729019494
 20
12.99241430793263
 30
0.0
 10
11.02728334192529
 20
13.05343833574661
 30
0.0
 10
10.69987000905165
 20
13.05646994226847
 30
0.0
 10
10.58531472788922
 20
13.04197607005526
 30
0.0
 10
10.36396153134608
 20
12.9794461366028
 30
0.0
 10
10.25449961952661
 20
12.93102694430325
 30
0.0
 10
9.947578697971139
 20
12.73948161914282
 30
0.0
 10
9.776646578307055
 20
12.55346040827489
 30
0.0
 10
9.542451961566098
 20
12.12678030999242
 30
0.0
 10
9.478612055377894
 20
11.88580640702571
 30
0.0
 10
9.473421112414297
 20
11.52565520755318
 30
0.0
 10
9.486345898652715
 20
11.4074936156687
 30
0.0
 10
9.54139061562112
 20
11.17459151908681
 30
0.0
 10
9.583730323587226
 20
11.06079117692797
 30
0.0
 10
9.638805742161832
 20
10.95392502366155
 30
0.0
  0
SPLINE
  5
295
330
1F
100
AcDbEntity
  8
SK3
  6
HIDDEN
370
    18
100
AcDbSpline
210
0.0
220
0.0
230
1.0
 70
    24
 71
     3
 72
     8
 73
     4
 74
     0
 42
0.000000001
 43
0.00000001
 40
0.0
 40
0.0
 40
0.0
 40
0.0
 40
0.5
 40
0.5
 40
0.5
 40
0.5
 10
3.199999999999994
 20
-35.3
 30
0.0
 10
3.280283515398219
 20
-35.30000000000002
 30
0.0
 10
3.357808972364096
 20
-35.30000000000002
 30
0.0
 10
3.42292565559768
 20
-35.3
 30
0.0
  0
SPLINE
  5
296
330
1F
100
AcDbEntity
  8
SK3
  6
HIDDEN
370
    18
100
AcDbSpline
210
0.0
220
0.0
230
1.0
 70
    24
 71
     2
 72
     6
 73
     3
 74
     0
 42
0.000000001
 43
0.00000001
 40
0.5
 40
0.5
 40
0.5
 40
1.0
 40
1.0
 40
1.0
 10
3.42292565559768
 20
-35.3
 30
0.0
 10
3.488042338831238
 20
-35.30000000000001
 30
0.0
 10
3.540734241122126
 20
-35.30000000000002
 30
0.0
  0
SPLINE
  5
297
330
1F
100
AcDbEntity
  8
SK3
  6
HIDDEN
370
    18
100
AcDbSpline
210
0.0
220
0.0
230
1.0
 70
     8
 71
     3
 72
    10
 73
     6
 74
     0
 42
0.000000001
 43
0.00000001
 40
0.0
 40
0.0
 40
0.0
 40
0.0
 40
0.5
 40
0.5
 40
1.0
 40
1.0
 40
1.0
 40
1.0
 10
18.70926633135085
 20
-36.2296883703795
 30
0.0
 10
18.66688655764276
 20
-36.16466553089526
 30
0.0
 10
18.62829270461823
 20
-36.0977580912236
 30
0.0
 10
18.56936683156519
 20
-35.95485262156856
 30
0.0
 10
18.55000000000744
 20
-35.87833587041167
 30
0.0
 10
18.55000000000744
 20
-35.79999999999576
 30
0.0
  0
SPLINE
  5
298
330
1F
100
AcDbEntity
  8
SK3
  6
HIDDEN
370
    18
100
AcDbSpline
210
0.0
220
0.0
230
1.0
 70
     8
 71
     3
 72
     8
 73
     4
 74
     0
 42
0.000000001
 43
0.00000001
 40
0.0
 40
0.0
 40
0.0
 40
0.0
 40
1.0
 40
1.0
 40
1.0
 40
1.0
 10
3.627789992875956
 20
38.27825220978989
 30
0.0
 10
3.670327386820717
 20
38.19077645349463
 30
0.0
 10
3.699999999999981
 20
38.09814238359071
 30
0.0
 10
3.699999999999979
 20
38.00000000000014
 30
0.0
  0
SPLINE
  5
299
330
1F
100
AcDbEntity
  8
SK3
  6
HIDDEN
370
    18
100
AcDbSpline
210
0.0
220
0.0
230
1.0
 70
     8
 71
     3
 72
     8
 73
     4
 74
     0
 42
0.000000001
 43
0.00000001
 40
0.0
 40
0.0
 40
0.0
 40
0.0
 40
1.0
 40
1.0
 40
1.0
 40
1.0
 10
18.54999999999998
 20
38.00000000000014
 30
0.0
 10
18.55
 20
38.09745591701695
 30
0.0
 10
18.57972717753427
 20
38.19087844690801
 30
0.0
 10
18.62218928607361
 20
38.27820959562583
 30
0.0
  0
SPLINE
  5
29A
330
1F
100
AcDbEntity
  8
SK3
  6
HIDDEN
370
    18
100
AcDbSpline
210
0.0
220
0.0
230
1.0
 70
     8
 71
     3
 72
    41
 73
    37
 74
     0
 42
0.000000001
 43
0.00000001
 40
0.0
 40
0.0
 40
0.0
 40
0.0
 40
0.015763367828879
 40
0.0314990230220033
 40
0.0629214004486996
 40
0.0880715314027462
 40
0.1258724876834421
 40
0.1545373471801051
 40
0.1716556505526658
 40
0.197267462438131
 40
0.2185805650008313
 40
0.2505536137402363
 40
0.2790376845353497
 40
0.3220404224008296
 40
0.3436278462057005
 40
0.375819443416851
 40
0.4042923969959308
 40
0.4468999480943489
 40
0.468211933421824
 40
0.5002468979892883
 40
0.5288594519453671
 40
0.5719881181874477
 40
0.5934450419903455
 40
0.6254929607039703
 40
0.6539109925287949
 40
0.6965265367153771
 40
0.7178831640921479
 40
0.7500336383417275
 40
0.7787834929456724
 40
0.821765692998236
 40
0.8431488478212974
 40
0.8751518073687297
 40
0.9000180003771362
 40
0.9373587342939169
 40
0.9685910075823156
 40
1.0
 40
1.0
 40
1.0
 40
1.0
 10
18.30000000000746
 20
-46.51242658449428
 30
0.0
 10
18.30344671826291
 20
-46.51240031163594
 30
0.0
 10
18.31033409530423
 20
-46.512347812108
 30
0.0
 10
18.32408218626064
 20
-46.5117873267259
 30
0.0
 10
18.33985148231385
 20
-46.51055233493224
 30
0.0
 10
18.36032769918291
 20
-46.50795999755812
 30
0.0
 10
18.380056417016
 20
-46.50440808527301
 30
0.0
 10
18.39784334418586
 20
-46.50018148076112
 30
0.0
 10
18.41288462121279
 20
-46.49599897280812
 30
0.0
 10
18.42623916107346
 20
-46.49177209291327
 30
0.0
 10
18.44247539561261
 20
-46.48593477151221
 30
0.0
 10
18.4590268049573
 20
-46.47915018794431
 30
0.0
 10
18.47951467901615
 20
-46.46954480751415
 30
0.0
 10
18.49742253658009
 20
-46.45983698295186
 30
0.0
 10
18.51547605773877
 20
-46.44879261985182
 30
0.0
 10
18.53040380397077
 20
-46.43874652654724
 30
0.0
 10
18.54850420128103
 20
-46.42523653992757
 30
0.0
 10
18.56399929524401
 20
-46.41224689108936
 30
0.0
 10
18.57937348864085
 20
-46.39796718527241
 30
0.0
 10
18.59198791987155
 20
-46.38522673780773
 30
0.0
 10
18.60716979990531
 20
-46.36835545958509
 30
0.0
 10
18.61994352995001
 20
-46.35245563063669
 30
0.0
 10
18.63233940666784
 20
-46.33534226156677
 30
0.0
 10
18.64224354032497
 20
-46.32040736167233
 30
0.0
 10
18.65382058703291
 20
-46.30106285603025
 30
0.0
 10
18.66324670804807
 20
-46.28317723048011
 30
0.0
 10
18.67213426492755
 20
-46.26412934079065
 30
0.0
 10
18.67907733196666
 20
-46.24752959376323
 30
0.0
 10
18.68687481909448
 20
-46.22619031635802
 30
0.0
 10
18.6928285794862
 20
-46.20670370918113
 30
0.0
 10
18.69801196539564
 20
-46.18627815340637
 30
0.0
 10
18.70155848119547
 20
-46.16953270749499
 30
0.0
 10
18.7049766878966
 20
-46.14921524666857
 30
0.0
 10
18.70741382943091
 20
-46.12892134973522
 30
0.0
 10
18.70899064493652
 20
-46.10710628606029
 30
0.0
 10
18.7091742632091
 20
-46.09340870147415
 30
0.0
 10
18.70926633135085
 20
-46.08654058785039
 30
0.0
  0
SPLINE
  5
29B
330
1F
100
AcDbEntity
  8
1
  6
HIDDEN
370
    18
100
AcDbSpline
210
0.0
220
0.0
230
1.0
 70
     8
 71
     3
 72
     8
 73
     4
 74
     0
 42
0.000000001
 43
0.00000001
 40
0.0
 40
0.0
 40
0.0
 40
0.0
 40
1.0
 40
1.0
 40
1.0
 40
1.0
 10
14.06940814166342
 20
-46.51242658449428
 30
0.0
 10
13.71752889478858
 20
-45.87994762987061
 30
0.0
 10
13.36604309198833
 20
-45.24725587778169
 30
0.0
 10
13.01499999999998
 20
-44.61432468190731
 30
0.0
  0
SPLINE
  5
29C
330
1F
100
AcDbEntity
  8
1
  6
HIDDEN
370
    18
100
AcDbSpline
210
0.0
220
0.0
230
1.0
 70
     8
 71
     3
 72
    12
 73
     8
 74
     0
 42
0.000000001
 43
0.00000001
 40
0.0
 40
0.0
 40
0.0
 40
0.0
 40
0.5000000000000063
 40
0.5000000000000063
 40
0.7500000000000031
 40
0.7500000000000031
 40
1.0
 40
1.0
 40
1.0
 40
1.0
 10
13.01500000000085
 20
-44.41455279522784
 30
0.0
 10
13.01500000000106
 20
-44.21464324025575
 30
0.0
 10
12.93742224982744
 20
-44.01319670577894
 30
0.0
 10
12.73251213771298
 20
-43.79512211107151
 30
0.0
 10
12.64883068651125
 20
-43.73525024845267
 30
0.0
 10
12.46587661012802
 20
-43.65450353783447
 30
0.0
 10
12.36573901357175
 20
-43.63301502303031
 30
0.0
 10
12.26499999999998
 20
-43.63301502303043
 30
0.0
  0
SPLINE
  5
29D
330
1F
100
AcDbEntity
  8
1
  6
HIDDEN
370
    18
100
AcDbSpline
210
0.0
220
0.0
230
1.0
 70
     8
 71
     3
 72
    12
 73
     8
 74
     0
 42
0.000000001
 43
0.00000001
 40
0.0
 40
0.0
 40
0.0
 40
0.0
 40
0.2499999999999992
 40
0.2499999999999992
 40
0.4999999999999984
 40
0.4999999999999984
 40
1.0
 40
1.0
 40
1.0
 40
1.0
 10
9.934999999999464
 20
-43.63301502303102
 30
0.0
 10
9.835119212571538
 20
-43.63301502303111
 30
0.0
 10
9.735031007328661
 20
-43.65414350767995
 30
0.0
 10
9.550755663024106
 20
-43.73539237502014
 30
0.0
 10
9.467863842962279
 20
-43.79468442323412
 30
0.0
 10
9.261421797277793
 20
-44.0145021378268
 30
0.0
 10
9.185000000000125
 20
-44.21514437565144
 30
0.0
 10
9.18499999999997
 20
-44.41455279522693
 30
0.0
  0
SPLINE
  5
29E
330
1F
100
AcDbEntity
  8
1
  6
HIDDEN
370
    18
100
AcDbSpline
210
0.0
220
0.0
230
1.0
 70
     8
 71
     3
 72
     8
 73
     4
 74
     0
 42
0.000000001
 43
0.00000001
 40
0.0
 40
0.0
 40
0.0
 40
0.0
 40
1.0
 40
1.0
 40
1.0
 40
1.0
 10
9.184999999999235
 20
-44.61432468190951
 30
0.0
 10
8.833957030268444
 20
-45.24725565735339
 30
0.0
 10
8.482471350033618
 20
-45.87994718917834
 30
0.0
 10
8.130592225982017
 20
-46.51242592367749
 30
0.0
  0
SPLINE
  5
29F
330
1F
100
AcDbEntity
  8
SK3
  6
HIDDEN
370
    18
100
AcDbSpline
210
0.0
220
0.0
230
1.0
 70
     8
 71
     3
 72
    41
 73
    37
 74
     0
 42
0.000000001
 43
0.00000001
 40
0.0
 40
0.0
 40
0.0
 40
0.0
 40
0.0125872535165518
 40
0.0314228811658762
 40
0.0627299160761198
 40
0.0877396402445494
 40
0.1252707860180521
 40
0.1539475310863342
 40
0.1970376114413535
 40
0.218472191580968
 40
0.2505163810630188
 40
0.2789486890571635
 40
0.3216178737058085
 40
0.3430092670283698
 40
0.3752545151150564
 40
0.4040075593230467
 40
0.4468636567685119
 40
0.4682153832035276
 40
0.5002095111372521
 40
0.5286749472234052
 40
0.5715354253984807
 40
0.593095529694743
 40
0.6253853862300829
 40
0.6539186125542218
 40
0.696592150787572
 40
0.7179244320796832
 40
0.7499744877497604
 40
0.7785960197655638
 40
0.7958518822083908
 40
0.8217151667720851
 40
0.8431553291442532
 40
0.8751891354698759
 40
0.9000585620688416
 40
0.9373796874925158
 40
0.968593090322145
 40
1.0
 40
1.0
 40
1.0
 40
1.0
 10
3.540734241121362
 20
-46.08654052193395
 30
0.0
 10
3.540749832742801
 20
-46.0892927087409
 30
0.0
 10
3.540788755742721
 20
-46.09616328132983
 30
0.0
 10
3.541250422912021
 20
-46.10987325227912
 30
0.0
 10
3.54238570728177
 20
-46.12627196928862
 30
0.0
 10
3.544669651677226
 20
-46.14666798304443
 30
0.0
 10
3.547803066621697
 20
-46.16637648976829
 30
0.0
 10
3.552713567643792
 20
-46.18976991812671
 30
0.0
 10
3.557963758879179
 20
-46.20947731013955
 30
0.0
 10
3.564376858369037
 20
-46.22959674698215
 30
0.0
 10
3.57049866141973
 20
-46.24643596160116
 30
0.0
 10
3.579161147702459
 20
-46.26726437857386
 30
0.0
 10
3.587926764157173
 20
-46.28550759372996
 30
0.0
 10
3.597958610874488
 20
-46.30402406036287
 30
0.0
 10
3.607186255118536
 20
-46.31950512349008
 30
0.0
 10
3.619713406232766
 20
-46.33845149193102
 30
0.0
 10
3.631852583599063
 20
-46.35477577804853
 30
0.0
 10
3.645230674484718
 20
-46.37101067458976
 30
0.0
 10
3.657176250599803
 20
-46.38433661964966
 30
0.0
 10
3.673039938342185
 20
-46.40042845708766
 30
0.0
 10
3.688100095342719
 20
-46.41408143065884
 30
0.0
 10
3.70447727541702
 20
-46.42746169858375
 30
0.0
 10
3.71890739675107
 20
-46.43825808230094
 30
0.0
 10
3.737674334547886
 20
-46.45091394473891
 30
0.0
 10
3.75508582433913
 20
-46.46125765363335
 30
0.0
 10
3.7736786209496
 20
-46.47103135543629
 30
0.0
 10
3.789904663491259
 20
-46.47868085357533
 30
0.0
 10
3.805664300394349
 20
-46.48517433718758
 30
0.0
 10
3.8203835945715
 20
-46.49060021253673
 30
0.0
 10
3.833797714339573
 20
-46.49501027273957
 30
0.0
 10
3.850478284950581
 20
-46.49978253976455
 30
0.0
 10
3.867148508050547
 20
-46.50376085144075
 30
0.0
 10
3.887395137600377
 20
-46.50759929423873
 30
0.0
 10
3.907644966194626
 20
-46.51033968585613
 30
0.0
 10
3.929438847475666
 20
-46.51211523334239
 30
0.0
 10
3.943132177626416
 20
-46.5123221471002
 30
0.0
 10
3.949999999999259
 20
-46.51242592367749
 30
0.0
  0
SPLINE
  5
2A0
330
1F
100
AcDbEntity
  8
SK3
  6
HIDDEN
370
    18
100
AcDbSpline
210
0.0
220
0.0
230
1.0
 70
     8
 71
     3
 72
    32
 73
    28
 74
     0
 42
0.000000001
 43
0.00000001
 40
0.0
 40
0.0
 40
0.0
 40
0.0
 40
0.0314240600189745
 40
0.062734398378341
 40
0.1252671195991895
 40
0.1539479798762275
 40
0.1970410606558825
 40
0.2505123763887034
 40
0.2789469272819378
 40
0.3216205192492424
 40
0.3752542707031759
 40
0.4039950529482431
 40
0.4468668296625108
 40
0.5002061031474543
 40
0.5286743402053793
 40
0.5715404837496577
 40
0.6253829155263885
 40
0.6539178144984554
 40
0.696594872331744
 40
0.749970484446759
 40
0.7785952793370768
 40
0.8217116205659645
 40
0.8751774006865103
 40
0.9000490867714404
 40
0.9373737627497141
 40
0.9685901628600515
 40
1.0
 40
1.0
 40
1.0
 40
1.0
 10
18.62218928608249
 20
46.11166610221765
 30
0.0
 10
18.62211624028694
 20
46.11707374988725
 30
0.0
 10
18.62197041304389
 20
46.12786947529602
 30
0.0
 10
18.62041915520121
 20
46.14937746219464
 30
0.0
 10
18.61750794913308
 20
46.17029200001402
 30
0.0
 10
18.61275238860097
 20
46.19291280164116
 30
0.0
 10
18.60719803470565
 20
46.21375075976784
 30
0.0
 10
18.60016285588878
 20
46.23410320713972
 30
0.0
 10
18.59192353305261
 20
46.25389822237841
 30
0.0
 10
18.58261636914235
 20
46.27325596063736
 30
0.0
 10
18.57188583498354
 20
46.29193707658348
 30
0.0
 10
18.55999017850903
 20
46.30991405935838
 30
0.0
 10
18.54714614871449
 20
46.32717567592832
 30
0.0
 10
18.53307210810752
 20
46.34340385785899
 30
0.0
 10
18.51800245657349
 20
46.35867967211449
 30
0.0
 10
18.50202722631278
 20
46.37315110267239
 30
0.0
 10
18.48496808973005
 20
46.38636805939147
 30
0.0
 10
18.4671195073029
 20
46.39839721854263
 30
0.0
 10
18.44867118386268
 20
46.4093495170938
 30
0.0
 10
18.42939906431432
 20
46.41884244661146
 30
0.0
 10
18.40948636727527
 20
46.42704191413304
 30
0.0
 10
18.38909981339955
 20
46.43406447150137
 30
0.0
 10
18.36883159732855
 20
46.43928104451226
 30
0.0
 10
18.34927318428646
 20
46.44298612094716
 30
0.0
 10
18.33333531276386
 20
46.44514176527449
 30
0.0
 10
18.31618254254429
 20
46.44653827094997
 30
0.0
 10
18.30540527696038
 20
46.44670102361702
 30
0.0
 10
18.30000000000831
 20
46.446782651302
 30
0.0
  0
SPLINE
  5
2A1
330
1F
100
AcDbEntity
  8
SK3
  6
HIDDEN
370
    18
100
AcDbSpline
210
0.0
220
0.0
230
1.0
 70
     8
 71
     3
 72
    32
 73
    28
 74
     0
 42
0.000000001
 43
0.00000001
 40
0.0
 40
0.0
 40
0.0
 40
0.0
 40
0.0252082912930393
 40
0.050359675393179
 40
0.1006575370215269
 40
0.1352126331834804
 40
0.1865986883297886
 40
0.2121867649012926
 40
0.2505532494688518
 40
0.2790390633387878
 40
0.3220421608763418
 40
0.3758172207942442
 40
0.4042944426207402
 40
0.4469068493493415
 40
0.5002460582032469
 40
0.5288597291402523
 40
0.5719927674356062
 40
0.6254938488209697
 40
0.6539151416921443
 40
0.6965347977368955
 40
0.750035425983674
 40
0.7787873485488581
 40
0.8217747058577651
 40
0.8751561923960379
 40
0.9373529248393101
 40
0.9685880351682798
 40
1.0
 40
1.0
 40
1.0
 40
1.0
 10
3.94999999999994
 20
46.44681903524191
 30
0.0
 10
3.945661814293802
 20
46.44676624395662
 30
0.0
 10
3.936995236245425
 20
46.44666078056122
 30
0.0
 10
3.919704655004241
 20
46.44553339191203
 30
0.0
 10
3.900898911639902
 20
46.44317267597309
 30
0.0
 10
3.877895685822724
 20
46.43859526198739
 30
0.0
 10
3.859359824804218
 20
46.43351687193052
 30
0.0
 10
3.840585314000097
 20
46.42706679761334
 30
0.0
 10
3.825822810202259
 20
46.42110967591267
 30
0.0
 10
3.808699607526195
 20
46.41308674803965
 30
0.0
 10
3.78973136872944
 20
46.40281127845593
 30
0.0
 10
3.771615084965027
 20
46.39107810999507
 30
0.0
 10
3.75438721362846
 20
46.37822819270821
 30
0.0
 10
3.737961922970961
 20
46.3644671488814
 30
0.0
 10
3.722604798012188
 20
46.34947289672353
 30
0.0
 10
3.708197201900562
 20
46.3334737992631
 30
0.0
 10
3.694682378512088
 20
46.31666431229831
 30
0.0
 10
3.682474188926671
 20
46.29891016074805
 30
0.0
 10
3.671460472929877
 20
46.28051959207051
 30
0.0
 10
3.661455458494292
 20
46.26155039157952
 30
0.0
 10
3.652830946462377
 20
46.24184083745436
 30
0.0
 10
3.645427500565221
 20
46.22159576377971
 30
0.0
 10
3.639128273187894
 20
46.20099116847462
 30
0.0
 10
3.633032367681602
 20
46.1743653131017
 30
0.0
 10
3.629554564715462
 20
46.14930531544872
 30
0.0
 10
3.628007781224782
 20
46.12786829064166
 30
0.0
 10
3.627862725491052
 20
46.11708694052394
 30
0.0
 10
3.627789992875954
 20
46.1116810474337
 30
0.0
  0
SPLINE
  5
2A2
330
1F
100
AcDbEntity
  8
1
  6
HIDDEN
370
    18
100
AcDbSpline
210
0.0
220
0.0
230
1.0
 70
     8
 71
     3
 72
     8
 73
     4
 74
     0
 42
0.000000001
 43
0.00000001
 40
0.0
 40
0.0
 40
0.0
 40
0.0
 40
1.0
 40
1.0
 40
1.0
 40
1.0
 10
9.18500000000827
 20
44.61432468190232
 30
0.0
 10
8.846092088743458
 20
45.22537612961248
 30
0.0
 10
8.506773623371004
 20
45.83620056062909
 30
0.0
 10
8.167090733728454
 20
46.44681903523679
 30
0.0
  0
SPLINE
  5
2A3
330
1F
100
AcDbEntity
  8
1
  6
HIDDEN
370
    18
100
AcDbSpline
210
0.0
220
0.0
230
1.0
 70
     8
 71
     3
 72
    12
 73
     8
 74
     0
 42
0.000000001
 43
0.00000001
 40
0.0
 40
0.0
 40
0.0
 40
0.0
 40
0.2500000000000008
 40
0.2500000000000008
 40
0.5000000000000016
 40
0.5000000000000016
 40
1.0
 40
1.0
 40
1.0
 40
1.0
 10
9.934999999999999
 20
43.63301502303044
 30
0.0
 10
9.835205147597211
 20
43.63301502303044
 30
0.0
 10
9.733240692232956
 20
43.65476370384825
 30
0.0
 10
9.550454989704486
 20
43.73569606259786
 30
0.0
 10
9.467052381540608
 20
43.79547861362951
 30
0.0
 10
9.262287341897213
 20
44.01372059499526
 30
0.0
 10
9.184999999999999
 20
44.21436013461165
 30
0.0
 10
9.184999999999999
 20
44.41455279522692
 30
0.0
  0
SPLINE
  5
2A4
330
1F
100
AcDbEntity
  8
1
  6
HIDDEN
370
    18
100
AcDbSpline
210
0.0
220
0.0
230
1.0
 70
     8
 71
     3
 72
    14
 73
    10
 74
     0
 42
0.000000001
 43
0.00000001
 40
0.0
 40
0.0
 40
0.0
 40
0.0
 40
0.25
 40
0.25
 40
0.5
 40
0.5
 40
0.75
 40
0.75
 40
1.0
 40
1.0
 40
1.0
 40
1.0
 10
13.01499999999999
 20
44.41455279522692
 30
0.0
 10
13.01499999999999
 20
44.3135968405848
 30
0.0
 10
12.99639812341776
 20
44.21433752079793
 30
0.0
 10
12.92346523542378
 20
44.0271387390665
 30
0.0
 10
12.86944851074745
 20
43.94089204401602
 30
0.0
 10
12.73244181536368
 20
43.79501127808647
 30
0.0
 10
12.64943646355127
 20
43.73552784744921
 30
0.0
 10
12.46539582722482
 20
43.65428111190433
 30
0.0
 10
12.3659395639678
 20
43.63301502303044
 30
0.0
 10
12.26499999999998
 20
43.63301502303044
 30
0.0
  0
SPLINE
  5
2A5
330
1F
100
AcDbEntity
  8
1
  6
HIDDEN
370
    18
100
AcDbSpline
210
0.0
220
0.0
230
1.0
 70
     8
 71
     3
 72
     8
 73
     4
 74
     0
 42
0.000000001
 43
0.00000001
 40
0.0
 40
0.0
 40
0.0
 40
0.0
 40
1.0
 40
1.0
 40
1.0
 40
1.0
 10
14.03288902614304
 20
46.446782651302
 30
0.0
 10
13.6932128977357
 20
45.83617629652653
 30
0.0
 10
13.35390117994487
 20
45.225363993038
 30
0.0
 10
13.01500000000001
 20
44.61432468190729
 30
0.0
  0
SPLINE
  5
2A6
330
1F
100
AcDbEntity
  8
SK3
  6
HIDDEN
370
    18
100
AcDbSpline
210
0.0
220
0.0
230
1.0
 70
     8
 71
     3
 72
    34
 73
    30
 74
     0
 42
0.000000001
 43
0.00000001
 40
0.500000000000006
 40
0.500000000000006
 40
0.500000000000006
 40
0.500000000000006
 40
0.5625000000000052
 40
0.5625000000000052
 40
0.5937500000000049
 40
0.5937500000000049
 40
0.6250000000000046
 40
0.6250000000000046
 40
0.6562500000000041
 40
0.6562500000000041
 40
0.6875000000000038
 40
0.6875000000000038
 40
0.7187500000000034
 40
0.7187500000000034
 40
0.750000000000003
 40
0.750000000000003
 40
0.7812500000000027
 40
0.7812500000000027
 40
0.8125000000000023
 40
0.8125000000000023
 40
0.843750000000002
 40
0.843750000000002
 40
0.8750000000000016
 40
0.8750000000000016
 40
0.9062500000000012
 40
0.9062500000000012
 40
0.9375000000000009
 40
0.9375000000000009
 40
1.0
 40
1.0
 40
1.0
 40
1.0
 10
10.60808274902042
 20
14.67518531385684
 30
0.0
 10
10.77143994352715
 20
14.66271400222925
 30
0.0
 10
10.95396076821066
 20
14.631379771723
 30
0.0
 10
11.25812245907611
 20
14.54691770596583
 30
0.0
 10
11.366415858669
 20
14.51171888144411
 30
0.0
 10
11.58574352105277
 20
14.42634662926329
 30
0.0
 10
11.69715944869873
 20
14.37625545607628
 30
0.0
 10
11.92117180667882
 20
14.25483711630844
 30
0.0
 10
12.02893523597717
 20
14.18587333985307
 30
0.0
 10
12.22961030853023
 20
14.02983333564771
 30
0.0
 10
12.32267742835865
 20
13.94226901556118
 30
0.0
 10
12.48372543018647
 20
13.75415019217135
 30
0.0
 10
12.55366053916097
 20
13.65130323099285
 30
0.0
 10
12.66489321927139
 20
13.43691773984471
 30
0.0
 10
12.70717730188425
 20
13.32435113894596
 30
0.0
 10
12.76326417564931
 20
13.08988167819477
 30
0.0
 10
12.77635511926062
 20
12.97149039057772
 30
0.0
 10
12.77342672652903
 20
12.73211084337594
 30
0.0
 10
12.7568497945824
 20
12.6106074399107
 30
0.0
 10
12.69552150102995
 20
12.37773497196937
 30
0.0
 10
12.65033349294088
 20
12.26373909474849
 30
0.0
 10
12.53298957942559
 20
12.04909612932827
 30
0.0
 10
12.46214536200853
 20
11.95022400081684
 30
0.0
 10
12.29651277322143
 20
11.77143410287199
 30
0.0
 10
12.20150676240371
 20
11.69219588739521
 30
0.0
 10
11.99926684334579
 20
11.56533020093859
 30
0.0
 10
11.88885801145322
 20
11.51587497169299
 30
0.0
 10
11.55399205333041
 20
11.4206927572664
 30
0.0
 10
11.32716468948121
 20
11.42871083881333
 30
0.0
 10
11.12500000000002
 20
11.48273236161767
 30
0.0
  0
SPLINE
  5
2A7
330
1F
100
AcDbEntity
  8
SK3
  6
HIDDEN
370
    18
100
AcDbSpline
210
0.0
220
0.0
230
1.0
 70
     8
 71
     3
 72
    30
 73
    26
 74
     0
 42
0.000000001
 43
0.00000001
 40
0.0
 40
0.0
 40
0.0
 40
0.0
 40
0.0625000000000017
 40
0.0625000000000017
 40
0.1250000000000034
 40
0.1250000000000034
 40
0.1562500000000039
 40
0.1562500000000039
 40
0.1875000000000044
 40
0.1875000000000044
 40
0.2187500000000049
 40
0.2187500000000049
 40
0.2500000000000054
 40
0.2500000000000054
 40
0.2812500000000059
 40
0.2812500000000059
 40
0.3125000000000064
 40
0.3125000000000064
 40
0.3437500000000069
 40
0.3437500000000069
 40
0.3750000000000074
 40
0.3750000000000074
 40
0.4375000000000067
 40
0.4375000000000067
 40
0.500000000000006
 40
0.500000000000006
 40
0.500000000000006
 40
0.500000000000006
 10
11.12500000000002
 20
11.48273236161768
 30
0.0
 10
10.92283531051885
 20
11.53675388442202
 30
0.0
 10
10.7471471004825
 20
11.63024516394937
 30
0.0
 10
10.42066988662185
 20
11.86454434722241
 30
0.0
 10
10.27375737476445
 20
12.00407384287216
 30
0.0
 10
10.07148943268496
 20
12.24177839203637
 30
0.0
 10
10.00699015299682
 20
12.32609339770686
 30
0.0
 10
9.883509956371315
 20
12.50701007175137
 30
0.0
 10
9.824268573097983
 20
12.60415729348408
 30
0.0
 10
9.715154706090425
 20
12.80934651131552
 30
0.0
 10
9.664396735733563
 20
12.9190362288981
 30
0.0
 10
9.576981863499201
 20
13.14891853741635
 30
0.0
 10
9.54030353249756
 20
13.26831266228051
 30
0.0
 10
9.487704529938052
 20
13.5208098210619
 30
0.0
 10
9.473745253198038
 20
13.64846695671308
 30
0.0
 10
9.476438089560544
 20
13.88700257856815
 30
0.0
 10
9.493197896427983
 20
13.9968205367148
 30
0.0
 10
9.549353346861203
 20
14.18374939795278
 30
0.0
 10
9.588589477848005
 20
14.26231510462451
 30
0.0
 10
9.678480018824292
 20
14.3920118939202
 30
0.0
 10
9.730204466999155
 20
14.44496665500988
 30
0.0
 10
9.896348595184415
 20
14.57471258814579
 30
0.0
 10
10.02083275682615
 20
14.6245520934731
 30
0.0
 10
10.29708420272968
 20
14.68178062150184
 30
0.0
 10
10.44472555451367
 20
14.68765662548444
 30
0.0
 10
10.60808274902042
 20
14.67518531385684
 30
0.0
  0
SPLINE
  5
2A8
330
1F
100
AcDbEntity
  8
SK3
  6
HIDDEN
370
    18
100
AcDbSpline
210
0.0
220
0.0
230
1.0
 70
     8
 71
     3
 72
    16
 73
    12
 74
     0
 42
0.000000001
 43
0.00000001
 40
0.0
 40
0.0
 40
0.0
 40
0.0
 40
0.1249999999999996
 40
0.1249999999999996
 40
0.2499999999999992
 40
0.2499999999999992
 40
0.4999999999999994
 40
0.4999999999999994
 40
0.7499999999999997
 40
0.7499999999999997
 40
1.0
 40
1.0
 40
1.0
 40
1.0
 10
13.01500000000034
 20
16.43154053194041
 30
0.0
 10
13.01500000000034
 20
16.4089727074481
 30
0.0
 10
13.00586006921505
 20
16.41250590992751
 30
0.0
 10
12.97905676333255
 20
16.44128291303711
 30
0.0
 10
12.96129813559535
 20
16.46550924038486
 30
0.0
 10
12.89984145231609
 20
16.54607814784252
 30
0.0
 10
12.84660313151961
 20
16.6122520105282
 30
0.0
 10
12.71966017294297
 20
16.74604853319124
 30
0.0
 10
12.64435854248483
 20
16.81619148003639
 30
0.0
 10
12.47036668863932
 20
16.95689584699066
 30
0.0
 10
12.37382816094063
 20
17.02593958791167
 30
0.0
 10
12.26500000000065
 20
17.095950763788
 30
0.0
  0
SPLINE
  5
2A9
330
1F
100
AcDbEntity
  8
SK3
  6
HIDDEN
370
    18
100
AcDbSpline
210
0.0
220
0.0
230
1.0
 70
     8
 71
     3
 72
    12
 73
     8
 74
     0
 42
0.000000001
 43
0.00000001
 40
0.0
 40
0.0
 40
0.0
 40
0.0
 40
0.25
 40
0.25
 40
0.5
 40
0.5
 40
1.0
 40
1.0
 40
1.0
 40
1.0
 10
12.26500000000065
 20
17.095950763788
 30
0.0
 10
12.09322616456719
 20
17.20645606039144
 30
0.0
 10
11.90768141147935
 20
17.28955955756765
 30
0.0
 10
11.50936708789056
 20
17.40198293367129
 30
0.0
 10
11.30348131316253
 20
17.42884930413194
 30
0.0
 10
10.68100581585886
 20
17.42049964268108
 30
0.0
 10
10.27105315097424
 20
17.29348189488107
 30
0.0
 10
9.934999999999972
 20
17.0627122142027
 30
0.0
  0
SPLINE
  5
2AA
330
1F
100
AcDbEntity
  8
SK3
  6
HIDDEN
370
    18
100
AcDbSpline
210
0.0
220
0.0
230
1.0
 70
     8
 71
     3
 72
    16
 73
    12
 74
     0
 42
0.000000001
 43
0.00000001
 40
0.0
 40
0.0
 40
0.0
 40
0.0
 40
0.2499999999999992
 40
0.2499999999999992
 40
0.4999999999999984
 40
0.4999999999999984
 40
0.7499999999999977
 40
0.7499999999999977
 40
0.8749999999999988
 40
0.8749999999999988
 40
1.0
 40
1.0
 40
1.0
 40
1.0
 10
9.934999999999972
 20
17.0627122142027
 30
0.0
 10
9.822927112807605
 20
16.98575110160759
 30
0.0
 10
9.723088154733938
 20
16.90863634792433
 30
0.0
 10
9.546705220420614
 20
16.75182162420026
 30
0.0
 10
9.472825657148604
 20
16.67471435137313
 30
0.0
 10
9.34724986425868
 20
16.52176876359962
 30
0.0
 10
9.296242842885619
 20
16.44575888738579
 30
0.0
 10
9.237643725572578
 20
16.34504967157101
 30
0.0
 10
9.220824084193877
 20
16.31299346349986
 30
0.0
 10
9.19484965695304
 20
16.26639061413293
 30
0.0
 10
9.184999999999999
 20
16.25074990474085
 30
0.0
 10
9.184999999999999
 20
16.27444530267509
 30
0.0
  0
SPLINE
  5
2AB
330
1F
100
AcDbEntity
  8
SK3
  6
HIDDEN
370
    18
100
AcDbSpline
210
0.0
220
0.0
230
1.0
 70
     8
 71
     3
 72
    16
 73
    12
 74
     0
 42
0.000000001
 43
0.00000001
 40
0.0
 40
0.0
 40
0.0
 40
0.0
 40
0.1250000000000014
 40
0.1250000000000014
 40
0.2500000000000028
 40
0.2500000000000028
 40
0.5000000000000018
 40
0.5000000000000018
 40
0.7500000000000009
 40
0.7500000000000009
 40
1.0
 40
1.0
 40
1.0
 40
1.0
 10
9.184999999999999
 20
15.36066972152459
 30
0.0
 10
9.184999999999999
 20
15.33656618969539
 30
0.0
 10
9.19494924791897
 20
15.27742009335968
 30
0.0
 10
9.221027119802022
 20
15.15946175929095
 30
0.0
 10
9.23759402235262
 20
15.09731841344439
 30
0.0
 10
9.296462927450357
 20
14.90951022876761
 30
0.0
 10
9.346990256271987
 20
14.7852032333478
 30
0.0
 10
9.471582827246095
 20
14.54626766040269
 30
0.0
 10
9.547123345571144
 20
14.42939661874495
 30
0.0
 10
9.721968455709034
 20
14.21765997840108
 30
0.0
 10
9.823083693381498
 20
14.12054883147444
 30
0.0
 10
9.934999999999608
 20
14.04169177846345
 30
0.0
  0
SPLINE
  5
2AC
330
1F
100
AcDbEntity
  8
SK3
  6
HIDDEN
370
    18
100
AcDbSpline
210
0.0
220
0.0
230
1.0
 70
     8
 71
     3
 72
    12
 73
     8
 74
     0
 42
0.000000001
 43
0.00000001
 40
0.0
 40
0.0
 40
0.0
 40
0.0
 40
0.2500000000000005
 40
0.2500000000000005
 40
0.500000000000001
 40
0.500000000000001
 40
1.0
 40
1.0
 40
1.0
 40
1.0
 10
9.934999999999611
 20
14.04169177846346
 30
0.0
 10
10.10302617041524
 20
13.92329930262076
 30
0.0
 10
10.28571921790682
 20
13.8322953077901
 30
0.0
 10
10.68010092317978
 20
13.7047613788398
 30
0.0
 10
10.88499449382992
 20
13.67096408621719
 30
0.0
 10
11.50744958687257
 20
13.66129963926842
 30
0.0
 10
11.92145100806202
 20
13.7806737147765
 30
0.0
 10
12.26500000000029
 20
14.00757694761917
 30
0.0
  0
SPLINE
  5
2AD
330
1F
100
AcDbEntity
  8
SK3
  6
HIDDEN
370
    18
100
AcDbSpline
210
0.0
220
0.0
230
1.0
 70
     8
 71
     3
 72
    16
 73
    12
 74
     0
 42
0.000000001
 43
0.00000001
 40
0.0
 40
0.0
 40
0.0
 40
0.0
 40
0.2499999999999989
 40
0.2499999999999989
 40
0.4999999999999979
 40
0.4999999999999979
 40
0.7499999999999969
 40
0.7499999999999969
 40
0.8749999999999984
 40
0.8749999999999984
 40
1.0
 40
1.0
 40
1.0
 40
1.0
 10
12.26500000000029
 20
14.00757694761917
 30
0.0
 10
12.37355509804372
 20
14.07927415315782
 30
0.0
 10
12.4707439570584
 20
14.16609747635384
 30
0.0
 10
12.64564545169282
 20
14.36225576880665
 30
0.0
 10
12.71967183958068
 20
14.46741328740245
 30
0.0
 10
12.8471157169031
 20
14.68835520197345
 30
0.0
 10
12.90008820251261
 20
14.80425789868225
 30
0.0
 10
12.9616224161791
 20
14.97429175270428
 30
0.0
 10
12.97929092721321
 20
15.03078371597053
 30
0.0
 10
13.00610765690188
 20
15.13372168090466
 30
0.0
 10
13.0149999999989
 20
15.17967072087975
 30
0.0
 10
13.01500000000008
 20
15.20215823402328
 30
0.0
  0
SPLINE
  5
2AE
330
1F
100
AcDbEntity
  8
SK3
  6
HIDDEN
370
    18
100
AcDbSpline
210
0.0
220
0.0
230
1.0
 70
     8
 71
     3
 72
    14
 73
    10
 74
     0
 42
0.000000001
 43
0.00000001
 40
0.0
 40
0.0
 40
0.0
 40
0.0
 40
0.25
 40
0.25
 40
0.5
 40
0.5
 40
0.75
 40
0.75
 40
1.0
 40
1.0
 40
1.0
 40
1.0
 10
9.184999999999999
 20
16.3400748147849
 30
0.0
 10
9.166077014827302
 20
16.28060553094043
 30
0.0
 10
9.151094003787163
 20
16.21609231516502
 30
0.0
 10
9.130454264739088
 20
16.07511061076956
 30
0.0
 10
9.125005258280222
 20
15.99844587503398
 30
0.0
 10
9.124994749585877
 20
15.84099245830813
 30
0.0
 10
9.130387799404671
 20
15.75813272261398
 30
0.0
 10
9.151056343351144
 20
15.59160555191078
 30
0.0
 10
9.166067460973897
 20
15.50877191385104
 30
0.0
 10
9.184999999999999
 20
15.42629923363455
 30
0.0
  0
SPLINE
  5
2AF
330
1F
100
AcDbEntity
  8
SK3
  6
HIDDEN
370
    18
100
AcDbSpline
210
0.0
220
0.0
230
1.0
 70
     8
 71
     3
 72
    12
 73
     8
 74
     0
 42
0.000000001
 43
0.00000001
 40
0.0
 40
0.0
 40
0.0
 40
0.0
 40
0.4999999999999966
 40
0.4999999999999966
 40
0.7499999999999982
 40
0.7499999999999982
 40
1.0
 40
1.0
 40
1.0
 40
1.0
 10
13.01500000000008
 20
15.26779067226577
 30
0.0
 10
13.08149652973026
 20
15.4886533640502
 30
0.0
 10
13.12487441551843
 20
15.72708904676499
 30
0.0
 10
13.12506236667169
 20
16.0587853222965
 30
0.0
 10
13.11461866891568
 20
16.16149000298403
 30
0.0
 10
13.07592531430963
 20
16.3465314632835
 30
0.0
 10
13.04827931420436
 20
16.42699800342887
 30
0.0
 10
13.01500000000034
 20
16.49717297017864
 30
0.0
  0
ELLIPSE
  5
2B0
330
1F
100
AcDbEntity
  8
1
  6
Continuous
370
    25
100
AcDbEllipse
 10
149.0
 20
-22.4436705668
 30
0.0
 11
12.69999999999999
 21
0.0
 31
0.0
210
0.0
220
0.0
230
1.0
 40
0.7304356933
 41
1.570796326794897
 42
2.246245112269551
  0
ELLIPSE
  5
2B1
330
1F
100
AcDbEntity
  8
1
  6
Continuous
370
    25
100
AcDbEllipse
 10
149.0
 20
22.4436705668
 30
0.0
 11
12.69999999999999
 21
0.0
 31
0.0
210
0.0
220
0.0
230
1.0
 40
0.7304356933
 41
4.036940194910048
 42
4.712388980384709
  0
INSERT
  5
2B2
330
1F
100
AcDbEntity
  8
80
100
AcDbBlockReference
  2
Block12
 10
-61.7273641656
 20
-130.3356800267
 30
0.0
  0
INSERT
  5
2B3
330
1F
100
AcDbEntity
  8
81
100
AcDbBlockReference
  2
Block11
 10
55.7135173495
 20
-130.2676275275
 30
0.0
  0
DIMENSION
  5
2B4
330
1F
100
AcDbEntity
  8
SK2
100
AcDbDimension
  2
_D
 10
-121.5883516705
 20
-34.925
 30
0.0
 11
-121.5883516705
 21
-0.1892080206
 31
0.0
 70
   160
  1
%%c<>
 71
     2
 42
-1.0
  3
SLDDIMSTYLE0
100
AcDbAlignedDimension
 13
0.0
 23
34.925
 33
0.0
 14
0.0
 24
-34.925
 34
0.0
 50
90.0
100
AcDbRotatedDimension
  0
DIMENSION
  5
2C1
330
1F
100
AcDbEntity
  8
SK2
100
AcDbDimension
  2
_D_1
 10
-111.4027708666
 20
12.0
 30
0.0
 11
-111.4027708666
 21
0.7217529654
 31
0.0
 70
   160
  1
M<>
 71
     2
 42
-1.0
  3
SLDDIMSTYLE0
100
AcDbAlignedDimension
 13
-89.3448185145
 23
-12.0
 33
0.0
 14
-89.3448185145
 24
12.0
 34
0.0
 50
90.0
100
AcDbRotatedDimension
  0
DIMENSION
  5
2CC
330
1F
100
AcDbEntity
  8
SK2
100
AcDbDimension
  2
_D_2
 10
-131.9672054309
 20
-46.8399994947
 30
0.0
 11
-131.9672054309
 21
-0.1892080206
 31
0.0
 70
   160
  1
%%c<>
 71
     2
 42
-1.0
  3
SLDDIMSTYLE0
100
AcDbAlignedDimension
 13
3.95
 23
46.8582312707
 33
0.0
 14
3.95
 24
-46.8399994947
 34
0.0
 50
90.0
100
AcDbRotatedDimension
  0
DIMENSION
  5
2D7
330
1F
100
AcDbEntity
  8
SK2
100
AcDbDimension
  2
_D_3
 10
19.05
 20
55.2399563014
 30
0.0
 11
9.9564232793
 21
55.2399563014
 31
0.0
 70
   160
  1
<>
 71
     2
 42
-1.0
  3
SLDDIMSTYLE0
100
AcDbAlignedDimension
 13
0.0
 23
34.925
 33
0.0
 14
19.05
 24
37.5576639982
 34
0.0
100
AcDbRotatedDimension
  0
DIMENSION
  5
2E1
330
1F
100
AcDbEntity
  8
SK2
100
AcDbDimension
  2
_D_4
 10
160.0
 20
55.2399563014
 30
0.0
 11
86.3189264139
 21
55.2399563014
 31
0.0
 70
   160
  1
<>
 71
     2
 42
-1.0
  3
SLDDIMSTYLE0
100
AcDbAlignedDimension
 13
19.05
 23
37.5576639982
 33
0.0
 14
160.0
 24
20.0
 34
0.0
100
AcDbRotatedDimension
  0
DIMENSION
  5
2EB
330
1F
100
AcDbEntity
  8
SK2
100
AcDbDimension
  2
_D_5
 10
160.0
 20
36.1713604506
 30
0.0
 11
148.4396530794
 21
36.1713604506
 31
0.0
 70
   160
  1
<>
 71
     2
 42
-1.0
  3
SLDDIMSTYLE0
100
AcDbAlignedDimension
 13
137.5
 23
24.2
 33
0.0
 14
160.0
 24
20.0
 34
0.0
100
AcDbRotatedDimension
  0
DIMENSION
  5
2F5
330
1F
100
AcDbEntity
  8
2
100
AcDbDimension
  2
_D_6
 10
160.0
 20
65.0757202816
 30
0.0
 11
72.9521637989
 21
65.0757202816
 31
0.0
 70
   160
  1
<>
 71
     2
 42
-1.0
  3
SLDDIMSTYLE0
100
AcDbAlignedDimension
 13
0.0
 23
34.925
 33
0.0
 14
160.0
 24
20.0
 34
0.0
100
AcDbRotatedDimension
  0
DIMENSION
  5
2FF
330
1F
100
AcDbEntity
  8
SK2
100
AcDbDimension
  2
_D_7
 10
147.34
 20
-58.5059977779
 30
0.0
 11
72.849636422
 21
-58.5059977779
 31
0.0
 70
   160
  1
<>
 71
     2
 42
-1.0
  3
SLDDIMSTYLE0
100
AcDbAlignedDimension
 13
0.0
 23
-34.925
 33
0.0
 14
147.34
 24
-16.9838169833
 34
0.0
 50
0.0
100
AcDbRotatedDimension
  0
DIMENSION
  5
309
330
1F
100
AcDbEntity
  8
SK2
100
AcDbDimension
  2
_D_8
 10
160.0
 20
-69.9385488527
 30
0.0
 11
27.3009011875
 21
-69.9385488527
 31
0.0
 70
   160
  1
<>
 71
     2
 42
-1.0
  3
SLDDIMSTYLE0
100
AcDbAlignedDimension
 13
-101.6
 23
-18.1625211762
 33
0.0
 14
160.0
 24
-20.0
 34
0.0
 50
0.0
100
AcDbRotatedDimension
  0
DIMENSION
  5
313
330
1F
100
AcDbEntity
  8
SK2
100
AcDbDimension
  2
_D_9
 10
182.6520000319
 20
25.0
 30
0.0
 11
182.6520000319
 21
-0.4035334783
 31
0.0
 70
   160
  1
%%c<>
 71
     2
 42
-1.0
  3
SLDDIMSTYLE0
100
AcDbAlignedDimension
 13
140.8042311538
 23
-25.0
 33
0.0
 14
140.8042311538
 24
25.0
 34
0.0
 50
90.0
100
AcDbRotatedDimension
  0
DIMENSION
  5
31E
330
1F
100
AcDbEntity
  8
SK2
100
AcDbDimension
  2
_D_10
 10
172.0279792191
 20
16.0
 30
0.0
 11
172.0279792191
 21
-0.4035334783
 31
0.0
 70
   160
  1
%%c<>
 71
     2
 42
-1.0
  3
SLDDIMSTYLE0
100
AcDbAlignedDimension
 13
146.479173101
 23
-16.0
 33
0.0
 14
146.479173101
 24
16.0
 34
0.0
 50
90.0
100
AcDbRotatedDimension
  0
MTEXT
  5
329
330
1F
100
AcDbEntity
  8
SK6
 62
     5
100
AcDbMText
 10
-99.245563427
 20
-72.7468432521
 30
0.0
 40
3.5
 41
0.0
 71
     1
 72
     1
  1
A1B14-50 32 160
  7
SLDTEXTSTYLE0
 73
     1
 44
1.0
  0
INSERT
  5
32F
330
1F
100
AcDbEntity
  8
SK6
 62
     5
100
AcDbBlockReference
  2
SW_NOTE_0
 10
-38.8292470216
 20
53.1830467453
 30
0.0
  0
ENDSEC
  0
SECTION
  2
OBJECTS
  0
DICTIONARY
  5
C
330
0
100
AcDbDictionary
281
     1
  3
ACAD_GROUP
350
D
  3
ACAD_LAYOUT
350
1A
  3
ACAD_MLINESTYLE
350
17
  3
ACAD_PLOTSETTINGS
350
19
  3
ACAD_PLOTSTYLENAME
350
E
  3
ACAD_SCALELIST
350
47
  0
DICTIONARY
  5
D
102
{ACAD_REACTORS
330
C
102
}
330
C
100
AcDbDictionary
281
     1
  0
DICTIONARY
  5
1A
102
{ACAD_REACTORS
330
C
102
}
330
C
100
AcDbDictionary
281
     1
  3
Layout1
350
1E
  3
Layout2
350
26
  3
Model
350
22
  0
DICTIONARY
  5
17
102
{ACAD_REACTORS
330
C
102
}
330
C
100
AcDbDictionary
281
     1
  3
Standard
350
18
  0
DICTIONARY
  5
19
102
{ACAD_REACTORS
330
C
102
}
330
C
100
AcDbDictionary
281
     1
  0
ACDBDICTIONARYWDFLT
  5
E
102
{ACAD_REACTORS
330
C
102
}
330
C
100
AcDbDictionary
281
     1
  3
Normal
350
F
100
AcDbDictionaryWithDefault
340
F
  0
DICTIONARY
  5
47
102
{ACAD_REACTORS
330
C
102
}
330
C
100
AcDbDictionary
281
     1
  3
A0
350
48
  3
A1
350
49
  3
A2
350
4A
  3
A3
350
4B
  3
A4
350
4C
  3
A5
350
4D
  3
A6
350
4E
  3
A7
350
4F
  3
A8
350
50
  3
A9
350
51
  3
B0
350
52
  3
B1
350
53
  3
B2
350
54
  3
B3
350
55
  3
B4
350
56
  3
B5
350
57
  3
B6
350
58
  3
B7
350
59
  3
B8
350
5A
  3
B9
350
5B
  3
C0
350
5C
  3
C1
350
5D
  3
C2
350
5E
  3
C3
350
5F
  3
C4
350
60
  3
C5
350
61
  3
C6
350
62
  3
C7
350
63
  3
C8
350
64
  3
C9
350
65
  3
D0
350
66
  3
D1
350
67
  3
D2
350
68
  0
LAYOUT
  5
1E
102
{ACAD_REACTORS
330
1A
102
}
330
1A
100
AcDbPlotSettings
  1

  2
none_device
  4

  6

 40
0.0
 41
0.0
 42
0.0
 43
0.0
 44
0.0
 45
0.0
 46
0.0
 47
0.0
 48
0.0
 49
0.0
140
0.0
141
0.0
142
1.0
143
1.0
 70
   688
 72
     1
 73
     0
 74
     5
  7

 75
    16
147
1.0
148
0.0
149
0.0
100
AcDbLayout
  1
Layout1
 70
     1
 71
     1
 10
0.0
 20
0.0
 11
420.0
 21
297.0
 12
0.0
 22
0.0
 32
0.0
 14
1.0000000000E+20
 24
1.0000000000E+20
 34
1.0000000000E+20
 15
-1.0000000000E+20
 25
-1.0000000000E+20
 35
-1.0000000000E+20
146
0.0
 13
0.0
 23
0.0
 33
0.0
 16
1.0
 26
0.0
 36
0.0
 17
0.0
 27
1.0
 37
0.0
 76
     0
330
1B
  0
LAYOUT
  5
26
102
{ACAD_REACTORS
330
1A
102
}
330
1A
100
AcDbPlotSettings
  1

  2
none_device
  4

  6

 40
0.0
 41
0.0
 42
0.0
 43
0.0
 44
0.0
 45
0.0
 46
0.0
 47
0.0
 48
0.0
 49
0.0
140
0.0
141
0.0
142
1.0
143
1.0
 70
   688
 72
     1
 73
     0
 74
     5
  7

 75
    16
147
1.0
148
0.0
149
0.0
100
AcDbLayout
  1
Layout2
 70
     1
 71
     2
 10
0.0
 20
0.0
 11
0.0
 21
0.0
 12
0.0
 22
0.0
 32
0.0
 14
0.0
 24
0.0
 34
0.0
 15
0.0
 25
0.0
 35
0.0
146
0.0
 13
0.0
 23
0.0
 33
0.0
 16
1.0
 26
0.0
 36
0.0
 17
0.0
 27
1.0
 37
0.0
 76
     0
330
23
  0
LAYOUT
  5
22
102
{ACAD_REACTORS
330
1A
102
}
330
1A
100
AcDbPlotSettings
  1

  2
none_device
  4
Letter_(8.50_x_11.00_Inches)
  6

 40
6.35
 41
6.35
 42
6.35000508
 43
6.35000508
 44
215.9
 45
279.4
 46
0.0
 47
0.0
 48
0.0
 49
0.0
140
0.0
141
0.0
142
1.0
143
1.0
 70
  1712
 72
     1
 73
     0
 74
     0
  7

 75
     0
147
1.0
148
0.0
149
0.0
100
AcDbLayout
  1
Model
 70
     1
 71
     0
 10
0.0
 20
0.0
 11
297.0
 21
210.0
 12
0.0
 22
0.0
 32
0.0
 14
0.0
 24
0.0
 34
0.0
 15
297.0
 25
210.0
 35
0.0
146
0.0
 13
0.0
 23
0.0
 33
0.0
 16
1.0
 26
0.0
 36
0.0
 17
0.0
 27
1.0
 37
0.0
 76
     0
330
1F
331
29
  0
MLINESTYLE
  5
18
102
{ACAD_REACTORS
330
17
102
}
330
17
100
AcDbMlineStyle
  2
Standard
 70
     0
  3

 62
   256
 51
90.0
 52
90.0
 71
     2
 49
0.5
 62
   256
  6
BYLAYER
 49
-0.5
 62
   256
  6
BYLAYER
  0
ACDBPLACEHOLDER
  5
F
102
{ACAD_REACTORS
330
E
102
}
330
E
  0
SCALE
  5
48
102
{ACAD_REACTORS
330
47
102
}
330
47
100
AcDbScale
 70
     0
300
1:1
140
1.0
141
1.0
290
     1
  0
SCALE
  5
49
102
{ACAD_REACTORS
330
47
102
}
330
47
100
AcDbScale
 70
     0
300
1:2
140
1.0
141
2.0
290
     0
  0
SCALE
  5
4A
102
{ACAD_REACTORS
330
47
102
}
330
47
100
AcDbScale
 70
     0
300
1:4
140
1.0
141
4.0
290
     0
  0
SCALE
  5
4B
102
{ACAD_REACTORS
330
47
102
}
330
47
100
AcDbScale
 70
     0
300
1:5
140
1.0
141
5.0
290
     0
  0
SCALE
  5
4C
102
{ACAD_REACTORS
330
47
102
}
330
47
100
AcDbScale
 70
     0
300
1:8
140
1.0
141
8.0
290
     0
  0
SCALE
  5
4D
102
{ACAD_REACTORS
330
47
102
}
330
47
100
AcDbScale
 70
     0
300
1:10
140
1.0
141
10.0
290
     0
  0
SCALE
  5
4E
102
{ACAD_REACTORS
330
47
102
}
330
47
100
AcDbScale
 70
     0
300
1:16
140
1.0
141
16.0
290
     0
  0
SCALE
  5
4F
102
{ACAD_REACTORS
330
47
102
}
330
47
100
AcDbScale
 70
     0
300
1:20
140
1.0
141
20.0
290
     0
  0
SCALE
  5
50
102
{ACAD_REACTORS
330
47
102
}
330
47
100
AcDbScale
 70
     0
300
1:30
140
1.0
141
30.0
290
     0
  0
SCALE
  5
51
102
{ACAD_REACTORS
330
47
102
}
330
47
100
AcDbScale
 70
     0
300
1:40
140
1.0
141
40.0
290
     0
  0
SCALE
  5
52
102
{ACAD_REACTORS
330
47
102
}
330
47
100
AcDbScale
 70
     0
300
1:50
140
1.0
141
50.0
290
     0
  0
SCALE
  5
53
102
{ACAD_REACTORS
330
47
102
}
330
47
100
AcDbScale
 70
     0
300
1:100
140
1.0
141
100.0
290
     0
  0
SCALE
  5
54
102
{ACAD_REACTORS
330
47
102
}
330
47
100
AcDbScale
 70
     0
300
2:1
140
2.0
141
1.0
290
     0
  0
SCALE
  5
55
102
{ACAD_REACTORS
330
47
102
}
330
47
100
AcDbScale
 70
     0
300
4:1
140
4.0
141
1.0
290
     0
  0
SCALE
  5
56
102
{ACAD_REACTORS
330
47
102
}
330
47
100
AcDbScale
 70
     0
300
8:1
140
8.0
141
1.0
290
     0
  0
SCALE
  5
57
102
{ACAD_REACTORS
330
47
102
}
330
47
100
AcDbScale
 70
     0
300
10:1
140
10.0
141
1.0
290
     0
  0
SCALE
  5
58
102
{ACAD_REACTORS
330
47
102
}
330
47
100
AcDbScale
 70
     0
300
100:1
140
100.0
141
1.0
290
     0
  0
SCALE
  5
59
102
{ACAD_REACTORS
330
47
102
}
330
47
100
AcDbScale
 70
     0
300
1/128" = 1'-0"
140
0.0078125
141
12.0
290
     0
  0
SCALE
  5
5A
102
{ACAD_REACTORS
330
47
102
}
330
47
100
AcDbScale
 70
     0
300
1/64" = 1'-0"
140
0.015625
141
12.0
290
     0
  0
SCALE
  5
5B
102
{ACAD_REACTORS
330
47
102
}
330
47
100
AcDbScale
 70
     0
300
1/32" = 1'-0"
140
0.03125
141
12.0
290
     0
  0
SCALE
  5
5C
102
{ACAD_REACTORS
330
47
102
}
330
47
100
AcDbScale
 70
     0
300
1/16" = 1'-0"
140
0.0625
141
12.0
290
     0
  0
SCALE
  5
5D
102
{ACAD_REACTORS
330
47
102
}
330
47
100
AcDbScale
 70
     0
300
3/32" = 1'-0"
140
0.09375
141
12.0
290
     0
  0
SCALE
  5
5E
102
{ACAD_REACTORS
330
47
102
}
330
47
100
AcDbScale
 70
     0
300
1/8" = 1'-0"
140
0.125
141
12.0
290
     0
  0
SCALE
  5
5F
102
{ACAD_REACTORS
330
47
102
}
330
47
100
AcDbScale
 70
     0
300
3/16" = 1'-0"
140
0.1875
141
12.0
290
     0
  0
SCALE
  5
60
102
{ACAD_REACTORS
330
47
102
}
330
47
100
AcDbScale
 70
     0
300
1/4" = 1'-0"
140
0.25
141
12.0
290
     0
  0
SCALE
  5
61
102
{ACAD_REACTORS
330
47
102
}
330
47
100
AcDbScale
 70
     0
300
3/8" = 1'-0"
140
0.375
141
12.0
290
     0
  0
SCALE
  5
62
102
{ACAD_REACTORS
330
47
102
}
330
47
100
AcDbScale
 70
     0
300
1/2" = 1'-0"
140
0.5
141
12.0
290
     0
  0
SCALE
  5
63
102
{ACAD_REACTORS
330
47
102
}
330
47
100
AcDbScale
 70
     0
300
3/4" = 1'-0"
140
0.75
141
12.0
290
     0
  0
SCALE
  5
64
102
{ACAD_REACTORS
330
47
102
}
330
47
100
AcDbScale
 70
     0
300
1" = 1'-0"
140
1.0
141
12.0
290
     0
  0
SCALE
  5
65
102
{ACAD_REACTORS
330
47
102
}
330
47
100
AcDbScale
 70
     0
300
1-1/2" = 1'-0"
140
1.5
141
12.0
290
     0
  0
SCALE
  5
66
102
{ACAD_REACTORS
330
47
102
}
330
47
100
AcDbScale
 70
     0
300
3" = 1'-0"
140
3.0
141
12.0
290
     0
  0
SCALE
  5
67
102
{ACAD_REACTORS
330
47
102
}
330
47
100
AcDbScale
 70
     0
300
6" = 1'-0"
140
6.0
141
12.0
290
     0
  0
SCALE
  5
68
102
{ACAD_REACTORS
330
47
102
}
330
47
100
AcDbScale
 70
     0
300
1'-0" = 1'-0"
140
12.0
141
12.0
290
     0
  0
ENDSEC
  0
EOF
