  0
SECTION
  2
HEADER
  9
$ACADVER
  1
AC1015
  9
$ACADMAINTVER
 70
     6
  9
$DWGCODEPAGE
  3
ANSI_1250
  9
$INSBASE
 10
0.0
 20
0.0
 30
0.0
  9
$EXTMIN
 10
0.0
 20
0.0
 30
0.0
  9
$EXTMAX
 10
297.0
 20
210.0
 30
0.0
  9
$LIMMIN
 10
0.0
 20
0.0
  9
$LIMMAX
 10
297.0
 20
210.0
  9
$ORTHOMODE
 70
     0
  9
$REGENMODE
 70
     1
  9
$FILLMODE
 70
     1
  9
$QTEXTMODE
 70
     0
  9
$MIRRTEXT
 70
     1
  9
$LTSCALE
 40
1.0
  9
$ATTMODE
 70
     1
  9
$TEXTSIZE
 40
3.5
  9
$TRACEWID
 40
1.0
  9
$TEXTSTYLE
  7
Standard
  9
$CLAYER
  8
0
  9
$CELTYPE
  6
ByLayer
  9
$CECOLOR
 62
   256
  9
$CELTSCALE
 40
1.0
  9
$DISPSILH
 70
     0
  9
$DIMSCALE
 40
1.0
  9
$DIMASZ
 40
3.302
  9
$DIMEXO
 40
1.0
  9
$DIMDLI
 40
3.75
  9
$DIMRND
 40
0.0
  9
$DIMDLE
 40
0.0
  9
$DIMEXE
 40
1.0
  9
$DIMTP
 40
0.0
  9
$DIMTM
 40
0.0
  9
$DIMTXT
 40
3.5
  9
$DIMCEN
 40
2.5
  9
$DIMTSZ
 40
0.0
  9
$DIMTOL
 70
     0
  9
$DIMLIM
 70
     0
  9
$DIMTIH
 70
     1
  9
$DIMTOH
 70
     1
  9
$DIMSE1
 70
     0
  9
$DIMSE2
 70
     0
  9
$DIMTAD
 70
     1
  9
$DIMZIN
 70
     0
  9
$DIMBLK
  1

  9
$DIMASO
 70
     1
  9
$DIMSHO
 70
     1
  9
$DIMPOST
  1

  9
$DIMAPOST
  1

  9
$DIMALT
 70
     0
  9
$DIMALTD
 70
     3
  9
$DIMALTF
 40
0.0393700787
  9
$DIMLFAC
 40
1.0
  9
$DIMTOFL
 70
     1
  9
$DIMTVP
 40
0.0
  9
$DIMTIX
 70
     0
  9
$DIMSOXD
 70
     0
  9
$DIMSAH
 70
     0
  9
$DIMBLK1
  1

  9
$DIMBLK2
  1

  9
$DIMSTYLE
  2
ISO-25
  9
$DIMCLRD
 70
     0
  9
$DIMCLRE
 70
     0
  9
$DIMCLRT
 70
     0
  9
$DIMTFAC
 40
1.0
  9
$DIMGAP
 40
1.524
  9
$DIMJUST
 70
     0
  9
$DIMSD1
 70
     0
  9
$DIMSD2
 70
     0
  9
$DIMTOLJ
 70
     0
  9
$DIMTZIN
 70
     0
  9
$DIMALTZ
 70
     0
  9
$DIMALTTZ
 70
     0
  9
$DIMUPT
 70
     0
  9
$DIMDEC
 70
     2
  9
$DIMTDEC
 70
     2
  9
$DIMALTU
 70
     2
  9
$DIMALTTD
 70
     3
  9
$DIMTXSTY
  7
Standard
  9
$DIMAUNIT
 70
     0
  9
$DIMADEC
 70
     2
  9
$DIMALTRND
 40
0.0
  9
$DIMAZIN
 70
     0
  9
$DIMDSEP
 70
    44
  9
$DIMATFIT
 70
     3
  9
$DIMFRAC
 70
     0
  9
$DIMLDRBLK
  1

  9
$DIMLUNIT
 70
     2
  9
$DIMLWD
 70
    -2
  9
$DIMLWE
 70
    -2
  9
$DIMTMOVE
 70
     0
  9
$LUNITS
 70
     2
  9
$LUPREC
 70
     2
  9
$SKETCHINC
 40
1.0
  9
$FILLETRAD
 40
10.0
  9
$AUNITS
 70
     0
  9
$AUPREC
 70
     2
  9
$MENU
  1
.
  9
$ELEVATION
 40
0.0
  9
$PELEVATION
 40
0.0
  9
$THICKNESS
 40
0.0
  9
$LIMCHECK
 70
     0
  9
$CHAMFERA
 40
0.0
  9
$CHAMFERB
 40
0.0
  9
$CHAMFERC
 40
0.0
  9
$CHAMFERD
 40
0.0
  9
$SKPOLY
 70
     0
  9
$TDCREATE
 40
2459723.347070185
  9
$TDUCREATE
 40
2459723.263736852
  9
$TDUPDATE
 40
2459723.347071447
  9
$TDUUPDATE
 40
2459723.263738113
  9
$TDINDWG
 40
0.0000000116
  9
$TDUSRTIMER
 40
0.0000000116
  9
$USRTIMER
 70
     1
  9
$ANGBASE
 50
0.0
  9
$ANGDIR
 70
     0
  9
$PDMODE
 70
     0
  9
$PDSIZE
 40
-1.0
  9
$PLINEWID
 40
0.0
  9
$SPLFRAME
 70
     0
  9
$SPLINETYPE
 70
     6
  9
$SPLINESEGS
 70
     8
  9
$HANDSEED
  5
36F
  9
$SURFTAB1
 70
     6
  9
$SURFTAB2
 70
     6
  9
$SURFTYPE
 70
     6
  9
$SURFU
 70
     6
  9
$SURFV
 70
     6
  9
$UCSBASE
  2

  9
$UCSNAME
  2

  9
$UCSORG
 10
0.0
 20
0.0
 30
0.0
  9
$UCSXDIR
 10
1.0
 20
0.0
 30
0.0
  9
$UCSYDIR
 10
0.0
 20
1.0
 30
0.0
  9
$UCSORTHOREF
  2

  9
$UCSORTHOVIEW
 70
     0
  9
$UCSORGTOP
 10
0.0
 20
0.0
 30
0.0
  9
$UCSORGBOTTOM
 10
0.0
 20
0.0
 30
0.0
  9
$UCSORGLEFT
 10
0.0
 20
0.0
 30
0.0
  9
$UCSORGRIGHT
 10
0.0
 20
0.0
 30
0.0
  9
$UCSORGFRONT
 10
0.0
 20
0.0
 30
0.0
  9
$UCSORGBACK
 10
0.0
 20
0.0
 30
0.0
  9
$PUCSBASE
  2

  9
$PUCSNAME
  2

  9
$PUCSORG
 10
0.0
 20
0.0
 30
0.0
  9
$PUCSXDIR
 10
1.0
 20
0.0
 30
0.0
  9
$PUCSYDIR
 10
0.0
 20
1.0
 30
0.0
  9
$PUCSORTHOREF
  2

  9
$PUCSORTHOVIEW
 70
     0
  9
$PUCSORGTOP
 10
0.0
 20
0.0
 30
0.0
  9
$PUCSORGBOTTOM
 10
0.0
 20
0.0
 30
0.0
  9
$PUCSORGLEFT
 10
0.0
 20
0.0
 30
0.0
  9
$PUCSORGRIGHT
 10
0.0
 20
0.0
 30
0.0
  9
$PUCSORGFRONT
 10
0.0
 20
0.0
 30
0.0
  9
$PUCSORGBACK
 10
0.0
 20
0.0
 30
0.0
  9
$USERI1
 70
     0
  9
$USERI2
 70
     0
  9
$USERI3
 70
     0
  9
$USERI4
 70
     0
  9
$USERI5
 70
     0
  9
$USERR1
 40
0.0
  9
$USERR2
 40
0.0
  9
$USERR3
 40
0.0
  9
$USERR4
 40
0.0
  9
$USERR5
 40
0.0
  9
$WORLDVIEW
 70
     1
  9
$SHADEDGE
 70
     3
  9
$SHADEDIF
 70
    70
  9
$TILEMODE
 70
     1
  9
$MAXACTVP
 70
    64
  9
$PINSBASE
 10
0.0
 20
0.0
 30
0.0
  9
$PLIMCHECK
 70
     0
  9
$PEXTMIN
 10
1.0000000000E+20
 20
1.0000000000E+20
 30
1.0000000000E+20
  9
$PEXTMAX
 10
-1.0000000000E+20
 20
-1.0000000000E+20
 30
-1.0000000000E+20
  9
$PLIMMIN
 10
0.0
 20
0.0
  9
$PLIMMAX
 10
420.0
 20
297.0
  9
$UNITMODE
 70
     0
  9
$VISRETAIN
 70
     1
  9
$PLINEGEN
 70
     0
  9
$PSLTSCALE
 70
     1
  9
$TREEDEPTH
 70
  3020
  9
$CMLSTYLE
  2
Standard
  9
$CMLJUST
 70
     0
  9
$CMLSCALE
 40
20.0
  9
$PROXYGRAPHICS
 70
     1
  9
$MEASUREMENT
 70
     1
  9
$CELWEIGHT
370
    -1
  9
$ENDCAPS
280
     0
  9
$JOINSTYLE
280
     0
  9
$LWDISPLAY
290
     1
  9
$INSUNITS
 70
     4
  9
$HYPERLINKBASE
  1

  9
$STYLESHEET
  1

  9
$XEDIT
290
     1
  9
$CEPSNTYPE
380
     0
  9
$PSTYLEMODE
290
     1
  9
$FINGERPRINTGUID
  2
{400F737B-7663-4544-983D-B4037FC996C2}
  9
$VERSIONGUID
  2
{FAEB1C32-E019-11D5-929B-00C0DF256EC4}
  9
$EXTNAMES
290
     1
  9
$PSVPSCALE
 40
0.0
  9
$OLESTARTUP
290
     0
  0
ENDSEC
  0
SECTION
  2
CLASSES
  0
CLASS
  1
ACDBDICTIONARYWDFLT
  2
AcDbDictionaryWithDefault
  3
ObjectDBX Classes
 90
        0
280
     0
281
     0
  0
CLASS
  1
VISUALSTYLE
  2
AcDbVisualStyle
  3
ObjectDBX Classes
 90
     4095
280
     0
281
     0
  0
CLASS
  1
MATERIAL
  2
AcDbMaterial
  3
ObjectDBX Classes
 90
     1153
280
     0
281
     0
  0
CLASS
  1
SCALE
  2
AcDbScale
  3
ObjectDBX Classes
 90
     1153
280
     0
281
     0
  0
CLASS
  1
TABLESTYLE
  2
AcDbTableStyle
  3
ObjectDBX Classes
 90
     4095
280
     0
281
     0
  0
CLASS
  1
MLEADERSTYLE
  2
AcDbMLeaderStyle
  3
ACDB_MLEADERSTYLE_CLASS
 90
     4095
280
     0
281
     0
  0
CLASS
  1
SUN
  2
AcDbSun
  3
SCENEOE
 90
     1153
280
     0
281
     0
  0
CLASS
  1
ACDBPLACEHOLDER
  2
AcDbPlaceHolder
  3
ObjectDBX Classes
 90
        0
280
     0
281
     0
  0
CLASS
  1
LAYOUT
  2
AcDbLayout
  3
ObjectDBX Classes
 90
        0
280
     0
281
     0
  0
ENDSEC
  0
SECTION
  2
TABLES
  0
TABLE
  2
VPORT
  5
8
330
0
100
AcDbSymbolTable
 70
     1
  0
VPORT
  5
29
330
8
100
AcDbSymbolTableRecord
100
AcDbViewportTableRecord
  2
*Active
 70
     0
 10
0.0
 20
0.0
 11
1.0
 21
1.0
 12
148.5
 22
105.0
 13
0.0
 23
0.0
 14
10.0
 24
10.0
 15
10.0
 25
10.0
 16
0.0
 26
0.0
 36
1.0
 17
0.0
 27
0.0
 37
0.0
 40
210.0
 41
1.4142857143
 42
50.0
 43
0.0
 44
0.0
 50
0.0
 51
0.0
 71
     0
 72
  2000
 73
     1
 74
     3
 75
     0
 76
     0
 77
     0
 78
     0
281
     0
 65
     1
110
0.0
120
0.0
130
0.0
111
1.0
121
0.0
131
0.0
112
0.0
122
1.0
132
0.0
 79
     0
146
0.0
  0
ENDTAB
  0
TABLE
  2
LTYPE
  5
5
330
0
100
AcDbSymbolTable
 70
     6
  0
LTYPE
  5
14
330
5
100
AcDbSymbolTableRecord
100
AcDbLinetypeTableRecord
  2
ByBlock
 70
     0
  3

 72
    65
 73
     0
 40
0.0
  0
LTYPE
  5
15
330
5
100
AcDbSymbolTableRecord
100
AcDbLinetypeTableRecord
  2
ByLayer
 70
     0
  3

 72
    65
 73
     0
 40
0.0
  0
LTYPE
  5
16
330
5
100
AcDbSymbolTableRecord
100
AcDbLinetypeTableRecord
  2
Continuous
 70
     0
  3
Solid line
 72
    65
 73
     0
 40
0.0
  0
LTYPE
  5
6E
330
5
100
AcDbSymbolTableRecord
100
AcDbLinetypeTableRecord
  2
HIDDEN
 70
     0
  3
Hidden __ __ __ __ __ __ __ __ __ __ __ __ __ __
 72
    65
 73
     2
 40
1.905
 49
1.27
 74
     0
 49
-0.635
 74
     0
  0
LTYPE
  5
6F
330
5
100
AcDbSymbolTableRecord
100
AcDbLinetypeTableRecord
  2
PHANTOM
 70
     0
  3
Phantom ______  __  __  ______  __  __  ______
 72
    65
 73
     6
 40
12.7
 49
6.35
 74
     0
 49
-1.27
 74
     0
 49
1.27
 74
     0
 49
-1.27
 74
     0
 49
1.27
 74
     0
 49
-1.27
 74
     0
  0
LTYPE
  5
70
330
5
100
AcDbSymbolTableRecord
100
AcDbLinetypeTableRecord
  2
CENTER
 70
     0
  3
Center ____ _ ____ _ ____ _ ____ _ ____ _ ____
 72
    65
 73
     4
 40
10.16
 49
6.35
 74
     0
 49
-1.27
 74
     0
 49
1.27
 74
     0
 49
-1.27
 74
     0
  0
LTYPE
  5
71
330
5
100
AcDbSymbolTableRecord
100
AcDbLinetypeTableRecord
  2
CENTERX2
 70
     0
  3
Center (2x) ________  __  ________  __  _____
 72
    65
 73
     4
 40
20.32
 49
12.7
 74
     0
 49
-2.54
 74
     0
 49
2.54
 74
     0
 49
-2.54
 74
     0
  0
LTYPE
  5
72
330
5
100
AcDbSymbolTableRecord
100
AcDbLinetypeTableRecord
  2
DOT2
 70
     0
  3
Dot (.5x) ........................................
 72
    65
 73
     2
 40
0.635
 49
0.0
 74
     0
 49
-0.635
 74
     0
  0
ENDTAB
  0
TABLE
  2
LAYER
  5
2
330
0
100
AcDbSymbolTable
 70
    12
  0
LAYER
  5
10
330
2
100
AcDbSymbolTableRecord
100
AcDbLayerTableRecord
  2
0
 70
     0
 62
     7
  6
Continuous
370
    -3
390
F
  0
LAYER
  5
73
330
2
100
AcDbSymbolTableRecord
100
AcDbLayerTableRecord
  2
SLD-0
 70
     0
 62
   179
  6
Continuous
370
    -3
390
F
  0
LAYER
  5
74
330
2
100
AcDbSymbolTableRecord
100
AcDbLayerTableRecord
  2
80
 70
     0
 62
    -6
  6
Continuous
290
     0
370
    -3
390
F
  0
LAYER
  5
75
330
2
100
AcDbSymbolTableRecord
100
AcDbLayerTableRecord
  2
81
 70
     0
 62
    -3
  6
Continuous
290
     0
370
    -3
390
F
  0
LAYER
  5
76
330
2
100
AcDbSymbolTableRecord
100
AcDbLayerTableRecord
  2
1
 70
     0
 62
     4
  6
Continuous
290
     0
370
    -3
390
F
  0
LAYER
  5
77
330
2
100
AcDbSymbolTableRecord
100
AcDbLayerTableRecord
  2
4
 70
     0
 62
    -2
  6
CENTER
290
     0
370
    -3
390
F
  0
LAYER
  5
78
330
2
100
AcDbSymbolTableRecord
100
AcDbLayerTableRecord
  2
2
 70
     0
 62
     7
  6
Continuous
290
     0
370
    -3
390
F
  0
LAYER
  5
79
330
2
100
AcDbSymbolTableRecord
100
AcDbLayerTableRecord
  2
SK3
 70
     0
 62
     1
  6
HIDDEN
290
     0
370
    -3
390
F
  0
LAYER
  5
7A
330
2
100
AcDbSymbolTableRecord
100
AcDbLayerTableRecord
  2
SK4
 70
     0
 62
     2
  6
CENTER
290
     0
370
    -3
390
F
  0
LAYER
  5
7B
330
2
100
AcDbSymbolTableRecord
100
AcDbLayerTableRecord
  2
SK2
 70
     0
 62
     7
  6
Continuous
290
     0
370
    -3
390
F
  0
LAYER
  5
7C
330
2
100
AcDbSymbolTableRecord
100
AcDbLayerTableRecord
  2
SK6
 70
     0
 62
     5
  6
Continuous
290
     0
370
    -3
390
F
  0
LAYER
  5
7D
330
2
100
AcDbSymbolTableRecord
100
AcDbLayerTableRecord
  2
SK1
 70
     0
 62
     4
  6
Continuous
370
    -3
390
F
  0
ENDTAB
  0
TABLE
  2
STYLE
  5
3
330
0
100
AcDbSymbolTable
 70
     2
  0
STYLE
  5
11
330
3
100
AcDbSymbolTableRecord
100
AcDbTextStyleTableRecord
  2
Standard
 70
     0
 40
0.0
 41
1.0
 50
0.0
 71
     0
 42
3.5
  3
txt
  4

  0
STYLE
  5
2FC
330
3
100
AcDbSymbolTableRecord
100
AcDbTextStyleTableRecord
  2
SLDTEXTSTYLE0
 70
     0
 40
0.0
 41
0.75
 50
0.0
 71
     0
 42
3.5
  3
TXT
  4

  0
ENDTAB
  0
TABLE
  2
VIEW
  5
6
330
0
100
AcDbSymbolTable
 70
     0
  0
ENDTAB
  0
TABLE
  2
UCS
  5
7
330
0
100
AcDbSymbolTable
 70
     0
  0
ENDTAB
  0
TABLE
  2
APPID
  5
9
330
0
100
AcDbSymbolTable
 70
     1
  0
APPID
  5
12
330
9
100
AcDbSymbolTableRecord
100
AcDbRegAppTableRecord
  2
ACAD
 70
     0
  0
ENDTAB
  0
TABLE
  2
DIMSTYLE
  5
A
330
0
100
AcDbSymbolTable
 70
     3
100
AcDbDimStyleTable
  0
DIMSTYLE
105
27
330
A
100
AcDbSymbolTableRecord
100
AcDbDimStyleTableRecord
  2
ISO-25
 70
     0
 41
2.5
 42
0.625
 43
3.75
 44
1.25
 73
     0
 74
     0
 77
     1
 78
     8
140
2.5
141
2.5
143
0.0393700787
147
0.625
171
     3
172
     1
178
     0
271
     2
272
     2
274
     3
278
    44
283
     0
284
     8
340
11
  0
DIMSTYLE
105
2FD
102
{ACAD_REACTORS
330
2FB
102
}
330
A
100
AcDbSymbolTableRecord
100
AcDbDimStyleTableRecord
  2
SLDDIMSTYLE0
 70
     0
 41
3.302
 44
0.0
 45
0.000000001
 73
     0
 74
     0
 77
     1
 78
    12
 79
     3
140
3.5
147
0.875
172
     1
173
     1
178
     0
271
     2
272
     2
276
     2
284
    12
289
     0
340
2FC
  0
DIMSTYLE
105
30A
102
{ACAD_REACTORS
330
309
330
315
330
320
330
32A
330
334
330
33E
330
348
330
352
330
35D
102
}
330
A
100
AcDbSymbolTableRecord
100
AcDbDimStyleTableRecord
  2
SLDDIMSTYLE1
 70
     0
 41
3.302
 44
0.0
 45
0.000000001
 73
     0
 74
     0
 77
     1
 78
    12
 79
     3
140
3.5
147
0.875
173
     1
178
     0
271
     2
272
     2
276
     2
284
    12
340
2FC
  0
ENDTAB
  0
TABLE
  2
BLOCK_RECORD
  5
1
330
0
100
AcDbSymbolTable
 70
    14
  0
BLOCK_RECORD
  5
1F
330
1
100
AcDbSymbolTableRecord
100
AcDbBlockTableRecord
  2
*Model_Space
340
22
  0
BLOCK_RECORD
  5
1B
330
1
100
AcDbSymbolTableRecord
100
AcDbBlockTableRecord
  2
*Paper_Space
340
1E
  0
BLOCK_RECORD
  5
23
330
1
100
AcDbSymbolTableRecord
100
AcDbBlockTableRecord
  2
*Paper_Space0
340
26
  0
BLOCK_RECORD
  5
7E
330
1
100
AcDbSymbolTableRecord
100
AcDbBlockTableRecord
  2
Block11
340
0
102
{BLKREFS
331
2F9
102
}
  0
BLOCK_RECORD
  5
87
330
1
100
AcDbSymbolTableRecord
100
AcDbBlockTableRecord
  2
Block12
340
0
102
{BLKREFS
331
2FA
102
}
  0
BLOCK_RECORD
  5
2FE
330
1
100
AcDbSymbolTableRecord
100
AcDbBlockTableRecord
  2
_D
340
0
  0
BLOCK_RECORD
  5
30B
330
1
100
AcDbSymbolTableRecord
100
AcDbBlockTableRecord
  2
_D_1
340
0
  0
BLOCK_RECORD
  5
316
330
1
100
AcDbSymbolTableRecord
100
AcDbBlockTableRecord
  2
_D_2
340
0
  0
BLOCK_RECORD
  5
321
330
1
100
AcDbSymbolTableRecord
100
AcDbBlockTableRecord
  2
_D_3
340
0
  0
BLOCK_RECORD
  5
32B
330
1
100
AcDbSymbolTableRecord
100
AcDbBlockTableRecord
  2
_D_4
340
0
  0
BLOCK_RECORD
  5
335
330
1
100
AcDbSymbolTableRecord
100
AcDbBlockTableRecord
  2
_D_5
340
0
  0
BLOCK_RECORD
  5
33F
330
1
100
AcDbSymbolTableRecord
100
AcDbBlockTableRecord
  2
_D_6
340
0
  0
BLOCK_RECORD
  5
349
330
1
100
AcDbSymbolTableRecord
100
AcDbBlockTableRecord
  2
_D_7
340
0
  0
BLOCK_RECORD
  5
353
330
1
100
AcDbSymbolTableRecord
100
AcDbBlockTableRecord
  2
_D_8
340
0
  0
BLOCK_RECORD
  5
35E
330
1
100
AcDbSymbolTableRecord
100
AcDbBlockTableRecord
  2
_D_9
340
0
  0
BLOCK_RECORD
  5
369
330
1
100
AcDbSymbolTableRecord
100
AcDbBlockTableRecord
  2
SW_NOTE_0
340
0
102
{BLKREFS
331
36E
102
}
  0
ENDTAB
  0
ENDSEC
  0
SECTION
  2
BLOCKS
  0
BLOCK
  5
20
330
1F
100
AcDbEntity
  8
0
100
AcDbBlockBegin
  2
*Model_Space
 70
     0
 10
0.0
 20
0.0
 30
0.0
  3
*Model_Space
  1

  0
ENDBLK
  5
21
330
1F
100
AcDbEntity
  8
0
100
AcDbBlockEnd
  0
BLOCK
  5
1C
330
1B
100
AcDbEntity
 67
     1
  8
0
100
AcDbBlockBegin
  2
*Paper_Space
 70
     0
 10
0.0
 20
0.0
 30
0.0
  3
*Paper_Space
  1

  0
ENDBLK
  5
1D
330
1B
100
AcDbEntity
 67
     1
  8
0
100
AcDbBlockEnd
  0
BLOCK
  5
24
330
23
100
AcDbEntity
  8
0
100
AcDbBlockBegin
  2
*Paper_Space0
 70
     0
 10
0.0
 20
0.0
 30
0.0
  3
*Paper_Space0
  1

  0
ENDBLK
  5
25
330
23
100
AcDbEntity
  8
0
100
AcDbBlockEnd
  0
BLOCK
  5
7F
330
7E
100
AcDbEntity
  8
0
100
AcDbBlockBegin
  2
Block11
 70
     0
 10
0.0
 20
0.0
 30
0.0
  3
Block11
  1

  0
CIRCLE
  5
81
330
7E
100
AcDbEntity
  8
81
370
    18
100
AcDbCircle
 10
91.6264826505
 20
130.2676275275
 30
0.0
 40
2.499999999999981
  0
LINE
  5
82
330
7E
100
AcDbEntity
  8
81
370
    18
100
AcDbLine
 10
91.6264826505
 20
130.2676275275
 30
0.0
 11
95.1620165565
 21
133.8031614334
 31
0.0
  0
LINE
  5
83
330
7E
100
AcDbEntity
  8
81
370
    18
100
AcDbLine
 10
91.6264826505
 20
130.2676275275
 30
0.0
 11
88.0909487446
 21
126.7320936216
 31
0.0
  0
LINE
  5
84
330
7E
100
AcDbEntity
  8
81
370
    18
100
AcDbLine
 10
91.6264826505
 20
130.2676275275
 30
0.0
 11
88.0909487446
 21
133.8031614334
 31
0.0
  0
LINE
  5
85
330
7E
100
AcDbEntity
  8
81
100
AcDbLine
 10
91.6264826505
 20
130.2676275275
 30
0.0
 11
101.6264826505
 21
130.2676275275
 31
0.0
  0
LINE
  5
86
330
7E
100
AcDbEntity
  8
81
370
    18
100
AcDbLine
 10
91.6264826505
 20
130.2676275275
 30
0.0
 11
95.1620165565
 21
126.7320936216
 31
0.0
  0
ENDBLK
  5
80
330
7E
100
AcDbEntity
  8
0
100
AcDbBlockEnd
  0
BLOCK
  5
88
330
87
100
AcDbEntity
  8
0
100
AcDbBlockBegin
  2
Block12
 70
     0
 10
0.0
 20
0.0
 30
0.0
  3
Block12
  1

  0
CIRCLE
  5
8A
330
87
100
AcDbEntity
  8
80
370
    18
100
AcDbCircle
 10
61.7273641656
 20
130.3356800267
 30
0.0
 40
2.500000000000004
  0
LINE
  5
8B
330
87
100
AcDbEntity
  8
80
370
    18
100
AcDbLine
 10
61.7273641656
 20
130.3356800267
 30
0.0
 11
65.2628980715
 21
133.8712139326
 31
0.0
  0
LINE
  5
8C
330
87
100
AcDbEntity
  8
80
370
    18
100
AcDbLine
 10
61.7273641656
 20
130.3356800267
 30
0.0
 11
58.1918302597
 21
126.8001461208
 31
0.0
  0
LINE
  5
8D
330
87
100
AcDbEntity
  8
80
370
    18
100
AcDbLine
 10
61.7273641656
 20
130.3356800267
 30
0.0
 11
58.1918302597
 21
133.8712139326
 31
0.0
  0
LINE
  5
8E
330
87
100
AcDbEntity
  8
80
370
    18
100
AcDbLine
 10
61.7273641656
 20
130.3356800267
 30
0.0
 11
51.7273641656
 21
130.3356800267
 31
0.0
  0
LINE
  5
8F
330
87
100
AcDbEntity
  8
80
370
    18
100
AcDbLine
 10
61.7273641656
 20
130.3356800267
 30
0.0
 11
65.2628980715
 21
126.8001461208
 31
0.0
  0
ENDBLK
  5
89
330
87
100
AcDbEntity
  8
0
100
AcDbBlockEnd
  0
BLOCK
  5
2FF
330
2FE
100
AcDbEntity
  8
0
100
AcDbBlockBegin
  2
_D
 70
     0
 10
0.0
 20
0.0
 30
0.0
  3
_D
  1

  0
SOLID
  5
301
330
2FE
100
AcDbEntity
  8
SK2
100
AcDbTrace
 10
-74.9662305591
 20
-7.0
 30
0.0
 11
-75.4742305591
 21
-10.302
 31
0.0
 12
-74.4582305591
 22
-10.302
 32
0.0
 13
-74.4582305591
 23
-10.302
 33
0.0
  0
SOLID
  5
302
330
2FE
100
AcDbEntity
  8
SK2
100
AcDbTrace
 10
-74.9662305591
 20
7.0
 30
0.0
 11
-74.4582305591
 21
10.302
 31
0.0
 12
-75.4742305591
 22
10.302
 32
0.0
 13
-75.4742305591
 23
10.302
 33
0.0
  0
LINE
  5
303
330
2FE
100
AcDbEntity
  8
SK2
100
AcDbLine
 10
-59.7107695155
 20
-7.0
 30
0.0
 11
-75.9662305591
 21
-7.0
 31
0.0
  0
LINE
  5
304
330
2FE
100
AcDbEntity
  8
SK2
100
AcDbLine
 10
-59.7107695155
 20
7.0
 30
0.0
 11
-75.9662305591
 21
7.0
 31
0.0
  0
LINE
  5
305
330
2FE
100
AcDbEntity
  8
SK2
100
AcDbLine
 10
-74.9662305591
 20
-7.0
 30
0.0
 11
-74.9662305591
 21
-13.35
 31
0.0
  0
LINE
  5
306
330
2FE
100
AcDbEntity
  8
SK2
100
AcDbLine
 10
-74.9662305591
 20
-7.0
 30
0.0
 11
-74.9662305591
 21
7.0
 31
0.0
  0
LINE
  5
307
330
2FE
100
AcDbEntity
  8
SK2
100
AcDbLine
 10
-74.9662305591
 20
7.0
 30
0.0
 11
-74.9662305591
 21
13.35
 31
0.0
  0
MTEXT
  5
308
330
2FE
100
AcDbEntity
  8
SK2
100
AcDbMText
 10
-79.4779674736
 20
-3.89510284
 30
0.0
 40
3.5
 41
0.0
 71
     1
 72
     1
  1
M16
  7
SLDTEXTSTYLE0
 11
6.123233995736766E-17
 21
1.0
 31
0.0
 73
     1
 44
1.0
  0
ENDBLK
  5
300
330
2FE
100
AcDbEntity
  8
0
100
AcDbBlockEnd
  0
BLOCK
  5
30C
330
30B
100
AcDbEntity
  8
0
100
AcDbBlockBegin
  2
_D_1
 70
     0
 10
0.0
 20
0.0
 30
0.0
  3
_D_1
  1

  0
SOLID
  5
30E
330
30B
100
AcDbEntity
  8
SK2
100
AcDbTrace
 10
-85.2857028566
 20
22.225
 30
0.0
 11
-85.7937028566
 21
18.923
 31
0.0
 12
-84.7777028566
 22
18.923
 32
0.0
 13
-84.7777028566
 23
18.923
 33
0.0
  0
SOLID
  5
30F
330
30B
100
AcDbEntity
  8
SK2
100
AcDbTrace
 10
-85.2857028566
 20
-22.225
 30
0.0
 11
-84.7777028566
 21
-18.923
 31
0.0
 12
-85.7937028566
 22
-18.923
 32
0.0
 13
-85.7937028566
 23
-18.923
 33
0.0
  0
LINE
  5
310
330
30B
100
AcDbEntity
  8
SK2
100
AcDbLine
 10
-1.0
 20
22.225
 30
0.0
 11
-86.2857028566
 21
22.225
 31
0.0
  0
LINE
  5
311
330
30B
100
AcDbEntity
  8
SK2
100
AcDbLine
 10
-1.0
 20
-22.225
 30
0.0
 11
-86.2857028566
 21
-22.225
 31
0.0
  0
LINE
  5
312
330
30B
100
AcDbEntity
  8
SK2
100
AcDbLine
 10
-85.2857028566
 20
22.225
 30
0.0
 11
-85.2857028566
 21
-22.225
 31
0.0
  0
MTEXT
  5
313
330
30B
100
AcDbEntity
  8
SK2
100
AcDbMText
 10
-89.7974399458
 20
-9.0005911622
 30
0.0
 40
3.5
 41
0.0
 71
     1
 72
     1
  1
%%c
  7
SLDTEXTSTYLE0
 11
-7.044195017643634E-15
 21
1.0
 31
0.0
 73
     1
 44
1.0
  0
MTEXT
  5
314
330
30B
100
AcDbEntity
  8
SK2
100
AcDbMText
 10
-89.8509121224
 20
-3.7221537638
 30
0.0
 40
3.5
 41
0.0
 71
     1
 72
     1
  1
44,45
  7
SLDTEXTSTYLE0
 11
-7.044195017643634E-15
 21
1.0
 31
0.0
 73
     1
 44
1.0
  0
ENDBLK
  5
30D
330
30B
100
AcDbEntity
  8
0
100
AcDbBlockEnd
  0
BLOCK
  5
317
330
316
100
AcDbEntity
  8
0
100
AcDbBlockBegin
  2
_D_2
 70
     0
 10
0.0
 20
0.0
 30
0.0
  3
_D_2
  1

  0
SOLID
  5
319
330
316
100
AcDbEntity
  8
SK2
100
AcDbTrace
 10
-96.5446516675
 20
-30.5335877643
 30
0.0
 11
-96.0366516675
 21
-27.2315877643
 31
0.0
 12
-97.0526516675
 22
-27.2315877643
 32
0.0
 13
-97.0526516675
 23
-27.2315877643
 33
0.0
  0
SOLID
  5
31A
330
316
100
AcDbEntity
  8
SK2
100
AcDbTrace
 10
-96.5446516675
 20
30.5335877643
 30
0.0
 11
-97.0526516675
 21
27.2315877643
 31
0.0
 12
-96.0366516675
 22
27.2315877643
 32
0.0
 13
-96.0366516675
 23
27.2315877643
 33
0.0
  0
LINE
  5
31B
330
316
100
AcDbEntity
  8
SK2
100
AcDbLine
 10
4.771581679
 20
-30.5335877643
 30
0.0
 11
-97.5446516675
 21
-30.5335877643
 31
0.0
  0
LINE
  5
31C
330
316
100
AcDbEntity
  8
SK2
100
AcDbLine
 10
2.95
 20
30.5335877643
 30
0.0
 11
-97.5446516675
 21
30.5335877643
 31
0.0
  0
LINE
  5
31D
330
316
100
AcDbEntity
  8
SK2
100
AcDbLine
 10
-96.5446516675
 20
-30.5335877643
 30
0.0
 11
-96.5446516675
 21
30.5335877643
 31
0.0
  0
MTEXT
  5
31E
330
316
100
AcDbEntity
  8
SK2
100
AcDbMText
 10
-101.0563887567
 20
-7.7075359147
 30
0.0
 40
3.5
 41
0.0
 71
     1
 72
     1
  1
%%c
  7
SLDTEXTSTYLE0
 11
6.123233995736766E-17
 21
1.0
 31
0.0
 73
     1
 44
1.0
  0
MTEXT
  5
31F
330
316
100
AcDbEntity
  8
SK2
100
AcDbMText
 10
-101.1098609334
 20
-2.4290985163
 30
0.0
 40
3.5
 41
0.0
 71
     1
 72
     1
  1
63,5
  7
SLDTEXTSTYLE0
 11
6.123233995736766E-17
 21
1.0
 31
0.0
 73
     1
 44
1.0
  0
ENDBLK
  5
318
330
316
100
AcDbEntity
  8
0
100
AcDbBlockEnd
  0
BLOCK
  5
322
330
321
100
AcDbEntity
  8
0
100
AcDbBlockBegin
  2
_D_3
 70
     0
 10
0.0
 20
0.0
 30
0.0
  3
_D_3
  1

  0
SOLID
  5
324
330
321
100
AcDbEntity
  8
SK2
100
AcDbTrace
 10
0.0
 20
38.1743355046
 30
0.0
 11
3.302
 21
37.6663355046
 31
0.0
 12
3.302
 22
38.6823355046
 32
0.0
 13
3.302
 23
38.6823355046
 33
0.0
  0
SOLID
  5
325
330
321
100
AcDbEntity
  8
SK2
100
AcDbTrace
 10
19.05
 20
38.1743355046
 30
0.0
 11
15.748
 21
38.6823355046
 31
0.0
 12
15.748
 22
37.6663355046
 32
0.0
 13
15.748
 23
37.6663355046
 33
0.0
  0
LINE
  5
326
330
321
100
AcDbEntity
  8
SK2
100
AcDbLine
 10
0.0
 20
23.225
 30
0.0
 11
0.0
 21
39.1743355046
 31
0.0
  0
LINE
  5
327
330
321
100
AcDbEntity
  8
SK2
100
AcDbLine
 10
19.05
 20
25.9855458215
 30
0.0
 11
19.05
 21
39.1743355046
 31
0.0
  0
LINE
  5
328
330
321
100
AcDbEntity
  8
SK2
100
AcDbLine
 10
0.0
 20
38.1743355046
 30
0.0
 11
19.05
 21
38.1743355046
 31
0.0
  0
MTEXT
  5
329
330
321
100
AcDbEntity
  8
SK2
100
AcDbMText
 10
3.5137419526
 20
42.6860724192
 30
0.0
 40
3.5
 41
0.0
 71
     1
 72
     1
  1
19,05
  7
SLDTEXTSTYLE0
 73
     1
 44
1.0
  0
ENDBLK
  5
323
330
321
100
AcDbEntity
  8
0
100
AcDbBlockEnd
  0
BLOCK
  5
32C
330
32B
100
AcDbEntity
  8
0
100
AcDbBlockBegin
  2
_D_4
 70
     0
 10
0.0
 20
0.0
 30
0.0
  3
_D_4
  1

  0
SOLID
  5
32E
330
32B
100
AcDbEntity
  8
SK2
100
AcDbTrace
 10
19.05
 20
38.1743355046
 30
0.0
 11
22.352
 21
37.6663355046
 31
0.0
 12
22.352
 22
38.6823355046
 32
0.0
 13
22.352
 23
38.6823355046
 33
0.0
  0
SOLID
  5
32F
330
32B
100
AcDbEntity
  8
SK2
100
AcDbTrace
 10
160.0
 20
38.1743355046
 30
0.0
 11
156.698
 21
38.6823355046
 31
0.0
 12
156.698
 22
37.6663355046
 32
0.0
 13
156.698
 23
37.6663355046
 33
0.0
  0
LINE
  5
330
330
32B
100
AcDbEntity
  8
SK2
100
AcDbLine
 10
19.05
 20
25.9855458215
 30
0.0
 11
19.05
 21
39.1743355046
 31
0.0
  0
LINE
  5
331
330
32B
100
AcDbEntity
  8
SK2
100
AcDbLine
 10
160.0
 20
18.440325432
 30
0.0
 11
160.0
 21
39.1743355046
 31
0.0
  0
LINE
  5
332
330
32B
100
AcDbEntity
  8
SK2
100
AcDbLine
 10
19.05
 20
38.1743355046
 30
0.0
 11
160.0
 21
38.1743355046
 31
0.0
  0
MTEXT
  5
333
330
32B
100
AcDbEntity
  8
SK2
100
AcDbMText
 10
82.3697213153
 20
42.6860724192
 30
0.0
 40
3.5
 41
0.0
 71
     1
 72
     1
  1
140,95
  7
SLDTEXTSTYLE0
 73
     1
 44
1.0
  0
ENDBLK
  5
32D
330
32B
100
AcDbEntity
  8
0
100
AcDbBlockEnd
  0
BLOCK
  5
336
330
335
100
AcDbEntity
  8
0
100
AcDbBlockBegin
  2
_D_5
 70
     0
 10
0.0
 20
0.0
 30
0.0
  3
_D_5
  1

  0
SOLID
  5
338
330
335
100
AcDbEntity
  8
SK2
100
AcDbTrace
 10
160.0
 20
38.1743355046
 30
0.0
 11
163.302
 21
37.6663355046
 31
0.0
 12
163.302
 22
38.6823355046
 32
0.0
 13
163.302
 23
38.6823355046
 33
0.0
  0
SOLID
  5
339
330
335
100
AcDbEntity
  8
SK2
100
AcDbTrace
 10
177.0
 20
38.1743355046
 30
0.0
 11
173.698
 21
38.6823355046
 31
0.0
 12
173.698
 22
37.6663355046
 32
0.0
 13
173.698
 23
37.6663355046
 33
0.0
  0
LINE
  5
33A
330
335
100
AcDbEntity
  8
SK2
100
AcDbLine
 10
160.0
 20
18.440325432
 30
0.0
 11
160.0
 21
39.1743355046
 31
0.0
  0
LINE
  5
33B
330
335
100
AcDbEntity
  8
SK2
100
AcDbLine
 10
177.0
 20
8.6473460386
 30
0.0
 11
177.0
 21
39.1743355046
 31
0.0
  0
LINE
  5
33C
330
335
100
AcDbEntity
  8
SK2
100
AcDbLine
 10
160.0
 20
38.1743355046
 30
0.0
 11
177.0
 21
38.1743355046
 31
0.0
  0
MTEXT
  5
33D
330
335
100
AcDbEntity
  8
SK2
100
AcDbMText
 10
166.34701583
 20
42.6860724192
 30
0.0
 40
3.5
 41
0.0
 71
     1
 72
     1
  1
17
  7
SLDTEXTSTYLE0
 73
     1
 44
1.0
  0
ENDBLK
  5
337
330
335
100
AcDbEntity
  8
0
100
AcDbBlockEnd
  0
BLOCK
  5
340
330
33F
100
AcDbEntity
  8
0
100
AcDbBlockBegin
  2
_D_6
 70
     0
 10
0.0
 20
0.0
 30
0.0
  3
_D_6
  1

  0
SOLID
  5
342
330
33F
100
AcDbEntity
  8
2
100
AcDbTrace
 10
0.0
 20
47.9676246172
 30
0.0
 11
3.302
 21
47.4596246172
 31
0.0
 12
3.302
 22
48.4756246172
 32
0.0
 13
3.302
 23
48.4756246172
 33
0.0
  0
SOLID
  5
343
330
33F
100
AcDbEntity
  8
2
100
AcDbTrace
 10
160.0
 20
47.9676246172
 30
0.0
 11
156.698
 21
48.4756246172
 31
0.0
 12
156.698
 22
47.4596246172
 32
0.0
 13
156.698
 23
47.4596246172
 33
0.0
  0
LINE
  5
344
330
33F
100
AcDbEntity
  8
2
100
AcDbLine
 10
0.0
 20
23.225
 30
0.0
 11
0.0
 21
48.9676246172
 31
0.0
  0
LINE
  5
345
330
33F
100
AcDbEntity
  8
2
100
AcDbLine
 10
160.0
 20
18.440325432
 30
0.0
 11
160.0
 21
48.9676246172
 31
0.0
  0
LINE
  5
346
330
33F
100
AcDbEntity
  8
2
100
AcDbLine
 10
0.0
 20
47.9676246172
 30
0.0
 11
160.0
 21
47.9676246172
 31
0.0
  0
MTEXT
  5
347
330
33F
100
AcDbEntity
  8
2
100
AcDbMText
 10
75.1174768858
 20
52.4793615318
 30
0.0
 40
3.5
 41
0.0
 71
     1
 72
     1
  1
160
  7
SLDTEXTSTYLE0
 73
     1
 44
1.0
  0
ENDBLK
  5
341
330
33F
100
AcDbEntity
  8
0
100
AcDbBlockEnd
  0
BLOCK
  5
34A
330
349
100
AcDbEntity
  8
0
100
AcDbBlockBegin
  2
_D_7
 70
     0
 10
0.0
 20
0.0
 30
0.0
  3
_D_7
  1

  0
SOLID
  5
34C
330
349
100
AcDbEntity
  8
SK2
100
AcDbTrace
 10
-68.25
 20
-40.123240123
 30
0.0
 11
-64.948
 21
-40.631240123
 31
0.0
 12
-64.948
 22
-39.615240123
 32
0.0
 13
-64.948
 23
-39.615240123
 33
0.0
  0
SOLID
  5
34D
330
349
100
AcDbEntity
  8
SK2
100
AcDbTrace
 10
177.0
 20
-40.123240123
 30
0.0
 11
173.698
 21
-39.615240123
 31
0.0
 12
173.698
 22
-40.631240123
 32
0.0
 13
173.698
 23
-40.631240123
 33
0.0
  0
LINE
  5
34E
330
349
100
AcDbEntity
  8
SK2
100
AcDbLine
 10
-68.25
 20
-12.4070377962
 30
0.0
 11
-68.25
 21
-41.123240123
 31
0.0
  0
LINE
  5
34F
330
349
100
AcDbEntity
  8
SK2
100
AcDbLine
 10
177.0
 20
-8.6473460386
 30
0.0
 11
177.0
 21
-41.123240123
 31
0.0
  0
LINE
  5
350
330
349
100
AcDbEntity
  8
SK2
100
AcDbLine
 10
-68.25
 20
-40.123240123
 30
0.0
 11
177.0
 21
-40.123240123
 31
0.0
  0
MTEXT
  5
351
330
349
100
AcDbEntity
  8
SK2
100
AcDbMText
 10
44.2537335306
 20
-35.6115032084
 30
0.0
 40
3.5
 41
0.0
 71
     1
 72
     1
  1
245,25
  7
SLDTEXTSTYLE0
 73
     1
 44
1.0
  0
ENDBLK
  5
34B
330
349
100
AcDbEntity
  8
0
100
AcDbBlockEnd
  0
BLOCK
  5
354
330
353
100
AcDbEntity
  8
0
100
AcDbBlockBegin
  2
_D_8
 70
     0
 10
0.0
 20
0.0
 30
0.0
  3
_D_8
  1

  0
SOLID
  5
356
330
353
100
AcDbEntity
  8
SK2
100
AcDbTrace
 10
197.5231297075
 20
8.0
 30
0.0
 11
197.0151297075
 21
4.698
 31
0.0
 12
198.0311297075
 22
4.698
 32
0.0
 13
198.0311297075
 23
4.698
 33
0.0
  0
SOLID
  5
357
330
353
100
AcDbEntity
  8
SK2
100
AcDbTrace
 10
197.5231297075
 20
-8.0
 30
0.0
 11
198.0311297075
 21
-4.698
 31
0.0
 12
197.0151297075
 22
-4.698
 32
0.0
 13
197.0151297075
 23
-4.698
 33
0.0
  0
LINE
  5
358
330
353
100
AcDbEntity
  8
SK2
100
AcDbLine
 10
176.0
 20
8.0
 30
0.0
 11
198.5231297075
 21
8.0
 31
0.0
  0
LINE
  5
359
330
353
100
AcDbEntity
  8
SK2
100
AcDbLine
 10
176.0
 20
-8.0
 30
0.0
 11
198.5231297075
 21
-8.0
 31
0.0
  0
LINE
  5
35A
330
353
100
AcDbEntity
  8
SK2
100
AcDbLine
 10
197.5231297075
 20
8.0
 30
0.0
 11
197.5231297075
 21
-8.0
 31
0.0
  0
MTEXT
  5
35B
330
353
100
AcDbEntity
  8
SK2
100
AcDbMText
 10
193.0113926183
 20
-6.0863759705
 30
0.0
 40
3.5
 41
0.0
 71
     1
 72
     1
  1
%%c
  7
SLDTEXTSTYLE0
 11
-7.044195017643634E-15
 21
1.0
 31
0.0
 73
     1
 44
1.0
  0
MTEXT
  5
35C
330
353
100
AcDbEntity
  8
SK2
100
AcDbMText
 10
192.9579204417
 20
-0.8079385721
 30
0.0
 40
3.5
 41
0.0
 71
     1
 72
     1
  1
16
  7
SLDTEXTSTYLE0
 11
-7.044195017643634E-15
 21
1.0
 31
0.0
 73
     1
 44
1.0
  0
ENDBLK
  5
355
330
353
100
AcDbEntity
  8
0
100
AcDbBlockEnd
  0
BLOCK
  5
35F
330
35E
100
AcDbEntity
  8
0
100
AcDbBlockBegin
  2
_D_9
 70
     0
 10
0.0
 20
0.0
 30
0.0
  3
_D_9
  1

  0
SOLID
  5
361
330
35E
100
AcDbEntity
  8
SK2
100
AcDbTrace
 10
207.7973566848
 20
-18.0
 30
0.0
 11
208.3053566848
 21
-14.698
 31
0.0
 12
207.2893566848
 22
-14.698
 32
0.0
 13
207.2893566848
 23
-14.698
 33
0.0
  0
SOLID
  5
362
330
35E
100
AcDbEntity
  8
SK2
100
AcDbTrace
 10
207.7973566848
 20
18.0
 30
0.0
 11
207.2893566848
 21
14.698
 31
0.0
 12
208.3053566848
 22
14.698
 32
0.0
 13
208.3053566848
 23
14.698
 33
0.0
  0
LINE
  5
363
330
35E
100
AcDbEntity
  8
SK2
100
AcDbLine
 10
160.5
 20
-18.0
 30
0.0
 11
208.7973566848
 21
-18.0
 31
0.0
  0
LINE
  5
364
330
35E
100
AcDbEntity
  8
SK2
100
AcDbLine
 10
160.5
 20
18.0
 30
0.0
 11
208.7973566848
 21
18.0
 31
0.0
  0
LINE
  5
365
330
35E
100
AcDbEntity
  8
SK2
100
AcDbLine
 10
207.7973566848
 20
-18.0
 30
0.0
 11
207.7973566848
 21
18.0
 31
0.0
  0
MTEXT
  5
366
330
35E
100
AcDbEntity
  8
SK2
100
AcDbMText
 10
203.2856195956
 20
-6.0863759705
 30
0.0
 40
3.5
 41
0.0
 71
     1
 72
     1
  1
%%c
  7
SLDTEXTSTYLE0
 11
6.123233995736766E-17
 21
1.0
 31
0.0
 73
     1
 44
1.0
  0
MTEXT
  5
367
330
35E
100
AcDbEntity
  8
SK2
100
AcDbMText
 10
203.2321474189
 20
-0.8079385721
 30
0.0
 40
3.5
 41
0.0
 71
     1
 72
     1
  1
36
  7
SLDTEXTSTYLE0
 11
6.123233995736766E-17
 21
1.0
 31
0.0
 73
     1
 44
1.0
  0
ENDBLK
  5
360
330
35E
100
AcDbEntity
  8
0
100
AcDbBlockEnd
  0
BLOCK
  5
36A
330
369
100
AcDbEntity
  8
0
100
AcDbBlockBegin
  2
SW_NOTE_0
 70
     0
 10
0.0
 20
0.0
 30
0.0
  3
SW_NOTE_0
  1

  0
MTEXT
  5
36C
330
369
100
AcDbEntity
  8
SK6
 62
     0
100
AcDbMText
 10
0.0
 20
4.5117370892
 30
0.0
 40
3.5
 41
0.0
 71
     1
 72
     1
  1
TAPER ISO 40
  7
SLDTEXTSTYLE0
 73
     1
 44
1.0
  0
MTEXT
  5
36D
330
369
100
AcDbEntity
  8
SK6
 62
     0
100
AcDbMText
 10
0.0
 20
-0.0139574413
 30
0.0
 40
3.5
 41
0.0
 71
     1
 72
     1
  1
DIN 69871-AD/B
  7
SLDTEXTSTYLE0
 73
     1
 44
1.0
  0
ENDBLK
  5
36B
330
369
100
AcDbEntity
  8
0
100
AcDbBlockEnd
  0
ENDSEC
  0
SECTION
  2
ENTITIES
  0
LINE
  5
90
330
1F
100
AcDbEntity
  8
SK1
  6
Continuous
370
    25
100
AcDbLine
 10
178.8427496026
 20
-10.0
 30
0.0
 11
182.5427496026
 21
-10.0
 31
0.0
  0
LINE
  5
91
330
1F
100
AcDbEntity
  8
SK1
  6
Continuous
370
    25
100
AcDbLine
 10
182.5427496026
 20
10.0
 30
0.0
 11
178.8427496026
 21
10.0
 31
0.0
  0
LINE
  5
92
330
1F
100
AcDbEntity
  8
SK1
  6
Continuous
370
    25
100
AcDbLine
 10
182.5427496026
 20
-10.0
 30
0.0
 11
183.5427496026
 21
-9.0
 31
0.0
  0
LINE
  5
93
330
1F
100
AcDbEntity
  8
SK1
  6
Continuous
370
    25
100
AcDbLine
 10
183.5427496026
 20
9.0
 30
0.0
 11
182.5427496026
 21
10.0
 31
0.0
  0
LINE
  5
94
330
1F
100
AcDbEntity
  8
SK1
  6
Continuous
370
    25
100
AcDbLine
 10
178.8427496026
 20
10.0
 30
0.0
 11
178.5427496026
 21
9.7
 31
0.0
  0
LINE
  5
95
330
1F
100
AcDbEntity
  8
SK1
  6
Continuous
370
    25
100
AcDbLine
 10
178.5427496026
 20
-9.7
 30
0.0
 11
178.8427496026
 21
-10.0
 31
0.0
  0
LINE
  5
96
330
1F
100
AcDbEntity
  8
SK1
  6
Continuous
370
    25
100
AcDbLine
 10
183.8427496026
 20
-6.5
 30
0.0
 11
187.5427496026
 21
-6.5
 31
0.0
  0
LINE
  5
97
330
1F
100
AcDbEntity
  8
SK1
  6
Continuous
370
    25
100
AcDbLine
 10
187.5427496026
 20
6.5
 30
0.0
 11
183.8427496026
 21
6.5
 31
0.0
  0
LINE
  5
98
330
1F
100
AcDbEntity
  8
SK1
  6
Continuous
370
    25
100
AcDbLine
 10
187.5427496026
 20
-6.5
 30
0.0
 11
188.5427496026
 21
-5.5
 31
0.0
  0
LINE
  5
99
330
1F
100
AcDbEntity
  8
SK1
  6
Continuous
370
    25
100
AcDbLine
 10
188.5427496026
 20
5.5
 30
0.0
 11
187.5427496026
 21
6.5
 31
0.0
  0
LINE
  5
9A
330
1F
100
AcDbEntity
  8
SK1
  6
Continuous
370
    25
100
AcDbLine
 10
177.0
 20
-3.455
 30
0.0
 11
178.5427496026
 21
-3.455
 31
0.0
  0
LINE
  5
9B
330
1F
100
AcDbEntity
  8
SK1
  6
Continuous
370
    25
100
AcDbLine
 10
178.5427496026
 20
3.455
 30
0.0
 11
177.0
 21
3.455
 31
0.0
  0
LINE
  5
9C
330
1F
100
AcDbEntity
  8
SK1
  6
Continuous
370
    25
100
AcDbLine
 10
0.0
 20
22.225
 30
0.0
 11
-67.3943082273
 21
12.3965705827
 31
0.0
  0
LINE
  5
9D
330
1F
100
AcDbEntity
  8
SK1
  6
Continuous
370
    25
100
AcDbLine
 10
-67.3943082273
 20
-12.3965705827
 30
0.0
 11
0.0
 21
-22.225
 31
0.0
  0
LINE
  5
9E
330
1F
100
AcDbEntity
  8
1
  6
Continuous
370
    25
100
AcDbLine
 10
1.8869952227
 20
-22.225
 30
0.0
 11
2.1330363037
 21
-22.1102691597
 31
0.0
  0
LINE
  5
9F
330
1F
100
AcDbEntity
  8
1
  6
Continuous
370
    25
100
AcDbLine
 10
2.1330363037
 20
22.1102691597
 30
0.0
 11
1.8869952227
 21
22.225
 31
0.0
  0
LINE
  5
A0
330
1F
100
AcDbEntity
  8
1
  6
Continuous
370
    25
100
AcDbLine
 10
1.8869952227
 20
22.225
 30
0.0
 11
0.0
 21
22.225
 31
0.0
  0
LINE
  5
A1
330
1F
100
AcDbEntity
  8
1
  6
Continuous
370
    25
100
AcDbLine
 10
0.0
 20
-22.225
 30
0.0
 11
1.8869952227
 21
-22.225
 31
0.0
  0
LINE
  5
A2
330
1F
100
AcDbEntity
  8
1
  6
Continuous
370
    25
100
AcDbLine
 10
159.5
 20
18.0
 30
0.0
 11
21.05
 21
18.0
 31
0.0
  0
LINE
  5
A3
330
1F
100
AcDbEntity
  8
1
  6
Continuous
370
    25
100
AcDbLine
 10
145.6961802883
 20
-18.0
 30
0.0
 11
159.5
 21
-18.0
 31
0.0
  0
LINE
  5
A4
330
1F
100
AcDbEntity
  8
1
  6
Continuous
370
    25
100
AcDbLine
 10
21.05
 20
-18.0
 30
0.0
 11
138.314526451
 21
-18.0
 31
0.0
  0
LINE
  5
A5
330
1F
100
AcDbEntity
  8
SK1
  6
Continuous
370
    25
100
AcDbLine
 10
175.0
 20
8.0
 30
0.0
 11
161.0696034115
 21
8.0
 31
0.0
  0
LINE
  5
A6
330
1F
100
AcDbEntity
  8
SK1
  6
Continuous
370
    25
100
AcDbLine
 10
161.0696034115
 20
-8.0
 30
0.0
 11
175.0
 21
-8.0
 31
0.0
  0
LINE
  5
A7
330
1F
100
AcDbEntity
  8
SK1
  6
Continuous
370
    25
100
AcDbLine
 10
161.0696034115
 20
8.0
 30
0.0
 11
160.8382940244
 21
7.9270684304
 31
0.0
  0
LINE
  5
A8
330
1F
100
AcDbEntity
  8
SK1
  6
Continuous
370
    25
100
AcDbLine
 10
160.8382940244
 20
-7.9270684304
 30
0.0
 11
161.0696034115
 21
-8.0
 31
0.0
  0
LINE
  5
A9
330
1F
100
AcDbEntity
  8
SK1
  6
Continuous
370
    25
100
AcDbLine
 10
175.0
 20
-8.0
 30
0.0
 11
177.0
 21
-7.6473460386
 31
0.0
  0
LINE
  5
AA
330
1F
100
AcDbEntity
  8
SK1
  6
Continuous
370
    25
100
AcDbLine
 10
177.0
 20
7.6473460386
 30
0.0
 11
175.0
 21
8.0
 31
0.0
  0
LINE
  5
AB
330
1F
100
AcDbEntity
  8
SK1
  6
Continuous
370
    25
100
AcDbLine
 10
182.5427496026
 20
-10.0
 30
0.0
 11
182.5427496026
 21
10.0
 31
0.0
  0
LINE
  5
AC
330
1F
100
AcDbEntity
  8
SK1
  6
Continuous
370
    25
100
AcDbLine
 10
178.8427496026
 20
10.0
 30
0.0
 11
178.8427496026
 21
-10.0
 31
0.0
  0
LINE
  5
AD
330
1F
100
AcDbEntity
  8
SK1
  6
Continuous
370
    25
100
AcDbLine
 10
183.5427496026
 20
-9.0
 30
0.0
 11
183.5427496026
 21
9.0
 31
0.0
  0
LINE
  5
AE
330
1F
100
AcDbEntity
  8
SK1
  6
Continuous
370
    25
100
AcDbLine
 10
178.5427496026
 20
9.6183197295
 30
0.0
 11
178.5427496026
 21
9.7
 31
0.0
  0
LINE
  5
AF
330
1F
100
AcDbEntity
  8
SK1
  6
Continuous
370
    25
100
AcDbLine
 10
178.5427496026
 20
-9.7
 30
0.0
 11
178.5427496026
 21
9.6183197295
 31
0.0
  0
LINE
  5
B0
330
1F
100
AcDbEntity
  8
SK1
  6
Continuous
370
    25
100
AcDbLine
 10
187.5427496026
 20
4.1114369388
 30
0.0
 11
187.5427496026
 21
6.5
 31
0.0
  0
LINE
  5
B1
330
1F
100
AcDbEntity
  8
SK1
  6
Continuous
370
    25
100
AcDbLine
 10
187.5427496026
 20
-6.5
 30
0.0
 11
187.5427496026
 21
4.1114369388
 31
0.0
  0
LINE
  5
B2
330
1F
100
AcDbEntity
  8
SK1
  6
Continuous
370
    25
100
AcDbLine
 10
188.5427496026
 20
3.478908179
 30
0.0
 11
188.5427496026
 21
-5.5
 31
0.0
  0
LINE
  5
B3
330
1F
100
AcDbEntity
  8
SK1
  6
Continuous
370
    25
100
AcDbLine
 10
188.5427496026
 20
5.5
 30
0.0
 11
188.5427496026
 21
3.478908179
 31
0.0
  0
LINE
  5
B4
330
1F
100
AcDbEntity
  8
SK3
  6
Continuous
100
AcDbLine
 10
-58.9001571909
 20
7.3280290761
 30
0.0
 11
-37.8593421241
 21
7.3280290761
 31
0.0
  0
LINE
  5
B5
330
1F
100
AcDbEntity
  8
SK3
  6
Continuous
100
AcDbLine
 10
-37.8593421241
 20
7.3280290761
 30
0.0
 11
-37.8593421241
 21
-7.2885263487
 31
0.0
  0
LINE
  5
B6
330
1F
100
AcDbEntity
  8
SK3
  6
Continuous
100
AcDbLine
 10
-37.8593421241
 20
-7.2885263487
 30
0.0
 11
-58.8773502806
 21
-7.2885263487
 31
0.0
  0
LINE
  5
B7
330
1F
100
AcDbEntity
  8
SK1
  6
Continuous
370
    25
100
AcDbLine
 10
160.0296155741
 20
13.5017920386
 30
0.0
 11
160.0
 21
13.5017920386
 31
0.0
  0
LINE
  5
B8
330
1F
100
AcDbEntity
  8
SK1
  6
Continuous
370
    25
100
AcDbLine
 10
160.0
 20
12.4982079614
 30
0.0
 11
160.0296155741
 21
12.4982079614
 31
0.0
  0
LINE
  5
B9
330
1F
100
AcDbEntity
  8
SK1
  6
Continuous
370
    25
100
AcDbLine
 10
164.2783121635
 20
16.4225924385
 30
0.0
 11
160.0
 21
16.4225924385
 31
0.0
  0
LINE
  5
BA
330
1F
100
AcDbEntity
  8
SK1
  6
Continuous
370
    25
100
AcDbLine
 10
165.0
 20
12.6105914742
 30
0.0
 11
165.0
 21
13.3894085258
 31
0.0
  0
LINE
  5
BB
330
1F
100
AcDbEntity
  8
SK1
  6
Continuous
370
    25
100
AcDbLine
 10
160.0
 20
9.5774075615
 30
0.0
 11
164.2783121635
 21
9.5774075615
 31
0.0
  0
LINE
  5
BC
330
1F
100
AcDbEntity
  8
SK1
  6
Continuous
370
    25
100
AcDbLine
 10
165.0
 20
12.6105914742
 30
0.0
 11
165.0
 21
9.019
 31
0.0
  0
LINE
  5
BD
330
1F
100
AcDbEntity
  8
SK1
  6
Continuous
370
    25
100
AcDbLine
 10
164.2783121635
 20
9.5774075615
 30
0.0
 11
164.2783121635
 21
9.019
 31
0.0
  0
LINE
  5
BE
330
1F
100
AcDbEntity
  8
SK1
  6
Continuous
370
    25
100
AcDbLine
 10
164.2783121635
 20
9.019
 30
0.0
 11
160.0
 21
9.019
 31
0.0
  0
LINE
  5
BF
330
1F
100
AcDbEntity
  8
SK1
  6
Continuous
370
    25
100
AcDbLine
 10
165.0
 20
16.981
 30
0.0
 11
165.0
 21
13.3894085258
 31
0.0
  0
LINE
  5
C0
330
1F
100
AcDbEntity
  8
SK1
  6
Continuous
370
    25
100
AcDbLine
 10
164.2783121635
 20
16.981
 30
0.0
 11
164.2783121635
 21
16.4225924385
 31
0.0
  0
LINE
  5
C1
330
1F
100
AcDbEntity
  8
SK1
  6
Continuous
370
    25
100
AcDbLine
 10
160.0
 20
16.981
 30
0.0
 11
164.2783121635
 21
16.981
 31
0.0
  0
LINE
  5
C2
330
1F
100
AcDbEntity
  8
SK1
  6
Continuous
370
    25
100
AcDbLine
 10
160.0296155741
 20
-12.4982079614
 30
0.0
 11
160.0
 21
-12.4982079614
 31
0.0
  0
LINE
  5
C3
330
1F
100
AcDbEntity
  8
SK1
  6
Continuous
370
    25
100
AcDbLine
 10
160.0
 20
-13.5017920386
 30
0.0
 11
160.0296155741
 21
-13.5017920386
 31
0.0
  0
LINE
  5
C4
330
1F
100
AcDbEntity
  8
SK1
  6
Continuous
370
    25
100
AcDbLine
 10
165.0
 20
-13.3894085258
 30
0.0
 11
165.0
 21
-16.981
 31
0.0
  0
LINE
  5
C5
330
1F
100
AcDbEntity
  8
SK1
  6
Continuous
370
    25
100
AcDbLine
 10
164.2783121635
 20
-16.4225924385
 30
0.0
 11
164.2783121635
 21
-16.981
 31
0.0
  0
LINE
  5
C6
330
1F
100
AcDbEntity
  8
SK1
  6
Continuous
370
    25
100
AcDbLine
 10
164.2783121635
 20
-9.5774075615
 30
0.0
 11
160.0
 21
-9.5774075615
 31
0.0
  0
LINE
  5
C7
330
1F
100
AcDbEntity
  8
SK1
  6
Continuous
370
    25
100
AcDbLine
 10
165.0
 20
-13.3894085258
 30
0.0
 11
165.0
 21
-12.6105914742
 31
0.0
  0
LINE
  5
C8
330
1F
100
AcDbEntity
  8
SK1
  6
Continuous
370
    25
100
AcDbLine
 10
160.0
 20
-16.4225924385
 30
0.0
 11
164.2783121635
 21
-16.4225924385
 31
0.0
  0
LINE
  5
C9
330
1F
100
AcDbEntity
  8
SK1
  6
Continuous
370
    25
100
AcDbLine
 10
164.2783121635
 20
-16.981
 30
0.0
 11
160.0
 21
-16.981
 31
0.0
  0
LINE
  5
CA
330
1F
100
AcDbEntity
  8
SK1
  6
Continuous
370
    25
100
AcDbLine
 10
165.0
 20
-9.019
 30
0.0
 11
165.0
 21
-12.6105914742
 31
0.0
  0
LINE
  5
CB
330
1F
100
AcDbEntity
  8
SK1
  6
Continuous
370
    25
100
AcDbLine
 10
164.2783121635
 20
-9.019
 30
0.0
 11
164.2783121635
 21
-9.5774075615
 31
0.0
  0
LINE
  5
CC
330
1F
100
AcDbEntity
  8
SK1
  6
Continuous
370
    25
100
AcDbLine
 10
160.0
 20
-9.019
 30
0.0
 11
164.2783121635
 21
-9.019
 31
0.0
  0
LINE
  5
CD
330
1F
100
AcDbEntity
  8
1
  6
Continuous
370
    25
100
AcDbLine
 10
7.5931633579
 20
18.35
 30
0.0
 11
7.5931633579
 21
-30.5335877643
 31
0.0
  0
LINE
  5
CE
330
1F
100
AcDbEntity
  8
1
  6
Continuous
370
    25
100
AcDbLine
 10
7.5931633579
 20
-30.5335877643
 30
0.0
 11
3.95
 21
-30.5335877643
 31
0.0
  0
LINE
  5
CF
330
1F
100
AcDbEntity
  8
1
  6
Continuous
370
    25
100
AcDbLine
 10
3.95
 20
18.35
 30
0.0
 11
3.95
 21
-30.5335877643
 31
0.0
  0
LINE
  5
D0
330
1F
100
AcDbEntity
  8
1
  6
Continuous
370
    25
100
AcDbLine
 10
3.95
 20
18.35
 30
0.0
 11
7.5931633579
 21
18.35
 31
0.0
  0
LINE
  5
D1
330
1F
100
AcDbEntity
  8
1
  6
Continuous
370
    25
100
AcDbLine
 10
3.2
 20
18.35
 30
0.0
 11
3.2
 21
-29.7846600619
 31
0.0
  0
LINE
  5
D2
330
1F
100
AcDbEntity
  8
1
  6
Continuous
370
    25
100
AcDbLine
 10
18.3
 20
18.35
 30
0.0
 11
18.3
 21
-30.5335877643
 31
0.0
  0
LINE
  5
D3
330
1F
100
AcDbEntity
  8
1
  6
Continuous
370
    25
100
AcDbLine
 10
18.3
 20
-30.5335877643
 30
0.0
 11
14.6368366421
 21
-30.5335877643
 31
0.0
  0
LINE
  5
D4
330
1F
100
AcDbEntity
  8
1
  6
Continuous
370
    25
100
AcDbLine
 10
14.6368366421
 20
18.35
 30
0.0
 11
14.6368366421
 21
-30.5335877643
 31
0.0
  0
LINE
  5
D5
330
1F
100
AcDbEntity
  8
1
  6
Continuous
370
    25
100
AcDbLine
 10
14.6368366421
 20
18.35
 30
0.0
 11
18.3
 21
18.35
 31
0.0
  0
LINE
  5
D6
330
1F
100
AcDbEntity
  8
1
  6
Continuous
370
    25
100
AcDbLine
 10
13.03
 20
18.35
 30
0.0
 11
13.03
 21
-27.8127840266
 31
0.0
  0
LINE
  5
D7
330
1F
100
AcDbEntity
  8
1
  6
Continuous
370
    25
100
AcDbLine
 10
19.05
 20
18.35
 30
0.0
 11
19.05
 21
-29.7846600619
 31
0.0
  0
LINE
  5
D8
330
1F
100
AcDbEntity
  8
1
  6
Continuous
370
    25
100
AcDbLine
 10
9.2
 20
18.35
 30
0.0
 11
9.2
 21
-27.8127840266
 31
0.0
  0
LINE
  5
D9
330
1F
100
AcDbEntity
  8
1
  6
Continuous
370
    25
100
AcDbLine
 10
9.95
 20
18.35
 30
0.0
 11
9.95
 21
-26.8043088887
 31
0.0
  0
LINE
  5
DA
330
1F
100
AcDbEntity
  8
1
  6
Continuous
370
    25
100
AcDbLine
 10
12.28
 20
18.35
 30
0.0
 11
12.28
 21
-26.8043088887
 31
0.0
  0
LINE
  5
DB
330
1F
100
AcDbEntity
  8
1
  6
Continuous
370
    25
100
AcDbLine
 10
12.28
 20
-26.8043088887
 30
0.0
 11
9.95
 21
-26.8043088887
 31
0.0
  0
LINE
  5
DC
330
1F
100
AcDbEntity
  8
1
  6
Continuous
370
    25
100
AcDbLine
 10
9.95
 20
18.35
 30
0.0
 11
12.28
 21
18.35
 31
0.0
  0
LINE
  5
DD
330
1F
100
AcDbEntity
  8
1
  6
Continuous
370
    25
100
AcDbLine
 10
0.0
 20
22.225
 30
0.0
 11
0.0
 21
-22.225
 31
0.0
  0
LINE
  5
DE
330
1F
100
AcDbEntity
  8
1
  6
Continuous
370
    25
100
AcDbLine
 10
1.8869952227
 20
22.225
 30
0.0
 11
1.8869952227
 21
-22.225
 31
0.0
  0
LINE
  5
DF
330
1F
100
AcDbEntity
  8
1
  6
Continuous
370
    25
100
AcDbLine
 10
19.05
 20
18.85
 30
0.0
 11
3.2
 21
18.85
 31
0.0
  0
LINE
  5
E0
330
1F
100
AcDbEntity
  8
1
  6
Continuous
370
    25
100
AcDbLine
 10
3.2
 20
18.35
 30
0.0
 11
3.2
 21
18.85
 31
0.0
  0
LINE
  5
E1
330
1F
100
AcDbEntity
  8
1
  6
Continuous
370
    25
100
AcDbLine
 10
19.05
 20
18.85
 30
0.0
 11
19.05
 21
18.35
 31
0.0
  0
LINE
  5
E2
330
1F
100
AcDbEntity
  8
1
  6
Continuous
370
    25
100
AcDbLine
 10
14.6368366421
 20
30.5335877643
 30
0.0
 11
14.6368366421
 21
25.91022964
 31
0.0
  0
LINE
  5
E3
330
1F
100
AcDbEntity
  8
1
  6
Continuous
370
    25
100
AcDbLine
 10
14.6368366421
 20
30.5335877643
 30
0.0
 11
18.3
 21
30.5335877643
 31
0.0
  0
LINE
  5
E4
330
1F
100
AcDbEntity
  8
1
  6
Continuous
370
    25
100
AcDbLine
 10
18.3
 20
30.5335877643
 30
0.0
 11
18.3
 21
25.91022964
 31
0.0
  0
LINE
  5
E5
330
1F
100
AcDbEntity
  8
1
  6
Continuous
370
    25
100
AcDbLine
 10
18.3
 20
25.91022964
 30
0.0
 11
14.6368366421
 21
25.91022964
 31
0.0
  0
LINE
  5
E6
330
1F
100
AcDbEntity
  8
1
  6
Continuous
370
    25
100
AcDbLine
 10
7.5931633579
 20
25.91022964
 30
0.0
 11
3.95
 21
25.91022964
 31
0.0
  0
LINE
  5
E7
330
1F
100
AcDbEntity
  8
1
  6
Continuous
370
    25
100
AcDbLine
 10
9.2
 20
22.1323292945
 30
0.0
 11
9.2
 21
22.4133326462
 31
0.0
  0
LINE
  5
E8
330
1F
100
AcDbEntity
  8
1
  6
Continuous
370
    25
100
AcDbLine
 10
12.28
 20
21.1489361435
 30
0.0
 11
9.95
 21
21.1489361435
 31
0.0
  0
LINE
  5
E9
330
1F
100
AcDbEntity
  8
1
  6
Continuous
370
    25
100
AcDbLine
 10
13.03
 20
22.4133326462
 30
0.0
 11
13.03
 21
22.1323292945
 31
0.0
  0
LINE
  5
EA
330
1F
100
AcDbEntity
  8
1
  6
Continuous
370
    25
100
AcDbLine
 10
3.2
 20
18.85
 30
0.0
 11
3.2
 21
24.9855458215
 31
0.0
  0
LINE
  5
EB
330
1F
100
AcDbEntity
  8
1
  6
Continuous
370
    25
100
AcDbLine
 10
19.05
 20
18.85
 30
0.0
 11
19.05
 21
24.9855458215
 31
0.0
  0
LINE
  5
EC
330
1F
100
AcDbEntity
  8
1
  6
Continuous
370
    25
100
AcDbLine
 10
3.95
 20
30.5335877643
 30
0.0
 11
3.95
 21
25.91022964
 31
0.0
  0
LINE
  5
ED
330
1F
100
AcDbEntity
  8
1
  6
Continuous
370
    25
100
AcDbLine
 10
3.95
 20
30.5335877643
 30
0.0
 11
7.5931633579
 21
30.5335877643
 31
0.0
  0
LINE
  5
EE
330
1F
100
AcDbEntity
  8
1
  6
Continuous
370
    25
100
AcDbLine
 10
7.5931633579
 20
30.5335877643
 30
0.0
 11
7.5931633579
 21
25.91022964
 31
0.0
  0
LINE
  5
EF
330
1F
100
AcDbEntity
  8
1
  6
Continuous
370
    25
100
AcDbLine
 10
3.2
 20
29.7846600619
 30
0.0
 11
3.2
 21
24.9855458215
 31
0.0
  0
LINE
  5
F0
330
1F
100
AcDbEntity
  8
1
  6
Continuous
370
    25
100
AcDbLine
 10
13.03
 20
27.8127840266
 30
0.0
 11
13.03
 21
22.4133326462
 31
0.0
  0
LINE
  5
F1
330
1F
100
AcDbEntity
  8
1
  6
Continuous
370
    25
100
AcDbLine
 10
9.2
 20
27.8127840266
 30
0.0
 11
9.2
 21
22.4133326462
 31
0.0
  0
LINE
  5
F2
330
1F
100
AcDbEntity
  8
1
  6
Continuous
370
    25
100
AcDbLine
 10
12.28
 20
26.8043088887
 30
0.0
 11
12.28
 21
21.1489361435
 31
0.0
  0
LINE
  5
F3
330
1F
100
AcDbEntity
  8
1
  6
Continuous
370
    25
100
AcDbLine
 10
9.95
 20
26.8043088887
 30
0.0
 11
9.95
 21
21.1489361435
 31
0.0
  0
LINE
  5
F4
330
1F
100
AcDbEntity
  8
1
  6
Continuous
370
    25
100
AcDbLine
 10
9.95
 20
26.8043088887
 30
0.0
 11
12.28
 21
26.8043088887
 31
0.0
  0
LINE
  5
F5
330
1F
100
AcDbEntity
  8
1
  6
Continuous
370
    25
100
AcDbLine
 10
19.05
 20
29.7846600619
 30
0.0
 11
19.05
 21
24.9855458215
 31
0.0
  0
LINE
  5
F6
330
1F
100
AcDbEntity
  8
1
  6
Continuous
370
    25
100
AcDbLine
 10
160.0
 20
17.440325432
 30
0.0
 11
160.0
 21
-17.440325432
 31
0.0
  0
LINE
  5
F7
330
1F
100
AcDbEntity
  8
SK1
  6
Continuous
370
    25
100
AcDbLine
 10
-68.25
 20
11.4070377962
 30
0.0
 11
-68.25
 21
-11.4070377962
 31
0.0
  0
LINE
  5
F8
330
1F
100
AcDbEntity
  8
SK1
  6
Continuous
370
    25
100
AcDbLine
 10
161.0696034115
 20
8.0
 30
0.0
 11
161.0696034115
 21
-8.0
 31
0.0
  0
LINE
  5
F9
330
1F
100
AcDbEntity
  8
SK1
  6
Continuous
370
    25
100
AcDbLine
 10
175.0
 20
8.0
 30
0.0
 11
175.0
 21
-8.0
 31
0.0
  0
LINE
  5
FA
330
1F
100
AcDbEntity
  8
SK1
  6
Continuous
370
    25
100
AcDbLine
 10
177.0
 20
7.6473460386
 30
0.0
 11
177.0
 21
-7.6473460386
 31
0.0
  0
LINE
  5
FB
330
1F
100
AcDbEntity
  8
SK1
  6
Continuous
370
    25
100
AcDbLine
 10
183.8427496026
 20
6.5
 30
0.0
 11
183.8427496026
 21
-6.5
 31
0.0
  0
LINE
  5
FC
330
1F
100
AcDbEntity
  8
SK1
  6
Continuous
370
    25
100
AcDbLine
 10
160.0296155741
 20
12.4982079614
 30
0.0
 11
160.0296155741
 21
10.6950722468
 31
0.0
  0
LINE
  5
FD
330
1F
100
AcDbEntity
  8
SK1
  6
Continuous
370
    25
100
AcDbLine
 10
160.0296155741
 20
15.2838552741
 30
0.0
 11
160.0296155741
 21
13.5017920386
 31
0.0
  0
LINE
  5
FE
330
1F
100
AcDbEntity
  8
SK1
  6
Continuous
370
    25
100
AcDbLine
 10
160.0296155741
 20
-13.5017920386
 30
0.0
 11
160.0296155741
 21
-15.3049277532
 31
0.0
  0
LINE
  5
FF
330
1F
100
AcDbEntity
  8
SK1
  6
Continuous
370
    25
100
AcDbLine
 10
160.0296155741
 20
-10.7161447259
 30
0.0
 11
160.0296155741
 21
-12.4982079614
 31
0.0
  0
LINE
  5
100
330
1F
100
AcDbEntity
  8
1
  6
Continuous
370
    25
100
AcDbLine
 10
2.1330363037
 20
22.1102691597
 30
0.0
 11
2.1330363037
 21
-22.1102691597
 31
0.0
  0
LINE
  5
101
330
1F
100
AcDbEntity
  8
SK1
  6
Continuous
370
    25
100
AcDbLine
 10
-67.3943082273
 20
12.3965705827
 30
0.0
 11
-67.3943082273
 21
-12.3965705827
 31
0.0
  0
LINE
  5
102
330
1F
100
AcDbEntity
  8
1
  6
Continuous
370
    25
100
AcDbLine
 10
21.05
 20
0.0
 30
0.0
 11
21.05
 21
-18.0
 31
0.0
  0
LINE
  5
103
330
1F
100
AcDbEntity
  8
1
  6
Continuous
370
    25
100
AcDbLine
 10
21.05
 20
18.0
 30
0.0
 11
21.05
 21
0.0
 31
0.0
  0
LINE
  5
104
330
1F
100
AcDbEntity
  8
1
  6
Continuous
370
    25
100
AcDbLine
 10
159.5
 20
0.0
 30
0.0
 11
159.5
 21
18.0
 31
0.0
  0
LINE
  5
105
330
1F
100
AcDbEntity
  8
1
  6
Continuous
370
    25
100
AcDbLine
 10
159.5
 20
-18.0
 30
0.0
 11
159.5
 21
0.0
 31
0.0
  0
LINE
  5
106
330
1F
100
AcDbEntity
  8
SK1
  6
Continuous
370
    25
100
AcDbLine
 10
160.8382940244
 20
7.9270684304
 30
0.0
 11
160.8382940244
 21
-7.9270684304
 31
0.0
  0
LINE
  5
107
330
1F
100
AcDbEntity
  8
SK3
  6
HIDDEN
370
    18
100
AcDbLine
 10
5.7322709434
 20
-8.8686354442
 30
0.0
 11
5.5671326384
 21
-8.2650874757
 31
0.0
  0
LINE
  5
108
330
1F
100
AcDbEntity
  8
SK3
  6
HIDDEN
370
    18
100
AcDbLine
 10
5.5671326384
 20
-8.2650874757
 30
0.0
 11
5.2996060822
 21
-7.7206189875
 31
0.0
  0
LINE
  5
109
330
1F
100
AcDbEntity
  8
SK3
  6
HIDDEN
370
    18
100
AcDbLine
 10
5.2996060822
 20
-7.7206189875
 30
0.0
 11
4.9558786384
 21
-7.2885263487
 31
0.0
  0
LINE
  5
10A
330
1F
100
AcDbEntity
  8
SK3
  6
HIDDEN
370
    18
100
AcDbLine
 10
4.9558786384
 20
-7.2885263487
 30
0.0
 11
4.5695967438
 21
-7.0111057976
 31
0.0
  0
LINE
  5
10B
330
1F
100
AcDbEntity
  8
SK3
  6
HIDDEN
370
    18
100
AcDbLine
 10
4.5695967438
 20
-7.0111057976
 30
0.0
 11
4.1785723618
 21
-6.9155131903
 31
0.0
  0
LINE
  5
10C
330
1F
100
AcDbEntity
  8
SK3
  6
HIDDEN
370
    18
100
AcDbLine
 10
4.1785723618
 20
-6.9155131903
 30
0.0
 11
3.8210816833
 21
-7.0111057976
 31
0.0
  0
LINE
  5
10D
330
1F
100
AcDbEntity
  8
SK3
  6
HIDDEN
370
    18
100
AcDbLine
 10
3.8210816833
 20
-7.0111057976
 30
0.0
 11
3.5321183867
 21
-7.2885263487
 31
0.0
  0
LINE
  5
10E
330
1F
100
AcDbEntity
  8
SK3
  6
HIDDEN
370
    18
100
AcDbLine
 10
3.5321183867
 20
-7.2885263487
 30
0.0
 11
3.3399682128
 21
-7.7206189875
 31
0.0
  0
LINE
  5
10F
330
1F
100
AcDbEntity
  8
SK3
  6
HIDDEN
370
    18
100
AcDbLine
 10
3.3399682128
 20
-7.7206189875
 30
0.0
 11
3.2634401594
 21
-8.2650874757
 31
0.0
  0
LINE
  5
110
330
1F
100
AcDbEntity
  8
SK3
  6
HIDDEN
370
    18
100
AcDbLine
 10
3.2634401594
 20
-8.2650874757
 30
0.0
 11
3.3100253255
 21
-8.8686354442
 31
0.0
  0
LINE
  5
111
330
1F
100
AcDbEntity
  8
SK3
  6
HIDDEN
370
    18
100
AcDbLine
 10
3.3100253255
 20
-8.8686354442
 30
0.0
 11
3.4751636306
 21
-9.4721834127
 31
0.0
  0
LINE
  5
112
330
1F
100
AcDbEntity
  8
SK3
  6
HIDDEN
370
    18
100
AcDbLine
 10
3.4751636306
 20
-9.4721834127
 30
0.0
 11
3.7426901867
 21
-10.016651901
 31
0.0
  0
LINE
  5
113
330
1F
100
AcDbEntity
  8
SK3
  6
HIDDEN
370
    18
100
AcDbLine
 10
3.7426901867
 20
-10.016651901
 30
0.0
 11
4.0864176306
 21
-10.4487445397
 31
0.0
  0
LINE
  5
114
330
1F
100
AcDbEntity
  8
SK3
  6
HIDDEN
370
    18
100
AcDbLine
 10
4.0864176306
 20
-10.4487445397
 30
0.0
 11
4.4726995251
 21
-10.7261650909
 31
0.0
  0
LINE
  5
115
330
1F
100
AcDbEntity
  8
SK3
  6
HIDDEN
370
    18
100
AcDbLine
 10
4.4726995251
 20
-10.7261650909
 30
0.0
 11
4.8637239071
 21
-10.8217576981
 31
0.0
  0
LINE
  5
116
330
1F
100
AcDbEntity
  8
SK3
  6
HIDDEN
370
    18
100
AcDbLine
 10
4.8637239071
 20
-10.8217576981
 30
0.0
 11
5.2212145856
 21
-10.7261650909
 31
0.0
  0
LINE
  5
117
330
1F
100
AcDbEntity
  8
SK3
  6
HIDDEN
370
    18
100
AcDbLine
 10
5.2212145856
 20
-10.7261650909
 30
0.0
 11
5.5101778822
 21
-10.4487445397
 31
0.0
  0
LINE
  5
118
330
1F
100
AcDbEntity
  8
SK3
  6
HIDDEN
370
    18
100
AcDbLine
 10
5.5101778822
 20
-10.4487445397
 30
0.0
 11
5.7023280561
 21
-10.016651901
 31
0.0
  0
LINE
  5
119
330
1F
100
AcDbEntity
  8
SK3
  6
HIDDEN
370
    18
100
AcDbLine
 10
5.7023280561
 20
-10.016651901
 30
0.0
 11
5.7788561096
 21
-9.4721834127
 31
0.0
  0
LINE
  5
11A
330
1F
100
AcDbEntity
  8
SK3
  6
HIDDEN
370
    18
100
AcDbLine
 10
5.7788561096
 20
-9.4721834127
 30
0.0
 11
5.7322709434
 21
-8.8686354442
 31
0.0
  0
LINE
  5
11B
330
1F
100
AcDbEntity
  8
SK3
  6
HIDDEN
370
    18
100
AcDbLine
 10
3.2
 20
-7.1668508159
 30
0.0
 11
3.2
 21
-11.3022369236
 31
0.0
  0
LINE
  5
11C
330
1F
100
AcDbEntity
  8
SK3
  6
HIDDEN
370
    18
100
AcDbLine
 10
5.7019928732
 20
-8.8686354442
 30
0.0
 11
5.5409830258
 21
-8.2801761749
 31
0.0
  0
LINE
  5
11D
330
1F
100
AcDbEntity
  8
SK3
  6
HIDDEN
370
    18
100
AcDbLine
 10
5.5409830258
 20
-8.2801761749
 30
0.0
 11
5.2801446335
 21
-7.7493193989
 31
0.0
  0
LINE
  5
11E
330
1F
100
AcDbEntity
  8
SK3
  6
HIDDEN
370
    18
100
AcDbLine
 10
5.2801446335
 20
-7.7493193989
 30
0.0
 11
4.9450103758
 21
-7.3280290761
 31
0.0
  0
LINE
  5
11F
330
1F
100
AcDbEntity
  8
SK3
  6
HIDDEN
370
    18
100
AcDbLine
 10
4.9450103758
 20
-7.3280290761
 30
0.0
 11
4.5683855286
 21
-7.0575440387
 31
0.0
  0
LINE
  5
120
330
1F
100
AcDbEntity
  8
SK3
  6
HIDDEN
370
    18
100
AcDbLine
 10
4.5683855286
 20
-7.0575440387
 30
0.0
 11
4.1871367561
 21
-6.9643412467
 31
0.0
  0
LINE
  5
121
330
1F
100
AcDbEntity
  8
SK3
  6
HIDDEN
370
    18
100
AcDbLine
 10
4.1871367561
 20
-6.9643412467
 30
0.0
 11
3.8385833446
 21
-7.0575440387
 31
0.0
  0
LINE
  5
122
330
1F
100
AcDbEntity
  8
SK3
  6
HIDDEN
370
    18
100
AcDbLine
 10
3.8385833446
 20
-7.0575440387
 30
0.0
 11
3.5568441304
 21
-7.3280290761
 31
0.0
  0
LINE
  5
123
330
1F
100
AcDbEntity
  8
SK3
  6
HIDDEN
370
    18
100
AcDbLine
 10
3.5568441304
 20
-7.3280290761
 30
0.0
 11
3.3694977108
 21
-7.7493193989
 31
0.0
  0
LINE
  5
124
330
1F
100
AcDbEntity
  8
SK3
  6
HIDDEN
370
    18
100
AcDbLine
 10
3.3694977108
 20
-7.7493193989
 30
0.0
 11
3.2948828588
 21
-8.2801761749
 31
0.0
  0
LINE
  5
125
330
1F
100
AcDbEntity
  8
SK3
  6
HIDDEN
370
    18
100
AcDbLine
 10
3.2948828588
 20
-8.2801761749
 30
0.0
 11
3.3403033958
 21
-8.8686354442
 31
0.0
  0
LINE
  5
126
330
1F
100
AcDbEntity
  8
SK3
  6
HIDDEN
370
    18
100
AcDbLine
 10
3.3403033958
 20
-8.8686354442
 30
0.0
 11
3.5013132432
 21
-9.4570947135
 31
0.0
  0
LINE
  5
127
330
1F
100
AcDbEntity
  8
SK3
  6
HIDDEN
370
    18
100
AcDbLine
 10
3.5013132432
 20
-9.4570947135
 30
0.0
 11
3.7621516354
 21
-9.9879514895
 31
0.0
  0
LINE
  5
128
330
1F
100
AcDbEntity
  8
SK3
  6
HIDDEN
370
    18
100
AcDbLine
 10
3.7621516354
 20
-9.9879514895
 30
0.0
 11
4.0972858932
 21
-10.4092418123
 31
0.0
  0
LINE
  5
129
330
1F
100
AcDbEntity
  8
SK3
  6
HIDDEN
370
    18
100
AcDbLine
 10
4.0972858932
 20
-10.4092418123
 30
0.0
 11
4.4739107404
 21
-10.6797268497
 31
0.0
  0
LINE
  5
12A
330
1F
100
AcDbEntity
  8
SK3
  6
HIDDEN
370
    18
100
AcDbLine
 10
4.4739107404
 20
-10.6797268497
 30
0.0
 11
4.8551595128
 21
-10.7729296417
 31
0.0
  0
LINE
  5
12B
330
1F
100
AcDbEntity
  8
SK3
  6
HIDDEN
370
    18
100
AcDbLine
 10
4.8551595128
 20
-10.7729296417
 30
0.0
 11
5.2037129243
 21
-10.6797268497
 31
0.0
  0
LINE
  5
12C
330
1F
100
AcDbEntity
  8
SK3
  6
HIDDEN
370
    18
100
AcDbLine
 10
5.2037129243
 20
-10.6797268497
 30
0.0
 11
5.4854521385
 21
-10.4092418123
 31
0.0
  0
LINE
  5
12D
330
1F
100
AcDbEntity
  8
SK3
  6
HIDDEN
370
    18
100
AcDbLine
 10
5.4854521385
 20
-10.4092418123
 30
0.0
 11
5.6727985581
 21
-9.9879514895
 31
0.0
  0
LINE
  5
12E
330
1F
100
AcDbEntity
  8
SK3
  6
HIDDEN
370
    18
100
AcDbLine
 10
5.6727985581
 20
-9.9879514895
 30
0.0
 11
5.7474134102
 21
-9.4570947135
 31
0.0
  0
LINE
  5
12F
330
1F
100
AcDbEntity
  8
SK3
  6
HIDDEN
370
    18
100
AcDbLine
 10
5.7474134102
 20
-9.4570947135
 30
0.0
 11
5.7019928732
 21
-8.8686354442
 31
0.0
  0
LINE
  5
130
330
1F
100
AcDbEntity
  8
SK3
  6
HIDDEN
370
    18
100
AcDbLine
 10
16.3488925452
 20
-5.9198440145
 30
0.0
 11
16.1878826977
 21
-5.3313847452
 31
0.0
  0
LINE
  5
131
330
1F
100
AcDbEntity
  8
SK3
  6
HIDDEN
370
    18
100
AcDbLine
 10
16.1878826977
 20
-5.3313847452
 30
0.0
 11
15.9270443055
 21
-4.8005279692
 31
0.0
  0
LINE
  5
132
330
1F
100
AcDbEntity
  8
SK3
  6
HIDDEN
370
    18
100
AcDbLine
 10
15.9270443055
 20
-4.8005279692
 30
0.0
 11
15.5919100477
 21
-4.3792376464
 31
0.0
  0
LINE
  5
133
330
1F
100
AcDbEntity
  8
SK3
  6
HIDDEN
370
    18
100
AcDbLine
 10
15.5919100477
 20
-4.3792376464
 30
0.0
 11
15.2152852005
 21
-4.108752609
 31
0.0
  0
LINE
  5
134
330
1F
100
AcDbEntity
  8
SK3
  6
HIDDEN
370
    18
100
AcDbLine
 10
15.2152852005
 20
-4.108752609
 30
0.0
 11
14.8340364281
 21
-4.015549817
 31
0.0
  0
LINE
  5
135
330
1F
100
AcDbEntity
  8
SK3
  6
HIDDEN
370
    18
100
AcDbLine
 10
14.8340364281
 20
-4.015549817
 30
0.0
 11
14.4854830166
 21
-4.108752609
 31
0.0
  0
LINE
  5
136
330
1F
100
AcDbEntity
  8
SK3
  6
HIDDEN
370
    18
100
AcDbLine
 10
14.4854830166
 20
-4.108752609
 30
0.0
 11
14.2037438024
 21
-4.3792376464
 31
0.0
  0
LINE
  5
137
330
1F
100
AcDbEntity
  8
SK3
  6
HIDDEN
370
    18
100
AcDbLine
 10
14.2037438024
 20
-4.3792376464
 30
0.0
 11
14.0163973828
 21
-4.8005279692
 31
0.0
  0
LINE
  5
138
330
1F
100
AcDbEntity
  8
SK3
  6
HIDDEN
370
    18
100
AcDbLine
 10
14.0163973828
 20
-4.8005279692
 30
0.0
 11
13.9417825307
 21
-5.3313847452
 31
0.0
  0
LINE
  5
139
330
1F
100
AcDbEntity
  8
SK3
  6
HIDDEN
370
    18
100
AcDbLine
 10
13.9417825307
 20
-5.3313847452
 30
0.0
 11
13.9872030677
 21
-5.9198440145
 31
0.0
  0
LINE
  5
13A
330
1F
100
AcDbEntity
  8
SK3
  6
HIDDEN
370
    18
100
AcDbLine
 10
13.9872030677
 20
-5.9198440145
 30
0.0
 11
14.1482129152
 21
-6.5083032838
 31
0.0
  0
LINE
  5
13B
330
1F
100
AcDbEntity
  8
SK3
  6
HIDDEN
370
    18
100
AcDbLine
 10
14.1482129152
 20
-6.5083032838
 30
0.0
 11
14.4090513074
 21
-7.0391600598
 31
0.0
  0
LINE
  5
13C
330
1F
100
AcDbEntity
  8
SK3
  6
HIDDEN
370
    18
100
AcDbLine
 10
14.4090513074
 20
-7.0391600598
 30
0.0
 11
14.7441855652
 21
-7.4604503826
 31
0.0
  0
LINE
  5
13D
330
1F
100
AcDbEntity
  8
SK3
  6
HIDDEN
370
    18
100
AcDbLine
 10
14.7441855652
 20
-7.4604503826
 30
0.0
 11
15.1208104123
 21
-7.73093542
 31
0.0
  0
LINE
  5
13E
330
1F
100
AcDbEntity
  8
SK3
  6
HIDDEN
370
    18
100
AcDbLine
 10
15.1208104123
 20
-7.73093542
 30
0.0
 11
15.5020591848
 21
-7.824138212
 31
0.0
  0
LINE
  5
13F
330
1F
100
AcDbEntity
  8
SK3
  6
HIDDEN
370
    18
100
AcDbLine
 10
15.5020591848
 20
-7.824138212
 30
0.0
 11
15.8506125963
 21
-7.73093542
 31
0.0
  0
LINE
  5
140
330
1F
100
AcDbEntity
  8
SK3
  6
HIDDEN
370
    18
100
AcDbLine
 10
15.8506125963
 20
-7.73093542
 30
0.0
 11
16.1323518105
 21
-7.4604503826
 31
0.0
  0
LINE
  5
141
330
1F
100
AcDbEntity
  8
SK3
  6
HIDDEN
370
    18
100
AcDbLine
 10
16.1323518105
 20
-7.4604503826
 30
0.0
 11
16.3196982301
 21
-7.0391600598
 31
0.0
  0
LINE
  5
142
330
1F
100
AcDbEntity
  8
SK3
  6
HIDDEN
370
    18
100
AcDbLine
 10
16.3196982301
 20
-7.0391600598
 30
0.0
 11
16.3943130822
 21
-6.5083032838
 31
0.0
  0
LINE
  5
143
330
1F
100
AcDbEntity
  8
SK3
  6
HIDDEN
370
    18
100
AcDbLine
 10
16.3943130822
 20
-6.5083032838
 30
0.0
 11
16.3488925452
 21
-5.9198440145
 31
0.0
  0
LINE
  5
144
330
1F
100
AcDbEntity
  8
SK3
  6
HIDDEN
370
    18
100
AcDbLine
 10
11.115
 20
-10.1009964074
 30
0.0
 11
10.5506667635
 21
-10.0074902487
 31
0.0
  0
LINE
  5
145
330
1F
100
AcDbEntity
  8
SK3
  6
HIDDEN
370
    18
100
AcDbLine
 10
10.5506667635
 20
-10.0074902487
 30
0.0
 11
10.054400444
 21
-9.7382499953
 31
0.0
  0
LINE
  5
146
330
1F
100
AcDbEntity
  8
SK3
  6
HIDDEN
370
    18
100
AcDbLine
 10
10.054400444
 20
-9.7382499953
 30
0.0
 11
9.6860580838
 21
-9.3257499953
 31
0.0
  0
LINE
  5
147
330
1F
100
AcDbEntity
  8
SK3
  6
HIDDEN
370
    18
100
AcDbLine
 10
9.6860580838
 20
-9.3257499953
 30
0.0
 11
9.4900672075
 21
-8.8197438366
 31
0.0
  0
LINE
  5
148
330
1F
100
AcDbEntity
  8
SK3
  6
HIDDEN
370
    18
100
AcDbLine
 10
9.4900672075
 20
-8.8197438366
 30
0.0
 11
9.4900672075
 21
-8.2812633297
 31
0.0
  0
LINE
  5
149
330
1F
100
AcDbEntity
  8
SK3
  6
HIDDEN
370
    18
100
AcDbLine
 10
9.4900672075
 20
-8.2812633297
 30
0.0
 11
9.6860580838
 21
-7.775257171
 31
0.0
  0
LINE
  5
14A
330
1F
100
AcDbEntity
  8
SK3
  6
HIDDEN
370
    18
100
AcDbLine
 10
9.6860580838
 20
-7.775257171
 30
0.0
 11
10.054400444
 21
-7.362757171
 31
0.0
  0
LINE
  5
14B
330
1F
100
AcDbEntity
  8
SK3
  6
HIDDEN
370
    18
100
AcDbLine
 10
10.054400444
 20
-7.362757171
 30
0.0
 11
10.5506667635
 21
-7.0935169176
 31
0.0
  0
LINE
  5
14C
330
1F
100
AcDbEntity
  8
SK3
  6
HIDDEN
370
    18
100
AcDbLine
 10
10.5506667635
 20
-7.0935169176
 30
0.0
 11
11.115
 21
-7.0000107588
 31
0.0
  0
LINE
  5
14D
330
1F
100
AcDbEntity
  8
SK3
  6
HIDDEN
370
    18
100
AcDbLine
 10
11.115
 20
-7.0000107588
 30
0.0
 11
11.6793332365
 21
-7.0935169176
 31
0.0
  0
LINE
  5
14E
330
1F
100
AcDbEntity
  8
SK3
  6
HIDDEN
370
    18
100
AcDbLine
 10
11.6793332365
 20
-7.0935169176
 30
0.0
 11
12.175599556
 21
-7.362757171
 31
0.0
  0
LINE
  5
14F
330
1F
100
AcDbEntity
  8
SK3
  6
HIDDEN
370
    18
100
AcDbLine
 10
12.175599556
 20
-7.362757171
 30
0.0
 11
12.5439419162
 21
-7.775257171
 31
0.0
  0
LINE
  5
150
330
1F
100
AcDbEntity
  8
SK3
  6
HIDDEN
370
    18
100
AcDbLine
 10
12.5439419162
 20
-7.775257171
 30
0.0
 11
12.7399327925
 21
-8.2812633297
 31
0.0
  0
LINE
  5
151
330
1F
100
AcDbEntity
  8
SK3
  6
HIDDEN
370
    18
100
AcDbLine
 10
12.7399327925
 20
-8.2812633297
 30
0.0
 11
12.7399327925
 21
-8.8197438366
 31
0.0
  0
LINE
  5
152
330
1F
100
AcDbEntity
  8
SK3
  6
HIDDEN
370
    18
100
AcDbLine
 10
12.7399327925
 20
-8.8197438366
 30
0.0
 11
12.5439419162
 21
-9.3257499953
 31
0.0
  0
LINE
  5
153
330
1F
100
AcDbEntity
  8
SK3
  6
HIDDEN
370
    18
100
AcDbLine
 10
12.5439419162
 20
-9.3257499953
 30
0.0
 11
12.175599556
 21
-9.7382499953
 31
0.0
  0
LINE
  5
154
330
1F
100
AcDbEntity
  8
SK3
  6
HIDDEN
370
    18
100
AcDbLine
 10
12.175599556
 20
-9.7382499953
 30
0.0
 11
11.6793332365
 21
-10.0074902487
 31
0.0
  0
LINE
  5
155
330
1F
100
AcDbEntity
  8
SK3
  6
HIDDEN
370
    18
100
AcDbLine
 10
11.6793332365
 20
-10.0074902487
 30
0.0
 11
11.115
 21
-10.1009964074
 31
0.0
  0
LINE
  5
156
330
1F
100
AcDbEntity
  8
SK3
  6
HIDDEN
370
    18
100
AcDbLine
 10
3.2
 20
-22.6
 30
0.0
 11
3.2
 21
-22.79
 31
0.0
  0
LINE
  5
157
330
1F
100
AcDbEntity
  8
1
  6
HIDDEN
370
    18
100
AcDbLine
 10
19.05
 20
18.35
 30
0.0
 11
3.2
 21
18.35
 31
0.0
  0
LINE
  5
158
330
1F
100
AcDbEntity
  8
SK3
  6
HIDDEN
370
    18
100
AcDbLine
 10
-66.9509618943
 20
8.5
 30
0.0
 11
-66.9509618943
 21
-8.5
 31
0.0
  0
LINE
  5
159
330
1F
100
AcDbEntity
  8
SK3
  6
HIDDEN
370
    18
100
AcDbLine
 10
-61.75
 20
-8.8
 30
0.0
 11
-61.75
 21
8.8
 31
0.0
  0
LINE
  5
15A
330
1F
100
AcDbEntity
  8
SK3
  6
HIDDEN
370
    18
100
AcDbLine
 10
-59.75
 20
-8.8
 30
0.0
 11
-59.75
 21
8.8
 31
0.0
  0
LINE
  5
15B
330
1F
100
AcDbEntity
  8
SK3
  6
HIDDEN
370
    18
100
AcDbLine
 10
-62.2696152423
 20
-8.5
 30
0.0
 11
-62.2696152423
 21
8.5
 31
0.0
  0
LINE
  5
15C
330
1F
100
AcDbEntity
  8
SK3
  6
HIDDEN
370
    18
100
AcDbLine
 10
-58.7107695155
 20
7.0
 30
0.0
 11
-58.7107695155
 21
-7.0
 31
0.0
  0
LINE
  5
15D
330
1F
100
AcDbEntity
  8
SK3
  6
HIDDEN
370
    18
100
AcDbLine
 10
18.9076395467
 20
30.2820605937
 30
0.0
 11
18.55
 21
29.924421047
 31
0.0
  0
LINE
  5
15E
330
1F
100
AcDbEntity
  8
SK3
  6
HIDDEN
370
    18
100
AcDbLine
 10
3.3423604533
 20
-30.2820605937
 30
0.0
 11
3.7
 21
-29.924421047
 31
0.0
  0
LINE
  5
15F
330
1F
100
AcDbEntity
  8
SK3
  6
HIDDEN
370
    18
100
AcDbLine
 10
3.7
 20
29.924421047
 30
0.0
 11
3.3423604533
 21
30.2820605937
 31
0.0
  0
LINE
  5
160
330
1F
100
AcDbEntity
  8
SK3
  6
HIDDEN
370
    18
100
AcDbLine
 10
18.55
 20
-29.924421047
 30
0.0
 11
18.9076395467
 21
-30.2820605937
 31
0.0
  0
LINE
  5
161
330
1F
100
AcDbEntity
  8
SK3
  6
HIDDEN
370
    18
100
AcDbLine
 10
3.7
 20
-23.1
 30
0.0
 11
3.7
 21
-22.6
 31
0.0
  0
LINE
  5
162
330
1F
100
AcDbEntity
  8
SK3
  6
HIDDEN
370
    18
100
AcDbLine
 10
3.7
 20
24.8
 30
0.0
 11
3.7
 21
25.3
 31
0.0
  0
LINE
  5
163
330
1F
100
AcDbEntity
  8
SK3
  6
HIDDEN
370
    18
100
AcDbLine
 10
18.55
 20
25.3
 30
0.0
 11
18.55
 21
24.8
 31
0.0
  0
LINE
  5
164
330
1F
100
AcDbEntity
  8
SK3
  6
HIDDEN
370
    18
100
AcDbLine
 10
18.55
 20
-22.6
 30
0.0
 11
18.55
 21
-23.1
 31
0.0
  0
LINE
  5
165
330
1F
100
AcDbEntity
  8
SK3
  6
HIDDEN
370
    18
100
AcDbLine
 10
3.7
 20
25.3
 30
0.0
 11
3.7
 21
29.924421047
 31
0.0
  0
LINE
  5
166
330
1F
100
AcDbEntity
  8
SK3
  6
HIDDEN
370
    18
100
AcDbLine
 10
18.55
 20
29.924421047
 30
0.0
 11
18.55
 21
25.3
 31
0.0
  0
LINE
  5
167
330
1F
100
AcDbEntity
  8
SK3
  6
HIDDEN
370
    18
100
AcDbLine
 10
18.55
 20
29.924421047
 30
0.0
 11
14.2038239402
 21
29.924421047
 31
0.0
  0
LINE
  5
168
330
1F
100
AcDbEntity
  8
SK3
  6
HIDDEN
370
    18
100
AcDbLine
 10
8.0261760598
 20
29.924421047
 30
0.0
 11
3.7
 21
29.924421047
 31
0.0
  0
LINE
  5
169
330
1F
100
AcDbEntity
  8
1
  6
HIDDEN
370
    18
100
AcDbLine
 10
9.2
 20
27.8127840266
 30
0.0
 11
9.2
 21
27.5868351755
 31
0.0
  0
LINE
  5
16A
330
1F
100
AcDbEntity
  8
1
  6
HIDDEN
370
    18
100
AcDbLine
 10
13.03
 20
27.5868351755
 30
0.0
 11
13.03
 21
27.8127840266
 31
0.0
  0
LINE
  5
16B
330
1F
100
AcDbEntity
  8
SK3
  6
HIDDEN
370
    18
100
AcDbLine
 10
18.55
 20
-22.6
 30
0.0
 11
3.7
 21
-22.6
 31
0.0
  0
LINE
  5
16C
330
1F
100
AcDbEntity
  8
SK3
  6
HIDDEN
370
    18
100
AcDbLine
 10
18.55
 20
-23.1
 30
0.0
 11
3.7
 21
-23.1
 31
0.0
  0
LINE
  5
16D
330
1F
100
AcDbEntity
  8
SK3
  6
HIDDEN
370
    18
100
AcDbLine
 10
18.55
 20
-23.1
 30
0.0
 11
18.55
 21
-29.924421047
 31
0.0
  0
LINE
  5
16E
330
1F
100
AcDbEntity
  8
SK3
  6
HIDDEN
370
    18
100
AcDbLine
 10
3.7
 20
-29.924421047
 30
0.0
 11
3.7
 21
-23.1
 31
0.0
  0
LINE
  5
16F
330
1F
100
AcDbEntity
  8
SK3
  6
HIDDEN
370
    18
100
AcDbLine
 10
8.0261760598
 20
-29.924421047
 30
0.0
 11
3.7
 21
-29.924421047
 31
0.0
  0
LINE
  5
170
330
1F
100
AcDbEntity
  8
SK3
  6
HIDDEN
370
    18
100
AcDbLine
 10
18.55
 20
-29.924421047
 30
0.0
 11
14.2038239402
 21
-29.924421047
 31
0.0
  0
LINE
  5
171
330
1F
100
AcDbEntity
  8
1
  6
HIDDEN
370
    18
100
AcDbLine
 10
13.03
 20
-27.8127840266
 30
0.0
 11
13.03
 21
-27.5868351755
 31
0.0
  0
LINE
  5
172
330
1F
100
AcDbEntity
  8
1
  6
HIDDEN
370
    18
100
AcDbLine
 10
9.2
 20
-27.5868351755
 30
0.0
 11
9.2
 21
-27.8127840266
 31
0.0
  0
LINE
  5
173
330
1F
100
AcDbEntity
  8
SK3
  6
HIDDEN
370
    18
100
AcDbLine
 10
18.55
 20
24.8
 30
0.0
 11
3.7
 21
24.8
 31
0.0
  0
LINE
  5
174
330
1F
100
AcDbEntity
  8
SK3
  6
HIDDEN
370
    18
100
AcDbLine
 10
18.55
 20
25.3
 30
0.0
 11
3.7
 21
25.3
 31
0.0
  0
LINE
  5
175
330
1F
100
AcDbEntity
  8
SK3
  6
HIDDEN
370
    18
100
AcDbLine
 10
71.75
 20
-7.0
 30
0.0
 11
71.75
 21
7.0
 31
0.0
  0
LINE
  5
176
330
1F
100
AcDbEntity
  8
SK3
  6
HIDDEN
370
    18
100
AcDbLine
 10
73.9130982285
 20
3.4
 30
0.0
 11
73.9130982285
 21
-3.4
 31
0.0
  0
LINE
  5
177
330
1F
100
AcDbEntity
  8
SK3
  6
HIDDEN
370
    18
100
AcDbLine
 10
16.1
 20
20.3
 30
0.0
 11
6.1
 21
20.3
 31
0.0
  0
LINE
  5
178
330
1F
100
AcDbEntity
  8
SK3
  6
HIDDEN
370
    18
100
AcDbLine
 10
16.1
 20
24.8
 30
0.0
 11
6.1
 21
24.8
 31
0.0
  0
LINE
  5
179
330
1F
100
AcDbEntity
  8
SK3
  6
HIDDEN
370
    18
100
AcDbLine
 10
6.2
 20
20.2
 30
0.0
 11
16.0
 21
20.2
 31
0.0
  0
LINE
  5
17A
330
1F
100
AcDbEntity
  8
SK1
  6
HIDDEN
370
    18
100
AcDbLine
 10
177.0
 20
3.3158639918
 30
0.0
 11
177.0
 21
4.8158639918
 31
0.0
  0
LINE
  5
17B
330
1F
100
AcDbEntity
  8
SK3
  6
HIDDEN
370
    18
100
AcDbLine
 10
149.5
 20
3.3158639918
 30
0.0
 11
149.5
 21
4.8158639918
 31
0.0
  0
LINE
  5
17C
330
1F
100
AcDbEntity
  8
SK1
  6
HIDDEN
370
    18
100
AcDbLine
 10
177.0
 20
-4.8158639918
 30
0.0
 11
177.0
 21
-3.3158639918
 31
0.0
  0
LINE
  5
17D
330
1F
100
AcDbEntity
  8
SK3
  6
HIDDEN
370
    18
100
AcDbLine
 10
149.5
 20
-4.8158639918
 30
0.0
 11
149.5
 21
-3.3158639918
 31
0.0
  0
LINE
  5
17E
330
1F
100
AcDbEntity
  8
SK3
  6
HIDDEN
370
    18
100
AcDbLine
 10
176.1
 20
-3.4
 30
0.0
 11
176.1
 21
3.4
 31
0.0
  0
LINE
  5
17F
330
1F
100
AcDbEntity
  8
SK1
  6
HIDDEN
370
    18
100
AcDbLine
 10
177.0
 20
-3.9196152423
 30
0.0
 11
177.0
 21
3.9196152423
 31
0.0
  0
LINE
  5
180
330
1F
100
AcDbEntity
  8
SK1
  6
HIDDEN
370
    18
100
AcDbLine
 10
177.0
 20
3.3158639918
 30
0.0
 11
177.0
 21
4.8158639918
 31
0.0
  0
LINE
  5
181
330
1F
100
AcDbEntity
  8
SK3
  6
HIDDEN
370
    18
100
AcDbLine
 10
149.5
 20
3.3158639918
 30
0.0
 11
149.5
 21
4.8158639918
 31
0.0
  0
LINE
  5
182
330
1F
100
AcDbEntity
  8
SK1
  6
HIDDEN
370
    18
100
AcDbLine
 10
177.0
 20
-4.8158639918
 30
0.0
 11
177.0
 21
-3.3158639918
 31
0.0
  0
LINE
  5
183
330
1F
100
AcDbEntity
  8
SK3
  6
HIDDEN
370
    18
100
AcDbLine
 10
149.5
 20
-4.8158639918
 30
0.0
 11
149.5
 21
-3.3158639918
 31
0.0
  0
LINE
  5
184
330
1F
100
AcDbEntity
  8
SK3
  6
HIDDEN
370
    18
100
AcDbLine
 10
3.7
 20
25.3
 30
0.0
 11
3.7
 21
24.8
 31
0.0
  0
LINE
  5
185
330
1F
100
AcDbEntity
  8
SK3
  6
HIDDEN
370
    18
100
AcDbLine
 10
3.7
 20
-22.6
 30
0.0
 11
3.7
 21
-23.1
 31
0.0
  0
LINE
  5
186
330
1F
100
AcDbEntity
  8
SK3
  6
HIDDEN
370
    18
100
AcDbLine
 10
18.55
 20
24.8
 30
0.0
 11
18.55
 21
25.3
 31
0.0
  0
LINE
  5
187
330
1F
100
AcDbEntity
  8
SK3
  6
HIDDEN
370
    18
100
AcDbLine
 10
18.55
 20
-23.1
 30
0.0
 11
18.55
 21
-22.6
 31
0.0
  0
LINE
  5
188
330
1F
100
AcDbEntity
  8
1
  6
HIDDEN
370
    18
100
AcDbLine
 10
3.95
 20
-30.5335877643
 30
0.0
 11
7.5931633579
 21
-30.5335877643
 31
0.0
  0
LINE
  5
189
330
1F
100
AcDbEntity
  8
1
  6
HIDDEN
370
    18
100
AcDbLine
 10
12.28
 20
26.8043088887
 30
0.0
 11
9.95
 21
26.8043088887
 31
0.0
  0
LINE
  5
18A
330
1F
100
AcDbEntity
  8
1
  6
HIDDEN
370
    18
100
AcDbLine
 10
14.6368366421
 20
-30.5335877643
 30
0.0
 11
18.3
 21
-30.5335877643
 31
0.0
  0
LINE
  5
18B
330
1F
100
AcDbEntity
  8
1
  6
HIDDEN
370
    18
100
AcDbLine
 10
18.3
 20
30.5335877643
 30
0.0
 11
14.6368366421
 21
30.5335877643
 31
0.0
  0
LINE
  5
18C
330
1F
100
AcDbEntity
  8
1
  6
HIDDEN
370
    18
100
AcDbLine
 10
9.95
 20
-26.8043088887
 30
0.0
 11
12.28
 21
-26.8043088887
 31
0.0
  0
LINE
  5
18D
330
1F
100
AcDbEntity
  8
1
  6
HIDDEN
370
    18
100
AcDbLine
 10
7.5931633579
 20
30.5335877643
 30
0.0
 11
3.95
 21
30.5335877643
 31
0.0
  0
LINE
  5
18E
330
1F
100
AcDbEntity
  8
SK3
  6
HIDDEN
370
    18
100
AcDbLine
 10
9.2
 20
-13.3132369923
 30
0.0
 11
9.2
 21
-13.417294268
 31
0.0
  0
LINE
  5
18F
330
1F
100
AcDbEntity
  8
SK3
  6
HIDDEN
370
    18
100
AcDbLine
 10
13.03
 20
-13.358298959
 30
0.0
 11
13.03
 21
-13.2542368958
 31
0.0
  0
LINE
  5
190
330
1F
100
AcDbEntity
  8
SK3
  6
HIDDEN
370
    18
100
AcDbLine
 10
11.7430339887
 20
-8.1930606248
 30
0.0
 11
11.125
 21
-8.2789491361
 31
0.0
  0
LINE
  5
191
330
1F
100
AcDbEntity
  8
SK3
  6
HIDDEN
370
    18
100
AcDbLine
 10
11.125
 20
-8.2789491361
 30
0.0
 11
10.5069660113
 21
-8.1930606248
 31
0.0
  0
LINE
  5
192
330
1F
100
AcDbEntity
  8
SK3
  6
HIDDEN
370
    18
100
AcDbLine
 10
10.5069660113
 20
-8.1930606248
 30
0.0
 11
9.9494294954
 21
-7.9438024567
 31
0.0
  0
LINE
  5
193
330
1F
100
AcDbEntity
  8
SK3
  6
HIDDEN
370
    18
100
AcDbLine
 10
9.9494294954
 20
-7.9438024567
 30
0.0
 11
9.5069660113
 21
-7.555573758
 31
0.0
  0
LINE
  5
194
330
1F
100
AcDbEntity
  8
SK3
  6
HIDDEN
370
    18
100
AcDbLine
 10
9.5069660113
 20
-7.555573758
 30
0.0
 11
9.2228869674
 21
-7.0663770587
 31
0.0
  0
LINE
  5
195
330
1F
100
AcDbEntity
  8
SK3
  6
HIDDEN
370
    18
100
AcDbLine
 10
9.2228869674
 20
-7.0663770587
 30
0.0
 11
9.125
 21
-6.5240983402
 31
0.0
  0
LINE
  5
196
330
1F
100
AcDbEntity
  8
SK3
  6
HIDDEN
370
    18
100
AcDbLine
 10
9.125
 20
-6.5240983402
 30
0.0
 11
9.2228869674
 21
-5.9818196217
 31
0.0
  0
LINE
  5
197
330
1F
100
AcDbEntity
  8
SK3
  6
HIDDEN
370
    18
100
AcDbLine
 10
9.2228869674
 20
-5.9818196217
 30
0.0
 11
9.5069660113
 21
-5.4926229224
 31
0.0
  0
LINE
  5
198
330
1F
100
AcDbEntity
  8
SK3
  6
HIDDEN
370
    18
100
AcDbLine
 10
9.5069660113
 20
-5.4926229224
 30
0.0
 11
9.9494294954
 21
-5.1043942237
 31
0.0
  0
LINE
  5
199
330
1F
100
AcDbEntity
  8
SK3
  6
HIDDEN
370
    18
100
AcDbLine
 10
9.9494294954
 20
-5.1043942237
 30
0.0
 11
10.5069660113
 21
-4.8551360556
 31
0.0
  0
LINE
  5
19A
330
1F
100
AcDbEntity
  8
SK3
  6
HIDDEN
370
    18
100
AcDbLine
 10
10.5069660113
 20
-4.8551360556
 30
0.0
 11
11.125
 21
-4.7692475443
 31
0.0
  0
LINE
  5
19B
330
1F
100
AcDbEntity
  8
SK3
  6
HIDDEN
370
    18
100
AcDbLine
 10
11.125
 20
-4.7692475443
 30
0.0
 11
11.7430339887
 21
-4.8551360556
 31
0.0
  0
LINE
  5
19C
330
1F
100
AcDbEntity
  8
SK3
  6
HIDDEN
370
    18
100
AcDbLine
 10
11.7430339887
 20
-4.8551360556
 30
0.0
 11
11.8216991499
 21
-4.8791631571
 31
0.0
  0
LINE
  5
19D
330
1F
100
AcDbEntity
  8
SK3
  6
HIDDEN
370
    18
100
AcDbLine
 10
11.8216991499
 20
-4.8791631571
 30
0.0
 11
12.3005705046
 21
-5.1043942237
 31
0.0
  0
LINE
  5
19E
330
1F
100
AcDbEntity
  8
SK3
  6
HIDDEN
370
    18
100
AcDbLine
 10
12.3005705046
 20
-5.1043942237
 30
0.0
 11
12.7430339887
 21
-5.4926229224
 31
0.0
  0
LINE
  5
19F
330
1F
100
AcDbEntity
  8
SK3
  6
HIDDEN
370
    18
100
AcDbLine
 10
12.7430339887
 20
-5.4926229224
 30
0.0
 11
12.7812422099
 21
-5.5404180837
 31
0.0
  0
LINE
  5
1A0
330
1F
100
AcDbEntity
  8
SK3
  6
HIDDEN
370
    18
100
AcDbLine
 10
12.7812422099
 20
-5.5404180837
 30
0.0
 11
13.0271130326
 21
-5.9818196217
 31
0.0
  0
LINE
  5
1A1
330
1F
100
AcDbEntity
  8
SK3
  6
HIDDEN
370
    18
100
AcDbLine
 10
13.0271130326
 20
-5.9818196217
 30
0.0
 11
13.125
 21
-6.5240983402
 31
0.0
  0
LINE
  5
1A2
330
1F
100
AcDbEntity
  8
SK3
  6
HIDDEN
370
    18
100
AcDbLine
 10
13.125
 20
-6.5240983402
 30
0.0
 11
13.0271130326
 21
-7.0663770587
 31
0.0
  0
LINE
  5
1A3
330
1F
100
AcDbEntity
  8
SK3
  6
HIDDEN
370
    18
100
AcDbLine
 10
13.0271130326
 20
-7.0663770587
 30
0.0
 11
12.7430339887
 21
-7.555573758
 31
0.0
  0
LINE
  5
1A4
330
1F
100
AcDbEntity
  8
SK3
  6
HIDDEN
370
    18
100
AcDbLine
 10
12.7430339887
 20
-7.555573758
 30
0.0
 11
12.3005705046
 21
-7.9438024567
 31
0.0
  0
LINE
  5
1A5
330
1F
100
AcDbEntity
  8
SK3
  6
HIDDEN
370
    18
100
AcDbLine
 10
12.3005705046
 20
-7.9438024567
 30
0.0
 11
11.7430339887
 21
-8.1930606248
 31
0.0
  0
LINE
  5
1A6
330
1F
100
AcDbEntity
  8
SK3
  6
HIDDEN
370
    18
100
AcDbLine
 10
13.03
 20
-14.3230764537
 30
0.0
 11
13.03
 21
-14.4271385169
 31
0.0
  0
LINE
  5
1A7
330
1F
100
AcDbEntity
  8
SK3
  6
HIDDEN
370
    18
100
AcDbLine
 10
9.2
 20
-14.3694120127
 30
0.0
 11
9.2
 21
-14.265354737
 31
0.0
  0
LINE
  5
1A8
330
1F
100
AcDbEntity
  8
SK3
  6
HIDDEN
370
    18
100
AcDbLine
 10
9.2
 20
-2.0482090297
 30
0.0
 11
9.2
 21
-2.0677429732
 31
0.0
  0
LINE
  5
1A9
330
1F
100
AcDbEntity
  8
SK3
  6
HIDDEN
370
    18
100
AcDbLine
 10
9.2
 20
-3.1484607785
 30
0.0
 11
9.2
 21
-3.1289268349
 31
0.0
  0
LINE
  5
1AA
330
1F
100
AcDbEntity
  8
SK3
  6
HIDDEN
370
    18
100
AcDbLine
 10
13.03
 20
-3.1950504063
 30
0.0
 11
13.03
 21
-3.2145852486
 31
0.0
  0
LINE
  5
1AB
330
1F
100
AcDbEntity
  8
SK3
  6
HIDDEN
370
    18
100
AcDbLine
 10
13.03
 20
-2.0013803193
 30
0.0
 11
13.03
 21
-1.981845477
 31
0.0
  0
LINE
  5
1AC
330
1F
100
AcDbEntity
  8
SK3
  6
HIDDEN
370
    18
100
AcDbLine
 10
3.3403033958
 20
8.8686354442
 30
0.0
 11
3.5013132432
 21
9.4570947135
 31
0.0
  0
LINE
  5
1AD
330
1F
100
AcDbEntity
  8
SK3
  6
HIDDEN
370
    18
100
AcDbLine
 10
3.5013132432
 20
9.4570947135
 30
0.0
 11
3.7621516354
 21
9.9879514895
 31
0.0
  0
LINE
  5
1AE
330
1F
100
AcDbEntity
  8
SK3
  6
HIDDEN
370
    18
100
AcDbLine
 10
3.7621516354
 20
9.9879514895
 30
0.0
 11
4.0972858932
 21
10.4092418123
 31
0.0
  0
LINE
  5
1AF
330
1F
100
AcDbEntity
  8
SK3
  6
HIDDEN
370
    18
100
AcDbLine
 10
4.0972858932
 20
10.4092418123
 30
0.0
 11
4.4739107404
 21
10.6797268497
 31
0.0
  0
LINE
  5
1B0
330
1F
100
AcDbEntity
  8
SK3
  6
HIDDEN
370
    18
100
AcDbLine
 10
4.4739107404
 20
10.6797268497
 30
0.0
 11
4.8551595128
 21
10.7729296417
 31
0.0
  0
LINE
  5
1B1
330
1F
100
AcDbEntity
  8
SK3
  6
HIDDEN
370
    18
100
AcDbLine
 10
4.8551595128
 20
10.7729296417
 30
0.0
 11
5.2037129243
 21
10.6797268497
 31
0.0
  0
LINE
  5
1B2
330
1F
100
AcDbEntity
  8
SK3
  6
HIDDEN
370
    18
100
AcDbLine
 10
5.2037129243
 20
10.6797268497
 30
0.0
 11
5.4854521385
 21
10.4092418123
 31
0.0
  0
LINE
  5
1B3
330
1F
100
AcDbEntity
  8
SK3
  6
HIDDEN
370
    18
100
AcDbLine
 10
5.4854521385
 20
10.4092418123
 30
0.0
 11
5.6727985581
 21
9.9879514895
 31
0.0
  0
LINE
  5
1B4
330
1F
100
AcDbEntity
  8
SK3
  6
HIDDEN
370
    18
100
AcDbLine
 10
5.6727985581
 20
9.9879514895
 30
0.0
 11
5.7474134102
 21
9.4570947135
 31
0.0
  0
LINE
  5
1B5
330
1F
100
AcDbEntity
  8
SK3
  6
HIDDEN
370
    18
100
AcDbLine
 10
5.7474134102
 20
9.4570947135
 30
0.0
 11
5.7019928732
 21
8.8686354442
 31
0.0
  0
LINE
  5
1B6
330
1F
100
AcDbEntity
  8
SK3
  6
HIDDEN
370
    18
100
AcDbLine
 10
5.7019928732
 20
8.8686354442
 30
0.0
 11
5.5409830258
 21
8.2801761749
 31
0.0
  0
LINE
  5
1B7
330
1F
100
AcDbEntity
  8
SK3
  6
HIDDEN
370
    18
100
AcDbLine
 10
5.5409830258
 20
8.2801761749
 30
0.0
 11
5.2801446335
 21
7.7493193989
 31
0.0
  0
LINE
  5
1B8
330
1F
100
AcDbEntity
  8
SK3
  6
HIDDEN
370
    18
100
AcDbLine
 10
5.2801446335
 20
7.7493193989
 30
0.0
 11
4.9450103758
 21
7.3280290761
 31
0.0
  0
LINE
  5
1B9
330
1F
100
AcDbEntity
  8
SK3
  6
HIDDEN
370
    18
100
AcDbLine
 10
4.9450103758
 20
7.3280290761
 30
0.0
 11
4.5683855286
 21
7.0575440387
 31
0.0
  0
LINE
  5
1BA
330
1F
100
AcDbEntity
  8
SK3
  6
HIDDEN
370
    18
100
AcDbLine
 10
4.5683855286
 20
7.0575440387
 30
0.0
 11
4.1871367561
 21
6.9643412467
 31
0.0
  0
LINE
  5
1BB
330
1F
100
AcDbEntity
  8
SK3
  6
HIDDEN
370
    18
100
AcDbLine
 10
4.1871367561
 20
6.9643412467
 30
0.0
 11
3.8385833446
 21
7.0575440387
 31
0.0
  0
LINE
  5
1BC
330
1F
100
AcDbEntity
  8
SK3
  6
HIDDEN
370
    18
100
AcDbLine
 10
3.8385833446
 20
7.0575440387
 30
0.0
 11
3.5568441304
 21
7.3280290761
 31
0.0
  0
LINE
  5
1BD
330
1F
100
AcDbEntity
  8
SK3
  6
HIDDEN
370
    18
100
AcDbLine
 10
3.5568441304
 20
7.3280290761
 30
0.0
 11
3.3694977108
 21
7.7493193989
 31
0.0
  0
LINE
  5
1BE
330
1F
100
AcDbEntity
  8
SK3
  6
HIDDEN
370
    18
100
AcDbLine
 10
3.3694977108
 20
7.7493193989
 30
0.0
 11
3.2948828588
 21
8.2801761749
 31
0.0
  0
LINE
  5
1BF
330
1F
100
AcDbEntity
  8
SK3
  6
HIDDEN
370
    18
100
AcDbLine
 10
3.2948828588
 20
8.2801761749
 30
0.0
 11
3.3403033958
 21
8.8686354442
 31
0.0
  0
LINE
  5
1C0
330
1F
100
AcDbEntity
  8
SK3
  6
HIDDEN
370
    18
100
AcDbLine
 10
13.9872030677
 20
5.9198440145
 30
0.0
 11
14.1482129152
 21
6.5083032838
 31
0.0
  0
LINE
  5
1C1
330
1F
100
AcDbEntity
  8
SK3
  6
HIDDEN
370
    18
100
AcDbLine
 10
14.1482129152
 20
6.5083032838
 30
0.0
 11
14.4090513074
 21
7.0391600598
 31
0.0
  0
LINE
  5
1C2
330
1F
100
AcDbEntity
  8
SK3
  6
HIDDEN
370
    18
100
AcDbLine
 10
14.4090513074
 20
7.0391600598
 30
0.0
 11
14.7441855652
 21
7.4604503826
 31
0.0
  0
LINE
  5
1C3
330
1F
100
AcDbEntity
  8
SK3
  6
HIDDEN
370
    18
100
AcDbLine
 10
14.7441855652
 20
7.4604503826
 30
0.0
 11
15.1208104123
 21
7.73093542
 31
0.0
  0
LINE
  5
1C4
330
1F
100
AcDbEntity
  8
SK3
  6
HIDDEN
370
    18
100
AcDbLine
 10
15.1208104123
 20
7.73093542
 30
0.0
 11
15.5020591848
 21
7.824138212
 31
0.0
  0
LINE
  5
1C5
330
1F
100
AcDbEntity
  8
SK3
  6
HIDDEN
370
    18
100
AcDbLine
 10
15.5020591848
 20
7.824138212
 30
0.0
 11
15.8506125963
 21
7.73093542
 31
0.0
  0
LINE
  5
1C6
330
1F
100
AcDbEntity
  8
SK3
  6
HIDDEN
370
    18
100
AcDbLine
 10
15.8506125963
 20
7.73093542
 30
0.0
 11
16.1323518105
 21
7.4604503826
 31
0.0
  0
LINE
  5
1C7
330
1F
100
AcDbEntity
  8
SK3
  6
HIDDEN
370
    18
100
AcDbLine
 10
16.1323518105
 20
7.4604503826
 30
0.0
 11
16.3196982301
 21
7.0391600598
 31
0.0
  0
LINE
  5
1C8
330
1F
100
AcDbEntity
  8
SK3
  6
HIDDEN
370
    18
100
AcDbLine
 10
16.3196982301
 20
7.0391600598
 30
0.0
 11
16.3943130822
 21
6.5083032838
 31
0.0
  0
LINE
  5
1C9
330
1F
100
AcDbEntity
  8
SK3
  6
HIDDEN
370
    18
100
AcDbLine
 10
16.3943130822
 20
6.5083032838
 30
0.0
 11
16.3488925452
 21
5.9198440145
 31
0.0
  0
LINE
  5
1CA
330
1F
100
AcDbEntity
  8
SK3
  6
HIDDEN
370
    18
100
AcDbLine
 10
16.3488925452
 20
5.9198440145
 30
0.0
 11
16.1878826977
 21
5.3313847452
 31
0.0
  0
LINE
  5
1CB
330
1F
100
AcDbEntity
  8
SK3
  6
HIDDEN
370
    18
100
AcDbLine
 10
16.1878826977
 20
5.3313847452
 30
0.0
 11
15.9270443055
 21
4.8005279692
 31
0.0
  0
LINE
  5
1CC
330
1F
100
AcDbEntity
  8
SK3
  6
HIDDEN
370
    18
100
AcDbLine
 10
15.9270443055
 20
4.8005279692
 30
0.0
 11
15.5919100477
 21
4.3792376464
 31
0.0
  0
LINE
  5
1CD
330
1F
100
AcDbEntity
  8
SK3
  6
HIDDEN
370
    18
100
AcDbLine
 10
15.5919100477
 20
4.3792376464
 30
0.0
 11
15.2152852005
 21
4.108752609
 31
0.0
  0
LINE
  5
1CE
330
1F
100
AcDbEntity
  8
SK3
  6
HIDDEN
370
    18
100
AcDbLine
 10
15.2152852005
 20
4.108752609
 30
0.0
 11
14.8340364281
 21
4.015549817
 31
0.0
  0
LINE
  5
1CF
330
1F
100
AcDbEntity
  8
SK3
  6
HIDDEN
370
    18
100
AcDbLine
 10
14.8340364281
 20
4.015549817
 30
0.0
 11
14.4854830166
 21
4.108752609
 31
0.0
  0
LINE
  5
1D0
330
1F
100
AcDbEntity
  8
SK3
  6
HIDDEN
370
    18
100
AcDbLine
 10
14.4854830166
 20
4.108752609
 30
0.0
 11
14.2037438024
 21
4.3792376464
 31
0.0
  0
LINE
  5
1D1
330
1F
100
AcDbEntity
  8
SK3
  6
HIDDEN
370
    18
100
AcDbLine
 10
14.2037438024
 20
4.3792376464
 30
0.0
 11
14.0163973828
 21
4.8005279692
 31
0.0
  0
LINE
  5
1D2
330
1F
100
AcDbEntity
  8
SK3
  6
HIDDEN
370
    18
100
AcDbLine
 10
14.0163973828
 20
4.8005279692
 30
0.0
 11
13.9417825307
 21
5.3313847452
 31
0.0
  0
LINE
  5
1D3
330
1F
100
AcDbEntity
  8
SK3
  6
HIDDEN
370
    18
100
AcDbLine
 10
13.9417825307
 20
5.3313847452
 30
0.0
 11
13.9872030677
 21
5.9198440145
 31
0.0
  0
LINE
  5
1D4
330
1F
100
AcDbEntity
  8
SK3
  6
HIDDEN
370
    18
100
AcDbLine
 10
11.115
 20
9.9881297601
 30
0.0
 11
11.6793332365
 21
9.8946236014
 31
0.0
  0
LINE
  5
1D5
330
1F
100
AcDbEntity
  8
SK3
  6
HIDDEN
370
    18
100
AcDbLine
 10
11.6793332365
 20
9.8946236014
 30
0.0
 11
12.175599556
 21
9.625383348
 31
0.0
  0
LINE
  5
1D6
330
1F
100
AcDbEntity
  8
SK3
  6
HIDDEN
370
    18
100
AcDbLine
 10
12.175599556
 20
9.625383348
 30
0.0
 11
12.5439419162
 21
9.212883348
 31
0.0
  0
LINE
  5
1D7
330
1F
100
AcDbEntity
  8
SK3
  6
HIDDEN
370
    18
100
AcDbLine
 10
12.5439419162
 20
9.212883348
 30
0.0
 11
12.7399327925
 21
8.7068771893
 31
0.0
  0
LINE
  5
1D8
330
1F
100
AcDbEntity
  8
SK3
  6
HIDDEN
370
    18
100
AcDbLine
 10
12.7399327925
 20
8.7068771893
 30
0.0
 11
12.7399327925
 21
8.1683966824
 31
0.0
  0
LINE
  5
1D9
330
1F
100
AcDbEntity
  8
SK3
  6
HIDDEN
370
    18
100
AcDbLine
 10
12.7399327925
 20
8.1683966824
 30
0.0
 11
12.5439419162
 21
7.6623905237
 31
0.0
  0
LINE
  5
1DA
330
1F
100
AcDbEntity
  8
SK3
  6
HIDDEN
370
    18
100
AcDbLine
 10
12.5439419162
 20
7.6623905237
 30
0.0
 11
12.175599556
 21
7.2498905237
 31
0.0
  0
LINE
  5
1DB
330
1F
100
AcDbEntity
  8
SK3
  6
HIDDEN
370
    18
100
AcDbLine
 10
12.175599556
 20
7.2498905237
 30
0.0
 11
11.6793332365
 21
6.9806502703
 31
0.0
  0
LINE
  5
1DC
330
1F
100
AcDbEntity
  8
SK3
  6
HIDDEN
370
    18
100
AcDbLine
 10
11.6793332365
 20
6.9806502703
 30
0.0
 11
11.115
 21
6.8871441115
 31
0.0
  0
LINE
  5
1DD
330
1F
100
AcDbEntity
  8
SK3
  6
HIDDEN
370
    18
100
AcDbLine
 10
11.115
 20
6.8871441115
 30
0.0
 11
10.5506667635
 21
6.9806502703
 31
0.0
  0
LINE
  5
1DE
330
1F
100
AcDbEntity
  8
SK3
  6
HIDDEN
370
    18
100
AcDbLine
 10
10.5506667635
 20
6.9806502703
 30
0.0
 11
10.054400444
 21
7.2498905237
 31
0.0
  0
LINE
  5
1DF
330
1F
100
AcDbEntity
  8
SK3
  6
HIDDEN
370
    18
100
AcDbLine
 10
10.054400444
 20
7.2498905237
 30
0.0
 11
9.6860580838
 21
7.6623905237
 31
0.0
  0
LINE
  5
1E0
330
1F
100
AcDbEntity
  8
SK3
  6
HIDDEN
370
    18
100
AcDbLine
 10
9.6860580838
 20
7.6623905237
 30
0.0
 11
9.4900672075
 21
8.1683966824
 31
0.0
  0
LINE
  5
1E1
330
1F
100
AcDbEntity
  8
SK3
  6
HIDDEN
370
    18
100
AcDbLine
 10
9.4900672075
 20
8.1683966824
 30
0.0
 11
9.4900672075
 21
8.7068771893
 31
0.0
  0
LINE
  5
1E2
330
1F
100
AcDbEntity
  8
SK3
  6
HIDDEN
370
    18
100
AcDbLine
 10
9.4900672075
 20
8.7068771893
 30
0.0
 11
9.6860580838
 21
9.212883348
 31
0.0
  0
LINE
  5
1E3
330
1F
100
AcDbEntity
  8
SK3
  6
HIDDEN
370
    18
100
AcDbLine
 10
9.6860580838
 20
9.212883348
 30
0.0
 11
10.054400444
 21
9.625383348
 31
0.0
  0
LINE
  5
1E4
330
1F
100
AcDbEntity
  8
SK3
  6
HIDDEN
370
    18
100
AcDbLine
 10
10.054400444
 20
9.625383348
 30
0.0
 11
10.5506667635
 21
9.8946236014
 31
0.0
  0
LINE
  5
1E5
330
1F
100
AcDbEntity
  8
SK3
  6
HIDDEN
370
    18
100
AcDbLine
 10
10.5506667635
 20
9.8946236014
 30
0.0
 11
11.115
 21
9.9881297601
 31
0.0
  0
LINE
  5
1E6
330
1F
100
AcDbEntity
  8
SK3
  6
HIDDEN
370
    18
100
AcDbLine
 10
9.2
 20
9.3632135186
 30
0.0
 11
9.2
 21
9.2890222902
 31
0.0
  0
LINE
  5
1E7
330
1F
100
AcDbEntity
  8
SK3
  6
HIDDEN
370
    18
100
AcDbLine
 10
13.03
 20
9.2890222902
 30
0.0
 11
13.03
 21
9.3632135186
 31
0.0
  0
LINE
  5
1E8
330
1F
100
AcDbEntity
  8
SK3
  6
HIDDEN
370
    18
100
AcDbLine
 10
9.1381502386
 20
8.7227605218
 30
0.0
 11
9.3291195995
 21
9.2836897467
 31
0.0
  0
LINE
  5
1E9
330
1F
100
AcDbEntity
  8
SK3
  6
HIDDEN
370
    18
100
AcDbLine
 10
9.3291195995
 20
9.2836897467
 30
0.0
 11
9.6954592133
 21
9.7615381028
 31
0.0
  0
LINE
  5
1EA
330
1F
100
AcDbEntity
  8
SK3
  6
HIDDEN
370
    18
100
AcDbLine
 10
9.6954592133
 20
9.7615381028
 30
0.0
 11
10.2011951869
 21
10.1093817383
 31
0.0
  0
LINE
  5
1EB
330
1F
100
AcDbEntity
  8
SK3
  6
HIDDEN
370
    18
100
AcDbLine
 10
10.2011951869
 20
10.1093817383
 30
0.0
 11
10.7966651544
 21
10.2930630319
 31
0.0
  0
LINE
  5
1EC
330
1F
100
AcDbEntity
  8
SK3
  6
HIDDEN
370
    18
100
AcDbLine
 10
10.7966651544
 20
10.2930630319
 30
0.0
 11
11.423395033
 21
10.2945448101
 31
0.0
  0
LINE
  5
1ED
330
1F
100
AcDbEntity
  8
SK3
  6
HIDDEN
370
    18
100
AcDbLine
 10
11.423395033
 20
10.2945448101
 30
0.0
 11
12.0198410723
 21
10.1136815648
 31
0.0
  0
LINE
  5
1EE
330
1F
100
AcDbEntity
  8
SK3
  6
HIDDEN
370
    18
100
AcDbLine
 10
12.0198410723
 20
10.1136815648
 30
0.0
 11
12.5274333409
 21
9.7682337424
 31
0.0
  0
LINE
  5
1EF
330
1F
100
AcDbEntity
  8
SK3
  6
HIDDEN
370
    18
100
AcDbLine
 10
12.5274333409
 20
9.7682337424
 30
0.0
 11
12.8963271882
 21
9.2921236997
 31
0.0
  0
LINE
  5
1F0
330
1F
100
AcDbEntity
  8
SK3
  6
HIDDEN
370
    18
100
AcDbLine
 10
12.8963271882
 20
9.2921236997
 30
0.0
 11
13.0902978999
 21
8.7321045889
 31
0.0
  0
LINE
  5
1F1
330
1F
100
AcDbEntity
  8
SK3
  6
HIDDEN
370
    18
100
AcDbLine
 10
13.0902978999
 20
8.7321045889
 30
0.0
 11
13.0902978999
 21
8.1431692827
 31
0.0
  0
LINE
  5
1F2
330
1F
100
AcDbEntity
  8
SK3
  6
HIDDEN
370
    18
100
AcDbLine
 10
13.0902978999
 20
8.1431692827
 30
0.0
 11
12.8963271882
 21
7.583150172
 31
0.0
  0
LINE
  5
1F3
330
1F
100
AcDbEntity
  8
SK3
  6
HIDDEN
370
    18
100
AcDbLine
 10
12.8963271882
 20
7.583150172
 30
0.0
 11
12.5274333409
 21
7.1070401293
 31
0.0
  0
LINE
  5
1F4
330
1F
100
AcDbEntity
  8
SK3
  6
HIDDEN
370
    18
100
AcDbLine
 10
12.5274333409
 20
7.1070401293
 30
0.0
 11
12.0198410723
 21
6.7615923069
 31
0.0
  0
LINE
  5
1F5
330
1F
100
AcDbEntity
  8
SK3
  6
HIDDEN
370
    18
100
AcDbLine
 10
12.0198410723
 20
6.7615923069
 30
0.0
 11
11.423395033
 21
6.5807290616
 31
0.0
  0
LINE
  5
1F6
330
1F
100
AcDbEntity
  8
SK3
  6
HIDDEN
370
    18
100
AcDbLine
 10
11.423395033
 20
6.5807290616
 30
0.0
 11
10.7966651544
 21
6.5822108397
 31
0.0
  0
LINE
  5
1F7
330
1F
100
AcDbEntity
  8
SK3
  6
HIDDEN
370
    18
100
AcDbLine
 10
10.7966651544
 20
6.5822108397
 30
0.0
 11
10.2011951869
 21
6.7658921334
 31
0.0
  0
LINE
  5
1F8
330
1F
100
AcDbEntity
  8
SK3
  6
HIDDEN
370
    18
100
AcDbLine
 10
10.2011951869
 20
6.7658921334
 30
0.0
 11
9.6954592133
 21
7.1137357689
 31
0.0
  0
LINE
  5
1F9
330
1F
100
AcDbEntity
  8
SK3
  6
HIDDEN
370
    18
100
AcDbLine
 10
9.6954592133
 20
7.1137357689
 30
0.0
 11
9.3291195995
 21
7.591584125
 31
0.0
  0
LINE
  5
1FA
330
1F
100
AcDbEntity
  8
SK3
  6
HIDDEN
370
    18
100
AcDbLine
 10
9.3291195995
 20
7.591584125
 30
0.0
 11
9.1381502386
 21
8.1525133499
 31
0.0
  0
LINE
  5
1FB
330
1F
100
AcDbEntity
  8
SK3
  6
HIDDEN
370
    18
100
AcDbLine
 10
13.03
 20
10.4473679721
 30
0.0
 11
13.03
 21
10.3731767437
 31
0.0
  0
LINE
  5
1FC
330
1F
100
AcDbEntity
  8
SK3
  6
HIDDEN
370
    18
100
AcDbLine
 10
9.2
 20
10.3731767437
 30
0.0
 11
9.2
 21
10.4473679721
 31
0.0
  0
LINE
  5
1FD
330
1F
100
AcDbEntity
  8
SK3
  6
HIDDEN
370
    18
100
AcDbLine
 10
3.3100253255
 20
8.8686354442
 30
0.0
 11
3.4751636306
 21
9.4721834127
 31
0.0
  0
LINE
  5
1FE
330
1F
100
AcDbEntity
  8
SK3
  6
HIDDEN
370
    18
100
AcDbLine
 10
3.4751636306
 20
9.4721834127
 30
0.0
 11
3.7426901867
 21
10.016651901
 31
0.0
  0
LINE
  5
1FF
330
1F
100
AcDbEntity
  8
SK3
  6
HIDDEN
370
    18
100
AcDbLine
 10
3.7426901867
 20
10.016651901
 30
0.0
 11
4.0864176306
 21
10.4487445397
 31
0.0
  0
LINE
  5
200
330
1F
100
AcDbEntity
  8
SK3
  6
HIDDEN
370
    18
100
AcDbLine
 10
4.0864176306
 20
10.4487445397
 30
0.0
 11
4.4726995251
 21
10.7261650909
 31
0.0
  0
LINE
  5
201
330
1F
100
AcDbEntity
  8
SK3
  6
HIDDEN
370
    18
100
AcDbLine
 10
4.4726995251
 20
10.7261650909
 30
0.0
 11
4.8637239071
 21
10.8217576981
 31
0.0
  0
LINE
  5
202
330
1F
100
AcDbEntity
  8
SK3
  6
HIDDEN
370
    18
100
AcDbLine
 10
4.8637239071
 20
10.8217576981
 30
0.0
 11
5.2212145856
 21
10.7261650909
 31
0.0
  0
LINE
  5
203
330
1F
100
AcDbEntity
  8
SK3
  6
HIDDEN
370
    18
100
AcDbLine
 10
5.2212145856
 20
10.7261650909
 30
0.0
 11
5.5101778822
 21
10.4487445397
 31
0.0
  0
LINE
  5
204
330
1F
100
AcDbEntity
  8
SK3
  6
HIDDEN
370
    18
100
AcDbLine
 10
5.5101778822
 20
10.4487445397
 30
0.0
 11
5.7023280561
 21
10.016651901
 31
0.0
  0
LINE
  5
205
330
1F
100
AcDbEntity
  8
SK3
  6
HIDDEN
370
    18
100
AcDbLine
 10
5.7023280561
 20
10.016651901
 30
0.0
 11
5.7788561096
 21
9.4721834127
 31
0.0
  0
LINE
  5
206
330
1F
100
AcDbEntity
  8
SK3
  6
HIDDEN
370
    18
100
AcDbLine
 10
5.7788561096
 20
9.4721834127
 30
0.0
 11
5.7322709434
 21
8.8686354442
 31
0.0
  0
LINE
  5
207
330
1F
100
AcDbEntity
  8
SK3
  6
HIDDEN
370
    18
100
AcDbLine
 10
5.7322709434
 20
8.8686354442
 30
0.0
 11
5.5671326384
 21
8.2650874757
 31
0.0
  0
LINE
  5
208
330
1F
100
AcDbEntity
  8
SK3
  6
HIDDEN
370
    18
100
AcDbLine
 10
5.5671326384
 20
8.2650874757
 30
0.0
 11
5.2996060822
 21
7.7206189875
 31
0.0
  0
LINE
  5
209
330
1F
100
AcDbEntity
  8
SK3
  6
HIDDEN
370
    18
100
AcDbLine
 10
5.2996060822
 20
7.7206189875
 30
0.0
 11
4.9558786384
 21
7.2885263487
 31
0.0
  0
LINE
  5
20A
330
1F
100
AcDbEntity
  8
SK3
  6
HIDDEN
370
    18
100
AcDbLine
 10
4.9558786384
 20
7.2885263487
 30
0.0
 11
4.5695967438
 21
7.0111057976
 31
0.0
  0
LINE
  5
20B
330
1F
100
AcDbEntity
  8
SK3
  6
HIDDEN
370
    18
100
AcDbLine
 10
4.5695967438
 20
7.0111057976
 30
0.0
 11
4.1785723618
 21
6.9155131903
 31
0.0
  0
LINE
  5
20C
330
1F
100
AcDbEntity
  8
SK3
  6
HIDDEN
370
    18
100
AcDbLine
 10
4.1785723618
 20
6.9155131903
 30
0.0
 11
3.8210816833
 21
7.0111057976
 31
0.0
  0
LINE
  5
20D
330
1F
100
AcDbEntity
  8
SK3
  6
HIDDEN
370
    18
100
AcDbLine
 10
3.8210816833
 20
7.0111057976
 30
0.0
 11
3.5321183867
 21
7.2885263487
 31
0.0
  0
LINE
  5
20E
330
1F
100
AcDbEntity
  8
SK3
  6
HIDDEN
370
    18
100
AcDbLine
 10
3.5321183867
 20
7.2885263487
 30
0.0
 11
3.3399682128
 21
7.7206189875
 31
0.0
  0
LINE
  5
20F
330
1F
100
AcDbEntity
  8
SK3
  6
HIDDEN
370
    18
100
AcDbLine
 10
3.3399682128
 20
7.7206189875
 30
0.0
 11
3.2634401594
 21
8.2650874757
 31
0.0
  0
LINE
  5
210
330
1F
100
AcDbEntity
  8
SK3
  6
HIDDEN
370
    18
100
AcDbLine
 10
3.2634401594
 20
8.2650874757
 30
0.0
 11
3.3100253255
 21
8.8686354442
 31
0.0
  0
LINE
  5
211
330
1F
100
AcDbEntity
  8
SK3
  6
HIDDEN
370
    18
100
AcDbLine
 10
3.2
 20
7.1668508159
 30
0.0
 11
3.2
 21
11.3022369236
 31
0.0
  0
LINE
  5
212
330
1F
100
AcDbEntity
  8
SK3
  6
HIDDEN
370
    18
100
AcDbLine
 10
3.2
 20
-11.3098348849
 30
0.0
 11
5.0549767861
 21
-10.7960759675
 31
0.0
  0
LINE
  5
213
330
1F
100
AcDbEntity
  8
SK3
  6
HIDDEN
370
    18
100
AcDbLine
 10
3.9873194828
 20
-6.941194921
 30
0.0
 11
3.2
 21
-7.1592528547
 31
0.0
  0
LINE
  5
214
330
1F
100
AcDbEntity
  8
SK3
  6
HIDDEN
370
    18
100
AcDbLine
 10
5.0416310698
 20
-10.7478899544
 30
0.0
 11
15.6885307418
 21
-7.7990985247
 31
0.0
  0
LINE
  5
215
330
1F
100
AcDbEntity
  8
SK3
  6
HIDDEN
370
    18
100
AcDbLine
 10
14.6475648711
 20
-4.0405895043
 30
0.0
 11
4.0006651991
 21
-6.989380934
 31
0.0
  0
LINE
  5
216
330
1F
100
AcDbEntity
  8
SK3
  6
HIDDEN
370
    18
100
AcDbLine
 10
9.465
 20
-8.3548704959
 30
0.0
 11
9.465
 21
-8.5505035831
 31
0.0
  0
LINE
  5
217
330
1F
100
AcDbEntity
  8
SK3
  6
HIDDEN
370
    18
100
AcDbLine
 10
12.765
 20
-8.5505035831
 30
0.0
 11
12.765
 21
-7.4416431317
 31
0.0
  0
LINE
  5
218
330
1F
100
AcDbEntity
  8
SK3
  6
HIDDEN
370
    18
100
AcDbLine
 10
9.465
 20
-2.3935154777
 30
0.0
 11
9.465
 21
-6.6425219029
 31
0.0
  0
LINE
  5
219
330
1F
100
AcDbEntity
  8
SK3
  6
HIDDEN
370
    18
100
AcDbLine
 10
12.765
 20
-5.7308030226
 30
0.0
 11
12.765
 21
-2.3925727663
 31
0.0
  0
LINE
  5
21A
330
1F
100
AcDbEntity
  8
SK3
  6
HIDDEN
370
    18
100
AcDbLine
 10
-61.75
 20
-8.8
 30
0.0
 11
-59.75
 21
-8.8
 31
0.0
  0
LINE
  5
21B
330
1F
100
AcDbEntity
  8
SK3
  6
HIDDEN
370
    18
100
AcDbLine
 10
-59.75
 20
8.8
 30
0.0
 11
-61.75
 21
8.8
 31
0.0
  0
LINE
  5
21C
330
1F
100
AcDbEntity
  8
SK3
  6
HIDDEN
370
    18
100
AcDbLine
 10
-61.75
 20
8.8
 30
0.0
 11
-62.2696152423
 21
8.5
 31
0.0
  0
LINE
  5
21D
330
1F
100
AcDbEntity
  8
SK3
  6
HIDDEN
370
    18
100
AcDbLine
 10
-62.2696152423
 20
-8.5
 30
0.0
 11
-61.75
 21
-8.8
 31
0.0
  0
LINE
  5
21E
330
1F
100
AcDbEntity
  8
SK3
  6
HIDDEN
370
    18
100
AcDbLine
 10
-59.75
 20
-8.8
 30
0.0
 11
-58.7107695155
 21
-7.0
 31
0.0
  0
LINE
  5
21F
330
1F
100
AcDbEntity
  8
SK3
  6
HIDDEN
370
    18
100
AcDbLine
 10
-58.7107695155
 20
7.0
 30
0.0
 11
-59.75
 21
8.8
 31
0.0
  0
LINE
  5
220
330
1F
100
AcDbEntity
  8
SK3
  6
HIDDEN
370
    18
100
AcDbLine
 10
-66.9509618943
 20
-8.5
 30
0.0
 11
-62.2696152423
 21
-8.5
 31
0.0
  0
LINE
  5
221
330
1F
100
AcDbEntity
  8
SK3
  6
HIDDEN
370
    18
100
AcDbLine
 10
-62.2696152423
 20
8.5
 30
0.0
 11
-66.9509618943
 21
8.5
 31
0.0
  0
LINE
  5
222
330
1F
100
AcDbEntity
  8
SK3
  6
HIDDEN
370
    18
100
AcDbLine
 10
-58.7107695155
 20
-7.0
 30
0.0
 11
71.75
 21
-7.0
 31
0.0
  0
LINE
  5
223
330
1F
100
AcDbEntity
  8
SK3
  6
HIDDEN
370
    18
100
AcDbLine
 10
71.75
 20
7.0
 30
0.0
 11
-58.7107695155
 21
7.0
 31
0.0
  0
LINE
  5
224
330
1F
100
AcDbEntity
  8
SK3
  6
HIDDEN
370
    18
100
AcDbLine
 10
71.75
 20
-7.0
 30
0.0
 11
73.9130982285
 21
-3.4
 31
0.0
  0
LINE
  5
225
330
1F
100
AcDbEntity
  8
SK3
  6
HIDDEN
370
    18
100
AcDbLine
 10
73.9130982285
 20
3.4
 30
0.0
 11
71.75
 21
7.0
 31
0.0
  0
LINE
  5
226
330
1F
100
AcDbEntity
  8
SK3
  6
HIDDEN
370
    18
100
AcDbLine
 10
6.1
 20
24.8
 30
0.0
 11
6.1
 21
20.3
 31
0.0
  0
LINE
  5
227
330
1F
100
AcDbEntity
  8
SK3
  6
HIDDEN
370
    18
100
AcDbLine
 10
16.1
 20
20.3
 30
0.0
 11
16.1
 21
24.8
 31
0.0
  0
LINE
  5
228
330
1F
100
AcDbEntity
  8
SK3
  6
HIDDEN
370
    18
100
AcDbLine
 10
177.0
 20
4.8158639918
 30
0.0
 11
151.847507668
 21
4.8158639918
 31
0.0
  0
LINE
  5
229
330
1F
100
AcDbEntity
  8
SK3
  6
HIDDEN
370
    18
100
AcDbLine
 10
151.8474123659
 20
3.3158639918
 30
0.0
 11
177.0
 21
3.3158639918
 31
0.0
  0
LINE
  5
22A
330
1F
100
AcDbEntity
  8
SK3
  6
HIDDEN
370
    18
100
AcDbLine
 10
150.1526034998
 20
4.8158639918
 30
0.0
 11
149.5
 21
4.8158639918
 31
0.0
  0
LINE
  5
22B
330
1F
100
AcDbEntity
  8
SK3
  6
HIDDEN
370
    18
100
AcDbLine
 10
149.5
 20
3.3158639918
 30
0.0
 11
150.1524797548
 21
3.3158639918
 31
0.0
  0
LINE
  5
22C
330
1F
100
AcDbEntity
  8
SK3
  6
HIDDEN
370
    18
100
AcDbLine
 10
149.5
 20
4.8158639918
 30
0.0
 11
149.0493545357
 21
4.0658639918
 31
0.0
  0
LINE
  5
22D
330
1F
100
AcDbEntity
  8
SK3
  6
HIDDEN
370
    18
100
AcDbLine
 10
149.0493545357
 20
4.0658639918
 30
0.0
 11
149.5
 21
3.3158639918
 31
0.0
  0
LINE
  5
22E
330
1F
100
AcDbEntity
  8
SK3
  6
HIDDEN
370
    18
100
AcDbLine
 10
177.0
 20
-3.3158639918
 30
0.0
 11
151.8464064451
 21
-3.3158639918
 31
0.0
  0
LINE
  5
22F
330
1F
100
AcDbEntity
  8
SK3
  6
HIDDEN
370
    18
100
AcDbLine
 10
151.8467235533
 20
-4.8158639918
 30
0.0
 11
177.0
 21
-4.8158639918
 31
0.0
  0
LINE
  5
230
330
1F
100
AcDbEntity
  8
SK3
  6
HIDDEN
370
    18
100
AcDbLine
 10
150.1525802756
 20
-3.3158639918
 30
0.0
 11
149.5
 21
-3.3158639918
 31
0.0
  0
LINE
  5
231
330
1F
100
AcDbEntity
  8
SK3
  6
HIDDEN
370
    18
100
AcDbLine
 10
149.5
 20
-4.8158639918
 30
0.0
 11
150.152345962
 21
-4.8158639918
 31
0.0
  0
LINE
  5
232
330
1F
100
AcDbEntity
  8
SK3
  6
HIDDEN
370
    18
100
AcDbLine
 10
149.5
 20
-3.3158639918
 30
0.0
 11
149.0493545357
 21
-4.0658639918
 31
0.0
  0
LINE
  5
233
330
1F
100
AcDbEntity
  8
SK3
  6
HIDDEN
370
    18
100
AcDbLine
 10
149.0493545357
 20
-4.0658639918
 30
0.0
 11
149.5
 21
-4.8158639918
 31
0.0
  0
LINE
  5
234
330
1F
100
AcDbEntity
  8
SK3
  6
HIDDEN
370
    18
100
AcDbLine
 10
177.0
 20
3.9196152423
 30
0.0
 11
176.1
 21
3.4
 31
0.0
  0
LINE
  5
235
330
1F
100
AcDbEntity
  8
SK3
  6
HIDDEN
370
    18
100
AcDbLine
 10
176.1
 20
-3.4
 30
0.0
 11
177.0
 21
-3.9196152423
 31
0.0
  0
LINE
  5
236
330
1F
100
AcDbEntity
  8
SK3
  6
HIDDEN
370
    18
100
AcDbLine
 10
176.1
 20
3.4
 30
0.0
 11
73.9130982285
 21
3.4
 31
0.0
  0
LINE
  5
237
330
1F
100
AcDbEntity
  8
SK3
  6
HIDDEN
370
    18
100
AcDbLine
 10
73.9130982285
 20
-3.4
 30
0.0
 11
176.1
 21
-3.4
 31
0.0
  0
LINE
  5
238
330
1F
100
AcDbEntity
  8
SK3
  6
HIDDEN
370
    18
100
AcDbLine
 10
177.0
 20
4.8158639918
 30
0.0
 11
151.8475202452
 21
4.8158639918
 31
0.0
  0
LINE
  5
239
330
1F
100
AcDbEntity
  8
SK3
  6
HIDDEN
370
    18
100
AcDbLine
 10
151.8473965002
 20
3.3158639918
 30
0.0
 11
177.0
 21
3.3158639918
 31
0.0
  0
LINE
  5
23A
330
1F
100
AcDbEntity
  8
SK3
  6
HIDDEN
370
    18
100
AcDbLine
 10
150.1525876341
 20
4.8158639918
 30
0.0
 11
149.5
 21
4.8158639918
 31
0.0
  0
LINE
  5
23B
330
1F
100
AcDbEntity
  8
SK3
  6
HIDDEN
370
    18
100
AcDbLine
 10
149.5
 20
3.3158639918
 30
0.0
 11
150.152492332
 21
3.3158639918
 31
0.0
  0
LINE
  5
23C
330
1F
100
AcDbEntity
  8
SK3
  6
HIDDEN
370
    18
100
AcDbLine
 10
149.5
 20
4.8158639918
 30
0.0
 11
149.0493545357
 21
4.0658639918
 31
0.0
  0
LINE
  5
23D
330
1F
100
AcDbEntity
  8
SK3
  6
HIDDEN
370
    18
100
AcDbLine
 10
149.0493545357
 20
4.0658639918
 30
0.0
 11
149.5
 21
3.3158639918
 31
0.0
  0
LINE
  5
23E
330
1F
100
AcDbEntity
  8
SK3
  6
HIDDEN
370
    18
100
AcDbLine
 10
177.0
 20
-3.3158639918
 30
0.0
 11
151.847654038
 21
-3.3158639918
 31
0.0
  0
LINE
  5
23F
330
1F
100
AcDbEntity
  8
SK3
  6
HIDDEN
370
    18
100
AcDbLine
 10
151.8474197244
 20
-4.8158639918
 30
0.0
 11
177.0
 21
-4.8158639918
 31
0.0
  0
LINE
  5
240
330
1F
100
AcDbEntity
  8
SK3
  6
HIDDEN
370
    18
100
AcDbLine
 10
150.1532764467
 20
-3.3158639918
 30
0.0
 11
150.1525802756
 21
-3.3158639918
 31
0.0
  0
LINE
  5
241
330
1F
100
AcDbEntity
  8
SK3
  6
HIDDEN
370
    18
100
AcDbLine
 10
150.152345962
 20
-4.8158639918
 30
0.0
 11
150.1535935549
 21
-4.8158639918
 31
0.0
  0
LINE
  5
242
330
1F
100
AcDbEntity
  8
SK3
  6
HIDDEN
370
    18
100
AcDbLine
 10
149.5
 20
-3.3158639918
 30
0.0
 11
149.0493545357
 21
-4.0658639918
 31
0.0
  0
LINE
  5
243
330
1F
100
AcDbEntity
  8
SK3
  6
HIDDEN
370
    18
100
AcDbLine
 10
149.0493545357
 20
-4.0658639918
 30
0.0
 11
149.5
 21
-4.8158639918
 31
0.0
  0
LINE
  5
244
330
1F
100
AcDbEntity
  8
SK3
  6
HIDDEN
370
    18
100
AcDbLine
 10
9.465
 20
6.6432994571
 30
0.0
 11
9.465
 21
2.3925727663
 31
0.0
  0
LINE
  5
245
330
1F
100
AcDbEntity
  8
SK3
  6
HIDDEN
370
    18
100
AcDbLine
 10
12.765
 20
2.3935154777
 30
0.0
 11
12.765
 21
5.7292737689
 31
0.0
  0
LINE
  5
246
330
1F
100
AcDbEntity
  8
SK3
  6
HIDDEN
370
    18
100
AcDbLine
 10
13.125
 20
-13.9700400196
 30
0.0
 11
13.125
 21
-6.5240983402
 31
0.0
  0
LINE
  5
247
330
1F
100
AcDbEntity
  8
SK3
  6
HIDDEN
370
    18
100
AcDbLine
 10
9.125
 20
-6.5240983402
 30
0.0
 11
9.125
 21
-13.95133105
 31
0.0
  0
LINE
  5
248
330
1F
100
AcDbEntity
  8
SK3
  6
HIDDEN
370
    18
100
AcDbLine
 10
13.125
 20
-2.6224977666
 30
0.0
 11
13.125
 21
-1.2247232866
 31
0.0
  0
LINE
  5
249
330
1F
100
AcDbEntity
  8
SK3
  6
HIDDEN
370
    18
100
AcDbLine
 10
9.125
 20
-1.2247232866
 30
0.0
 11
9.125
 21
-2.6189856628
 31
0.0
  0
LINE
  5
24A
330
1F
100
AcDbEntity
  8
SK3
  6
HIDDEN
370
    18
100
AcDbLine
 10
4.0006651991
 20
6.989380934
 30
0.0
 11
14.6475648711
 21
4.0405895043
 31
0.0
  0
LINE
  5
24B
330
1F
100
AcDbEntity
  8
SK3
  6
HIDDEN
370
    18
100
AcDbLine
 10
15.6885307418
 20
7.7990985247
 30
0.0
 11
5.0416310698
 21
10.7478899544
 31
0.0
  0
LINE
  5
24C
330
1F
100
AcDbEntity
  8
SK3
  6
HIDDEN
370
    18
100
AcDbLine
 10
9.465
 20
8.4376369358
 30
0.0
 11
9.465
 21
8.3559232747
 31
0.0
  0
LINE
  5
24D
330
1F
100
AcDbEntity
  8
SK3
  6
HIDDEN
370
    18
100
AcDbLine
 10
12.765
 20
7.4414734354
 30
0.0
 11
12.765
 21
8.4376369358
 31
0.0
  0
LINE
  5
24E
330
1F
100
AcDbEntity
  8
SK3
  6
HIDDEN
370
    18
100
AcDbLine
 10
9.115
 20
9.9533654467
 30
0.0
 11
9.115
 21
8.4540174823
 31
0.0
  0
LINE
  5
24F
330
1F
100
AcDbEntity
  8
SK3
  6
HIDDEN
370
    18
100
AcDbLine
 10
13.115
 20
8.4376369358
 30
0.0
 11
13.115
 21
9.9533654467
 31
0.0
  0
LINE
  5
250
330
1F
100
AcDbEntity
  8
SK3
  6
HIDDEN
370
    18
100
AcDbLine
 10
3.2
 20
7.1592528547
 30
0.0
 11
3.9873194828
 21
6.941194921
 31
0.0
  0
LINE
  5
251
330
1F
100
AcDbEntity
  8
SK3
  6
HIDDEN
370
    18
100
AcDbLine
 10
5.0549767861
 20
10.7960759675
 30
0.0
 11
3.2
 21
11.3098348849
 31
0.0
  0
LINE
  5
252
330
1F
100
AcDbEntity
  8
SK3
  6
HIDDEN
370
    18
100
AcDbLine
 10
150.1525802756
 20
-3.3158639918
 30
0.0
 11
149.5
 21
-3.3158639918
 31
0.0
  0
LINE
  5
253
330
1F
100
AcDbEntity
  8
SK3
  6
HIDDEN
370
    18
100
AcDbLine
 10
149.5
 20
-4.8158639918
 30
0.0
 11
150.152345962
 21
-4.8158639918
 31
0.0
  0
LINE
  5
254
330
1F
100
AcDbEntity
  8
4
  6
CENTERX2
370
    18
100
AcDbLine
 10
178.1
 20
0.0
 30
0.0
 11
-1.2791951795
 21
0.0
 31
0.0
  0
LINE
  5
255
330
1F
100
AcDbEntity
  8
SK4
  6
CENTERX2
370
    18
100
AcDbLine
 10
178.1640941861
 20
0.0
 30
0.0
 11
-68.9509618943
 21
0.0
 31
0.0
  0
ARC
  5
256
330
1F
100
AcDbEntity
  8
SK1
  6
Continuous
370
    25
100
AcDbCircle
 10
183.8427496026
 20
6.2
 30
0.0
 40
0.3000000000000398
100
AcDbArc
 50
90.0
 51
180.0
  0
ARC
  5
257
330
1F
100
AcDbEntity
  8
SK1
  6
Continuous
370
    25
100
AcDbCircle
 10
183.8427496026
 20
-6.2
 30
0.0
 40
0.3000000000000398
100
AcDbArc
 50
180.0
 51
270.0
  0
ARC
  5
258
330
1F
100
AcDbEntity
  8
1
  6
Continuous
370
    25
100
AcDbCircle
 10
2.45
 20
22.79
 30
0.0
 40
0.7500000000000009
100
AcDbArc
 50
245.0
 51
0.0
  0
ARC
  5
259
330
1F
100
AcDbEntity
  8
1
  6
Continuous
370
    25
100
AcDbCircle
 10
2.45
 20
-22.79
 30
0.0
 40
0.7500000000000009
100
AcDbArc
 50
0.0
 51
115.0
  0
ARC
  5
25A
330
1F
100
AcDbEntity
  8
1
  6
Continuous
370
    25
100
AcDbCircle
 10
21.05
 20
-20.0
 30
0.0
 40
2.000000000000004
100
AcDbArc
 50
90.0
 51
180.0
  0
ARC
  5
25B
330
1F
100
AcDbEntity
  8
1
  6
Continuous
370
    25
100
AcDbCircle
 10
21.05
 20
20.0
 30
0.0
 40
2.000000000000004
100
AcDbArc
 50
180.0
 51
270.0
  0
ARC
  5
25C
330
1F
100
AcDbEntity
  8
1
  6
Continuous
370
    25
100
AcDbCircle
 10
159.5
 20
-17.5
 30
0.0
 40
0.5
100
AcDbArc
 50
270.0
 51
346.1998683781
  0
ARC
  5
25D
330
1F
100
AcDbEntity
  8
1
  6
Continuous
370
    25
100
AcDbCircle
 10
159.5
 20
17.5
 30
0.0
 40
0.5
100
AcDbArc
 50
13.8046422377
 51
90.0
  0
ARC
  5
25E
330
1F
100
AcDbEntity
  8
SK1
  6
Continuous
370
    25
100
AcDbCircle
 10
-67.25
 20
11.4070377962
 30
0.0
 40
1.000000000000009
100
AcDbArc
 50
98.2972222222
 51
180.0
  0
ARC
  5
25F
330
1F
100
AcDbEntity
  8
SK1
  6
Continuous
370
    25
100
AcDbCircle
 10
-67.25
 20
-11.4070377962
 30
0.0
 40
1.0
100
AcDbArc
 50
180.0
 51
261.7027777778
  0
ARC
  5
260
330
1F
100
AcDbEntity
  8
SK1
  6
Continuous
370
    25
100
AcDbCircle
 10
160.5
 20
9.0
 30
0.0
 40
1.125000000000013
100
AcDbArc
 50
243.6122000388
 51
287.5
  0
ARC
  5
261
330
1F
100
AcDbEntity
  8
SK1
  6
Continuous
370
    25
100
AcDbCircle
 10
160.5
 20
-9.0
 30
0.0
 40
1.125000000000007
100
AcDbArc
 50
72.5
 51
116.3877999612
  0
CIRCLE
  5
262
330
1F
100
AcDbEntity
  8
SK3
  6
HIDDEN
370
    18
100
AcDbCircle
 10
11.1266706645
 20
-1.2194276901
 30
0.0
 40
1.997170211146843
  0
ARC
  5
263
330
1F
100
AcDbEntity
  8
1
370
    25
100
AcDbCircle
 10
142.0003037034
 20
-38.9308049575
 30
0.0
 40
21.25994593501402
100
AcDbArc
 50
79.9887094294
 51
99.9836530989
  0
SPLINE
  5
264
330
1F
100
AcDbEntity
  8
SK1
  6
Continuous
370
    25
100
AcDbSpline
210
0.0
220
0.0
230
1.0
 70
     8
 71
     3
 72
    28
 73
    24
 74
     0
 42
0.000000001
 43
0.00000001
 40
0.0
 40
0.0
 40
0.0
 40
0.0
 40
0.0052537112711933
 40
0.0133499177928802
 40
0.027868861858528
 40
0.058621671237916
 40
0.0901957072629547
 40
0.2125475467522455
 40
0.3361907762950965
 40
0.4854698685517447
 40
0.6364768148949577
 40
0.6861030032528962
 40
0.7359458034483328
 40
0.7946254087639076
 40
0.8544158251364333
 40
0.8765819969527485
 40
0.8989788406420497
 40
0.9211818709886971
 40
0.9440524603260358
 40
0.95852913665748
 40
0.9734609552158239
 40
0.9978764216935788
 40
1.0
 40
1.0
 40
1.0
 40
1.0
 10
160.0296155740811
 20
12.49820796140231
 30
0.0
 10
160.0330942578882
 20
12.49789583511741
 30
0.0
 10
160.0419337506687
 20
12.49710270812027
 30
0.0
 10
160.0585559287109
 20
12.48808321034267
 30
0.0
 10
160.0832505141209
 20
12.46252379393996
 30
0.0
 10
160.1086478668071
 20
12.41809382799739
 30
0.0
 10
160.1578717474472
 20
12.30659293093156
 30
0.0
 10
160.2105816103935
 20
12.13029513674566
 30
0.0
 10
160.2689360688952
 20
11.87594680464199
 30
0.0
 10
160.3098559286562
 20
11.59864836664927
 30
0.0
 10
160.3193158544685
 20
11.36700159804993
 30
0.0
 10
160.3078046337491
 20
11.20192957505042
 30
0.0
 10
160.293515033884
 20
11.09838986916345
 30
0.0
 10
160.2682769909491
 20
10.98997268696356
 30
0.0
 10
160.2347923478041
 20
10.90273992099042
 30
0.0
 10
160.2006300283264
 20
10.84280145417057
 30
0.0
 10
160.1748722688984
 20
10.80689799919035
 30
0.0
 10
160.1442341780475
 20
10.77434639667347
 30
0.0
 10
160.1124223564546
 20
10.75071329342681
 30
0.0
 10
160.0810963717517
 20
10.73583651887637
 30
0.0
 10
160.0466175602402
 20
10.72653331973618
 30
0.0
 10
160.0185502498494
 20
10.72670224458457
 30
0.0
 10
160.0013743650759
 20
10.73015437308572
 30
0.0
 10
160.0
 20
10.73043060251507
 30
0.0
  0
SPLINE
  5
265
330
1F
100
AcDbEntity
  8
SK1
  6
Continuous
370
    25
100
AcDbSpline
210
0.0
220
0.0
230
1.0
 70
     8
 71
     3
 72
    23
 73
    19
 74
     0
 42
0.000000001
 43
0.00000001
 40
0.0
 40
0.0
 40
0.0
 40
0.0
 40
0.0252984181612683
 40
0.0496769841753891
 40
0.0845162882360821
 40
0.1409160613132504
 40
0.2498471392922396
 40
0.4899444837815525
 40
0.651772860014262
 40
0.7638052870045501
 40
0.8403018843406405
 40
0.8922273334584006
 40
0.9274961687449613
 40
0.9516172707880476
 40
0.9751835207372644
 40
0.9852777115355196
 40
0.9954907444420843
 40
1.0
 40
1.0
 40
1.0
 40
1.0
 10
160.0
 20
15.26956939748491
 30
0.0
 10
160.0167723365768
 20
15.2713566491334
 30
0.0
 10
160.0497071664701
 20
15.27486616784298
 30
0.0
 10
160.1038234174254
 20
15.25637619486076
 30
0.0
 10
160.1656534669202
 20
15.20997920416331
 30
0.0
 10
160.241149667518
 20
15.09893864529731
 30
0.0
 10
160.3194904163371
 20
14.83972433218035
 30
0.0
 10
160.3215881098485
 20
14.49817937427595
 30
0.0
 10
160.2758493465267
 20
14.1623750030008
 30
0.0
 10
160.2266902713931
 20
13.93637824904611
 30
0.0
 10
160.1845007390709
 20
13.7834478174137
 30
0.0
 10
160.1503513787232
 20
13.68100797615211
 30
0.0
 10
160.1229733214973
 20
13.61278110081416
 30
0.0
 10
160.098699879215
 20
13.56380402279107
 30
0.0
 10
160.0778595170458
 20
13.53140831483885
 30
0.0
 10
160.0571320224071
 20
13.51121842287883
 30
0.0
 10
160.0423292084813
 20
13.50278380775774
 30
0.0
 10
160.0325965633617
 20
13.50202458053979
 30
0.0
 10
160.0296155740811
 20
13.50179203859765
 30
0.0
  0
SPLINE
  5
266
330
1F
100
AcDbEntity
  8
SK1
  6
Continuous
370
    25
100
AcDbSpline
210
0.0
220
0.0
230
1.0
 70
     8
 71
     3
 72
     9
 73
     5
 74
     0
 42
0.000000001
 43
0.00000001
 40
0.0
 40
0.0
 40
0.0
 40
0.0
 40
0.6824251587927259
 40
1.0
 40
1.0
 40
1.0
 40
1.0
 10
165.0
 20
13.38940852584399
 30
0.0
 10
164.8999716893177
 20
14.0964098334427
 30
0.0
 10
164.7533939886081
 20
15.1324227917713
 30
0.0
 10
164.3928210554913
 20
16.11162306667578
 30
0.0
 10
164.278312163513
 20
16.42259243848867
 30
0.0
  0
SPLINE
  5
267
330
1F
100
AcDbEntity
  8
SK1
  6
Continuous
370
    25
100
AcDbSpline
210
0.0
220
0.0
230
1.0
 70
     8
 71
     3
 72
    13
 73
     9
 74
     0
 42
0.000000001
 43
0.00000001
 40
0.0
 40
0.0
 40
0.0
 40
0.0
 40
0.2244981567973672
 40
0.4494848502031519
 40
0.6768832174014109
 40
0.9057220897780375
 40
0.9528510796797701
 40
1.0
 40
1.0
 40
1.0
 40
1.0
 10
164.278312163513
 20
9.577407561511288
 30
0.0
 10
164.3585297279598
 20
9.797466387093518
 30
0.0
 10
164.5191394204996
 20
10.23806291431577
 30
0.0
 10
164.722256373828
 20
10.91480366129523
 30
0.0
 10
164.8845775740453
 20
11.6072141682647
 30
0.0
 10
164.9611063705181
 20
12.12756476742302
 30
0.0
 10
164.9908209221261
 20
12.46333923368137
 30
0.0
 10
164.9969398761916
 20
12.56150047687847
 30
0.0
 10
165.0
 20
12.61059147415596
 30
0.0
  0
SPLINE
  5
268
330
1F
100
AcDbEntity
  8
SK1
  6
Continuous
370
    25
100
AcDbSpline
210
0.0
220
0.0
230
1.0
 70
    24
 71
     3
 72
     9
 73
     5
 74
     0
 42
0.000000001
 43
0.00000001
 40
0.0
 40
0.0
 40
0.0
 40
0.0
 40
0.6824251587927205
 40
0.9999999999999999
 40
0.9999999999999999
 40
0.9999999999999999
 40
0.9999999999999999
 10
165.0
 20
9.01899999999999
 30
0.0
 10
164.8999716893177
 20
9.018999999999982
 30
0.0
 10
164.7533939886081
 20
9.018999999999968
 30
0.0
 10
164.3928210554913
 20
9.018999999999975
 30
0.0
 10
164.278312163513
 20
9.018999999999975
 30
0.0
  0
SPLINE
  5
269
330
1F
100
AcDbEntity
  8
SK1
  6
Continuous
370
    25
100
AcDbSpline
210
0.0
220
0.0
230
1.0
 70
    24
 71
     3
 72
    10
 73
     6
 74
     0
 42
0.000000001
 43
0.00000001
 40
0.0
 40
0.0
 40
0.0
 40
0.0
 40
0.449587448994128
 40
0.9056774910165741
 40
1.0
 40
1.0
 40
1.0
 40
1.0
 10
164.278312163513
 20
16.981
 30
0.0
 10
164.4343519540849
 20
16.981
 30
0.0
 10
164.7486884115197
 20
16.98100000000001
 30
0.0
 10
164.9532144559927
 20
16.98099999999999
 30
0.0
 10
164.9931554367541
 20
16.981
 30
0.0
 10
164.9999999999999
 20
16.981
 30
0.0
  0
SPLINE
  5
26A
330
1F
100
AcDbEntity
  8
SK1
  6
Continuous
370
    25
100
AcDbSpline
210
0.0
220
0.0
230
1.0
 70
    24
 71
     3
 72
     9
 73
     5
 74
     0
 42
0.000000001
 43
0.00000001
 40
0.0
 40
0.0
 40
0.0
 40
0.0
 40
0.6824251587927205
 40
0.9999999999999999
 40
0.9999999999999999
 40
0.9999999999999999
 40
0.9999999999999999
 10
165.0
 20
-16.981
 30
0.0
 10
164.8999716893177
 20
-16.98100000000001
 30
0.0
 10
164.7533939886081
 20
-16.98100000000002
 30
0.0
 10
164.3928210554913
 20
-16.98100000000002
 30
0.0
 10
164.278312163513
 20
-16.98100000000002
 30
0.0
  0
SPLINE
  5
26B
330
1F
100
AcDbEntity
  8
SK1
  6
Continuous
370
    25
100
AcDbSpline
210
0.0
220
0.0
230
1.0
 70
     8
 71
     3
 72
    13
 73
     9
 74
     0
 42
0.000000001
 43
0.00000001
 40
0.0
 40
0.0
 40
0.0
 40
0.0
 40
0.2244981567973673
 40
0.4494848502031526
 40
0.6768832174014116
 40
0.9057220897780375
 40
0.95285107967977
 40
1.0
 40
1.0
 40
1.0
 40
1.0
 10
164.278312163513
 20
-16.42259243848872
 30
0.0
 10
164.3585297279597
 20
-16.20253361290648
 30
0.0
 10
164.5191394204996
 20
-15.76193708568423
 30
0.0
 10
164.7222563738279
 20
-15.08519633870476
 30
0.0
 10
164.8845775740452
 20
-14.3927858317353
 30
0.0
 10
164.9611063705181
 20
-13.87243523257697
 30
0.0
 10
164.9908209221262
 20
-13.53666076631863
 30
0.0
 10
164.9969398761916
 20
-13.43849952312154
 30
0.0
 10
165.0
 20
-13.38940852584404
 30
0.0
  0
SPLINE
  5
26C
330
1F
100
AcDbEntity
  8
SK1
  6
Continuous
370
    25
100
AcDbSpline
210
0.0
220
0.0
230
1.0
 70
     8
 71
     3
 72
    28
 73
    24
 74
     0
 42
0.000000001
 43
0.00000001
 40
0.0
 40
0.0
 40
0.0
 40
0.0
 40
0.0052537112711933
 40
0.0133499177928802
 40
0.0278688618585281
 40
0.0586216712379161
 40
0.0901957072629547
 40
0.2125475467522457
 40
0.3361907762950968
 40
0.4854698685517442
 40
0.6364768148949573
 40
0.686103003252896
 40
0.7359458034483326
 40
0.7946254087639075
 40
0.8544158251364332
 40
0.8765819969527485
 40
0.8989788406420497
 40
0.9211818709886971
 40
0.9440524603260358
 40
0.95852913665748
 40
0.9734609552158239
 40
0.9978764216935789
 40
1.0
 40
1.0
 40
1.0
 40
1.0
 10
160.0296155740811
 20
-13.50179203859769
 30
0.0
 10
160.0330942578883
 20
-13.50210416488259
 30
0.0
 10
160.0419337506688
 20
-13.50289729187973
 30
0.0
 10
160.0585559287109
 20
-13.51191678965732
 30
0.0
 10
160.083250514121
 20
-13.53747620606004
 30
0.0
 10
160.1086478668071
 20
-13.58190617200261
 30
0.0
 10
160.1578717474471
 20
-13.69340706906844
 30
0.0
 10
160.2105816103935
 20
-13.86970486325434
 30
0.0
 10
160.2689360688952
 20
-14.124053195358
 30
0.0
 10
160.3098559286561
 20
-14.40135163335072
 30
0.0
 10
160.3193158544686
 20
-14.63299840195007
 30
0.0
 10
160.307804633749
 20
-14.79807042494957
 30
0.0
 10
160.2935150338839
 20
-14.90161013083655
 30
0.0
 10
160.2682769909491
 20
-15.01002731303643
 30
0.0
 10
160.2347923478041
 20
-15.09726007900957
 30
0.0
 10
160.2006300283264
 20
-15.15719854582943
 30
0.0
 10
160.1748722688984
 20
-15.19310200080964
 30
0.0
 10
160.1442341780475
 20
-15.22565360332652
 30
0.0
 10
160.1124223564546
 20
-15.24928670657319
 30
0.0
 10
160.0810963717516
 20
-15.26416348112361
 30
0.0
 10
160.0466175602403
 20
-15.27346668026383
 30
0.0
 10
160.0185502498492
 20
-15.27329775541543
 30
0.0
 10
160.0013743650758
 20
-15.26984562691427
 30
0.0
 10
160.0
 20
-15.26956939748493
 30
0.0
  0
SPLINE
  5
26D
330
1F
100
AcDbEntity
  8
SK1
  6
Continuous
370
    25
100
AcDbSpline
210
0.0
220
0.0
230
1.0
 70
     8
 71
     3
 72
    23
 73
    19
 74
     0
 42
0.000000001
 43
0.00000001
 40
0.0
 40
0.0
 40
0.0
 40
0.0
 40
0.0252984181612683
 40
0.0496769841753891
 40
0.0845162882360821
 40
0.1409160613132504
 40
0.2498471392922396
 40
0.4899444837815525
 40
0.651772860014262
 40
0.7638052870045501
 40
0.8403018843406405
 40
0.8922273334584006
 40
0.9274961687449613
 40
0.9516172707880476
 40
0.9751835207372644
 40
0.9852777115355196
 40
0.9954907444420843
 40
1.0
 40
1.0
 40
1.0
 40
1.0
 10
160.0
 20
-10.73043060251509
 30
0.0
 10
160.0167723365768
 20
-10.7286433508666
 30
0.0
 10
160.0497071664701
 20
-10.72513383215701
 30
0.0
 10
160.1038234174254
 20
-10.74362380513924
 30
0.0
 10
160.1656534669202
 20
-10.7900207958367
 30
0.0
 10
160.241149667518
 20
-10.90106135470268
 30
0.0
 10
160.3194904163371
 20
-11.16027566781965
 30
0.0
 10
160.3215881098485
 20
-11.50182062572404
 30
0.0
 10
160.2758493465267
 20
-11.83762499699919
 30
0.0
 10
160.2266902713931
 20
-12.06362175095388
 30
0.0
 10
160.1845007390709
 20
-12.21655218258629
 30
0.0
 10
160.1503513787232
 20
-12.31899202384788
 30
0.0
 10
160.1229733214973
 20
-12.38721889918583
 30
0.0
 10
160.098699879215
 20
-12.43619597720892
 30
0.0
 10
160.0778595170458
 20
-12.46859168516115
 30
0.0
 10
160.0571320224071
 20
-12.48878157712117
 30
0.0
 10
160.0423292084813
 20
-12.49721619224225
 30
0.0
 10
160.0325965633617
 20
-12.4979754194602
 30
0.0
 10
160.0296155740811
 20
-12.49820796140234
 30
0.0
  0
SPLINE
  5
26E
330
1F
100
AcDbEntity
  8
SK1
  6
Continuous
370
    25
100
AcDbSpline
210
0.0
220
0.0
230
1.0
 70
     8
 71
     3
 72
     9
 73
     5
 74
     0
 42
0.000000001
 43
0.00000001
 40
0.0
 40
0.0
 40
0.0
 40
0.0
 40
0.6824251587927259
 40
1.0
 40
1.0
 40
1.0
 40
1.0
 10
165.0
 20
-12.61059147415601
 30
0.0
 10
164.8999716893177
 20
-11.90359016655729
 30
0.0
 10
164.7533939886081
 20
-10.86757720822869
 30
0.0
 10
164.3928210554913
 20
-9.888376933324231
 30
0.0
 10
164.278312163513
 20
-9.577407561511324
 30
0.0
  0
SPLINE
  5
26F
330
1F
100
AcDbEntity
  8
SK1
  6
Continuous
370
    25
100
AcDbSpline
210
0.0
220
0.0
230
1.0
 70
    24
 71
     3
 72
    10
 73
     6
 74
     0
 42
0.000000001
 43
0.00000001
 40
0.0
 40
0.0
 40
0.0
 40
0.0
 40
0.449587448994128
 40
0.9056774910165741
 40
1.0
 40
1.0
 40
1.0
 40
1.0
 10
164.278312163513
 20
-9.018999999999997
 30
0.0
 10
164.4343519540849
 20
-9.018999999999997
 30
0.0
 10
164.7486884115197
 20
-9.019000000000002
 30
0.0
 10
164.9532144559927
 20
-9.01899999999999
 30
0.0
 10
164.9931554367541
 20
-9.018999999999997
 30
0.0
 10
165.0
 20
-9.018999999999997
 30
0.0
  0
SPLINE
  5
270
330
1F
100
AcDbEntity
  8
1
  6
Continuous
370
    25
100
AcDbSpline
210
0.0
220
0.0
230
1.0
 70
    24
 71
     2
 72
     6
 73
     3
 74
     0
 42
0.000000001
 43
0.00000001
 40
0.0
 40
0.0
 40
0.0
 40
0.25
 40
0.25
 40
0.25
 10
3.199999999999981
 20
18.35000000000001
 30
0.0
 10
3.215534372041293
 20
18.35
 30
0.0
 10
3.247177760214728
 20
18.35
 30
0.0
  0
SPLINE
  5
271
330
1F
100
AcDbEntity
  8
1
  6
Continuous
370
    25
100
AcDbSpline
210
0.0
220
0.0
230
1.0
 70
    24
 71
     3
 72
     8
 73
     4
 74
     0
 42
0.000000001
 43
0.00000001
 40
0.25
 40
0.25
 40
0.25
 40
0.25
 40
0.5
 40
0.5
 40
0.5
 40
0.5
 10
3.247177760214728
 20
18.35
 30
0.0
 10
3.278821148388178
 20
18.35
 30
0.0
 10
3.326877628883978
 20
18.35
 30
0.0
 10
3.391635253097811
 20
18.35
 30
0.0
  0
SPLINE
  5
272
330
1F
100
AcDbEntity
  8
1
  6
Continuous
370
    25
100
AcDbSpline
210
0.0
220
0.0
230
1.0
 70
    24
 71
     3
 72
     8
 73
     4
 74
     0
 42
0.000000001
 43
0.00000001
 40
0.5
 40
0.5
 40
0.5
 40
0.5
 40
0.75
 40
0.75
 40
0.75
 40
0.75
 10
3.391635253097811
 20
18.35
 30
0.0
 10
3.456392877311643
 20
18.35
 30
0.0
 10
3.537993436572323
 20
18.35
 30
0.0
 10
3.634449963809433
 20
18.35
 30
0.0
  0
SPLINE
  5
273
330
1F
100
AcDbEntity
  8
1
  6
Continuous
370
    25
100
AcDbSpline
210
0.0
220
0.0
230
1.0
 70
    24
 71
     3
 72
     8
 73
     4
 74
     0
 42
0.000000001
 43
0.00000001
 40
0.75
 40
0.75
 40
0.75
 40
0.75
 40
1.0
 40
1.0
 40
1.0
 40
1.0
 10
3.634449963809433
 20
18.35
 30
0.0
 10
3.730906491046557
 20
18.35
 30
0.0
 10
3.839318178829626
 20
18.35
 30
0.0
 10
3.949999999999982
 20
18.35
 30
0.0
  0
SPLINE
  5
274
330
1F
100
AcDbEntity
  8
1
  6
Continuous
370
    25
100
AcDbSpline
210
0.0
220
0.0
230
1.0
 70
     8
 71
     3
 72
    10
 73
     6
 74
     0
 42
0.000000001
 43
0.00000001
 40
0.0
 40
0.0
 40
0.0
 40
0.0
 40
0.4999999999999999
 40
0.4999999999999999
 40
1.0
 40
1.0
 40
1.0
 40
1.0
 10
3.949999999999982
 20
-30.53358776427178
 30
0.0
 10
3.826318115544125
 20
-30.53358776427179
 30
0.0
 10
3.70544722749834
 20
-30.50833802770949
 30
0.0
 10
3.496316285221193
 20
-30.41926076636113
 30
0.0
 10
3.40780083773079
 20
-30.35547514931004
 30
0.0
 10
3.342360453319898
 20
-30.2820605937115
 30
0.0
  0
SPLINE
  5
275
330
1F
100
AcDbEntity
  8
1
  6
Continuous
370
    25
100
AcDbSpline
210
0.0
220
0.0
230
1.0
 70
     8
 71
     3
 72
    10
 73
     6
 74
     0
 42
0.000000001
 43
0.00000001
 40
0.0
 40
0.0
 40
0.0
 40
0.0
 40
0.5
 40
0.5
 40
1.0
 40
1.0
 40
1.0
 40
1.0
 10
3.199999999999994
 20
-29.78466006185076
 30
0.0
 10
3.199999999999994
 20
-29.87712012820498
 30
0.0
 10
3.21538982722569
 20
-29.96624675861323
 30
0.0
 10
3.266393651242053
 20
-30.13471290210241
 30
0.0
 10
3.301031328939483
 20
-30.2112171993546
 30
0.0
 10
3.342360453319898
 20
-30.2820605937115
 30
0.0
  0
SPLINE
  5
276
330
1F
100
AcDbEntity
  8
1
  6
Continuous
370
    25
100
AcDbSpline
210
0.0
220
0.0
230
1.0
 70
     8
 71
     3
 72
     8
 73
     4
 74
     0
 42
0.000000001
 43
0.00000001
 40
0.0000004440048905
 40
0.0000004440048905
 40
0.0000004440048905
 40
0.0000004440048905
 40
0.0009646370243566
 40
0.0009646370243566
 40
0.0009646370243566
 40
0.0009646370243566
 10
14.63683664205673
 20
-30.53358776427178
 30
0.0
 10
14.49206487059568
 20
-30.33068680506049
 30
0.0
 10
14.34771576981214
 20
-30.1276347346489
 30
0.0
 10
14.20382394016452
 20
-29.92442104703123
 30
0.0
  0
SPLINE
  5
277
330
1F
100
AcDbEntity
  8
1
  6
Continuous
370
    25
100
AcDbSpline
210
0.0
220
0.0
230
1.0
 70
     8
 71
     3
 72
     8
 73
     4
 74
     0
 42
0.000000001
 43
0.00000001
 40
0.0
 40
0.0
 40
0.0
 40
0.0
 40
1.0
 40
1.0
 40
1.0
 40
1.0
 10
14.20382394016452
 20
-29.92442104703123
 30
0.0
 10
13.81177768610548
 20
-29.22097001196247
 30
0.0
 10
13.42044485904747
 20
-28.51711624119465
 30
0.0
 10
13.02999999999999
 20
-27.81278402659763
 30
0.0
  0
SPLINE
  5
278
330
1F
100
AcDbEntity
  8
1
  6
Continuous
370
    25
100
AcDbSpline
210
0.0
220
0.0
230
1.0
 70
    24
 71
     3
 72
     8
 73
     4
 74
     0
 42
0.000000001
 43
0.00000001
 40
0.0
 40
0.0
 40
0.0
 40
0.0
 40
1.0
 40
1.0
 40
1.0
 40
1.0
 10
13.02999999999996
 20
18.34999999999999
 30
0.0
 10
13.55320414498337
 20
18.34999999999999
 30
0.0
 10
14.09000628914506
 20
18.34999999999999
 30
0.0
 10
14.6368366420567
 20
18.35
 30
0.0
  0
SPLINE
  5
279
330
1F
100
AcDbEntity
  8
1
  6
Continuous
370
    25
100
AcDbSpline
210
0.0
220
0.0
230
1.0
 70
    24
 71
     3
 72
     8
 73
     4
 74
     0
 42
0.000000001
 43
0.00000001
 40
0.0
 40
0.0
 40
0.0
 40
0.0
 40
0.2500000000000016
 40
0.2500000000000016
 40
0.2500000000000016
 40
0.2500000000000016
 10
18.29999999999998
 20
18.35
 30
0.0
 10
18.41088345614662
 20
18.35000000000001
 30
0.0
 10
18.52024195941293
 20
18.34999999999999
 30
0.0
 10
18.61523568267816
 20
18.35
 30
0.0
  0
SPLINE
  5
27A
330
1F
100
AcDbEntity
  8
1
  6
Continuous
370
    25
100
AcDbSpline
210
0.0
220
0.0
230
1.0
 70
    24
 71
     3
 72
     8
 73
     4
 74
     0
 42
0.000000001
 43
0.00000001
 40
0.2500000000000016
 40
0.2500000000000016
 40
0.2500000000000016
 40
0.2500000000000016
 40
0.5000000000000032
 40
0.5000000000000032
 40
0.5000000000000032
 40
0.5000000000000032
 10
18.61523568267816
 20
18.35
 30
0.0
 10
18.71022940594341
 20
18.35000000000001
 30
0.0
 10
18.79255896697543
 20
18.35
 30
0.0
 10
18.85764337275062
 20
18.35
 30
0.0
  0
SPLINE
  5
27B
330
1F
100
AcDbEntity
  8
1
  6
Continuous
370
    25
100
AcDbSpline
210
0.0
220
0.0
230
1.0
 70
    24
 71
     2
 72
     6
 73
     3
 74
     0
 42
0.000000001
 43
0.00000001
 40
0.5000000000000032
 40
0.5000000000000032
 40
0.5000000000000032
 40
1.0
 40
1.0
 40
1.0
 10
18.85764337275062
 20
18.35
 30
0.0
 10
18.987812184301
 20
18.35
 30
0.0
 10
19.04999999999997
 20
18.35
 30
0.0
  0
SPLINE
  5
27C
330
1F
100
AcDbEntity
  8
1
  6
Continuous
370
    25
100
AcDbSpline
210
0.0
220
0.0
230
1.0
 70
     8
 71
     3
 72
    10
 73
     6
 74
     0
 42
0.000000001
 43
0.00000001
 40
0.0
 40
0.0
 40
0.0
 40
0.0
 40
0.5
 40
0.5
 40
1.0
 40
1.0
 40
1.0
 40
1.0
 10
18.90763954668015
 20
-30.28206059371139
 30
0.0
 10
18.94896960347753
 20
-30.21121560107276
 30
0.0
 10
18.9836129959346
 20
-30.13470227547466
 30
0.0
 10
19.03462559934336
 20
-29.96618447053391
 30
0.0
 10
19.04999999999998
 20
-29.87712297453909
 30
0.0
 10
19.04999999999998
 20
-29.78466006185072
 30
0.0
  0
SPLINE
  5
27D
330
1F
100
AcDbEntity
  8
1
  6
Continuous
370
    25
100
AcDbSpline
210
0.0
220
0.0
230
1.0
 70
     8
 71
     3
 72
    12
 73
     8
 74
     0
 42
0.000000001
 43
0.00000001
 40
0.0
 40
0.0
 40
0.0
 40
0.0
 40
0.4999999999999944
 40
0.4999999999999944
 40
0.7499999999999972
 40
0.7499999999999972
 40
1.0
 40
1.0
 40
1.0
 40
1.0
 10
18.90763954668015
 20
-30.28206059371139
 30
0.0
 10
18.84276607838319
 20
-30.35483915221215
 30
0.0
 10
18.75419110941041
 20
-30.41892553564753
 30
0.0
 10
18.59767483694424
 20
-30.48577014250388
 30
0.0
 10
18.54014364709396
 20
-30.50371893958428
 30
0.0
 10
18.42257634129883
 20
-30.5274318303503
 30
0.0
 10
18.36216632088479
 20
-30.53358776427178
 30
0.0
 10
18.29999999999998
 20
-30.53358776427178
 30
0.0
  0
SPLINE
  5
27E
330
1F
100
AcDbEntity
  8
1
  6
Continuous
370
    25
100
AcDbSpline
210
0.0
220
0.0
230
1.0
 70
     8
 71
     3
 72
     8
 73
     4
 74
     0
 42
0.000000001
 43
0.00000001
 40
0.0
 40
0.0
 40
0.0
 40
0.0
 40
1.0
 40
1.0
 40
1.0
 40
1.0
 10
9.199999999999985
 20
-27.81278402659764
 30
0.0
 10
8.809555140952483
 20
-28.51711624119466
 30
0.0
 10
8.418222313894496
 20
-29.22097001196248
 30
0.0
 10
8.026176059835437
 20
-29.92442104703123
 30
0.0
  0
SPLINE
  5
27F
330
1F
100
AcDbEntity
  8
1
  6
Continuous
370
    25
100
AcDbSpline
210
0.0
220
0.0
230
1.0
 70
     8
 71
     3
 72
     8
 73
     4
 74
     0
 42
0.000000001
 43
0.00000001
 40
0.0000003163145216
 40
0.0000003163145216
 40
0.0000003163145216
 40
0.0000003163145216
 40
0.0009645093339877
 40
0.0009645093339877
 40
0.0009645093339877
 40
0.0009645093339877
 10
8.026176059835437
 20
-29.92442104703123
 30
0.0
 10
7.882284230187817
 20
-30.1276347346489
 30
0.0
 10
7.73793512940428
 20
-30.33068680506049
 30
0.0
 10
7.593163357943217
 20
-30.53358776427178
 30
0.0
  0
SPLINE
  5
280
330
1F
100
AcDbEntity
  8
1
  6
Continuous
370
    25
100
AcDbSpline
210
0.0
220
0.0
230
1.0
 70
    24
 71
     3
 72
     8
 73
     4
 74
     0
 42
0.000000001
 43
0.00000001
 40
0.0
 40
0.0
 40
0.0
 40
0.0
 40
1.0
 40
1.0
 40
1.0
 40
1.0
 10
7.593163357943217
 20
18.35
 30
0.0
 10
8.140470151277265
 20
18.35
 30
0.0
 10
8.677299140454675
 20
18.35
 30
0.0
 10
9.199999999999985
 20
18.35
 30
0.0
  0
SPLINE
  5
281
330
1F
100
AcDbEntity
  8
1
  6
Continuous
370
    25
100
AcDbSpline
210
0.0
220
0.0
230
1.0
 70
     8
 71
     3
 72
    12
 73
     8
 74
     0
 42
0.000000001
 43
0.00000001
 40
0.0
 40
0.0
 40
0.0
 40
0.0
 40
0.2499999999999981
 40
0.2499999999999981
 40
0.4999999999999961
 40
0.4999999999999961
 40
1.0
 40
1.0
 40
1.0
 40
1.0
 10
9.949999999999998
 20
-26.80430888868439
 30
0.0
 10
9.850064866237112
 20
-26.80430888868439
 30
0.0
 10
9.74990966092713
 20
-26.82550499496673
 30
0.0
 10
9.565589282947926
 20
-26.90695638543152
 30
0.0
 10
9.482700261075848
 20
-26.96638523181515
 30
0.0
 10
9.276358706276076
 20
-27.18652348670551
 30
0.0
 10
9.199999999999985
 20
-27.38731056125058
 30
0.0
 10
9.199999999999985
 20
-27.58683517549641
 30
0.0
  0
SPLINE
  5
282
330
1F
100
AcDbEntity
  8
1
  6
Continuous
370
    25
100
AcDbSpline
210
0.0
220
0.0
230
1.0
 70
    24
 71
     2
 72
     6
 73
     3
 74
     0
 42
0.000000001
 43
0.00000001
 40
0.0
 40
0.0
 40
0.0
 40
0.25
 40
0.25
 40
0.25
 10
9.199999999999985
 20
18.35
 30
0.0
 10
9.215166861193739
 20
18.34999999999999
 30
0.0
 10
9.245806781973121
 20
18.35
 30
0.0
  0
SPLINE
  5
283
330
1F
100
AcDbEntity
  8
1
  6
Continuous
370
    25
100
AcDbSpline
210
0.0
220
0.0
230
1.0
 70
    24
 71
     3
 72
     8
 73
     4
 74
     0
 42
0.000000001
 43
0.00000001
 40
0.25
 40
0.25
 40
0.25
 40
0.25
 40
0.5
 40
0.5
 40
0.5
 40
0.5
 10
9.245806781973121
 20
18.35
 30
0.0
 10
9.276446702752503
 20
18.35
 30
0.0
 10
9.322918752353221
 20
18.35
 30
0.0
 10
9.385958982750742
 20
18.35
 30
0.0
  0
SPLINE
  5
284
330
1F
100
AcDbEntity
  8
1
  6
Continuous
370
    25
100
AcDbSpline
210
0.0
220
0.0
230
1.0
 70
    24
 71
     3
 72
     8
 73
     4
 74
     0
 42
0.000000001
 43
0.00000001
 40
0.5
 40
0.5
 40
0.5
 40
0.5
 40
0.75
 40
0.75
 40
0.75
 40
0.75
 10
9.385958982750742
 20
18.35
 30
0.0
 10
9.448999213148262
 20
18.35
 30
0.0
 10
9.529064162572917
 20
18.35
 30
0.0
 10
9.626398333053384
 20
18.35
 30
0.0
  0
SPLINE
  5
285
330
1F
100
AcDbEntity
  8
1
  6
Continuous
370
    25
100
AcDbSpline
210
0.0
220
0.0
230
1.0
 70
    24
 71
     3
 72
     8
 73
     4
 74
     0
 42
0.000000001
 43
0.00000001
 40
0.75
 40
0.75
 40
0.75
 40
0.75
 40
1.0
 40
1.0
 40
1.0
 40
1.0
 10
9.626398333053384
 20
18.35
 30
0.0
 10
9.723732503533867
 20
18.35
 30
0.0
 10
9.836381831357071
 20
18.35
 30
0.0
 10
9.949999999999987
 20
18.35
 30
0.0
  0
SPLINE
  5
286
330
1F
100
AcDbEntity
  8
1
  6
Continuous
370
    25
100
AcDbSpline
210
0.0
220
0.0
230
1.0
 70
     8
 71
     3
 72
    12
 73
     8
 74
     0
 42
0.000000001
 43
0.00000001
 40
0.0
 40
0.0
 40
0.0
 40
0.0
 40
0.5000000000000017
 40
0.5000000000000017
 40
0.7500000000000008
 40
0.7500000000000008
 40
1.0
 40
1.0
 40
1.0
 40
1.0
 10
13.03
 20
-27.5868351754964
 30
0.0
 10
13.03
 20
-27.38680575552025
 30
0.0
 10
12.95248800893492
 20
-27.18521486354957
 30
0.0
 10
12.74766481633294
 20
-26.96681389309105
 30
0.0
 10
12.6639935941288
 20
-26.90681244239396
 30
0.0
 10
12.4810020106378
 20
-26.82586758861249
 30
0.0
 10
12.38080217920789
 20
-26.80430888868439
 30
0.0
 10
12.27999999999999
 20
-26.80430888868439
 30
0.0
  0
SPLINE
  5
287
330
1F
100
AcDbEntity
  8
1
  6
Continuous
370
    25
100
AcDbSpline
210
0.0
220
0.0
230
1.0
 70
    24
 71
     3
 72
     8
 73
     4
 74
     0
 42
0.000000001
 43
0.00000001
 40
0.0
 40
0.0
 40
0.0
 40
0.0
 40
0.2499999999999994
 40
0.2499999999999994
 40
0.2499999999999994
 40
0.2499999999999994
 10
12.28000000000001
 20
18.35
 30
0.0
 10
12.39387251328287
 20
18.35
 30
0.0
 10
12.50776080994781
 20
18.34999999999999
 30
0.0
 10
12.60403578072328
 20
18.35
 30
0.0
  0
SPLINE
  5
288
330
1F
100
AcDbEntity
  8
1
  6
Continuous
370
    25
100
AcDbSpline
210
0.0
220
0.0
230
1.0
 70
    24
 71
     3
 72
     8
 73
     4
 74
     0
 42
0.000000001
 43
0.00000001
 40
0.2499999999999994
 40
0.2499999999999994
 40
0.2499999999999994
 40
0.2499999999999994
 40
0.4999999999999989
 40
0.4999999999999989
 40
0.4999999999999989
 40
0.4999999999999989
 10
12.60403578072328
 20
18.35
 30
0.0
 10
12.70031075149874
 20
18.35000000000001
 30
0.0
 10
12.78072688590697
 20
18.35000000000001
 30
0.0
 10
12.8439936370323
 20
18.35
 30
0.0
  0
SPLINE
  5
289
330
1F
100
AcDbEntity
  8
1
  6
Continuous
370
    25
100
AcDbSpline
210
0.0
220
0.0
230
1.0
 70
    24
 71
     2
 72
     6
 73
     3
 74
     0
 42
0.000000001
 43
0.00000001
 40
0.4999999999999989
 40
0.4999999999999989
 40
0.4999999999999989
 40
1.0
 40
1.0
 40
1.0
 10
12.8439936370323
 20
18.35
 30
0.0
 10
12.97052713928296
 20
18.34999999999999
 30
0.0
 10
13.02999999999999
 20
18.34999999999999
 30
0.0
  0
SPLINE
  5
28A
330
1F
100
AcDbEntity
  8
1
  6
Continuous
370
    25
100
AcDbSpline
210
0.0
220
0.0
230
1.0
 70
     8
 71
     3
 72
     8
 73
     4
 74
     0
 42
0.000000001
 43
0.00000001
 40
0.0
 40
0.0
 40
0.0
 40
0.0
 40
1.0
 40
1.0
 40
1.0
 40
1.0
 10
9.199999999999985
 20
22.41333264622123
 30
0.0
 10
8.676711774190855
 20
23.5847100263926
 30
0.0
 10
8.139792627971307
 20
24.75004802855929
 30
0.0
 10
7.593163357943217
 20
25.91022964004771
 30
0.0
  0
SPLINE
  5
28B
330
1F
100
AcDbEntity
  8
1
  6
Continuous
370
    25
100
AcDbSpline
210
0.0
220
0.0
230
1.0
 70
     8
 71
     3
 72
    12
 73
     8
 74
     0
 42
0.000000001
 43
0.00000001
 40
0.0
 40
0.0
 40
0.0
 40
0.0
 40
0.25
 40
0.25
 40
0.5
 40
0.5
 40
1.0
 40
1.0
 40
1.0
 40
1.0
 10
9.949999999999992
 20
21.14893614345662
 30
0.0
 10
9.835936901806347
 20
21.14893614345662
 30
0.0
 10
9.721259457052343
 20
21.18584712701705
 30
0.0
 10
9.529550461759733
 20
21.30745805589333
 30
0.0
 10
9.44896243167285
 20
21.39173613326
 30
0.0
 10
9.259830884989963
 20
21.67557833508073
 30
0.0
 10
9.199999999999985
 20
21.90610457426623
 30
0.0
 10
9.199999999999985
 20
22.13232929449599
 30
0.0
  0
SPLINE
  5
28C
330
1F
100
AcDbEntity
  8
1
  6
Continuous
370
    25
100
AcDbSpline
210
0.0
220
0.0
230
1.0
 70
     8
 71
     3
 72
    14
 73
    10
 74
     0
 42
0.000000001
 43
0.00000001
 40
0.0
 40
0.0
 40
0.0
 40
0.0
 40
0.25
 40
0.25
 40
0.5
 40
0.5
 40
0.75
 40
0.75
 40
1.0
 40
1.0
 40
1.0
 40
1.0
 10
13.02999999999994
 20
22.13232929449595
 30
0.0
 10
13.02999999999994
 20
22.01826902485112
 30
0.0
 10
13.01506237934912
 20
21.9062055272833
 30
0.0
 10
12.9534626766234
 20
21.68631926902339
 30
0.0
 10
12.90761723370811
 20
21.58180217631511
 30
0.0
 10
12.78106163491501
 20
21.39167307641906
 30
0.0
 10
12.70088587990452
 20
21.30757882093607
 30
0.0
 10
12.50695573392861
 20
21.18487204837227
 30
0.0
 10
12.39354933538725
 20
21.14893614345662
 30
0.0
 10
12.27999999999999
 20
21.14893614345662
 30
0.0
  0
SPLINE
  5
28D
330
1F
100
AcDbEntity
  8
1
  6
Continuous
370
    25
100
AcDbSpline
210
0.0
220
0.0
230
1.0
 70
     8
 71
     3
 72
     8
 73
     4
 74
     0
 42
0.000000001
 43
0.00000001
 40
0.0
 40
0.0
 40
0.0
 40
0.0
 40
1.0
 40
1.0
 40
1.0
 40
1.0
 10
14.63683664205673
 20
25.91022964004766
 30
0.0
 10
14.09012227777953
 20
24.7498674220889
 30
0.0
 10
13.55294133690066
 20
23.58393351776749
 30
0.0
 10
13.02999999999994
 20
22.41333264622117
 30
0.0
  0
SPLINE
  5
28E
330
1F
100
AcDbEntity
  8
1
  6
Continuous
370
    25
100
AcDbSpline
210
0.0
220
0.0
230
1.0
 70
     8
 71
     3
 72
    14
 73
    10
 74
     0
 42
0.000000001
 43
0.00000001
 40
0.0
 40
0.0
 40
0.0
 40
0.0
 40
0.25
 40
0.25
 40
0.5
 40
0.5
 40
0.75
 40
0.75
 40
1.0
 40
1.0
 40
1.0
 40
1.0
 10
19.05
 20
24.98554582153458
 30
0.0
 10
19.05
 20
25.09511951628439
 30
0.0
 10
19.03421225329057
 20
25.20571872585111
 30
0.0
 10
18.97116178764256
 20
25.41445574332477
 30
0.0
 10
18.92271483449101
 20
25.51595796020201
 30
0.0
 10
18.79360389711931
 20
25.69293989561363
 30
0.0
 10
18.71142955262484
 20
25.77032425271894
 30
0.0
 10
18.51974491589364
 20
25.87939623808181
 30
0.0
 10
18.41038882700791
 20
25.91022964004766
 30
0.0
 10
18.29999999999998
 20
25.91022964004766
 30
0.0
  0
SPLINE
  5
28F
330
1F
100
AcDbEntity
  8
1
  6
Continuous
370
    25
100
AcDbSpline
210
0.0
220
0.0
230
1.0
 70
     8
 71
     3
 72
    12
 73
     8
 74
     0
 42
0.000000001
 43
0.00000001
 40
0.0
 40
0.0
 40
0.0
 40
0.0
 40
0.25
 40
0.25
 40
0.5
 40
0.5
 40
1.0
 40
1.0
 40
1.0
 40
1.0
 10
3.949999999999995
 20
25.91022964004771
 30
0.0
 10
3.839158780826704
 20
25.91022964004771
 30
0.0
 10
3.730471818891842
 20
25.8793835529074
 30
0.0
 10
3.539648957222419
 20
25.77107303496583
 30
0.0
 10
3.457372067223949
 20
25.6941484278649
 30
0.0
 10
3.261852427533948
 20
25.42652197982712
 30
0.0
 10
3.199999999999911
 20
25.2045919857111
 30
0.0
 10
3.199999999999994
 20
24.98554582153411
 30
0.0
  0
SPLINE
  5
290
330
1F
100
AcDbEntity
  8
1
  6
Continuous
370
    25
100
AcDbSpline
210
0.0
220
0.0
230
1.0
 70
     8
 71
     3
 72
    10
 73
     6
 74
     0
 42
0.000000001
 43
0.00000001
 40
0.0
 40
0.0
 40
0.0
 40
0.0
 40
0.5
 40
0.5
 40
1.0
 40
1.0
 40
1.0
 40
1.0
 10
3.342360453319815
 20
30.28206059371139
 30
0.0
 10
3.301030396522422
 20
30.21121560107276
 30
0.0
 10
3.266387004065368
 20
30.13470227547466
 30
0.0
 10
3.215374400656598
 20
29.96618447053393
 30
0.0
 10
3.199999999999981
 20
29.8771229745391
 30
0.0
 10
3.199999999999981
 20
29.78466006185071
 30
0.0
  0
SPLINE
  5
291
330
1F
100
AcDbEntity
  8
1
  6
Continuous
370
    25
100
AcDbSpline
210
0.0
220
0.0
230
1.0
 70
     8
 71
     3
 72
    12
 73
     8
 74
     0
 42
0.000000001
 43
0.00000001
 40
0.0
 40
0.0
 40
0.0
 40
0.0
 40
0.5000000000000026
 40
0.5000000000000026
 40
0.7500000000000012
 40
0.7500000000000012
 40
1.0
 40
1.0
 40
1.0
 40
1.0
 10
3.342360453319815
 20
30.28206059371139
 30
0.0
 10
3.407233921616779
 20
30.35483915221216
 30
0.0
 10
3.495808890589549
 20
30.41892553564754
 30
0.0
 10
3.652325163055719
 20
30.48577014250388
 30
0.0
 10
3.709856352906021
 20
30.5037189395843
 30
0.0
 10
3.827423658701118
 20
30.52743183035031
 30
0.0
 10
3.88783367911516
 20
30.53358776427179
 30
0.0
 10
3.949999999999982
 20
30.53358776427178
 30
0.0
  0
SPLINE
  5
292
330
1F
100
AcDbEntity
  8
1
  6
Continuous
370
    25
100
AcDbSpline
210
0.0
220
0.0
230
1.0
 70
     8
 71
     3
 72
     8
 73
     4
 74
     0
 42
0.000000001
 43
0.00000001
 40
0.0
 40
0.0
 40
0.0
 40
0.0
 40
1.0
 40
1.0
 40
1.0
 40
1.0
 10
13.02999999999999
 20
27.81278402659762
 30
0.0
 10
13.42044729037803
 20
28.51712062712621
 30
0.0
 10
13.81177904993083
 20
29.22097245908283
 30
0.0
 10
14.20382394016452
 20
29.92442104703122
 30
0.0
  0
SPLINE
  5
293
330
1F
100
AcDbEntity
  8
1
  6
Continuous
370
    25
100
AcDbSpline
210
0.0
220
0.0
230
1.0
 70
     8
 71
     3
 72
     8
 73
     4
 74
     0
 42
0.000000001
 43
0.00000001
 40
0.0000003163145216
 40
0.0000003163145216
 40
0.0000003163145216
 40
0.0000003163145216
 40
0.0009645093339877
 40
0.0009645093339877
 40
0.0009645093339877
 40
0.0009645093339877
 10
14.20382394016452
 20
29.92442104703122
 30
0.0
 10
14.34771576981214
 20
30.1276347346489
 30
0.0
 10
14.49206487059568
 20
30.33068680506049
 30
0.0
 10
14.63683664205673
 20
30.53358776427178
 30
0.0
  0
SPLINE
  5
294
330
1F
100
AcDbEntity
  8
1
  6
Continuous
370
    25
100
AcDbSpline
210
0.0
220
0.0
230
1.0
 70
     8
 71
     3
 72
     8
 73
     4
 74
     0
 42
0.000000001
 43
0.00000001
 40
0.0000004440048905
 40
0.0000004440048905
 40
0.0000004440048905
 40
0.0000004440048905
 40
0.0009646370243567
 40
0.0009646370243567
 40
0.0009646370243567
 40
0.0009646370243567
 10
7.593163357943217
 20
30.53358776427178
 30
0.0
 10
7.73793512940428
 20
30.33068680506049
 30
0.0
 10
7.882284230187817
 20
30.1276347346489
 30
0.0
 10
8.026176059835437
 20
29.92442104703122
 30
0.0
  0
SPLINE
  5
295
330
1F
100
AcDbEntity
  8
1
  6
Continuous
370
    25
100
AcDbSpline
210
0.0
220
0.0
230
1.0
 70
     8
 71
     3
 72
     8
 73
     4
 74
     0
 42
0.000000001
 43
0.00000001
 40
0.0
 40
0.0
 40
0.0
 40
0.0
 40
1.0
 40
1.0
 40
1.0
 40
1.0
 10
8.026176059835437
 20
29.92442104703122
 30
0.0
 10
8.418220950069138
 20
29.22097245908283
 30
0.0
 10
8.809552709621943
 20
28.51712062712621
 30
0.0
 10
9.199999999999985
 20
27.81278402659764
 30
0.0
  0
SPLINE
  5
296
330
1F
100
AcDbEntity
  8
1
  6
Continuous
370
    25
100
AcDbSpline
210
0.0
220
0.0
230
1.0
 70
     8
 71
     3
 72
    12
 73
     8
 74
     0
 42
0.000000001
 43
0.00000001
 40
0.0
 40
0.0
 40
0.0
 40
0.0
 40
0.2499999999999992
 40
0.2499999999999992
 40
0.4999999999999984
 40
0.4999999999999984
 40
1.0
 40
1.0
 40
1.0
 40
1.0
 10
12.27999999999999
 20
26.80430888868439
 30
0.0
 10
12.38059001996729
 20
26.80430888868441
 30
0.0
 10
12.48028809727639
 20
26.82554900158559
 30
0.0
 10
12.66474148302932
 20
26.90714605874173
 30
0.0
 10
12.74688257132162
 20
26.9659541147566
 30
0.0
 10
12.95432685863017
 20
27.18722701822947
 30
0.0
 10
13.03
 20
27.38694221278437
 30
0.0
 10
13.03
 20
27.58683517549642
 30
0.0
  0
SPLINE
  5
297
330
1F
100
AcDbEntity
  8
1
  6
Continuous
370
    25
100
AcDbSpline
210
0.0
220
0.0
230
1.0
 70
     8
 71
     3
 72
    12
 73
     8
 74
     0
 42
0.000000001
 43
0.00000001
 40
0.0
 40
0.0
 40
0.0
 40
0.0
 40
0.4999999999999992
 40
0.4999999999999992
 40
0.7499999999999996
 40
0.7499999999999996
 40
1.0
 40
1.0
 40
1.0
 40
1.0
 10
9.199999999999985
 20
27.58683517549642
 30
0.0
 10
9.199999999999985
 20
27.38730486177285
 30
0.0
 10
9.27697718282737
 20
27.18608493015604
 30
0.0
 10
9.481794680501295
 20
26.96724120817089
 30
0.0
 10
9.566120850677235
 20
26.9066936263314
 30
0.0
 10
9.749719033840698
 20
26.82561714378248
 30
0.0
 10
9.850174032038028
 20
26.80430888868439
 30
0.0
 10
9.949999999999987
 20
26.80430888868439
 30
0.0
  0
SPLINE
  5
298
330
1F
100
AcDbEntity
  8
1
  6
Continuous
370
    25
100
AcDbSpline
210
0.0
220
0.0
230
1.0
 70
     8
 71
     3
 72
    10
 73
     6
 74
     0
 42
0.000000001
 43
0.00000001
 40
0.0
 40
0.0
 40
0.0
 40
0.0
 40
0.5
 40
0.5
 40
1.0
 40
1.0
 40
1.0
 40
1.0
 10
18.29999999999998
 20
30.53358776427178
 30
0.0
 10
18.42368188445584
 20
30.53358776427176
 30
0.0
 10
18.54455277250162
 20
30.50833802770947
 30
0.0
 10
18.75368371477878
 20
30.41926076636113
 30
0.0
 10
18.84219916226916
 20
30.35547514931005
 30
0.0
 10
18.90763954668005
 20
30.2820605937115
 30
0.0
  0
SPLINE
  5
299
330
1F
100
AcDbEntity
  8
1
  6
Continuous
370
    25
100
AcDbSpline
210
0.0
220
0.0
230
1.0
 70
     8
 71
     3
 72
    10
 73
     6
 74
     0
 42
0.000000001
 43
0.00000001
 40
0.0
 40
0.0
 40
0.0
 40
0.0
 40
0.5
 40
0.5
 40
1.0
 40
1.0
 40
1.0
 40
1.0
 10
19.04999999999997
 20
29.78466006185075
 30
0.0
 10
19.04999999999995
 20
29.87712012820497
 30
0.0
 10
19.03461017277426
 20
29.96624675861322
 30
0.0
 10
18.9836063487579
 20
30.1347129021024
 30
0.0
 10
18.94896867106045
 20
30.21121719935459
 30
0.0
 10
18.90763954668005
 20
30.2820605937115
 30
0.0
  0
SPLINE
  5
29A
330
1F
100
AcDbEntity
  8
SK3
  6
HIDDEN
370
    18
100
AcDbSpline
210
0.0
220
0.0
230
1.0
 70
     8
 71
     3
 72
    30
 73
    26
 74
     0
 42
0.000000001
 43
0.00000001
 40
0.4999999999999986
 40
0.4999999999999986
 40
0.4999999999999986
 40
0.4999999999999986
 40
0.5624999999999989
 40
0.5624999999999989
 40
0.624999999999999
 40
0.624999999999999
 40
0.6562499999999992
 40
0.6562499999999992
 40
0.6874999999999993
 40
0.6874999999999993
 40
0.7187499999999996
 40
0.7187499999999996
 40
0.7499999999999997
 40
0.7499999999999997
 40
0.7812499999999998
 40
0.7812499999999998
 40
0.8125
 40
0.8125
 40
0.8749999999999999
 40
0.8749999999999999
 40
0.9374999999999999
 40
0.9374999999999999
 40
0.96875
 40
0.96875
 40
1.0
 40
1.0
 40
1.0
 40
1.0
 10
11.76979658556575
 20
-4.897279110339468
 30
0.0
 10
11.91246294966133
 20
-4.882256760898252
 30
0.0
 10
12.04384136644408
 20
-4.88281979301974
 30
0.0
 10
12.28743240561787
 20
-4.928163099538012
 30
0.0
 10
12.4007403709436
 20
-4.971266772981795
 30
0.0
 10
12.55447570845301
 20
-5.099404902456448
 30
0.0
 10
12.60138543677659
 20
-5.151874520294791
 30
0.0
 10
12.68295201157341
 20
-5.286980556727803
 30
0.0
 10
12.7181719693176
 20
-5.371820149716416
 30
0.0
 10
12.76213654526594
 20
-5.578707548147721
 30
0.0
 10
12.77026091463633
 20
-5.701542481072335
 30
0.0
 10
12.75239776164133
 20
-5.964368720094735
 30
0.0
 10
12.72724833739212
 20
-6.099264719857816
 30
0.0
 10
12.65908666407783
 20
-6.353110225917075
 30
0.0
 10
12.61568164729122
 20
-6.474839021829204
 30
0.0
 10
12.52100924552232
 20
-6.700456538059788
 30
0.0
 10
12.46941331137411
 20
-6.805573231554566
 30
0.0
 10
12.30490621332253
 20
-7.105283457732464
 30
0.0
 10
12.1851784671321
 20
-7.279948999641423
 30
0.0
 10
11.92983731616859
 20
-7.593144382902771
 30
0.0
 10
11.79267665531758
 20
-7.733663579398777
 30
0.0
 10
11.56451158979954
 20
-7.914219675260052
 30
0.0
 10
11.48485276967107
 20
-7.969136937664194
 30
0.0
 10
11.31258630900464
 20
-8.06507137412477
 30
0.0
 10
11.21906269051033
 20
-8.106694499010091
 30
0.0
 10
11.11499999999999
 20
-8.135515956841495
 30
0.0
  0
SPLINE
  5
29B
330
1F
100
AcDbEntity
  8
SK3
  6
HIDDEN
370
    18
100
AcDbSpline
210
0.0
220
0.0
230
1.0
 70
     8
 71
     3
 72
    34
 73
    30
 74
     0
 42
0.000000001
 43
0.00000001
 40
0.0
 40
0.0
 40
0.0
 40
0.0
 40
0.03125
 40
0.03125
 40
0.0625000000000001
 40
0.0625000000000001
 40
0.0937500000000001
 40
0.0937500000000001
 40
0.125
 40
0.125
 40
0.1562499999999999
 40
0.1562499999999999
 40
0.1874999999999999
 40
0.1874999999999999
 40
0.2499999999999995
 40
0.2499999999999995
 40
0.3124999999999992
 40
0.3124999999999992
 40
0.343749999999999
 40
0.343749999999999
 40
0.3749999999999988
 40
0.3749999999999988
 40
0.4062499999999987
 40
0.4062499999999987
 40
0.4374999999999986
 40
0.4374999999999986
 40
0.4687499999999986
 40
0.4687499999999986
 40
0.4999999999999986
 40
0.4999999999999986
 40
0.4999999999999986
 40
0.4999999999999986
 10
11.11499999999999
 20
-8.135515956841495
 30
0.0
 10
11.01093730948963
 20
-8.16433741467291
 30
0.0
 10
10.89827240143046
 20
-8.179464794190284
 30
0.0
 10
10.65524603173762
 20
-8.165841760405172
 30
0.0
 10
10.53100003630442
 20
-8.136838624998612
 30
0.0
 10
10.29040472633824
 20
-8.037357367222134
 30
0.0
 10
10.17852991293552
 20
-7.969631374308051
 30
0.0
 10
9.971641719228305
 20
-7.804710470753779
 30
0.0
 10
9.880140211756054
 20
-7.710255544057427
 30
0.0
 10
9.720479632928742
 20
-7.501520767052235
 30
0.0
 10
9.653640231842218
 20
-7.388447537981253
 30
0.0
 10
9.549145986449403
 20
-7.153218751817372
 30
0.0
 10
9.51066858961816
 20
-7.028363198412286
 30
0.0
 10
9.444144226770035
 20
-6.655645231796163
 30
0.0
 10
9.463570934642714
 20
-6.401824616238592
 30
0.0
 10
9.625438460184723
 20
-5.94431221175271
 30
0.0
 10
9.767910053168183
 20
-5.739855544595971
 30
0.0
 10
10.04867356462022
 20
-5.493346099588233
 30
0.0
 10
10.15222938652334
 20
-5.421392519446396
 30
0.0
 10
10.38092358660674
 20
-5.29286411633759
 30
0.0
 10
10.5028594505292
 20
-5.238408419891583
 30
0.0
 10
10.75142302172968
 20
-5.143758254460655
 30
0.0
 10
10.87148365715397
 20
-5.105486382977687
 30
0.0
 10
11.09561189675422
 20
-5.038956888356632
 30
0.0
 10
11.19522385975344
 20
-5.012076755424377
 30
0.0
 10
11.38076798793608
 20
-4.965661035352477
 30
0.0
 10
11.46555694339851
 20
-4.9466305963539
 30
0.0
 10
11.62416091896931
 20
-4.916239958733751
 30
0.0
 10
11.69846340351795
 20
-4.904790285060075
 30
0.0
 10
11.76979658556575
 20
-4.897279110339468
 30
0.0
  0
SPLINE
  5
29C
330
1F
100
AcDbEntity
  8
SK3
  6
HIDDEN
370
    18
100
AcDbSpline
210
0.0
220
0.0
230
1.0
 70
     8
 71
     3
 72
    30
 73
    26
 74
     0
 42
0.000000001
 43
0.00000001
 40
0.4999999999999978
 40
0.4999999999999978
 40
0.4999999999999978
 40
0.4999999999999978
 40
0.5312499999999977
 40
0.5312499999999977
 40
0.5624999999999976
 40
0.5624999999999976
 40
0.6249999999999973
 40
0.6249999999999973
 40
0.6874999999999972
 40
0.6874999999999972
 40
0.7187499999999974
 40
0.7187499999999974
 40
0.7499999999999977
 40
0.7499999999999977
 40
0.7812499999999979
 40
0.7812499999999979
 40
0.8124999999999981
 40
0.8124999999999981
 40
0.8437499999999983
 40
0.8437499999999983
 40
0.8749999999999986
 40
0.8749999999999986
 40
0.9374999999999992
 40
0.9374999999999992
 40
1.0
 40
1.0
 40
1.0
 40
1.0
 10
9.543420299935407
 20
-8.77916420222098
 30
0.0
 10
9.57856123373539
 20
-8.8597806180867
 30
0.0
 10
9.622627266507033
 20
-8.923794183661832
 30
0.0
 10
9.71802702424504
 20
-9.025758720035876
 30
0.0
 10
9.770165859587788
 20
-9.064859097077962
 30
0.0
 10
9.935727180931442
 20
-9.157211171430468
 30
0.0
 10
10.05462982796813
 20
-9.184992456892155
 30
0.0
 10
10.31081948707685
 20
-9.203606692695102
 30
0.0
 10
10.4484097443316
 20
-9.193378534086476
 30
0.0
 10
10.67777322328789
 20
-9.155733028928251
 30
0.0
 10
10.75871097916552
 20
-9.139325882255616
 30
0.0
 10
10.93364535127571
 20
-9.098739976864982
 30
0.0
 10
11.02698337642652
 20
-9.074851433919614
 30
0.0
 10
11.23604536410175
 20
-9.016444669949896
 30
0.0
 10
11.35057343779475
 20
-8.982450275402131
 30
0.0
 10
11.59480302461465
 20
-8.898825374105353
 30
0.0
 10
11.71945599477359
 20
-8.850454838246366
 30
0.0
 10
11.95950363931203
 20
-8.734148500327661
 30
0.0
 10
12.07031700587896
 20
-8.668572650845519
 30
0.0
 10
12.27422745067752
 20
-8.51617116007709
 30
0.0
 10
12.36502701179841
 20
-8.430882284499678
 30
0.0
 10
12.59959907667485
 20
-8.148150203280688
 30
0.0
 10
12.70444177032678
 20
-7.922793662573073
 30
0.0
 10
12.78609851062196
 20
-7.438758262361189
 30
0.0
 10
12.76320534245734
 20
-7.182019426018014
 30
0.0
 10
12.67730763443388
 20
-6.93673517076918
 30
0.0
  0
SPLINE
  5
29D
330
1F
100
AcDbEntity
  8
SK3
  6
HIDDEN
370
    18
100
AcDbSpline
210
0.0
220
0.0
230
1.0
 70
     8
 71
     3
 72
    34
 73
    30
 74
     0
 42
0.000000001
 43
0.00000001
 40
0.0
 40
0.0
 40
0.0
 40
0.0
 40
0.0312499999999998
 40
0.0312499999999998
 40
0.0624999999999996
 40
0.0624999999999996
 40
0.0937499999999994
 40
0.0937499999999994
 40
0.1249999999999992
 40
0.1249999999999992
 40
0.1562499999999989
 40
0.1562499999999989
 40
0.1874999999999988
 40
0.1874999999999988
 40
0.2499999999999986
 40
0.2499999999999986
 40
0.3124999999999983
 40
0.3124999999999983
 40
0.3437499999999983
 40
0.3437499999999983
 40
0.3749999999999982
 40
0.3749999999999982
 40
0.4062499999999981
 40
0.4062499999999981
 40
0.4374999999999979
 40
0.4374999999999979
 40
0.4687499999999979
 40
0.4687499999999979
 40
0.4999999999999978
 40
0.4999999999999978
 40
0.4999999999999978
 40
0.4999999999999978
 10
12.67730763443388
 20
-6.93673517076918
 30
0.0
 10
12.63435878042214
 20
-6.814093043144769
 30
0.0
 10
12.57729529856064
 20
-6.697907968659763
 30
0.0
 10
12.43603808962697
 20
-6.478825579697016
 30
0.0
 10
12.35095491427446
 20
-6.375597900680038
 30
0.0
 10
12.16118186397767
 20
-6.195677328194034
 30
0.0
 10
12.05422579636489
 20
-6.116519150458837
 30
0.0
 10
11.82324491388434
 20
-5.992288968745447
 30
0.0
 10
11.69889439480548
 20
-5.947796516244618
 30
0.0
 10
11.45304455248933
 20
-5.904797982531327
 30
0.0
 10
11.33231684279021
 20
-5.906500158642466
 30
0.0
 10
11.11245426351665
 20
-5.943973551987471
 30
0.0
 10
11.01315393168725
 20
-5.978453416312933
 30
0.0
 10
10.73767466537658
 20
-6.107558924087087
 30
0.0
 10
10.58689176004732
 20
-6.222865001686746
 30
0.0
 10
10.30357248622239
 20
-6.487130062003011
 30
0.0
 10
10.17286476490366
 20
-6.63795013287791
 30
0.0
 10
9.99100500559355
 20
-6.889595493159362
 30
0.0
 10
9.932635222666214
 20
-6.978050688572292
 30
0.0
 10
9.820404805610389
 20
-7.166770256680524
 30
0.0
 10
9.766060353100542
 20
-7.267956566324052
 30
0.0
 10
9.665448853514267
 20
-7.482658085956193
 30
0.0
 10
9.61932679772562
 20
-7.59537577757231
 30
0.0
 10
9.539388536729351
 20
-7.837768627707177
 30
0.0
 10
9.505665766297271
 20
-7.968295848681413
 30
0.0
 10
9.46522449538008
 20
-8.23365654153094
 30
0.0
 10
9.459739461343569
 20
-8.36574416000854
 30
0.0
 10
9.481585255233766
 20
-8.598717233607656
 30
0.0
 10
9.508279366135408
 20
-8.698547786355256
 30
0.0
 10
9.543420299935407
 20
-8.77916420222098
 30
0.0
  0
SPLINE
  5
29E
330
1F
100
AcDbEntity
  8
SK3
  6
HIDDEN
370
    18
100
AcDbSpline
210
0.0
220
0.0
230
1.0
 70
     8
 71
     3
 72
    30
 73
    26
 74
     0
 42
0.000000001
 43
0.00000001
 40
0.4999999999999998
 40
0.4999999999999998
 40
0.4999999999999998
 40
0.4999999999999998
 40
0.5624999999999999
 40
0.5624999999999999
 40
0.5937499999999999
 40
0.5937499999999999
 40
0.625
 40
0.625
 40
0.65625
 40
0.65625
 40
0.6875000000000001
 40
0.6875000000000001
 40
0.7500000000000001
 40
0.7500000000000001
 40
0.7812500000000001
 40
0.7812500000000001
 40
0.8125
 40
0.8125
 40
0.875
 40
0.875
 40
0.9375
 40
0.9375
 40
0.96875
 40
0.96875
 40
1.0
 40
1.0
 40
1.0
 40
1.0
 10
11.11569631589286
 20
-0.7761871796929491
 30
0.0
 10
10.899908731128
 20
-0.7760940527120515
 30
0.0
 10
10.68204871088027
 20
-0.8206453475713242
 30
0.0
 10
10.38394682434138
 20
-0.9461590508833169
 30
0.0
 10
10.28746606938093
 20
-0.9984249815305941
 30
0.0
 10
10.10820324531782
 20
-1.11925732946087
 30
0.0
 10
10.02537901622105
 20
-1.187498351242076
 30
0.0
 10
9.87312129498083
 20
-1.339130272885975
 30
0.0
 10
9.803681930597927
 20
-1.422966399572716
 30
0.0
 10
9.684279931119297
 20
-1.598597124628464
 30
0.0
 10
9.63341209830687
 20
-1.69116625469912
 30
0.0
 10
9.508205595727015
 20
-1.983206633486705
 30
0.0
 10
9.465125330464176
 20
-2.188626025133988
 30
0.0
 10
9.464937742964807
 20
-2.495562715383887
 30
0.0
 10
9.475546982397622
 20
-2.595594457577826
 30
0.0
 10
9.51758503266295
 20
-2.791308244238438
 30
0.0
 10
9.549548787703088
 20
-2.887772084563863
 30
0.0
 10
9.673420645566367
 20
-3.159224968162369
 30
0.0
 10
9.796132052843381
 20
-3.322668800155654
 30
0.0
 10
10.09893117164389
 20
-3.590052108657381
 30
0.0
 10
10.28218199047463
 20
-3.696740205200621
 30
0.0
 10
10.57995009154441
 20
-3.803806145853097
 30
0.0
 10
10.68494779055131
 20
-3.831410842413649
 30
0.0
 10
10.89769529526727
 20
-3.867947222441267
 30
0.0
 10
11.00557869160473
 20
-3.877172678032673
 30
0.0
 10
11.11499999999999
 20
-3.877172678032673
 30
0.0
  0
SPLINE
  5
29F
330
1F
100
AcDbEntity
  8
SK3
  6
HIDDEN
370
    18
100
AcDbSpline
210
0.0
220
0.0
230
1.0
 70
     8
 71
     3
 72
    32
 73
    28
 74
     0
 42
0.000000001
 43
0.00000001
 40
0.0
 40
0.0
 40
0.0
 40
0.0
 40
0.0312499999999998
 40
0.0312499999999998
 40
0.0624999999999997
 40
0.0624999999999997
 40
0.0937499999999995
 40
0.0937499999999995
 40
0.1249999999999993
 40
0.1249999999999993
 40
0.1874999999999993
 40
0.1874999999999993
 40
0.2499999999999993
 40
0.2499999999999993
 40
0.2812499999999993
 40
0.2812499999999993
 40
0.3124999999999994
 40
0.3124999999999994
 40
0.3749999999999995
 40
0.3749999999999995
 40
0.4062499999999996
 40
0.4062499999999996
 40
0.4374999999999996
 40
0.4374999999999996
 40
0.4687499999999997
 40
0.4687499999999997
 40
0.4999999999999998
 40
0.4999999999999998
 40
0.4999999999999998
 40
0.4999999999999998
 10
11.11499999999999
 20
-3.877172678032673
 30
0.0
 10
11.22442130839524
 20
-3.877172678032673
 30
0.0
 10
11.33193413066688
 20
-3.867949144079185
 30
0.0
 10
11.54332442490719
 20
-3.831768674567467
 30
0.0
 10
11.6483209617145
 20
-3.804348043195124
 30
0.0
 10
11.84793304664306
 20
-3.732733819274785
 30
0.0
 10
11.94254517476254
 20
-3.688830288348533
 30
0.0
 10
12.12160220610708
 20
-3.584517425655329
 30
0.0
 10
12.20606744927401
 20
-3.523753458917009
 30
0.0
 10
12.43345669318052
 20
-3.323175041199288
 30
0.0
 10
12.55627008848897
 20
-3.159519466276264
 30
0.0
 10
12.72112946070206
 20
-2.799010829243599
 30
0.0
 10
12.76486706341026
 20
-2.598123691223333
 30
0.0
 10
12.7650660020629
 20
-2.293577165403435
 30
0.0
 10
12.75426006744512
 20
-2.189545011981039
 30
0.0
 10
12.71198912166742
 20
-1.987057576095724
 30
0.0
 10
12.68071768734325
 20
-1.887771593074409
 30
0.0
 10
12.55618181218157
 20
-1.596181771180257
 30
0.0
 10
12.43480939117334
 20
-1.417011034108451
 30
0.0
 10
12.20531420885772
 20
-1.188054939879789
 30
0.0
 10
12.12243738788618
 20
-1.119792609414725
 30
0.0
 10
11.94410843411706
 20
-0.9993840943400868
 30
0.0
 10
11.84749232480423
 20
-0.9468582944288338
 30
0.0
 10
11.64829056865489
 20
-0.8628003181327427
 30
0.0
 10
11.54544423826306
 20
-0.8307938811981975
 30
0.0
 10
11.33312782045749
 20
-0.7873446954405304
 30
0.0
 10
11.2235901082753
 20
-0.7762337431833944
 30
0.0
 10
11.11569631589286
 20
-0.7761871796929491
 30
0.0
  0
SPLINE
  5
2A0
330
1F
100
AcDbEntity
  8
SK3
  6
HIDDEN
370
    18
100
AcDbSpline
210
0.0
220
0.0
230
1.0
 70
     8
 71
     3
 72
    22
 73
    18
 74
     0
 42
0.000000001
 43
0.00000001
 40
0.0
 40
0.0
 40
0.0
 40
0.0
 40
0.0625
 40
0.0625
 40
0.125
 40
0.125
 40
0.1875
 40
0.1875
 40
0.25
 40
0.25
 40
0.3125
 40
0.3125
 40
0.375
 40
0.375
 40
0.4375
 40
0.4375
 40
0.5
 40
0.5
 40
0.5
 40
0.5
 10
150.1522087521093
 20
4.065863991822645
 30
0.0
 10
150.194125902903
 20
4.160629308034344
 30
0.0
 10
150.2383215298209
 20
4.252431223909514
 30
0.0
 10
150.311106093638
 20
4.432099660045024
 30
0.0
 10
150.3376915081571
 20
4.519008103412156
 30
0.0
 10
150.3393879250871
 20
4.665644063016884
 30
0.0
 10
150.3137828066444
 20
4.722924037170808
 30
0.0
 10
150.2427741271882
 20
4.796066682831199
 30
0.0
 10
150.1980275577615
 20
4.814631088888476
 30
0.0
 10
150.1147200954751
 20
4.816979229423177
 30
0.0
 10
150.0752313625198
 20
4.800597929738266
 30
0.0
 10
150.017962318898
 20
4.728855961648012
 30
0.0
 10
150.0007288543398
 20
4.673666189399458
 30
0.0
 10
149.9993174290761
 20
4.528299439371146
 30
0.0
 10
150.015390860116
 20
4.441151542964473
 30
0.0
 10
150.0707703579844
 20
4.257905936519371
 30
0.0
 10
150.1097165861077
 20
4.162007473186295
 30
0.0
 10
150.1515186128804
 20
4.067424880920777
 30
0.0
  0
SPLINE
  5
2A1
330
1F
100
AcDbEntity
  8
SK3
  6
HIDDEN
370
    18
100
AcDbSpline
210
0.0
220
0.0
230
1.0
 70
     8
 71
     3
 72
    22
 73
    18
 74
     0
 42
0.000000001
 43
0.00000001
 40
0.0
 40
0.0
 40
0.0
 40
0.0
 40
0.0625
 40
0.0625
 40
0.125
 40
0.125
 40
0.1875
 40
0.1875
 40
0.25
 40
0.25
 40
0.3125
 40
0.3125
 40
0.375
 40
0.375
 40
0.4375
 40
0.4375
 40
0.5
 40
0.5
 40
0.5
 40
0.5
 10
151.8477912478906
 20
4.065863991822638
 30
0.0
 10
151.8896880666423
 20
3.971144641816668
 30
0.0
 10
151.9284303588406
 20
3.875947741714698
 30
0.0
 10
151.9840738148948
 20
3.692854490749225
 30
0.0
 10
152.00029633188
 20
3.605484728356343
 30
0.0
 10
151.9996950241284
 20
3.461433355614971
 30
0.0
 10
151.9828759778914
 20
3.404651307188273
 30
0.0
 10
151.9257865708884
 20
3.331699322073303
 30
0.0
 10
151.8862731047061
 20
3.314978187189132
 30
0.0
 10
151.8027918560593
 20
3.316821897581309
 30
0.0
 10
151.7580319516206
 20
3.335181985307526
 30
0.0
 10
151.6867225555989
 20
3.407938820279701
 30
0.0
 10
151.6609075203351
 20
3.464194398966624
 30
0.0
 10
151.6619859660687
 20
3.611741298845044
 30
0.0
 10
151.6885808296872
 20
3.698628836300597
 30
0.0
 10
151.7607033290359
 20
3.877112286654747
 30
0.0
 10
151.8054213505334
 20
3.970169361227485
 30
0.0
 10
151.8469403432995
 20
4.063941245648492
 30
0.0
  0
SPLINE
  5
2A2
330
1F
100
AcDbEntity
  8
SK3
  6
HIDDEN
370
    18
100
AcDbSpline
210
0.0
220
0.0
230
1.0
 70
     8
 71
     3
 72
    22
 73
    18
 74
     0
 42
0.000000001
 43
0.00000001
 40
0.5
 40
0.5
 40
0.5
 40
0.5
 40
0.5625
 40
0.5625
 40
0.625
 40
0.625
 40
0.6875
 40
0.6875
 40
0.75
 40
0.75
 40
0.8125
 40
0.8125
 40
0.875
 40
0.875
 40
0.9375
 40
0.9375
 40
1.0
 40
1.0
 40
1.0
 40
1.0
 10
150.9995679240836
 20
1.590718363744931
 30
0.0
 10
151.1305428090269
 20
1.590666033739262
 30
0.0
 10
151.262798607351
 20
1.615306217993457
 30
0.0
 10
151.503884374905
 20
1.706032370576944
 30
0.0
 10
151.6143278314169
 20
1.772132732818687
 30
0.0
 10
151.7989912330518
 20
1.930291124232448
 30
0.0
 10
151.8724032285571
 20
2.020909435190028
 30
0.0
 10
151.9739700875132
 20
2.213039161026182
 30
0.0
 10
151.9999595502323
 20
2.310712980150158
 30
0.0
 10
152.000040355854
 20
2.497179721958464
 30
0.0
 10
151.9735403250289
 20
2.584567079408326
 30
0.0
 10
151.8733880522089
 20
2.735656482251482
 30
0.0
 10
151.7990203979512
 20
2.800378755044453
 30
0.0
 10
151.6157090370161
 20
2.90252431434478
 30
0.0
 10
151.5051550488983
 20
2.94108110140379
 30
0.0
 10
151.2640814284994
 20
2.992072681558998
 30
0.0
 10
151.13292448869
 20
3.004931839801727
 30
0.0
 10
151.0
 20
3.004931839801727
 30
0.0
  0
SPLINE
  5
2A3
330
1F
100
AcDbEntity
  8
SK3
  6
HIDDEN
370
    18
100
AcDbSpline
210
0.0
220
0.0
230
1.0
 70
     8
 71
     3
 72
    22
 73
    18
 74
     0
 42
0.000000001
 43
0.00000001
 40
0.0
 40
0.0
 40
0.0
 40
0.0
 40
0.0625
 40
0.0625
 40
0.125
 40
0.125
 40
0.1875
 40
0.1875
 40
0.25
 40
0.25
 40
0.3125
 40
0.3125
 40
0.375
 40
0.375
 40
0.4375
 40
0.4375
 40
0.5
 40
0.5
 40
0.5
 40
0.5
 10
151.0
 20
3.004931839801727
 30
0.0
 10
150.86707551131
 20
3.004931839801727
 30
0.0
 10
150.7367219243668
 20
2.992206104457541
 30
0.0
 10
150.4949206550145
 20
2.941133482982101
 30
0.0
 10
150.3844936816155
 20
2.902606710345628
 30
0.0
 10
150.2011472820375
 20
2.800502692492931
 30
0.0
 10
150.126761049729
 20
2.735751394451532
 30
0.0
 10
150.0267323885946
 20
2.585107969322976
 30
0.0
 10
150.0000853520553
 20
2.497424646279795
 30
0.0
 10
149.9999150686372
 20
2.311818648750807
 30
0.0
 10
150.0259911423442
 20
2.213329069393508
 30
0.0
 10
150.1269615382009
 20
2.021895949831553
 30
0.0
 10
150.2006490864377
 20
1.930667776113133
 30
0.0
 10
150.3853580469094
 20
1.772333421027884
 30
0.0
 10
150.4955565965614
 20
1.706323459163318
 30
0.0
 10
150.7365575976528
 20
1.615468181521997
 30
0.0
 10
150.8685930391403
 20
1.590770693750593
 30
0.0
 10
150.9995679240836
 20
1.590718363744931
 30
0.0
  0
SPLINE
  5
2A4
330
1F
100
AcDbEntity
  8
SK3
  6
HIDDEN
370
    18
100
AcDbSpline
210
0.0
220
0.0
230
1.0
 70
    24
 71
     2
 72
     6
 73
     3
 74
     0
 42
0.000000001
 43
0.00000001
 40
0.0
 40
0.0
 40
0.0
 40
0.25
 40
0.25
 40
0.25
 10
3.699999999999995
 20
-22.59999999999973
 30
0.0
 10
3.676565972443896
 20
-22.59999999999985
 30
0.0
 10
3.642202806809658
 20
-22.6
 30
0.0
  0
SPLINE
  5
2A5
330
1F
100
AcDbEntity
  8
SK3
  6
HIDDEN
370
    18
100
AcDbSpline
210
0.0
220
0.0
230
1.0
 70
    24
 71
     3
 72
     8
 73
     4
 74
     0
 42
0.000000001
 43
0.00000001
 40
0.25
 40
0.25
 40
0.25
 40
0.25
 40
0.5
 40
0.5
 40
0.5
 40
0.5
 10
3.642202806809658
 20
-22.6
 30
0.0
 10
3.607839641175392
 20
-22.6
 30
0.0
 10
3.563721029747072
 20
-22.6
 30
0.0
 10
3.515954602328577
 20
-22.60000000000001
 30
0.0
  0
SPLINE
  5
2A6
330
1F
100
AcDbEntity
  8
SK3
  6
HIDDEN
370
    18
100
AcDbSpline
210
0.0
220
0.0
230
1.0
 70
    24
 71
     3
 72
     8
 73
     4
 74
     0
 42
0.000000001
 43
0.00000001
 40
0.5
 40
0.5
 40
0.5
 40
0.5
 40
1.0
 40
1.0
 40
1.0
 40
1.0
 10
3.515954602328577
 20
-22.60000000000001
 30
0.0
 10
3.420421747491617
 20
-22.60000000000001
 30
0.0
 10
3.311196876076408
 20
-22.6
 30
0.0
 10
3.199999999999981
 20
-22.6
 30
0.0
  0
SPLINE
  5
2A7
330
1F
100
AcDbEntity
  8
SK3
  6
HIDDEN
370
    18
100
AcDbSpline
210
0.0
220
0.0
230
1.0
 70
    24
 71
     3
 72
     8
 73
     4
 74
     0
 42
0.000000001
 43
0.00000001
 40
0.0
 40
0.0
 40
0.0
 40
0.0
 40
0.4999999999999989
 40
0.4999999999999989
 40
0.4999999999999989
 40
0.4999999999999989
 10
3.199999999999981
 20
24.80000000000001
 30
0.0
 10
3.311302974123256
 20
24.79999999999999
 30
0.0
 10
3.420333650225621
 20
24.79999999999999
 30
0.0
 10
3.516223742531688
 20
24.79999999999999
 30
0.0
  0
SPLINE
  5
2A8
330
1F
100
AcDbEntity
  8
SK3
  6
HIDDEN
370
    18
100
AcDbSpline
210
0.0
220
0.0
230
1.0
 70
    24
 71
     3
 72
     8
 73
     4
 74
     0
 42
0.000000001
 43
0.00000001
 40
0.4999999999999989
 40
0.4999999999999989
 40
0.4999999999999989
 40
0.4999999999999989
 40
0.7499999999999994
 40
0.7499999999999994
 40
0.7499999999999994
 40
0.7499999999999994
 10
3.516223742531688
 20
24.79999999999999
 30
0.0
 10
3.564168788684707
 20
24.79999999999965
 30
0.0
 10
3.608443186973037
 20
24.79999999999932
 30
0.0
 10
3.642831304242561
 20
24.79999999999907
 30
0.0
  0
SPLINE
  5
2A9
330
1F
100
AcDbEntity
  8
SK3
  6
HIDDEN
370
    18
100
AcDbSpline
210
0.0
220
0.0
230
1.0
 70
    24
 71
     2
 72
     6
 73
     3
 74
     0
 42
0.000000001
 43
0.00000001
 40
0.7499999999999994
 40
0.7499999999999994
 40
0.7499999999999994
 40
1.0
 40
1.0
 40
1.0
 10
3.642831304242547
 20
24.79999999999907
 30
0.0
 10
3.677219421512085
 20
24.79999999999852
 30
0.0
 10
3.699999999999981
 20
24.79999999999816
 30
0.0
  0
SPLINE
  5
2AA
330
1F
100
AcDbEntity
  8
SK3
  6
HIDDEN
370
    18
100
AcDbSpline
210
0.0
220
0.0
230
1.0
 70
    24
 71
     2
 72
     6
 73
     3
 74
     0
 42
0.000000001
 43
0.00000001
 40
0.0
 40
0.0
 40
0.0
 40
0.2499999999999998
 40
0.2499999999999998
 40
0.2499999999999998
 10
18.54999999999997
 20
24.79999999999999
 30
0.0
 10
18.57343402755608
 20
24.79999999987703
 30
0.0
 10
18.60779719319032
 20
24.79999999969674
 30
0.0
  0
SPLINE
  5
2AB
330
1F
100
AcDbEntity
  8
SK3
  6
HIDDEN
370
    18
100
AcDbSpline
210
0.0
220
0.0
230
1.0
 70
    24
 71
     3
 72
     8
 73
     4
 74
     0
 42
0.000000001
 43
0.00000001
 40
0.2499999999999998
 40
0.2499999999999998
 40
0.2499999999999998
 40
0.2499999999999998
 40
0.4999999999999996
 40
0.4999999999999996
 40
0.4999999999999996
 40
0.4999999999999996
 10
18.60779719319032
 20
24.79999999969674
 30
0.0
 10
18.64216035882457
 20
24.79999999952063
 30
0.0
 10
18.68627897025289
 20
24.79999999929453
 30
0.0
 10
18.73404539767139
 20
24.79999999904971
 30
0.0
  0
SPLINE
  5
2AC
330
1F
100
AcDbEntity
  8
SK3
  6
HIDDEN
370
    18
100
AcDbSpline
210
0.0
220
0.0
230
1.0
 70
    24
 71
     3
 72
     8
 73
     4
 74
     0
 42
0.000000001
 43
0.00000001
 40
0.4999999999999996
 40
0.4999999999999996
 40
0.4999999999999996
 40
0.4999999999999996
 40
1.0
 40
1.0
 40
1.0
 40
1.0
 10
18.73404539767139
 20
24.79999999904971
 30
0.0
 10
18.82957825251157
 20
24.7999999985601
 30
0.0
 10
18.93880312393044
 20
24.79999999800032
 30
0.0
 10
19.05000000001061
 20
24.79999999743043
 30
0.0
  0
SPLINE
  5
2AD
330
1F
100
AcDbEntity
  8
SK3
  6
HIDDEN
370
    18
100
AcDbSpline
210
0.0
220
0.0
230
1.0
 70
    24
 71
     3
 72
     8
 73
     4
 74
     0
 42
0.000000001
 43
0.00000001
 40
0.0
 40
0.0
 40
0.0
 40
0.0
 40
0.5000000000000028
 40
0.5000000000000028
 40
0.5000000000000028
 40
0.5000000000000028
 10
19.0499999999964
 20
-22.60000000000062
 30
0.0
 10
18.93869702587439
 20
-22.6000000000004
 30
0.0
 10
18.82966634977326
 20
-22.60000000000019
 30
0.0
 10
18.73377625746829
 20
-22.6
 30
0.0
  0
SPLINE
  5
2AE
330
1F
100
AcDbEntity
  8
SK3
  6
HIDDEN
370
    18
100
AcDbSpline
210
0.0
220
0.0
230
1.0
 70
    24
 71
     3
 72
     8
 73
     4
 74
     0
 42
0.000000001
 43
0.00000001
 40
0.5000000000000028
 40
0.5000000000000028
 40
0.5000000000000028
 40
0.5000000000000028
 40
0.7500000000000013
 40
0.7500000000000013
 40
0.7500000000000013
 40
0.7500000000000013
 10
18.73377625746829
 20
-22.6
 30
0.0
 10
18.68583121131527
 20
-22.6
 30
0.0
 10
18.64155681302693
 20
-22.6
 30
0.0
 10
18.6071686957574
 20
-22.6
 30
0.0
  0
SPLINE
  5
2AF
330
1F
100
AcDbEntity
  8
SK3
  6
HIDDEN
370
    18
100
AcDbSpline
210
0.0
220
0.0
230
1.0
 70
    24
 71
     2
 72
     6
 73
     3
 74
     0
 42
0.000000001
 43
0.00000001
 40
0.7500000000000013
 40
0.7500000000000013
 40
0.7500000000000013
 40
1.0
 40
1.0
 40
1.0
 10
18.6071686957574
 20
-22.6
 30
0.0
 10
18.57278057848787
 20
-22.60000000000001
 30
0.0
 10
18.54999999999997
 20
-22.6
 30
0.0
  0
SPLINE
  5
2B0
330
1F
100
AcDbEntity
  8
SK3
  6
HIDDEN
370
    18
100
AcDbSpline
210
0.0
220
0.0
230
1.0
 70
     8
 71
     3
 72
    30
 73
    26
 74
     0
 42
0.000000001
 43
0.00000001
 40
0.4999999999999996
 40
0.4999999999999996
 40
0.4999999999999996
 40
0.4999999999999996
 40
0.5624999999999994
 40
0.5624999999999994
 40
0.5937499999999993
 40
0.5937499999999993
 40
0.6249999999999993
 40
0.6249999999999993
 40
0.6562499999999992
 40
0.6562499999999992
 40
0.6874999999999992
 40
0.6874999999999992
 40
0.7499999999999992
 40
0.7499999999999992
 40
0.7812499999999991
 40
0.7812499999999991
 40
0.8124999999999991
 40
0.8124999999999991
 40
0.8749999999999993
 40
0.8749999999999993
 40
0.9374999999999996
 40
0.9374999999999996
 40
0.9687499999999998
 40
0.9687499999999998
 40
1.0
 40
1.0
 40
1.0
 40
1.0
 10
11.11430368410711
 20
3.877172552155857
 30
0.0
 10
11.33009126887197
 20
3.87725057035335
 30
0.0
 10
11.5479512891197
 20
3.840163879053001
 30
0.0
 10
11.84605317565859
 20
3.733503950163409
 30
0.0
 10
11.94253393061905
 20
3.688844576862357
 30
0.0
 10
12.12179675468214
 20
3.584396341963805
 30
0.0
 10
12.20462098377893
 20
3.524896024259271
 30
0.0
 10
12.35687870501914
 20
3.390855347486402
 30
0.0
 10
12.42631806940206
 20
3.315889249412164
 30
0.0
 10
12.54572006888066
 20
3.156394907283578
 30
0.0
 10
12.59658790169309
 20
3.0711959119521
 30
0.0
 10
12.72179440427297
 20
2.797870601497675
 30
0.0
 10
12.76487466953577
 20
2.599635773386618
 30
0.0
 10
12.76506225703518
 20
2.292729329377904
 30
0.0
 10
12.75445301760234
 20
2.190971671629353
 30
0.0
 10
12.71241496733702
 20
1.988602412505137
 30
0.0
 10
12.68045121229688
 20
1.887128696729749
 30
0.0
 10
12.55657935443361
 20
1.597150549416181
 30
0.0
 10
12.43386794715658
 20
1.416237039392036
 30
0.0
 10
12.13106882835609
 20
1.113819439191376
 30
0.0
 10
11.94781800952532
 20
0.9894109901842328
 30
0.0
 10
11.65004990845553
 20
0.8634349448329547
 30
0.0
 10
11.54505220944865
 20
0.8306714940699255
 30
0.0
 10
11.3323047047327
 20
0.787218652582581
 30
0.0
 10
11.22442130839524
 20
0.7761870294391883
 30
0.0
 10
11.11499999999999
 20
0.7761870294391883
 30
0.0
  0
SPLINE
  5
2B1
330
1F
100
AcDbEntity
  8
SK3
  6
HIDDEN
370
    18
100
AcDbSpline
210
0.0
220
0.0
230
1.0
 70
     8
 71
     3
 72
    32
 73
    28
 74
     0
 42
0.000000001
 43
0.00000001
 40
0.0
 40
0.0
 40
0.0
 40
0.0
 40
0.0312500000000001
 40
0.0312500000000001
 40
0.0625000000000001
 40
0.0625000000000001
 40
0.0937500000000002
 40
0.0937500000000002
 40
0.1250000000000002
 40
0.1250000000000002
 40
0.1875000000000001
 40
0.1875000000000001
 40
0.2500000000000001
 40
0.2500000000000001
 40
0.2812500000000001
 40
0.2812500000000001
 40
0.3125000000000001
 40
0.3125000000000001
 40
0.3749999999999998
 40
0.3749999999999998
 40
0.4062499999999998
 40
0.4062499999999998
 40
0.4374999999999997
 40
0.4374999999999997
 40
0.4687499999999997
 40
0.4687499999999997
 40
0.4999999999999996
 40
0.4999999999999996
 40
0.4999999999999996
 40
0.4999999999999996
 10
11.11499999999999
 20
0.7761870294391883
 30
0.0
 10
11.00557869160475
 20
0.7761870294391883
 30
0.0
 10
10.89806586933308
 20
0.7872158517148419
 30
0.0
 10
10.68667557509279
 20
0.8302464334251601
 30
0.0
 10
10.58167903828545
 20
0.8627949969944142
 30
0.0
 10
10.38206695335692
 20
0.9470624567166318
 30
0.0
 10
10.28745482523744
 20
0.9984411012338746
 30
0.0
 10
10.10839779389287
 20
1.119117661897564
 30
0.0
 10
10.02393255072595
 20
1.188799965596034
 30
0.0
 10
9.79654330681945
 20
1.415674410817785
 30
0.0
 10
9.673729911510998
 20
1.596813358985805
 30
0.0
 10
9.508870539297915
 20
1.98196991963295
 30
0.0
 10
9.46513293658971
 20
2.190136880900955
 30
0.0
 10
9.464933997937075
 20
2.494715483199069
 30
0.0
 10
9.47573993255485
 20
2.596989968316688
 30
0.0
 10
9.51801087833254
 20
2.792786270541945
 30
0.0
 10
9.549282312656725
 20
2.887169215205678
 30
0.0
 10
9.673818187818414
 20
3.160133943201981
 30
0.0
 10
9.795190608826637
 20
3.321994093354212
 30
0.0
 10
10.02468579114224
 20
3.524411755127753
 30
0.0
 10
10.10756261211379
 20
3.583929339277783
 30
0.0
 10
10.2858915658829
 20
3.688019764047503
 30
0.0
 10
10.38250767519573
 20
3.732907718499722
 30
0.0
 10
10.58170943134506
 20
3.804343127065266
 30
0.0
 10
10.68455576173691
 20
3.831307682281047
 30
0.0
 10
10.89687217954248
 20
3.867841494158388
 30
0.0
 10
11.00640989172467
 20
3.877133543057107
 30
0.0
 10
11.11430368410711
 20
3.877172552155857
 30
0.0
  0
SPLINE
  5
2B2
330
1F
100
AcDbEntity
  8
SK3
  6
HIDDEN
370
    18
100
AcDbSpline
210
0.0
220
0.0
230
1.0
 70
     8
 71
     3
 72
    22
 73
    18
 74
     0
 42
0.000000001
 43
0.00000001
 40
0.0
 40
0.0
 40
0.0
 40
0.0
 40
0.0625
 40
0.0625
 40
0.125
 40
0.125
 40
0.1875
 40
0.1875
 40
0.25
 40
0.25
 40
0.3125
 40
0.3125
 40
0.375
 40
0.375
 40
0.4375
 40
0.4375
 40
0.5
 40
0.5
 40
0.5
 40
0.5
 10
150.1522087521093
 20
-4.065863991822665
 30
0.0
 10
150.1103119333575
 20
-3.971144641816696
 30
0.0
 10
150.0715696411593
 20
-3.875947741714732
 30
0.0
 10
150.0159261851051
 20
-3.692854490749246
 30
0.0
 10
149.99970366812
 20
-3.605484728356364
 30
0.0
 10
150.0003049758714
 20
-3.461433355614992
 30
0.0
 10
150.0171240221086
 20
-3.404651307188301
 30
0.0
 10
150.0742134291115
 20
-3.33169932207333
 30
0.0
 10
150.1137268952938
 20
-3.314978187189153
 30
0.0
 10
150.1972081439406
 20
-3.316821897581337
 30
0.0
 10
150.2419680483795
 20
-3.335181985307561
 30
0.0
 10
150.313277444401
 20
-3.407938820279729
 30
0.0
 10
150.3390924796649
 20
-3.464194398966665
 30
0.0
 10
150.3380140339313
 20
-3.611741298845079
 30
0.0
 10
150.3114191703128
 20
-3.698628836300646
 30
0.0
 10
150.239296670964
 20
-3.877112286654789
 30
0.0
 10
150.1945786494665
 20
-3.970169361227512
 30
0.0
 10
150.1530596567005
 20
-4.063941245648514
 30
0.0
  0
SPLINE
  5
2B3
330
1F
100
AcDbEntity
  8
SK3
  6
HIDDEN
370
    18
100
AcDbSpline
210
0.0
220
0.0
230
1.0
 70
     8
 71
     3
 72
    22
 73
    18
 74
     0
 42
0.000000001
 43
0.00000001
 40
0.0
 40
0.0
 40
0.0
 40
0.0
 40
0.0625000000000001
 40
0.0625000000000001
 40
0.1250000000000002
 40
0.1250000000000002
 40
0.1875000000000003
 40
0.1875000000000003
 40
0.2500000000000004
 40
0.2500000000000004
 40
0.3125000000000006
 40
0.3125000000000006
 40
0.3750000000000007
 40
0.3750000000000007
 40
0.4375000000000008
 40
0.4375000000000008
 40
0.5000000000000009
 40
0.5000000000000009
 40
0.5000000000000009
 40
0.5000000000000009
 10
151.8477912478906
 20
-4.065863991822672
 30
0.0
 10
151.805874097097
 20
-4.160629308034379
 30
0.0
 10
151.761678470179
 20
-4.252431223909548
 30
0.0
 10
151.688893906362
 20
-4.432099660045059
 30
0.0
 10
151.6623084918428
 20
-4.519008103412204
 30
0.0
 10
151.6606120749128
 20
-4.665644063016925
 30
0.0
 10
151.6862171933556
 20
-4.722924037170849
 30
0.0
 10
151.7572258728118
 20
-4.796066682831234
 30
0.0
 10
151.8019724422384
 20
-4.814631088888511
 30
0.0
 10
151.8852799045249
 20
-4.816979229423205
 30
0.0
 10
151.9247686374802
 20
-4.800597929738286
 30
0.0
 10
151.9820376811019
 20
-4.728855961648025
 30
0.0
 10
151.9992711456602
 20
-4.673666189399458
 30
0.0
 10
152.0006825709238
 20
-4.528299439371146
 30
0.0
 10
151.9846091398838
 20
-4.441151542964473
 30
0.0
 10
151.9292296420155
 20
-4.257905936519379
 30
0.0
 10
151.8902834138922
 20
-4.162007473186315
 30
0.0
 10
151.8484813871195
 20
-4.067424880920798
 30
0.0
  0
SPLINE
  5
2B4
330
1F
100
AcDbEntity
  8
SK3
  6
HIDDEN
370
    18
100
AcDbSpline
210
0.0
220
0.0
230
1.0
 70
     8
 71
     3
 72
    22
 73
    18
 74
     0
 42
0.000000001
 43
0.00000001
 40
0.5000000000000003
 40
0.5000000000000003
 40
0.5000000000000003
 40
0.5000000000000003
 40
0.5625000000000003
 40
0.5625000000000003
 40
0.6250000000000004
 40
0.6250000000000004
 40
0.6875000000000003
 40
0.6875000000000003
 40
0.7500000000000002
 40
0.7500000000000002
 40
0.8125000000000002
 40
0.8125000000000002
 40
0.8750000000000001
 40
0.8750000000000001
 40
0.9375000000000001
 40
0.9375000000000001
 40
1.0
 40
1.0
 40
1.0
 40
1.0
 10
151.0004320759163
 20
-1.590718363744966
 30
0.0
 10
150.869457190973
 20
-1.590666033739304
 30
0.0
 10
150.737201392649
 20
-1.615306217993499
 30
0.0
 10
150.4961156250949
 20
-1.706032370576986
 30
0.0
 10
150.3856721685831
 20
-1.772132732818728
 30
0.0
 10
150.2010087669482
 20
-1.93029112423249
 30
0.0
 10
150.1275967714429
 20
-2.020909435190069
 30
0.0
 10
150.0260299124868
 20
-2.213039161026217
 30
0.0
 10
150.0000404497677
 20
-2.310712980150193
 30
0.0
 10
149.9999596441461
 20
-2.497179721958499
 30
0.0
 10
150.0264596749711
 20
-2.584567079408354
 30
0.0
 10
150.126611947791
 20
-2.735656482251495
 30
0.0
 10
150.2009796020487
 20
-2.800378755044481
 30
0.0
 10
150.3842909629839
 20
-2.9025243143448
 30
0.0
 10
150.4948449511016
 20
-2.941081101403817
 30
0.0
 10
150.7359185715006
 20
-2.992072681559026
 30
0.0
 10
150.8670755113101
 20
-3.004931839801755
 30
0.0
 10
151.0
 20
-3.004931839801755
 30
0.0
  0
SPLINE
  5
2B5
330
1F
100
AcDbEntity
  8
SK3
  6
HIDDEN
370
    18
100
AcDbSpline
210
0.0
220
0.0
230
1.0
 70
     8
 71
     3
 72
    22
 73
    18
 74
     0
 42
0.000000001
 43
0.00000001
 40
0.0
 40
0.0
 40
0.0
 40
0.0
 40
0.0625
 40
0.0625
 40
0.1250000000000001
 40
0.1250000000000001
 40
0.1875000000000001
 40
0.1875000000000001
 40
0.2500000000000002
 40
0.2500000000000002
 40
0.3125000000000002
 40
0.3125000000000002
 40
0.3750000000000002
 40
0.3750000000000002
 40
0.4375000000000003
 40
0.4375000000000003
 40
0.5000000000000003
 40
0.5000000000000003
 40
0.5000000000000003
 40
0.5000000000000003
 10
151.0
 20
-3.004931839801748
 30
0.0
 10
151.1329244886899
 20
-3.004931839801762
 30
0.0
 10
151.2632780756331
 20
-2.992206104457568
 30
0.0
 10
151.5050793449854
 20
-2.941133482982129
 30
0.0
 10
151.6155063183845
 20
-2.902606710345663
 30
0.0
 10
151.7988527179624
 20
-2.80050269249298
 30
0.0
 10
151.8732389502709
 20
-2.735751394451581
 30
0.0
 10
151.9732676114052
 20
-2.585107969323031
 30
0.0
 10
151.9999146479446
 20
-2.497424646279851
 30
0.0
 10
152.0000849313627
 20
-2.311818648750855
 30
0.0
 10
151.9740088576557
 20
-2.213329069393564
 30
0.0
 10
151.873038461799
 20
-2.021895949831608
 30
0.0
 10
151.7993509135623
 20
-1.930667776113188
 30
0.0
 10
151.6146419530905
 20
-1.772333421027932
 30
0.0
 10
151.5044434034386
 20
-1.706323459163373
 30
0.0
 10
151.2634424023472
 20
-1.615468181522046
 30
0.0
 10
151.1314069608597
 20
-1.590770693750642
 30
0.0
 10
151.0004320759163
 20
-1.590718363744966
 30
0.0
  0
SPLINE
  5
2B6
330
1F
100
AcDbEntity
  8
SK3
  6
HIDDEN
370
    18
100
AcDbSpline
210
0.0
220
0.0
230
1.0
 70
     8
 71
     3
 72
    22
 73
    18
 74
     0
 42
0.000000001
 43
0.00000001
 40
0.4999999999999997
 40
0.4999999999999997
 40
0.4999999999999997
 40
0.4999999999999997
 40
0.5624999999999997
 40
0.5624999999999997
 40
0.6249999999999997
 40
0.6249999999999997
 40
0.6874999999999997
 40
0.6874999999999997
 40
0.7499999999999998
 40
0.7499999999999998
 40
0.8124999999999998
 40
0.8124999999999998
 40
0.8749999999999999
 40
0.8749999999999999
 40
0.9374999999999999
 40
0.9374999999999999
 40
1.0
 40
1.0
 40
1.0
 40
1.0
 10
151.0004320759163
 20
-3.004931794108542
 30
0.0
 10
150.869457190973
 20
-3.004959496002196
 30
0.0
 10
150.7372013926489
 20
-2.992238019562016
 30
0.0
 10
150.4961156250949
 20
-2.941454758133174
 30
0.0
 10
150.3856721685831
 20
-2.903176557568675
 30
0.0
 10
150.2010087669482
 20
-2.800511510930314
 30
0.0
 10
150.1275967714429
 20
-2.736968460281184
 30
0.0
 10
150.0260299124868
 20
-2.584091517260665
 30
0.0
 10
150.0000404497677
 20
-2.497596307033747
 30
0.0
 10
149.999959644146
 20
-2.311163175931646
 30
0.0
 10
150.0264596749711
 20
-2.212402905767238
 30
0.0
 10
150.126611947791
 20
-2.022596651961067
 30
0.0
 10
150.2009796020488
 20
-1.930458988638622
 30
0.0
 10
150.3842909629839
 20
-1.773173900991482
 30
0.0
 10
150.4948449511017
 20
-1.706682494598693
 30
0.0
 10
150.7359185715006
 20
-1.615618844490404
 30
0.0
 10
150.8670755113101
 20
-1.590718277428637
 30
0.0
 10
151.0
 20
-1.590718277428637
 30
0.0
  0
SPLINE
  5
2B7
330
1F
100
AcDbEntity
  8
SK3
  6
HIDDEN
370
    18
100
AcDbSpline
210
0.0
220
0.0
230
1.0
 70
     8
 71
     3
 72
    22
 73
    18
 74
     0
 42
0.000000001
 43
0.00000001
 40
0.0
 40
0.0
 40
0.0
 40
0.0
 40
0.0624999999999999
 40
0.0624999999999999
 40
0.1249999999999999
 40
0.1249999999999999
 40
0.1874999999999998
 40
0.1874999999999998
 40
0.2499999999999998
 40
0.2499999999999998
 40
0.3124999999999997
 40
0.3124999999999997
 40
0.3749999999999997
 40
0.3749999999999997
 40
0.4374999999999997
 40
0.4374999999999997
 40
0.4999999999999997
 40
0.4999999999999997
 40
0.4999999999999997
 40
0.4999999999999997
 10
151.0
 20
-1.590718277428637
 30
0.0
 10
151.13292448869
 20
-1.590718277428637
 30
0.0
 10
151.2632780756331
 20
-1.61537457559929
 30
0.0
 10
151.5050793449854
 20
-1.706594921569594
 30
0.0
 10
151.6155063183845
 20
-1.77303742786809
 30
0.0
 10
151.7988527179623
 20
-1.930277727402039
 30
0.0
 10
151.873238950271
 20
-2.022448194487974
 30
0.0
 10
151.9732676114052
 20
-2.211752512957538
 30
0.0
 10
151.9999146479447
 20
-2.310865964020723
 30
0.0
 10
152.0000849313627
 20
-2.496542790100583
 30
0.0
 10
151.9740088576558
 20
-2.58382320468423
 30
0.0
 10
151.873038461799
 20
-2.736220877513688
 30
0.0
 10
151.7993509135623
 20
-2.800255603646499
 30
0.0
 10
151.6146419530905
 20
-2.903057655676656
 30
0.0
 10
151.5044434034386
 20
-2.941287256663833
 30
0.0
 10
151.2634424023472
 20
-2.992151905902195
 30
0.0
 10
151.1314069608597
 20
-3.004904092214895
 30
0.0
 10
151.0004320759163
 20
-3.004931794108542
 30
0.0
  0
SPLINE
  5
2B8
330
1F
100
AcDbEntity
  8
SK3
  6
HIDDEN
370
    18
100
AcDbSpline
210
0.0
220
0.0
230
1.0
 70
     8
 71
     3
 72
    22
 73
    18
 74
     0
 42
0.000000001
 43
0.00000001
 40
0.5
 40
0.5
 40
0.5
 40
0.5
 40
0.5625
 40
0.5625
 40
0.625
 40
0.625
 40
0.6875
 40
0.6875
 40
0.75
 40
0.75
 40
0.8125
 40
0.8125
 40
0.875
 40
0.875
 40
0.9375
 40
0.9375
 40
1.0
 40
1.0
 40
1.0
 40
1.0
 10
150.9995679240836
 20
3.004931794108562
 30
0.0
 10
151.1305428090269
 20
3.004959496002217
 30
0.0
 10
151.262798607351
 20
2.992238019562037
 30
0.0
 10
151.503884374905
 20
2.941454758133208
 30
0.0
 10
151.6143278314169
 20
2.903176557568703
 30
0.0
 10
151.7989912330518
 20
2.800511510930342
 30
0.0
 10
151.8724032285571
 20
2.736968460281205
 30
0.0
 10
151.9739700875132
 20
2.584091517260707
 30
0.0
 10
151.9999595502323
 20
2.497596307033782
 30
0.0
 10
152.000040355854
 20
2.31116317593168
 30
0.0
 10
151.9735403250289
 20
2.212402905767286
 30
0.0
 10
151.8733880522089
 20
2.022596651961108
 30
0.0
 10
151.7990203979512
 20
1.930458988638663
 30
0.0
 10
151.6157090370161
 20
1.773173900991524
 30
0.0
 10
151.5051550488983
 20
1.706682494598742
 30
0.0
 10
151.2640814284994
 20
1.615618844490452
 30
0.0
 10
151.13292448869
 20
1.590718277428679
 30
0.0
 10
151.0
 20
1.590718277428679
 30
0.0
  0
SPLINE
  5
2B9
330
1F
100
AcDbEntity
  8
SK3
  6
HIDDEN
370
    18
100
AcDbSpline
210
0.0
220
0.0
230
1.0
 70
     8
 71
     3
 72
    22
 73
    18
 74
     0
 42
0.000000001
 43
0.00000001
 40
0.0
 40
0.0
 40
0.0
 40
0.0
 40
0.0625
 40
0.0625
 40
0.125
 40
0.125
 40
0.1875
 40
0.1875
 40
0.25
 40
0.25
 40
0.3125
 40
0.3125
 40
0.375
 40
0.375
 40
0.4375
 40
0.4375
 40
0.5
 40
0.5
 40
0.5
 40
0.5
 10
151.0
 20
1.590718277428679
 30
0.0
 10
150.86707551131
 20
1.590718277428679
 30
0.0
 10
150.7367219243668
 20
1.615374575599338
 30
0.0
 10
150.4949206550145
 20
1.706594921569649
 30
0.0
 10
150.3844936816155
 20
1.773037427868131
 30
0.0
 10
150.2011472820375
 20
1.930277727402087
 30
0.0
 10
150.126761049729
 20
2.022448194488016
 30
0.0
 10
150.0267323885946
 20
2.211752512957573
 30
0.0
 10
150.0000853520553
 20
2.310865964020758
 30
0.0
 10
149.9999150686372
 20
2.496542790100618
 30
0.0
 10
150.0259911423442
 20
2.583823204684265
 30
0.0
 10
150.126961538201
 20
2.736220877513715
 30
0.0
 10
150.2006490864377
 20
2.800255603646526
 30
0.0
 10
150.3853580469094
 20
2.903057655676684
 30
0.0
 10
150.4955565965614
 20
2.941287256663854
 30
0.0
 10
150.7365575976528
 20
2.992151905902209
 30
0.0
 10
150.8685930391403
 20
3.004904092214916
 30
0.0
 10
150.9995679240836
 20
3.004931794108562
 30
0.0
  0
SPLINE
  5
2BA
330
1F
100
AcDbEntity
  8
SK3
  6
HIDDEN
370
    18
100
AcDbSpline
210
0.0
220
0.0
230
1.0
 70
     8
 71
     3
 72
    22
 73
    18
 74
     0
 42
0.000000001
 43
0.00000001
 40
0.0
 40
0.0
 40
0.0
 40
0.0
 40
0.0625
 40
0.0625
 40
0.125
 40
0.125
 40
0.1875
 40
0.1875
 40
0.25
 40
0.25
 40
0.3125
 40
0.3125
 40
0.375
 40
0.375
 40
0.4375
 40
0.4375
 40
0.5
 40
0.5
 40
0.5
 40
0.5
 10
151.8477912478906
 20
4.065863991822656
 30
0.0
 10
151.8058740971013
 20
3.971098675609017
 30
0.0
 10
151.7616784701874
 20
3.879296759731803
 30
0.0
 10
151.6888939063788
 20
3.699628323592902
 30
0.0
 10
151.6623084918634
 20
3.612719880224545
 30
0.0
 10
151.6606120749404
 20
3.466083920619716
 30
0.0
 10
151.6862171933861
 20
3.408803946466985
 30
0.0
 10
151.7572258728454
 20
3.335661300809904
 30
0.0
 10
151.8019724422733
 20
3.317096894754705
 30
0.0
 10
151.8852799045595
 20
3.314748754223881
 30
0.0
 10
151.9247686375139
 20
3.331130053910626
 30
0.0
 10
151.9820376811325
 20
3.402872022003532
 30
0.0
 10
151.9992711456883
 20
3.4580617942529
 30
0.0
 10
152.0006825709452
 20
3.603428544281276
 30
0.0
 10
151.9846091399014
 20
3.690576440687195
 30
0.0
 10
151.9292296420244
 20
3.873822047129726
 30
0.0
 10
151.8902834138964
 20
3.969720510460989
 30
0.0
 10
151.8484813871195
 20
4.06430310272456
 30
0.0
  0
SPLINE
  5
2BB
330
1F
100
AcDbEntity
  8
SK3
  6
HIDDEN
370
    18
100
AcDbSpline
210
0.0
220
0.0
230
1.0
 70
     8
 71
     3
 72
    22
 73
    18
 74
     0
 42
0.000000001
 43
0.00000001
 40
0.0
 40
0.0
 40
0.0
 40
0.0
 40
0.0625
 40
0.0625
 40
0.125
 40
0.125
 40
0.1875
 40
0.1875
 40
0.25
 40
0.25
 40
0.3125
 40
0.3125
 40
0.375
 40
0.375
 40
0.4375
 40
0.4375
 40
0.5
 40
0.5
 40
0.5
 40
0.5
 10
150.1522087521093
 20
4.065863991822704
 30
0.0
 10
150.1103119333599
 20
4.160583341829679
 30
0.0
 10
150.071569641164
 20
4.255780241932569
 30
0.0
 10
150.0159261851136
 20
4.438873492899372
 30
0.0
 10
149.9997036681308
 20
4.526243255292629
 30
0.0
 10
150.0003049758858
 20
4.670294628034
 30
0.0
 10
150.0171240221242
 20
4.727076676460289
 30
0.0
 10
150.0742134291293
 20
4.800028661573911
 30
0.0
 10
150.1137268953119
 20
4.816749796457153
 30
0.0
 10
150.1972081439586
 20
4.814906086062952
 30
0.0
 10
150.2419680483962
 20
4.796545998335686
 30
0.0
 10
150.3132774444165
 20
4.723789163361834
 30
0.0
 10
150.3390924796792
 20
4.667533584674279
 30
0.0
 10
150.3380140339421
 20
4.519986684795892
 30
0.0
 10
150.3114191703212
 20
4.433099147340968
 30
0.0
 10
150.2392966709687
 20
4.25461569698854
 30
0.0
 10
150.1945786494689
 20
4.161558622416866
 30
0.0
 10
150.1530596567005
 20
4.067786737996865
 30
0.0
  0
SPLINE
  5
2BC
330
1F
100
AcDbEntity
  8
SK3
  6
HIDDEN
370
    18
100
AcDbSpline
210
0.0
220
0.0
230
1.0
 70
     8
 71
     3
 72
    22
 73
    18
 74
     0
 42
0.000000001
 43
0.00000001
 40
0.0
 40
0.0
 40
0.0
 40
0.0
 40
0.0625
 40
0.0625
 40
0.125
 40
0.125
 40
0.1875
 40
0.1875
 40
0.25
 40
0.25
 40
0.3125
 40
0.3125
 40
0.375
 40
0.375
 40
0.4375
 40
0.4375
 40
0.5
 40
0.5
 40
0.5
 40
0.5
 10
151.8477912478907
 20
-4.065863991822623
 30
0.0
 10
151.8896880666413
 20
-4.160583341828963
 30
0.0
 10
151.9284303588391
 20
-4.255780241931263
 30
0.0
 10
151.9840738148915
 20
-4.438873492897202
 30
0.0
 10
152.000296331876
 20
-4.526243255290237
 30
0.0
 10
151.9996950241231
 20
-4.670294628031592
 30
0.0
 10
151.9828759778856
 20
-4.727076676458141
 30
0.0
 10
151.9257865708822
 20
-4.800028661572632
 30
0.0
 10
151.8862731046997
 20
-4.816749796456469
 30
0.0
 10
151.8027918560527
 20
-4.814906086063599
 30
0.0
 10
151.7580319516144
 20
-4.796545998336989
 30
0.0
 10
151.6867225555932
 20
-4.723789163364214
 30
0.0
 10
151.66090752033
 20
-4.66753358467707
 30
0.0
 10
151.6619859660646
 20
-4.519986684798664
 30
0.0
 10
151.6885808296842
 20
-4.433099147343333
 30
0.0
 10
151.7607033290344
 20
-4.254615696989794
 30
0.0
 10
151.8054213505324
 20
-4.161558622417425
 30
0.0
 10
151.8469403432995
 20
-4.067786737996789
 30
0.0
  0
SPLINE
  5
2BD
330
1F
100
AcDbEntity
  8
SK3
  6
HIDDEN
370
    18
100
AcDbSpline
210
0.0
220
0.0
230
1.0
 70
     8
 71
     3
 72
    22
 73
    18
 74
     0
 42
0.000000001
 43
0.00000001
 40
0.0
 40
0.0
 40
0.0
 40
0.0
 40
0.0625
 40
0.0625
 40
0.125
 40
0.125
 40
0.1875
 40
0.1875
 40
0.25
 40
0.25
 40
0.3125
 40
0.3125
 40
0.375
 40
0.375
 40
0.4375
 40
0.4375
 40
0.5
 40
0.5
 40
0.5
 40
0.5
 10
150.1522087521093
 20
-4.065863991822645
 30
0.0
 10
150.1941259029034
 20
-3.97109867561123
 30
0.0
 10
150.2383215298223
 20
-3.879296759736386
 30
0.0
 10
150.3111060936411
 20
-3.699628323601368
 30
0.0
 10
150.3376915081602
 20
-3.612719880234424
 30
0.0
 10
150.3393879250914
 20
-3.46608392062971
 30
0.0
 10
150.313782806649
 20
-3.408803946475598
 30
0.0
 10
150.2427741271936
 20
-3.335661300814721
 30
0.0
 10
150.198027557767
 20
-3.317096894757125
 30
0.0
 10
150.1147200954801
 20
-3.314748754221855
 30
0.0
 10
150.0752313625252
 20
-3.331130053906481
 30
0.0
 10
150.0179623189026
 20
-3.402872021996333
 30
0.0
 10
150.0007288543437
 20
-3.458061794244769
 30
0.0
 10
149.9993174290792
 20
-3.60342854427306
 30
0.0
 10
150.0153908601187
 20
-3.690576440679851
 30
0.0
 10
150.0707703579858
 20
-3.873822047125334
 30
0.0
 10
150.1097165861086
 20
-3.969720510458689
 30
0.0
 10
150.1515186128804
 20
-4.064303102724497
 30
0.0
  0
SPLINE
  5
2BE
330
1F
100
AcDbEntity
  8
SK3
  6
HIDDEN
370
    18
100
AcDbSpline
210
0.0
220
0.0
230
1.0
 70
     8
 71
     3
 72
    22
 73
    18
 74
     0
 42
0.000000001
 43
0.00000001
 40
0.0
 40
0.0
 40
0.0
 40
0.0
 40
0.0625
 40
0.0625
 40
0.125
 40
0.125
 40
0.1875
 40
0.1875
 40
0.25
 40
0.25
 40
0.3125
 40
0.3125
 40
0.375
 40
0.375
 40
0.4375
 40
0.4375
 40
0.5
 40
0.5
 40
0.5
 40
0.5
 10
150.1522087521093
 20
-4.065863991822645
 30
0.0
 10
150.1941259029034
 20
-3.97109867561123
 30
0.0
 10
150.2383215298223
 20
-3.879296759736386
 30
0.0
 10
150.3111060936411
 20
-3.699628323601368
 30
0.0
 10
150.3376915081602
 20
-3.612719880234424
 30
0.0
 10
150.3393879250914
 20
-3.46608392062971
 30
0.0
 10
150.313782806649
 20
-3.408803946475598
 30
0.0
 10
150.2427741271936
 20
-3.335661300814721
 30
0.0
 10
150.198027557767
 20
-3.317096894757125
 30
0.0
 10
150.1147200954801
 20
-3.314748754221855
 30
0.0
 10
150.0752313625252
 20
-3.331130053906481
 30
0.0
 10
150.0179623189026
 20
-3.402872021996333
 30
0.0
 10
150.0007288543437
 20
-3.458061794244769
 30
0.0
 10
149.9993174290792
 20
-3.60342854427306
 30
0.0
 10
150.0153908601187
 20
-3.690576440679851
 30
0.0
 10
150.0707703579858
 20
-3.873822047125334
 30
0.0
 10
150.1097165861086
 20
-3.969720510458689
 30
0.0
 10
150.1515186128804
 20
-4.064303102724497
 30
0.0
  0
SPLINE
  5
2BF
330
1F
100
AcDbEntity
  8
SK3
  6
HIDDEN
370
    18
100
AcDbSpline
210
0.0
220
0.0
230
1.0
 70
     8
 71
     3
 72
    38
 73
    34
 74
     0
 42
0.000000001
 43
0.00000001
 40
0.5000000000000001
 40
0.5000000000000001
 40
0.5000000000000001
 40
0.5000000000000001
 40
0.53125
 40
0.53125
 40
0.5624999999999999
 40
0.5624999999999999
 40
0.5937499999999999
 40
0.5937499999999999
 40
0.6249999999999998
 40
0.6249999999999998
 40
0.6562499999999997
 40
0.6562499999999997
 40
0.6874999999999993
 40
0.6874999999999993
 40
0.7187499999999991
 40
0.7187499999999991
 40
0.7499999999999988
 40
0.7499999999999988
 40
0.8124999999999989
 40
0.8124999999999989
 40
0.8437499999999991
 40
0.8437499999999991
 40
0.8749999999999992
 40
0.8749999999999992
 40
0.9062499999999993
 40
0.9062499999999993
 40
0.9374999999999994
 40
0.9374999999999994
 40
0.9687499999999997
 40
0.9687499999999997
 40
0.9843749999999999
 40
0.9843749999999999
 40
1.0
 40
1.0
 40
1.0
 40
1.0
 10
9.562165917302135
 20
6.125924408695544
 30
0.0
 10
9.606669608828708
 20
6.013467687298161
 30
0.0
 10
9.666912210336886
 20
5.905884945004876
 30
0.0
 10
9.811812632231451
 20
5.711052008123819
 30
0.0
 10
9.897567425050449
 20
5.621796231982678
 30
0.0
 10
10.09207138823527
 20
5.461680698794911
 30
0.0
 10
10.19846038260023
 20
5.392476287191906
 30
0.0
 10
10.42991716747869
 20
5.269813411563132
 30
0.0
 10
10.55509168137378
 20
5.21692542740904
 30
0.0
 10
10.8014280263147
 20
5.127164762684256
 30
0.0
 10
10.92088750473025
 20
5.090193011698826
 30
0.0
 10
11.13971660654355
 20
5.026839184588707
 30
0.0
 10
11.23726506040224
 20
5.001058374472036
 30
0.0
 10
11.4179033868352
 20
4.957149609259766
 30
0.0
 10
11.50153843453269
 20
4.939075883495663
 30
0.0
 10
11.65792087602176
 20
4.910803969750497
 30
0.0
 10
11.73120965691776
 20
4.900482983794713
 30
0.0
 10
11.94219226675064
 20
4.881585744675298
 30
0.0
 10
12.0720318508518
 20
4.884644857652551
 30
0.0
 10
12.25447266366204
 20
4.924398779978366
 30
0.0
 10
12.31288111599015
 20
4.943518096519741
 30
0.0
 10
12.42478986086719
 20
4.997536910090171
 30
0.0
 10
12.4786451046158
 20
5.032683753674456
 30
0.0
 10
12.57771343290427
 20
5.124582956539638
 30
0.0
 10
12.62343468736295
 20
5.181429676878968
 30
0.0
 10
12.70112312343483
 20
5.328631993128618
 30
0.0
 10
12.73250492214957
 20
5.419078647746701
 30
0.0
 10
12.76725985948268
 20
5.636144753928842
 30
0.0
 10
12.76963724396989
 20
5.763529066354567
 30
0.0
 10
12.74922628849654
 20
5.959961303655812
 30
0.0
 10
12.73857436485565
 20
6.026645425987975
 30
0.0
 10
12.71187670664381
 20
6.15609285967016
 30
0.0
 10
12.69586259956382
 20
6.219373380553863
 30
0.0
 10
12.67730763443389
 20
6.282635864365896
 30
0.0
  0
SPLINE
  5
2C0
330
1F
100
AcDbEntity
  8
SK3
  6
HIDDEN
370
    18
100
AcDbSpline
210
0.0
220
0.0
230
1.0
 70
     8
 71
     3
 72
    32
 73
    28
 74
     0
 42
0.000000001
 43
0.00000001
 40
0.0
 40
0.0
 40
0.0
 40
0.0
 40
0.0312500000000002
 40
0.0312500000000002
 40
0.0625000000000005
 40
0.0625000000000005
 40
0.1250000000000008
 40
0.1250000000000008
 40
0.1875000000000012
 40
0.1875000000000012
 40
0.2187500000000012
 40
0.2187500000000012
 40
0.2500000000000013
 40
0.2500000000000013
 40
0.2812500000000011
 40
0.2812500000000011
 40
0.312500000000001
 40
0.312500000000001
 40
0.3437500000000008
 40
0.3437500000000008
 40
0.3750000000000006
 40
0.3750000000000006
 40
0.4375000000000003
 40
0.4375000000000003
 40
0.4687500000000002
 40
0.4687500000000002
 40
0.5000000000000001
 40
0.5000000000000001
 40
0.5000000000000001
 40
0.5000000000000001
 10
12.67730763443388
 20
6.282635864365896
 30
0.0
 10
12.640197704174
 20
6.40916083198995
 30
0.0
 10
12.59620302127296
 20
6.525183772575705
 30
0.0
 10
12.49971880657839
 20
6.745107212914711
 30
0.0
 10
12.44665882244547
 20
6.849501975615717
 30
0.0
 10
12.28056941339613
 20
7.142667131061317
 30
0.0
 10
12.16116169070408
 20
7.312906984757044
 30
0.0
 10
11.90308945990529
 20
7.621685780147176
 30
0.0
 10
11.76485718622877
 20
7.759624086935254
 30
0.0
 10
11.53444141192585
 20
7.935417796768225
 30
0.0
 10
11.45348400885544
 20
7.988991492998105
 30
0.0
 10
11.27594996715924
 20
8.081959065069585
 30
0.0
 10
11.18041818036967
 20
8.120871379332154
 30
0.0
 10
10.96802844471288
 20
8.171096792586725
 30
0.0
 10
10.85203519791092
 20
8.18144341638603
 30
0.0
 10
10.60633681320576
 20
8.156333337234544
 30
0.0
 10
10.48187270231073
 20
8.121166937842931
 30
0.0
 10
10.24397755356155
 20
8.011197080412858
 30
0.0
 10
10.13459384449099
 20
7.939220174898478
 30
0.0
 10
9.93404200598097
 20
7.767804544696038
 30
0.0
 10
9.845027015680644
 20
7.669805098254396
 30
0.0
 10
9.61653188072295
 20
7.350566526001887
 30
0.0
 10
9.516243573240768
 20
7.103299108147453
 30
0.0
 10
9.462270080515298
 20
6.727888567267057
 30
0.0
 10
9.460111331805896
 20
6.603789246383506
 30
0.0
 10
9.487789440891708
 20
6.357725959822366
 30
0.0
 10
9.517662225775576
 20
6.238381130092927
 30
0.0
 10
9.562165917302135
 20
6.125924408695544
 30
0.0
  0
SPLINE
  5
2C1
330
1F
100
AcDbEntity
  8
SK3
  6
HIDDEN
370
    18
100
AcDbSpline
210
0.0
220
0.0
230
1.0
 70
    24
 71
     2
 72
     6
 73
     3
 74
     0
 42
0.000000001
 43
0.00000001
 40
0.0
 40
0.0
 40
0.0
 40
0.25
 40
0.25
 40
0.25
 10
3.699999999999995
 20
24.79999999999816
 30
0.0
 10
3.676565972443896
 20
24.79999999999854
 30
0.0
 10
3.642202806809658
 20
24.79999999999908
 30
0.0
  0
SPLINE
  5
2C2
330
1F
100
AcDbEntity
  8
SK3
  6
HIDDEN
370
    18
100
AcDbSpline
210
0.0
220
0.0
230
1.0
 70
    24
 71
     3
 72
     8
 73
     4
 74
     0
 42
0.000000001
 43
0.00000001
 40
0.25
 40
0.25
 40
0.25
 40
0.25
 40
0.5
 40
0.5
 40
0.5
 40
0.5
 10
3.642202806809658
 20
24.79999999999908
 30
0.0
 10
3.607839641175392
 20
24.79999999999932
 30
0.0
 10
3.563721029747086
 20
24.79999999999966
 30
0.0
 10
3.515954602328591
 20
24.80000000000001
 30
0.0
  0
SPLINE
  5
2C3
330
1F
100
AcDbEntity
  8
SK3
  6
HIDDEN
370
    18
100
AcDbSpline
210
0.0
220
0.0
230
1.0
 70
    24
 71
     3
 72
     8
 73
     4
 74
     0
 42
0.000000001
 43
0.00000001
 40
0.5
 40
0.5
 40
0.5
 40
0.5
 40
1.0
 40
1.0
 40
1.0
 40
1.0
 10
3.515954602328591
 20
24.80000000000001
 30
0.0
 10
3.420421747491617
 20
24.80000000000001
 30
0.0
 10
3.311196876076408
 20
24.80000000000001
 30
0.0
 10
3.199999999999981
 20
24.80000000000001
 30
0.0
  0
SPLINE
  5
2C4
330
1F
100
AcDbEntity
  8
SK3
  6
HIDDEN
370
    18
100
AcDbSpline
210
0.0
220
0.0
230
1.0
 70
    24
 71
     3
 72
     8
 73
     4
 74
     0
 42
0.000000001
 43
0.00000001
 40
0.0
 40
0.0
 40
0.0
 40
0.0
 40
0.4999999999999989
 40
0.4999999999999989
 40
0.4999999999999989
 40
0.4999999999999989
 10
3.199999999999981
 20
-22.6
 30
0.0
 10
3.311302974123256
 20
-22.6
 30
0.0
 10
3.420333650225621
 20
-22.6
 30
0.0
 10
3.516223742531688
 20
-22.59999999999999
 30
0.0
  0
SPLINE
  5
2C5
330
1F
100
AcDbEntity
  8
SK3
  6
HIDDEN
370
    18
100
AcDbSpline
210
0.0
220
0.0
230
1.0
 70
    24
 71
     3
 72
     8
 73
     4
 74
     0
 42
0.000000001
 43
0.00000001
 40
0.4999999999999989
 40
0.4999999999999989
 40
0.4999999999999989
 40
0.4999999999999989
 40
0.7499999999999994
 40
0.7499999999999994
 40
0.7499999999999994
 40
0.7499999999999994
 10
3.516223742531688
 20
-22.59999999999999
 30
0.0
 10
3.564168788684707
 20
-22.59999999999999
 30
0.0
 10
3.608443186973037
 20
-22.6
 30
0.0
 10
3.642831304242561
 20
-22.6
 30
0.0
  0
SPLINE
  5
2C6
330
1F
100
AcDbEntity
  8
SK3
  6
HIDDEN
370
    18
100
AcDbSpline
210
0.0
220
0.0
230
1.0
 70
    24
 71
     2
 72
     6
 73
     3
 74
     0
 42
0.000000001
 43
0.00000001
 40
0.7499999999999994
 40
0.7499999999999994
 40
0.7499999999999994
 40
1.0
 40
1.0
 40
1.0
 10
3.642831304242547
 20
-22.6
 30
0.0
 10
3.677219421512085
 20
-22.59999999999984
 30
0.0
 10
3.699999999999981
 20
-22.59999999999973
 30
0.0
  0
SPLINE
  5
2C7
330
1F
100
AcDbEntity
  8
SK3
  6
HIDDEN
370
    18
100
AcDbSpline
210
0.0
220
0.0
230
1.0
 70
    24
 71
     3
 72
     8
 73
     4
 74
     0
 42
0.000000001
 43
0.00000001
 40
0.0
 40
0.0
 40
0.0
 40
0.0
 40
0.4999999999999976
 40
0.4999999999999976
 40
0.4999999999999976
 40
0.4999999999999976
 10
19.05000000001061
 20
24.79999999743043
 30
0.0
 10
18.93869702588361
 20
24.79999999800089
 30
0.0
 10
18.82966634977758
 20
24.79999999855968
 30
0.0
 10
18.73377625746829
 20
24.79999999905113
 30
0.0
  0
SPLINE
  5
2C8
330
1F
100
AcDbEntity
  8
SK3
  6
HIDDEN
370
    18
100
AcDbSpline
210
0.0
220
0.0
230
1.0
 70
    24
 71
     3
 72
     8
 73
     4
 74
     0
 42
0.000000001
 43
0.00000001
 40
0.4999999999999976
 40
0.4999999999999976
 40
0.4999999999999976
 40
0.4999999999999976
 40
0.7499999999999988
 40
0.7499999999999988
 40
0.7499999999999988
 40
0.7499999999999988
 10
18.73377625746829
 20
24.79999999905113
 30
0.0
 10
18.68583121131527
 20
24.79999999929685
 30
0.0
 10
18.64155681302693
 20
24.79999999952378
 30
0.0
 10
18.6071686957574
 20
24.79999999970002
 30
0.0
  0
SPLINE
  5
2C9
330
1F
100
AcDbEntity
  8
SK3
  6
HIDDEN
370
    18
100
AcDbSpline
210
0.0
220
0.0
230
1.0
 70
    24
 71
     2
 72
     6
 73
     3
 74
     0
 42
0.000000001
 43
0.00000001
 40
0.7499999999999988
 40
0.7499999999999988
 40
0.7499999999999988
 40
1.0
 40
1.0
 40
1.0
 10
18.6071686957574
 20
24.79999999970002
 30
0.0
 10
18.57278057848785
 20
24.79999999988045
 30
0.0
 10
18.54999999999997
 20
24.79999999999999
 30
0.0
  0
SPLINE
  5
2CA
330
1F
100
AcDbEntity
  8
SK3
  6
HIDDEN
370
    18
100
AcDbSpline
210
0.0
220
0.0
230
1.0
 70
    24
 71
     2
 72
     6
 73
     3
 74
     0
 42
0.000000001
 43
0.00000001
 40
0.0
 40
0.0
 40
0.0
 40
0.2500000000000006
 40
0.2500000000000006
 40
0.2500000000000006
 10
18.54999999999997
 20
-22.6
 30
0.0
 10
18.57343402755607
 20
-22.6
 30
0.0
 10
18.60779719319032
 20
-22.6
 30
0.0
  0
SPLINE
  5
2CB
330
1F
100
AcDbEntity
  8
SK3
  6
HIDDEN
370
    18
100
AcDbSpline
210
0.0
220
0.0
230
1.0
 70
    24
 71
     3
 72
     8
 73
     4
 74
     0
 42
0.000000001
 43
0.00000001
 40
0.2500000000000006
 40
0.2500000000000006
 40
0.2500000000000006
 40
0.2500000000000006
 40
0.5000000000000011
 40
0.5000000000000011
 40
0.5000000000000011
 40
0.5000000000000011
 10
18.60779719319032
 20
-22.6
 30
0.0
 10
18.64216035882457
 20
-22.60000000000001
 30
0.0
 10
18.68627897025288
 20
-22.6
 30
0.0
 10
18.73404539767137
 20
-22.6
 30
0.0
  0
SPLINE
  5
2CC
330
1F
100
AcDbEntity
  8
SK3
  6
HIDDEN
370
    18
100
AcDbSpline
210
0.0
220
0.0
230
1.0
 70
    24
 71
     3
 72
     8
 73
     4
 74
     0
 42
0.000000001
 43
0.00000001
 40
0.5000000000000011
 40
0.5000000000000011
 40
0.5000000000000011
 40
0.5000000000000011
 40
1.0
 40
1.0
 40
1.0
 40
1.0
 10
18.73404539767143
 20
-22.6
 30
0.0
 10
18.82957825250732
 20
-22.60000000000019
 30
0.0
 10
18.93880312392127
 20
-22.6000000000004
 30
0.0
 10
19.04999999999646
 20
-22.60000000000062
 30
0.0
  0
SPLINE
  5
2CD
330
1F
100
AcDbEntity
  8
1
  6
HIDDEN
370
    18
100
AcDbSpline
210
0.0
220
0.0
230
1.0
 70
     8
 71
     3
 72
     8
 73
     4
 74
     0
 42
0.000000001
 43
0.00000001
 40
0.0000004440048905
 40
0.0000004440048905
 40
0.0000004440048905
 40
0.0000004440048905
 40
0.0009646370243566
 40
0.0009646370243566
 40
0.0009646370243566
 40
0.0009646370243566
 10
7.593163357943219
 20
-30.53358776427177
 30
0.0
 10
7.737935129404281
 20
-30.33068680506049
 30
0.0
 10
7.882284230187817
 20
-30.1276347346489
 30
0.0
 10
8.026176059835437
 20
-29.92442104703123
 30
0.0
  0
SPLINE
  5
2CE
330
1F
100
AcDbEntity
  8
1
  6
HIDDEN
370
    18
100
AcDbSpline
210
0.0
220
0.0
230
1.0
 70
     8
 71
     3
 72
    12
 73
     8
 74
     0
 42
0.000000001
 43
0.00000001
 40
0.0
 40
0.0
 40
0.0
 40
0.0
 40
0.5000000000000026
 40
0.5000000000000026
 40
0.7500000000000012
 40
0.7500000000000012
 40
1.0
 40
1.0
 40
1.0
 40
1.0
 10
3.342360453319787
 20
-30.28206059371145
 30
0.0
 10
3.407233921616751
 20
-30.35483915221221
 30
0.0
 10
3.495808890589536
 20
-30.41892553564758
 30
0.0
 10
3.652325163055706
 20
-30.48577014250391
 30
0.0
 10
3.709856352906007
 20
-30.5037189395843
 30
0.0
 10
3.827423658701118
 20
-30.52743183035032
 30
0.0
 10
3.88783367911516
 20
-30.53358776427179
 30
0.0
 10
3.949999999999982
 20
-30.53358776427178
 30
0.0
  0
SPLINE
  5
2CF
330
1F
100
AcDbEntity
  8
1
  6
HIDDEN
370
    18
100
AcDbSpline
210
0.0
220
0.0
230
1.0
 70
     8
 71
     3
 72
     8
 73
     4
 74
     0
 42
0.000000001
 43
0.00000001
 40
0.0
 40
0.0
 40
0.0
 40
0.0
 40
1.0
 40
1.0
 40
1.0
 40
1.0
 10
9.199999999999985
 20
27.81278402659764
 30
0.0
 10
8.809552709621943
 20
28.51712062712622
 30
0.0
 10
8.418220950069138
 20
29.22097245908283
 30
0.0
 10
8.026176059835437
 20
29.92442104703122
 30
0.0
  0
SPLINE
  5
2D0
330
1F
100
AcDbEntity
  8
1
  6
HIDDEN
370
    18
100
AcDbSpline
210
0.0
220
0.0
230
1.0
 70
     8
 71
     3
 72
    12
 73
     8
 74
     0
 42
0.000000001
 43
0.00000001
 40
0.0
 40
0.0
 40
0.0
 40
0.0
 40
0.25
 40
0.25
 40
0.5
 40
0.5
 40
1.0
 40
1.0
 40
1.0
 40
1.0
 10
9.949999999999852
 20
26.80430888868453
 30
0.0
 10
9.849409980032576
 20
26.80430888868455
 30
0.0
 10
9.749711902723488
 20
26.82554900158577
 30
0.0
 10
9.565258516970628
 20
26.90714605874188
 30
0.0
 10
9.483117428678371
 20
26.96595411475678
 30
0.0
 10
9.275673141369847
 20
27.18722701822957
 30
0.0
 10
9.200000000000042
 20
27.38694221278444
 30
0.0
 10
9.199999999999985
 20
27.58683517549642
 30
0.0
  0
SPLINE
  5
2D1
330
1F
100
AcDbEntity
  8
1
  6
HIDDEN
370
    18
100
AcDbSpline
210
0.0
220
0.0
230
1.0
 70
     8
 71
     3
 72
    12
 73
     8
 74
     0
 42
0.000000001
 43
0.00000001
 40
0.0
 40
0.0
 40
0.0
 40
0.0
 40
0.5
 40
0.5
 40
0.75
 40
0.75
 40
1.0
 40
1.0
 40
1.0
 40
1.0
 10
13.02999999999999
 20
27.58683517549641
 30
0.0
 10
13.02999999999998
 20
27.38730486177283
 30
0.0
 10
12.95302281717258
 20
27.18608493015602
 30
0.0
 10
12.74820531949868
 20
26.96724120817088
 30
0.0
 10
12.66387914932274
 20
26.90669362633139
 30
0.0
 10
12.48028096615927
 20
26.82561714378249
 30
0.0
 10
12.37982596796197
 20
26.80430888868441
 30
0.0
 10
12.27999999999999
 20
26.80430888868439
 30
0.0
  0
SPLINE
  5
2D2
330
1F
100
AcDbEntity
  8
1
  6
HIDDEN
370
    18
100
AcDbSpline
210
0.0
220
0.0
230
1.0
 70
     8
 71
     3
 72
     8
 73
     4
 74
     0
 42
0.000000001
 43
0.00000001
 40
0.0
 40
0.0
 40
0.0
 40
0.0
 40
1.0
 40
1.0
 40
1.0
 40
1.0
 10
14.20382394016452
 20
29.92442104703122
 30
0.0
 10
13.81177904993083
 20
29.22097245908283
 30
0.0
 10
13.42044729037803
 20
28.51712062712621
 30
0.0
 10
13.02999999999999
 20
27.81278402659762
 30
0.0
  0
SPLINE
  5
2D3
330
1F
100
AcDbEntity
  8
1
  6
HIDDEN
370
    18
100
AcDbSpline
210
0.0
220
0.0
230
1.0
 70
     8
 71
     3
 72
    10
 73
     6
 74
     0
 42
0.000000001
 43
0.00000001
 40
0.0
 40
0.0
 40
0.0
 40
0.0
 40
0.5
 40
0.5
 40
1.0
 40
1.0
 40
1.0
 40
1.0
 10
18.30000000000011
 20
-30.53358776427172
 30
0.0
 10
18.42368188445596
 20
-30.53358776427171
 30
0.0
 10
18.54455277250176
 20
-30.5083380277094
 30
0.0
 10
18.75368371477889
 20
-30.41926076636105
 30
0.0
 10
18.84219916226927
 20
-30.35547514930995
 30
0.0
 10
18.90763954668015
 20
-30.28206059371139
 30
0.0
  0
SPLINE
  5
2D4
330
1F
100
AcDbEntity
  8
1
  6
HIDDEN
370
    18
100
AcDbSpline
210
0.0
220
0.0
230
1.0
 70
     8
 71
     3
 72
     8
 73
     4
 74
     0
 42
0.000000001
 43
0.00000001
 40
0.0000003163145216
 40
0.0000003163145216
 40
0.0000003163145216
 40
0.0000003163145216
 40
0.0009645093339877
 40
0.0009645093339877
 40
0.0009645093339877
 40
0.0009645093339877
 10
14.20382394016452
 20
-29.92442104703123
 30
0.0
 10
14.34771576981214
 20
-30.1276347346489
 30
0.0
 10
14.49206487059568
 20
-30.33068680506049
 30
0.0
 10
14.63683664205673
 20
-30.53358776427178
 30
0.0
  0
SPLINE
  5
2D5
330
1F
100
AcDbEntity
  8
SK3
  6
HIDDEN
370
    18
100
AcDbSpline
210
0.0
220
0.0
230
1.0
 70
     8
 71
     3
 72
    16
 73
    12
 74
     0
 42
0.000000001
 43
0.00000001
 40
0.0
 40
0.0
 40
0.0
 40
0.0
 40
0.2500000000000005
 40
0.2500000000000005
 40
0.500000000000001
 40
0.500000000000001
 40
0.7500000000000016
 40
0.7500000000000016
 40
0.8750000000000008
 40
0.8750000000000008
 40
1.0
 40
1.0
 40
1.0
 40
1.0
 10
9.949999999999987
 20
11.08803165800864
 30
0.0
 10
9.839566273098372
 20
11.01523830532303
 30
0.0
 10
9.741170982536573
 20
10.94274942699642
 30
0.0
 10
9.565896651447941
 20
10.79540173334308
 30
0.0
 10
9.492111586583308
 20
10.7232840844405
 30
0.0
 10
9.365778730877405
 20
10.58156849206971
 30
0.0
 10
9.313717594084725
 20
10.51146513976871
 30
0.0
 10
9.253386133244417
 20
10.42213484998832
 30
0.0
 10
9.236040483042524
 20
10.39455892286185
 30
0.0
 10
9.209369801940287
 20
10.35815034999983
 30
0.0
 10
9.199999999999985
 20
10.34977153459679
 30
0.0
 10
9.199999999999985
 20
10.37317674370887
 30
0.0
  0
SPLINE
  5
2D6
330
1F
100
AcDbEntity
  8
1
  6
HIDDEN
370
    18
100
AcDbSpline
210
0.0
220
0.0
230
1.0
 70
     8
 71
     3
 72
    12
 73
     8
 74
     0
 42
0.000000001
 43
0.00000001
 40
0.0
 40
0.0
 40
0.0
 40
0.0
 40
0.5000000000000057
 40
0.5000000000000057
 40
0.7500000000000028
 40
0.7500000000000028
 40
1.0
 40
1.0
 40
1.0
 40
1.0
 10
18.90763954668018
 20
30.28206059371145
 30
0.0
 10
18.84276607838319
 20
30.35483915221219
 30
0.0
 10
18.75419110941043
 20
30.41892553564756
 30
0.0
 10
18.59767483694424
 20
30.4857701425039
 30
0.0
 10
18.54014364709396
 20
30.50371893958432
 30
0.0
 10
18.42257634129883
 20
30.52743183035029
 30
0.0
 10
18.36216632088479
 20
30.53358776427176
 30
0.0
 10
18.29999999999998
 20
30.53358776427178
 30
0.0
  0
SPLINE
  5
2D7
330
1F
100
AcDbEntity
  8
1
  6
HIDDEN
370
    18
100
AcDbSpline
210
0.0
220
0.0
230
1.0
 70
     8
 71
     3
 72
     8
 73
     4
 74
     0
 42
0.000000001
 43
0.00000001
 40
0.0000004440048905
 40
0.0000004440048905
 40
0.0000004440048905
 40
0.0000004440048905
 40
0.0009646370243567
 40
0.0009646370243567
 40
0.0009646370243567
 40
0.0009646370243567
 10
14.63683664205673
 20
30.53358776427178
 30
0.0
 10
14.49206487059568
 20
30.33068680506049
 30
0.0
 10
14.34771576981214
 20
30.1276347346489
 30
0.0
 10
14.20382394016452
 20
29.92442104703122
 30
0.0
  0
SPLINE
  5
2D8
330
1F
100
AcDbEntity
  8
1
  6
HIDDEN
370
    18
100
AcDbSpline
210
0.0
220
0.0
230
1.0
 70
     8
 71
     3
 72
    12
 73
     8
 74
     0
 42
0.000000001
 43
0.00000001
 40
0.0
 40
0.0
 40
0.0
 40
0.0
 40
0.2499999999999984
 40
0.2499999999999984
 40
0.4999999999999969
 40
0.4999999999999969
 40
1.0
 40
1.0
 40
1.0
 40
1.0
 10
12.28000000000055
 20
-26.80430888868498
 30
0.0
 10
12.37993513376335
 20
-26.80430888868507
 30
0.0
 10
12.48009033907319
 20
-26.82550499496745
 30
0.0
 10
12.66441071705221
 20
-26.90695638543225
 30
0.0
 10
12.74729973892419
 20
-26.96638523181583
 30
0.0
 10
12.95364129372373
 20
-27.18652348670595
 30
0.0
 10
13.02999999999985
 20
-27.38731056125077
 30
0.0
 10
13.03
 20
-27.5868351754964
 30
0.0
  0
SPLINE
  5
2D9
330
1F
100
AcDbEntity
  8
SK3
  6
HIDDEN
370
    18
100
AcDbSpline
210
0.0
220
0.0
230
1.0
 70
     8
 71
     3
 72
    16
 73
    12
 74
     0
 42
0.000000001
 43
0.00000001
 40
0.0
 40
0.0
 40
0.0
 40
0.0
 40
0.2499999999999998
 40
0.2499999999999998
 40
0.4999999999999996
 40
0.4999999999999996
 40
0.7499999999999993
 40
0.7499999999999993
 40
0.8749999999999997
 40
0.8749999999999997
 40
1.0
 40
1.0
 40
1.0
 40
1.0
 10
12.27999999999919
 20
-14.84175400946561
 30
0.0
 10
12.38980194730154
 20
-14.77577918492644
 30
0.0
 10
12.48772649260153
 20
-14.71390797499406
 30
0.0
 10
12.66276572822427
 20
-14.59252964411549
 30
0.0
 10
12.73659155903574
 20
-14.53541337993179
 30
0.0
 10
12.86328586416603
 20
-14.42717476030439
 30
0.0
 10
12.91570770854737
 20
-14.3754150824335
 30
0.0
 10
12.9765549386781
 20
-14.31659247224962
 30
0.0
 10
12.99405038404773
 20
-14.29983429832845
 30
0.0
 10
13.02080668460825
 20
-14.28641213808441
 30
0.0
 10
13.02999999999919
 20
-14.29079162571377
 30
0.0
 10
13.02999999999919
 20
-14.32307645371311
 30
0.0
  0
SPLINE
  5
2DA
330
1F
100
AcDbEntity
  8
SK3
  6
HIDDEN
370
    18
100
AcDbSpline
210
0.0
220
0.0
230
1.0
 70
     8
 71
     3
 72
    16
 73
    12
 74
     0
 42
0.000000001
 43
0.00000001
 40
0.0
 40
0.0
 40
0.0
 40
0.0
 40
0.1249999999999974
 40
0.1249999999999974
 40
0.2499999999999948
 40
0.2499999999999948
 40
0.4999999999999966
 40
0.4999999999999966
 40
0.7499999999999982
 40
0.7499999999999982
 40
1.0
 40
1.0
 40
1.0
 40
1.0
 10
13.02999999999756
 20
10.37317674370844
 30
0.0
 10
13.02999999999756
 20
10.35012222948211
 30
0.0
 10
13.02043617209613
 20
10.35837864255939
 30
0.0
 10
12.99383439190262
 20
10.39476675115331
 30
0.0
 10
12.97639301331822
 20
10.42247007437993
 30
0.0
 10
12.91617272175516
 20
10.51161099949299
 30
0.0
 10
12.86505291028824
 20
10.58058256634185
 30
0.0
 10
12.73798903551687
 20
10.72322384373473
 30
0.0
 10
12.66388408656519
 20
10.79552999607528
 30
0.0
 10
12.49051699737185
 20
10.94138598585836
 30
0.0
 10
12.39034027411475
 20
11.01529990554131
 30
0.0
 10
12.28000000000072
 20
11.08803165800816
 30
0.0
  0
SPLINE
  5
2DB
330
1F
100
AcDbEntity
  8
1
  6
HIDDEN
370
    18
100
AcDbSpline
210
0.0
220
0.0
230
1.0
 70
     8
 71
     3
 72
    12
 73
     8
 74
     0
 42
0.000000001
 43
0.00000001
 40
0.0
 40
0.0
 40
0.0
 40
0.0
 40
0.499999999999996
 40
0.499999999999996
 40
0.749999999999998
 40
0.749999999999998
 40
1.0
 40
1.0
 40
1.0
 40
1.0
 10
9.199999999999056
 20
-27.58683517549738
 30
0.0
 10
9.199999999998862
 20
-27.38680575552091
 30
0.0
 10
9.27751199106394
 20
-27.18521486354985
 30
0.0
 10
9.482335183666244
 20
-26.966813893091
 30
0.0
 10
9.56600640587052
 20
-26.90681244239381
 30
0.0
 10
9.748997989361824
 20
-26.82586758861233
 30
0.0
 10
9.849197820791925
 20
-26.80430888868428
 30
0.0
 10
9.949999999999987
 20
-26.8043088886844
 30
0.0
  0
SPLINE
  5
2DC
330
1F
100
AcDbEntity
  8
1
  6
HIDDEN
370
    18
100
AcDbSpline
210
0.0
220
0.0
230
1.0
 70
     8
 71
     3
 72
     8
 73
     4
 74
     0
 42
0.000000001
 43
0.00000001
 40
0.0
 40
0.0
 40
0.0
 40
0.0
 40
1.0
 40
1.0
 40
1.0
 40
1.0
 10
8.026176059835437
 20
-29.92442104703123
 30
0.0
 10
8.418222313894496
 20
-29.22097001196248
 30
0.0
 10
8.809555140952483
 20
-28.51711624119466
 30
0.0
 10
9.199999999999985
 20
-27.81278402659764
 30
0.0
  0
SPLINE
  5
2DD
330
1F
100
AcDbEntity
  8
1
  6
HIDDEN
370
    18
100
AcDbSpline
210
0.0
220
0.0
230
1.0
 70
     8
 71
     3
 72
     8
 73
     4
 74
     0
 42
0.000000001
 43
0.00000001
 40
0.0
 40
0.0
 40
0.0
 40
0.0
 40
1.0
 40
1.0
 40
1.0
 40
1.0
 10
13.02999999999999
 20
-27.81278402659763
 30
0.0
 10
13.42044485904749
 20
-28.51711624119465
 30
0.0
 10
13.81177768610548
 20
-29.22097001196248
 30
0.0
 10
14.20382394016452
 20
-29.92442104703123
 30
0.0
  0
SPLINE
  5
2DE
330
1F
100
AcDbEntity
  8
1
  6
HIDDEN
370
    18
100
AcDbSpline
210
0.0
220
0.0
230
1.0
 70
     8
 71
     3
 72
    10
 73
     6
 74
     0
 42
0.000000001
 43
0.00000001
 40
0.0
 40
0.0
 40
0.0
 40
0.0
 40
0.5000000000000001
 40
0.5000000000000001
 40
1.0
 40
1.0
 40
1.0
 40
1.0
 10
3.949999999999872
 20
30.53358776427173
 30
0.0
 10
3.826318115544002
 20
30.53358776427172
 30
0.0
 10
3.705447227498231
 20
30.50833802770942
 30
0.0
 10
3.496316285221097
 20
30.41926076636107
 30
0.0
 10
3.407800837730707
 20
30.35547514930994
 30
0.0
 10
3.342360453319815
 20
30.28206059371139
 30
0.0
  0
SPLINE
  5
2DF
330
1F
100
AcDbEntity
  8
1
  6
HIDDEN
370
    18
100
AcDbSpline
210
0.0
220
0.0
230
1.0
 70
     8
 71
     3
 72
     8
 73
     4
 74
     0
 42
0.000000001
 43
0.00000001
 40
0.0000003163145216
 40
0.0000003163145216
 40
0.0000003163145216
 40
0.0000003163145216
 40
0.0009645093339877
 40
0.0009645093339877
 40
0.0009645093339877
 40
0.0009645093339877
 10
8.026176059835437
 20
29.92442104703122
 30
0.0
 10
7.882284230187817
 20
30.1276347346489
 30
0.0
 10
7.73793512940428
 20
30.33068680506049
 30
0.0
 10
7.593163357943217
 20
30.53358776427178
 30
0.0
  0
SPLINE
  5
2E0
330
1F
100
AcDbEntity
  8
SK3
  6
HIDDEN
370
    18
100
AcDbSpline
210
0.0
220
0.0
230
1.0
 70
     8
 71
     3
 72
    16
 73
    12
 74
     0
 42
0.000000001
 43
0.00000001
 40
0.0
 40
0.0
 40
0.0
 40
0.0
 40
0.1249999999999998
 40
0.1249999999999998
 40
0.2499999999999996
 40
0.2499999999999996
 40
0.4999999999999997
 40
0.4999999999999997
 40
0.7499999999999998
 40
0.7499999999999998
 40
1.0
 40
1.0
 40
1.0
 40
1.0
 10
9.199999999999985
 20
-14.26535473704038
 30
0.0
 10
9.200000000001179
 20
-14.23253824476597
 30
0.0
 10
9.209727271595844
 20
-14.23245441136646
 30
0.0
 10
9.23615353265131
 20
-14.25286869500825
 30
0.0
 10
9.253093968942098
 20
-14.27242684069035
 30
0.0
 10
9.313101280437053
 20
-14.33929382209873
 30
0.0
 10
9.363949492048288
 20
-14.39399195112891
 30
0.0
 10
9.489587017955367
 20
-14.50884403533586
 30
0.0
 10
9.564790355593141
 20
-14.56998140421829
 30
0.0
 10
9.73847878832286
 20
-14.69545148602077
 30
0.0
 10
9.839054875039249
 20
-14.76114121960123
 30
0.0
 10
9.949999999998461
 20
-14.82957770191491
 30
0.0
  0
SPLINE
  5
2E1
330
1F
100
AcDbEntity
  8
SK3
  6
HIDDEN
370
    18
100
AcDbSpline
210
0.0
220
0.0
230
1.0
 70
     8
 71
     3
 72
    12
 73
     8
 74
     0
 42
0.000000001
 43
0.00000001
 40
0.0
 40
0.0
 40
0.0
 40
0.0
 40
0.2499999999999994
 40
0.2499999999999994
 40
0.4999999999999989
 40
0.4999999999999989
 40
1.0
 40
1.0
 40
1.0
 40
1.0
 10
12.28000000000072
 20
-11.97646632396936
 30
0.0
 10
12.10938073841264
 20
-11.86718524168786
 30
0.0
 10
11.92471490211827
 20
-11.78401387014914
 30
0.0
 10
11.52756570959017
 20
-11.67009676386629
 30
0.0
 10
11.32197072607558
 20
-11.64183419046647
 30
0.0
 10
10.69939572857356
 20
-11.64482979934793
 30
0.0
 10
10.28824237865508
 20
-11.76715660559202
 30
0.0
 10
9.949999999999987
 20
-11.98944236018544
 30
0.0
  0
SPLINE
  5
2E2
330
1F
100
AcDbEntity
  8
SK3
  6
HIDDEN
370
    18
100
AcDbSpline
210
0.0
220
0.0
230
1.0
 70
     8
 71
     3
 72
    16
 73
    12
 74
     0
 42
0.000000001
 43
0.00000001
 40
0.0
 40
0.0
 40
0.0
 40
0.0
 40
0.2499999999999998
 40
0.2499999999999998
 40
0.4999999999999996
 40
0.4999999999999996
 40
0.7499999999999993
 40
0.7499999999999993
 40
0.8749999999999997
 40
0.8749999999999997
 40
1.0
 40
1.0
 40
1.0
 40
1.0
 10
9.949999999999987
 20
-11.98944236018544
 30
0.0
 10
9.838845618233005
 20
-12.0624906746092
 30
0.0
 10
9.739914737404556
 20
-12.15442506691409
 30
0.0
 10
9.564332004720566
 20
-12.3630546454497
 30
0.0
 10
9.49057364234708
 20
-12.47615080652714
 30
0.0
 10
9.364616596655898
 20
-12.71583976158569
 30
0.0
 10
9.312953250259978
 20
-12.84224965040105
 30
0.0
 10
9.253227496010389
 20
-13.03264456797213
 30
0.0
 10
9.236066342376226
 20
-13.097051995342
 30
0.0
 10
9.209729158719634
 20
-13.21897391871756
 30
0.0
 10
9.199999999999973
 20
-13.28057692835785
 30
0.0
 10
9.199999999999985
 20
-13.31323699229152
 30
0.0
  0
SPLINE
  5
2E3
330
1F
100
AcDbEntity
  8
SK3
  6
HIDDEN
370
    18
100
AcDbSpline
210
0.0
220
0.0
230
1.0
 70
     8
 71
     3
 72
    16
 73
    12
 74
     0
 42
0.000000001
 43
0.00000001
 40
0.0
 40
0.0
 40
0.0
 40
0.0
 40
0.1250000000000006
 40
0.1250000000000006
 40
0.2500000000000012
 40
0.2500000000000012
 40
0.5000000000000008
 40
0.5000000000000008
 40
0.7500000000000003
 40
0.7500000000000003
 40
1.0
 40
1.0
 40
1.0
 40
1.0
 10
13.03000000000037
 20
-13.25423689575144
 30
0.0
 10
13.03000000000039
 20
-13.22171486025428
 30
0.0
 10
13.02063230050321
 20
-13.16522054528347
 30
0.0
 10
12.99361556231984
 20
-13.04713227970038
 30
0.0
 10
12.97621380556128
 20
-12.98560867824714
 30
0.0
 10
12.91546637159689
 20
-12.80180430434931
 30
0.0
 10
12.86280401623265
 20
-12.67859401980616
 30
0.0
 10
12.73666842354175
 20
-12.4472576302421
 30
0.0
 10
12.66168036529053
 20
-12.33600565164665
 30
0.0
 10
12.48724895776845
 20
-12.13493244750488
 30
0.0
 10
12.39011238222379
 20
-12.04699294675463
 30
0.0
 10
12.28000000000072
 20
-11.97646632396936
 30
0.0
  0
SPLINE
  5
2E4
330
1F
100
AcDbEntity
  8
SK3
  6
HIDDEN
370
    18
100
AcDbSpline
210
0.0
220
0.0
230
1.0
 70
     8
 71
     3
 72
    12
 73
     8
 74
     0
 42
0.000000001
 43
0.00000001
 40
0.0
 40
0.0
 40
0.0
 40
0.0
 40
0.2500000000000006
 40
0.2500000000000006
 40
0.5000000000000011
 40
0.5000000000000011
 40
1.0
 40
1.0
 40
1.0
 40
1.0
 10
9.949999999998461
 20
-14.82957770191491
 30
0.0
 10
10.11911991650807
 20
-14.93389929494901
 30
0.0
 10
10.30264352006732
 20
-15.01316922924136
 30
0.0
 10
10.69821493774031
 20
-15.1230221212707
 30
0.0
 10
10.90341251166624
 20
-15.15123673005875
 30
0.0
 10
11.52597695073836
 20
-15.15492821636556
 30
0.0
 10
11.93875839455282
 20
-15.04679003658474
 30
0.0
 10
12.27999999999919
 20
-14.84175400946561
 30
0.0
  0
SPLINE
  5
2E5
330
1F
100
AcDbEntity
  8
SK3
  6
HIDDEN
370
    18
100
AcDbSpline
210
0.0
220
0.0
230
1.0
 70
     8
 71
     3
 72
    14
 73
    10
 74
     0
 42
0.000000001
 43
0.00000001
 40
0.0
 40
0.0
 40
0.0
 40
0.0
 40
0.25
 40
0.25
 40
0.5
 40
0.5
 40
0.75
 40
0.75
 40
1.0
 40
1.0
 40
1.0
 40
1.0
 10
9.199999999999985
 20
-13.41729426795301
 30
0.0
 10
9.17672165655517
 20
-13.5098489539985
 30
0.0
 10
9.1579981614541
 20
-13.6019544836841
 30
0.0
 10
9.131941057283905
 20
-13.78503354407854
 30
0.0
 10
9.12504858009676
 20
-13.87428030755417
 30
0.0
 10
9.124951943139365
 20
-14.04013897762222
 30
0.0
 10
9.131884147769705
 20
-14.11851740705918
 30
0.0
 10
9.157695257709959
 20
-14.25601877221026
 30
0.0
 10
9.176643624390273
 20
-14.31685635888578
 30
0.0
 10
9.199999999999985
 20
-14.36941201270362
 30
0.0
  0
SPLINE
  5
2E6
330
1F
100
AcDbEntity
  8
SK3
  6
HIDDEN
370
    18
100
AcDbSpline
210
0.0
220
0.0
230
1.0
 70
     8
 71
     3
 72
    14
 73
    10
 74
     0
 42
0.000000001
 43
0.00000001
 40
0.0
 40
0.0
 40
0.0
 40
0.0
 40
0.25
 40
0.25
 40
0.5
 40
0.5
 40
0.75
 40
0.75
 40
1.0
 40
1.0
 40
1.0
 40
1.0
 10
13.02999999999919
 20
-14.42713851694089
 30
0.0
 10
13.05898396535066
 20
-14.37259992179946
 30
0.0
 10
13.08269469317899
 20
-14.30877340141361
 30
0.0
 10
13.1160812047149
 20
-14.15631998185962
 30
0.0
 10
13.1249221703798
 20
-14.07065992868224
 30
0.0
 10
13.12507680424453
 20
-13.88130260930948
 30
0.0
 10
13.11613097493102
 20
-13.77846352230276
 30
0.0
 10
13.08312123359966
 20
-13.56986701759911
 30
0.0
 10
13.05904915812074
 20
-13.46307736876918
 30
0.0
 10
13.03000000000037
 20
-13.35829895897762
 30
0.0
  0
SPLINE
  5
2E7
330
1F
100
AcDbEntity
  8
SK3
  6
HIDDEN
370
    18
100
AcDbSpline
210
0.0
220
0.0
230
1.0
 70
     8
 71
     3
 72
    16
 73
    12
 74
     0
 42
0.000000001
 43
0.00000001
 40
0.0
 40
0.0
 40
0.0
 40
0.0
 40
0.2499999999999999
 40
0.2499999999999999
 40
0.4999999999999999
 40
0.4999999999999999
 40
0.7499999999999998
 40
0.7499999999999998
 40
0.8749999999999998
 40
0.8749999999999998
 40
1.0
 40
1.0
 40
1.0
 40
1.0
 10
9.949999999999987
 20
-0.9054008904063708
 30
0.0
 10
9.838839134210936
 20
-0.9861970079488476
 30
0.0
 10
9.739902813026834
 20
-1.077582915139232
 30
0.0
 10
9.564313202336375
 20
-1.275638626964375
 30
0.0
 10
9.490552685972265
 20
-1.378863517988129
 30
0.0
 10
9.364593468858457
 20
-1.591886989652482
 30
0.0
 10
9.312930601659136
 20
-1.701806363805913
 30
0.0
 10
9.253207465811958
 20
-1.859263445775441
 30
0.0
 10
9.236054165735558
 20
-1.911186894414444
 30
0.0
 10
9.209536444062415
 20
-2.00213420109566
 30
0.0
 10
9.199999999999985
 20
-2.041975631651625
 30
0.0
 10
9.199999999999985
 20
-2.048209029687716
 30
0.0
  0
SPLINE
  5
2E8
330
1F
100
AcDbEntity
  8
SK3
  6
HIDDEN
370
    18
100
AcDbSpline
210
0.0
220
0.0
230
1.0
 70
     8
 71
     3
 72
    16
 73
    12
 74
     0
 42
0.000000001
 43
0.00000001
 40
0.0
 40
0.0
 40
0.0
 40
0.0
 40
0.1250000000000001
 40
0.1250000000000001
 40
0.2500000000000001
 40
0.2500000000000001
 40
0.5000000000000002
 40
0.5000000000000002
 40
0.7500000000000003
 40
0.7500000000000003
 40
1.0
 40
1.0
 40
1.0
 40
1.0
 10
9.199999999999985
 20
-3.128926834929945
 30
0.0
 10
9.200000000000014
 20
-3.12275884113716
 30
0.0
 10
9.20974059879262
 20
-3.151864363026776
 30
0.0
 10
9.236148153136087
 20
-3.22323007866317
 30
0.0
 10
9.253138927932946
 20
-3.266409877942984
 30
0.0
 10
9.313077912922878
 20
-3.401099695481888
 30
0.0
 10
9.363919208305704
 20
-3.49623054537895
 30
0.0
 10
9.48979619693649
 20
-3.685998293247668
 30
0.0
 10
9.56477172941142
 20
-3.780672656692515
 30
0.0
 10
9.738486282096781
 20
-3.961533440469508
 30
0.0
 10
9.839055979137811
 20
-4.049347322177811
 30
0.0
 10
9.949999999997877
 20
-4.129145905168778
 30
0.0
  0
SPLINE
  5
2E9
330
1F
100
AcDbEntity
  8
SK3
  6
HIDDEN
370
    18
100
AcDbSpline
210
0.0
220
0.0
230
1.0
 70
     8
 71
     3
 72
    12
 73
     8
 74
     0
 42
0.000000001
 43
0.00000001
 40
0.0
 40
0.0
 40
0.0
 40
0.0
 40
0.25
 40
0.25
 40
0.5
 40
0.5
 40
1.0
 40
1.0
 40
1.0
 40
1.0
 10
9.949999999997877
 20
-4.129145905168778
 30
0.0
 10
10.11911991650746
 20
-4.250788600181899
 30
0.0
 10
10.3026435200667
 20
-4.343579516047709
 30
0.0
 10
10.69821493773959
 20
-4.472289156780333
 30
0.0
 10
10.90341251166549
 20
-4.505429302446299
 30
0.0
 10
11.5259769507375
 20
-4.509761882422189
 30
0.0
 10
11.93875839455229
 20
-4.382483242957296
 30
0.0
 10
12.27999999999861
 20
-4.143345644057068
 30
0.0
  0
SPLINE
  5
2EA
330
1F
100
AcDbEntity
  8
SK3
  6
HIDDEN
370
    18
100
AcDbSpline
210
0.0
220
0.0
230
1.0
 70
     8
 71
     3
 72
    16
 73
    12
 74
     0
 42
0.000000001
 43
0.00000001
 40
0.0
 40
0.0
 40
0.0
 40
0.0
 40
0.2499999999999998
 40
0.2499999999999998
 40
0.4999999999999996
 40
0.4999999999999996
 40
0.7499999999999993
 40
0.7499999999999993
 40
0.8749999999999997
 40
0.8749999999999997
 40
1.0
 40
1.0
 40
1.0
 40
1.0
 10
12.27999999999861
 20
-4.143345644057068
 30
0.0
 10
12.38979819034881
 20
-4.066400526038533
 30
0.0
 10
12.48771954023763
 20
-3.983543451475707
 30
0.0
 10
12.66275471321041
 20
-3.807554568915867
 30
0.0
 10
12.73657924490723
 20
-3.717841617628417
 30
0.0
 10
12.86327216837295
 20
-3.53614300240317
 30
0.0
 10
12.91569421217589
 20
-3.443736979681932
 30
0.0
 10
12.97654294892725
 20
-3.317497522259901
 30
0.0
 10
12.99405091255942
 20
-3.276981346068405
 30
0.0
 10
13.02079232696168
 20
-3.212531499624836
 30
0.0
 10
13.02999999999893
 20
-3.188977324699121
 30
0.0
 10
13.02999999999893
 20
-3.195050406326203
 30
0.0
  0
SPLINE
  5
2EB
330
1F
100
AcDbEntity
  8
SK3
  6
HIDDEN
370
    18
100
AcDbSpline
210
0.0
220
0.0
230
1.0
 70
     8
 71
     3
 72
    16
 73
    12
 74
     0
 42
0.000000001
 43
0.00000001
 40
0.0
 40
0.0
 40
0.0
 40
0.0
 40
0.1250000000000012
 40
0.1250000000000012
 40
0.2500000000000024
 40
0.2500000000000024
 40
0.5000000000000016
 40
0.5000000000000016
 40
0.7500000000000008
 40
0.7500000000000008
 40
1.0
 40
1.0
 40
1.0
 40
1.0
 10
13.03000000000996
 20
-1.981845476998336
 30
0.0
 10
13.03000000000996
 20
-1.975764242687281
 30
0.0
 10
13.02061001209787
 20
-1.940293866389154
 30
0.0
 10
12.99367374322255
 20
-1.855886406706041
 30
0.0
 10
12.97620432943394
 20
-1.807073600353832
 30
0.0
 10
12.91552372851969
 20
-1.657836317826424
 30
0.0
 10
12.8628370577883
 20
-1.551667070127365
 30
0.0
 10
12.7366810337209
 20
-1.347587653460904
 30
0.0
 10
12.66225212910617
 20
-1.247197996382451
 30
0.0
 10
12.48732587518314
 20
-1.056312613050583
 30
0.0
 10
12.39001303066327
 20
-0.9689654219746553
 30
0.0
 10
12.28000000000072
 20
-0.8910510240570345
 30
0.0
  0
SPLINE
  5
2EC
330
1F
100
AcDbEntity
  8
SK3
  6
HIDDEN
370
    18
100
AcDbSpline
210
0.0
220
0.0
230
1.0
 70
     8
 71
     3
 72
    12
 73
     8
 74
     0
 42
0.000000001
 43
0.00000001
 40
0.0
 40
0.0
 40
0.0
 40
0.0
 40
0.2499999999999992
 40
0.2499999999999992
 40
0.4999999999999984
 40
0.4999999999999984
 40
1.0
 40
1.0
 40
1.0
 40
1.0
 10
12.28000000000072
 20
-0.8910510240570345
 30
0.0
 10
12.10938073841343
 20
-0.7702135472612941
 30
0.0
 10
11.9247149021097
 20
-0.6785718055678895
 30
0.0
 10
11.52756570958261
 20
-0.5531521405084012
 30
0.0
 10
11.32197072606905
 20
-0.5221047567557264
 30
0.0
 10
10.69939572856968
 20
-0.5253980539293955
 30
0.0
 10
10.28824237865356
 20
-0.6595529403246904
 30
0.0
 10
9.949999999999987
 20
-0.9054008904063708
 30
0.0
  0
SPLINE
  5
2ED
330
1F
100
AcDbEntity
  8
SK3
  6
HIDDEN
370
    18
100
AcDbSpline
210
0.0
220
0.0
230
1.0
 70
     8
 71
     3
 72
    14
 73
    10
 74
     0
 42
0.000000001
 43
0.00000001
 40
0.0
 40
0.0
 40
0.0
 40
0.0
 40
0.25
 40
0.25
 40
0.5
 40
0.5
 40
0.75
 40
0.75
 40
1.0
 40
1.0
 40
1.0
 40
1.0
 10
9.199999999999985
 20
-2.067742973228582
 30
0.0
 10
9.176721656555213
 20
-2.153769180031132
 30
0.0
 10
9.157998161454115
 20
-2.242999523078462
 30
0.0
 10
9.13194105728389
 20
-2.429488303733695
 30
0.0
 10
9.125048580096774
 20
-2.525148049204323
 30
0.0
 10
9.124951943139365
 20
-2.713329732078846
 30
0.0
 10
9.131884147769693
 20
-2.807968374750041
 30
0.0
 10
9.15769525770993
 20
-2.985158779631732
 30
0.0
 10
9.176643624390273
 20
-3.069713180480171
 30
0.0
 10
9.199999999999985
 20
-3.148460778470853
 30
0.0
  0
SPLINE
  5
2EE
330
1F
100
AcDbEntity
  8
SK3
  6
HIDDEN
370
    18
100
AcDbSpline
210
0.0
220
0.0
230
1.0
 70
     8
 71
     3
 72
    14
 73
    10
 74
     0
 42
0.000000001
 43
0.00000001
 40
0.0
 40
0.0
 40
0.0
 40
0.0
 40
0.25
 40
0.25
 40
0.5
 40
0.5
 40
0.75
 40
0.75
 40
1.0
 40
1.0
 40
1.0
 40
1.0
 10
13.02999999999893
 20
-3.214585248604223
 30
0.0
 10
13.0589839653511
 20
-3.12899444637987
 30
0.0
 10
13.0826946931802
 20
-3.037155548098279
 30
0.0
 10
13.11608120471776
 20
-2.836799358975646
 30
0.0
 10
13.12492217038352
 20
-2.73233335567141
 30
0.0
 10
13.12507680424999
 20
-2.517273494462489
 30
0.0
 10
13.11613097493738
 20
-2.407866052236672
 30
0.0
 10
13.08312123360769
 20
-2.198098128212655
 30
0.0
 10
13.05904915812957
 20
-2.096571778496186
 30
0.0
 10
13.03000000000996
 20
-2.001380319269833
 30
0.0
  0
SPLINE
  5
2EF
330
1F
100
AcDbEntity
  8
SK3
  6
HIDDEN
370
    18
100
AcDbSpline
210
0.0
220
0.0
230
1.0
 70
     8
 71
     3
 72
    34
 73
    30
 74
     0
 42
0.000000001
 43
0.00000001
 40
0.5000000000000023
 40
0.5000000000000023
 40
0.5000000000000023
 40
0.5000000000000023
 40
0.5625000000000024
 40
0.5625000000000024
 40
0.5937500000000023
 40
0.5937500000000023
 40
0.6250000000000023
 40
0.6250000000000023
 40
0.6562500000000023
 40
0.6562500000000023
 40
0.6875000000000023
 40
0.6875000000000023
 40
0.7500000000000019
 40
0.7500000000000019
 40
0.7812500000000017
 40
0.7812500000000017
 40
0.8125000000000014
 40
0.8125000000000014
 40
0.8437500000000012
 40
0.8437500000000012
 40
0.875000000000001
 40
0.875000000000001
 40
0.9062500000000008
 40
0.9062500000000008
 40
0.9375000000000004
 40
0.9375000000000004
 40
0.9687500000000002
 40
0.9687500000000002
 40
1.0
 40
1.0
 40
1.0
 40
1.0
 10
10.44989457346451
 20
9.188552838687945
 30
0.0
 10
10.59263203931582
 20
9.174236610891136
 30
0.0
 10
10.74572898252596
 20
9.144633936726803
 30
0.0
 10
11.02346457422351
 20
9.075693724379077
 30
0.0
 10
11.12372720463398
 20
9.048767303058261
 30
0.0
 10
11.34651412887493
 20
8.983040326194857
 30
0.0
 10
11.4678847494719
 20
8.944585962248691
 30
0.0
 10
11.71475803299396
 20
8.851533468433916
 30
0.0
 10
11.83869929941915
 20
8.79687946686095
 30
0.0
 10
12.06754486308012
 20
8.669912801310135
 30
0.0
 10
12.17335137945201
 20
8.597492712392182
 30
0.0
 10
12.45826053814741
 20
8.350055176087421
 30
0.0
 10
12.60079742123002
 20
8.146940498957342
 30
0.0
 10
12.72395241472729
 20
7.804987664268928
 30
0.0
 10
12.75035560308826
 20
7.68284915320314
 30
0.0
 10
12.77026974501036
 20
7.437009886565569
 30
0.0
 10
12.7643751338236
 20
7.311127426790017
 30
0.0
 10
12.7203381094541
 20
7.059786756873496
 30
0.0
 10
12.6830209596871
 20
6.937476563329954
 30
0.0
 10
12.57844952904383
 20
6.70002531262753
 30
0.0
 10
12.51125932456626
 20
6.586063111613211
 30
0.0
 10
12.35309446794179
 20
6.37822385696481
 30
0.0
 10
12.25993473983122
 20
6.281719558284733
 30
0.0
 10
12.05554915126636
 20
6.1180021165777
 30
0.0
 10
11.94432147845088
 20
6.049872144173653
 30
0.0
 10
11.70236550523703
 20
5.948838460017033
 30
0.0
 10
11.57681201416266
 20
5.919256740586787
 30
0.0
 10
11.33321027169287
 20
5.905182504817936
 30
0.0
 10
11.21910590689121
 20
5.920422754745604
 30
0.0
 10
11.11499999999999
 20
5.94925618189179
 30
0.0
  0
SPLINE
  5
2F0
330
1F
100
AcDbEntity
  8
SK3
  6
HIDDEN
370
    18
100
AcDbSpline
210
0.0
220
0.0
230
1.0
 70
     8
 71
     3
 72
    32
 73
    28
 74
     0
 42
0.000000001
 43
0.00000001
 40
0.0
 40
0.0
 40
0.0
 40
0.0
 40
0.03125
 40
0.03125
 40
0.0625
 40
0.0625
 40
0.1249999999999998
 40
0.1249999999999998
 40
0.1874999999999997
 40
0.1874999999999997
 40
0.2187499999999999
 40
0.2187499999999999
 40
0.2500000000000001
 40
0.2500000000000001
 40
0.2812500000000005
 40
0.2812500000000005
 40
0.3125000000000008
 40
0.3125000000000008
 40
0.3437500000000012
 40
0.3437500000000012
 40
0.3750000000000016
 40
0.3750000000000016
 40
0.4062500000000019
 40
0.4062500000000019
 40
0.4375000000000023
 40
0.4375000000000023
 40
0.5000000000000023
 40
0.5000000000000023
 40
0.5000000000000023
 40
0.5000000000000023
 10
11.11499999999999
 20
5.949256181891783
 30
0.0
 10
11.01089409310875
 20
5.978089609037968
 30
0.0
 10
10.91907857642195
 20
6.018948849607099
 30
0.0
 10
10.74762137377522
 20
6.114086289106345
 30
0.0
 10
10.66818813797001
 20
6.168629685055435
 30
0.0
 10
10.44047236553632
 20
6.348201174628619
 30
0.0
 10
10.30542057236911
 20
6.48618989965397
 30
0.0
 10
10.05258703563625
 20
6.794337658592876
 30
0.0
 10
9.934813607757901
 20
6.964537184229211
 30
0.0
 10
9.770188160048058
 20
7.260502843527094
 30
0.0
 10
9.717965925809063
 20
7.365374732541164
 30
0.0
 10
9.623196888300518
 20
7.58675155219474
 30
0.0
 10
9.579891013149544
 20
7.704475586992544
 30
0.0
 10
9.508588627253442
 20
7.958722907590383
 30
0.0
 10
9.481892276768434
 20
8.093279239326238
 30
0.0
 10
9.459811777617261
 20
8.3533121996933
 30
0.0
 10
9.465063840888229
 20
8.479251183042855
 30
0.0
 10
9.505124926315847
 20
8.692292476903795
 30
0.0
 10
9.538244242074127
 20
8.778709848035378
 30
0.0
 10
9.619247903804611
 20
8.920989829982993
 30
0.0
 10
9.665743567469118
 20
8.975076239847636
 30
0.0
 10
9.766569607309595
 20
9.06298835913245
 30
0.0
 10
9.82124416078453
 20
9.096499752388532
 30
0.0
 10
9.934291731587871
 20
9.1474876901896
 30
0.0
 10
9.993038231873294
 20
9.165244768658955
 30
0.0
 10
10.17595206270197
 20
9.201393171837168
 30
0.0
 10
10.30715710761321
 20
9.20286906648476
 30
0.0
 10
10.44989457346451
 20
9.188552838687945
 30
0.0
  0
SPLINE
  5
2F1
330
1F
100
AcDbEntity
  8
SK3
  6
HIDDEN
370
    18
100
AcDbSpline
210
0.0
220
0.0
230
1.0
 70
     8
 71
     3
 72
    10
 73
     6
 74
     0
 42
0.000000001
 43
0.00000001
 40
0.0
 40
0.0
 40
0.0
 40
0.0
 40
0.5
 40
0.5
 40
1.0
 40
1.0
 40
1.0
 40
1.0
 10
9.138150238601913
 20
8.152513349923954
 30
0.0
 10
9.123100104871204
 20
8.255620108263622
 30
0.0
 10
9.114984999226971
 20
8.356863420605302
 30
0.0
 10
9.115015042334322
 20
8.552681333304054
 30
0.0
 10
9.123102863559039
 20
8.64160033313804
 30
0.0
 10
9.13815023860189
 20
8.722760521764513
 30
0.0
  0
SPLINE
  5
2F2
330
1F
100
AcDbEntity
  8
SK3
  6
HIDDEN
370
    18
100
AcDbSpline
210
0.0
220
0.0
230
1.0
 70
     8
 71
     3
 72
    16
 73
    12
 74
     0
 42
0.000000001
 43
0.00000001
 40
0.0
 40
0.0
 40
0.0
 40
0.0
 40
0.1249999999999998
 40
0.1249999999999998
 40
0.2499999999999997
 40
0.2499999999999997
 40
0.4999999999999998
 40
0.4999999999999998
 40
0.7499999999999999
 40
0.7499999999999999
 40
1.0
 40
1.0
 40
1.0
 40
1.0
 10
9.199999999999985
 20
9.289022290174763
 30
0.0
 10
9.199999999999985
 20
9.265967775948434
 30
0.0
 10
9.209563827901418
 20
9.21365159886441
 30
0.0
 10
9.236165608094913
 20
9.104042339300467
 30
0.0
 10
9.25360698667932
 20
9.04414851493508
 30
0.0
 10
9.313827278242371
 20
8.866366468518471
 30
0.0
 10
9.364947089709293
 20
8.747545448532364
 30
0.0
 10
9.492010964480672
 20
8.515544216609864
 30
0.0
 10
9.566115913432371
 20
8.405604957855434
 30
0.0
 10
9.739483002625713
 20
8.202318123876461
 30
0.0
 10
9.839659725882813
 20
8.108665056973319
 30
0.0
 10
9.949999999996823
 20
8.032787607796774
 30
0.0
  0
SPLINE
  5
2F3
330
1F
100
AcDbEntity
  8
SK3
  6
HIDDEN
370
    18
100
AcDbSpline
210
0.0
220
0.0
230
1.0
 70
     8
 71
     3
 72
    12
 73
     8
 74
     0
 42
0.000000001
 43
0.00000001
 40
0.0
 40
0.0
 40
0.0
 40
0.0
 40
0.25
 40
0.25
 40
0.5
 40
0.5
 40
1.0
 40
1.0
 40
1.0
 40
1.0
 10
9.949999999996823
 20
8.032787607796774
 30
0.0
 10
10.11987070991416
 20
7.915972997159005
 30
0.0
 10
10.30396582361799
 20
7.826862840678909
 30
0.0
 10
10.70032541250135
 20
7.703990274779766
 30
0.0
 10
10.90572162653104
 20
7.672893949800978
 30
0.0
 10
11.5282885487502
 20
7.672366892885366
 30
0.0
 10
11.94025576621716
 20
7.799156451461775
 30
0.0
 10
12.27999999999756
 20
8.032787607797275
 30
0.0
  0
SPLINE
  5
2F4
330
1F
100
AcDbEntity
  8
SK3
  6
HIDDEN
370
    18
100
AcDbSpline
210
0.0
220
0.0
230
1.0
 70
     8
 71
     3
 72
    16
 73
    12
 74
     0
 42
0.000000001
 43
0.00000001
 40
0.0
 40
0.0
 40
0.0
 40
0.0
 40
0.25
 40
0.25
 40
0.5
 40
0.5
 40
0.75
 40
0.75
 40
0.875
 40
0.875
 40
1.0
 40
1.0
 40
1.0
 40
1.0
 10
12.27999999999756
 20
8.032787607797275
 30
0.0
 10
12.39043372689919
 20
8.108729321442697
 30
0.0
 10
12.48882901746097
 20
8.200473206837634
 30
0.0
 10
12.6641033485496
 20
8.405728806778628
 30
0.0
 10
12.73788841341424
 20
8.515486421936576
 30
0.0
 10
12.86422126912012
 20
8.745901984341883
 30
0.0
 10
12.91628240591282
 20
8.86659016907822
 30
0.0
 10
12.97661386675311
 20
9.044850915318436
 30
0.0
 10
12.99395951695502
 20
9.104462708685546
 30
0.0
 10
13.02063019805726
 20
9.214547395183692
 30
0.0
 10
13.02999999999756
 20
9.265617081058688
 30
0.0
 10
13.02999999999756
 20
9.28902229017076
 30
0.0
  0
SPLINE
  5
2F5
330
1F
100
AcDbEntity
  8
SK3
  6
HIDDEN
370
    18
100
AcDbSpline
210
0.0
220
0.0
230
1.0
 70
     8
 71
     3
 72
    14
 73
    10
 74
     0
 42
0.000000001
 43
0.00000001
 40
0.0
 40
0.0
 40
0.0
 40
0.0
 40
0.25
 40
0.25
 40
0.5
 40
0.5
 40
0.75
 40
0.75
 40
1.0
 40
1.0
 40
1.0
 40
1.0
 10
9.199999999999985
 20
10.44736797213992
 30
0.0
 10
9.17385098662682
 20
10.38188222507845
 30
0.0
 10
9.152634041266982
 20
10.30896838556236
 30
0.0
 10
9.122930435167973
 20
10.14391469510493
 30
0.0
 10
9.115069084731308
 20
10.05401656986636
 30
0.0
 10
9.114931833421005
 20
9.863748039868327
 30
0.0
 10
9.12287089105572
 20
9.762424990334885
 30
0.0
 10
9.152219475897546
 20
9.562238537150314
 30
0.0
 10
9.173774255136365
 20
9.461155869772561
 30
0.0
 10
9.199999999999985
 20
9.36321351860579
 30
0.0
  0
SPLINE
  5
2F6
330
1F
100
AcDbEntity
  8
SK3
  6
HIDDEN
370
    18
100
AcDbSpline
210
0.0
220
0.0
230
1.0
 70
     8
 71
     3
 72
    12
 73
     8
 74
     0
 42
0.000000001
 43
0.00000001
 40
0.0
 40
0.0
 40
0.0
 40
0.0
 40
0.2500000000000003
 40
0.2500000000000003
 40
0.5000000000000006
 40
0.5000000000000006
 40
1.0
 40
1.0
 40
1.0
 40
1.0
 10
12.28000000000072
 20
11.08803165800816
 30
0.0
 10
12.11012929008343
 20
11.20000341559442
 30
0.0
 10
11.92603417637884
 20
11.28491575699489
 30
0.0
 10
11.52967458749546
 20
11.40184024692137
 30
0.0
 10
11.32427837346578
 20
11.43132053842806
 30
0.0
 10
10.7017114512466
 20
11.43182081838371
 30
0.0
 10
10.28974423378049
 20
11.31197702801791
 30
0.0
 10
9.949999999999987
 20
11.08803165800864
 30
0.0
  0
SPLINE
  5
2F7
330
1F
100
AcDbEntity
  8
SK3
  6
HIDDEN
370
    18
100
AcDbSpline
210
0.0
220
0.0
230
1.0
 70
     8
 71
     3
 72
    14
 73
    10
 74
     0
 42
0.000000001
 43
0.00000001
 40
0.0
 40
0.0
 40
0.0
 40
0.0
 40
0.25
 40
0.25
 40
0.5
 40
0.5
 40
0.75
 40
0.75
 40
1.0
 40
1.0
 40
1.0
 40
1.0
 10
13.02999999999756
 20
9.363213518601778
 30
0.0
 10
13.05614901337074
 20
9.460869309267673
 30
0.0
 10
13.07736595873056
 20
9.559903720023511
 30
0.0
 10
13.10706956482956
 20
9.761533736282534
 30
0.0
 10
13.11493091526622
 20
9.861116747158668
 30
0.0
 10
13.11506816657655
 20
10.0515543409641
 30
0.0
 10
13.10712910894184
 20
10.14309682493837
 30
0.0
 10
13.07778052409998
 20
10.30714399288048
 30
0.0
 10
13.05622574486119
 20
10.38169006413495
 30
0.0
 10
13.02999999999756
 20
10.44736797213587
 30
0.0
  0
ELLIPSE
  5
2F8
330
1F
100
AcDbEntity
  8
SK3
  6
HIDDEN
370
    18
100
AcDbEllipse
 10
6.0773103747
 20
8.4376369358
 30
0.0
 11
3.098580671678216
 21
0.0
 31
0.0
210
0.0
220
0.0
230
1.0
 40
0.5913677276
 41
6.12694935177834
 42
6.439421262580876
  0
INSERT
  5
2F9
330
1F
100
AcDbEntity
  8
81
100
AcDbBlockReference
  2
Block11
 10
67.8735173495
 20
-130.2676275275
 30
0.0
  0
INSERT
  5
2FA
330
1F
100
AcDbEntity
  8
80
100
AcDbBlockReference
  2
Block12
 10
-61.7273641656
 20
-130.3356800267
 30
0.0
  0
DIMENSION
  5
2FB
330
1F
100
AcDbEntity
  8
SK2
100
AcDbDimension
  2
_D
 10
-74.9662305591
 20
7.0
 30
0.0
 11
-74.9662305591
 21
0.8347585535
 31
0.0
 70
   160
  1
M16
 71
     2
 42
-1.0
  3
SLDDIMSTYLE0
100
AcDbAlignedDimension
 13
-58.7107695155
 23
-7.0
 33
0.0
 14
-58.7107695155
 24
7.0
 34
0.0
 50
90.0
100
AcDbRotatedDimension
  0
DIMENSION
  5
309
330
1F
100
AcDbEntity
  8
SK2
100
AcDbDimension
  2
_D_1
 10
-85.2857028566
 20
-22.225
 30
0.0
 11
-85.2857028566
 21
-0.5426222194
 31
0.0
 70
   160
  1
%%c<>
 71
     2
 42
-1.0
  3
SLDDIMSTYLE1
100
AcDbAlignedDimension
 13
0.0
 23
22.225
 33
0.0
 14
0.0
 24
-22.225
 34
0.0
 50
90.0
100
AcDbRotatedDimension
  0
DIMENSION
  5
315
330
1F
100
AcDbEntity
  8
SK2
100
AcDbDimension
  2
_D_2
 10
-96.5446516675
 20
30.5335877643
 30
0.0
 11
-96.5446516675
 21
-0.5426222194
 31
0.0
 70
   160
  1
%%c<>
 71
     2
 42
-1.0
  3
SLDDIMSTYLE1
100
AcDbAlignedDimension
 13
5.771581679
 23
-30.5335877643
 33
0.0
 14
3.95
 24
30.5335877643
 34
0.0
 50
90.0
100
AcDbRotatedDimension
  0
DIMENSION
  5
320
330
1F
100
AcDbEntity
  8
SK2
100
AcDbDimension
  2
_D_3
 10
19.05
 20
38.1743355046
 30
0.0
 11
9.3324921963
 21
38.1743355046
 31
0.0
 70
   160
  1
<>
 71
     2
 42
-1.0
  3
SLDDIMSTYLE1
100
AcDbAlignedDimension
 13
0.0
 23
22.225
 33
0.0
 14
19.05
 24
24.9855458215
 34
0.0
100
AcDbRotatedDimension
  0
DIMENSION
  5
32A
330
1F
100
AcDbEntity
  8
SK2
100
AcDbDimension
  2
_D_4
 10
160.0
 20
38.1743355046
 30
0.0
 11
89.4815272721
 21
38.1743355046
 31
0.0
 70
   160
  1
<>
 71
     2
 42
-1.0
  3
SLDDIMSTYLE1
100
AcDbAlignedDimension
 13
19.05
 23
24.9855458215
 33
0.0
 14
160.0
 24
17.440325432
 34
0.0
100
AcDbRotatedDimension
  0
DIMENSION
  5
334
330
1F
100
AcDbEntity
  8
SK2
100
AcDbDimension
  2
_D_5
 10
177.0
 20
38.1743355046
 30
0.0
 11
168.9331270236
 21
38.1743355046
 31
0.0
 70
   160
  1
<>
 71
     2
 42
-1.0
  3
SLDDIMSTYLE1
100
AcDbAlignedDimension
 13
160.0
 23
17.440325432
 33
0.0
 14
177.0
 24
7.6473460386
 34
0.0
100
AcDbRotatedDimension
  0
DIMENSION
  5
33E
330
1F
100
AcDbEntity
  8
2
100
AcDbDimension
  2
_D_6
 10
160.0
 20
47.9676246172
 30
0.0
 11
78.9966435597
 21
47.9676246172
 31
0.0
 70
   160
  1
<>
 71
     2
 42
-1.0
  3
SLDDIMSTYLE1
100
AcDbAlignedDimension
 13
0.0
 23
22.225
 33
0.0
 14
160.0
 24
17.440325432
 34
0.0
 50
0.0
100
AcDbRotatedDimension
  0
DIMENSION
  5
348
330
1F
100
AcDbEntity
  8
SK2
100
AcDbDimension
  2
_D_7
 10
177.0
 20
-40.123240123
 30
0.0
 11
51.3655394874
 21
-40.123240123
 31
0.0
 70
   160
  1
<>
 71
     2
 42
-1.0
  3
SLDDIMSTYLE1
100
AcDbAlignedDimension
 13
-68.25
 23
-11.4070377962
 33
0.0
 14
177.0
 24
-7.6473460386
 34
0.0
 50
0.0
100
AcDbRotatedDimension
  0
DIMENSION
  5
352
330
1F
100
AcDbEntity
  8
SK2
100
AcDbDimension
  2
_D_8
 10
197.5231297075
 20
-8.0
 30
0.0
 11
197.5231297075
 21
-0.861045845
 31
0.0
 70
   160
  1
%%c<>
 71
     2
 42
-1.0
  3
SLDDIMSTYLE1
100
AcDbAlignedDimension
 13
175.0
 23
8.0
 33
0.0
 14
175.0
 24
-8.0
 34
0.0
 50
90.0
100
AcDbRotatedDimension
  0
DIMENSION
  5
35D
330
1F
100
AcDbEntity
  8
SK2
100
AcDbDimension
  2
_D_9
 10
207.7973566848
 20
18.0
 30
0.0
 11
207.7973566848
 21
-0.861045845
 31
0.0
 70
   160
  1
%%c<>
 71
     2
 42
-1.0
  3
SLDDIMSTYLE1
100
AcDbAlignedDimension
 13
159.5
 23
-18.0
 33
0.0
 14
159.5
 24
18.0
 34
0.0
 50
90.0
100
AcDbRotatedDimension
  0
MTEXT
  5
368
330
1F
100
AcDbEntity
  8
SK6
 62
     5
100
AcDbMText
 10
-68.70883198
 20
-45.061789743
 30
0.0
 40
3.5
 41
0.0
 71
     1
 72
     1
  1
A1B05-40 16 160
  7
SLDTEXTSTYLE0
 73
     1
 44
1.0
  0
INSERT
  5
36E
330
1F
100
AcDbEntity
  8
SK6
 62
     5
100
AcDbBlockReference
  2
SW_NOTE_0
 10
-38.2992340529
 20
37.7969376148
 30
0.0
  0
ENDSEC
  0
SECTION
  2
OBJECTS
  0
DICTIONARY
  5
C
330
0
100
AcDbDictionary
281
     1
  3
ACAD_GROUP
350
D
  3
ACAD_LAYOUT
350
1A
  3
ACAD_MLINESTYLE
350
17
  3
ACAD_PLOTSETTINGS
350
19
  3
ACAD_PLOTSTYLENAME
350
E
  3
ACAD_SCALELIST
350
47
  0
DICTIONARY
  5
D
102
{ACAD_REACTORS
330
C
102
}
330
C
100
AcDbDictionary
281
     1
  0
DICTIONARY
  5
1A
102
{ACAD_REACTORS
330
C
102
}
330
C
100
AcDbDictionary
281
     1
  3
Layout1
350
1E
  3
Layout2
350
26
  3
Model
350
22
  0
DICTIONARY
  5
17
102
{ACAD_REACTORS
330
C
102
}
330
C
100
AcDbDictionary
281
     1
  3
Standard
350
18
  0
DICTIONARY
  5
19
102
{ACAD_REACTORS
330
C
102
}
330
C
100
AcDbDictionary
281
     1
  0
ACDBDICTIONARYWDFLT
  5
E
102
{ACAD_REACTORS
330
C
102
}
330
C
100
AcDbDictionary
281
     1
  3
Normal
350
F
100
AcDbDictionaryWithDefault
340
F
  0
DICTIONARY
  5
47
102
{ACAD_REACTORS
330
C
102
}
330
C
100
AcDbDictionary
281
     1
  3
A0
350
48
  3
A1
350
49
  3
A2
350
4A
  3
A3
350
4B
  3
A4
350
4C
  3
A5
350
4D
  3
A6
350
4E
  3
A7
350
4F
  3
A8
350
50
  3
A9
350
51
  3
B0
350
52
  3
B1
350
53
  3
B2
350
54
  3
B3
350
55
  3
B4
350
56
  3
B5
350
57
  3
B6
350
58
  3
B7
350
59
  3
B8
350
5A
  3
B9
350
5B
  3
C0
350
5C
  3
C1
350
5D
  3
C2
350
5E
  3
C3
350
5F
  3
C4
350
60
  3
C5
350
61
  3
C6
350
62
  3
C7
350
63
  3
C8
350
64
  3
C9
350
65
  3
D0
350
66
  3
D1
350
67
  3
D2
350
68
  0
LAYOUT
  5
1E
102
{ACAD_REACTORS
330
1A
102
}
330
1A
100
AcDbPlotSettings
  1

  2
none_device
  4

  6

 40
0.0
 41
0.0
 42
0.0
 43
0.0
 44
0.0
 45
0.0
 46
0.0
 47
0.0
 48
0.0
 49
0.0
140
0.0
141
0.0
142
1.0
143
1.0
 70
   688
 72
     1
 73
     0
 74
     5
  7

 75
    16
147
1.0
148
0.0
149
0.0
100
AcDbLayout
  1
Layout1
 70
     1
 71
     1
 10
0.0
 20
0.0
 11
420.0
 21
297.0
 12
0.0
 22
0.0
 32
0.0
 14
1.0000000000E+20
 24
1.0000000000E+20
 34
1.0000000000E+20
 15
-1.0000000000E+20
 25
-1.0000000000E+20
 35
-1.0000000000E+20
146
0.0
 13
0.0
 23
0.0
 33
0.0
 16
1.0
 26
0.0
 36
0.0
 17
0.0
 27
1.0
 37
0.0
 76
     0
330
1B
  0
LAYOUT
  5
26
102
{ACAD_REACTORS
330
1A
102
}
330
1A
100
AcDbPlotSettings
  1

  2
none_device
  4

  6

 40
0.0
 41
0.0
 42
0.0
 43
0.0
 44
0.0
 45
0.0
 46
0.0
 47
0.0
 48
0.0
 49
0.0
140
0.0
141
0.0
142
1.0
143
1.0
 70
   688
 72
     1
 73
     0
 74
     5
  7

 75
    16
147
1.0
148
0.0
149
0.0
100
AcDbLayout
  1
Layout2
 70
     1
 71
     2
 10
0.0
 20
0.0
 11
0.0
 21
0.0
 12
0.0
 22
0.0
 32
0.0
 14
0.0
 24
0.0
 34
0.0
 15
0.0
 25
0.0
 35
0.0
146
0.0
 13
0.0
 23
0.0
 33
0.0
 16
1.0
 26
0.0
 36
0.0
 17
0.0
 27
1.0
 37
0.0
 76
     0
330
23
  0
LAYOUT
  5
22
102
{ACAD_REACTORS
330
1A
102
}
330
1A
100
AcDbPlotSettings
  1

  2
none_device
  4
Letter_(8.50_x_11.00_Inches)
  6

 40
6.35
 41
6.35
 42
6.35000508
 43
6.35000508
 44
215.9
 45
279.4
 46
0.0
 47
0.0
 48
0.0
 49
0.0
140
0.0
141
0.0
142
1.0
143
1.0
 70
  1712
 72
     1
 73
     0
 74
     0
  7

 75
     0
147
1.0
148
0.0
149
0.0
100
AcDbLayout
  1
Model
 70
     1
 71
     0
 10
0.0
 20
0.0
 11
297.0
 21
210.0
 12
0.0
 22
0.0
 32
0.0
 14
0.0
 24
0.0
 34
0.0
 15
297.0
 25
210.0
 35
0.0
146
0.0
 13
0.0
 23
0.0
 33
0.0
 16
1.0
 26
0.0
 36
0.0
 17
0.0
 27
1.0
 37
0.0
 76
     0
330
1F
331
29
  0
MLINESTYLE
  5
18
102
{ACAD_REACTORS
330
17
102
}
330
17
100
AcDbMlineStyle
  2
Standard
 70
     0
  3

 62
   256
 51
90.0
 52
90.0
 71
     2
 49
0.5
 62
   256
  6
BYLAYER
 49
-0.5
 62
   256
  6
BYLAYER
  0
ACDBPLACEHOLDER
  5
F
102
{ACAD_REACTORS
330
E
102
}
330
E
  0
SCALE
  5
48
102
{ACAD_REACTORS
330
47
102
}
330
47
100
AcDbScale
 70
     0
300
1:1
140
1.0
141
1.0
290
     1
  0
SCALE
  5
49
102
{ACAD_REACTORS
330
47
102
}
330
47
100
AcDbScale
 70
     0
300
1:2
140
1.0
141
2.0
290
     0
  0
SCALE
  5
4A
102
{ACAD_REACTORS
330
47
102
}
330
47
100
AcDbScale
 70
     0
300
1:4
140
1.0
141
4.0
290
     0
  0
SCALE
  5
4B
102
{ACAD_REACTORS
330
47
102
}
330
47
100
AcDbScale
 70
     0
300
1:5
140
1.0
141
5.0
290
     0
  0
SCALE
  5
4C
102
{ACAD_REACTORS
330
47
102
}
330
47
100
AcDbScale
 70
     0
300
1:8
140
1.0
141
8.0
290
     0
  0
SCALE
  5
4D
102
{ACAD_REACTORS
330
47
102
}
330
47
100
AcDbScale
 70
     0
300
1:10
140
1.0
141
10.0
290
     0
  0
SCALE
  5
4E
102
{ACAD_REACTORS
330
47
102
}
330
47
100
AcDbScale
 70
     0
300
1:16
140
1.0
141
16.0
290
     0
  0
SCALE
  5
4F
102
{ACAD_REACTORS
330
47
102
}
330
47
100
AcDbScale
 70
     0
300
1:20
140
1.0
141
20.0
290
     0
  0
SCALE
  5
50
102
{ACAD_REACTORS
330
47
102
}
330
47
100
AcDbScale
 70
     0
300
1:30
140
1.0
141
30.0
290
     0
  0
SCALE
  5
51
102
{ACAD_REACTORS
330
47
102
}
330
47
100
AcDbScale
 70
     0
300
1:40
140
1.0
141
40.0
290
     0
  0
SCALE
  5
52
102
{ACAD_REACTORS
330
47
102
}
330
47
100
AcDbScale
 70
     0
300
1:50
140
1.0
141
50.0
290
     0
  0
SCALE
  5
53
102
{ACAD_REACTORS
330
47
102
}
330
47
100
AcDbScale
 70
     0
300
1:100
140
1.0
141
100.0
290
     0
  0
SCALE
  5
54
102
{ACAD_REACTORS
330
47
102
}
330
47
100
AcDbScale
 70
     0
300
2:1
140
2.0
141
1.0
290
     0
  0
SCALE
  5
55
102
{ACAD_REACTORS
330
47
102
}
330
47
100
AcDbScale
 70
     0
300
4:1
140
4.0
141
1.0
290
     0
  0
SCALE
  5
56
102
{ACAD_REACTORS
330
47
102
}
330
47
100
AcDbScale
 70
     0
300
8:1
140
8.0
141
1.0
290
     0
  0
SCALE
  5
57
102
{ACAD_REACTORS
330
47
102
}
330
47
100
AcDbScale
 70
     0
300
10:1
140
10.0
141
1.0
290
     0
  0
SCALE
  5
58
102
{ACAD_REACTORS
330
47
102
}
330
47
100
AcDbScale
 70
     0
300
100:1
140
100.0
141
1.0
290
     0
  0
SCALE
  5
59
102
{ACAD_REACTORS
330
47
102
}
330
47
100
AcDbScale
 70
     0
300
1/128" = 1'-0"
140
0.0078125
141
12.0
290
     0
  0
SCALE
  5
5A
102
{ACAD_REACTORS
330
47
102
}
330
47
100
AcDbScale
 70
     0
300
1/64" = 1'-0"
140
0.015625
141
12.0
290
     0
  0
SCALE
  5
5B
102
{ACAD_REACTORS
330
47
102
}
330
47
100
AcDbScale
 70
     0
300
1/32" = 1'-0"
140
0.03125
141
12.0
290
     0
  0
SCALE
  5
5C
102
{ACAD_REACTORS
330
47
102
}
330
47
100
AcDbScale
 70
     0
300
1/16" = 1'-0"
140
0.0625
141
12.0
290
     0
  0
SCALE
  5
5D
102
{ACAD_REACTORS
330
47
102
}
330
47
100
AcDbScale
 70
     0
300
3/32" = 1'-0"
140
0.09375
141
12.0
290
     0
  0
SCALE
  5
5E
102
{ACAD_REACTORS
330
47
102
}
330
47
100
AcDbScale
 70
     0
300
1/8" = 1'-0"
140
0.125
141
12.0
290
     0
  0
SCALE
  5
5F
102
{ACAD_REACTORS
330
47
102
}
330
47
100
AcDbScale
 70
     0
300
3/16" = 1'-0"
140
0.1875
141
12.0
290
     0
  0
SCALE
  5
60
102
{ACAD_REACTORS
330
47
102
}
330
47
100
AcDbScale
 70
     0
300
1/4" = 1'-0"
140
0.25
141
12.0
290
     0
  0
SCALE
  5
61
102
{ACAD_REACTORS
330
47
102
}
330
47
100
AcDbScale
 70
     0
300
3/8" = 1'-0"
140
0.375
141
12.0
290
     0
  0
SCALE
  5
62
102
{ACAD_REACTORS
330
47
102
}
330
47
100
AcDbScale
 70
     0
300
1/2" = 1'-0"
140
0.5
141
12.0
290
     0
  0
SCALE
  5
63
102
{ACAD_REACTORS
330
47
102
}
330
47
100
AcDbScale
 70
     0
300
3/4" = 1'-0"
140
0.75
141
12.0
290
     0
  0
SCALE
  5
64
102
{ACAD_REACTORS
330
47
102
}
330
47
100
AcDbScale
 70
     0
300
1" = 1'-0"
140
1.0
141
12.0
290
     0
  0
SCALE
  5
65
102
{ACAD_REACTORS
330
47
102
}
330
47
100
AcDbScale
 70
     0
300
1-1/2" = 1'-0"
140
1.5
141
12.0
290
     0
  0
SCALE
  5
66
102
{ACAD_REACTORS
330
47
102
}
330
47
100
AcDbScale
 70
     0
300
3" = 1'-0"
140
3.0
141
12.0
290
     0
  0
SCALE
  5
67
102
{ACAD_REACTORS
330
47
102
}
330
47
100
AcDbScale
 70
     0
300
6" = 1'-0"
140
6.0
141
12.0
290
     0
  0
SCALE
  5
68
102
{ACAD_REACTORS
330
47
102
}
330
47
100
AcDbScale
 70
     0
300
1'-0" = 1'-0"
140
12.0
141
12.0
290
     0
  0
ENDSEC
  0
EOF
