0
SECTION
2
HEADER
9
$ACADVER
1
AC1015
9
$DWGCODEPAGE
3
ANSI_1252
9
$HANDSEED
5
292
9
$ANGBASE
50
0
9
$ANGDIR
70
0
9
$ATTMODE
70
1
9
$AUNITS
70
0
9
$AUPREC
70
0
9
$CECOLOR
62
256
9
$CELTSCALE
40
1
9
$CELTYPE
6
ByLayer
9
$CELWEIGHT
370
18
9
$CLAYER
8
0
9
$CMLJUST
70
0
9
$CMLSCALE
40
1
9
$CMLSTYLE
2
Standard
9
$DIMSTYLE
2
Standard
9
$TEXTSIZE
40
0.2
9
$TEXTSTYLE
7
Standard
9
$LUNITS
70
2
9
$LUPREC
70
4
9
$EXTNAMES
290
1
9
$INSUNITS
70
4
9
$LTSCALE
40
1
9
$LWDISPLAY
290
1
9
$PDMODE
70
0
9
$PDSIZE
40
0
9
$PLINEGEN
70
0
0
ENDSEC
0
SECTION
2
CLASSES
0
CLASS
1
RASTERVARIABLES
2
AcDbRasterVariables
3
ISM
90
0
280
0
281
0
0
ENDSEC
0
SECTION
2
TABLES
0
TABLE
2
VPORT
5
288
100
AcDbSymbolTable
0
VPORT
5
1
100
AcDbSymbolTableRecord
100
AcDbViewportTableRecord
2
*Active
70
0
10
0
20
0
11
1
21
1
12
-1
22
1
13
0
23
0
14
0.5
24
0.5
15
10
25
10
16
0
26
0
36
1
17
0
27
0
37
0
0
ENDTAB
0
TABLE
2
LTYPE
5
289
100
AcDbSymbolTable
0
LTYPE
5
14
100
AcDbSymbolTableRecord
100
AcDbLinetypeTableRecord
70
0
2
ByBlock
3

72
65
73
0
40
0
0
LTYPE
5
15
100
AcDbSymbolTableRecord
100
AcDbLinetypeTableRecord
70
0
2
ByLayer
3

72
65
73
0
40
0
0
LTYPE
5
16
100
AcDbSymbolTableRecord
100
AcDbLinetypeTableRecord
70
0
2
Continuous
3
Solid line
72
65
73
0
40
0
0
LTYPE
5
6E
100
AcDbSymbolTableRecord
100
AcDbLinetypeTableRecord
70
0
2
CENTER
3
____ _ ____ _ ____ _ ____
72
65
73
4
40
47.5
49
22
74
0
49
-8.5
74
0
49
8.5
74
0
49
-8.5
74
0
0
LTYPE
5
6F
100
AcDbSymbolTableRecord
100
AcDbLinetypeTableRecord
70
0
2
DASHED
3
__ __ __ __ __ __ __ __ __
72
65
73
2
40
25.72
49
12.86
74
0
49
-12.86
74
0
0
ENDTAB
0
TABLE
2
LAYER
5
28a
100
AcDbSymbolTable
0
LAYER
5
10
100
AcDbSymbolTableRecord
100
AcDbLayerTableRecord
2
0
70
0
62
7
6
Continuous
290
1
370
-3
390
0
0
LAYER
5
71
100
AcDbSymbolTableRecord
100
AcDbLayerTableRecord
2
81
70
0
62
-3
6
Continuous
290
1
370
-3
390
0
0
LAYER
5
73
100
AcDbSymbolTableRecord
100
AcDbLayerTableRecord
2
80
70
0
62
-6
6
Continuous
290
1
370
-3
390
0
0
LAYER
5
75
100
AcDbSymbolTableRecord
100
AcDbLayerTableRecord
2
1
70
0
62
4
6
Continuous
290
1
370
-3
390
0
0
LAYER
5
E9
100
AcDbSymbolTableRecord
100
AcDbLayerTableRecord
2
2
70
0
62
7
6
Continuous
290
1
370
-3
390
0
0
LAYER
5
1A7
100
AcDbSymbolTableRecord
100
AcDbLayerTableRecord
2
Defpoints
70
0
62
7
6
Continuous
290
0
370
-3
390
0
0
LAYER
5
275
100
AcDbSymbolTableRecord
100
AcDbLayerTableRecord
2
SK1
70
0
62
4
6
Continuous
290
1
370
-3
390
0
0
LAYER
5
276
100
AcDbSymbolTableRecord
100
AcDbLayerTableRecord
2
SK6
70
0
62
5
6
Continuous
290
1
370
-3
390
0
0
LAYER
5
277
100
AcDbSymbolTableRecord
100
AcDbLayerTableRecord
2
SK2
70
0
62
7
6
Continuous
290
1
370
-3
390
0
0
ENDTAB
0
TABLE
2
STYLE
5
28b
100
AcDbSymbolTable
0
STYLE
5
11
100
AcDbSymbolTableRecord
100
AcDbTextStyleTableRecord
2
Standard
3
txt
70
0
71
0
40
0
41
1
42
0
50
0
0
STYLE
5
198
100
AcDbSymbolTableRecord
100
AcDbTextStyleTableRecord
2
iso_b_vert
3
simplex.shx
70
0
71
0
40
0
41
1
42
0
50
0
0
STYLE
5
199
100
AcDbSymbolTableRecord
100
AcDbTextStyleTableRecord
2
DWGDirectTextStyle
3
simplex
70
0
71
0
40
0
41
1
42
0
50
0
0
ENDTAB
0
TABLE
2
DIMSTYLE
5
28c
100
AcDbSymbolTable
100
AcDbDimStyleTable
0
DIMSTYLE
105
27
100
AcDbSymbolTableRecord
100
AcDbDimStyleTableRecord
2
Standard
70
0
3
<>
41
0.18
42
0.0625
44
0.18
140
0.18
147
0.09
73
0
74
0
77
1
271
2
275
0
278
52
280
0
340
11
0
ENDTAB
0
TABLE
2
VIEW
5
28d
100
AcDbSymbolTable
0
ENDTAB
0
TABLE
2
UCS
5
28e
100
AcDbSymbolTable
0
ENDTAB
0
TABLE
2
APPID
5
28f
100
AcDbSymbolTable
0
APPID
5
12
100
AcDbSymbolTableRecord
100
AcDbRegAppTableRecord
2
ACAD
70
0
0
APPID
5
19C
100
AcDbSymbolTableRecord
100
AcDbRegAppTableRecord
2
ACAD_DSTYLE_DIMBREAK
70
0
0
APPID
5
234
100
AcDbSymbolTableRecord
100
AcDbRegAppTableRecord
2
ACAD_DSTYLE_DIM_LINETYPE
70
0
0
APPID
5
235
100
AcDbSymbolTableRecord
100
AcDbRegAppTableRecord
2
ACAD_DSTYLE_DIM_EXT1_LINETYPE
70
0
0
APPID
5
236
100
AcDbSymbolTableRecord
100
AcDbRegAppTableRecord
2
ACAD_DSTYLE_DIM_EXT2_LINETYPE
70
0
0
APPID
5
271
100
AcDbSymbolTableRecord
100
AcDbRegAppTableRecord
2
ACAD_MLEADERVER
70
0
0
ENDTAB
0
TABLE
2
BLOCK_RECORD
5
290
100
AcDbSymbolTable
0
BLOCK_RECORD
5
1F
100
AcDbSymbolTableRecord
100
AcDbBlockTableRecord
2
*Model_Space
340
0
70
0
0
BLOCK_RECORD
5
1B
100
AcDbSymbolTableRecord
100
AcDbBlockTableRecord
2
*Paper_Space
340
0
70
0
0
BLOCK_RECORD
5
23
100
AcDbSymbolTableRecord
100
AcDbBlockTableRecord
2
*Paper_Space0
340
0
70
0
0
BLOCK_RECORD
5
19E
100
AcDbSymbolTableRecord
100
AcDbBlockTableRecord
2
_Closed
340
0
70
0
0
BLOCK_RECORD
5
1A8
100
AcDbSymbolTableRecord
100
AcDbBlockTableRecord
2
*D2
340
0
70
0
0
BLOCK_RECORD
5
1B5
100
AcDbSymbolTableRecord
100
AcDbBlockTableRecord
2
_U0
340
0
70
0
0
BLOCK_RECORD
5
1C5
100
AcDbSymbolTableRecord
100
AcDbBlockTableRecord
2
*D4
340
0
70
0
0
BLOCK_RECORD
5
1D1
100
AcDbSymbolTableRecord
100
AcDbBlockTableRecord
2
_U1
340
0
70
0
0
BLOCK_RECORD
5
1E1
100
AcDbSymbolTableRecord
100
AcDbBlockTableRecord
2
*D6
340
0
70
0
0
BLOCK_RECORD
5
1ED
100
AcDbSymbolTableRecord
100
AcDbBlockTableRecord
2
_U2
340
0
70
0
0
BLOCK_RECORD
5
1FD
100
AcDbSymbolTableRecord
100
AcDbBlockTableRecord
2
*D8
340
0
70
0
0
BLOCK_RECORD
5
209
100
AcDbSymbolTableRecord
100
AcDbBlockTableRecord
2
_U3
340
0
70
0
0
ENDTAB
0
ENDSEC
0
SECTION
2
BLOCKS
0
BLOCK
5
20
100
AcDbEntity
8
0
100
AcDbBlockBegin
2
*Model_Space
70
0
10
0
20
0
30
0
3
*Model_Space
0
ENDBLK
5
21
100
AcDbEntity
8
0
100
AcDbBlockEnd
0
BLOCK
5
1C
100
AcDbEntity
8
0
100
AcDbBlockBegin
2
*Paper_Space
70
0
10
0
20
0
30
0
3
*Paper_Space
0
ENDBLK
5
1D
100
AcDbEntity
8
0
100
AcDbBlockEnd
0
BLOCK
5
24
100
AcDbEntity
8
0
100
AcDbBlockBegin
2
*Paper_Space0
70
0
10
0
20
0
30
0
3
*Paper_Space0
0
ENDBLK
5
25
100
AcDbEntity
8
0
100
AcDbBlockEnd
0
BLOCK
5
19F
100
AcDbEntity
8
0
100
AcDbBlockBegin
2
_Closed
70
0
10
0
20
0
30
0
3
_Closed
0
LINE
5
1A1
100
AcDbEntity
8
0
62
256
6
ByLayer
370
-2
48
1
60
0
100
AcDbLine
10
-1
20
0.166667
30
0
11
0
21
0
31
0
39
0
210
0
220
0
230
1
0
LINE
5
1A2
100
AcDbEntity
8
0
62
256
6
ByLayer
370
-2
48
1
60
0
100
AcDbLine
10
0
20
0
30
0
11
-1
21
-0.166667
31
0
39
0
210
0
220
0
230
1
0
LINE
5
1A3
100
AcDbEntity
8
0
62
256
6
ByLayer
370
-2
48
1
60
0
100
AcDbLine
10
-1
20
0.166667
30
0
11
-1
21
-0.166667
31
0
39
0
210
0
220
0
230
1
0
LINE
5
1A4
100
AcDbEntity
8
0
62
256
6
ByLayer
370
-2
48
1
60
0
100
AcDbLine
10
0
20
0
30
0
11
-1
21
0
31
0
39
0
210
0
220
0
230
1
0
ENDBLK
5
1A0
100
AcDbEntity
8
0
100
AcDbBlockEnd
0
BLOCK
5
1A9
100
AcDbEntity
8
0
100
AcDbBlockBegin
2
*D2
70
1
10
0
20
0
30
0
3
*D2
0
LINE
5
1AB
100
AcDbEntity
8
0
62
256
6
ByLayer
370
-2
48
1
60
0
100
AcDbLine
10
35
20
21.125
30
0
11
35
21
43.2125
31
0
39
0
210
0
220
0
230
1
0
LINE
5
1AC
100
AcDbEntity
8
0
62
256
6
ByLayer
370
-2
48
1
60
0
100
AcDbLine
10
-84
20
14.05
30
0
11
-84
21
43.2125
31
0
39
0
210
0
220
0
230
1
0
LINE
5
1AD
100
AcDbEntity
8
0
62
256
6
ByLayer
370
-2
48
1
60
0
100
AcDbLine
10
31.825
20
40.0375
30
0
11
-80.825
21
40.0375
31
0
39
0
210
0
220
0
230
1
0
SOLID
5
1AE
100
AcDbEntity
8
0
62
256
6
ByLayer
370
-1
48
1
60
0
100
AcDbTrace
10
31.825
20
39.508333
30
0
11
31.825
21
40.566667
31
0
12
35
22
40.0375
32
0
13
35
23
40.0375
33
0
39
0
210
0
220
0
230
1
0
SOLID
5
1AF
100
AcDbEntity
8
0
62
256
6
ByLayer
370
-1
48
1
60
0
100
AcDbTrace
10
-80.825
20
40.566667
30
0
11
-80.825
21
39.508333
31
0
12
-84
22
40.0375
32
0
13
-84
23
40.0375
33
0
39
0
210
0
220
0
230
1
0
MTEXT
5
1B0
100
AcDbEntity
8
0
62
256
6
ByLayer
370
18
48
1
60
0
100
AcDbMText
10
-24.5
20
49.43125
30
0
210
0
220
0
230
1
1
\A1;119
40
4.5
41
0
44
1
50
0
71
5
72
5
7
iso_b_vert
0
POINT
5
1B1
100
AcDbEntity
8
Defpoints
62
0
6
ByLayer
370
-1
48
1
60
0
100
AcDbPoint
10
35
20
19.5375
30
0
39
0
210
0
220
0
230
1
50
360
0
POINT
5
1B2
100
AcDbEntity
8
Defpoints
62
0
6
ByLayer
370
-1
48
1
60
0
100
AcDbPoint
10
-84
20
12.4625
30
0
39
0
210
0
220
0
230
1
50
360
0
POINT
5
1B3
100
AcDbEntity
8
Defpoints
62
0
6
ByLayer
370
-1
48
1
60
0
100
AcDbPoint
10
-84
20
40.0375
30
0
39
0
210
0
220
0
230
1
50
360
0
ENDBLK
5
1AA
100
AcDbEntity
8
0
100
AcDbBlockEnd
0
BLOCK
5
1C0
100
AcDbEntity
8
0
100
AcDbBlockBegin
2
_U0
70
0
10
0
20
0
30
0
3
_U0
0
MTEXT
5
1B6
100
AcDbEntity
8
SK2
62
256
6
ByLayer
370
13
48
1
60
0
100
AcDbMText
10
-30.098727
20
41.365172
30
0
210
0
220
0
230
1
1
\W0.6261;119.0
40
4.5
41
0
44
1.084337
50
0
71
7
72
5
7
iso_b_vert
0
LINE
5
1B7
100
AcDbEntity
8
SK2
62
256
6
ByLayer
370
13
48
1
60
0
100
AcDbLine
10
35
20
21.125
30
0
11
35
21
43.2125
31
0
39
0
210
0
220
0
230
1
0
LINE
5
1B8
100
AcDbEntity
8
SK2
62
256
6
ByLayer
370
13
48
1
60
0
100
AcDbLine
10
-84
20
14.05
30
0
11
-84
21
43.2125
31
0
39
0
210
0
220
0
230
1
0
LINE
5
1B9
100
AcDbEntity
8
SK2
62
256
6
ByLayer
370
13
48
1
60
0
100
AcDbLine
10
35
20
40.0375
30
0
11
-84
21
40.0375
31
0
39
0
210
0
220
0
230
1
0
LINE
5
1BA
100
AcDbEntity
8
SK2
62
256
6
ByLayer
370
13
48
1
60
0
100
AcDbLine
10
35
20
40.0375
30
0
11
31.825003
21
39.186761
31
0
39
0
210
0
220
0
230
1
0
LINE
5
1BB
100
AcDbEntity
8
SK2
62
256
6
ByLayer
370
13
48
1
60
0
100
AcDbLine
10
35
20
40.0375
30
0
11
31.824997
21
40.888239
31
0
39
0
210
0
220
0
230
1
0
LINE
5
1BC
100
AcDbEntity
8
SK2
62
256
6
ByLayer
370
13
48
1
60
0
100
AcDbLine
10
31.825003
20
39.186761
30
0
11
31.824997
21
40.888239
31
0
39
0
210
0
220
0
230
1
0
LINE
5
1BD
100
AcDbEntity
8
SK2
62
256
6
ByLayer
370
13
48
1
60
0
100
AcDbLine
10
-84
20
40.0375
30
0
11
-80.825003
21
40.888239
31
0
39
0
210
0
220
0
230
1
0
LINE
5
1BE
100
AcDbEntity
8
SK2
62
256
6
ByLayer
370
13
48
1
60
0
100
AcDbLine
10
-84
20
40.0375
30
0
11
-80.824997
21
39.186761
31
0
39
0
210
0
220
0
230
1
0
LINE
5
1BF
100
AcDbEntity
8
SK2
62
256
6
ByLayer
370
13
48
1
60
0
100
AcDbLine
10
-80.825003
20
40.888239
30
0
11
-80.824997
21
39.186761
31
0
39
0
210
0
220
0
230
1
0
ENDBLK
5
1C1
100
AcDbEntity
8
0
100
AcDbBlockEnd
0
BLOCK
5
1C6
100
AcDbEntity
8
0
100
AcDbBlockBegin
2
*D4
70
1
10
0
20
0
30
0
3
*D4
0
LINE
5
1C8
100
AcDbEntity
8
0
62
256
6
ByLayer
370
-2
48
1
60
0
100
AcDbLine
10
0
20
-14.05
30
0
11
0
21
-31.4875
31
0
39
0
210
0
220
0
230
1
0
LINE
5
1C9
100
AcDbEntity
8
0
62
256
6
ByLayer
370
-2
48
1
60
0
100
AcDbLine
10
35
20
17.95
30
0
11
35
21
-31.4875
31
0
39
0
210
0
220
0
230
1
0
LINE
5
1CA
100
AcDbEntity
8
0
62
256
6
ByLayer
370
-2
48
1
60
0
100
AcDbLine
10
3.175
20
-28.3125
30
0
11
31.825
21
-28.3125
31
0
39
0
210
0
220
0
230
1
0
SOLID
5
1CB
100
AcDbEntity
8
0
62
256
6
ByLayer
370
-1
48
1
60
0
100
AcDbTrace
10
3.175
20
-27.783333
30
0
11
3.175
21
-28.841667
31
0
12
0
22
-28.3125
32
0
13
0
23
-28.3125
33
0
39
0
210
0
220
0
230
1
0
SOLID
5
1CC
100
AcDbEntity
8
0
62
256
6
ByLayer
370
-1
48
1
60
0
100
AcDbTrace
10
31.825
20
-28.841667
30
0
11
31.825
21
-27.783333
31
0
12
35
22
-28.3125
32
0
13
35
23
-28.3125
33
0
39
0
210
0
220
0
230
1
0
MTEXT
5
1CD
100
AcDbEntity
8
0
62
256
6
ByLayer
370
18
48
1
60
0
100
AcDbMText
10
17.5
20
-18.91875
30
0
210
0
220
0
230
1
1
\A1;35
40
4.5
41
0
44
1
50
0
71
5
72
5
7
iso_b_vert
0
POINT
5
1CE
100
AcDbEntity
8
Defpoints
62
0
6
ByLayer
370
-1
48
1
60
0
100
AcDbPoint
10
0
20
-12.4625
30
0
39
0
210
0
220
0
230
1
50
360
0
POINT
5
1CF
100
AcDbEntity
8
Defpoints
62
0
6
ByLayer
370
-1
48
1
60
0
100
AcDbPoint
10
35
20
19.5375
30
0
39
0
210
0
220
0
230
1
50
360
0
POINT
5
1D0
100
AcDbEntity
8
Defpoints
62
0
6
ByLayer
370
-1
48
1
60
0
100
AcDbPoint
10
35
20
-28.3125
30
0
39
0
210
0
220
0
230
1
50
360
0
ENDBLK
5
1C7
100
AcDbEntity
8
0
100
AcDbBlockEnd
0
BLOCK
5
1DC
100
AcDbEntity
8
0
100
AcDbBlockBegin
2
_U1
70
0
10
0
20
0
30
0
3
_U1
0
MTEXT
5
1D2
100
AcDbEntity
8
2
62
256
6
ByLayer
370
13
48
1
60
0
100
AcDbMText
10
12.457816
20
-26.984828
30
0
210
0
220
0
230
1
1
\W0.7346;35.0
40
4.5
41
0
44
1.084337
50
0
71
7
72
5
7
iso_b_vert
0
LINE
5
1D3
100
AcDbEntity
8
2
62
256
6
ByLayer
370
13
48
1
60
0
100
AcDbLine
10
0
20
-14.05
30
0
11
0
21
-31.4875
31
0
39
0
210
0
220
0
230
1
0
LINE
5
1D4
100
AcDbEntity
8
2
62
256
6
ByLayer
370
13
48
1
60
0
100
AcDbLine
10
35
20
17.95
30
0
11
35
21
-31.4875
31
0
39
0
210
0
220
0
230
1
0
LINE
5
1D5
100
AcDbEntity
8
2
62
256
6
ByLayer
370
13
48
1
60
0
100
AcDbLine
10
0
20
-28.3125
30
0
11
35
21
-28.3125
31
0
39
0
210
0
220
0
230
1
0
LINE
5
1D6
100
AcDbEntity
8
2
62
256
6
ByLayer
370
13
48
1
60
0
100
AcDbLine
10
0
20
-28.3125
30
0
11
3.174997
21
-27.461761
31
0
39
0
210
0
220
0
230
1
0
LINE
5
1D7
100
AcDbEntity
8
2
62
256
6
ByLayer
370
13
48
1
60
0
100
AcDbLine
10
0
20
-28.3125
30
0
11
3.175003
21
-29.163239
31
0
39
0
210
0
220
0
230
1
0
LINE
5
1D8
100
AcDbEntity
8
2
62
256
6
ByLayer
370
13
48
1
60
0
100
AcDbLine
10
3.174997
20
-27.461761
30
0
11
3.175003
21
-29.163239
31
0
39
0
210
0
220
0
230
1
0
LINE
5
1D9
100
AcDbEntity
8
2
62
256
6
ByLayer
370
13
48
1
60
0
100
AcDbLine
10
35
20
-28.3125
30
0
11
31.825003
21
-29.163239
31
0
39
0
210
0
220
0
230
1
0
LINE
5
1DA
100
AcDbEntity
8
2
62
256
6
ByLayer
370
13
48
1
60
0
100
AcDbLine
10
35
20
-28.3125
30
0
11
31.824997
21
-27.461761
31
0
39
0
210
0
220
0
230
1
0
LINE
5
1DB
100
AcDbEntity
8
2
62
256
6
ByLayer
370
13
48
1
60
0
100
AcDbLine
10
31.825003
20
-29.163239
30
0
11
31.824997
21
-27.461761
31
0
39
0
210
0
220
0
230
1
0
ENDBLK
5
1DD
100
AcDbEntity
8
0
100
AcDbBlockEnd
0
BLOCK
5
1E2
100
AcDbEntity
8
0
100
AcDbBlockBegin
2
*D6
70
1
10
0
20
0
30
0
3
*D6
0
LINE
5
1E4
100
AcDbEntity
8
0
62
256
6
ByLayer
370
-2
48
1
60
0
100
AcDbLine
10
-85.5875
20
12.4625
30
0
11
-96.275
21
12.4625
31
0
39
0
210
0
220
0
230
1
0
LINE
5
1E5
100
AcDbEntity
8
0
62
256
6
ByLayer
370
-2
48
1
60
0
100
AcDbLine
10
-85.5875
20
-12.4625
30
0
11
-96.275
21
-12.4625
31
0
39
0
210
0
220
0
230
1
0
LINE
5
1E6
100
AcDbEntity
8
0
62
256
6
ByLayer
370
-2
48
1
60
0
100
AcDbLine
10
-93.1
20
9.2875
30
0
11
-93.1
21
-9.2875
31
0
39
0
210
0
220
0
230
1
0
SOLID
5
1E7
100
AcDbEntity
8
0
62
256
6
ByLayer
370
-1
48
1
60
0
100
AcDbTrace
10
-92.570833
20
9.2875
30
0
11
-93.629167
21
9.2875
31
0
12
-93.1
22
12.4625
32
0
13
-93.1
23
12.4625
33
0
39
0
210
0
220
0
230
1
0
SOLID
5
1E8
100
AcDbEntity
8
0
62
256
6
ByLayer
370
-1
48
1
60
0
100
AcDbTrace
10
-93.629167
20
-9.2875
30
0
11
-92.570833
21
-9.2875
31
0
12
-93.1
22
-12.4625
32
0
13
-93.1
23
-12.4625
33
0
39
0
210
0
220
0
230
1
0
MTEXT
5
1E9
100
AcDbEntity
8
0
62
256
6
ByLayer
370
18
48
1
60
0
100
AcDbMText
10
-102.49375
20
0
30
0
210
0
220
0
230
1
1
\A1;24.9
40
4.5
41
0
44
1
50
90
71
5
72
5
7
iso_b_vert
0
POINT
5
1EA
100
AcDbEntity
8
Defpoints
62
0
6
ByLayer
370
-1
48
1
60
0
100
AcDbPoint
10
-84
20
12.4625
30
0
39
0
210
0
220
0
230
1
50
360
0
POINT
5
1EB
100
AcDbEntity
8
Defpoints
62
0
6
ByLayer
370
-1
48
1
60
0
100
AcDbPoint
10
-84
20
-12.4625
30
0
39
0
210
0
220
0
230
1
50
360
0
POINT
5
1EC
100
AcDbEntity
8
Defpoints
62
0
6
ByLayer
370
-1
48
1
60
0
100
AcDbPoint
10
-93.1
20
-12.4625
30
0
39
0
210
0
220
0
230
1
50
360
0
ENDBLK
5
1E3
100
AcDbEntity
8
0
100
AcDbBlockEnd
0
BLOCK
5
1F8
100
AcDbEntity
8
0
100
AcDbBlockBegin
2
_U2
70
0
10
0
20
0
30
0
3
_U2
0
MTEXT
5
1EE
100
AcDbEntity
8
SK2
62
256
6
ByLayer
370
13
48
1
60
0
100
AcDbMText
10
-93.986672
20
-5.078184
30
0
210
0
220
0
230
1
1
\W0.7346;25.0
40
4.5
41
0
44
1.084337
50
90
71
7
72
5
7
iso_b_vert
0
LINE
5
1EF
100
AcDbEntity
8
SK2
62
256
6
ByLayer
370
13
48
1
60
0
100
AcDbLine
10
-85.5875
20
12.4625
30
0
11
-96.275
21
12.4625
31
0
39
0
210
0
220
0
230
1
0
LINE
5
1F0
100
AcDbEntity
8
SK2
62
256
6
ByLayer
370
13
48
1
60
0
100
AcDbLine
10
-85.5875
20
-12.4625
30
0
11
-96.275
21
-12.4625
31
0
39
0
210
0
220
0
230
1
0
LINE
5
1F1
100
AcDbEntity
8
SK2
62
256
6
ByLayer
370
13
48
1
60
0
100
AcDbLine
10
-93.1
20
12.4625
30
0
11
-93.1
21
-12.4625
31
0
39
0
210
0
220
0
230
1
0
LINE
5
1F2
100
AcDbEntity
8
SK2
62
256
6
ByLayer
370
13
48
1
60
0
100
AcDbLine
10
-93.1
20
12.4625
30
0
11
-92.249261
21
9.287503
31
0
39
0
210
0
220
0
230
1
0
LINE
5
1F3
100
AcDbEntity
8
SK2
62
256
6
ByLayer
370
13
48
1
60
0
100
AcDbLine
10
-93.1
20
12.4625
30
0
11
-93.950739
21
9.287497
31
0
39
0
210
0
220
0
230
1
0
LINE
5
1F4
100
AcDbEntity
8
SK2
62
256
6
ByLayer
370
13
48
1
60
0
100
AcDbLine
10
-92.249261
20
9.287503
30
0
11
-93.950739
21
9.287497
31
0
39
0
210
0
220
0
230
1
0
LINE
5
1F5
100
AcDbEntity
8
SK2
62
256
6
ByLayer
370
13
48
1
60
0
100
AcDbLine
10
-93.1
20
-12.4625
30
0
11
-93.950739
21
-9.287503
31
0
39
0
210
0
220
0
230
1
0
LINE
5
1F6
100
AcDbEntity
8
SK2
62
256
6
ByLayer
370
13
48
1
60
0
100
AcDbLine
10
-93.1
20
-12.4625
30
0
11
-92.249261
21
-9.287497
31
0
39
0
210
0
220
0
230
1
0
LINE
5
1F7
100
AcDbEntity
8
SK2
62
256
6
ByLayer
370
13
48
1
60
0
100
AcDbLine
10
-93.950739
20
-9.287503
30
0
11
-92.249261
21
-9.287497
31
0
39
0
210
0
220
0
230
1
0
ENDBLK
5
1F9
100
AcDbEntity
8
0
100
AcDbBlockEnd
0
BLOCK
5
1FE
100
AcDbEntity
8
0
100
AcDbBlockBegin
2
*D8
70
1
10
0
20
0
30
0
3
*D8
0
LINE
5
200
100
AcDbEntity
8
0
62
256
6
ByLayer
370
-2
48
1
60
0
100
AcDbLine
10
1.5875
20
-12.4625
30
0
11
59.025
21
-12.4625
31
0
39
0
210
0
220
0
230
1
0
LINE
5
201
100
AcDbEntity
8
0
62
256
6
ByLayer
370
-2
48
1
60
0
100
AcDbLine
10
36.5875
20
19.5375
30
0
11
59.025
21
19.5375
31
0
39
0
210
0
220
0
230
1
0
LINE
5
202
100
AcDbEntity
8
0
62
256
6
ByLayer
370
-2
48
1
60
0
100
AcDbLine
10
55.85
20
-9.2875
30
0
11
55.85
21
16.3625
31
0
39
0
210
0
220
0
230
1
0
SOLID
5
203
100
AcDbEntity
8
0
62
256
6
ByLayer
370
-1
48
1
60
0
100
AcDbTrace
10
55.320833
20
-9.2875
30
0
11
56.379167
21
-9.2875
31
0
12
55.85
22
-12.4625
32
0
13
55.85
23
-12.4625
33
0
39
0
210
0
220
0
230
1
0
SOLID
5
204
100
AcDbEntity
8
0
62
256
6
ByLayer
370
-1
48
1
60
0
100
AcDbTrace
10
56.379167
20
16.3625
30
0
11
55.320833
21
16.3625
31
0
12
55.85
22
19.5375
32
0
13
55.85
23
19.5375
33
0
39
0
210
0
220
0
230
1
0
MTEXT
5
205
100
AcDbEntity
8
0
62
256
6
ByLayer
370
18
48
1
60
0
100
AcDbMText
10
46.45625
20
3.5375
30
0
210
0
220
0
230
1
1
\A1;32
40
4.5
41
0
44
1
50
90
71
5
72
5
7
iso_b_vert
0
POINT
5
206
100
AcDbEntity
8
Defpoints
62
0
6
ByLayer
370
-1
48
1
60
0
100
AcDbPoint
10
0
20
-12.4625
30
0
39
0
210
0
220
0
230
1
50
360
0
POINT
5
207
100
AcDbEntity
8
Defpoints
62
0
6
ByLayer
370
-1
48
1
60
0
100
AcDbPoint
10
35
20
19.5375
30
0
39
0
210
0
220
0
230
1
50
360
0
POINT
5
208
100
AcDbEntity
8
Defpoints
62
0
6
ByLayer
370
-1
48
1
60
0
100
AcDbPoint
10
55.85
20
19.5375
30
0
39
0
210
0
220
0
230
1
50
360
0
ENDBLK
5
1FF
100
AcDbEntity
8
0
100
AcDbBlockEnd
0
BLOCK
5
214
100
AcDbEntity
8
0
100
AcDbBlockBegin
2
_U3
70
0
10
0
20
0
30
0
3
_U3
0
MTEXT
5
20A
100
AcDbEntity
8
2
62
256
6
ByLayer
370
13
48
1
60
0
100
AcDbMText
10
54.963328
20
-1.540684
30
0
210
0
220
0
230
1
1
\W0.7346;32.0
40
4.5
41
0
44
1.084337
50
90
71
7
72
5
7
iso_b_vert
0
LINE
5
20B
100
AcDbEntity
8
2
62
256
6
ByLayer
370
13
48
1
60
0
100
AcDbLine
10
1.5875
20
-12.4625
30
0
11
59.025
21
-12.4625
31
0
39
0
210
0
220
0
230
1
0
LINE
5
20C
100
AcDbEntity
8
2
62
256
6
ByLayer
370
13
48
1
60
0
100
AcDbLine
10
36.5875
20
19.5375
30
0
11
59.025
21
19.5375
31
0
39
0
210
0
220
0
230
1
0
LINE
5
20D
100
AcDbEntity
8
2
62
256
6
ByLayer
370
13
48
1
60
0
100
AcDbLine
10
55.85
20
-12.4625
30
0
11
55.85
21
19.5375
31
0
39
0
210
0
220
0
230
1
0
LINE
5
20E
100
AcDbEntity
8
2
62
256
6
ByLayer
370
13
48
1
60
0
100
AcDbLine
10
55.85
20
-12.4625
30
0
11
54.999261
21
-9.287503
31
0
39
0
210
0
220
0
230
1
0
LINE
5
20F
100
AcDbEntity
8
2
62
256
6
ByLayer
370
13
48
1
60
0
100
AcDbLine
10
55.85
20
-12.4625
30
0
11
56.700739
21
-9.287497
31
0
39
0
210
0
220
0
230
1
0
LINE
5
210
100
AcDbEntity
8
2
62
256
6
ByLayer
370
13
48
1
60
0
100
AcDbLine
10
54.999261
20
-9.287503
30
0
11
56.700739
21
-9.287497
31
0
39
0
210
0
220
0
230
1
0
LINE
5
211
100
AcDbEntity
8
2
62
256
6
ByLayer
370
13
48
1
60
0
100
AcDbLine
10
55.85
20
19.5375
30
0
11
56.700739
21
16.362503
31
0
39
0
210
0
220
0
230
1
0
LINE
5
212
100
AcDbEntity
8
2
62
256
6
ByLayer
370
13
48
1
60
0
100
AcDbLine
10
55.85
20
19.5375
30
0
11
54.999261
21
16.362497
31
0
39
0
210
0
220
0
230
1
0
LINE
5
213
100
AcDbEntity
8
2
62
256
6
ByLayer
370
13
48
1
60
0
100
AcDbLine
10
56.700739
20
16.362503
30
0
11
54.999261
21
16.362497
31
0
39
0
210
0
220
0
230
1
0
ENDBLK
5
215
100
AcDbEntity
8
0
100
AcDbBlockEnd
0
ENDSEC
0
SECTION
2
ENTITIES
0
ARC
5
F1
100
AcDbEntity
8
1
62
256
6
ByLayer
370
18
48
1
60
0
100
AcDbCircle
39
0
10
0.996686
20
14.0625
30
0
40
1.59999999999959
210
0
220
0
230
1
100
AcDbArc
50
282.765824
51
345
0
ARC
5
F2
100
AcDbEntity
8
2
62
256
6
ByLayer
370
13
48
1
60
0
100
AcDbCircle
39
0
10
35
20
16.788687
30
0
40
39.1142140099865
210
0
220
0
230
1
100
AcDbArc
50
228.953747
51
286.046253
0
ELLIPSE
5
F3
100
AcDbEntity
8
1
62
256
6
ByLayer
370
18
48
1
60
0
100
AcDbEllipse
10
10.615187
20
-0.351745
30
0
11
3.31761931271507
21
1.14159367643079
31
0
210
0
220
0
230
1
40
0.466714
41
2.47766070336216
42
-3.0823064974182
0
ELLIPSE
5
F4
100
AcDbEntity
8
1
62
256
6
ByLayer
370
18
48
1
60
0
100
AcDbEllipse
10
6.595125
20
0.6822
30
0
11
2.51880211995658
21
-1.64437782658281
31
0
210
0
220
0
230
1
40
0.983715
41
-2.31890721803867
42
-1.26721815497438
0
ELLIPSE
5
F5
100
AcDbEntity
8
1
62
256
6
ByLayer
370
18
48
1
60
0
100
AcDbEllipse
10
7.300351
20
12.496298
30
0
11
3.44677623534856
21
0.648229502667906
31
0
210
0
220
0
230
1
40
0.271328
41
3.06351220390303
42
-2.49645499687763
0
ELLIPSE
5
F6
100
AcDbEntity
8
1
62
256
6
ByLayer
370
18
48
1
60
0
100
AcDbEllipse
10
5.0219
20
9.517746
30
0
11
-0.318905572352332
21
-1.97441111117281
31
0
210
0
220
0
230
1
40
0.794874
41
-2.70809243533899
42
-1.29541694107938
0
ELLIPSE
5
F7
100
AcDbEntity
8
1
62
256
6
ByLayer
370
18
48
1
60
0
100
AcDbEllipse
10
9.535974
20
2.582221
30
0
11
2.40672672734146
21
4.06845603546821
31
0
210
0
220
0
230
1
40
0.503948
41
-3.04642477858955
42
-2.68680904523694
0
ELLIPSE
5
F8
100
AcDbEntity
8
1
62
256
6
ByLayer
370
18
48
1
60
0
100
AcDbEllipse
10
7.113495
20
1.410888
30
0
11
1.5276889287012
21
-1.29080073486335
31
0
210
0
220
0
230
1
40
0.731926
41
-2.11226906956852
42
-0.699593575308911
0
ELLIPSE
5
F9
100
AcDbEntity
8
1
62
256
6
ByLayer
370
18
48
1
60
0
100
AcDbEllipse
10
8.216038
20
8.482312
30
0
11
5.32560432240505
21
1.37402278044456
31
0
210
0
220
0
230
1
40
0.098274
41
1.95241930865952
42
2.39418704794556
0
ELLIPSE
5
FA
100
AcDbEntity
8
1
62
256
6
ByLayer
370
18
48
1
60
0
100
AcDbEllipse
10
7.670174
20
10.59804
30
0
11
5.38057284864437
21
1.16063653247103
31
0
210
0
220
0
230
1
40
0.137422
41
-2.5620367689602
42
-2.50904446580805
0
ELLIPSE
5
FB
100
AcDbEntity
8
1
62
256
6
ByLayer
370
18
48
1
60
0
100
AcDbEllipse
10
3.085635
20
-2.627996
30
0
11
6.77804186487916
21
1.74875626602035
31
0
210
0
220
0
230
1
40
0.098274
41
-0.843105965086318
42
-0.828324928346335
0
ELLIPSE
5
FC
100
AcDbEntity
8
1
62
256
6
ByLayer
370
18
48
1
60
0
100
AcDbEllipse
10
10.05469
20
1.35584
30
0
11
5.26424557979889
21
1.60944661084925
31
0
210
0
220
0
230
1
40
0.333606
41
2.49979284475806
42
2.55278515039171
0
ELLIPSE
5
FD
100
AcDbEntity
8
1
62
256
6
ByLayer
370
18
48
1
60
0
100
AcDbEllipse
10
25.736247
20
10.17705
30
0
11
0.283568735195572
21
-2.3901239461334
31
0
210
0
220
0
230
1
40
0.755274
41
0.711317568600013
42
1.56652890207823
0
ELLIPSE
5
FE
100
AcDbEntity
8
1
62
256
6
ByLayer
370
18
48
1
60
0
100
AcDbEllipse
10
4.506776
20
8.776478
30
0
11
2.51880211995414
21
-1.64437782658588
31
0
210
0
220
0
230
1
40
0.983715
41
2.91258902607791
42
-2.31890721803733
0
ELLIPSE
5
FF
100
AcDbEntity
8
1
62
256
6
ByLayer
370
18
48
1
60
0
100
AcDbEllipse
10
25.736247
20
10.17705
30
0
11
1.70992970874074
21
-1.3929362386489
31
0
210
0
220
0
230
1
40
0.720909
41
0.956227874479042
42
1.81143920795616
0
ELLIPSE
5
100
100
AcDbEntity
8
1
62
256
6
ByLayer
370
18
48
1
60
0
100
AcDbEllipse
10
7.447624
20
10.6765
30
0
11
3.98815702923809
21
-0.705463700064452
31
0
210
0
220
0
230
1
40
0.398793
41
2.40080609431078
42
2.76042182767066
0
ELLIPSE
5
101
100
AcDbEntity
8
1
62
256
6
ByLayer
370
18
48
1
60
0
100
AcDbEllipse
10
9.508826
20
3.471568
30
0
11
5.32560432240505
21
1.37402278044456
31
0
210
0
220
0
230
1
40
0.098274
41
1.95241930865952
42
2.39418704794556
0
ELLIPSE
5
102
100
AcDbEntity
8
1
62
256
6
ByLayer
370
18
48
1
60
0
100
AcDbEllipse
10
12.312821
20
7.468003
30
0
11
0.830850467894195
21
-0.830850467894192
31
0
210
0
220
0
230
1
40
0.981627
41
-0.604295919816939
42
-0.477808216419546
0
ELLIPSE
5
103
100
AcDbEntity
8
1
62
256
6
ByLayer
370
18
48
1
60
0
100
AcDbEllipse
10
11.917249
20
9.001207
30
0
11
0.300520382004283
21
-0.300520382004282
31
0
210
0
220
0
230
1
40
0.981627
41
-0.365416349569803
42
0.352820100875955
0
ELLIPSE
5
104
100
AcDbEntity
8
1
62
256
6
ByLayer
370
18
48
1
60
0
100
AcDbEllipse
10
11.917249
20
9.001207
30
0
11
0.300520382004283
21
-0.300520382004282
31
0
210
0
220
0
230
1
40
0.981627
41
-1.43492423711244
42
-0.716687786666685
0
ELLIPSE
5
105
100
AcDbEntity
8
1
62
256
6
ByLayer
370
18
48
1
60
0
100
AcDbEllipse
10
11.981156
20
6.27588
30
0
11
-0.26870057685089
21
0.268700576850886
31
0
210
0
220
0
230
1
40
0.981627
41
0.659470865280752
42
-2.78877255271384
0
ELLIPSE
5
106
100
AcDbEntity
8
1
62
256
6
ByLayer
370
18
48
1
60
0
100
AcDbEllipse
10
12.312821
20
7.468003
30
0
11
0.830850467894195
21
-0.830850467894192
31
0
210
0
220
0
230
1
40
0.981627
41
-2.69869102221014
42
-2.57220331881273
0
ELLIPSE
5
107
100
AcDbEntity
8
1
62
256
6
ByLayer
370
18
48
1
60
0
100
AcDbEllipse
10
13.436704
20
8.552615
30
0
11
0.300520382004283
21
-0.300520382004282
31
0
210
0
220
0
230
1
40
0.981627
41
-1.41261390076639
42
-0.694377450320646
0
ELLIPSE
5
108
100
AcDbEntity
8
1
62
256
6
ByLayer
370
18
48
1
60
0
100
AcDbEllipse
10
12.312821
20
7.468003
30
0
11
-1.62634559672907
21
1.62634559672905
31
0
210
0
220
0
230
1
40
0.981627
41
0
42
6.28318530717959
0
ELLIPSE
5
109
100
AcDbEntity
8
1
62
256
6
ByLayer
370
18
48
1
60
0
100
AcDbEllipse
10
12.708392
20
5.9348
30
0
11
0.300520382004283
21
-0.300520382004282
31
0
210
0
220
0
230
1
40
0.981627
41
2.77617630402001
42
-2.78877255271384
0
ELLIPSE
5
10A
100
AcDbEntity
8
1
62
256
6
ByLayer
370
18
48
1
60
0
100
AcDbEllipse
10
10.793367
20
7.916595
30
0
11
0.300520382004283
21
-0.300520382004282
31
0
210
0
220
0
230
1
40
0.981627
41
-0.387726685915843
42
0.33050976452989
0
ELLIPSE
5
10B
100
AcDbEntity
8
1
62
256
6
ByLayer
370
18
48
1
60
0
100
AcDbEllipse
10
13.832275
20
7.019412
30
0
11
0.300520382004283
21
-0.300520382004282
31
0
210
0
220
0
230
1
40
0.981627
41
-2.459811451963
42
-1.74157500151725
0
ELLIPSE
5
10C
100
AcDbEntity
8
1
62
256
6
ByLayer
370
18
48
1
60
0
100
AcDbEllipse
10
12.312821
20
7.468003
30
0
11
0.830850467894195
21
-0.830850467894192
31
0
210
0
220
0
230
1
40
0.981627
41
2.53729673377285
42
2.66378443717024
0
ELLIPSE
5
10D
100
AcDbEntity
8
1
62
256
6
ByLayer
370
18
48
1
60
0
100
AcDbEllipse
10
12.195871
20
7.351054
30
0
11
-2.82842712474621
21
2.82842712474617
31
0
210
0
220
0
230
1
40
0.981627
41
0
42
6.28318530717959
0
ELLIPSE
5
10E
100
AcDbEntity
8
1
62
256
6
ByLayer
370
18
48
1
60
0
100
AcDbEllipse
10
13.832275
20
7.019412
30
0
11
0.300520382004283
21
-0.300520382004282
31
0
210
0
220
0
230
1
40
0.981627
41
2.75386596767397
42
-2.81108288905984
0
ELLIPSE
5
10F
100
AcDbEntity
8
1
62
256
6
ByLayer
370
18
48
1
60
0
100
AcDbEllipse
10
11.188938
20
6.383391
30
0
11
0.300520382004283
21
-0.300520382004282
31
0
210
0
220
0
230
1
40
0.981627
41
1.7289787528234
42
2.44721520326914
0
ELLIPSE
5
110
100
AcDbEntity
8
1
62
256
6
ByLayer
370
18
48
1
60
0
100
AcDbEllipse
10
11.44074
20
8.37049
30
0
11
-0.26870057685089
21
0.268700576850886
31
0
210
0
220
0
230
1
40
0.981627
41
-1.4349242371124
42
1.40001765207257
0
ELLIPSE
5
111
100
AcDbEntity
8
1
62
256
6
ByLayer
370
18
48
1
60
0
100
AcDbEllipse
10
13.516566
20
7.75764
30
0
11
-0.26870057685089
21
0.268700576850886
31
0
210
0
220
0
230
1
40
0.981627
41
2.753865967674
42
-0.69437745032064
0
ELLIPSE
5
112
100
AcDbEntity
8
1
62
256
6
ByLayer
370
18
48
1
60
0
100
AcDbEllipse
10
12.644486
20
8.660127
30
0
11
-0.26870057685089
21
0.268700576850886
31
0
210
0
220
0
230
1
40
0.981627
41
-2.48212178830899
42
0.352820100875967
0
ELLIPSE
5
113
100
AcDbEntity
8
1
62
256
6
ByLayer
370
18
48
1
60
0
100
AcDbEllipse
10
12.312821
20
7.468003
30
0
11
0.830850467894195
21
-0.830850467894192
31
0
210
0
220
0
230
1
40
0.981627
41
-1.65149347101355
42
-1.52500576761614
0
ELLIPSE
5
114
100
AcDbEntity
8
1
62
256
6
ByLayer
370
18
48
1
60
0
100
AcDbEllipse
10
10.793367
20
7.916595
30
0
11
0.300520382004283
21
-0.300520382004282
31
0
210
0
220
0
230
1
40
0.981627
41
0.681781201626797
42
1.40001765207254
0
ELLIPSE
5
115
100
AcDbEntity
8
1
62
256
6
ByLayer
370
18
48
1
60
0
100
AcDbEllipse
10
13.184902
20
6.565516
30
0
11
-0.26870057685089
21
0.268700576850886
31
0
210
0
220
0
230
1
40
0.981627
41
1.70666841647738
42
-1.74157500151724
0
ELLIPSE
5
116
100
AcDbEntity
8
1
62
256
6
ByLayer
370
18
48
1
60
0
100
AcDbEllipse
10
12.708392
20
5.9348
30
0
11
0.300520382004283
21
-0.300520382004282
31
0
210
0
220
0
230
1
40
0.981627
41
1.70666841647737
42
2.42490486692313
0
ELLIPSE
5
117
100
AcDbEntity
8
1
62
256
6
ByLayer
370
18
48
1
60
0
100
AcDbEllipse
10
12.312821
20
7.468003
30
0
11
0.830850467894195
21
-0.830850467894192
31
0
210
0
220
0
230
1
40
0.981627
41
0.44290163137966
42
0.569389334777041
0
ELLIPSE
5
118
100
AcDbEntity
8
1
62
256
6
ByLayer
370
18
48
1
60
0
100
AcDbEllipse
10
11.109075
20
7.178367
30
0
11
-0.26870057685089
21
0.268700576850886
31
0
210
0
220
0
230
1
40
0.981627
41
-0.387726685915833
42
2.44721520326912
0
ELLIPSE
5
119
100
AcDbEntity
8
1
62
256
6
ByLayer
370
18
48
1
60
0
100
AcDbEllipse
10
13.436704
20
8.552615
30
0
11
0.300520382004283
21
-0.300520382004282
31
0
210
0
220
0
230
1
40
0.981627
41
-2.48212178830903
42
-1.76388533786328
0
ELLIPSE
5
11A
100
AcDbEntity
8
1
62
256
6
ByLayer
370
18
48
1
60
0
100
AcDbEllipse
10
12.312821
20
7.468003
30
0
11
0.830850467894195
21
-0.830850467894192
31
0
210
0
220
0
230
1
40
0.981627
41
1.49009918257625
42
1.61658688597365
0
ELLIPSE
5
11B
100
AcDbEntity
8
1
62
256
6
ByLayer
370
18
48
1
60
0
100
AcDbEllipse
10
13.133128
20
8.24904
30
0
11
0.300520382004283
21
-0.300520382004282
31
0
210
0
220
0
230
1
40
0.981627
41
-2.48212178830902
42
-0.694377450320646
0
ELLIPSE
5
11C
100
AcDbEntity
8
1
62
256
6
ByLayer
370
18
48
1
60
0
100
AcDbEllipse
10
11.188938
20
6.383391
30
0
11
0.300520382004283
21
-0.300520382004282
31
0
210
0
220
0
230
1
40
0.981627
41
0.659470865280747
42
1.3777073157265
0
ELLIPSE
5
11D
100
AcDbEntity
8
1
62
256
6
ByLayer
370
13
48
1
60
0
100
AcDbEllipse
10
29.942568
20
17.666065
30
0
11
-3.53553390593276
21
3.53553390593271
31
0
210
0
220
0
230
1
40
0.981627
41
-2.79252680319091
42
-2.44346095279204
0
ELLIPSE
5
11E
100
AcDbEntity
8
1
62
256
6
ByLayer
370
13
48
1
60
0
100
AcDbEllipse
10
34.207315
20
18.744264
30
0
11
-0.565685424949222
21
0.565685424949215
31
0
210
0
220
0
230
1
40
0.981627
41
-2.44346095279205
42
-0.698131700797729
0
ELLIPSE
5
11F
100
AcDbEntity
8
1
62
256
6
ByLayer
370
13
48
1
60
0
100
AcDbEllipse
10
17.289539
20
5.013036
30
0
11
-3.53553390593276
21
3.53553390593271
31
0
210
0
220
0
230
1
40
0.981627
41
2.44346095279208
42
2.79252680319094
0
ELLIPSE
5
120
100
AcDbEntity
8
1
62
256
6
ByLayer
370
13
48
1
60
0
100
AcDbEllipse
10
28.219277
20
6.736327
30
0
11
-1.4142135623731
21
1.41421356237309
31
0
210
0
220
0
230
1
40
0.981627
41
2.79252680319094
42
-2.79252680319091
0
ELLIPSE
5
121
100
AcDbEntity
8
1
62
256
6
ByLayer
370
13
48
1
60
0
100
AcDbEllipse
10
33.129116
20
14.479517
30
0
11
-3.53553390593276
21
3.53553390593271
31
0
210
0
220
0
230
1
40
0.981627
41
-0.698131700797712
42
-0.349065850398845
0
ELLIPSE
5
122
100
AcDbEntity
8
1
62
256
6
ByLayer
370
18
48
1
60
0
100
AcDbEllipse
10
10.500392
20
6.670429
30
0
11
-1.75636812407506
21
1.91707355433563
31
0
210
0
220
0
230
1
40
0.978623
41
0.858577090666863
42
1.31268446217363
0
ELLIPSE
5
123
100
AcDbEntity
8
1
62
256
6
ByLayer
370
18
48
1
60
0
100
AcDbEllipse
10
12.009246
20
7.164428
30
0
11
0.813172798364531
21
-0.813172798364528
31
0
210
0
220
0
230
1
40
0.981627
41
0
42
0.794669300011859
0
ELLIPSE
5
124
100
AcDbEntity
8
1
62
256
6
ByLayer
370
18
48
1
60
0
100
AcDbEllipse
10
12.009246
20
7.164428
30
0
11
0.813172798364531
21
-0.813172798364528
31
0
210
0
220
0
230
1
40
0.981627
41
-1.10692182376052
42
-0.615753744982824
0
ELLIPSE
5
125
100
AcDbEntity
8
1
62
256
6
ByLayer
370
18
48
1
60
0
100
AcDbEllipse
10
12.009246
20
7.164428
30
0
11
0.813172798364531
21
-0.813172798364528
31
0
210
0
220
0
230
1
40
0.981627
41
-2.56903917456313
42
-2.07433646695625
0
ELLIPSE
5
126
100
AcDbEntity
8
1
62
256
6
ByLayer
370
18
48
1
60
0
100
AcDbEllipse
10
12.009246
20
7.164428
30
0
11
0.813172798364531
21
-0.813172798364528
31
0
210
0
220
0
230
1
40
0.981627
41
0.794669361210023
42
-3.14149650899216
0
ELLIPSE
5
127
100
AcDbEntity
8
1
62
256
6
ByLayer
370
18
48
1
60
0
100
AcDbEllipse
10
12.34091
20
8.356551
30
0
11
-0.26870057685089
21
0.268700576850886
31
0
210
0
220
0
230
1
40
0.981627
41
-2.48212178830901
42
-0.512015650947744
0
ELLIPSE
5
128
100
AcDbEntity
8
1
62
256
6
ByLayer
370
18
48
1
60
0
100
AcDbEllipse
10
13.212991
20
7.454064
30
0
11
-0.26870057685089
21
0.268700576850886
31
0
210
0
220
0
230
1
40
0.981627
41
-2.59715466702405
42
-0.694377450320639
0
ELLIPSE
5
129
100
AcDbEntity
8
1
62
256
6
ByLayer
370
18
48
1
60
0
100
AcDbEllipse
10
11.867577
20
7.02276
30
0
11
2.82842712474619
21
-2.82842712474619
31
0
210
0
220
0
230
1
40
0.981627
41
-0.498336649378521
42
-2.26200588334501E-16
0
ELLIPSE
5
12A
100
AcDbEntity
8
1
62
256
6
ByLayer
370
18
48
1
60
0
100
AcDbEllipse
10
11.867577
20
7.02276
30
0
11
2.82842712474619
21
-2.82842712474619
31
0
210
0
220
0
230
1
40
0.981627
41
-3.14149603285282
42
-0.578250981080315
0
ELLIPSE
5
12B
100
AcDbEntity
8
1
62
256
6
ByLayer
370
18
48
1
60
0
100
AcDbEllipse
10
11.613674
20
8.697631
30
0
11
0.300520382004283
21
-0.300520382004282
31
0
210
0
220
0
230
1
40
0.981627
41
-1.43492423711243
42
-8.9205486975673E-06
0
ELLIPSE
5
12C
100
AcDbEntity
8
1
62
256
6
ByLayer
370
18
48
1
60
0
100
AcDbEllipse
10
13.5287
20
6.715836
30
0
11
0.300520382004283
21
-0.300520382004282
31
0
210
0
220
0
230
1
40
0.981627
41
-3.14157407780582
42
-1.74157500151722
0
ELLIPSE
5
12D
100
AcDbEntity
8
1
62
256
6
ByLayer
370
18
48
1
60
0
100
AcDbEllipse
10
11.137165
20
8.066915
30
0
11
-0.26870057685089
21
0.268700576850886
31
0
210
0
220
0
230
1
40
0.981627
41
-1.4349242371124
42
-0.613144320999922
0
ELLIPSE
5
12E
100
AcDbEntity
8
1
62
256
6
ByLayer
370
18
48
1
60
0
100
AcDbEllipse
10
12.881326
20
6.261941
30
0
11
-0.26870057685089
21
0.268700576850886
31
0
210
0
220
0
230
1
40
0.981627
41
-2.52844792091236
42
-1.74157500151723
0
ELLIPSE
5
12F
100
AcDbEntity
8
1
62
256
6
ByLayer
370
18
48
1
60
0
100
AcDbEllipse
10
10.489791
20
7.61302
30
0
11
0.300520382004283
21
-0.300520382004282
31
0
210
0
220
0
230
1
40
0.981627
41
-0.150710862754236
42
1.85757839330755E-05
0
ELLIPSE
5
130
100
AcDbEntity
8
1
62
256
6
ByLayer
370
18
48
1
60
0
100
AcDbEllipse
10
12.404817
20
5.631225
30
0
11
0.300520382004283
21
-0.300520382004282
31
0
210
0
220
0
230
1
40
0.981627
41
3.14158554702961
42
-3.0780789931225
0
ELLIPSE
5
131
100
AcDbEntity
8
1
62
256
6
ByLayer
370
18
48
1
60
0
100
AcDbEllipse
10
11.894562
20
7.049744
30
0
11
0.813172798364531
21
-0.813172798364528
31
0
210
0
220
0
230
1
40
0.981627
41
0.126349020353064
42
0.794669361210021
0
ELLIPSE
5
132
100
AcDbEntity
8
1
62
256
6
ByLayer
370
18
48
1
60
0
100
AcDbEllipse
10
11.894562
20
7.049744
30
0
11
0.813172798364531
21
-0.813172798364528
31
0
210
0
220
0
230
1
40
0.981627
41
2.99177603882456
42
-1.01120236327686
0
ELLIPSE
5
133
100
AcDbEntity
8
1
62
256
6
ByLayer
370
18
48
1
60
0
100
AcDbEllipse
10
11.894562
20
7.049744
30
0
11
0.813172798364531
21
-0.813172798364528
31
0
210
0
220
0
230
1
40
0.981627
41
0.794669361210023
42
2.99177603882455
0
ELLIPSE
5
134
100
AcDbEntity
8
1
62
256
6
ByLayer
370
18
48
1
60
0
100
AcDbEllipse
10
12.538076
20
7.156912
30
0
11
-2.80343373650443
21
3.05994432711264
31
0
210
0
220
0
230
1
40
0.978623
41
3.00389222743815
42
-0.829243458132975
0
ELLIPSE
5
135
100
AcDbEntity
8
1
62
256
6
ByLayer
370
18
48
1
60
0
100
AcDbEllipse
10
10.576925
20
6.6887
30
0
11
2.80343373650443
21
-3.05994432711264
31
0
210
0
220
0
230
1
40
0.978623
41
2.64339442870472
42
2.93672510487938
0
ELLIPSE
5
136
100
AcDbEntity
8
1
62
256
6
ByLayer
370
18
48
1
60
0
100
AcDbEllipse
10
4.931861
20
11.06955
30
0
11
2.026578604702
21
-2.21200794731034
31
0
210
0
220
0
230
1
40
0.978623
41
-0.498198224885072
42
-0.164808276190165
0
ELLIPSE
5
137
100
AcDbEntity
8
1
62
256
6
ByLayer
370
13
48
1
60
0
100
AcDbEllipse
10
27.409743
20
5.926793
30
0
11
1.4142135623731
21
-1.41421356237309
31
0
210
0
220
0
230
1
40
0.981627
41
-0.117089934293507
42
-5.89080570400112E-08
0
ELLIPSE
5
138
100
AcDbEntity
8
1
62
256
6
ByLayer
370
13
48
1
60
0
100
AcDbEllipse
10
24.399794
20
8.936742
30
0
11
-1.8229212819009
21
1.82292128190088
31
0
210
0
220
0
230
1
40
0.981627
41
-2.9133914230789
42
-2.66942696003956
0
ELLIPSE
5
139
100
AcDbEntity
8
1
62
256
6
ByLayer
370
13
48
1
60
0
100
AcDbEllipse
10
16.480005
20
4.203502
30
0
11
3.53553390593274
21
-3.53553390593273
31
0
210
0
220
0
230
1
40
0.981627
41
-0.698131700797724
42
-0.471031611330046
0
ELLIPSE
5
13A
100
AcDbEntity
8
1
62
256
6
ByLayer
370
13
48
1
60
0
100
AcDbEllipse
10
15.401806
20
-0.061245
30
0
11
0.56568542494922
21
-0.565685424949218
31
0
210
0
220
0
230
1
40
0.981627
41
-0.935959696473999
42
-0.698131700797729
0
ELLIPSE
5
13B
100
AcDbEntity
8
1
62
256
6
ByLayer
370
13
48
1
60
0
100
AcDbEllipse
10
15.401806
20
-0.061245
30
0
11
0.56568542494922
21
-0.565685424949218
31
0
210
0
220
0
230
1
40
0.981627
41
-2.32529721354219
42
-2.20563323873373
0
ELLIPSE
5
13C
100
AcDbEntity
8
1
62
256
6
ByLayer
370
13
48
1
60
0
100
AcDbEllipse
10
25.209328
20
9.746276
30
0
11
-1.82292128190092
21
1.82292128190089
31
0
210
0
220
0
230
1
40
0.981627
41
2.84180971477423
42
-0.806561094756807
0
ELLIPSE
5
13D
100
AcDbEntity
8
1
62
256
6
ByLayer
370
13
48
1
60
0
100
AcDbEllipse
10
16.21134
20
0.748289
30
0
11
-0.565685424949222
21
0.565685424949215
31
0
210
0
220
0
230
1
40
0.981627
41
1.51200057937566
42
2.44346095279207
0
ELLIPSE
5
13E
100
AcDbEntity
8
1
62
256
6
ByLayer
370
13
48
1
60
0
100
AcDbEllipse
10
22.199378
20
12.756226
30
0
11
-1.4142135623731
21
1.41421356237309
31
0
210
0
220
0
230
1
40
0.981627
41
-0.349065850398849
42
0.239557416901801
0
ELLIPSE
5
13F
100
AcDbEntity
8
1
62
256
6
ByLayer
370
18
48
1
60
0
100
AcDbEllipse
10
16.312945
20
0.63776
30
0
11
0.448094441974968
21
2.36477621397876
31
0
210
0
220
0
230
1
40
0.80649
41
-2.02208895999692
42
-1.98760314028538
0
ELLIPSE
5
140
100
AcDbEntity
8
1
62
256
6
ByLayer
370
18
48
1
60
0
100
AcDbEllipse
10
15.876192
20
0.201008
30
0
11
0.401576112381185
21
2.317524567795
31
0
210
0
220
0
230
1
40
0.83453
41
-1.97368269021964
42
-1.92984895372931
0
ELLIPSE
5
141
100
AcDbEntity
8
1
62
256
6
ByLayer
370
18
48
1
60
0
100
AcDbEllipse
10
-0.603314
20
5.079563
30
0
11
0.0398243665833847
21
16.7378764276382
31
0
210
0
220
0
230
1
40
0.095562
41
-1.28410413906423
42
-1.20765661610009
0
ELLIPSE
5
142
100
AcDbEntity
8
1
62
256
6
ByLayer
370
18
48
1
60
0
100
AcDbEllipse
10
19.805633
20
22.307024
30
0
11
-5.79827560572972
21
5.79827560572964
31
0
210
0
220
0
230
1
40
0.981627
41
2.36546580534035
42
2.3724327787983
0
ELLIPSE
5
143
100
AcDbEntity
8
1
62
256
6
ByLayer
370
18
48
1
60
0
100
AcDbEllipse
10
5.417678
20
25.429305
30
0
11
11.1446615050572
21
6.24500541666166
31
0
210
0
220
0
230
1
40
0.849044
41
-2.23922050729436
42
-2.02803340148093
0
ELLIPSE
5
144
100
AcDbEntity
8
1
62
256
6
ByLayer
370
18
48
1
60
0
100
AcDbEllipse
10
37.616795
20
4.008653
30
0
11
5.79827560572969
21
-5.79827560572967
31
0
210
0
220
0
230
1
40
0.981627
41
-2.40116071826605
42
-2.37633252323966
0
ELLIPSE
5
145
100
AcDbEntity
8
1
62
256
6
ByLayer
370
18
48
1
60
0
100
AcDbEllipse
10
5.069794
20
25.081421
30
0
11
-7.77817459305208
21
7.77817459305198
31
0
210
0
220
0
230
1
40
0.981627
41
2.36393915007917
42
2.36546580534035
0
ELLIPSE
5
146
100
AcDbEntity
8
1
62
256
6
ByLayer
370
18
48
1
60
0
100
AcDbEllipse
10
16.50013
20
0.824947
30
0
11
1.48492424049175
21
-1.48492424049174
31
0
210
0
220
0
230
1
40
0.981627
41
-1.57079632679487
42
2.01964811012948E-14
0
ELLIPSE
5
147
100
AcDbEntity
8
1
62
256
6
ByLayer
370
18
48
1
60
0
100
AcDbEllipse
10
3.905675
20
144.599827
30
0
11
793.961376910731
21
659.565767870084
31
0
210
0
220
0
230
1
40
0.125929
41
-1.65802421014291
42
-1.64934493016624
0
ELLIPSE
5
148
100
AcDbEntity
8
1
62
256
6
ByLayer
370
18
48
1
60
0
100
AcDbEllipse
10
16.067396
20
-0.94786
30
0
11
0.417170826495138
21
-0.908828092392264
31
0
210
0
220
0
230
1
40
0.179302
41
-1.78816413669554
42
-1.39587178497186
0
ELLIPSE
5
149
100
AcDbEntity
8
1
62
256
6
ByLayer
370
18
48
1
60
0
100
AcDbEllipse
10
20.963754
20
14.329932
30
0
11
0.903791065043402
21
0.427973960361772
31
0
210
0
220
0
230
1
40
0.065261
41
-2.8063947779537
42
-2.45904683744021
0
ELLIPSE
5
14A
100
AcDbEntity
8
1
62
256
6
ByLayer
370
18
48
1
60
0
100
AcDbEllipse
10
28.759909
20
5.5065
30
0
11
-0.421188894796447
21
0.906972940555674
31
0
210
0
220
0
230
1
40
0.179585
41
2.37902470334951
42
3.08093408286354
0
ELLIPSE
5
14B
100
AcDbEntity
8
1
62
256
6
ByLayer
370
18
48
1
60
0
100
AcDbEllipse
10
152.642186
20
268.718354
30
0
11
131.005065052529
21
278.346444122994
31
0
210
0
220
0
230
1
40
0.027599
41
-3.08234174414535
42
-2.98608927750224
0
ELLIPSE
5
14C
100
AcDbEntity
8
1
62
256
6
ByLayer
370
18
48
1
60
0
100
AcDbEllipse
10
16.287998
20
1.037079
30
0
11
1.48492424049175
21
-1.48492424049175
31
0
210
0
220
0
230
1
40
0.981627
41
-1.77435471627499
42
-1.5707963267949
0
POINT
5
70
100
AcDbEntity
8
81
62
256
6
ByLayer
370
18
48
1
60
0
100
AcDbPoint
10
35
20
19.5375
30
0
39
0
210
0
220
0
230
1
50
360
0
POINT
5
72
100
AcDbEntity
8
80
62
256
6
ByLayer
370
18
48
1
60
0
100
AcDbPoint
10
0
20
0
30
0
39
0
210
0
220
0
230
1
50
360
0
POINT
5
74
100
AcDbEntity
8
1
62
256
6
ByLayer
370
18
48
1
60
1
100
AcDbPoint
10
-84
20
12.4625
30
0
39
0
210
0
220
0
230
1
50
360
0
POINT
5
76
100
AcDbEntity
8
1
62
256
6
ByLayer
370
18
48
1
60
1
100
AcDbPoint
10
0
20
-12.4625
30
0
39
0
210
0
220
0
230
1
50
360
0
POINT
5
77
100
AcDbEntity
8
1
62
256
6
ByLayer
370
18
48
1
60
1
100
AcDbPoint
10
-84
20
12.4625
30
0
39
0
210
0
220
0
230
1
50
360
0
POINT
5
78
100
AcDbEntity
8
1
62
256
6
ByLayer
370
18
48
1
60
1
100
AcDbPoint
10
-84
20
-12.4625
30
0
39
0
210
0
220
0
230
1
50
360
0
POINT
5
79
100
AcDbEntity
8
1
62
256
6
ByLayer
370
18
48
1
60
1
100
AcDbPoint
10
0
20
-12.4625
30
0
39
0
210
0
220
0
230
1
50
360
0
POINT
5
7A
100
AcDbEntity
8
1
62
256
6
ByLayer
370
18
48
1
60
1
100
AcDbPoint
10
35
20
19.5375
30
0
39
0
210
0
220
0
230
1
50
360
0
SPLINE
5
14D
100
AcDbEntity
8
1
62
256
6
ByLayer
370
18
48
1
60
0
100
AcDbSpline
70
4
71
3
72
28
73
24
40
0
40
0
40
0
40
0
40
0.125000000000003
40
0.125000000000003
40
0.250000000000006
40
0.250000000000006
40
0.375000000000009
40
0.375000000000009
40
0.500000000000012
40
0.500000000000012
40
0.562500000000011
40
0.562500000000011
40
0.625000000000011
40
0.625000000000011
40
0.750000000000007
40
0.750000000000007
40
0.812500000000006
40
0.812500000000006
40
0.875000000000004
40
0.875000000000004
40
0.937500000000002
40
0.937500000000002
40
1
40
1
40
1
40
1
41
1
10
7.33496508482975
20
-1.58307651465375
30
0
41
1
10
7.22952830962692
20
-1.54494836657955
30
0
41
1
10
7.1334060110984
20
-1.49765292221477
30
0
41
1
10
6.95178313961856
20
-1.38835663220223
30
0
41
1
10
6.86628653280476
20
-1.32632564776136
30
0
41
1
10
6.69908575036183
20
-1.18740197942034
30
0
41
1
10
6.61736988860105
20
-1.1105134554177
30
0
41
1
10
6.45217744829969
20
-0.938431039206023
30
0
41
1
10
6.3694457577769
20
-0.843968356449068
30
0
41
1
10
6.24428140535795
20
-0.687685600889665
30
0
41
1
10
6.20234966137218
20
-0.633086257733964
30
0
41
1
10
6.1180034715631
20
-0.518136779143248
30
0
41
1
10
6.07540485401739
20
-0.457509047261738
30
0
41
1
10
5.9483695217003
20
-0.267613372705199
30
0
41
1
10
5.86549195157653
20
-0.131723536016267
30
0
41
1
10
5.74587782511256
20
0.0889381227029276
30
0
41
1
10
5.7065542084527
20
0.165833603992581
30
0
41
1
10
5.63112748219851
20
0.323381104847982
30
0
41
1
10
5.59516196096632
20
0.403681200975427
30
0
41
1
10
5.52683437493445
20
0.567482646028537
30
0
41
1
10
5.49447716743919
20
0.650982019512867
30
0
41
1
10
5.43332975614862
20
0.821441072324092
30
0
41
1
10
5.40498500175784
20
0.907231229658663
30
0
41
1
10
5.37873492475876
20
0.992750529629603
30
0
0
SPLINE
5
14E
100
AcDbEntity
8
1
62
256
6
ByLayer
370
18
48
1
60
0
100
AcDbSpline
70
4
71
3
72
11
73
7
40
0
40
0
40
0
40
0
40
0.423407924939097
40
0.74096386864342
40
0.899741840495581
40
1
40
1
40
1
40
1
41
1.02805999725224
10
14.9954112204225
20
1.46492950999998
30
0
41
1.02767136955276
10
15.7982049329211
20
1.77797044171443
30
0
41
1.02349884684922
10
18.4215459225995
20
3.74816940130043
30
0
41
1.01876555595691
10
21.5685401517056
20
6.48803695975291
30
0
41
1.01635405201137
10
22.7560161333136
20
7.48932883029972
30
0
41
1.01722454828226
10
23.2150298982979
20
7.62671566580374
30
0
41
1.01774327987905
10
23.4077602521621
20
7.67407221895622
30
0
0
SPLINE
5
14F
100
AcDbEntity
8
1
62
256
6
ByLayer
370
18
48
1
60
0
100
AcDbSpline
70
4
71
3
72
26
73
22
40
0
40
0
40
0
40
0
40
0.250000000000005
40
0.250000000000005
40
0.375000000000005
40
0.375000000000005
40
0.500000000000005
40
0.500000000000005
40
0.625000000000005
40
0.625000000000005
40
0.687500000000004
40
0.687500000000004
40
0.750000000000003
40
0.750000000000003
40
0.812500000000002
40
0.812500000000002
40
0.875000000000002
40
0.875000000000002
40
0.937500000000001
40
0.937500000000001
40
1
40
1
40
1
40
1
41
1
10
24.1157550043074
20
9.30910722549208
30
0
41
1
10
24.006226858835
20
9.20569726709991
30
0
41
1
10
23.8984274117088
20
9.09557147759421
30
0
41
1
10
23.7412997826042
20
8.91262278258591
30
0
41
1
10
23.6894463675337
20
8.84827531367546
30
0
41
1
10
23.5896514436365
20
8.71233053585453
30
0
41
1
10
23.5416924451761
20
8.64086506123692
30
0
41
1
10
23.4521595067143
20
8.48642832064718
30
0
41
1
10
23.4118002468756
20
8.40569360466574
30
0
41
1
10
23.3623078939525
20
8.27636592769176
30
0
41
1
10
23.3480293947608
20
8.23263297772303
30
0
41
1
10
23.3253180871445
20
8.14528798110146
30
0
41
1
10
23.3167766049254
20
8.10085862897733
30
0
41
1
10
23.3071641304216
20
8.01626008881237
30
0
41
1
10
23.3059173233375
20
7.97573535403114
30
0
41
1
10
23.3107286372565
20
7.89832771817595
30
0
41
1
10
23.3167035196402
20
7.86293375832196
30
0
41
1
10
23.3345398919232
20
7.79828532717599
30
0
41
1
10
23.3464705815087
20
7.76899908272068
30
0
41
1
10
23.3742490484583
20
7.71724930322873
30
0
41
1
10
23.3901865701389
20
7.69443740961719
30
0
41
1
10
23.4077602521589
20
7.67407221895542
30
0
0
SPLINE
5
150
100
AcDbEntity
8
1
62
256
6
ByLayer
370
18
48
1
60
0
100
AcDbSpline
70
4
71
3
72
8
73
4
40
0
40
0
40
0
40
0
40
1
40
1
40
1
40
1
41
1.02417048289515
10
23.6172102078322
20
13.1193899602899
30
0
41
1.02233815481013
10
22.9425022877666
20
13.3886736033428
30
0
41
1.02059845255999
10
22.2635633880628
20
13.611979339286
30
0
41
1.01923193651471
10
21.7137188819207
20
13.7742004456906
30
0
0
SPLINE
5
151
100
AcDbEntity
8
1
62
256
6
ByLayer
370
18
48
1
60
0
100
AcDbSpline
70
4
71
3
72
20
73
16
40
0
40
0
40
0
40
0
40
0.249999999999997
40
0.249999999999997
40
0.374999999999996
40
0.374999999999996
40
0.499999999999996
40
0.499999999999996
40
0.749999999999994
40
0.749999999999994
40
0.812499999999995
40
0.812499999999995
40
0.874999999999997
40
0.874999999999997
40
1
40
1
40
1
40
1
41
1
10
9.26952917167034
20
3.41925660289556
30
0
41
1
10
9.13291072578755
20
3.04665329702323
30
0
41
1
10
8.99595236285256
20
2.68378798334999
30
0
41
1
10
8.78932211529894
20
2.15492879774098
30
0
41
1
10
8.7202369324385
20
1.98121415731902
30
0
41
1
10
8.58154169405859
20
1.63945698813217
30
0
41
1
10
8.51305320377256
20
1.47418072524337
30
0
41
1
10
8.30996970246866
20
0.995287054906385
30
0
41
1
10
8.1777448099258
20
0.698371122855917
30
0
41
1
10
8.01601973326561
20
0.358633568859943
30
0
41
1
10
7.98385349834226
20
0.292275120951388
30
0
41
1
10
7.91987189624209
20
0.162909802798282
30
0
41
1
10
7.88803282667203
20
0.0998658898892586
30
0
41
1
10
7.79408235838622
20
-0.08193009181565
30
0
41
1
10
7.73318596387446
20
-0.194090267075978
30
0
41
1
10
7.67399170042432
20
-0.296696553055682
30
0
0
SPLINE
5
152
100
AcDbEntity
8
1
62
256
6
ByLayer
370
18
48
1
60
0
100
AcDbSpline
70
4
71
2
72
6
73
3
40
0
40
0
40
0
40
1
40
1
40
1
41
0.937301687733887
10
14.8272005836415
20
3.7387522695628
30
0
41
0.930554445970897
10
15.0598692254821
20
2.2485683176565
30
0
41
1.02805999725224
10
14.9954112204225
20
1.46492950999998
30
0
0
SPLINE
5
153
100
AcDbEntity
8
1
62
256
6
ByLayer
370
18
48
1
60
0
100
AcDbSpline
70
4
71
3
72
8
73
4
40
0
40
0
40
0
40
0
40
1
40
1
40
1
40
1
41
1
10
9.26952917166926
20
3.41925660289311
30
0
41
1
10
9.33696925337671
20
3.39012054965747
30
0
41
1
10
9.40292418456926
20
3.35809052424162
30
0
41
1
10
9.46731248636593
20
3.32314599656527
30
0
0
SPLINE
5
154
100
AcDbEntity
8
1
62
256
6
ByLayer
370
18
48
1
60
0
100
AcDbSpline
70
4
71
3
72
26
73
22
40
0
40
0
40
0
40
0
40
0.125
40
0.125
40
0.25
40
0.25
40
0.374999999999999
40
0.374999999999999
40
0.499999999999999
40
0.499999999999999
40
0.624999999999999
40
0.624999999999999
40
0.6875
40
0.6875
40
0.750000000000001
40
0.750000000000001
40
0.875000000000001
40
0.875000000000001
40
0.9375
40
0.9375
40
1
40
1
40
1
40
1
41
1
10
12.8069571188357
20
11.5690571814866
30
0
41
1
10
12.9973159594799
20
11.5781250892053
30
0
41
1
10
13.1861779824591
20
11.5742864487994
30
0
41
1
10
13.561155510189
20
11.5436834604955
30
0
41
1
10
13.7472690712064
20
11.5168622036909
30
0
41
1
10
14.1167830123436
20
11.4405751081349
30
0
41
1
10
14.3013745595414
20
11.3906154818395
30
0
41
1
10
14.6587003376907
20
11.2699475998863
30
0
41
1
10
14.832136150842
20
11.1992596296277
30
0
41
1
10
15.1687061081485
20
11.0367083929986
30
0
41
1
10
15.3318441577673
20
10.9448544517449
30
0
41
1
10
15.5683555043108
20
10.7894862337915
30
0
41
1
10
15.6457789200288
20
10.7347375879477
30
0
41
1
10
15.7954900922928
20
10.6207162444293
30
0
41
1
10
15.868074216992
20
10.561257609734
30
0
41
1
10
16.0788992358291
20
10.3753056096308
30
0
41
1
10
16.2102582119422
20
10.2412871133808
30
0
41
1
10
16.3923062336144
20
10.0234297103554
30
0
41
1
10
16.4506488184917
20
9.94773262055998
30
0
41
1
10
16.5607409627325
20
9.79205225837677
30
0
41
1
10
16.6125826941976
20
9.71200028254989
30
0
41
1
10
16.6611345566974
20
9.62966876422385
30
0
0
SPLINE
5
155
100
AcDbEntity
8
1
62
256
6
ByLayer
370
18
48
1
60
0
100
AcDbSpline
70
4
71
3
72
22
73
18
40
0
40
0
40
0
40
0
40
0.125000000000001
40
0.125000000000001
40
0.250000000000001
40
0.250000000000001
40
0.500000000000001
40
0.500000000000001
40
0.625000000000001
40
0.625000000000001
40
0.750000000000001
40
0.750000000000001
40
0.875000000000001
40
0.875000000000001
40
0.937500000000001
40
0.937500000000001
40
1
40
1
40
1
40
1
41
1
10
21.8680331259263
20
3.47023801260983
30
0
41
1
10
21.6057857560426
20
3.2754161860054
30
0
41
1
10
21.3387656932687
20
3.0870205364636
30
0
41
1
10
20.7971148331048
20
2.72047668663632
30
0
41
1
10
20.5221877435871
20
2.54226742771451
30
0
41
1
10
19.6880423808
20
2.02467247880088
30
0
41
1
10
19.1194719388822
20
1.70186257383679
30
0
41
1
10
18.2413372571166
20
1.26274672381814
30
0
41
1
10
17.9444132396037
20
1.12327486581066
30
0
41
1
10
17.3450022319075
20
0.857308042875445
30
0
41
1
10
17.0427757728583
20
0.730884264986514
30
0
41
1
10
16.4334207899527
20
0.490792092128743
30
0
41
1
10
16.1263445557125
20
0.376987637335361
30
0
41
1
10
15.661183265704
20
0.21811228456491
30
0
41
1
10
15.5053653922268
20
0.167142081007825
30
0
41
1
10
15.1915726028807
20
0.0708143907307033
30
0
41
1
10
15.0336849387526
20
0.0252298712381389
30
0
41
1
10
14.8736904789
20
-0.0148726754005111
30
0
0
SPLINE
5
156
100
AcDbEntity
8
1
62
256
6
ByLayer
370
18
48
1
60
0
100
AcDbSpline
70
4
71
3
72
10
73
6
40
0
40
0
40
0
40
0
40
0.5
40
0.5
40
1
40
1
40
1
40
1
41
1
10
6.80390545538037
20
8.73329726990454
30
0
41
1
10
6.6905696149052
20
8.67568025828706
30
0
41
1
10
6.57538571234372
20
8.62415200247011
30
0
41
1
10
6.34209453393061
20
8.53195349045095
30
0
41
1
10
6.22441890749761
20
8.49149349771696
30
0
41
1
10
6.1073214611005
20
8.45630599726283
30
0
0
SPLINE
5
157
100
AcDbEntity
8
1
62
256
6
ByLayer
370
18
48
1
60
0
100
AcDbSpline
70
4
71
3
72
14
73
10
40
0
40
0
40
0
40
0
40
0.25
40
0.25
40
0.5
40
0.5
40
0.75
40
0.75
40
1
40
1
40
1
40
1
41
1
10
7.72061697384567
20
9.42271856375461
30
0
41
1
10
7.66098435688482
20
9.35392226193684
30
0
41
1
10
7.59594014224109
20
9.28744013010024
30
0
41
1
10
7.45566039187537
20
9.15912711694509
30
0
41
1
10
7.37962756237985
20
9.09675671028751
30
0
41
1
10
7.22265056470272
20
8.98034483850921
30
0
41
1
10
7.14159227359005
20
8.92604409961726
30
0
41
1
10
6.97500499806011
20
8.82423660871709
30
0
41
1
10
6.88966242863771
20
8.77689389832972
30
0
41
1
10
6.80390545538037
20
8.73329726990454
30
0
0
SPLINE
5
158
100
AcDbEntity
8
1
62
256
6
ByLayer
370
18
48
1
60
0
100
AcDbSpline
70
4
71
3
72
8
73
4
40
0
40
0
40
0
40
0
40
1
40
1
40
1
40
1
41
1
10
12.8069571188357
20
11.5690571814866
30
0
41
1
10
12.5187506450213
20
11.554679861689
30
0
41
1
10
12.2358828220409
20
11.51492157826
30
0
41
1
10
11.9589238436762
20
11.4482817479168
30
0
0
SPLINE
5
159
100
AcDbEntity
8
1
62
256
6
ByLayer
370
18
48
1
60
0
100
AcDbSpline
70
4
71
3
72
8
73
4
40
0
40
0
40
0
40
0
40
1
40
1
40
1
40
1
41
1
10
26.8462641466374
20
8.14473170405498
30
0
41
1
10
26.9006993073872
20
8.1997553866664
30
0
41
1
10
26.9533022877072
20
8.25936212399589
30
0
41
1
10
27.0040761610259
20
8.32354422810479
30
0
0
SPLINE
5
15A
100
AcDbEntity
8
1
62
256
6
ByLayer
370
18
48
1
60
0
100
AcDbSpline
70
4
71
3
72
26
73
22
40
0
40
0
40
0
40
0
40
0.0624999999999998
40
0.0624999999999998
40
0.125
40
0.125
40
0.187499999999999
40
0.187499999999999
40
0.249999999999999
40
0.249999999999999
40
0.312499999999999
40
0.312499999999999
40
0.374999999999999
40
0.374999999999999
40
0.5
40
0.5
40
0.625000000000001
40
0.625000000000001
40
0.750000000000001
40
0.750000000000001
40
1
40
1
40
1
40
1
41
1
10
22.396107733464
20
11.5951578829365
30
0
41
1
10
22.3886271357889
20
11.5764004826478
30
0
41
1
10
22.3838104723259
20
11.5561424395701
30
0
41
1
10
22.3808150561904
20
11.5118870970488
30
0
41
1
10
22.382692865632
20
11.4876215849275
30
0
41
1
10
22.394964696275
20
11.4354870162777
30
0
41
1
10
22.4052304034214
20
11.4078807866995
30
0
41
1
10
22.4354590713441
20
11.3490546968624
30
0
41
1
10
22.4552338358014
20
11.3184028578522
30
0
41
1
10
22.5026031026924
20
11.2567837459047
30
0
41
1
10
22.5307615926036
20
11.2251454908505
30
0
41
1
10
22.5920287955836
20
11.1638509133189
30
0
41
1
10
22.6255094330478
20
11.1337252690487
30
0
41
1
10
22.7309238091029
20
11.0464966001359
30
0
41
1
10
22.8058153930746
20
10.9938304753838
30
0
41
1
10
22.9606434271163
20
10.8956284227895
30
0
41
1
10
23.0381649073676
20
10.851667688769
30
0
41
1
10
23.1933358611683
20
10.7698685284147
30
0
41
1
10
23.2711551356374
20
10.7320175947713
30
0
41
1
10
23.503610646721
20
10.6254190163977
30
0
41
1
10
23.6557930724313
20
10.5640411549802
30
0
41
1
10
23.8064120849656
20
10.5080960718168
30
0
0
SPLINE
5
15B
100
AcDbEntity
8
1
62
256
6
ByLayer
370
18
48
1
60
0
100
AcDbSpline
70
4
71
3
72
16
73
12
40
0
40
0
40
0
40
0
40
0.249999999999999
40
0.249999999999999
40
0.499999999999999
40
0.499999999999999
40
0.624999999999999
40
0.624999999999999
40
0.75
40
0.75
40
1
40
1
40
1
40
1
41
1
10
21.8680331259267
20
3.47023801261008
30
0
41
1
10
22.0299480577165
20
3.5905235383708
30
0
41
1
10
22.1912602300412
20
3.70444901044371
30
0
41
1
10
22.5134471279566
20
3.91808074660776
30
0
41
1
10
22.6743261323572
20
4.01779996473516
30
0
41
1
10
22.9170009746489
20
4.15304687946397
30
0
41
1
10
22.9982943689269
20
4.19575034427569
30
0
41
1
10
23.1610863749477
20
4.27513966044918
30
0
41
1
10
23.2418024864877
20
4.31160274762075
30
0
41
1
10
23.481014754816
20
4.4132912955273
30
0
41
1
10
23.6364076103034
20
4.47128381499593
30
0
41
1
10
23.7866351528021
20
4.52119795846522
30
0
0
SPLINE
5
15C
100
AcDbEntity
8
1
62
256
6
ByLayer
370
18
48
1
60
0
100
AcDbSpline
70
4
71
3
72
8
73
4
40
0
40
0
40
0
40
0
40
1
40
1
40
1
40
1
41
1
10
5.35986421247699
20
1.05960709439688
30
0
41
1
10
5.36571180556871
20
1.03694228309376
30
0
41
1
10
5.37200892938719
20
1.01466293833619
30
0
41
1
10
5.37873492475873
20
0.992750529629603
30
0
0
SPLINE
5
15D
100
AcDbEntity
8
1
62
256
6
ByLayer
370
18
48
1
60
0
100
AcDbSpline
70
4
71
3
72
16
73
12
40
0
40
0
40
0
40
0
40
0.250000000000001
40
0.250000000000001
40
0.375
40
0.375
40
0.499999999999999
40
0.499999999999999
40
0.749999999999999
40
0.749999999999999
40
1
40
1
40
1
40
1
41
1
10
4.65207770608262
20
11.4160046184601
30
0
41
1
10
4.83807925281258
20
11.3582373499226
30
0
41
1
10
5.04728403476904
20
11.2661938095524
30
0
41
1
10
5.39240357664752
20
11.0841169570248
30
0
41
1
10
5.51271747393045
20
11.0159964013032
30
0
41
1
10
5.76389066439506
20
10.8652101733496
30
0
41
1
10
5.89274204015251
20
10.7837475145668
30
0
41
1
10
6.2876498362121
20
10.5232415234019
30
0
41
1
10
6.56236484004165
20
10.3280096664653
30
0
41
1
10
7.13407762605695
20
9.89766355393664
30
0
41
1
10
7.42503344494367
20
9.66707568131883
30
0
41
1
10
7.72061697384567
20
9.42271856375461
30
0
0
SPLINE
5
15E
100
AcDbEntity
8
1
62
256
6
ByLayer
370
18
48
1
60
0
100
AcDbSpline
70
4
71
3
72
30
73
26
40
0
40
0
40
0
40
0
40
0.062499999999999
40
0.062499999999999
40
0.124999999999998
40
0.124999999999998
40
0.187499999999997
40
0.187499999999997
40
0.249999999999996
40
0.249999999999996
40
0.312499999999995
40
0.312499999999995
40
0.374999999999994
40
0.374999999999994
40
0.499999999999995
40
0.499999999999995
40
0.562499999999996
40
0.562499999999996
40
0.624999999999996
40
0.624999999999996
40
0.749999999999997
40
0.749999999999997
40
0.874999999999999
40
0.874999999999999
40
1
40
1
40
1
40
1
41
1
10
3.25556533800824
20
9.22198900320063
30
0
41
1
10
3.2368118524937
20
9.31093885631566
30
0
41
1
10
3.22037225022751
20
9.3985715549039
30
0
41
1
10
3.19251820205241
20
9.57195026357698
30
0
41
1
10
3.18109372413704
20
9.65768349064783
30
0
41
1
10
3.1633955306753
20
9.82751264815693
30
0
41
1
10
3.15715461422801
20
9.91172207008717
30
0
41
1
10
3.14993025466259
20
10.0739920529544
30
0
41
1
10
3.14886530964392
20
10.1526813977351
30
0
41
1
10
3.15131165309043
20
10.3055069686148
30
0
41
1
10
3.15485899517537
20
10.3800282440098
30
0
41
1
10
3.165913342236
20
10.522566845701
30
0
41
1
10
3.17337371238756
20
10.5904434072733
30
0
41
1
10
3.20055238365197
20
10.7849854542557
30
0
41
1
10
3.22497345515546
20
10.9025686721492
30
0
41
1
10
3.2688297989535
20
11.0641606994345
30
0
41
1
10
3.28462020841553
20
11.1153077886146
30
0
41
1
10
3.31804759142059
20
11.2119802054389
30
0
41
1
10
3.33573428566527
20
11.257689797926
30
0
41
1
10
3.39182335483076
20
11.3883259981796
30
0
41
1
10
3.43315853324816
20
11.4668140745608
30
0
41
1
10
3.52679448438281
20
11.6125805260282
30
0
41
1
10
3.57911641949877
20
11.679893144061
30
0
41
1
10
3.70080312290222
20
11.8072881229498
30
0
41
1
10
3.7696610574678
20
11.8668496350074
30
0
41
1
10
3.8503568710565
20
11.9229910915578
30
0
0
SPLINE
5
15F
100
AcDbEntity
8
1
62
256
6
ByLayer
370
18
48
1
60
0
100
AcDbSpline
70
4
71
3
72
8
73
4
40
0
40
0
40
0
40
0
40
1
40
1
40
1
40
1
41
1
10
3.27151471859509
20
9.15388562427066
30
0
41
1
10
3.26566712550334
20
9.17655043557374
30
0
41
1
10
3.26035901118576
20
9.1992520818591
30
0
41
1
10
3.25556533800824
20
9.22198900320063
30
0
0
SPLINE
5
160
100
AcDbEntity
8
1
62
256
6
ByLayer
370
18
48
1
60
0
100
AcDbSpline
70
4
71
3
72
24
73
20
40
0
40
0
40
0
40
0
40
0.124999999999997
40
0.124999999999997
40
0.187499999999997
40
0.187499999999997
40
0.249999999999997
40
0.249999999999997
40
0.374999999999997
40
0.374999999999997
40
0.499999999999997
40
0.499999999999997
40
0.624999999999997
40
0.624999999999997
40
0.749999999999997
40
0.749999999999997
40
0.874999999999998
40
0.874999999999998
40
1
40
1
40
1
40
1
41
1
10
17.2609897547944
20
7.30467715471804
30
0
41
1
10
17.2548920392334
20
7.11708026762332
30
0
41
1
10
17.2334253387058
20
6.93126231652852
30
0
41
1
10
17.1800282506088
20
6.65527492509261
30
0
41
1
10
17.1586806753964
20
6.56373765911027
30
0
41
1
10
17.1090264579984
20
6.38161596834701
30
0
41
1
10
17.0805963318099
20
6.29070995639498
30
0
41
1
10
16.9860544754536
20
6.02255619308255
30
0
41
1
10
16.9108138071615
20
5.84959085670846
30
0
41
1
10
16.7378232659499
20
5.51448544280998
30
0
41
1
10
16.6396904031113
20
5.35182461535413
30
0
41
1
10
16.4227959986216
20
5.03982611192595
30
0
41
1
10
16.3047411181988
20
4.89134291981571
30
0
41
1
10
16.0496415092358
20
4.60930265726103
30
0
41
1
10
15.9142162946371
20
4.47758761524713
30
0
41
1
10
15.6290065884333
20
4.23327560374707
30
0
41
1
10
15.4790718329614
20
4.12052836961803
30
0
41
1
10
15.1640299674335
20
3.91440951861236
30
0
41
1
10
14.9983529198619
20
3.82091242912864
30
0
41
1
10
14.8272005841222
20
3.73875226648369
30
0
0
SPLINE
5
161
100
AcDbEntity
8
1
62
256
6
ByLayer
370
18
48
1
60
0
100
AcDbSpline
70
4
71
3
72
18
73
14
40
0
40
0
40
0
40
0
40
0.25
40
0.25
40
0.375
40
0.375
40
0.5
40
0.5
40
0.75
40
0.75
40
0.875000000000001
40
0.875000000000001
40
1
40
1
40
1
40
1
41
1
10
5.51650450860944
20
1.11796097370717
30
0
41
1
10
5.68507576973738
20
1.26478457968685
30
0
41
1
10
5.86974645782919
20
1.431305124781
30
0
41
1
10
6.1692516267216
20
1.70708351323373
30
0
41
1
10
6.27303344666308
20
1.80354167651097
30
0
41
1
10
6.48745603333742
20
2.00434897754224
30
0
41
1
10
6.59680524351066
20
2.10748506892065
30
0
41
1
10
6.9309273019079
20
2.42437993712073
30
0
41
1
10
7.16173144856731
20
2.64556576958344
30
0
41
1
10
7.51959679062241
20
2.99080579874914
30
0
41
1
10
7.64101011433885
20
3.10831276582798
30
0
41
1
10
7.88510660504969
20
3.34515832256469
30
0
41
1
10
8.00809715121687
20
3.4647927366903
30
0
41
1
10
8.13203298103338
20
3.58557934849259
30
0
0
SPLINE
5
162
100
AcDbEntity
8
1
62
256
6
ByLayer
370
18
48
1
60
0
100
AcDbSpline
70
4
71
3
72
11
73
7
40
0
40
0
40
0
40
0
40
0.423407924937775
40
0.740963868641106
40
0.899741840492772
40
1
40
1
40
1
40
1
41
1.02805999725224
10
11.9734972260808
20
13.1776306815158
30
0
41
1.02767136955276
10
12.8300108698881
20
13.2824573810983
30
0
41
1.02349884684922
10
16.0682118771986
20
12.8695072299915
30
0
41
1.01876555595691
10
20.1719111847222
20
11.9012610848324
30
0
41
1.01635405201136
10
21.7165063098192
20
11.5183872185715
30
0
41
1.01722454828229
10
22.1983119644932
20
11.5674344806937
30
0
41
1.0177432798791
10
22.3961077334737
20
11.5951578829379
30
0
0
SPLINE
5
163
100
AcDbEntity
8
1
62
256
6
ByLayer
370
18
48
1
60
0
100
AcDbSpline
70
4
71
3
72
14
73
10
40
0
40
0
40
0
40
0
40
0.25
40
0.25
40
0.5
40
0.5
40
0.75
40
0.75
40
1
40
1
40
1
40
1
41
1
10
8.13203298103338
20
3.58557934849259
30
0
41
1
10
8.22704504850853
20
3.59327839894982
30
0
41
1
10
8.32272588346072
20
3.59648351694932
30
0
41
1
10
8.51558693069319
20
3.59251552197478
30
0
41
1
10
8.61330461937285
20
3.5852807298011
30
0
41
1
10
8.80816103544831
20
3.55862951189175
30
0
41
1
10
8.90364758985257
20
3.53948876119861
30
0
41
1
10
9.09043881033824
20
3.48879273718231
30
0
41
1
10
9.18236399052597
20
3.45691446589959
30
0
41
1
10
9.26952917166932
20
3.41925660289306
30
0
0
SPLINE
5
164
100
AcDbEntity
8
1
62
256
6
ByLayer
370
18
48
1
60
0
100
AcDbSpline
70
4
71
3
72
10
73
6
40
0
40
0
40
0
40
0
40
0.5
40
0.5
40
1
40
1
40
1
40
1
41
1
10
12.8069571255107
20
11.5690571639001
30
0
41
1
10
12.6545223780337
20
11.970667887005
30
0
41
1
10
12.5037232224199
20
12.3168402357092
30
0
41
1
10
12.2209819977644
20
12.8625294123931
30
0
41
1
10
12.0890916063463
20
13.061946502813
30
0
41
1
10
11.9734972260808
20
13.1776306815157
30
0
0
SPLINE
5
165
100
AcDbEntity
8
1
62
256
6
ByLayer
370
18
48
1
60
0
100
AcDbSpline
70
4
71
3
72
16
73
12
40
0
40
0
40
0
40
0
40
0.249999999999999
40
0.249999999999999
40
0.499999999999997
40
0.499999999999997
40
0.624999999999997
40
0.624999999999997
40
0.749999999999997
40
0.749999999999997
40
1
40
1
40
1
40
1
41
1
10
16.6611345566974
20
9.62966876422385
30
0
41
1
10
16.765109788957
20
9.45332931944768
30
0
41
1
10
16.8560653701305
20
9.27083622203105
30
0
41
1
10
17.0122115499524
20
8.89369214307894
30
0
41
1
10
17.0768658165838
20
8.70010584249263
30
0
41
1
10
17.1529173083014
20
8.40494245165789
30
0
41
1
10
17.1748539844929
20
8.30538684474686
30
0
41
1
10
17.2114202325878
20
8.10619699477868
30
0
41
1
10
17.2261022577549
20
8.00642769168391
30
0
41
1
10
17.2594650971968
20
7.70659529897048
30
0
41
1
10
17.267523950913
20
7.50601227737064
30
0
41
1
10
17.2609897547944
20
7.30467715471804
30
0
0
SPLINE
5
166
100
AcDbEntity
8
1
62
256
6
ByLayer
370
18
48
1
60
0
100
AcDbSpline
70
4
71
3
72
8
73
4
40
0
40
0
40
0
40
0
40
1
40
1
40
1
40
1
41
1
10
7.8511539036881
20
9.58724966070997
30
0
41
1
10
7.81019850455564
20
9.53067614386623
30
0
41
1
10
7.76664810663817
20
9.47582325487841
30
0
41
1
10
7.72061697384569
20
9.42271856375467
30
0
0
SPLINE
5
167
100
AcDbEntity
8
1
62
256
6
ByLayer
370
18
48
1
60
0
100
AcDbSpline
70
4
71
3
72
12
73
8
40
0
40
0
40
0
40
0
40
0.108853988597823
40
0.502629237150056
40
0.699516861426172
40
0.896404485702288
40
1
40
1
40
1
40
1
41
1.02441262532194
10
17.2609897548756
20
7.30467715474351
30
0
41
1.02394775681993
10
17.581800414761
20
7.40538276465459
30
0
41
1.02173322384663
10
19.0981756681515
20
7.88422483753791
30
0
41
1.01876555595691
10
21.2167800456448
20
8.56277762401736
30
0
41
1.01610930227499
10
22.6272515433725
20
9.02157794608288
30
0
41
1.01814069306383
10
23.3025556208477
20
9.14172522848488
30
0
41
1.02005196006992
10
23.8985327633673
20
9.26307768353844
30
0
41
1.02076673234807
10
24.1157550043086
20
9.30910722549234
30
0
0
SPLINE
5
168
100
AcDbEntity
8
1
62
256
6
ByLayer
370
18
48
1
60
0
100
AcDbSpline
70
4
71
3
72
8
73
4
40
0
40
0
40
0
40
0
40
1
40
1
40
1
40
1
41
1
10
23.617295713109
20
13.1193558339014
30
0
41
1
10
23.9865047167745
20
12.9451778568276
30
0
41
1
10
24.3554807817128
20
12.7676447461292
30
0
41
1
10
24.7242218513043
20
12.5867268792798
30
0
0
SPLINE
5
169
100
AcDbEntity
8
1
62
256
6
ByLayer
370
18
48
1
60
0
100
AcDbSpline
70
4
71
3
72
18
73
14
40
0
40
0
40
0
40
0
40
0.250000000000003
40
0.250000000000003
40
0.375000000000002
40
0.375000000000002
40
0.500000000000001
40
0.500000000000001
40
0.625
40
0.625
40
0.75
40
0.75
40
1
40
1
40
1
40
1
41
1
10
7.8511539036881
20
9.58724966070994
30
0
41
1
10
7.97512340336505
20
9.75849425181758
30
0
41
1
10
8.11229493780996
20
9.91554669145225
30
0
41
1
10
8.33931457412641
20
10.1319543468478
30
0
41
1
10
8.41855244220042
20
10.2008732222341
30
0
41
1
10
8.58467223645687
20
10.3323785197545
30
0
41
1
10
8.6718350302057
20
10.395144933734
30
0
41
1
10
8.85318219888765
20
10.5134123418139
30
0
41
1
10
8.94698059308624
20
10.5686995664469
30
0
41
1
10
9.14110836669636
20
10.6717140921864
30
0
41
1
10
9.24172094234416
20
10.7195348492178
30
0
41
1
10
9.54984625145829
20
10.8499770437088
30
0
41
1
10
9.76455551608876
20
10.9202889963387
30
0
41
1
10
9.98873221785811
20
10.9742287438819
30
0
0
SPLINE
5
16A
100
AcDbEntity
8
1
62
256
6
ByLayer
370
18
48
1
60
0
100
AcDbSpline
70
4
71
3
72
8
73
4
40
0
40
0
40
0
40
0
40
1
40
1
40
1
40
1
41
1
10
14.8272005841222
20
3.73875226648369
30
0
41
1
10
14.5674960842144
20
3.61390353559028
30
0
41
1
10
14.2993710124242
20
3.51700350707532
30
0
41
1
10
14.0224120340595
20
3.45036367673205
30
0
0
SPLINE
5
16B
100
AcDbEntity
8
1
62
256
6
ByLayer
370
18
48
1
60
0
100
AcDbSpline
70
4
71
3
72
14
73
10
40
0
40
0
40
0
40
0
40
0.500000000000001
40
0.500000000000001
40
0.625000000000001
40
0.625000000000001
40
0.750000000000001
40
0.750000000000001
40
1
40
1
40
1
40
1
41
1
10
7.72235537004534
20
-1.96220504693724
30
0
41
1
10
7.44704232533584
20
-2.05953559180193
30
0
41
1
10
7.14907947914267
20
-2.13879233629783
30
0
41
1
10
6.74565197722066
20
-2.192393514423
30
0
41
1
10
6.66340609406515
20
-2.20079719570094
30
0
41
1
10
6.49567192149848
20
-2.21216123682402
30
0
41
1
10
6.410359538705
20
-2.2150817911371
30
0
41
1
10
6.15349968890104
20
-2.21446724997961
30
0
41
1
10
5.97984090753499
20
-2.2017098304095
30
0
41
1
10
5.80445618094581
20
-2.17384697780094
30
0
0
SPLINE
5
16C
100
AcDbEntity
8
1
62
256
6
ByLayer
370
18
48
1
60
0
100
AcDbSpline
70
4
71
3
72
18
73
14
40
0
40
0
40
0
40
0
40
0.125000000000001
40
0.125000000000001
40
0.250000000000003
40
0.250000000000003
40
0.500000000000004
40
0.500000000000004
40
0.625000000000003
40
0.625000000000003
40
0.750000000000003
40
0.750000000000003
40
1
40
1
40
1
40
1
41
1
10
12.0522204082414
20
2.97631067269714
30
0
41
1
10
11.9401251934283
20
2.9493391473776
30
0
41
1
10
11.8277487217773
20
2.92765588800566
30
0
41
1
10
11.602403944721
20
2.89488753329144
30
0
41
1
10
11.4889838501279
20
2.88378806137243
30
0
41
1
10
11.1512063551134
20
2.86681299386308
30
0
41
1
10
10.9304179217023
20
2.87699340155101
30
0
41
1
10
10.6042205770481
20
2.92261684608351
30
0
41
1
10
10.4963186649102
20
2.9429101664395
30
0
41
1
10
10.2819048521813
20
2.99367261451229
30
0
41
1
10
10.1757576484225
20
3.02409635449334
30
0
41
1
10
9.86377252603245
20
3.12890439585067
30
0
41
1
10
9.66279418205659
20
3.21705505559191
30
0
41
1
10
9.46731248636593
20
3.32314599656527
30
0
0
SPLINE
5
16D
100
AcDbEntity
8
1
62
256
6
ByLayer
370
18
48
1
60
0
100
AcDbSpline
70
4
71
3
72
12
73
8
40
0
40
0
40
0
40
0
40
0.10885398581315
40
0.502629224287399
40
0.699516843524523
40
0.896404462761647
40
1
40
1
40
1
40
1
41
1.02441262532196
10
16.6611345567821
20
9.62966876423588
30
0
41
1.02394775681994
10
16.9956673157053
20
9.67718859661372
30
0
41
1.02173322384664
10
18.5801152000835
20
9.89218650114433
30
0
41
1.01876555595691
10
20.8137835281504
20
10.1247604572341
30
0
41
1.01610930227499
10
22.3139306330222
20
10.2359851729554
30
0
41
1.01814069316835
10
22.9845775220612
20
10.3741834923407
30
0
41
1.02005196039548
10
23.5860351187103
20
10.474294410656
30
0
41
1.02076673287779
10
23.8064122481791
20
10.5080960968507
30
0
0
SPLINE
5
16E
100
AcDbEntity
8
1
62
256
6
ByLayer
370
18
48
1
60
0
100
AcDbSpline
70
4
71
3
72
8
73
4
40
0
40
0
40
0
40
0
40
1
40
1
40
1
40
1
41
1.01923193626848
10
24.0743288860146
20
4.62466121813611
30
0
41
1.02059843516864
10
24.481076737143
20
5.01704684320408
30
0
41
1.0223381109506
10
24.9721479749924
20
5.52186581619012
30
0
41
1.0241704137769
10
25.4371467097881
20
6.0653707644724
30
0
0
SPLINE
5
16F
100
AcDbEntity
8
1
62
256
6
ByLayer
370
18
48
1
60
0
100
AcDbSpline
70
4
71
2
72
6
73
3
40
0
40
0
40
0
40
1
40
1
40
1
41
1.02805999725224
10
14.9954112204225
20
1.46492950999998
30
0
41
1.02805999725224
10
14.9345508496613
20
0.725028417299733
30
0
41
1.02805999725224
10
14.8736904788999
20
-0.0148726754005167
30
0
0
SPLINE
5
170
100
AcDbEntity
8
1
62
256
6
ByLayer
370
18
48
1
60
0
100
AcDbSpline
70
4
71
3
72
24
73
20
40
0
40
0
40
0
40
0
40
0.124999999999999
40
0.124999999999999
40
0.249999999999998
40
0.249999999999998
40
0.312499999999998
40
0.312499999999998
40
0.374999999999998
40
0.374999999999998
40
0.499999999999998
40
0.499999999999998
40
0.624999999999998
40
0.624999999999998
40
0.749999999999999
40
0.749999999999999
40
0.874999999999999
40
0.874999999999999
40
1
40
1
40
1
40
1
41
1
10
24.7242218513043
20
12.5867268792798
30
0
41
1
10
24.5450371707116
20
12.6401737402935
30
0
41
1
10
24.3736876724607
20
12.6784334103645
30
0
41
1
10
24.0498603974806
20
12.7219787306223
30
0
41
1
10
23.9029194350372
20
12.7264141780775
30
0
41
1
10
23.7015382744239
20
12.7110317368205
30
0
41
1
10
23.6375076566982
20
12.7023188205299
30
0
41
1
10
23.5149347023155
20
12.6785379781857
30
0
41
1
10
23.4567409460027
20
12.6635166127408
30
0
41
1
10
23.2917796760121
20
12.6108809250669
30
0
41
1
10
23.1937290457516
20
12.5656218487865
30
0
41
1
10
23.0158245607771
20
12.4595851585057
30
0
41
1
10
22.9360246994849
20
12.3987614979435
30
0
41
1
10
22.7914570557951
20
12.2642945493667
30
0
41
1
10
22.7269338373995
20
12.1907769158972
30
0
41
1
10
22.6120918864108
20
12.0346488350071
30
0
41
1
10
22.5617353651711
20
11.9517006413807
30
0
41
1
10
22.4722216546568
20
11.7780613696991
30
0
41
1
10
22.4329132244462
20
11.6874748551207
30
0
41
1
10
22.3961077334641
20
11.5951578829365
30
0
0
SPLINE
5
171
100
AcDbEntity
8
1
62
256
6
ByLayer
370
18
48
1
60
0
100
AcDbSpline
70
4
71
3
72
8
73
4
40
0
40
0
40
0
40
0
40
1
40
1
40
1
40
1
41
1
10
24.0742914250461
20
4.62462507999868
30
0
41
1
10
23.9791637189412
20
4.58785678247094
30
0
41
1
10
23.8832999637774
20
4.55331551269782
30
0
41
1
10
23.7866351527951
20
4.52119795846289
30
0
0
SPLINE
5
172
100
AcDbEntity
8
1
62
256
6
ByLayer
370
18
48
1
60
0
100
AcDbSpline
70
4
71
3
72
25
73
21
40
0
40
0
40
0
40
0
40
0.125
40
0.125
40
0.25
40
0.25
40
0.375
40
0.375
40
0.5
40
0.5
40
0.625
40
0.625
40
0.75
40
0.75
40
0.8125
40
0.8125
40
0.875
40
0.9375
40
0.9375
40
1
40
1
40
1
40
1
41
1
10
23.4077602521589
20
7.67407221895542
30
0
41
1
10
23.4941434968872
20
7.57395239488559
30
0
41
1
10
23.5818195874776
20
7.4765866584622
30
0
41
1
10
23.762741517515
20
7.29372015495665
30
0
41
1
10
23.8560627955561
20
7.20838009110034
30
0
41
1
10
24.0498302532736
20
7.05287780024238
30
0
41
1
10
24.1501777183351
20
6.98250528622279
30
0
41
1
10
24.3591325632447
20
6.8593559592162
30
0
41
1
10
24.4677217837386
20
6.80654046222693
30
0
41
1
10
24.695417611073
20
6.72331415287033
30
0
41
1
10
24.8150397770141
20
6.69297303004706
30
0
41
1
10
25.060960130972
20
6.66345157219402
30
0
41
1
10
25.1878941376832
20
6.66381298868089
30
0
41
1
10
25.3862882921142
20
6.69477249400674
30
0
41
1
10
25.4541833101069
20
6.71038848178452
30
0
41
1
10
25.590956423077
20
6.75308838430962
30
0
41
1
10
25.7283569160434
20
6.80687402575037
30
0
41
1
10
25.8670144973997
20
6.88287228756087
30
0
41
1
10
26.0063056387988
20
6.97006548905955
30
0
41
1
10
26.0764709678437
20
7.01942046791515
30
0
41
1
10
26.1464988173738
20
7.07409312330353
30
0
0
SPLINE
5
173
100
AcDbEntity
8
1
62
256
6
ByLayer
370
18
48
1
60
0
100
AcDbSpline
70
4
71
3
72
8
73
4
40
0
40
0
40
0
40
0
40
1
40
1
40
1
40
1
41
1
10
21.3995773088662
20
13.7732465798014
30
0
41
1
10
21.5038221685883
20
13.7759844607823
30
0
41
1
10
21.6085316825552
20
13.7762402645583
30
0
41
1
10
21.7136681434487
20
13.7742154150411
30
0
0
SPLINE
5
174
100
AcDbEntity
8
1
62
256
6
ByLayer
370
18
48
1
60
0
100
AcDbSpline
70
4
71
3
72
8
73
4
40
0
40
0
40
0
40
0
40
1
40
1
40
1
40
1
41
1
10
25.4372231479908
20
6.06546010843832
30
0
41
1
10
25.6746414673534
20
6.4020924675315
30
0
41
1
10
25.9110696045933
20
6.73830470889408
30
0
41
1
10
26.1464988173771
20
7.07409312330009
30
0
0
SPLINE
5
175
100
AcDbEntity
8
1
62
256
6
ByLayer
370
18
48
1
60
0
100
AcDbSpline
70
4
71
3
72
10
73
6
40
0
40
0
40
0
40
0
40
0.5
40
0.5
40
1
40
1
40
1
40
1
41
1
10
8.13203298103338
20
3.58557934849259
30
0
41
1
10
8.00645713326176
20
3.57540364330171
30
0
41
1
10
7.88243780495753
20
3.55812080335087
30
0
41
1
10
7.63757567217181
20
3.51077040120157
30
0
41
1
10
7.51720668942448
20
3.48074964589037
30
0
41
1
10
7.40010924302737
20
3.44556214543627
30
0
0
SPLINE
5
176
100
AcDbEntity
8
1
62
256
6
ByLayer
370
18
48
1
60
0
100
AcDbSpline
70
4
71
3
72
16
73
12
40
0
40
0
40
0
40
0
40
0.250000000000002
40
0.250000000000002
40
0.500000000000004
40
0.500000000000004
40
0.625000000000003
40
0.625000000000003
40
0.750000000000001
40
0.750000000000001
40
1
40
1
40
1
40
1
41
1
10
21.3995773088663
20
13.7732465798014
30
0
41
1
10
21.2378126213009
20
13.7689980013809
30
0
41
1
10
21.0688866375739
20
13.7670186094636
30
0
41
1
10
20.7173062576844
20
13.7715277269828
30
0
41
1
10
20.5345430926673
20
13.7792539044194
30
0
41
1
10
20.2500112637633
20
13.802874293661
30
0
41
1
10
20.1531662909721
20
13.8124856419916
30
0
41
1
10
19.9587470562184
20
13.8341778039467
30
0
41
1
10
19.8609224911154
20
13.846271408037
30
0
41
1
10
19.5656283415605
20
13.8854943809192
30
0
41
1
10
19.3663370440552
20
13.9154512341044
30
0
41
1
10
19.1646457220617
20
13.9483551501586
30
0
0
SPLINE
5
177
100
AcDbEntity
8
1
62
256
6
ByLayer
370
18
48
1
60
0
100
AcDbSpline
70
4
71
3
72
20
73
16
40
0
40
0
40
0
40
0
40
0.0625000000000003
40
0.0625000000000003
40
0.125000000000001
40
0.125000000000001
40
0.250000000000001
40
0.250000000000001
40
0.5
40
0.5
40
0.75
40
0.75
40
0.875
40
0.875
40
1
40
1
40
1
40
1
41
1
10
11.2947201550221
20
13.8569350543349
30
0
41
1
10
11.4554589367033
20
13.8940053373202
30
0
41
1
10
11.6170218401121
20
13.9252868445872
30
0
41
1
10
11.9409237284727
20
13.9823985260929
30
0
41
1
10
12.1032967988717
20
14.0079892781652
30
0
41
1
10
12.5913135045148
20
14.0784573758063
30
0
41
1
10
12.9178447701686
20
14.1170998495209
30
0
41
1
10
13.90025739856
20
14.2132273037507
30
0
41
1
10
14.5601452783198
20
14.2511855766458
30
0
41
1
10
15.8782332467232
20
14.2646346873962
30
0
41
1
10
16.5372856596758
20
14.2371873808104
30
0
41
1
10
17.5258736578758
20
14.1579929850759
30
0
41
1
10
17.8550306641529
20
14.1251966354547
30
0
41
1
10
18.5112107846175
20
14.0469436888466
30
0
41
1
10
18.8384574402206
20
14.0015694964055
30
0
41
1
10
19.1646457220614
20
13.9483551501586
30
0
0
SPLINE
5
178
100
AcDbEntity
8
1
62
256
6
ByLayer
370
18
48
1
60
0
100
AcDbSpline
70
4
71
1
72
4
73
2
40
0
40
0
40
1
40
1
41
1
10
11.9734972260808
20
13.1776306815157
30
0
41
1
10
11.2947201550221
20
13.8569350543349
30
0
0
SPLINE
5
179
100
AcDbEntity
8
1
62
256
6
ByLayer
370
18
48
1
60
0
100
AcDbSpline
70
4
71
3
72
8
73
4
40
0
40
0
40
0
40
0
40
1
40
1
40
1
40
1
41
1
10
25.0021021183696
20
10.0941534319346
30
0
41
1
10
24.7045972805636
20
9.85037543164907
30
0
41
1
10
24.409073238348
20
9.58616889420009
30
0
41
1
10
24.1157550043074
20
9.30910722549208
30
0
0
SPLINE
5
17A
100
AcDbEntity
8
1
62
256
6
ByLayer
370
18
48
1
60
0
100
AcDbSpline
70
4
71
3
72
8
73
4
40
0
40
0
40
0
40
0
40
1
40
1
40
1
40
1
41
1
10
26.1023435781445
20
11.818588858655
30
0
41
1
10
26.0247578980204
20
11.8569233180918
30
0
41
1
10
25.9479255525224
20
11.8912150680555
30
0
41
1
10
25.8718239586317
20
11.9215852984975
30
0
0
SPLINE
5
17B
100
AcDbEntity
8
1
62
256
6
ByLayer
370
18
48
1
60
0
100
AcDbSpline
70
4
71
3
72
8
73
4
40
0
40
0
40
0
40
0
40
1
40
1
40
1
40
1
41
1
10
23.8064120849655
20
10.5080960718168
30
0
41
1
10
24.2099695048888
20
10.3581263386433
30
0
41
1
10
24.6093385748027
20
10.2183980036142
30
0
41
1
10
25.00210211835
20
10.0941534319408
30
0
0
SPLINE
5
17C
100
AcDbEntity
8
1
62
256
6
ByLayer
370
18
48
1
60
0
100
AcDbSpline
70
4
71
3
72
18
73
14
40
0
40
0
40
0
40
0
40
0.250000000000001
40
0.250000000000001
40
0.500000000000002
40
0.500000000000002
40
0.625000000000002
40
0.625000000000002
40
0.750000000000001
40
0.750000000000001
40
0.875000000000001
40
0.875000000000001
40
1
40
1
40
1
40
1
41
1
10
6.80390545538037
20
8.73329726990454
30
0
41
1
10
6.47340045598082
20
8.81090850374082
30
0
41
1
10
6.15240009828057
20
8.88082922527599
30
0
41
1
10
5.52970688063505
20
9.00428308573487
30
0
41
1
10
5.2279936123708
20
9.05784428100429
30
0
41
1
10
4.7915575827335
20
9.12377511975464
30
0
41
1
10
4.64927134536993
20
9.14323357601418
30
0
41
1
10
4.37611952641888
20
9.17617491169818
30
0
41
1
10
4.24455603031851
20
9.18976776488424
30
0
41
1
10
3.99176921550151
20
9.21086612031655
30
0
41
1
10
3.87054374466382
20
9.21837358869436
30
0
41
1
10
3.63904596343579
20
9.22676285319554
30
0
41
1
10
3.52837949502887
20
9.22762684230588
30
0
41
1
10
3.42490951282017
20
9.22481881393313
30
0
0
SPLINE
5
17D
100
AcDbEntity
8
1
62
256
6
ByLayer
370
18
48
1
60
0
100
AcDbSpline
70
4
71
3
72
10
73
6
40
0
40
0
40
0
40
0
40
0.5
40
0.5
40
1
40
1
40
1
40
1
41
1
10
11.9500553463162
20
8.5808364447048
30
0
41
1
10
11.9722644861279
20
8.58092137006861
30
0
41
1
10
11.9963783687697
20
8.58371600333263
30
0
41
1
10
12.0452284477619
20
8.5954652610433
30
0
41
1
10
12.0697139626313
20
8.6043629686736
30
0
41
1
10
12.0925135913149
20
8.61511369880853
30
0
0
SPLINE
5
17E
100
AcDbEntity
8
1
62
256
6
ByLayer
370
18
48
1
60
0
100
AcDbSpline
70
4
71
3
72
10
73
6
40
0
40
0
40
0
40
0
40
0.5
40
0.5
40
1
40
1
40
1
40
1
41
1
10
13.0895194612417
20
8.32076559441856
30
0
41
1
10
13.1014267991798
20
8.29997787992028
30
0
41
1
10
13.1165573904827
20
8.27933014754021
30
0
41
1
10
13.1522107526611
20
8.24241804915067
30
0
41
1
10
13.1723323158185
20
8.22657230154567
30
0
41
1
10
13.1927265727011
20
8.21396004918873
30
0
0
SPLINE
5
17F
100
AcDbEntity
8
1
62
256
6
ByLayer
370
18
48
1
60
0
100
AcDbSpline
70
4
71
3
72
10
73
6
40
0
40
0
40
0
40
0
40
0.5
40
0.5
40
1
40
1
40
1
40
1
41
1
10
11.1733566554997
20
7.72807412674217
30
0
41
1
10
11.1821433465223
20
7.74770768394771
30
0
41
1
10
11.1903869725867
20
7.77037845455274
30
0
41
1
10
11.2039445857637
20
7.81913133553061
30
0
41
1
10
11.209106343524
20
7.84466166354568
30
0
41
1
10
11.212607789042
20
7.86915692607644
30
0
0
SPLINE
5
180
100
AcDbEntity
8
1
62
256
6
ByLayer
370
18
48
1
60
0
100
AcDbSpline
70
4
71
3
72
10
73
6
40
0
40
0
40
0
40
0
40
0.5
40
0.5
40
1
40
1
40
1
40
1
41
1
10
12.6755861945381
20
6.35517010821022
30
0
41
1
10
12.6507433031554
20
6.35245143127537
30
0
41
1
10
12.6251105024648
20
6.34813787996262
30
0
41
1
10
12.576258060828
20
6.33638625960722
30
0
41
1
10
12.5532908332548
20
6.32900683927309
30
0
41
1
10
12.5331279495395
20
6.32089285410649
30
0
0
SPLINE
5
181
100
AcDbEntity
8
1
62
256
6
ByLayer
370
18
48
1
60
0
100
AcDbSpline
70
4
71
3
72
10
73
6
40
0
40
0
40
0
40
0
40
0.5
40
0.5
40
1
40
1
40
1
40
1
41
1
10
13.4522848853541
20
7.20793242617233
30
0
41
1
10
13.4408844927426
20
7.18568516737787
30
0
41
1
10
13.4310983002755
20
7.16147183037012
30
0
41
1
10
13.4175455256884
20
7.11272378798225
30
0
41
1
10
13.4139300695023
20
7.08873976154132
30
0
41
1
10
13.4130337518117
20
7.06684962683786
30
0
0
SPLINE
5
182
100
AcDbEntity
8
1
62
256
6
ByLayer
370
18
48
1
60
0
100
AcDbSpline
70
4
71
3
72
10
73
6
40
0
40
0
40
0
40
0
40
0.5
40
0.5
40
1
40
1
40
1
40
1
41
1
10
11.5361220796119
20
6.61524095849575
30
0
41
1
10
11.5216096138465
20
6.63342354516672
30
0
41
1
10
11.5049327209695
20
6.65252497597268
30
0
41
1
10
11.4692745202011
20
6.68943223577222
30
0
41
1
10
11.4506955234464
20
6.70682054977996
30
0
41
1
10
11.4329149681527
20
6.72204650372581
30
0
0
SPLINE
5
183
100
AcDbEntity
8
1
62
256
6
ByLayer
370
18
48
1
60
0
100
AcDbSpline
70
4
71
3
72
10
73
6
40
0
40
0
40
0
40
0
40
0.194266187930579
40
0.194266187930579
40
1
40
1
40
1
40
1
41
1
10
2.9528959579699
20
11.3442016761259
30
0
41
1
10
2.9174650521781
20
11.3213821620927
30
0
41
1
10
2.88214177301828
20
11.2979452873749
30
0
41
1
10
2.70145426888851
20
11.1742541965939
30
0
41
1
10
2.55874729863848
20
11.0639384250653
30
0
41
1
10
2.42093855954965
20
10.9404014363418
30
0
0
SPLINE
5
184
100
AcDbEntity
8
1
62
256
6
ByLayer
370
18
48
1
60
0
100
AcDbSpline
70
4
71
4
72
10
73
5
40
0
40
0
40
0
40
0
40
0
40
1
40
1
40
1
40
1
40
1
41
0.573444231386241
10
26.2782925685619
20
3.54000887964926
30
0
41
0.570818456486682
10
24.9938564579084
20
2.71248841314569
30
0
41
0.569943198186829
10
23.6365634956559
20
2.00468860419914
30
0
41
0.570818456486682
10
22.2185656818182
20
1.42367195297278
30
0
41
0.573444231386241
10
20.7531268753611
20
0.974178822514998
30
0
0
SPLINE
5
185
100
AcDbEntity
8
1
62
256
6
ByLayer
370
18
48
1
60
0
100
AcDbSpline
70
4
71
3
72
10
73
6
40
0
40
0
40
0
40
0
40
0.5
40
0.5
40
1
40
1
40
1
40
1
41
1
10
0.906026085774045
20
11.021482742171
30
0
41
1
10
0.897898072029477
20
11.2610314995969
30
0
41
1
10
0.890919297230312
20
11.5008175203228
30
0
41
1
10
0.881810396240013
20
11.9810483340093
30
0
41
1
10
0.879611255757823
20
12.2214792373934
30
0
41
1
10
0.882103769106124
20
12.4625000000002
30
0
0
SPLINE
5
186
100
AcDbEntity
8
1
62
256
6
ByLayer
370
18
48
1
60
0
100
AcDbSpline
70
4
71
3
72
8
73
4
40
0
40
0
40
0
40
0
40
1
40
1
40
1
40
1
41
1
10
18.4285850835097
20
-0.0651047468899435
30
0
41
1
10
18.2448635314521
20
-0.259754131297456
30
0
41
1
10
18.0605112933749
20
-0.454717157367213
30
0
41
1
10
17.8754245748007
20
-0.650046571880154
30
0
0
SPLINE
5
187
100
AcDbEntity
8
1
62
256
6
ByLayer
370
18
48
1
60
0
100
AcDbSpline
70
4
71
4
72
10
73
5
40
0
40
0
40
0
40
0
40
0
40
1
40
1
40
1
40
1
40
1
41
0.585786437626905
10
26.6025912159469
20
3.38572881127112
30
0
41
0.58576040151691
10
27.2447901054412
20
3.70535774352203
30
0
41
0.585751722813578
10
27.9053935741088
20
4.02674418928381
30
0
41
0.58576040151691
10
28.5689372144488
20
4.34219168437351
30
0
41
0.585786437626905
10
29.2367498762752
20
4.65231700828145
30
0
0
SPLINE
5
188
100
AcDbEntity
8
1
62
256
6
ByLayer
370
18
48
1
60
0
100
AcDbSpline
70
4
71
4
72
10
73
5
40
0
40
0
40
0
40
0
40
0
40
1
40
1
40
1
40
1
40
1
41
0.585786437626905
10
29.2367498762752
20
4.65231700828145
30
0
41
0.499547670576654
10
29.3420821565124
20
4.70123223465226
30
0
41
0.470801414893237
10
29.365805752236
20
4.69956366524362
30
0
41
0.499547670576654
10
29.3850917390751
20
4.68533870875881
30
0
41
0.585786437626905
10
29.4355086556722
20
4.57886877608125
30
0
0
SPLINE
5
189
100
AcDbEntity
8
1
62
256
6
ByLayer
370
18
48
1
60
0
100
AcDbSpline
70
4
71
3
72
12
73
8
40
0
40
0
40
0
40
0
40
0.249999999999997
40
0.249999999999997
40
0.499999999999995
40
0.499999999999995
40
1
40
1
40
1
40
1
41
1
10
18.1114871134581
20
-0.533544599450551
30
0
41
1
10
18.1366095453381
20
-0.508422167570586
30
0
41
1
10
18.1649175808315
20
-0.47781202318734
30
0
41
1
10
18.221044667872
20
-0.41080733580597
30
0
41
1
10
18.2491628464452
20
-0.374179660936335
30
0
41
1
10
18.3311799370043
20
-0.256137311134125
30
0
41
1
10
18.3829528484615
20
-0.166347706124526
30
0
41
1
10
18.4285850835115
20
-0.0651047468871297
30
0
0
SPLINE
5
18A
100
AcDbEntity
8
1
62
256
6
ByLayer
370
18
48
1
60
0
100
AcDbSpline
70
4
71
4
72
10
73
5
40
0
40
0
40
0
40
0
40
0
40
1
40
1
40
1
40
1
40
1
41
0.585786437626905
10
20.1155367303881
20
13.9654039751222
30
0
41
0.558344623794314
10
20.1412632570288
20
13.9110749573175
30
0
41
0.549197352516784
10
20.1426535972979
20
13.902347570543
30
0
41
0.558344623794314
10
20.1414248652309
20
13.8936444667092
30
0
41
0.585786437626905
10
20.1167014335573
20
13.8397831997695
30
0
0
SPLINE
5
18B
100
AcDbEntity
8
1
62
256
6
ByLayer
370
18
48
1
60
0
100
AcDbSpline
70
4
71
4
72
10
73
5
40
0
40
0
40
0
40
0
40
0
40
1
40
1
40
1
40
1
40
1
41
0.585649320756578
10
18.1136320184541
20
-0.531399694454437
30
0
41
0.585525363528389
10
18.8366964707209
20
-0.172254403806771
30
0
41
0.585506897264047
10
19.5619148567345
20
0.167982437378343
30
0
41
0.585593921963552
10
20.2933687610731
20
0.491534520881336
30
0
41
0.585786437626905
10
21.0245800442738
20
0.795705233269424
30
0
0
SPLINE
5
18C
100
AcDbEntity
8
1
62
256
6
ByLayer
370
18
48
1
60
0
100
AcDbSpline
70
4
71
4
72
10
73
5
40
0
40
0
40
0
40
0
40
0
40
1
40
1
40
1
40
1
40
1
41
0.573444231386236
10
20.7531268753614
20
0.974178822514534
30
0
41
0.573295914576033
10
20.1651400053468
20
0.729586884129397
30
0
41
0.573211558287576
10
19.5815897162714
20
0.474787314919496
30
0
41
0.573191162520867
10
19.0026733163121
20
0.209860904871933
30
0
41
0.573234727275906
10
18.4285850835106
20
-0.065104746888919
30
0
0
SPLINE
5
18D
100
AcDbEntity
8
1
62
256
6
ByLayer
370
18
48
1
60
0
100
AcDbSpline
70
4
71
3
72
14
73
10
40
0
40
0
40
0
40
0
40
0.25
40
0.25
40
0.5
40
0.5
40
0.75
40
0.75
40
1
40
1
40
1
40
1
41
1
10
0.996685527095082
20
12.4625
30
0
41
1
10
1.05163885889405
20
12.4625
30
0
41
1
10
1.10100383180236
20
12.4652983777675
30
0
41
1
10
1.1886107795531
20
12.4734436673836
30
0
41
1
10
1.22673221777146
20
12.4788245120289
30
0
41
1
10
1.28753914626699
20
12.4888565514049
30
0
41
1
10
1.31109041155688
20
12.4936135237986
30
0
41
1
10
1.3423536762389
20
12.5002040173999
30
0
41
1
10
1.3502431060127
20
12.5020523781361
30
0
41
1
10
1.35022776970959
20
12.5020487850981
30
0
0
SPLINE
5
18E
100
AcDbEntity
8
1
62
256
6
ByLayer
370
18
48
1
60
0
100
AcDbSpline
70
4
71
4
72
10
73
5
40
0
40
0
40
0
40
0
40
0
40
1
40
1
40
1
40
1
40
1
41
0.585786437626905
10
21.0245800442739
20
0.795705233269424
30
0
41
0.583104148329645
10
22.4891497282952
20
1.24493177834493
30
0
41
0.582210051897225
10
23.9359682262814
20
1.83775754325723
30
0
41
0.583104148329645
10
25.320848051772
20
2.55994332271443
30
0
41
0.585786437626905
10
26.6025912159469
20
3.38572881127112
30
0
0
SPLINE
5
18F
100
AcDbEntity
8
1
62
256
6
ByLayer
370
18
48
1
60
0
100
AcDbSpline
70
4
71
3
72
10
73
6
40
0
40
0
40
0
40
0
40
0.713130307892335
40
0.713130307892335
40
1
40
1
40
1
40
1
41
1
10
20.2400560598826
20
14.0451067011927
30
0
41
1
10
20.1891992114253
20
14.0482644433378
30
0
41
1
10
20.1445477541225
20
14.0530031125171
30
0
41
1
10
20.0907579625799
20
14.0614305078222
30
0
41
1
10
20.0763131891525
20
14.0640721560392
30
0
41
1
10
20.0629969304902
20
14.0668956287518
30
0
0
SPLINE
5
190
100
AcDbEntity
8
1
62
256
6
ByLayer
370
18
48
1
60
0
100
AcDbSpline
70
4
71
4
72
10
73
5
40
0
40
0
40
0
40
0
40
0
40
1
40
1
40
1
40
1
40
1
41
0.547983244537154
10
20.3254136953761
20
13.8009221587846
30
0
41
0.550351128031026
10
20.3207735202735
20
13.8428223337514
30
0
41
0.555383920337164
10
20.3114775995378
20
13.8837668681592
30
0
41
0.563081621455568
10
20.2977827565853
20
13.9232000490912
30
0
41
0.573444231386236
10
20.2800570678162
20
13.9606329786967
30
0
0
SPLINE
5
191
100
AcDbEntity
8
1
62
256
6
ByLayer
370
18
48
1
60
0
100
AcDbSpline
70
4
71
3
72
10
73
6
40
0
40
0
40
0
40
0
40
0.99657198347745
40
0.99657198347745
40
1
40
1
40
1
40
1
41
1
10
29.3822226088076
20
4.80376638793092
30
0
41
1
10
29.3834769936452
20
4.74768427323068
30
0
41
1
10
29.3870133906273
20
4.69890268868087
30
0
41
1
10
29.391489846231
20
4.65225036144074
30
0
41
1
10
29.3915052014428
20
4.65209045456879
30
0
41
1
10
29.3915205664579
20
4.65193056551206
30
0
0
SPLINE
5
192
100
AcDbEntity
8
1
62
256
6
ByLayer
370
18
48
1
60
0
100
AcDbSpline
70
4
71
4
72
10
73
5
40
0
40
0
40
0
40
0
40
0
40
1
40
1
40
1
40
1
40
1
41
0.491546738888883
10
29.3822226088088
20
4.80376638793028
30
0
41
0.485768118489467
10
29.3095026294671
20
4.84306492377728
30
0
41
0.488808537331209
10
29.2305905658315
20
4.86565110103992
30
0
41
0.500667995414109
10
29.1497692268018
20
4.87063585262158
30
0
41
0.521346492738167
10
29.0712704018434
20
4.85896739234496
30
0
0
SPLINE
5
193
100
AcDbEntity
8
1
62
256
6
ByLayer
370
18
48
1
60
0
100
AcDbSpline
70
4
71
4
72
10
73
5
40
0
40
0
40
0
40
0
40
0
40
1
40
1
40
1
40
1
40
1
41
0.573421528310386
10
27.1644641797329
20
3.97606816707101
30
0
41
0.573424348238593
10
26.9424151998188
20
3.86805081647397
30
0
41
0.573429072060637
10
26.7207021390816
20
3.75936775018193
30
0
41
0.573435699776518
10
26.499327197583
20
3.65002006717984
30
0
41
0.573444231386236
10
26.2782925685622
20
3.54000887964882
30
0
0
SPLINE
5
194
100
AcDbEntity
8
1
62
256
6
ByLayer
370
18
48
1
60
0
100
AcDbSpline
70
4
71
4
72
10
73
5
40
0
40
0
40
0
40
0
40
0
40
1
40
1
40
1
40
1
40
1
41
0.58486558385825
10
26.5397221425895
20
3.33045045245139
30
0
41
0.58211217703927
10
26.5069287105805
20
3.32288156342849
30
0
41
0.574889008681245
10
26.4509417746363
20
3.35069545924002
30
0
41
0.572334928239986
10
26.3705235280553
20
3.42814935380942
30
0
41
0.573444231386236
10
26.2782925685622
20
3.5400088796488
30
0
0
SPLINE
5
195
100
AcDbEntity
8
1
62
256
6
ByLayer
370
18
48
1
60
0
100
AcDbSpline
70
4
71
3
72
8
73
4
40
0
40
0
40
0
40
0
40
1
40
1
40
1
40
1
41
1
10
17.6633025297342
20
-0.886620325571641
30
0
41
1
10
17.6875481128348
20
-0.841090289526221
30
0
41
1
10
17.7108599644049
20
-0.792328745174558
30
0
41
1
10
17.7327671748878
20
-0.740123307955116
30
0
0
SPLINE
5
196
100
AcDbEntity
8
1
62
256
6
ByLayer
370
18
48
1
60
0
100
AcDbSpline
70
4
71
4
72
10
73
5
40
0
40
0
40
0
40
0
40
0
40
1
40
1
40
1
40
1
40
1
41
0.584655073875592
10
20.9603284769211
20
0.74042804144041
30
0
41
0.581719952058177
10
20.9299875415743
20
0.736309882540691
30
0
41
0.574796672058817
10
20.883507697414
20
0.769695964568972
30
0
41
0.572355247245464
10
20.8215427903781
20
0.854244100610201
30
0
41
0.573444231386236
10
20.7531268753614
20
0.974178822514534
30
0
0
LINE
5
7B
100
AcDbEntity
8
1
62
256
6
ByLayer
370
18
48
1
60
0
100
AcDbLine
10
3.71198
20
1.737497
30
0
11
4.414245
21
2.191216
31
0
39
0
210
0
220
0
230
1
0
LINE
5
7C
100
AcDbEntity
8
1
62
256
6
ByLayer
370
18
48
1
60
0
100
AcDbLine
10
3.096596
20
7.29832
30
0
11
4.414245
21
2.191216
31
0
39
0
210
0
220
0
230
1
0
LINE
5
7D
100
AcDbEntity
8
1
62
256
6
ByLayer
370
18
48
1
60
0
100
AcDbLine
10
3.271515
20
9.153886
30
0
11
1.607687
21
8.078921
31
0
39
0
210
0
220
0
230
1
0
LINE
5
7E
100
AcDbEntity
8
1
62
256
6
ByLayer
370
18
48
1
60
0
100
AcDbLine
10
8.274503
20
-1.605474
30
0
11
7.722355
21
-1.962205
31
0
39
0
210
0
220
0
230
1
0
LINE
5
7F
100
AcDbEntity
8
1
62
256
6
ByLayer
370
18
48
1
60
0
100
AcDbLine
10
2.955931
20
7.09758
30
0
11
4.198997
21
2.279557
31
0
39
0
210
0
220
0
230
1
0
LINE
5
80
100
AcDbEntity
8
1
62
256
6
ByLayer
370
18
48
1
60
0
100
AcDbLine
10
27.129543
20
8.506344
30
0
11
27.004076
21
8.323544
31
0
39
0
210
0
220
0
230
1
0
LINE
5
81
100
AcDbEntity
8
1
62
256
6
ByLayer
370
18
48
1
60
0
100
AcDbLine
10
7.673992
20
-0.296697
30
0
11
14.995411
21
1.46493
31
0
39
0
210
0
220
0
230
1
0
LINE
5
82
100
AcDbEntity
8
1
62
256
6
ByLayer
370
18
48
1
60
0
100
AcDbLine
10
3.571975
20
1.874451
30
0
11
4.198997
21
2.279557
31
0
39
0
210
0
220
0
230
1
0
LINE
5
83
100
AcDbEntity
8
1
62
256
6
ByLayer
370
18
48
1
60
0
100
AcDbLine
10
4.218162
20
7.830281
30
0
11
5.51095
21
2.819538
31
0
39
0
210
0
220
0
230
1
0
LINE
5
84
100
AcDbEntity
8
1
62
256
6
ByLayer
370
18
48
1
60
0
100
AcDbLine
10
3.696036
20
-0.015358
30
0
11
1.607687
21
8.078921
31
0
39
0
210
0
220
0
230
1
0
LINE
5
85
100
AcDbEntity
8
1
62
256
6
ByLayer
370
18
48
1
60
0
100
AcDbLine
10
26.737199
20
7.934717
30
0
11
26.846264
21
8.144732
31
0
39
0
210
0
220
0
230
1
0
LINE
5
86
100
AcDbEntity
8
1
62
256
6
ByLayer
370
18
48
1
60
0
100
AcDbLine
10
5.6777
20
8.178736
30
0
11
4.218162
21
7.830281
31
0
39
0
210
0
220
0
230
1
0
LINE
5
87
100
AcDbEntity
8
1
62
256
6
ByLayer
370
18
48
1
60
0
100
AcDbLine
10
11.29472
20
13.856935
30
0
11
6.081014
21
12.602452
31
0
39
0
210
0
220
0
230
1
0
LINE
5
88
100
AcDbEntity
8
1
62
256
6
ByLayer
370
18
48
1
60
0
100
AcDbLine
10
9.655534
20
-1.27318
30
0
11
9.659985
21
-1.269356
31
0
39
0
210
0
220
0
230
1
0
LINE
5
89
100
AcDbEntity
8
1
62
256
6
ByLayer
370
18
48
1
60
0
100
AcDbLine
10
4.652078
20
11.416005
30
0
11
11.973497
21
13.177631
31
0
39
0
210
0
220
0
230
1
0
LINE
5
8A
100
AcDbEntity
8
1
62
256
6
ByLayer
370
18
48
1
60
0
100
AcDbLine
10
9.655534
20
-1.27318
30
0
11
7.794967
21
-1.936429
31
0
39
0
210
0
220
0
230
1
0
LINE
5
8B
100
AcDbEntity
8
1
62
256
6
ByLayer
370
18
48
1
60
0
100
AcDbLine
10
3.71198
20
1.737497
30
0
11
3.571975
21
1.874451
31
0
39
0
210
0
220
0
230
1
0
LINE
5
8C
100
AcDbEntity
8
1
62
256
6
ByLayer
370
18
48
1
60
0
100
AcDbLine
10
6.075506
20
12.602726
30
0
11
4.694475
21
12.270432
31
0
39
0
210
0
220
0
230
1
0
LINE
5
8D
100
AcDbEntity
8
1
62
256
6
ByLayer
370
18
48
1
60
0
100
AcDbLine
10
26.737199
20
7.934717
30
0
11
26.146499
21
7.074093
31
0
39
0
210
0
220
0
230
1
0
LINE
5
8E
100
AcDbEntity
8
1
62
256
6
ByLayer
370
18
48
1
60
0
100
AcDbLine
10
3.271515
20
9.153886
30
0
11
5.359864
21
1.059607
31
0
39
0
210
0
220
0
230
1
0
LINE
5
8F
100
AcDbEntity
8
1
62
256
6
ByLayer
370
18
48
1
60
0
100
AcDbLine
10
5.359864
20
1.059607
30
0
11
3.696036
21
-0.015358
31
0
39
0
210
0
220
0
230
1
0
LINE
5
90
100
AcDbEntity
8
1
62
256
6
ByLayer
370
18
48
1
60
0
100
AcDbLine
10
2.394331
20
6.844602
30
0
11
2.328909
21
6.692474
31
0
39
0
210
0
220
0
230
1
0
LINE
5
91
100
AcDbEntity
8
1
62
256
6
ByLayer
370
18
48
1
60
0
100
AcDbLine
10
25.871824
20
11.921585
30
0
11
25.673474
21
12.057632
31
0
39
0
210
0
220
0
230
1
0
LINE
5
92
100
AcDbEntity
8
1
62
256
6
ByLayer
370
18
48
1
60
0
100
AcDbLine
10
3.096596
20
7.29832
30
0
11
2.955931
21
7.09758
31
0
39
0
210
0
220
0
230
1
0
LINE
5
93
100
AcDbEntity
8
1
62
256
6
ByLayer
370
18
48
1
60
0
100
AcDbLine
10
8.274503
20
-1.605474
30
0
11
9.655534
21
-1.27318
31
0
39
0
210
0
220
0
230
1
0
LINE
5
94
100
AcDbEntity
8
1
62
256
6
ByLayer
370
18
48
1
60
0
100
AcDbLine
10
14.022412
20
3.450364
30
0
11
12.05222
21
2.976311
31
0
39
0
210
0
220
0
230
1
0
LINE
5
95
100
AcDbEntity
8
1
62
256
6
ByLayer
370
18
48
1
60
0
100
AcDbLine
10
25.002102
20
10.094153
30
0
11
27.54264
21
10.381021
31
0
39
0
210
0
220
0
230
1
0
LINE
5
96
100
AcDbEntity
8
1
62
256
6
ByLayer
370
18
48
1
60
0
100
AcDbLine
10
9.988732
20
10.974229
30
0
11
11.958924
21
11.448282
31
0
39
0
210
0
220
0
230
1
0
LINE
5
97
100
AcDbEntity
8
1
62
256
6
ByLayer
370
18
48
1
60
0
100
AcDbLine
10
6.107321
20
8.456306
30
0
11
5.6777
21
8.178736
31
0
39
0
210
0
220
0
230
1
0
LINE
5
98
100
AcDbEntity
8
1
62
256
6
ByLayer
370
18
48
1
60
0
100
AcDbLine
10
4.414245
20
2.191216
30
0
11
4.198997
21
2.279557
31
0
39
0
210
0
220
0
230
1
0
LINE
5
99
100
AcDbEntity
8
1
62
256
6
ByLayer
370
18
48
1
60
0
100
AcDbLine
10
14.87369
20
-0.014873
30
0
11
9.659985
21
-1.269356
31
0
39
0
210
0
220
0
230
1
0
LINE
5
9A
100
AcDbEntity
8
1
62
256
6
ByLayer
370
18
48
1
60
0
100
AcDbLine
10
2.328909
20
6.692474
30
0
11
3.571975
21
1.874451
31
0
39
0
210
0
220
0
230
1
0
LINE
5
9B
100
AcDbEntity
8
1
62
256
6
ByLayer
370
18
48
1
60
0
100
AcDbLine
10
9.988732
20
10.974229
30
0
11
9.545181
21
10.687659
31
0
39
0
210
0
220
0
230
1
0
LINE
5
9C
100
AcDbEntity
8
1
62
256
6
ByLayer
370
18
48
1
60
0
100
AcDbLine
10
6.075506
20
12.602726
30
0
11
6.081014
21
12.602452
31
0
39
0
210
0
220
0
230
1
0
LINE
5
9D
100
AcDbEntity
8
1
62
256
6
ByLayer
370
18
48
1
60
0
100
AcDbLine
10
26.303968
20
11.706207
30
0
11
26.102344
21
11.818589
31
0
39
0
210
0
220
0
230
1
0
LINE
5
9E
100
AcDbEntity
8
1
62
256
6
ByLayer
370
18
48
1
60
0
100
AcDbLine
10
2.394331
20
6.844602
30
0
11
3.096596
21
7.29832
31
0
39
0
210
0
220
0
230
1
0
LINE
5
9F
100
AcDbEntity
8
1
62
256
6
ByLayer
370
18
48
1
60
0
100
AcDbLine
10
25.673474
20
12.057632
30
0
11
24.724222
21
12.586727
31
0
39
0
210
0
220
0
230
1
0
LINE
5
A0
100
AcDbEntity
8
1
62
256
6
ByLayer
370
18
48
1
60
0
100
AcDbLine
10
2.328909
20
6.692474
30
0
11
2.955931
21
7.09758
31
0
39
0
210
0
220
0
230
1
0
LINE
5
A1
100
AcDbEntity
8
1
62
256
6
ByLayer
370
18
48
1
60
0
100
AcDbLine
10
13.175292
20
7.829332
30
0
11
13.478867
21
8.132908
31
0
39
0
210
0
220
0
230
1
0
LINE
5
A2
100
AcDbEntity
8
1
62
256
6
ByLayer
370
18
48
1
60
0
100
AcDbLine
10
13.186919
20
6.476202
30
0
11
13.490494
21
6.779778
31
0
39
0
210
0
220
0
230
1
0
LINE
5
A3
100
AcDbEntity
8
1
62
256
6
ByLayer
370
18
48
1
60
0
100
AcDbLine
10
12.714877
20
8.305801
30
0
11
13.018452
21
8.609376
31
0
39
0
210
0
220
0
230
1
0
LINE
5
A4
100
AcDbEntity
8
1
62
256
6
ByLayer
370
18
48
1
60
0
100
AcDbLine
10
11.362101
20
8.364644
30
0
11
11.665676
21
8.66822
31
0
39
0
210
0
220
0
230
1
0
LINE
5
A5
100
AcDbEntity
8
1
62
256
6
ByLayer
370
13
48
1
60
0
100
AcDbLine
10
16.957538
20
-0.735718
30
0
11
15.478211
21
-0.85152
31
0
39
0
210
0
220
0
230
1
0
LINE
5
A6
100
AcDbEntity
8
1
62
256
6
ByLayer
370
13
48
1
60
0
100
AcDbLine
10
30.993808
20
18.988839
30
0
11
21.345255
21
14.559954
31
0
39
0
210
0
220
0
230
1
0
LINE
5
A7
100
AcDbEntity
8
1
62
256
6
ByLayer
370
13
48
1
60
0
100
AcDbLine
10
16.957538
20
-0.735718
30
0
11
17.767072
21
0.073816
31
0
39
0
210
0
220
0
230
1
0
LINE
5
A8
100
AcDbEntity
8
1
62
256
6
ByLayer
370
13
48
1
60
0
100
AcDbLine
10
19.424847
20
0.503714
30
0
11
29.0734
21
4.932598
31
0
39
0
210
0
220
0
230
1
0
LINE
5
A9
100
AcDbEntity
8
1
62
256
6
ByLayer
370
13
48
1
60
0
100
AcDbLine
10
16.287745
20
-0.041986
30
0
11
17.767072
21
0.073816
31
0
39
0
210
0
220
0
230
1
0
LINE
5
AA
100
AcDbEntity
8
1
62
256
6
ByLayer
370
13
48
1
60
0
100
AcDbLine
10
30.023006
20
5.882204
30
0
11
34.45189
21
15.530757
31
0
39
0
210
0
220
0
230
1
0
LINE
5
AB
100
AcDbEntity
8
1
62
256
6
ByLayer
370
13
48
1
60
0
100
AcDbLine
10
34.881788
20
17.188532
30
0
11
34.99759
21
18.667859
31
0
39
0
210
0
220
0
230
1
0
LINE
5
AC
100
AcDbEntity
8
1
62
256
6
ByLayer
370
13
48
1
60
0
100
AcDbLine
10
34.13091
20
19.534539
30
0
11
32.651583
21
19.418736
31
0
39
0
210
0
220
0
230
1
0
LINE
5
AD
100
AcDbEntity
8
1
62
256
6
ByLayer
370
13
48
1
60
0
100
AcDbLine
10
16.287745
20
-0.041986
30
0
11
15.478211
21
-0.85152
31
0
39
0
210
0
220
0
230
1
0
LINE
5
AE
100
AcDbEntity
8
1
62
256
6
ByLayer
370
18
48
1
60
0
100
AcDbLine
10
10.760596
20
7.327398
30
0
11
10.960045
21
7.526847
31
0
39
0
210
0
220
0
230
1
0
LINE
5
AF
100
AcDbEntity
8
1
62
256
6
ByLayer
370
18
48
1
60
0
100
AcDbLine
10
12.142165
20
5.932591
30
0
11
12.324448
21
6.114873
31
0
39
0
210
0
220
0
230
1
0
LINE
5
B0
100
AcDbEntity
8
1
62
256
6
ByLayer
370
18
48
1
60
0
100
AcDbLine
10
9.545181
20
10.687659
30
0
11
10.305893
21
10.869274
31
0
39
0
210
0
220
0
230
1
0
LINE
5
B1
100
AcDbEntity
8
1
62
256
6
ByLayer
370
18
48
1
60
0
100
AcDbLine
10
11.958924
20
11.448282
30
0
11
11.720068
21
11.293962
31
0
39
0
210
0
220
0
230
1
0
LINE
5
B2
100
AcDbEntity
8
1
62
256
6
ByLayer
370
13
48
1
60
0
100
AcDbLine
10
28.928127
20
4.787325
30
0
11
29.0734
21
4.932598
31
0
39
0
210
0
220
0
230
1
0
LINE
5
B3
100
AcDbEntity
8
1
62
256
6
ByLayer
370
13
48
1
60
0
100
AcDbLine
10
19.424847
20
0.503714
30
0
11
19.224728
21
0.303594
31
0
39
0
210
0
220
0
230
1
0
LINE
5
B4
100
AcDbEntity
8
SK1
62
256
6
ByLayer
370
18
48
1
60
0
100
AcDbLine
10
-81
20
12.4625
30
0
11
-0.603314
21
12.4625
31
0
39
0
210
0
220
0
230
1
0
LINE
5
B6
100
AcDbEntity
8
SK1
62
256
6
ByLayer
370
18
48
1
60
0
100
AcDbLine
10
-84
20
9.4625
30
0
11
-84
21
-9.4625
31
0
39
0
210
0
220
0
230
1
0
LINE
5
B7
100
AcDbEntity
8
SK1
62
256
6
ByLayer
370
18
48
1
60
0
100
AcDbLine
10
-81
20
-12.4625
30
0
11
-84
21
-9.4625
31
0
39
0
210
0
220
0
230
1
0
LINE
5
B8
100
AcDbEntity
8
SK1
62
256
6
ByLayer
370
18
48
1
60
0
100
AcDbLine
10
-81
20
12.4625
30
0
11
-84
21
9.4625
31
0
39
0
210
0
220
0
230
1
0
LINE
5
B9
100
AcDbEntity
8
SK1
62
256
6
ByLayer
370
18
48
1
60
0
100
AcDbLine
10
-81
20
-12.4625
30
0
11
-0.603314
21
-12.4625
31
0
39
0
210
0
220
0
230
1
0
LINE
5
BA
100
AcDbEntity
8
SK1
62
256
6
ByLayer
370
18
48
1
60
0
100
AcDbLine
10
-0.603314
20
-12.4625
30
0
11
0
21
-12.4625
31
0
39
0
210
0
220
0
230
1
0
LINE
5
BB
100
AcDbEntity
8
SK1
62
256
6
ByLayer
370
18
48
1
60
0
100
AcDbLine
10
0
20
-12.4625
30
0
11
0
21
12.4625
31
0
39
0
210
0
220
0
230
1
0
LINE
5
BC
100
AcDbEntity
8
SK1
62
256
6
ByLayer
370
18
48
1
60
0
100
AcDbLine
10
-0.603314
20
12.4625
30
0
11
0
21
12.4625
31
0
39
0
210
0
220
0
230
1
0
LINE
5
BD
100
AcDbEntity
8
SK1
62
256
6
ByLayer
370
18
48
1
60
0
100
AcDbLine
10
-0.603314
20
12.4625
30
0
11
-0.603314
21
-12.4625
31
0
39
0
210
0
220
0
230
1
0
LINE
5
BE
100
AcDbEntity
8
1
62
256
6
ByLayer
370
18
48
1
60
0
100
AcDbLine
10
24.407668
20
-6.829462
30
0
11
29.492254
21
4.24757
31
0
39
0
210
0
220
0
230
1
0
LINE
5
BF
100
AcDbEntity
8
1
62
256
6
ByLayer
370
18
48
1
60
0
100
AcDbLine
10
0
20
-12.4625
30
0
11
0
21
12.4625
31
0
39
0
210
0
220
0
230
1
0
LINE
5
C0
100
AcDbEntity
8
1
62
256
6
ByLayer
370
18
48
1
60
0
100
AcDbLine
10
15.042488
20
-0.632695
30
0
11
14.830356
21
-0.420563
31
0
39
0
210
0
220
0
230
1
0
LINE
5
C1
100
AcDbEntity
8
1
62
256
6
ByLayer
370
18
48
1
60
0
100
AcDbLine
10
12.129619
20
-12.4625
30
0
11
17.480651
21
-12.4625
31
0
39
0
210
0
220
0
230
1
0
LINE
5
C2
100
AcDbEntity
8
1
62
256
6
ByLayer
370
18
48
1
60
0
100
AcDbLine
10
29.435509
20
4.578869
30
0
11
29.49695
21
4.449118
31
0
39
0
210
0
220
0
230
1
0
LINE
5
C3
100
AcDbEntity
8
1
62
256
6
ByLayer
370
18
48
1
60
0
100
AcDbLine
10
0.996686
20
12.4625
30
0
11
0.882104
21
12.4625
31
0
39
0
210
0
220
0
230
1
0
LINE
5
C4
100
AcDbEntity
8
1
62
256
6
ByLayer
370
18
48
1
60
0
100
AcDbLine
10
0
20
12.4625
30
0
11
0.882104
21
12.4625
31
0
39
0
210
0
220
0
230
1
0
LINE
5
C5
100
AcDbEntity
8
1
62
256
6
ByLayer
370
18
48
1
60
0
100
AcDbLine
10
1.516595
20
-12.4625
30
0
11
0.942167
21
9.809066
31
0
39
0
210
0
220
0
230
1
0
LINE
5
C6
100
AcDbEntity
8
1
62
256
6
ByLayer
370
18
48
1
60
0
100
AcDbLine
10
0.942167
20
-12.4625
30
0
11
0.942167
21
9.809066
31
0
39
0
210
0
220
0
230
1
0
LINE
5
C7
100
AcDbEntity
8
1
62
256
6
ByLayer
370
18
48
1
60
0
100
AcDbLine
10
20.012877
20
14.182201
30
0
11
20.115537
21
13.965404
31
0
39
0
210
0
220
0
230
1
0
LINE
5
C8
100
AcDbEntity
8
1
62
256
6
ByLayer
370
18
48
1
60
0
100
AcDbLine
10
0.942167
20
-12.4625
30
0
11
1.516595
21
-12.4625
31
0
39
0
210
0
220
0
230
1
0
LINE
5
C9
100
AcDbEntity
8
1
62
256
6
ByLayer
370
18
48
1
60
0
100
AcDbLine
10
0
20
-12.4625
30
0
11
0.942167
21
-12.4625
31
0
39
0
210
0
220
0
230
1
0
LINE
5
CA
100
AcDbEntity
8
1
62
256
6
ByLayer
370
18
48
1
60
0
100
AcDbLine
10
12.129619
20
-12.4625
30
0
11
7.791165
21
-12.4625
31
0
39
0
210
0
220
0
230
1
0
LINE
5
CB
100
AcDbEntity
8
1
62
256
6
ByLayer
370
18
48
1
60
0
100
AcDbLine
10
18.113632
20
-0.5314
30
0
11
17.985054
21
-0.659977
31
0
39
0
210
0
220
0
230
1
0
LINE
5
CC
100
AcDbEntity
8
1
62
256
6
ByLayer
370
18
48
1
60
0
100
AcDbLine
10
6.964968
20
-12.4625
30
0
11
1.516595
21
-12.4625
31
0
39
0
210
0
220
0
230
1
0
LINE
5
CD
100
AcDbEntity
8
1
62
256
6
ByLayer
370
18
48
1
60
0
100
AcDbLine
10
7.791165
20
-12.4625
30
0
11
6.964968
21
-12.4625
31
0
39
0
210
0
220
0
230
1
0
LINE
5
CE
100
AcDbEntity
8
1
62
256
6
ByLayer
370
18
48
1
60
0
100
AcDbLine
10
2.542167
20
13.64839
30
0
11
2.672004
21
14.132947
31
0
39
0
210
0
220
0
230
1
0
LINE
5
CF
100
AcDbEntity
8
1
62
256
6
ByLayer
370
18
48
1
60
0
100
AcDbLine
10
17.732767
20
-0.740123
30
0
11
17.545794
21
-0.927097
31
0
39
0
210
0
220
0
230
1
0
LINE
5
D0
100
AcDbEntity
8
1
62
256
6
ByLayer
370
18
48
1
60
0
100
AcDbLine
10
20.280057
20
13.960633
30
0
11
20.240056
21
14.045107
31
0
39
0
210
0
220
0
230
1
0
LINE
5
D1
100
AcDbEntity
8
1
62
256
6
ByLayer
370
18
48
1
60
0
100
AcDbLine
10
17.732767
20
-0.740123
30
0
11
17.855288
21
-0.683884
31
0
39
0
210
0
220
0
230
1
0
LINE
5
D2
100
AcDbEntity
8
1
62
256
6
ByLayer
370
18
48
1
60
0
100
AcDbLine
10
0.906026
20
11.021483
30
0
11
1.518358
21
8.648133
31
0
39
0
210
0
220
0
230
1
0
LINE
5
D3
100
AcDbEntity
8
1
62
256
6
ByLayer
370
18
48
1
60
0
100
AcDbLine
10
3.893747
20
-0.558689
30
0
11
6.964968
21
-12.4625
31
0
39
0
210
0
220
0
230
1
0
LINE
5
D4
100
AcDbEntity
8
1
62
256
6
ByLayer
370
18
48
1
60
0
100
AcDbLine
10
18.596649
20
-12.4625
30
0
11
17.480651
21
-12.4625
31
0
39
0
210
0
220
0
230
1
0
LINE
5
D5
100
AcDbEntity
8
1
62
256
6
ByLayer
370
18
48
1
60
0
100
AcDbLine
10
7.791165
20
-12.4625
30
0
11
5.051052
21
-1.842034
31
0
39
0
210
0
220
0
230
1
0
LINE
5
D6
100
AcDbEntity
8
1
62
256
6
ByLayer
370
18
48
1
60
0
100
AcDbLine
10
1.916833
20
10.30595
30
0
11
1.350232
21
12.50205
31
0
39
0
210
0
220
0
230
1
0
LINE
5
D7
100
AcDbEntity
8
1
62
256
6
ByLayer
370
18
48
1
60
0
100
AcDbLine
10
5.271886
20
14.182003
30
0
11
13.749831
21
14.182003
31
0
39
0
210
0
220
0
230
1
0
LINE
5
D8
100
AcDbEntity
8
1
62
256
6
ByLayer
370
18
48
1
60
0
100
AcDbLine
10
17.156382
20
14.182003
30
0
11
19.956284
21
14.182003
31
0
39
0
210
0
220
0
230
1
0
LINE
5
D9
100
AcDbEntity
8
1
62
256
6
ByLayer
370
18
48
1
60
0
100
AcDbLine
10
5.255249
20
14.182016
30
0
11
5.686938
21
12.508824
31
0
39
0
210
0
220
0
230
1
0
LINE
5
DA
100
AcDbEntity
8
1
62
256
6
ByLayer
370
18
48
1
60
0
100
AcDbLine
10
9.2774
20
-1.407524
30
0
11
12.129619
21
-12.4625
31
0
39
0
210
0
220
0
230
1
0
LINE
5
DB
100
AcDbEntity
8
81
62
256
6
ByLayer
370
18
48
1
60
0
100
AcDbLine
10
35
20
19.5375
30
0
11
40
21
19.5375
31
0
39
0
210
0
220
0
230
1
0
LINE
5
DC
100
AcDbEntity
8
80
62
256
6
ByLayer
370
18
48
1
60
0
100
AcDbLine
10
0
20
0
30
0
11
-10
21
0
31
0
39
0
210
0
220
0
230
1
0
LINE
5
DD
100
AcDbEntity
8
1
62
256
6
ByLayer
370
18
48
1
60
0
100
AcDbLine
10
18.596649
20
-12.4625
30
0
11
22.321925
21
-9.353746
31
0
39
0
210
0
220
0
230
1
0
LINE
5
DE
100
AcDbEntity
8
1
62
256
6
ByLayer
370
18
48
1
60
0
100
AcDbLine
10
9.367444
20
10.179481
30
0
11
9.03915
21
9.851187
31
0
39
0
210
0
220
0
230
1
0
LINE
5
DF
100
AcDbEntity
8
1
62
256
6
ByLayer
370
18
48
1
60
0
100
AcDbLine
10
14.696004
20
4.194332
30
0
11
15.024298
21
4.522627
31
0
39
0
210
0
220
0
230
1
0
LINE
5
E0
100
AcDbEntity
8
1
62
256
6
ByLayer
370
18
48
1
60
0
100
AcDbLine
10
11.914195
20
8.397111
30
0
11
12.21777
21
8.700686
31
0
39
0
210
0
220
0
230
1
0
LINE
5
E1
100
AcDbEntity
8
1
62
256
6
ByLayer
370
18
48
1
60
0
100
AcDbLine
10
13.531754
20
7.319932
30
0
11
13.228179
21
7.016357
31
0
39
0
210
0
220
0
230
1
0
LINE
5
E2
100
AcDbEntity
8
1
62
256
6
ByLayer
370
18
48
1
60
0
100
AcDbLine
10
10.790312
20
7.312499
30
0
11
11.093887
21
7.616074
31
0
39
0
210
0
220
0
230
1
0
LINE
5
E3
100
AcDbEntity
8
1
62
256
6
ByLayer
370
18
48
1
60
0
100
AcDbLine
10
12.407872
20
6.23532
30
0
11
12.104296
21
5.931745
31
0
39
0
210
0
220
0
230
1
0
LINE
5
E4
100
AcDbEntity
8
1
62
256
6
ByLayer
370
18
48
1
60
0
100
AcDbLine
10
3.893722
20
11.952059
30
0
11
2.949268
21
11.341867
31
0
39
0
210
0
220
0
230
1
0
LINE
5
E5
100
AcDbEntity
8
1
62
256
6
ByLayer
370
18
48
1
60
0
100
AcDbLine
10
6.576319
20
8.562453
30
0
11
7.127722
21
8.918703
31
0
39
0
210
0
220
0
230
1
0
LINE
5
E6
100
AcDbEntity
8
1
62
256
6
ByLayer
370
13
48
1
60
0
100
AcDbLine
10
29.168805
20
4.857428
30
0
11
29.63349
21
5.322114
31
0
39
0
210
0
220
0
230
1
0
LINE
5
E7
100
AcDbEntity
8
1
62
256
6
ByLayer
370
13
48
1
60
0
100
AcDbLine
10
20.785165
20
14.170439
30
0
11
20.410388
21
13.795663
31
0
39
0
210
0
220
0
230
1
0
LINE
5
E8
100
AcDbEntity
8
2
62
256
6
ByLayer
370
13
48
1
60
0
100
AcDbLine
10
33.27305
20
13.08523
30
0
11
17.127806
21
-21.538357
31
0
39
0
210
0
220
0
230
1
0
LINE
5
EA
100
AcDbEntity
8
2
62
256
6
ByLayer
370
13
48
1
60
0
100
AcDbLine
10
35
20
13.45
30
0
11
35
21
-25.500527
31
0
39
0
210
0
220
0
230
1
0
LINE
5
EB
100
AcDbEntity
8
1
62
256
6
ByLayer
370
13
48
1
60
0
100
AcDbLine
10
18.469619
20
-18.66083
30
0
11
15.244798
21
-18.024517
31
0
39
0
210
0
220
0
230
1
0
LINE
5
EC
100
AcDbEntity
8
1
62
256
6
ByLayer
370
13
48
1
60
0
100
AcDbLine
10
18.469619
20
-18.66083
30
0
11
15.994994
21
-16.497352
31
0
39
0
210
0
220
0
230
1
0
LINE
5
ED
100
AcDbEntity
8
1
62
256
6
ByLayer
370
13
48
1
60
0
100
AcDbLine
10
15.244798
20
-18.024517
30
0
11
15.994994
21
-16.497352
31
0
39
0
210
0
220
0
230
1
0
LINE
5
EE
100
AcDbEntity
8
1
62
256
6
ByLayer
370
13
48
1
60
0
100
AcDbLine
10
35
20
-22.325527
30
0
11
38.15709
21
-21.410572
31
0
39
0
210
0
220
0
230
1
0
LINE
5
EF
100
AcDbEntity
8
1
62
256
6
ByLayer
370
13
48
1
60
0
100
AcDbLine
10
35
20
-22.325527
30
0
11
38.191604
21
-23.1117
31
0
39
0
210
0
220
0
230
1
0
LINE
5
F0
100
AcDbEntity
8
1
62
256
6
ByLayer
370
13
48
1
60
0
100
AcDbLine
10
38.15709
20
-21.410572
30
0
11
38.191604
21
-23.1117
31
0
39
0
210
0
220
0
230
1
0
MTEXT
5
197
100
AcDbEntity
8
2
62
256
6
ByLayer
370
13
48
1
60
0
100
AcDbMText
10
21.861996
20
-18.954711
30
0
210
0
220
0
230
1
1
\W0.7346;25.0
40
4.5
41
0
44
1.084337
50
347.5
71
7
72
5
7
iso_b_vert
0
MTEXT
5
19A
100
AcDbEntity
8
SK6
62
256
6
ByLayer
370
13
48
1
60
0
100
AcDbMText
10
-83.779243
20
-29.232126
30
0
210
0
220
0
230
1
1
\W0.7399;QS-CP-25BR-2525-12B
40
3.5
41
0
44
1.084337
50
0
71
7
72
5
7
iso_b_vert
0
DIMENSION
5
19D
100
AcDbEntity
8
SK2
62
256
6
ByLayer
370
13
48
1
60
0
100
AcDbDimension
2
_U0
10
-84
20
40.0375
30
0
11
-24.5
21
40.0375
31
0
70
32
71
1
72
1
41
1
210
0
220
0
230
1
3
Standard
100
AcDbAlignedDimension
13
35
23
19.5375
33
0
14
-84
24
12.4625
34
0
50
0
100
AcDbRotatedDimension
1001
ACAD
1000
DSTYLE
1002
{
1070
   371
1070
    13
1070
   372
1070
    13
1070
     3
1000

1070
   170
1070
     0
1070
   144
1040
1.0
1070
   277
1070
     2
1070
   284
1070
     8
1070
   278
1070
    46
1070
   146
1040
0.777778
1070
   345
1005
16
1070
   347
1005
16
1070
   346
1005
16
1070
   344
1005
19E
1070
   343
1005
19E
1070
   172
1070
     1
1070
    76
1070
     0
1070
    75
1070
     0
1070
   282
1070
     0
1070
   281
1070
     0
1070
    71
1070
     0
1070
    74
1070
     0
1070
   279
1070
     0
1070
   173
1070
     1
1070
   340
1005
198
1070
   271
1070
     1
1070
   272
1070
     2
1070
    77
1070
     1
1070
    73
1070
     1
1070
   171
1070
     3
1070
   274
1070
     4
1070
   177
1070
   150
1070
   176
1070
     9
1070
   178
1070
    43
1070
    78
1070
     8
1070
    48
1040
-0.1
1070
    41
1040
3.175
1070
   147
1040
2.25
1070
    42
1040
1.5875
1070
    44
1040
3.175
1070
   140
1040
4.5
1002
}
1001
ACAD_DSTYLE_DIM_LINETYPE
1070
   380
1005
16
1001
ACAD_DSTYLE_DIM_EXT1_LINETYPE
1070
   381
1005
16
1001
ACAD_DSTYLE_DIM_EXT2_LINETYPE
1070
   382
1005
16
0
DIMENSION
5
1C2
100
AcDbEntity
8
2
62
256
6
ByLayer
370
13
48
1
60
0
100
AcDbDimension
2
_U1
10
35
20
-28.3125
30
0
11
17.5
21
-28.3125
31
0
70
32
71
1
72
1
41
1
210
0
220
0
230
1
3
Standard
100
AcDbAlignedDimension
13
0
23
-12.4625
33
0
14
35
24
19.5375
34
0
50
0
100
AcDbRotatedDimension
1001
ACAD
1000
DSTYLE
1002
{
1070
   371
1070
    13
1070
   372
1070
    13
1070
     3
1000

1070
   170
1070
     0
1070
   144
1040
1.0
1070
   277
1070
     2
1070
   284
1070
     8
1070
   278
1070
    46
1070
   146
1040
0.777778
1070
   345
1005
16
1070
   347
1005
16
1070
   346
1005
16
1070
   344
1005
19E
1070
   343
1005
19E
1070
   172
1070
     1
1070
    76
1070
     0
1070
    75
1070
     0
1070
   282
1070
     0
1070
   281
1070
     0
1070
    71
1070
     0
1070
    74
1070
     0
1070
   279
1070
     0
1070
   173
1070
     1
1070
   340
1005
198
1070
   271
1070
     1
1070
   272
1070
     2
1070
    77
1070
     1
1070
    73
1070
     1
1070
   171
1070
     3
1070
   274
1070
     4
1070
   177
1070
   150
1070
   176
1070
     9
1070
   178
1070
    43
1070
    78
1070
     8
1070
    48
1040
-0.1
1070
    41
1040
3.175
1070
   147
1040
2.25
1070
    42
1040
1.5875
1070
    44
1040
3.175
1070
   140
1040
4.5
1002
}
1001
ACAD_DSTYLE_DIM_LINETYPE
1070
   380
1005
16
1001
ACAD_DSTYLE_DIM_EXT1_LINETYPE
1070
   381
1005
16
1001
ACAD_DSTYLE_DIM_EXT2_LINETYPE
1070
   382
1005
16
0
DIMENSION
5
1DE
100
AcDbEntity
8
SK2
62
256
6
ByLayer
370
13
48
1
60
0
100
AcDbDimension
2
_U2
10
-93.1
20
-12.4625
30
0
11
-93.1
21
0
31
0
70
32
71
1
72
1
41
1
210
0
220
0
230
1
3
Standard
100
AcDbAlignedDimension
13
-84
23
12.4625
33
0
14
-84
24
-12.4625
34
0
50
90
100
AcDbRotatedDimension
1001
ACAD
1000
DSTYLE
1002
{
1070
   371
1070
    13
1070
   372
1070
    13
1070
     3
1000

1070
   170
1070
     0
1070
   144
1040
1.0
1070
   277
1070
     2
1070
   284
1070
     8
1070
   278
1070
    46
1070
   146
1040
0.777778
1070
   345
1005
16
1070
   347
1005
16
1070
   346
1005
16
1070
   344
1005
19E
1070
   343
1005
19E
1070
   172
1070
     1
1070
    76
1070
     0
1070
    75
1070
     0
1070
   282
1070
     0
1070
   281
1070
     0
1070
    71
1070
     0
1070
    74
1070
     0
1070
   279
1070
     0
1070
   173
1070
     1
1070
   340
1005
198
1070
   271
1070
     1
1070
   272
1070
     2
1070
    77
1070
     1
1070
    73
1070
     0
1070
   171
1070
     3
1070
   274
1070
     4
1070
   177
1070
   150
1070
   176
1070
     9
1070
   178
1070
    43
1070
    78
1070
     8
1070
    48
1040
-0.1
1070
    41
1040
3.175
1070
   147
1040
2.25
1070
    42
1040
1.5875
1070
    44
1040
3.175
1070
   140
1040
4.5
1002
}
1001
ACAD_DSTYLE_DIM_LINETYPE
1070
   380
1005
16
1001
ACAD_DSTYLE_DIM_EXT1_LINETYPE
1070
   381
1005
16
1001
ACAD_DSTYLE_DIM_EXT2_LINETYPE
1070
   382
1005
16
0
DIMENSION
5
1FA
100
AcDbEntity
8
2
62
256
6
ByLayer
370
13
48
1
60
0
100
AcDbDimension
2
_U3
10
55.85
20
19.5375
30
0
11
55.85
21
3.5375
31
0
70
32
71
1
72
1
41
1
210
0
220
0
230
1
3
Standard
100
AcDbAlignedDimension
13
0
23
-12.4625
33
0
14
35
24
19.5375
34
0
50
90
100
AcDbRotatedDimension
1001
ACAD
1000
DSTYLE
1002
{
1070
   371
1070
    13
1070
   372
1070
    13
1070
     3
1000

1070
   170
1070
     0
1070
   144
1040
1.0
1070
   277
1070
     2
1070
   284
1070
     8
1070
   278
1070
    46
1070
   146
1040
0.777778
1070
   345
1005
16
1070
   347
1005
16
1070
   346
1005
16
1070
   344
1005
19E
1070
   343
1005
19E
1070
   172
1070
     1
1070
    76
1070
     0
1070
    75
1070
     0
1070
   282
1070
     0
1070
   281
1070
     0
1070
    71
1070
     0
1070
    74
1070
     0
1070
   279
1070
     0
1070
   173
1070
     1
1070
   340
1005
198
1070
   271
1070
     1
1070
   272
1070
     2
1070
    77
1070
     1
1070
    73
1070
     0
1070
   171
1070
     3
1070
   274
1070
     4
1070
   177
1070
   150
1070
   176
1070
     9
1070
   178
1070
    43
1070
    78
1070
     8
1070
    48
1040
-0.1
1070
    41
1040
3.175
1070
   147
1040
2.25
1070
    42
1040
1.5875
1070
    44
1040
3.175
1070
   140
1040
4.5
1002
}
1001
ACAD_DSTYLE_DIM_LINETYPE
1070
   380
1005
16
1001
ACAD_DSTYLE_DIM_EXT1_LINETYPE
1070
   381
1005
16
1001
ACAD_DSTYLE_DIM_EXT2_LINETYPE
1070
   382
1005
16
0
ENDSEC
0
SECTION
2
OBJECTS
0
DICTIONARY
5
285
330
0
100
AcDbDictionary
280
0
281
1
3
ACAD_GROUP
350
286
3
ACAD_MLINESTYLE
350
287
0
DICTIONARY
5
286
330
0
100
AcDbDictionary
280
0
281
1
0
DICTIONARY
5
287
330
0
100
AcDbDictionary
280
0
281
1
3
Standard
350
18
0
MLINESTYLE
5
18
330
287
100
AcDbMlineStyle
2
Standard
70
0
3

62
256
51
90
52
90
71
2
49
-0.5
62
256
6
ByLayer
49
0.5
62
256
6
ByLayer
0
RASTERVARIABLES
5
274
330

100
AcDbRasterVariables
90
0
70
1
71
1
72
1
0
ENDSEC
0
EOF
