0
SECTION
2
HEADER
9
$ACADVER
1
AC1015
9
$DWGCODEPAGE
3
ANSI_1252
9
$HANDSEED
5
2b9
9
$ANGBASE
50
0
9
$ANGDIR
70
0
9
$ATTMODE
70
1
9
$AUNITS
70
0
9
$AUPREC
70
0
9
$CECOLOR
62
256
9
$CELTSCALE
40
1
9
$CELTYPE
6
ByLayer
9
$CELWEIGHT
370
18
9
$CLAYER
8
0
9
$CMLJUST
70
0
9
$CMLSCALE
40
1
9
$CMLSTYLE
2
Standard
9
$DIMSTYLE
2
Standard
9
$TEXTSIZE
40
0.2
9
$TEXTSTYLE
7
Standard
9
$LUNITS
70
2
9
$LUPREC
70
4
9
$EXTNAMES
290
1
9
$INSUNITS
70
4
9
$LTSCALE
40
1
9
$LWDISPLAY
290
1
9
$PDMODE
70
0
9
$PDSIZE
40
0
9
$PLINEGEN
70
0
0
ENDSEC
0
SECTION
2
CLASSES
0
CLASS
1
RASTERVARIABLES
2
AcDbRasterVariables
3
ISM
90
0
280
0
281
0
0
ENDSEC
0
SECTION
2
TABLES
0
TABLE
2
VPORT
5
2af
100
AcDbSymbolTable
0
VPORT
5
1
100
AcDbSymbolTableRecord
100
AcDbViewportTableRecord
2
*Active
70
0
10
0
20
0
11
1
21
1
12
-1
22
1
13
0
23
0
14
0.5
24
0.5
15
10
25
10
16
0
26
0
36
1
17
0
27
0
37
0
0
ENDTAB
0
TABLE
2
LTYPE
5
2b0
100
AcDbSymbolTable
0
LTYPE
5
14
100
AcDbSymbolTableRecord
100
AcDbLinetypeTableRecord
70
0
2
ByBlock
3

72
65
73
0
40
0
0
LTYPE
5
15
100
AcDbSymbolTableRecord
100
AcDbLinetypeTableRecord
70
0
2
ByLayer
3

72
65
73
0
40
0
0
LTYPE
5
16
100
AcDbSymbolTableRecord
100
AcDbLinetypeTableRecord
70
0
2
Continuous
3
Solid line
72
65
73
0
40
0
0
LTYPE
5
6E
100
AcDbSymbolTableRecord
100
AcDbLinetypeTableRecord
70
0
2
CENTER
3
____ _ ____ _ ____ _ ____
72
65
73
4
40
47.5
49
22
74
0
49
-8.5
74
0
49
8.5
74
0
49
-8.5
74
0
0
LTYPE
5
6F
100
AcDbSymbolTableRecord
100
AcDbLinetypeTableRecord
70
0
2
DASHED
3
__ __ __ __ __ __ __ __ __
72
65
73
2
40
25.72
49
12.86
74
0
49
-12.86
74
0
0
ENDTAB
0
TABLE
2
LAYER
5
2b1
100
AcDbSymbolTable
0
LAYER
5
10
100
AcDbSymbolTableRecord
100
AcDbLayerTableRecord
2
0
70
0
62
7
6
Continuous
290
1
370
-3
390
0
0
LAYER
5
71
100
AcDbSymbolTableRecord
100
AcDbLayerTableRecord
2
81
70
0
62
-3
6
Continuous
290
1
370
-3
390
0
0
LAYER
5
73
100
AcDbSymbolTableRecord
100
AcDbLayerTableRecord
2
80
70
0
62
-6
6
Continuous
290
1
370
-3
390
0
0
LAYER
5
75
100
AcDbSymbolTableRecord
100
AcDbLayerTableRecord
2
1
70
0
62
4
6
Continuous
290
1
370
-3
390
0
0
LAYER
5
EE
100
AcDbSymbolTableRecord
100
AcDbLayerTableRecord
2
4
70
0
62
-2
6
CENTER
290
1
370
-3
390
0
0
LAYER
5
F3
100
AcDbSymbolTableRecord
100
AcDbLayerTableRecord
2
2
70
0
62
7
6
Continuous
290
1
370
-3
390
0
0
LAYER
5
1E8
100
AcDbSymbolTableRecord
100
AcDbLayerTableRecord
2
Defpoints
70
0
62
7
6
Continuous
290
0
370
-3
390
0
0
LAYER
5
29b
100
AcDbSymbolTableRecord
100
AcDbLayerTableRecord
2
SK1
70
0
62
4
6
Continuous
290
1
370
-3
390
0
0
LAYER
5
29c
100
AcDbSymbolTableRecord
100
AcDbLayerTableRecord
2
SK4
70
0
62
2
6
CENTER
290
1
370
-3
390
0
0
LAYER
5
29d
100
AcDbSymbolTableRecord
100
AcDbLayerTableRecord
2
SK6
70
0
62
5
6
Continuous
290
1
370
-3
390
0
0
LAYER
5
29e
100
AcDbSymbolTableRecord
100
AcDbLayerTableRecord
2
SK2
70
0
62
7
6
Continuous
290
1
370
-3
390
0
0
ENDTAB
0
TABLE
2
STYLE
5
2b2
100
AcDbSymbolTable
0
STYLE
5
11
100
AcDbSymbolTableRecord
100
AcDbTextStyleTableRecord
2
Standard
3
txt
70
0
71
0
40
0
41
1
42
0
50
0
0
STYLE
5
1D9
100
AcDbSymbolTableRecord
100
AcDbTextStyleTableRecord
2
iso_b_vert
3
simplex.shx
70
0
71
0
40
0
41
1
42
0
50
0
0
STYLE
5
1DA
100
AcDbSymbolTableRecord
100
AcDbTextStyleTableRecord
2
DWGDirectTextStyle
3
simplex
70
0
71
0
40
0
41
1
42
0
50
0
0
ENDTAB
0
TABLE
2
DIMSTYLE
5
2b3
100
AcDbSymbolTable
100
AcDbDimStyleTable
0
DIMSTYLE
105
27
100
AcDbSymbolTableRecord
100
AcDbDimStyleTableRecord
2
Standard
70
0
3
<>
41
0.18
42
0.0625
44
0.18
140
0.18
147
0.09
73
0
74
0
77
1
271
2
275
0
278
52
280
0
340
11
0
ENDTAB
0
TABLE
2
VIEW
5
2b4
100
AcDbSymbolTable
0
ENDTAB
0
TABLE
2
UCS
5
2b5
100
AcDbSymbolTable
0
ENDTAB
0
TABLE
2
APPID
5
2b6
100
AcDbSymbolTable
0
APPID
5
12
100
AcDbSymbolTableRecord
100
AcDbRegAppTableRecord
2
ACAD
70
0
0
APPID
5
1DD
100
AcDbSymbolTableRecord
100
AcDbRegAppTableRecord
2
ACAD_DSTYLE_DIMBREAK
70
0
0
APPID
5
25A
100
AcDbSymbolTableRecord
100
AcDbRegAppTableRecord
2
ACAD_DSTYLE_DIM_LINETYPE
70
0
0
APPID
5
25B
100
AcDbSymbolTableRecord
100
AcDbRegAppTableRecord
2
ACAD_DSTYLE_DIM_EXT1_LINETYPE
70
0
0
APPID
5
25C
100
AcDbSymbolTableRecord
100
AcDbRegAppTableRecord
2
ACAD_DSTYLE_DIM_EXT2_LINETYPE
70
0
0
APPID
5
297
100
AcDbSymbolTableRecord
100
AcDbRegAppTableRecord
2
ACAD_MLEADERVER
70
0
0
ENDTAB
0
TABLE
2
BLOCK_RECORD
5
2b7
100
AcDbSymbolTable
0
BLOCK_RECORD
5
1F
100
AcDbSymbolTableRecord
100
AcDbBlockTableRecord
2
*Model_Space
340
0
70
0
0
BLOCK_RECORD
5
1B
100
AcDbSymbolTableRecord
100
AcDbBlockTableRecord
2
*Paper_Space
340
0
70
0
0
BLOCK_RECORD
5
23
100
AcDbSymbolTableRecord
100
AcDbBlockTableRecord
2
*Paper_Space0
340
0
70
0
0
BLOCK_RECORD
5
1DF
100
AcDbSymbolTableRecord
100
AcDbBlockTableRecord
2
_Closed
340
0
70
0
0
BLOCK_RECORD
5
1E9
100
AcDbSymbolTableRecord
100
AcDbBlockTableRecord
2
*D2
340
0
70
0
0
BLOCK_RECORD
5
1F5
100
AcDbSymbolTableRecord
100
AcDbBlockTableRecord
2
_U0
340
0
70
0
0
BLOCK_RECORD
5
205
100
AcDbSymbolTableRecord
100
AcDbBlockTableRecord
2
*D4
340
0
70
0
0
BLOCK_RECORD
5
212
100
AcDbSymbolTableRecord
100
AcDbBlockTableRecord
2
_U1
340
0
70
0
0
BLOCK_RECORD
5
223
100
AcDbSymbolTableRecord
100
AcDbBlockTableRecord
2
*D6
340
0
70
0
0
BLOCK_RECORD
5
22F
100
AcDbSymbolTableRecord
100
AcDbBlockTableRecord
2
_U2
340
0
70
0
0
ENDTAB
0
ENDSEC
0
SECTION
2
BLOCKS
0
BLOCK
5
20
100
AcDbEntity
8
0
100
AcDbBlockBegin
2
*Model_Space
70
0
10
0
20
0
30
0
3
*Model_Space
0
ENDBLK
5
21
100
AcDbEntity
8
0
100
AcDbBlockEnd
0
BLOCK
5
1C
100
AcDbEntity
8
0
100
AcDbBlockBegin
2
*Paper_Space
70
0
10
0
20
0
30
0
3
*Paper_Space
0
ENDBLK
5
1D
100
AcDbEntity
8
0
100
AcDbBlockEnd
0
BLOCK
5
24
100
AcDbEntity
8
0
100
AcDbBlockBegin
2
*Paper_Space0
70
0
10
0
20
0
30
0
3
*Paper_Space0
0
ENDBLK
5
25
100
AcDbEntity
8
0
100
AcDbBlockEnd
0
BLOCK
5
1E0
100
AcDbEntity
8
0
100
AcDbBlockBegin
2
_Closed
70
0
10
0
20
0
30
0
3
_Closed
0
LINE
5
1E2
100
AcDbEntity
8
0
62
256
6
ByLayer
370
-2
48
1
60
0
100
AcDbLine
10
-1
20
0.166667
30
0
11
0
21
0
31
0
39
0
210
0
220
0
230
1
0
LINE
5
1E3
100
AcDbEntity
8
0
62
256
6
ByLayer
370
-2
48
1
60
0
100
AcDbLine
10
0
20
0
30
0
11
-1
21
-0.166667
31
0
39
0
210
0
220
0
230
1
0
LINE
5
1E4
100
AcDbEntity
8
0
62
256
6
ByLayer
370
-2
48
1
60
0
100
AcDbLine
10
-1
20
0.166667
30
0
11
-1
21
-0.166667
31
0
39
0
210
0
220
0
230
1
0
LINE
5
1E5
100
AcDbEntity
8
0
62
256
6
ByLayer
370
-2
48
1
60
0
100
AcDbLine
10
0
20
0
30
0
11
-1
21
0
31
0
39
0
210
0
220
0
230
1
0
ENDBLK
5
1E1
100
AcDbEntity
8
0
100
AcDbBlockEnd
0
BLOCK
5
1EA
100
AcDbEntity
8
0
100
AcDbBlockBegin
2
*D2
70
1
10
0
20
0
30
0
3
*D2
0
LINE
5
1EC
100
AcDbEntity
8
0
62
256
6
ByLayer
370
-2
48
1
60
0
100
AcDbLine
10
0
20
-21.5875
30
0
11
0
21
-56.675
31
0
39
0
210
0
220
0
230
1
0
LINE
5
1ED
100
AcDbEntity
8
0
62
256
6
ByLayer
370
-2
48
1
60
0
100
AcDbLine
10
60
20
-28.5875
30
0
11
60
21
-56.675
31
0
39
0
210
0
220
0
230
1
0
LINE
5
1EE
100
AcDbEntity
8
0
62
256
6
ByLayer
370
-2
48
1
60
0
100
AcDbLine
10
3.175
20
-53.5
30
0
11
56.825
21
-53.5
31
0
39
0
210
0
220
0
230
1
0
SOLID
5
1EF
100
AcDbEntity
8
0
62
256
6
ByLayer
370
-1
48
1
60
0
100
AcDbTrace
10
3.175
20
-52.970833
30
0
11
3.175
21
-54.029167
31
0
12
0
22
-53.5
32
0
13
0
23
-53.5
33
0
39
0
210
0
220
0
230
1
0
SOLID
5
1F0
100
AcDbEntity
8
0
62
256
6
ByLayer
370
-1
48
1
60
0
100
AcDbTrace
10
56.825
20
-54.029167
30
0
11
56.825
21
-52.970833
31
0
12
60
22
-53.5
32
0
13
60
23
-53.5
33
0
39
0
210
0
220
0
230
1
0
MTEXT
5
1F1
100
AcDbEntity
8
0
62
256
6
ByLayer
370
18
48
1
60
0
100
AcDbMText
10
30
20
-44.10625
30
0
210
0
220
0
230
1
1
\A1;60
40
4.5
41
0
44
1
50
0
71
5
72
5
7
iso_b_vert
0
POINT
5
1F2
100
AcDbEntity
8
Defpoints
62
0
6
ByLayer
370
-1
48
1
60
0
100
AcDbPoint
10
0
20
-20
30
0
39
0
210
0
220
0
230
1
50
360
0
POINT
5
1F3
100
AcDbEntity
8
Defpoints
62
0
6
ByLayer
370
-1
48
1
60
0
100
AcDbPoint
10
60
20
-27
30
0
39
0
210
0
220
0
230
1
50
360
0
POINT
5
1F4
100
AcDbEntity
8
Defpoints
62
0
6
ByLayer
370
-1
48
1
60
0
100
AcDbPoint
10
60
20
-53.5
30
0
39
0
210
0
220
0
230
1
50
360
0
ENDBLK
5
1EB
100
AcDbEntity
8
0
100
AcDbBlockEnd
0
BLOCK
5
200
100
AcDbEntity
8
0
100
AcDbBlockBegin
2
_U0
70
0
10
0
20
0
30
0
3
_U0
0
MTEXT
5
1F6
100
AcDbEntity
8
2
62
256
6
ByLayer
370
13
48
1
60
0
100
AcDbMText
10
24.957816
20
-52.172328
30
0
210
0
220
0
230
1
1
\W0.7346;60.0
40
4.5
41
0
44
1.084337
50
0
71
7
72
5
7
iso_b_vert
0
LINE
5
1F7
100
AcDbEntity
8
2
62
256
6
ByLayer
370
13
48
1
60
0
100
AcDbLine
10
0
20
-21.5875
30
0
11
0
21
-56.675
31
0
39
0
210
0
220
0
230
1
0
LINE
5
1F8
100
AcDbEntity
8
2
62
256
6
ByLayer
370
13
48
1
60
0
100
AcDbLine
10
60
20
-28.5875
30
0
11
60
21
-56.675
31
0
39
0
210
0
220
0
230
1
0
LINE
5
1F9
100
AcDbEntity
8
2
62
256
6
ByLayer
370
13
48
1
60
0
100
AcDbLine
10
0
20
-53.5
30
0
11
60
21
-53.5
31
0
39
0
210
0
220
0
230
1
0
LINE
5
1FA
100
AcDbEntity
8
2
62
256
6
ByLayer
370
13
48
1
60
0
100
AcDbLine
10
0
20
-53.5
30
0
11
3.174997
21
-52.649261
31
0
39
0
210
0
220
0
230
1
0
LINE
5
1FB
100
AcDbEntity
8
2
62
256
6
ByLayer
370
13
48
1
60
0
100
AcDbLine
10
0
20
-53.5
30
0
11
3.175003
21
-54.350739
31
0
39
0
210
0
220
0
230
1
0
LINE
5
1FC
100
AcDbEntity
8
2
62
256
6
ByLayer
370
13
48
1
60
0
100
AcDbLine
10
3.174997
20
-52.649261
30
0
11
3.175003
21
-54.350739
31
0
39
0
210
0
220
0
230
1
0
LINE
5
1FD
100
AcDbEntity
8
2
62
256
6
ByLayer
370
13
48
1
60
0
100
AcDbLine
10
60
20
-53.5
30
0
11
56.825003
21
-54.350739
31
0
39
0
210
0
220
0
230
1
0
LINE
5
1FE
100
AcDbEntity
8
2
62
256
6
ByLayer
370
13
48
1
60
0
100
AcDbLine
10
60
20
-53.5
30
0
11
56.824997
21
-52.649261
31
0
39
0
210
0
220
0
230
1
0
LINE
5
1FF
100
AcDbEntity
8
2
62
256
6
ByLayer
370
13
48
1
60
0
100
AcDbLine
10
56.825003
20
-54.350739
30
0
11
56.824997
21
-52.649261
31
0
39
0
210
0
220
0
230
1
0
ENDBLK
5
201
100
AcDbEntity
8
0
100
AcDbBlockEnd
0
BLOCK
5
206
100
AcDbEntity
8
0
100
AcDbBlockBegin
2
*D4
70
1
10
0
20
0
30
0
3
*D4
0
LINE
5
208
100
AcDbEntity
8
0
62
256
6
ByLayer
370
-2
48
1
60
0
100
AcDbLine
10
-1.5875
20
20
30
0
11
-37.9
21
20
31
0
39
0
210
0
220
0
230
1
0
LINE
5
209
100
AcDbEntity
8
0
62
256
6
ByLayer
370
-2
48
1
60
0
100
AcDbLine
10
-1.5875
20
-20
30
0
11
-37.9
21
-20
31
0
39
0
210
0
220
0
230
1
0
LINE
5
20A
100
AcDbEntity
8
0
62
256
6
ByLayer
370
-2
48
1
60
0
100
AcDbLine
10
-34.725
20
16.825
30
0
11
-34.725
21
-16.825
31
0
39
0
210
0
220
0
230
1
0
SOLID
5
20B
100
AcDbEntity
8
0
62
256
6
ByLayer
370
-1
48
1
60
0
100
AcDbTrace
10
-34.195833
20
16.825
30
0
11
-35.254167
21
16.825
31
0
12
-34.725
22
20
32
0
13
-34.725
23
20
33
0
39
0
210
0
220
0
230
1
0
SOLID
5
20C
100
AcDbEntity
8
0
62
256
6
ByLayer
370
-1
48
1
60
0
100
AcDbTrace
10
-35.254167
20
-16.825
30
0
11
-34.195833
21
-16.825
31
0
12
-34.725
22
-20
32
0
13
-34.725
23
-20
33
0
39
0
210
0
220
0
230
1
0
MTEXT
5
20D
100
AcDbEntity
8
0
62
256
6
ByLayer
370
18
48
1
60
0
100
AcDbMText
10
-44.11875
20
0
30
0
210
0
220
0
230
1
1
\A1;40
40
4.5
41
0
44
1
50
90
71
5
72
5
7
iso_b_vert
0
POINT
5
20E
100
AcDbEntity
8
Defpoints
62
0
6
ByLayer
370
-1
48
1
60
0
100
AcDbPoint
10
0
20
20
30
0
39
0
210
0
220
0
230
1
50
360
0
POINT
5
20F
100
AcDbEntity
8
Defpoints
62
0
6
ByLayer
370
-1
48
1
60
0
100
AcDbPoint
10
0
20
-20
30
0
39
0
210
0
220
0
230
1
50
360
0
POINT
5
210
100
AcDbEntity
8
Defpoints
62
0
6
ByLayer
370
-1
48
1
60
0
100
AcDbPoint
10
-34.725
20
-20
30
0
39
0
210
0
220
0
230
1
50
360
0
ENDBLK
5
207
100
AcDbEntity
8
0
100
AcDbBlockEnd
0
BLOCK
5
21E
100
AcDbEntity
8
0
100
AcDbBlockBegin
2
_U1
70
0
10
0
20
0
30
0
3
_U1
0
MTEXT
5
213
100
AcDbEntity
8
SK2
62
256
6
ByLayer
370
13
48
1
60
0
100
AcDbMText
10
-36.736672
20
1.434901
30
0
210
0
220
0
230
1
1
\W0.7640;40.0
40
4.5
41
0
44
1.084337
50
90
71
7
72
5
7
iso_b_vert
0
MTEXT
5
214
100
AcDbEntity
8
SK2
62
256
6
ByLayer
370
13
48
1
60
0
100
AcDbMText
10
-36.736672
20
-12.065099
30
0
210
0
220
0
230
1
1
%%c
40
4.5
41
0
44
1.084337
50
90
71
7
72
5
7
iso_b_vert
0
LINE
5
215
100
AcDbEntity
8
SK2
62
256
6
ByLayer
370
13
48
1
60
0
100
AcDbLine
10
-1.5875
20
20
30
0
11
-37.9
21
20
31
0
39
0
210
0
220
0
230
1
0
LINE
5
216
100
AcDbEntity
8
SK2
62
256
6
ByLayer
370
13
48
1
60
0
100
AcDbLine
10
-1.5875
20
-20
30
0
11
-37.9
21
-20
31
0
39
0
210
0
220
0
230
1
0
LINE
5
217
100
AcDbEntity
8
SK2
62
256
6
ByLayer
370
13
48
1
60
0
100
AcDbLine
10
-34.725
20
20
30
0
11
-34.725
21
-20
31
0
39
0
210
0
220
0
230
1
0
LINE
5
218
100
AcDbEntity
8
SK2
62
256
6
ByLayer
370
13
48
1
60
0
100
AcDbLine
10
-34.725
20
20
30
0
11
-33.874261
21
16.825003
31
0
39
0
210
0
220
0
230
1
0
LINE
5
219
100
AcDbEntity
8
SK2
62
256
6
ByLayer
370
13
48
1
60
0
100
AcDbLine
10
-34.725
20
20
30
0
11
-35.575739
21
16.824997
31
0
39
0
210
0
220
0
230
1
0
LINE
5
21A
100
AcDbEntity
8
SK2
62
256
6
ByLayer
370
13
48
1
60
0
100
AcDbLine
10
-33.874261
20
16.825003
30
0
11
-35.575739
21
16.824997
31
0
39
0
210
0
220
0
230
1
0
LINE
5
21B
100
AcDbEntity
8
SK2
62
256
6
ByLayer
370
13
48
1
60
0
100
AcDbLine
10
-34.725
20
-20
30
0
11
-35.575739
21
-16.825003
31
0
39
0
210
0
220
0
230
1
0
LINE
5
21C
100
AcDbEntity
8
SK2
62
256
6
ByLayer
370
13
48
1
60
0
100
AcDbLine
10
-34.725
20
-20
30
0
11
-33.874261
21
-16.824997
31
0
39
0
210
0
220
0
230
1
0
LINE
5
21D
100
AcDbEntity
8
SK2
62
256
6
ByLayer
370
13
48
1
60
0
100
AcDbLine
10
-35.575739
20
-16.825003
30
0
11
-33.874261
21
-16.824997
31
0
39
0
210
0
220
0
230
1
0
ENDBLK
5
21F
100
AcDbEntity
8
0
100
AcDbBlockEnd
0
BLOCK
5
224
100
AcDbEntity
8
0
100
AcDbBlockBegin
2
*D6
70
1
10
0
20
0
30
0
3
*D6
0
LINE
5
226
100
AcDbEntity
8
0
62
256
6
ByLayer
370
-2
48
1
60
0
100
AcDbLine
10
61.5875
20
-27
30
0
11
89.025
21
-27
31
0
39
0
210
0
220
0
230
1
0
LINE
5
227
100
AcDbEntity
8
0
62
256
6
ByLayer
370
-2
48
1
60
0
100
AcDbLine
10
61.5875
20
0
30
0
11
89.025
21
0
31
0
39
0
210
0
220
0
230
1
0
LINE
5
228
100
AcDbEntity
8
0
62
256
6
ByLayer
370
-2
48
1
60
0
100
AcDbLine
10
85.85
20
-23.825
30
0
11
85.85
21
-3.175
31
0
39
0
210
0
220
0
230
1
0
SOLID
5
229
100
AcDbEntity
8
0
62
256
6
ByLayer
370
-1
48
1
60
0
100
AcDbTrace
10
85.320833
20
-23.825
30
0
11
86.379167
21
-23.825
31
0
12
85.85
22
-27
32
0
13
85.85
23
-27
33
0
39
0
210
0
220
0
230
1
0
SOLID
5
22A
100
AcDbEntity
8
0
62
256
6
ByLayer
370
-1
48
1
60
0
100
AcDbTrace
10
86.379167
20
-3.175
30
0
11
85.320833
21
-3.175
31
0
12
85.85
22
0
32
0
13
85.85
23
0
33
0
39
0
210
0
220
0
230
1
0
MTEXT
5
22B
100
AcDbEntity
8
0
62
256
6
ByLayer
370
18
48
1
60
0
100
AcDbMText
10
76.45625
20
-13.5
30
0
210
0
220
0
230
1
1
\A1;27
40
4.5
41
0
44
1
50
90
71
5
72
5
7
iso_b_vert
0
POINT
5
22C
100
AcDbEntity
8
Defpoints
62
0
6
ByLayer
370
-1
48
1
60
0
100
AcDbPoint
10
60
20
-27
30
0
39
0
210
0
220
0
230
1
50
360
0
POINT
5
22D
100
AcDbEntity
8
Defpoints
62
0
6
ByLayer
370
-1
48
1
60
0
100
AcDbPoint
10
60
20
0
30
0
39
0
210
0
220
0
230
1
50
360
0
POINT
5
22E
100
AcDbEntity
8
Defpoints
62
0
6
ByLayer
370
-1
48
1
60
0
100
AcDbPoint
10
85.85
20
0
30
0
39
0
210
0
220
0
230
1
50
360
0
ENDBLK
5
225
100
AcDbEntity
8
0
100
AcDbBlockEnd
0
BLOCK
5
23A
100
AcDbEntity
8
0
100
AcDbBlockBegin
2
_U2
70
0
10
0
20
0
30
0
3
_U2
0
MTEXT
5
230
100
AcDbEntity
8
2
62
256
6
ByLayer
370
13
48
1
60
0
100
AcDbMText
10
84.963328
20
-18.578184
30
0
210
0
220
0
230
1
1
\W0.7346;27.0
40
4.5
41
0
44
1.084337
50
90
71
7
72
5
7
iso_b_vert
0
LINE
5
231
100
AcDbEntity
8
2
62
256
6
ByLayer
370
13
48
1
60
0
100
AcDbLine
10
61.5875
20
-27
30
0
11
89.025
21
-27
31
0
39
0
210
0
220
0
230
1
0
LINE
5
232
100
AcDbEntity
8
2
62
256
6
ByLayer
370
13
48
1
60
0
100
AcDbLine
10
61.5875
20
0
30
0
11
89.025
21
0
31
0
39
0
210
0
220
0
230
1
0
LINE
5
233
100
AcDbEntity
8
2
62
256
6
ByLayer
370
13
48
1
60
0
100
AcDbLine
10
85.85
20
-27
30
0
11
85.85
21
0
31
0
39
0
210
0
220
0
230
1
0
LINE
5
234
100
AcDbEntity
8
2
62
256
6
ByLayer
370
13
48
1
60
0
100
AcDbLine
10
85.85
20
-27
30
0
11
84.999261
21
-23.825003
31
0
39
0
210
0
220
0
230
1
0
LINE
5
235
100
AcDbEntity
8
2
62
256
6
ByLayer
370
13
48
1
60
0
100
AcDbLine
10
85.85
20
-27
30
0
11
86.700739
21
-23.824997
31
0
39
0
210
0
220
0
230
1
0
LINE
5
236
100
AcDbEntity
8
2
62
256
6
ByLayer
370
13
48
1
60
0
100
AcDbLine
10
84.999261
20
-23.825003
30
0
11
86.700739
21
-23.824997
31
0
39
0
210
0
220
0
230
1
0
LINE
5
237
100
AcDbEntity
8
2
62
256
6
ByLayer
370
13
48
1
60
0
100
AcDbLine
10
85.85
20
0
30
0
11
86.700739
21
-3.174997
31
0
39
0
210
0
220
0
230
1
0
LINE
5
238
100
AcDbEntity
8
2
62
256
6
ByLayer
370
13
48
1
60
0
100
AcDbLine
10
85.85
20
0
30
0
11
84.999261
21
-3.175003
31
0
39
0
210
0
220
0
230
1
0
LINE
5
239
100
AcDbEntity
8
2
62
256
6
ByLayer
370
13
48
1
60
0
100
AcDbLine
10
86.700739
20
-3.174997
30
0
11
84.999261
21
-3.175003
31
0
39
0
210
0
220
0
230
1
0
ENDBLK
5
23B
100
AcDbEntity
8
0
100
AcDbBlockEnd
0
ENDSEC
0
SECTION
2
ENTITIES
0
ARC
5
FB
100
AcDbEntity
8
SK1
62
256
6
ByLayer
370
18
48
1
60
0
100
AcDbCircle
39
0
10
-0.6
20
15
30
0
40
0.999999999999994
210
0
220
0
230
1
100
AcDbArc
50
293.578178
51
306.869898
0
ARC
5
FC
100
AcDbEntity
8
SK1
62
256
6
ByLayer
370
18
48
1
60
0
100
AcDbCircle
39
0
10
-0.6
20
-15
30
0
40
0.999999999999994
210
0
220
0
230
1
100
AcDbArc
50
53.130102
51
66.421822
0
ARC
5
FD
100
AcDbEntity
8
1
62
256
6
ByLayer
370
18
48
1
60
0
100
AcDbCircle
39
0
10
20
20
-26.15
30
0
40
6
210
0
220
0
230
1
100
AcDbArc
50
61.859279
51
80.518554
0
ARC
5
FE
100
AcDbEntity
8
1
62
256
6
ByLayer
370
18
48
1
60
0
100
AcDbCircle
39
0
10
20.279208
20
-21.2
30
0
40
1.2
210
0
220
0
230
1
100
AcDbArc
50
53.774268
51
90
0
ARC
5
FF
100
AcDbEntity
8
2
62
256
6
ByLayer
370
13
48
1
60
0
100
AcDbCircle
39
0
10
60
20
-24.251187
30
0
40
25.1754434076159
210
0
220
0
230
1
100
AcDbArc
50
90
51
115
0
ELLIPSE
5
100
100
AcDbEntity
8
1
62
256
6
ByLayer
370
18
48
1
60
0
100
AcDbEllipse
10
37.312821
20
-14.930503
30
0
11
-0.830850467894207
21
-0.830850467894179
31
0
210
0
220
0
230
1
40
0.981627
41
-1.61658688597364
42
-1.49009918257624
0
ELLIPSE
5
101
100
AcDbEntity
8
1
62
256
6
ByLayer
370
18
48
1
60
0
100
AcDbEllipse
10
37.312821
20
-14.930503
30
0
11
-0.830850467894207
21
-0.830850467894179
31
0
210
0
220
0
230
1
40
0.981627
41
-2.66378443717024
42
-2.53729673377285
0
ELLIPSE
5
102
100
AcDbEntity
8
1
62
256
6
ByLayer
370
18
48
1
60
0
100
AcDbEllipse
10
38.436704
20
-16.015115
30
0
11
-0.300520382004288
21
-0.300520382004278
31
0
210
0
220
0
230
1
40
0.981627
41
-2.44721520326916
42
-1.72897875282336
0
ELLIPSE
5
103
100
AcDbEntity
8
1
62
256
6
ByLayer
370
18
48
1
60
0
100
AcDbEllipse
10
35.793367
20
-15.379095
30
0
11
-0.300520382004288
21
-0.300520382004278
31
0
210
0
220
0
230
1
40
0.981627
41
2.81108288905991
42
-2.75386596767395
0
ELLIPSE
5
104
100
AcDbEntity
8
1
62
256
6
ByLayer
370
18
48
1
60
0
100
AcDbEllipse
10
36.981156
20
-13.73838
30
0
11
0.268700576850892
21
0.268700576850884
31
0
210
0
220
0
230
1
40
0.981627
41
-0.352820100875947
42
2.48212178830905
0
ELLIPSE
5
105
100
AcDbEntity
8
1
62
256
6
ByLayer
370
18
48
1
60
0
100
AcDbEllipse
10
36.188938
20
-13.845891
30
0
11
-0.300520382004288
21
-0.300520382004278
31
0
210
0
220
0
230
1
40
0.981627
41
0.694377450320665
42
1.41261390076643
0
ELLIPSE
5
106
100
AcDbEntity
8
1
62
256
6
ByLayer
370
18
48
1
60
0
100
AcDbEllipse
10
38.436704
20
-16.015115
30
0
11
-0.300520382004288
21
-0.300520382004278
31
0
210
0
220
0
230
1
40
0.981627
41
-1.3777073157265
42
-0.659470865280763
0
ELLIPSE
5
107
100
AcDbEntity
8
1
62
256
6
ByLayer
370
18
48
1
60
0
100
AcDbEllipse
10
37.312821
20
-14.930503
30
0
11
-0.830850467894207
21
-0.830850467894179
31
0
210
0
220
0
230
1
40
0.981627
41
0.477808216419562
42
0.604295919816958
0
ELLIPSE
5
108
100
AcDbEntity
8
1
62
256
6
ByLayer
370
18
48
1
60
0
100
AcDbEllipse
10
37.195871
20
-14.813554
30
0
11
2.82842712474623
21
2.82842712474615
31
0
210
0
220
0
230
1
40
0.981627
41
0
42
6.28318530717959
0
ELLIPSE
5
109
100
AcDbEntity
8
1
62
256
6
ByLayer
370
18
48
1
60
0
100
AcDbEllipse
10
37.312821
20
-14.930503
30
0
11
-1.62634559672908
21
-1.62634559672903
31
0
210
0
220
0
230
1
40
0.981627
41
0
42
6.28318530717959
0
ELLIPSE
5
10A
100
AcDbEntity
8
1
62
256
6
ByLayer
370
18
48
1
60
0
100
AcDbEllipse
10
37.644486
20
-16.122627
30
0
11
0.268700576850892
21
0.268700576850884
31
0
210
0
220
0
230
1
40
0.981627
41
2.78877255271387
42
-0.659470865280753
0
ELLIPSE
5
10B
100
AcDbEntity
8
1
62
256
6
ByLayer
370
18
48
1
60
0
100
AcDbEllipse
10
36.188938
20
-13.845891
30
0
11
-0.300520382004288
21
-0.300520382004278
31
0
210
0
220
0
230
1
40
0.981627
41
1.76388533786333
42
2.48212178830904
0
ELLIPSE
5
10C
100
AcDbEntity
8
1
62
256
6
ByLayer
370
18
48
1
60
0
100
AcDbEllipse
10
36.917249
20
-16.463707
30
0
11
-0.300520382004288
21
-0.300520382004278
31
0
210
0
220
0
230
1
40
0.981627
41
-2.4249048669231
42
-1.70666841647732
0
ELLIPSE
5
10D
100
AcDbEntity
8
1
62
256
6
ByLayer
370
18
48
1
60
0
100
AcDbEllipse
10
36.109075
20
-14.640867
30
0
11
0.268700576850892
21
0.268700576850884
31
0
210
0
220
0
230
1
40
0.981627
41
0.694377450320674
42
-2.75386596767393
0
ELLIPSE
5
10E
100
AcDbEntity
8
1
62
256
6
ByLayer
370
18
48
1
60
0
100
AcDbEllipse
10
36.44074
20
-15.83299
30
0
11
0.268700576850892
21
0.268700576850884
31
0
210
0
220
0
230
1
40
0.981627
41
1.74157500151724
42
-1.70666841647737
0
ELLIPSE
5
10F
100
AcDbEntity
8
1
62
256
6
ByLayer
370
18
48
1
60
0
100
AcDbEllipse
10
38.832275
20
-14.481912
30
0
11
-0.300520382004288
21
-0.300520382004278
31
0
210
0
220
0
230
1
40
0.981627
41
-1.40001765207254
42
-0.681781201626754
0
ELLIPSE
5
110
100
AcDbEntity
8
1
62
256
6
ByLayer
370
18
48
1
60
0
100
AcDbEllipse
10
38.832275
20
-14.481912
30
0
11
-0.300520382004288
21
-0.300520382004278
31
0
210
0
220
0
230
1
40
0.981627
41
-0.330509764529912
42
0.387726685915855
0
ELLIPSE
5
111
100
AcDbEntity
8
1
62
256
6
ByLayer
370
18
48
1
60
0
100
AcDbEllipse
10
38.184902
20
-14.028016
30
0
11
0.268700576850892
21
0.268700576850884
31
0
210
0
220
0
230
1
40
0.981627
41
-1.40001765207255
42
1.43492423711244
0
ELLIPSE
5
112
100
AcDbEntity
8
1
62
256
6
ByLayer
370
18
48
1
60
0
100
AcDbEllipse
10
37.708392
20
-13.3973
30
0
11
-0.300520382004288
21
-0.300520382004278
31
0
210
0
220
0
230
1
40
0.981627
41
-0.352820100875953
42
0.365416349569807
0
ELLIPSE
5
113
100
AcDbEntity
8
1
62
256
6
ByLayer
370
18
48
1
60
0
100
AcDbEllipse
10
38.133128
20
-15.71154
30
0
11
0.300520382004287
21
0.300520382004279
31
0
210
0
220
0
230
1
40
0.981627
41
0.694377450320685
42
2.48212178830903
0
ELLIPSE
5
114
100
AcDbEntity
8
1
62
256
6
ByLayer
370
18
48
1
60
0
100
AcDbEllipse
10
35.793367
20
-15.379095
30
0
11
-0.300520382004288
21
-0.300520382004278
31
0
210
0
220
0
230
1
40
0.981627
41
1.74157500151725
42
2.45981145196299
0
ELLIPSE
5
115
100
AcDbEntity
8
1
62
256
6
ByLayer
370
18
48
1
60
0
100
AcDbEllipse
10
37.312821
20
-14.930503
30
0
11
-0.830850467894207
21
-0.830850467894179
31
0
210
0
220
0
230
1
40
0.981627
41
-0.569389334777052
42
-0.44290163137964
0
ELLIPSE
5
116
100
AcDbEntity
8
1
62
256
6
ByLayer
370
18
48
1
60
0
100
AcDbEllipse
10
37.312821
20
-14.930503
30
0
11
-0.830850467894207
21
-0.830850467894179
31
0
210
0
220
0
230
1
40
0.981627
41
1.52500576761615
42
1.65149347101355
0
ELLIPSE
5
117
100
AcDbEntity
8
1
62
256
6
ByLayer
370
18
48
1
60
0
100
AcDbEllipse
10
36.917249
20
-16.463707
30
0
11
-0.300520382004288
21
-0.300520382004278
31
0
210
0
220
0
230
1
40
0.981627
41
2.78877255271385
42
-2.77617630401999
0
ELLIPSE
5
118
100
AcDbEntity
8
1
62
256
6
ByLayer
370
18
48
1
60
0
100
AcDbEllipse
10
37.312821
20
-14.930503
30
0
11
-0.830850467894207
21
-0.830850467894179
31
0
210
0
220
0
230
1
40
0.981627
41
2.57220331881277
42
2.69869102221015
0
ELLIPSE
5
119
100
AcDbEntity
8
1
62
256
6
ByLayer
370
18
48
1
60
0
100
AcDbEllipse
10
38.516566
20
-15.22014
30
0
11
0.268700576850892
21
0.268700576850884
31
0
210
0
220
0
230
1
40
0.981627
41
-2.44721520326912
42
0.387726685915869
0
ELLIPSE
5
11A
100
AcDbEntity
8
1
62
256
6
ByLayer
370
18
48
1
60
0
100
AcDbEllipse
10
37.708392
20
-13.3973
30
0
11
-0.300520382004288
21
-0.300520382004278
31
0
210
0
220
0
230
1
40
0.981627
41
0.716687786666667
42
1.43492423711246
0
ELLIPSE
5
11B
100
AcDbEntity
8
1
62
256
6
ByLayer
370
18
48
1
60
0
100
AcDbEllipse
10
35.05469
20
-8.81834
30
0
11
5.26424583682535
21
-1.6094466331282
31
0
210
0
220
0
230
1
40
0.333606
41
-2.55278516584607
42
-2.49979286167289
0
ELLIPSE
5
11C
100
AcDbEntity
8
1
62
256
6
ByLayer
370
18
48
1
60
0
100
AcDbEllipse
10
28.085635
20
-4.834504
30
0
11
-6.77804186487916
21
1.74875626602034
31
0
210
0
220
0
230
1
40
0.098274
41
-2.31326772524346
42
-2.29848668850348
0
ELLIPSE
5
11D
100
AcDbEntity
8
1
62
256
6
ByLayer
370
18
48
1
60
0
100
AcDbEllipse
10
32.300351
20
-19.958798
30
0
11
3.44677623534627
21
-0.648229502667256
31
0
210
0
220
0
230
1
40
0.271328
41
2.49645499687739
42
-3.06351220390301
0
ELLIPSE
5
11E
100
AcDbEntity
8
1
62
256
6
ByLayer
370
18
48
1
60
0
100
AcDbEllipse
10
33.216038
20
-15.944812
30
0
11
-5.32560432240506
21
1.37402278044455
31
0
210
0
220
0
230
1
40
0.098274
41
0.747405605644238
42
1.18917334493027
0
ELLIPSE
5
11F
100
AcDbEntity
8
1
62
256
6
ByLayer
370
18
48
1
60
0
100
AcDbEllipse
10
29.506776
20
-16.238978
30
0
11
2.51880211996857
21
1.64437782656746
31
0
210
0
220
0
230
1
40
0.983715
41
2.31890721804525
42
-2.91258902607037
0
ELLIPSE
5
120
100
AcDbEntity
8
1
62
256
6
ByLayer
370
18
48
1
60
0
100
AcDbEllipse
10
34.508826
20
-10.934068
30
0
11
-5.32560432240506
21
1.37402278044455
31
0
210
0
220
0
230
1
40
0.098274
41
0.747405605644238
42
1.18917334493027
0
ELLIPSE
5
121
100
AcDbEntity
8
1
62
256
6
ByLayer
370
18
48
1
60
0
100
AcDbEllipse
10
31.595125
20
-8.1447
30
0
11
2.51880211995998
21
1.644377826578
31
0
210
0
220
0
230
1
40
0.983715
41
1.26721815497639
42
2.31890721804061
0
ELLIPSE
5
122
100
AcDbEntity
8
1
62
256
6
ByLayer
370
18
48
1
60
0
100
AcDbEllipse
10
32.113495
20
-8.873388
30
0
11
1.5276889287012
21
1.29080073486335
31
0
210
0
220
0
230
1
40
0.731926
41
0.699593575308917
42
2.11226906956851
0
ELLIPSE
5
123
100
AcDbEntity
8
1
62
256
6
ByLayer
370
18
48
1
60
0
100
AcDbEllipse
10
50.736247
20
-17.63955
30
0
11
1.70992970874081
21
1.39293623864884
31
0
210
0
220
0
230
1
40
0.720909
41
-1.81143920795609
42
-0.95622787447898
0
ELLIPSE
5
124
100
AcDbEntity
8
1
62
256
6
ByLayer
370
18
48
1
60
0
100
AcDbEllipse
10
34.535974
20
-10.044721
30
0
11
2.40672672730431
21
-4.06845603536927
31
0
210
0
220
0
230
1
40
0.503948
41
2.6868090452299
42
3.04642477858661
0
ELLIPSE
5
125
100
AcDbEntity
8
1
62
256
6
ByLayer
370
18
48
1
60
0
100
AcDbEllipse
10
32.447624
20
-18.139
30
0
11
3.98815702922247
21
0.705463700056432
31
0
210
0
220
0
230
1
40
0.398793
41
-2.76042182766968
42
-2.40080609430884
0
ELLIPSE
5
126
100
AcDbEntity
8
1
62
256
6
ByLayer
370
18
48
1
60
0
100
AcDbEllipse
10
32.670174
20
-18.06054
30
0
11
5.3805728486608
21
-1.16063653247597
31
0
210
0
220
0
230
1
40
0.137422
41
2.50904446580903
42
2.56203676896108
0
ELLIPSE
5
127
100
AcDbEntity
8
1
62
256
6
ByLayer
370
18
48
1
60
0
100
AcDbEllipse
10
50.736247
20
-17.63955
30
0
11
0.283568735194711
21
2.39012394613314
31
0
210
0
220
0
230
1
40
0.755274
41
-1.5665289020787
42
-0.711317568600431
0
ELLIPSE
5
128
100
AcDbEntity
8
1
62
256
6
ByLayer
370
18
48
1
60
0
100
AcDbEllipse
10
30.0219
20
-16.980246
30
0
11
-0.318905572352335
21
1.9744111111728
31
0
210
0
220
0
230
1
40
0.794874
41
1.29541694107939
42
2.70809243533899
0
ELLIPSE
5
129
100
AcDbEntity
8
1
62
256
6
ByLayer
370
18
48
1
60
0
100
AcDbEllipse
10
35.615187
20
-7.110755
30
0
11
3.31761931272393
21
-1.14159367643196
31
0
210
0
220
0
230
1
40
0.466714
41
3.08230649741805
42
-2.47766070336326
0
ELLIPSE
5
12A
100
AcDbEntity
8
1
62
256
6
ByLayer
370
13
48
1
60
0
100
AcDbEllipse
10
58.129116
20
-21.942017
30
0
11
3.53553390593279
21
3.53553390593269
31
0
210
0
220
0
230
1
40
0.981627
41
-2.79252680319093
42
-2.44346095279206
0
ELLIPSE
5
12B
100
AcDbEntity
8
1
62
256
6
ByLayer
370
13
48
1
60
0
100
AcDbEllipse
10
53.219277
20
-14.198827
30
0
11
1.41421356237311
21
1.41421356237308
31
0
210
0
220
0
230
1
40
0.981627
41
-0.349065850398869
42
0.349065850398872
0
ELLIPSE
5
12C
100
AcDbEntity
8
1
62
256
6
ByLayer
370
13
48
1
60
0
100
AcDbEllipse
10
54.942568
20
-25.128565
30
0
11
3.53553390593279
21
3.53553390593269
31
0
210
0
220
0
230
1
40
0.981627
41
-0.698131700797733
42
-0.349065850398873
0
ELLIPSE
5
12D
100
AcDbEntity
8
1
62
256
6
ByLayer
370
13
48
1
60
0
100
AcDbEllipse
10
42.289539
20
-12.475536
30
0
11
3.53553390593279
21
3.53553390593269
31
0
210
0
220
0
230
1
40
0.981627
41
0.349065850398872
42
0.698131700797735
0
ELLIPSE
5
12E
100
AcDbEntity
8
1
62
256
6
ByLayer
370
13
48
1
60
0
100
AcDbEllipse
10
59.207315
20
-26.206764
30
0
11
0.565685424949254
21
0.565685424949239
31
0
210
0
220
0
230
1
40
0.981627
41
-2.44346095279205
42
-0.698131700797734
0
ELLIPSE
5
12F
100
AcDbEntity
8
1
62
256
6
ByLayer
370
18
48
1
60
0
100
AcDbEllipse
10
35.500392
20
-14.132929
30
0
11
1.75636812407508
21
1.91707355433562
31
0
210
0
220
0
230
1
40
0.978623
41
1.82890801077301
42
2.28301538087712
0
ELLIPSE
5
130
100
AcDbEntity
8
1
62
256
6
ByLayer
370
18
48
1
60
0
100
AcDbEllipse
10
36.867577
20
-14.48526
30
0
11
-2.82842712474624
21
-2.82842712474614
31
0
210
0
220
0
230
1
40
0.981627
41
-2.55513951045114
42
-4.30407803735194E-05
0
ELLIPSE
5
131
100
AcDbEntity
8
1
62
256
6
ByLayer
370
18
48
1
60
0
100
AcDbEllipse
10
36.867577
20
-14.48526
30
0
11
-2.82842712474624
21
-2.82842712474614
31
0
210
0
220
0
230
1
40
0.981627
41
-3.14153729087898
42
-2.6433002850529
0
ELLIPSE
5
132
100
AcDbEntity
8
1
62
256
6
ByLayer
370
18
48
1
60
0
100
AcDbEllipse
10
37.538076
20
-14.619412
30
0
11
-2.80343373650445
21
-3.05994432711262
31
0
210
0
220
0
230
1
40
0.978623
41
0.829243458465014
42
-3.00389222710229
0
ELLIPSE
5
133
100
AcDbEntity
8
1
62
256
6
ByLayer
370
18
48
1
60
0
100
AcDbEllipse
10
35.576925
20
-14.1512
30
0
11
2.80343373650445
21
3.05994432711262
31
0
210
0
220
0
230
1
40
0.978623
41
-2.93750099995762
42
-2.64339442870471
0
ELLIPSE
5
134
100
AcDbEntity
8
1
62
256
6
ByLayer
370
18
48
1
60
0
100
AcDbEllipse
10
29.931861
20
-18.53205
30
0
11
2.02657860470201
21
2.21200794731033
31
0
210
0
220
0
230
1
40
0.978623
41
0.164808276190179
42
0.498198224885086
0
ELLIPSE
5
135
100
AcDbEntity
8
1
62
256
6
ByLayer
370
13
48
1
60
0
100
AcDbEllipse
10
49.399794
20
-16.399242
30
0
11
1.82292128189915
21
1.8229212818991
31
0
210
0
220
0
230
1
40
0.981627
41
-0.472165552903192
42
-0.228201089451368
0
ELLIPSE
5
136
100
AcDbEntity
8
1
62
256
6
ByLayer
370
13
48
1
60
0
100
AcDbEllipse
10
41.480005
20
-11.666002
30
0
11
-3.5355339059328
21
-3.53553390593268
31
0
210
0
220
0
230
1
40
0.981627
41
-2.66482861791587
42
-2.44346095279206
0
ELLIPSE
5
137
100
AcDbEntity
8
1
62
256
6
ByLayer
370
13
48
1
60
0
100
AcDbEllipse
10
50.209328
20
-17.208776
30
0
11
1.82292128189914
21
1.82292128189909
31
0
210
0
220
0
230
1
40
0.981627
41
-2.33503181033288
42
0
0
ELLIPSE
5
138
100
AcDbEntity
8
1
62
256
6
ByLayer
370
13
48
1
60
0
100
AcDbEllipse
10
50.209328
20
-17.208776
30
0
11
1.82292128189914
21
1.82292128189909
31
0
210
0
220
0
230
1
40
0.981627
41
0
42
0.299782685271568
0
ELLIPSE
5
139
100
AcDbEntity
8
1
62
256
6
ByLayer
370
13
48
1
60
0
100
AcDbEllipse
10
47.199378
20
-20.218726
30
0
11
1.41421356237311
21
1.41421356237308
31
0
210
0
220
0
230
1
40
0.981627
41
2.90559141666615
42
-2.79252680319093
0
ELLIPSE
5
13A
100
AcDbEntity
8
1
62
256
6
ByLayer
370
13
48
1
60
0
100
AcDbEllipse
10
40.401806
20
-7.401255
30
0
11
-0.565685424949256
21
-0.565685424949237
31
0
210
0
220
0
230
1
40
0.981627
41
-0.935959696473982
42
-0.816295722277278
0
ELLIPSE
5
13B
100
AcDbEntity
8
1
62
256
6
ByLayer
370
13
48
1
60
0
100
AcDbEllipse
10
40.401806
20
-7.401255
30
0
11
-0.565685424949256
21
-0.565685424949237
31
0
210
0
220
0
230
1
40
0.981627
41
-2.44346095279206
42
-2.2056329571158
0
ELLIPSE
5
13C
100
AcDbEntity
8
1
62
256
6
ByLayer
370
13
48
1
60
0
100
AcDbEllipse
10
41.21134
20
-8.210789
30
0
11
0.565685424949254
21
0.565685424949239
31
0
210
0
220
0
230
1
40
0.981627
41
0.698131700797744
42
1.62397425371386
0
ELLIPSE
5
13D
100
AcDbEntity
8
1
62
256
6
ByLayer
370
18
48
1
60
0
100
AcDbEllipse
10
36.894562
20
-14.512244
30
0
11
0.813172798364541
21
0.813172798364519
31
0
210
0
220
0
230
1
40
0.981627
41
-2.99182113594109
42
-0.126394122906674
0
ELLIPSE
5
13E
100
AcDbEntity
8
1
62
256
6
ByLayer
370
18
48
1
60
0
100
AcDbEllipse
10
37.009246
20
-14.626928
30
0
11
-0.813172798364543
21
-0.813172798364516
31
0
210
0
220
0
230
1
40
0.981627
41
0
42
2.34692288425939
0
ELLIPSE
5
13F
100
AcDbEntity
8
1
62
256
6
ByLayer
370
18
48
1
60
0
100
AcDbEllipse
10
37.009246
20
-14.626928
30
0
11
-0.813172798364543
21
-0.813172798364516
31
0
210
0
220
0
230
1
40
0.981627
41
-1.06710464287685
42
-0.572597937216505
0
ELLIPSE
5
140
100
AcDbEntity
8
1
62
256
6
ByLayer
370
18
48
1
60
0
100
AcDbEllipse
10
37.009246
20
-14.626928
30
0
11
-0.813172798364543
21
-0.813172798364516
31
0
210
0
220
0
230
1
40
0.981627
41
-2.52588333358601
42
-2.03461712520141
0
ELLIPSE
5
141
100
AcDbEntity
8
1
62
256
6
ByLayer
370
18
48
1
60
0
100
AcDbEllipse
10
37.009246
20
-14.626928
30
0
11
-0.813172798364543
21
-0.813172798364516
31
0
210
0
220
0
230
1
40
0.981627
41
2.34692294545755
42
-3.14153725765995
0
ELLIPSE
5
142
100
AcDbEntity
8
1
62
256
6
ByLayer
370
18
48
1
60
0
100
AcDbEllipse
10
37.34091
20
-15.819051
30
0
11
-0.268700576850892
21
-0.268700576850884
31
0
210
0
220
0
230
1
40
0.981627
41
0.512015650947769
42
2.48212178830904
0
ELLIPSE
5
143
100
AcDbEntity
8
1
62
256
6
ByLayer
370
18
48
1
60
0
100
AcDbEllipse
10
38.212991
20
-14.916564
30
0
11
-0.268700576850892
21
-0.268700576850884
31
0
210
0
220
0
230
1
40
0.981627
41
0.694377450320677
42
2.59715466702408
0
ELLIPSE
5
144
100
AcDbEntity
8
1
62
256
6
ByLayer
370
18
48
1
60
0
100
AcDbEllipse
10
36.613674
20
-16.160131
30
0
11
0.300520382004287
21
0.300520382004279
31
0
210
0
220
0
230
1
40
0.981627
41
8.92054871885669E-06
42
1.43492423711247
0
ELLIPSE
5
145
100
AcDbEntity
8
1
62
256
6
ByLayer
370
18
48
1
60
0
100
AcDbEllipse
10
38.5287
20
-14.178336
30
0
11
-0.300520382004288
21
-0.300520382004278
31
0
210
0
220
0
230
1
40
0.981627
41
-1.40001765207254
42
-1.85757839415912E-05
0
ELLIPSE
5
146
100
AcDbEntity
8
1
62
256
6
ByLayer
370
18
48
1
60
0
100
AcDbEllipse
10
36.137165
20
-15.529415
30
0
11
-0.268700576850892
21
-0.268700576850884
31
0
210
0
220
0
230
1
40
0.981627
41
0.613144320999942
42
1.43492423711242
0
ELLIPSE
5
147
100
AcDbEntity
8
1
62
256
6
ByLayer
370
18
48
1
60
0
100
AcDbEllipse
10
37.881326
20
-13.724441
30
0
11
0.268700576850892
21
0.268700576850884
31
0
210
0
220
0
230
1
40
0.981627
41
-1.40001765207253
42
-0.613144732677412
0
ELLIPSE
5
148
100
AcDbEntity
8
1
62
256
6
ByLayer
370
18
48
1
60
0
100
AcDbEllipse
10
35.489791
20
-15.07552
30
0
11
-0.300520382004288
21
-0.300520382004278
31
0
210
0
220
0
230
1
40
0.981627
41
3.14157532395443
42
-2.99088054521735
0
ELLIPSE
5
149
100
AcDbEntity
8
1
62
256
6
ByLayer
370
18
48
1
60
0
100
AcDbEllipse
10
37.404817
20
-13.093725
30
0
11
-0.300520382004288
21
-0.300520382004278
31
0
210
0
220
0
230
1
40
0.981627
41
-0.0635118466168275
42
8.92054869756722E-06
0
ELLIPSE
5
14A
100
AcDbEntity
8
1
62
256
6
ByLayer
370
18
48
1
60
0
100
AcDbEllipse
10
16.948929
20
0
30
0
11
9.36741787978132
21
19.7417491527497
31
0
210
0
220
0
230
1
40
0.341999
41
2.04527312608987
42
2.98886640869144
0
ELLIPSE
5
14B
100
AcDbEntity
8
1
62
256
6
ByLayer
370
18
48
1
60
0
100
AcDbEllipse
10
24.978906
20
-21.195901
30
0
11
1.02759728749945
21
-0.018020228957593
31
0
210
0
220
0
230
1
40
0.130123
41
0.9193586163187
42
0.97010875310527
0
ELLIPSE
5
14C
100
AcDbEntity
8
1
62
256
6
ByLayer
370
18
48
1
60
0
100
AcDbEllipse
10
41.50013
20
-8.287447
30
0
11
-1.48492424049177
21
-1.48492424049173
31
0
210
0
220
0
230
1
40
0.981627
41
3.14159265358977
42
-1.57079632679491
0
ELLIPSE
5
14D
100
AcDbEntity
8
1
62
256
6
ByLayer
370
18
48
1
60
0
100
AcDbEllipse
10
23.506248
20
2.782971
30
0
11
3.23145132660586
21
21.6459766295399
31
0
210
0
220
0
230
1
40
0.108911
41
-2.98715409956657
42
-2.33641087127996
0
ELLIPSE
5
14E
100
AcDbEntity
8
1
62
256
6
ByLayer
370
18
48
1
60
0
100
AcDbEllipse
10
40.876192
20
-7.663509
30
0
11
0.40157540057853
21
-2.31752518355778
31
0
210
0
220
0
230
1
40
0.83453
41
1.92984930581589
42
1.9736830343505
0
ELLIPSE
5
14F
100
AcDbEntity
8
1
62
256
6
ByLayer
370
18
48
1
60
0
100
AcDbEllipse
10
20.600561
20
0
30
0
11
0.240065186769656
21
19.9999891794391
31
0
210
0
220
0
230
1
40
0.086661
41
0.802180171509032
42
2.61467645769894
0
ELLIPSE
5
150
100
AcDbEntity
8
1
62
256
6
ByLayer
370
18
48
1
60
0
100
AcDbEllipse
10
-0.948929
20
0
30
0
11
9.36741787978223
21
-19.7417491527501
31
0
210
0
220
0
230
1
40
0.341999
41
0.152726244898342
42
1.09631952749989
0
ELLIPSE
5
151
100
AcDbEntity
8
1
62
256
6
ByLayer
370
18
48
1
60
0
100
AcDbEllipse
10
21.913891
20
-20.511461
30
0
11
1.26807582924788
21
3.79367680374558
31
0
210
0
220
0
230
1
40
0.578464
41
-1.53318185131965
42
-1.45002611344873
0
ELLIPSE
5
152
100
AcDbEntity
8
1
62
256
6
ByLayer
370
18
48
1
60
0
100
AcDbEllipse
10
41.312943
20
-8.100261
30
0
11
0.448092628509526
21
-2.36477799480521
31
0
210
0
220
0
230
1
40
0.80649
41
1.98760404743589
42
2.02208984995731
0
ELLIPSE
5
153
100
AcDbEntity
8
1
62
256
6
ByLayer
370
18
48
1
60
0
100
AcDbEllipse
10
62.616795
20
-11.471153
30
0
11
5.79827560572975
21
5.7982756057296
31
0
210
0
220
0
230
1
40
0.981627
41
2.37633252323969
42
2.40116071826612
0
ELLIPSE
5
154
100
AcDbEntity
8
1
62
256
6
ByLayer
370
18
48
1
60
0
100
AcDbEllipse
10
-0.948929
20
0
30
0
11
9.36741787978194
21
19.7417491527498
31
0
210
0
220
0
230
1
40
0.341999
41
-1.0963195274999
42
-0.152726244898351
0
ELLIPSE
5
155
100
AcDbEntity
8
1
62
256
6
ByLayer
370
18
48
1
60
0
100
AcDbEllipse
10
44.805633
20
-29.769524
30
0
11
-5.79827560572979
21
-5.7982756057296
31
0
210
0
220
0
230
1
40
0.981627
41
-2.37243277879831
42
-2.36546580534033
0
ELLIPSE
5
156
100
AcDbEntity
8
1
62
256
6
ByLayer
370
18
48
1
60
0
100
AcDbEllipse
10
16.948929
20
0
30
0
11
9.3674178797816
21
-19.7417491527501
31
0
210
0
220
0
230
1
40
0.341999
41
-2.98886640869144
42
-2.04527312608988
0
ELLIPSE
5
157
100
AcDbEntity
8
1
62
256
6
ByLayer
370
18
48
1
60
0
100
AcDbEllipse
10
26.140313
20
-4.130183
30
0
11
1.26807582924788
21
3.79367680374558
31
0
210
0
220
0
230
1
40
0.578464
41
-1.45002611344874
42
0.560314673965501
0
ELLIPSE
5
158
100
AcDbEntity
8
1
62
256
6
ByLayer
370
18
48
1
60
0
100
AcDbEllipse
10
25.01882
20
-21.041199
30
0
11
-0.968291694982737
21
0.249822323717192
31
0
210
0
220
0
230
1
40
0.098274
41
-2.14034451917086
42
-0.62029835080897
0
ELLIPSE
5
159
100
AcDbEntity
8
1
62
256
6
ByLayer
370
18
48
1
60
0
100
AcDbEllipse
10
29.245241
20
-4.659921
30
0
11
0.968291694982737
21
-0.249822323717192
31
0
210
0
220
0
230
1
40
0.098274
41
0.950497975985943
42
2.52129430278085
0
ELLIPSE
5
15A
100
AcDbEntity
8
1
62
256
6
ByLayer
370
18
48
1
60
0
100
AcDbEllipse
10
45.963754
20
-21.792432
30
0
11
-0.903791065043377
21
0.427973960361913
31
0
210
0
220
0
230
1
40
0.065261
41
-0.682545816149578
42
-0.355658847681064
0
ELLIPSE
5
15B
100
AcDbEntity
8
1
62
256
6
ByLayer
370
18
48
1
60
0
100
AcDbEllipse
10
53.759909
20
-12.969
30
0
11
0.421188894796487
21
0.906972940555642
31
0
210
0
220
0
230
1
40
0.179585
41
0.0605616524999442
42
0.76256746912273
0
ELLIPSE
5
15C
100
AcDbEntity
8
1
62
256
6
ByLayer
370
18
48
1
60
0
100
AcDbEllipse
10
26.913946
20
-4.388778
30
0
11
-1.58509478655985
21
-4.74209600468198
31
0
210
0
220
0
230
1
40
0.578464
41
1.69156654014106
42
3.03344620829549
0
ELLIPSE
5
15D
100
AcDbEntity
8
1
62
256
6
ByLayer
370
18
48
1
60
0
100
AcDbEllipse
10
41.287998
20
-8.499579
30
0
11
-1.48492424049178
21
-1.48492424049173
31
0
210
0
220
0
230
1
40
0.981627
41
-1.57079632679491
42
-1.36723793731481
0
ELLIPSE
5
15E
100
AcDbEntity
8
1
62
256
6
ByLayer
370
18
48
1
60
0
100
AcDbEllipse
10
27.457121
20
-4.57034
30
0
11
6.80989707169289
21
-1.51699975840423
31
0
210
0
220
0
230
1
40
0.712996
41
0.00697472489466653
42
1.68792841816246
0
ELLIPSE
5
15F
100
AcDbEntity
8
1
62
256
6
ByLayer
370
18
48
1
60
0
100
AcDbEllipse
10
41.067396
20
-6.51464
30
0
11
-0.417170826495137
21
-0.908828092392264
31
0
210
0
220
0
230
1
40
0.179302
41
-1.74572116165719
42
-1.35342881233246
0
POINT
5
70
100
AcDbEntity
8
81
62
256
6
ByLayer
370
18
48
1
60
0
100
AcDbPoint
10
60
20
-27
30
0
39
0
210
0
220
0
230
1
50
360
0
POINT
5
72
100
AcDbEntity
8
80
62
256
6
ByLayer
370
18
48
1
60
0
100
AcDbPoint
10
0
20
0
30
0
39
0
210
0
220
0
230
1
50
360
0
POINT
5
74
100
AcDbEntity
8
1
62
256
6
ByLayer
370
18
48
1
60
1
100
AcDbPoint
10
0
20
-20
30
0
39
0
210
0
220
0
230
1
50
360
0
POINT
5
76
100
AcDbEntity
8
1
62
256
6
ByLayer
370
18
48
1
60
1
100
AcDbPoint
10
60
20
-27
30
0
39
0
210
0
220
0
230
1
50
360
0
POINT
5
77
100
AcDbEntity
8
1
62
256
6
ByLayer
370
18
48
1
60
1
100
AcDbPoint
10
0
20
20
30
0
39
0
210
0
220
0
230
1
50
360
0
POINT
5
78
100
AcDbEntity
8
1
62
256
6
ByLayer
370
18
48
1
60
1
100
AcDbPoint
10
0
20
-20
30
0
39
0
210
0
220
0
230
1
50
360
0
POINT
5
79
100
AcDbEntity
8
1
62
256
6
ByLayer
370
18
48
1
60
1
100
AcDbPoint
10
60
20
-27
30
0
39
0
210
0
220
0
230
1
50
360
0
POINT
5
7A
100
AcDbEntity
8
1
62
256
6
ByLayer
370
18
48
1
60
1
100
AcDbPoint
10
60
20
0
30
0
39
0
210
0
220
0
230
1
50
360
0
SPLINE
5
160
100
AcDbEntity
8
1
62
256
6
ByLayer
370
18
48
1
60
0
100
AcDbSpline
70
4
71
3
72
10
73
6
40
0
40
0
40
0
40
0
40
0.5
40
0.5
40
1
40
1
40
1
40
1
41
1
10
36.2126077890419
20
-15.3316569260766
30
0
41
1
10
36.2091063435239
20
-15.3071616635458
30
0
41
1
10
36.2039445857637
20
-15.2816313355307
30
0
41
1
10
36.1903869725867
20
-15.2328784545529
30
0
41
1
10
36.1821433465223
20
-15.2102076839478
30
0
41
1
10
36.1733566554997
20
-15.1905741267423
30
0
0
SPLINE
5
161
100
AcDbEntity
8
1
62
256
6
ByLayer
370
18
48
1
60
0
100
AcDbSpline
70
4
71
3
72
10
73
6
40
0
40
0
40
0
40
0
40
0.5
40
0.5
40
1
40
1
40
1
40
1
41
1
10
38.1927265727011
20
-15.6764600491889
30
0
41
1
10
38.1723323158185
20
-15.6890723015458
30
0
41
1
10
38.1522107526611
20
-15.7049180491508
30
0
41
1
10
38.1165573904827
20
-15.7418301475403
30
0
41
1
10
38.1014267991798
20
-15.7624778799204
30
0
41
1
10
38.0895194612417
20
-15.7832655944187
30
0
0
SPLINE
5
162
100
AcDbEntity
8
1
62
256
6
ByLayer
370
18
48
1
60
0
100
AcDbSpline
70
4
71
3
72
10
73
6
40
0
40
0
40
0
40
0
40
0.5
40
0.5
40
1
40
1
40
1
40
1
41
1
10
37.5331279495394
20
-13.7833928541066
30
0
41
1
10
37.5532908332547
20
-13.7915068392732
30
0
41
1
10
37.5762580608279
20
-13.7988862596073
30
0
41
1
10
37.6251105024648
20
-13.8106378799627
30
0
41
1
10
37.6507433031554
20
-13.8149514312755
30
0
41
1
10
37.6755861945381
20
-13.8176701082103
30
0
0
SPLINE
5
163
100
AcDbEntity
8
1
62
256
6
ByLayer
370
18
48
1
60
0
100
AcDbSpline
70
4
71
3
72
10
73
6
40
0
40
0
40
0
40
0
40
0.5
40
0.5
40
1
40
1
40
1
40
1
41
1
10
36.4329149681527
20
-14.1845465037259
30
0
41
1
10
36.4506955234464
20
-14.1693205497801
30
0
41
1
10
36.469274520201
20
-14.1519322357723
30
0
41
1
10
36.5049327209694
20
-14.1150249759728
30
0
41
1
10
36.5216096138465
20
-14.0959235451668
30
0
41
1
10
36.5361220796119
20
-14.0777409584959
30
0
0
SPLINE
5
164
100
AcDbEntity
8
1
62
256
6
ByLayer
370
18
48
1
60
0
100
AcDbSpline
70
4
71
3
72
10
73
6
40
0
40
0
40
0
40
0
40
0.5
40
0.5
40
1
40
1
40
1
40
1
41
1
10
37.0925135913149
20
-16.0776136988087
30
0
41
1
10
37.0697139626312
20
-16.0668629686737
30
0
41
1
10
37.0452284477619
20
-16.0579652610434
30
0
41
1
10
36.9963783687697
20
-16.0462160033327
30
0
41
1
10
36.9722644861279
20
-16.0434213700687
30
0
41
1
10
36.9500553463162
20
-16.0433364447049
30
0
0
SPLINE
5
165
100
AcDbEntity
8
1
62
256
6
ByLayer
370
18
48
1
60
0
100
AcDbSpline
70
4
71
3
72
10
73
6
40
0
40
0
40
0
40
0
40
0.5
40
0.5
40
1
40
1
40
1
40
1
41
1
10
38.4130337518116
20
-14.529349626838
30
0
41
1
10
38.4139300695023
20
-14.5512397615414
30
0
41
1
10
38.4175455256884
20
-14.5752237879824
30
0
41
1
10
38.4310983002754
20
-14.6239718303703
30
0
41
1
10
38.4408844927426
20
-14.648185167378
30
0
41
1
10
38.4522848853541
20
-14.6704324261725
30
0
0
SPLINE
5
166
100
AcDbEntity
8
1
62
256
6
ByLayer
370
18
48
1
60
0
100
AcDbSpline
70
4
71
3
72
18
73
14
40
0
40
0
40
0
40
0
40
0.125
40
0.125
40
0.25
40
0.25
40
0.375
40
0.375
40
0.5
40
0.5
40
0.75
40
0.75
40
1
40
1
40
1
40
1
41
1
10
28.4249095128201
20
-16.6873188139333
30
0
41
1
10
28.5283794950288
20
-16.690126842306
30
0
41
1
10
28.6390459634358
20
-16.6892628531957
30
0
41
1
10
28.8705437446638
20
-16.6808735886945
30
0
41
1
10
28.9917692155015
20
-16.6733661203167
30
0
41
1
10
29.2445560303185
20
-16.6522677648844
30
0
41
1
10
29.3761195264189
20
-16.6386749116983
30
0
41
1
10
29.6492713453699
20
-16.6057335760143
30
0
41
1
10
29.7915575827335
20
-16.5862751197548
30
0
41
1
10
30.2279936123708
20
-16.5203442810044
30
0
41
1
10
30.529706880635
20
-16.466783085735
30
0
41
1
10
31.1524000982805
20
-16.3433292252761
30
0
41
1
10
31.4734004559808
20
-16.2734085037409
30
0
41
1
10
31.8039054553803
20
-16.1957972699047
30
0
0
SPLINE
5
167
100
AcDbEntity
8
1
62
256
6
ByLayer
370
18
48
1
60
0
100
AcDbSpline
70
4
71
3
72
20
73
16
40
0
40
0
40
0
40
0
40
0.125000000000001
40
0.125000000000001
40
0.250000000000002
40
0.250000000000002
40
0.500000000000001
40
0.500000000000001
40
0.750000000000001
40
0.750000000000001
40
0.875
40
0.875
40
0.9375
40
0.9375
40
1
40
1
40
1
40
1
41
1
10
44.1646457220614
20
-21.4108551501587
30
0
41
1
10
43.8384574402206
20
-21.4640694964056
30
0
41
1
10
43.5112107846175
20
-21.5094436888467
30
0
41
1
10
42.8550306641528
20
-21.5876966354548
30
0
41
1
10
42.5258736578758
20
-21.6204929850759
30
0
41
1
10
41.5372856596758
20
-21.6996873808105
30
0
41
1
10
40.8782332467232
20
-21.7271346873963
30
0
41
1
10
39.5601452783198
20
-21.7136855766459
30
0
41
1
10
38.90025739856
20
-21.6757273037508
30
0
41
1
10
37.9178447701686
20
-21.579599849521
30
0
41
1
10
37.5913135045149
20
-21.5409573758064
30
0
41
1
10
37.1032967988718
20
-21.4704892781653
30
0
41
1
10
36.9409237284727
20
-21.4448985260931
30
0
41
1
10
36.6170218401121
20
-21.3877868445873
30
0
41
1
10
36.4554589367033
20
-21.3565053373204
30
0
41
1
10
36.2947201550221
20
-21.319435054335
30
0
0
SPLINE
5
168
100
AcDbEntity
8
1
62
256
6
ByLayer
370
18
48
1
60
0
100
AcDbSpline
70
4
71
3
72
8
73
4
40
0
40
0
40
0
40
0
40
1
40
1
40
1
40
1
41
1
10
50.8718239586317
20
-19.3840852984976
30
0
41
1
10
50.9479255525224
20
-19.3537150680556
30
0
41
1
10
51.0247578980204
20
-19.3194233180919
30
0
41
1
10
51.1023435781445
20
-19.2810888586551
30
0
0
SPLINE
5
169
100
AcDbEntity
8
1
62
256
6
ByLayer
370
18
48
1
60
0
100
AcDbSpline
70
4
71
3
72
8
73
4
40
0
40
0
40
0
40
0
40
1
40
1
40
1
40
1
41
1
10
52.0040761610259
20
-15.7860442281049
30
0
41
1
10
51.9533022877072
20
-15.7218621239959
30
0
41
1
10
51.9006993073872
20
-15.6622553866665
30
0
41
1
10
51.8462641466374
20
-15.6072317040551
30
0
0
SPLINE
5
16A
100
AcDbEntity
8
1
62
256
6
ByLayer
370
18
48
1
60
0
100
AcDbSpline
70
4
71
3
72
11
73
7
40
0
40
0
40
0
40
0
40
0.100258159507228
40
0.259036131358893
40
0.576592075062225
40
1
40
1
40
1
40
1
41
1.0177432798791
10
47.3961077334737
20
-19.057657882938
30
0
41
1.01722454828229
10
47.1983119644932
20
-19.0299344806937
30
0
41
1.01635405201136
10
46.7165063098192
20
-18.9808872185716
30
0
41
1.01876555595691
10
45.1719111847222
20
-19.3637610848325
30
0
41
1.02349884684922
10
41.0682118771986
20
-20.3320072299917
30
0
41
1.02767136955276
10
37.8300108698881
20
-20.7449573810984
30
0
41
1.02805999725224
10
36.9734972260808
20
-20.6401306815159
30
0
0
SPLINE
5
16B
100
AcDbEntity
8
1
62
256
6
ByLayer
370
18
48
1
60
0
100
AcDbSpline
70
4
71
3
72
25
73
21
40
0
40
0
40
0
40
0
40
0.0625
40
0.0625
40
0.125
40
0.1875
40
0.1875
40
0.25
40
0.25
40
0.375
40
0.375
40
0.5
40
0.5
40
0.625
40
0.625
40
0.75
40
0.75
40
0.875
40
0.875
40
1
40
1
40
1
40
1
41
1
10
51.1464988173737
20
-14.5365931233036
30
0
41
1
10
51.0764709678436
20
-14.4819204679152
30
0
41
1
10
51.0063056387987
20
-14.4325654890596
30
0
41
1
10
50.8670144973997
20
-14.3453722875609
30
0
41
1
10
50.7283569160434
20
-14.2693740257504
30
0
41
1
10
50.5909564230769
20
-14.2155883843096
30
0
41
1
10
50.4541833101068
20
-14.1728884817846
30
0
41
1
10
50.3862882921141
20
-14.1572724940068
30
0
41
1
10
50.1878941376832
20
-14.126312988681
30
0
41
1
10
50.060960130972
20
-14.1259515721941
30
0
41
1
10
49.8150397770141
20
-14.1554730300471
30
0
41
1
10
49.695417611073
20
-14.1858141528704
30
0
41
1
10
49.4677217837386
20
-14.269040462227
30
0
41
1
10
49.3591325632446
20
-14.3218559592163
30
0
41
1
10
49.150177718335
20
-14.4450052862229
30
0
41
1
10
49.0498302532735
20
-14.5153778002425
30
0
41
1
10
48.8560627955561
20
-14.6708800911005
30
0
41
1
10
48.762741517515
20
-14.7562201549567
30
0
41
1
10
48.5818195874777
20
-14.9390866584623
30
0
41
1
10
48.4941434968871
20
-15.0364523948857
30
0
41
1
10
48.4077602521589
20
-15.1365722189555
30
0
0
SPLINE
5
16C
100
AcDbEntity
8
1
62
256
6
ByLayer
370
18
48
1
60
0
100
AcDbSpline
70
4
71
3
72
14
73
10
40
0
40
0
40
0
40
0
40
0.250000000000002
40
0.250000000000002
40
0.375000000000003
40
0.375000000000003
40
0.500000000000003
40
0.500000000000003
40
1
40
1
40
1
40
1
41
1
10
30.8044561809458
20
-5.28865302219918
30
0
41
1
10
30.979840907535
20
-5.26079016959062
30
0
41
1
10
31.153499688901
20
-5.24803275002051
30
0
41
1
10
31.410359538705
20
-5.24741820886302
30
0
41
1
10
31.4956719214985
20
-5.2503387631761
30
0
41
1
10
31.6634060940651
20
-5.26170280429918
30
0
41
1
10
31.7456519772206
20
-5.27010648557712
30
0
41
1
10
32.1490794791426
20
-5.32370766370229
30
0
41
1
10
32.4470423253358
20
-5.40296440819819
30
0
41
1
10
32.7223553700453
20
-5.50029495306288
30
0
0
SPLINE
5
16D
100
AcDbEntity
8
1
62
256
6
ByLayer
370
18
48
1
60
0
100
AcDbSpline
70
4
71
3
72
8
73
4
40
0
40
0
40
0
40
0
40
1
40
1
40
1
40
1
41
1
10
48.7866351527951
20
-11.983697958463
30
0
41
1
10
48.8832999637773
20
-12.0158155126979
30
0
41
1
10
48.9791637189411
20
-12.050356782471
30
0
41
1
10
49.0742914250461
20
-12.0871250799988
30
0
0
SPLINE
5
16E
100
AcDbEntity
8
1
62
256
6
ByLayer
370
18
48
1
60
0
100
AcDbSpline
70
4
71
2
72
6
73
3
40
0
40
0
40
0
40
1
40
1
40
1
41
1.02805999725224
10
39.9954112204225
20
-8.92742951000007
30
0
41
0.930554445970897
10
40.0598692254821
20
-9.7110683176566
30
0
41
0.937301687733887
10
39.8272005836415
20
-11.2012522695629
30
0
0
SPLINE
5
16F
100
AcDbEntity
8
1
62
256
6
ByLayer
370
18
48
1
60
0
100
AcDbSpline
70
4
71
3
72
14
73
10
40
0
40
0
40
0
40
0
40
0.25
40
0.25
40
0.5
40
0.5
40
0.75
40
0.75
40
1
40
1
40
1
40
1
41
1
10
31.8039054553803
20
-16.1957972699047
30
0
41
1
10
31.8896624286377
20
-16.2393938983299
30
0
41
1
10
31.9750049980601
20
-16.2867366087172
30
0
41
1
10
32.14159227359
20
-16.3885440996174
30
0
41
1
10
32.2226505647027
20
-16.4428448385093
30
0
41
1
10
32.3796275623798
20
-16.5592567102877
30
0
41
1
10
32.4556603918753
20
-16.6216271169452
30
0
41
1
10
32.5959401422411
20
-16.7499401301004
30
0
41
1
10
32.6609843568848
20
-16.816422261937
30
0
41
1
10
32.7206169738456
20
-16.8852185637547
30
0
0
SPLINE
5
170
100
AcDbEntity
8
1
62
256
6
ByLayer
370
18
48
1
60
0
100
AcDbSpline
70
4
71
3
72
18
73
14
40
0
40
0
40
0
40
0
40
0.249999999999999
40
0.249999999999999
40
0.374999999999999
40
0.374999999999999
40
0.499999999999999
40
0.499999999999999
40
0.749999999999999
40
0.749999999999999
40
0.875
40
0.875
40
1
40
1
40
1
40
1
41
1
10
34.4673124863659
20
-10.7856459965654
30
0
41
1
10
34.6627941820565
20
-10.679555055592
30
0
41
1
10
34.8637725260324
20
-10.5914043958508
30
0
41
1
10
35.1757576484225
20
-10.4865963544935
30
0
41
1
10
35.2819048521812
20
-10.4561726145124
30
0
41
1
10
35.4963186649101
20
-10.4054101664396
30
0
41
1
10
35.604220577048
20
-10.3851168460836
30
0
41
1
10
35.9304179217023
20
-10.3394934015511
30
0
41
1
10
36.1512063551133
20
-10.3293129938632
30
0
41
1
10
36.4889838501279
20
-10.3462880613725
30
0
41
1
10
36.602403944721
20
-10.3573875332916
30
0
41
1
10
36.8277487217772
20
-10.3901558880058
30
0
41
1
10
36.9401251934283
20
-10.4118391473777
30
0
41
1
10
37.0522204082414
20
-10.4388106726973
30
0
0
SPLINE
5
171
100
AcDbEntity
8
1
62
256
6
ByLayer
370
18
48
1
60
0
100
AcDbSpline
70
4
71
3
72
8
73
4
40
0
40
0
40
0
40
0
40
1
40
1
40
1
40
1
41
1.01923193651471
10
46.7137188819207
20
-21.2367004456907
30
0
41
1.02059845255999
10
47.2635633880628
20
-21.074479339286
30
0
41
1.02233815481013
10
47.9425022877666
20
-20.8511736033429
30
0
41
1.02417048289515
10
48.6172102078322
20
-20.58188996029
30
0
0
SPLINE
5
172
100
AcDbEntity
8
1
62
256
6
ByLayer
370
18
48
1
60
0
100
AcDbSpline
70
4
71
3
72
22
73
18
40
0
40
0
40
0
40
0
40
0.0624999999999991
40
0.0624999999999991
40
0.124999999999998
40
0.124999999999998
40
0.249999999999999
40
0.249999999999999
40
0.374999999999999
40
0.374999999999999
40
0.5
40
0.5
40
0.749999999999999
40
0.749999999999999
40
0.874999999999999
40
0.874999999999999
40
1
40
1
40
1
40
1
41
1
10
39.8736904788999
20
-7.44762732459958
30
0
41
1
10
40.0336849387526
20
-7.48772987123823
30
0
41
1
10
40.1915726028807
20
-7.53331439073082
30
0
41
1
10
40.5053653922268
20
-7.62964208100792
30
0
41
1
10
40.661183265704
20
-7.680612284565
30
0
41
1
10
41.1263445557125
20
-7.83948763733548
30
0
41
1
10
41.4334207899527
20
-7.95329209212886
30
0
41
1
10
42.0427757728583
20
-8.19338426498661
30
0
41
1
10
42.3450022319074
20
-8.31980804287556
30
0
41
1
10
42.9444132396036
20
-8.58577486581075
30
0
41
1
10
43.2413372571165
20
-8.72524672381826
30
0
41
1
10
44.1194719388821
20
-9.16436257383691
30
0
41
1
10
44.6880423808
20
-9.487172478801
30
0
41
1
10
45.5221877435871
20
-10.0047674277146
30
0
41
1
10
45.7971148331048
20
-10.1829766866364
30
0
41
1
10
46.3387656932686
20
-10.5495205364637
30
0
41
1
10
46.6057857560425
20
-10.7379161860055
30
0
41
1
10
46.8680331259263
20
-10.9327380126099
30
0
0
SPLINE
5
173
100
AcDbEntity
8
1
62
256
6
ByLayer
370
18
48
1
60
0
100
AcDbSpline
70
4
71
3
72
8
73
4
40
0
40
0
40
0
40
0
40
1
40
1
40
1
40
1
41
1
10
30.3787349247587
20
-8.45525052962975
30
0
41
1
10
30.3720089293872
20
-8.47716293833631
30
0
41
1
10
30.3657118055687
20
-8.49944228309391
30
0
41
1
10
30.3598642124769
20
-8.52210709439703
30
0
0
SPLINE
5
174
100
AcDbEntity
8
1
62
256
6
ByLayer
370
18
48
1
60
0
100
AcDbSpline
70
4
71
3
72
30
73
26
40
0
40
0
40
0
40
0
40
0.125000000000001
40
0.125000000000001
40
0.250000000000002
40
0.250000000000002
40
0.375000000000003
40
0.375000000000003
40
0.437500000000003
40
0.437500000000003
40
0.500000000000003
40
0.500000000000003
40
0.625000000000003
40
0.625000000000003
40
0.687500000000002
40
0.687500000000002
40
0.750000000000002
40
0.750000000000002
40
0.812500000000001
40
0.812500000000001
40
0.875000000000001
40
0.875000000000001
40
0.9375
40
0.9375
40
1
40
1
40
1
40
1
41
1
10
28.8503568710565
20
-19.3854910915579
30
0
41
1
10
28.7696610574678
20
-19.3293496350075
30
0
41
1
10
28.7008031229022
20
-19.2697881229499
30
0
41
1
10
28.5791164194987
20
-19.1423931440611
30
0
41
1
10
28.5267944843828
20
-19.0750805260284
30
0
41
1
10
28.4331585332481
20
-18.9293140745609
30
0
41
1
10
28.3918233548308
20
-18.8508259981797
30
0
41
1
10
28.3357342856652
20
-18.7201897979261
30
0
41
1
10
28.3180475914206
20
-18.674480205439
30
0
41
1
10
28.2846202084155
20
-18.5778077886148
30
0
41
1
10
28.2688297989535
20
-18.5266606994346
30
0
41
1
10
28.2249734551554
20
-18.3650686721493
30
0
41
1
10
28.2005523836519
20
-18.2474854542558
30
0
41
1
10
28.1733737123876
20
-18.0529434072735
30
0
41
1
10
28.165913342236
20
-17.9850668457012
30
0
41
1
10
28.1548589951753
20
-17.8425282440099
30
0
41
1
10
28.1513116530904
20
-17.7680069686149
30
0
41
1
10
28.1488653096439
20
-17.6151813977352
30
0
41
1
10
28.1499302546626
20
-17.5364920529545
30
0
41
1
10
28.157154614228
20
-17.3742220700873
30
0
41
1
10
28.1633955306753
20
-17.2900126481571
30
0
41
1
10
28.181093724137
20
-17.120183490648
30
0
41
1
10
28.1925182020524
20
-17.0344502635771
30
0
41
1
10
28.2203722502275
20
-16.861071554904
30
0
41
1
10
28.2368118524937
20
-16.7734388563158
30
0
41
1
10
28.2555653380082
20
-16.6844890032007
30
0
0
SPLINE
5
175
100
AcDbEntity
8
1
62
256
6
ByLayer
370
18
48
1
60
0
100
AcDbSpline
70
4
71
3
72
8
73
4
40
0
40
0
40
0
40
0
40
1
40
1
40
1
40
1
41
1.0241704137769
10
50.4371467097881
20
-13.5278707644725
30
0
41
1.0223381109506
10
49.9721479749924
20
-12.9843658161902
30
0
41
1.02059843516864
10
49.4810767371429
20
-12.4795468432041
30
0
41
1.01923193626848
10
49.0743288860145
20
-12.0871612181362
30
0
0
SPLINE
5
176
100
AcDbEntity
8
1
62
256
6
ByLayer
370
18
48
1
60
0
100
AcDbSpline
70
4
71
3
72
14
73
10
40
0
40
0
40
0
40
0
40
0.25
40
0.25
40
0.5
40
0.5
40
0.75
40
0.75
40
1
40
1
40
1
40
1
41
1
10
34.2695291716693
20
-10.8817566028932
30
0
41
1
10
34.1823639905259
20
-10.9194144658997
30
0
41
1
10
34.0904388103382
20
-10.9512927371824
30
0
41
1
10
33.9036475898525
20
-11.0019887611987
30
0
41
1
10
33.8081610354483
20
-11.0211295118919
30
0
41
1
10
33.6133046193728
20
-11.0477807298012
30
0
41
1
10
33.5155869306932
20
-11.0550155219749
30
0
41
1
10
33.3227258834607
20
-11.0589835169494
30
0
41
1
10
33.2270450485085
20
-11.0557783989499
30
0
41
1
10
33.1320329810333
20
-11.0480793484927
30
0
0
SPLINE
5
177
100
AcDbEntity
8
1
62
256
6
ByLayer
370
18
48
1
60
0
100
AcDbSpline
70
4
71
3
72
8
73
4
40
0
40
0
40
0
40
0
40
1
40
1
40
1
40
1
41
1
10
34.4673124863659
20
-10.7856459965654
30
0
41
1
10
34.4029241845692
20
-10.8205905242418
30
0
41
1
10
34.3369692533767
20
-10.8526205496576
30
0
41
1
10
34.2695291716692
20
-10.8817566028932
30
0
0
SPLINE
5
178
100
AcDbEntity
8
1
62
256
6
ByLayer
370
18
48
1
60
0
100
AcDbSpline
70
4
71
3
72
18
73
14
40
0
40
0
40
0
40
0
40
0.249999999999999
40
0.249999999999999
40
0.374999999999999
40
0.374999999999999
40
0.499999999999998
40
0.499999999999998
40
0.624999999999998
40
0.624999999999998
40
0.749999999999998
40
0.749999999999998
40
1
40
1
40
1
40
1
41
1
10
34.9887322178581
20
-18.436728743882
30
0
41
1
10
34.7645555160887
20
-18.3827889963388
30
0
41
1
10
34.5498462514583
20
-18.3124770437089
30
0
41
1
10
34.2417209423442
20
-18.1820348492179
30
0
41
1
10
34.1411083666963
20
-18.1342140921865
30
0
41
1
10
33.9469805930862
20
-18.031199566447
30
0
41
1
10
33.8531821988876
20
-17.975912341814
30
0
41
1
10
33.6718350302057
20
-17.8576449337341
30
0
41
1
10
33.5846722364568
20
-17.7948785197546
30
0
41
1
10
33.4185524422004
20
-17.6633732222342
30
0
41
1
10
33.3393145741264
20
-17.5944543468479
30
0
41
1
10
33.1122949378099
20
-17.3780466914524
30
0
41
1
10
32.975123403365
20
-17.2209942518177
30
0
41
1
10
32.8511539036881
20
-17.0497496607101
30
0
0
SPLINE
5
179
100
AcDbEntity
8
1
62
256
6
ByLayer
370
18
48
1
60
0
100
AcDbSpline
70
4
71
3
72
28
73
24
40
0
40
0
40
0
40
0
40
0.062499999999998
40
0.062499999999998
40
0.124999999999996
40
0.124999999999996
40
0.187499999999995
40
0.187499999999995
40
0.249999999999994
40
0.249999999999994
40
0.374999999999994
40
0.374999999999994
40
0.437499999999994
40
0.437499999999994
40
0.499999999999995
40
0.499999999999995
40
0.624999999999996
40
0.624999999999996
40
0.749999999999997
40
0.749999999999997
40
0.874999999999999
40
0.874999999999999
40
1
40
1
40
1
40
1
41
1
10
30.3787349247587
20
-8.45525052962972
30
0
41
1
10
30.4049850017578
20
-8.36973122965878
30
0
41
1
10
30.4333297561486
20
-8.28394107232421
30
0
41
1
10
30.4944771674391
20
-8.11348201951299
30
0
41
1
10
30.5268343749344
20
-8.02998264602869
30
0
41
1
10
30.5951619609663
20
-7.86618120097557
30
0
41
1
10
30.6311274821985
20
-7.7858811048481
30
0
41
1
10
30.7065542084527
20
-7.6283336039927
30
0
41
1
10
30.7458778251125
20
-7.55143812270305
30
0
41
1
10
30.8654919515765
20
-7.33077646398388
30
0
41
1
10
30.9483695217003
20
-7.19488662729495
30
0
41
1
10
31.0754048540173
20
-7.00499095273838
30
0
41
1
10
31.1180034715631
20
-6.94436322085687
30
0
41
1
10
31.2023496613722
20
-6.82941374226615
30
0
41
1
10
31.2442814053579
20
-6.77481439911048
30
0
41
1
10
31.3694457577768
20
-6.61853164355105
30
0
41
1
10
31.4521774482996
20
-6.52406896079412
30
0
41
1
10
31.617369888601
20
-6.35198654458242
30
0
41
1
10
31.6990857503618
20
-6.27509802057978
30
0
41
1
10
31.8662865328047
20
-6.13617435223875
30
0
41
1
10
31.9517831396185
20
-6.07414336779789
30
0
41
1
10
32.1334060110983
20
-5.96484707778538
30
0
41
1
10
32.2295283096269
20
-5.91755163342057
30
0
41
1
10
32.3349650848297
20
-5.87942348534636
30
0
0
SPLINE
5
17A
100
AcDbEntity
8
1
62
256
6
ByLayer
370
18
48
1
60
0
100
AcDbSpline
70
4
71
3
72
8
73
4
40
0
40
0
40
0
40
0
40
1
40
1
40
1
40
1
41
1
10
39.0224120340594
20
-10.9128636767322
30
0
41
1
10
39.2993710124241
20
-10.9795035070754
30
0
41
1
10
39.5674960842143
20
-11.0764035355904
30
0
41
1
10
39.8272005841222
20
-11.2012522664838
30
0
0
SPLINE
5
17B
100
AcDbEntity
8
1
62
256
6
ByLayer
370
18
48
1
60
0
100
AcDbSpline
70
4
71
3
72
26
73
22
40
0
40
0
40
0
40
0
40
0.250000000000001
40
0.250000000000001
40
0.375000000000001
40
0.375000000000001
40
0.500000000000001
40
0.500000000000001
40
0.625000000000001
40
0.625000000000001
40
0.687500000000001
40
0.687500000000001
40
0.75
40
0.75
40
0.8125
40
0.8125
40
0.875
40
0.875
40
0.9375
40
0.9375
40
1
40
1
40
1
40
1
41
1
10
48.8064120849655
20
-17.9705960718169
30
0
41
1
10
48.6557930724314
20
-18.0265411549803
30
0
41
1
10
48.5036106467211
20
-18.0879190163978
30
0
41
1
10
48.2711551356374
20
-18.1945175947714
30
0
41
1
10
48.1933358611682
20
-18.2323685284147
30
0
41
1
10
48.0381649073676
20
-18.3141676887691
30
0
41
1
10
47.9606434271163
20
-18.3581284227896
30
0
41
1
10
47.8058153930746
20
-18.4563304753839
30
0
41
1
10
47.7309238091029
20
-18.508996600136
30
0
41
1
10
47.6255094330478
20
-18.5962252690488
30
0
41
1
10
47.5920287955836
20
-18.626350913319
30
0
41
1
10
47.5307615926036
20
-18.6876454908505
30
0
41
1
10
47.5026031026924
20
-18.7192837459048
30
0
41
1
10
47.4552338358014
20
-18.7809028578523
30
0
41
1
10
47.4354590713441
20
-18.8115546968625
30
0
41
1
10
47.4052304034214
20
-18.8703807866996
30
0
41
1
10
47.394964696275
20
-18.8979870162778
30
0
41
1
10
47.382692865632
20
-18.9501215849276
30
0
41
1
10
47.3808150561903
20
-18.9743870970489
30
0
41
1
10
47.3838104723258
20
-19.0186424395702
30
0
41
1
10
47.3886271357889
20
-19.0389004826479
30
0
41
1
10
47.396107733464
20
-19.0576578829366
30
0
0
SPLINE
5
17C
100
AcDbEntity
8
1
62
256
6
ByLayer
370
18
48
1
60
0
100
AcDbSpline
70
4
71
3
72
10
73
6
40
0
40
0
40
0
40
0
40
0.5
40
0.5
40
1
40
1
40
1
40
1
41
1
10
32.4001092430273
20
-10.9080621454364
30
0
41
1
10
32.5172066894245
20
-10.9432496458905
30
0
41
1
10
32.6375756721718
20
-10.9732704012017
30
0
41
1
10
32.8824378049575
20
-11.020620803351
30
0
41
1
10
33.0064571332617
20
-11.0379036433019
30
0
41
1
10
33.1320329810333
20
-11.0480793484927
30
0
0
SPLINE
5
17D
100
AcDbEntity
8
1
62
256
6
ByLayer
370
18
48
1
60
0
100
AcDbSpline
70
4
71
3
72
12
73
8
40
0
40
0
40
0
40
0
40
0.103595537238352
40
0.300483156475477
40
0.497370775712601
40
0.89114601418685
40
1
40
1
40
1
40
1
41
1.02076673287779
10
48.806412248179
20
-17.9705960968508
30
0
41
1.02005196039548
10
48.5860351187103
20
-17.9367944106561
30
0
41
1.01814069316835
10
47.9845775220611
20
-17.8366834923408
30
0
41
1.01610930227499
10
47.3139306330222
20
-17.6984851729555
30
0
41
1.01876555595691
10
45.8137835281504
20
-17.5872604572343
30
0
41
1.02173322384664
10
43.5801152000835
20
-17.3546865011445
30
0
41
1.02394775681994
10
41.9956673157053
20
-17.1396885966138
30
0
41
1.02441262532196
10
41.6611345567821
20
-17.092168764236
30
0
0
SPLINE
5
17E
100
AcDbEntity
8
1
62
256
6
ByLayer
370
18
48
1
60
0
100
AcDbSpline
70
4
71
3
72
8
73
4
40
0
40
0
40
0
40
0
40
1
40
1
40
1
40
1
41
1
10
50.00210211835
20
-17.5566534319409
30
0
41
1
10
49.6093385748027
20
-17.6808980036142
30
0
41
1
10
49.2099695048887
20
-17.8206263386434
30
0
41
1
10
48.8064120849655
20
-17.9705960718169
30
0
0
SPLINE
5
17F
100
AcDbEntity
8
1
62
256
6
ByLayer
370
18
48
1
60
0
100
AcDbSpline
70
4
71
3
72
24
73
20
40
0
40
0
40
0
40
0
40
0.125
40
0.125
40
0.25
40
0.25
40
0.375
40
0.375
40
0.5
40
0.5
40
0.624999999999999
40
0.624999999999999
40
0.6875
40
0.6875
40
0.75
40
0.75
40
0.875
40
0.875
40
1
40
1
40
1
40
1
41
1
10
47.3961077334641
20
-19.0576578829366
30
0
41
1
10
47.4329132244462
20
-19.1499748551208
30
0
41
1
10
47.4722216546568
20
-19.2405613696992
30
0
41
1
10
47.5617353651711
20
-19.4142006413808
30
0
41
1
10
47.6120918864108
20
-19.4971488350071
30
0
41
1
10
47.7269338373995
20
-19.6532769158973
30
0
41
1
10
47.7914570557951
20
-19.7267945493668
30
0
41
1
10
47.9360246994849
20
-19.8612614979435
30
0
41
1
10
48.0158245607771
20
-19.9220851585059
30
0
41
1
10
48.1937290457516
20
-20.0281218487866
30
0
41
1
10
48.2917796760121
20
-20.073380925067
30
0
41
1
10
48.4567409460027
20
-20.1260166127408
30
0
41
1
10
48.5149347023155
20
-20.1410379781858
30
0
41
1
10
48.6375076566982
20
-20.16481882053
30
0
41
1
10
48.7015382744238
20
-20.1735317368206
30
0
41
1
10
48.9029194350372
20
-20.1889141780776
30
0
41
1
10
49.0498603974806
20
-20.1844787306225
30
0
41
1
10
49.3736876724607
20
-20.1409334103646
30
0
41
1
10
49.5450371707115
20
-20.1026737402936
30
0
41
1
10
49.7242218513043
20
-20.0492268792799
30
0
0
SPLINE
5
180
100
AcDbEntity
8
1
62
256
6
ByLayer
370
18
48
1
60
0
100
AcDbSpline
70
4
71
1
72
4
73
2
40
0
40
0
40
1
40
1
41
1
10
36.2947201550221
20
-21.319435054335
30
0
41
1
10
36.9734972260808
20
-20.6401306815159
30
0
0
SPLINE
5
181
100
AcDbEntity
8
1
62
256
6
ByLayer
370
18
48
1
60
0
100
AcDbSpline
70
4
71
2
72
6
73
3
40
0
40
0
40
0
40
1
40
1
40
1
41
1.02805999725224
10
39.8736904788999
20
-7.44762732459957
30
0
41
1.02805999725224
10
39.9345508496612
20
-8.18752841729981
30
0
41
1.02805999725224
10
39.9954112204225
20
-8.92742951000007
30
0
0
SPLINE
5
182
100
AcDbEntity
8
1
62
256
6
ByLayer
370
18
48
1
60
0
100
AcDbSpline
70
4
71
3
72
20
73
16
40
0
40
0
40
0
40
0
40
0.124999999999998
40
0.124999999999998
40
0.187499999999998
40
0.187499999999998
40
0.249999999999997
40
0.249999999999997
40
0.499999999999997
40
0.499999999999997
40
0.624999999999998
40
0.624999999999998
40
0.749999999999998
40
0.749999999999998
40
1
40
1
40
1
40
1
41
1
10
32.6739917004243
20
-7.16580344694444
30
0
41
1
10
32.7331859638744
20
-7.26840973292414
30
0
41
1
10
32.7940823583862
20
-7.38056990818447
30
0
41
1
10
32.888032826672
20
-7.56236588988938
30
0
41
1
10
32.9198718962421
20
-7.6254098027984
30
0
41
1
10
32.9838534983422
20
-7.75477512095151
30
0
41
1
10
33.0160197332656
20
-7.82113356886006
30
0
41
1
10
33.1777448099258
20
-8.16087112285604
30
0
41
1
10
33.3099697024686
20
-8.4577870549065
30
0
41
1
10
33.5130532037725
20
-8.93668072524349
30
0
41
1
10
33.5815416940586
20
-9.10195698813232
30
0
41
1
10
33.7202369324384
20
-9.44371415731914
30
0
41
1
10
33.7893221152989
20
-9.6174287977411
30
0
41
1
10
33.9959523628525
20
-10.1462879833501
30
0
41
1
10
34.1329107257875
20
-10.5091532970233
30
0
41
1
10
34.2695291716703
20
-10.8817566028957
30
0
0
SPLINE
5
183
100
AcDbEntity
8
1
62
256
6
ByLayer
370
18
48
1
60
0
100
AcDbSpline
70
4
71
3
72
24
73
20
40
0
40
0
40
0
40
0
40
0.124999999999999
40
0.124999999999999
40
0.249999999999999
40
0.249999999999999
40
0.374999999999998
40
0.374999999999998
40
0.499999999999997
40
0.499999999999997
40
0.624999999999997
40
0.624999999999997
40
0.749999999999996
40
0.749999999999996
40
0.812499999999997
40
0.812499999999997
40
0.874999999999998
40
0.874999999999998
40
1
40
1
40
1
40
1
41
1
10
39.8272005841222
20
-11.2012522664838
30
0
41
1
10
39.9983529198619
20
-11.2834124291287
30
0
41
1
10
40.1640299674334
20
-11.3769095186125
30
0
41
1
10
40.4790718329614
20
-11.5830283696182
30
0
41
1
10
40.6290065884333
20
-11.6957756037472
30
0
41
1
10
40.9142162946371
20
-11.9400876152473
30
0
41
1
10
41.0496415092358
20
-12.0718026572611
30
0
41
1
10
41.3047411181988
20
-12.3538429198158
30
0
41
1
10
41.4227959986216
20
-12.5023261119261
30
0
41
1
10
41.6396904031113
20
-12.8143246153543
30
0
41
1
10
41.7378232659499
20
-12.9769854428101
30
0
41
1
10
41.9108138071615
20
-13.3120908567086
30
0
41
1
10
41.9860544754535
20
-13.4850561930827
30
0
41
1
10
42.0805963318099
20
-13.7532099563951
30
0
41
1
10
42.1090264579984
20
-13.8441159683471
30
0
41
1
10
42.1586806753964
20
-14.0262376591104
30
0
41
1
10
42.1800282506087
20
-14.1177749250927
30
0
41
1
10
42.2334253387058
20
-14.3937623165286
30
0
41
1
10
42.2548920392333
20
-14.5795802676234
30
0
41
1
10
42.2609897547944
20
-14.7671771547181
30
0
0
SPLINE
5
184
100
AcDbEntity
8
1
62
256
6
ByLayer
370
18
48
1
60
0
100
AcDbSpline
70
4
71
3
72
8
73
4
40
0
40
0
40
0
40
0
40
1
40
1
40
1
40
1
41
1
10
49.7242218513043
20
-20.0492268792799
30
0
41
1
10
49.3554807817128
20
-20.2301447461293
30
0
41
1
10
48.9865047167745
20
-20.4076778568276
30
0
41
1
10
48.617295713109
20
-20.5818558339015
30
0
0
SPLINE
5
185
100
AcDbEntity
8
1
62
256
6
ByLayer
370
18
48
1
60
0
100
AcDbSpline
70
4
71
3
72
16
73
12
40
0
40
0
40
0
40
0
40
0.249999999999999
40
0.249999999999999
40
0.499999999999998
40
0.499999999999998
40
0.624999999999999
40
0.624999999999999
40
0.75
40
0.75
40
1
40
1
40
1
40
1
41
1
10
32.7206169738456
20
-16.8852185637547
30
0
41
1
10
32.4250334449437
20
-17.129575681319
30
0
41
1
10
32.1340776260569
20
-17.3601635539368
30
0
41
1
10
31.5623648400416
20
-17.7905096664654
30
0
41
1
10
31.2876498362121
20
-17.985741523402
30
0
41
1
10
30.8927420401525
20
-18.246247514567
30
0
41
1
10
30.763890664395
20
-18.3277101733497
30
0
41
1
10
30.5127174739305
20
-18.4784964013033
30
0
41
1
10
30.3924035766475
20
-18.5466169570249
30
0
41
1
10
30.047284034769
20
-18.7286938095525
30
0
41
1
10
29.8380792528125
20
-18.8207373499227
30
0
41
1
10
29.6520777060826
20
-18.8785046184602
30
0
0
SPLINE
5
186
100
AcDbEntity
8
1
62
256
6
ByLayer
370
18
48
1
60
0
100
AcDbSpline
70
4
71
3
72
16
73
12
40
0
40
0
40
0
40
0
40
0.25
40
0.25
40
0.375
40
0.375
40
0.5
40
0.5
40
0.75
40
0.75
40
1
40
1
40
1
40
1
41
1
10
48.7866351528021
20
-11.9836979584653
30
0
41
1
10
48.6364076103033
20
-11.933783814996
30
0
41
1
10
48.481014754816
20
-11.8757912955274
30
0
41
1
10
48.2418024864876
20
-11.7741027476208
30
0
41
1
10
48.1610863749476
20
-11.7376396604493
30
0
41
1
10
47.9982943689268
20
-11.6582503442758
30
0
41
1
10
47.9170009746488
20
-11.6155468794641
30
0
41
1
10
47.6743261323572
20
-11.4802999647353
30
0
41
1
10
47.5134471279565
20
-11.3805807466078
30
0
41
1
10
47.1912602300411
20
-11.1669490104438
30
0
41
1
10
47.0299480577165
20
-11.0530235383709
30
0
41
1
10
46.8680331259266
20
-10.9327380126102
30
0
0
SPLINE
5
187
100
AcDbEntity
8
1
62
256
6
ByLayer
370
18
48
1
60
0
100
AcDbSpline
70
4
71
3
72
8
73
4
40
0
40
0
40
0
40
0
40
1
40
1
40
1
40
1
41
1
10
36.9589238436761
20
-18.9107817479169
30
0
41
1
10
37.2358828220409
20
-18.9774215782602
30
0
41
1
10
37.5187506450212
20
-19.0171798616891
30
0
41
1
10
37.8069571188356
20
-19.0315571814867
30
0
0
SPLINE
5
188
100
AcDbEntity
8
1
62
256
6
ByLayer
370
18
48
1
60
0
100
AcDbSpline
70
4
71
3
72
8
73
4
40
0
40
0
40
0
40
0
40
1
40
1
40
1
40
1
41
1
10
32.7206169738457
20
-16.8852185637548
30
0
41
1
10
32.7666481066381
20
-16.9383232548785
30
0
41
1
10
32.8101985045556
20
-16.9931761438664
30
0
41
1
10
32.8511539036881
20
-17.0497496607101
30
0
0
SPLINE
5
189
100
AcDbEntity
8
1
62
256
6
ByLayer
370
18
48
1
60
0
100
AcDbSpline
70
4
71
3
72
18
73
14
40
0
40
0
40
0
40
0
40
0.125000000000001
40
0.125000000000001
40
0.250000000000002
40
0.250000000000002
40
0.499999999999999
40
0.499999999999999
40
0.625
40
0.625
40
0.75
40
0.75
40
1
40
1
40
1
40
1
41
1
10
33.1320329810333
20
-11.0480793484927
30
0
41
1
10
33.0080971512168
20
-10.9272927366904
30
0
41
1
10
32.8851066050497
20
-10.8076583225648
30
0
41
1
10
32.6410101143388
20
-10.5708127658281
30
0
41
1
10
32.5195967906224
20
-10.4533057987493
30
0
41
1
10
32.1617314485673
20
-10.1080657695836
30
0
41
1
10
31.9309273019079
20
-9.88687993712085
30
0
41
1
10
31.5968052435106
20
-9.56998506892077
30
0
41
1
10
31.4874560333374
20
-9.46684897754236
30
0
41
1
10
31.2730334466631
20
-9.26604167651109
30
0
41
1
10
31.1692516267216
20
-9.16958351323385
30
0
41
1
10
30.8697464578291
20
-8.89380512478115
30
0
41
1
10
30.6850757697373
20
-8.72728457968699
30
0
41
1
10
30.5165045086094
20
-8.58046097370729
30
0
0
SPLINE
5
18A
100
AcDbEntity
8
1
62
256
6
ByLayer
370
18
48
1
60
0
100
AcDbSpline
70
4
71
3
72
8
73
4
40
0
40
0
40
0
40
0
40
1
40
1
40
1
40
1
41
1
10
46.7136681434486
20
-21.2367154150412
30
0
41
1
10
46.6085316825552
20
-21.2387402645584
30
0
41
1
10
46.5038221685882
20
-21.2384844607824
30
0
41
1
10
46.3995773088662
20
-21.2357465798015
30
0
0
SPLINE
5
18B
100
AcDbEntity
8
1
62
256
6
ByLayer
370
18
48
1
60
0
100
AcDbSpline
70
4
71
3
72
8
73
4
40
0
40
0
40
0
40
0
40
1
40
1
40
1
40
1
41
1
10
28.2555653380082
20
-16.6844890032007
30
0
41
1
10
28.2603590111858
20
-16.6617520818593
30
0
41
1
10
28.2656671255033
20
-16.6390504355739
30
0
41
1
10
28.2715147185951
20
-16.6163856242708
30
0
0
SPLINE
5
18C
100
AcDbEntity
8
1
62
256
6
ByLayer
370
18
48
1
60
0
100
AcDbSpline
70
4
71
3
72
8
73
4
40
0
40
0
40
0
40
0
40
1
40
1
40
1
40
1
41
1
10
49.1157550043074
20
-16.7716072254922
30
0
41
1
10
49.409073238348
20
-17.0486688942002
30
0
41
1
10
49.7045972805636
20
-17.3128754316492
30
0
41
1
10
50.0021021183696
20
-17.5566534319347
30
0
0
SPLINE
5
18D
100
AcDbEntity
8
1
62
256
6
ByLayer
370
18
48
1
60
0
100
AcDbSpline
70
4
71
3
72
26
73
22
40
0
40
0
40
0
40
0
40
0.0624999999999983
40
0.0624999999999983
40
0.124999999999997
40
0.124999999999997
40
0.187499999999995
40
0.187499999999995
40
0.249999999999994
40
0.249999999999994
40
0.312499999999992
40
0.312499999999992
40
0.374999999999993
40
0.374999999999993
40
0.499999999999995
40
0.499999999999995
40
0.624999999999996
40
0.624999999999996
40
0.749999999999998
40
0.749999999999998
40
1
40
1
40
1
40
1
41
1
10
48.4077602521589
20
-15.1365722189555
30
0
41
1
10
48.3901865701389
20
-15.1569374096173
30
0
41
1
10
48.3742490484583
20
-15.1797493032288
30
0
41
1
10
48.3464705815086
20
-15.2314990827208
30
0
41
1
10
48.3345398919232
20
-15.2607853271761
30
0
41
1
10
48.3167035196402
20
-15.3254337583221
30
0
41
1
10
48.3107286372564
20
-15.360827718176
30
0
41
1
10
48.3059173233374
20
-15.4382353540312
30
0
41
1
10
48.3071641304216
20
-15.4787600888125
30
0
41
1
10
48.3167766049254
20
-15.5633586289774
30
0
41
1
10
48.3253180871444
20
-15.6077879811016
30
0
41
1
10
48.3480293947608
20
-15.6951329777231
30
0
41
1
10
48.3623078939525
20
-15.7388659276919
30
0
41
1
10
48.4118002468756
20
-15.8681936046659
30
0
41
1
10
48.4521595067143
20
-15.9489283206473
30
0
41
1
10
48.541692445176
20
-16.103365061237
30
0
41
1
10
48.5896514436365
20
-16.1748305358547
30
0
41
1
10
48.6894463675337
20
-16.3107753136755
30
0
41
1
10
48.7412997826042
20
-16.375122782586
30
0
41
1
10
48.8984274117088
20
-16.5580714775943
30
0
41
1
10
49.006226858835
20
-16.6681972671
30
0
41
1
10
49.1157550043074
20
-16.7716072254922
30
0
0
SPLINE
5
18E
100
AcDbEntity
8
1
62
256
6
ByLayer
370
18
48
1
60
0
100
AcDbSpline
70
4
71
3
72
11
73
7
40
0
40
0
40
0
40
0
40
0.100258159504418
40
0.25903613135658
40
0.576592075060903
40
1
40
1
40
1
40
1
41
1.01774327987905
10
48.4077602521621
20
-15.1365722189563
30
0
41
1.01722454828226
10
48.2150298982978
20
-15.0892156658039
30
0
41
1.01635405201137
10
47.7560161333135
20
-14.9518288302998
30
0
41
1.01876555595691
10
46.5685401517055
20
-13.950536959753
30
0
41
1.02349884684922
10
43.4215459225995
20
-11.2106694013005
30
0
41
1.02767136955276
10
40.798204932921
20
-9.24047044171455
30
0
41
1.02805999725224
10
39.9954112204225
20
-8.92742951000007
30
0
0
SPLINE
5
18F
100
AcDbEntity
8
1
62
256
6
ByLayer
370
18
48
1
60
0
100
AcDbSpline
70
4
71
3
72
16
73
12
40
0
40
0
40
0
40
0
40
0.249999999999994
40
0.249999999999994
40
0.374999999999992
40
0.374999999999992
40
0.499999999999992
40
0.499999999999992
40
0.749999999999996
40
0.749999999999996
40
1
40
1
40
1
40
1
41
1
10
42.2609897547944
20
-14.7671771547181
30
0
41
1
10
42.267523950913
20
-14.9685122773707
30
0
41
1
10
42.2594650971968
20
-15.1690952989706
30
0
41
1
10
42.2261022577548
20
-15.468927691684
30
0
41
1
10
42.2114202325878
20
-15.5686969947788
30
0
41
1
10
42.1748539844929
20
-15.767886844747
30
0
41
1
10
42.1529173083014
20
-15.867442451658
30
0
41
1
10
42.0768658165838
20
-16.1626058424927
30
0
41
1
10
42.0122115499523
20
-16.3561921430791
30
0
41
1
10
41.8560653701305
20
-16.7333362220312
30
0
41
1
10
41.765109788957
20
-16.9158293194478
30
0
41
1
10
41.6611345566974
20
-17.092168764224
30
0
0
SPLINE
5
190
100
AcDbEntity
8
1
62
256
6
ByLayer
370
18
48
1
60
0
100
AcDbSpline
70
4
71
3
72
16
73
12
40
0
40
0
40
0
40
0
40
0.249999999999994
40
0.249999999999994
40
0.374999999999995
40
0.374999999999995
40
0.499999999999996
40
0.499999999999996
40
0.749999999999998
40
0.749999999999998
40
1
40
1
40
1
40
1
41
1
10
44.1646457220617
20
-21.4108551501587
30
0
41
1
10
44.3663370440552
20
-21.3779512341045
30
0
41
1
10
44.5656283415605
20
-21.3479943809193
30
0
41
1
10
44.8609224911154
20
-21.3087714080371
30
0
41
1
10
44.9587470562184
20
-21.2966778039468
30
0
41
1
10
45.1531662909721
20
-21.2749856419917
30
0
41
1
10
45.2500112637632
20
-21.2653742936611
30
0
41
1
10
45.5345430926672
20
-21.2417539044195
30
0
41
1
10
45.7173062576844
20
-21.2340277269829
30
0
41
1
10
46.0688866375739
20
-21.2295186094636
30
0
41
1
10
46.2378126213008
20
-21.231498001381
30
0
41
1
10
46.3995773088663
20
-21.2357465798015
30
0
0
SPLINE
5
191
100
AcDbEntity
8
1
62
256
6
ByLayer
370
18
48
1
60
0
100
AcDbSpline
70
4
71
3
72
12
73
8
40
0
40
0
40
0
40
0
40
0.10359551429771
40
0.300483138573827
40
0.497370762849943
40
0.891146011402176
40
1
40
1
40
1
40
1
41
1.02076673234807
10
49.1157550043086
20
-16.7716072254924
30
0
41
1.02005196006992
10
48.8985327633673
20
-16.7255776835386
30
0
41
1.01814069306383
10
48.3025556208477
20
-16.604225228485
30
0
41
1.01610930227499
10
47.6272515433725
20
-16.4840779460829
30
0
41
1.01876555595691
10
46.2167800456447
20
-16.0252776240175
30
0
41
1.02173322384663
10
44.0981756681515
20
-15.346724837538
30
0
41
1.02394775681993
10
42.581800414761
20
-14.8678827646547
30
0
41
1.02441262532194
10
42.2609897548755
20
-14.7671771547436
30
0
0
SPLINE
5
192
100
AcDbEntity
8
1
62
256
6
ByLayer
370
18
48
1
60
0
100
AcDbSpline
70
4
71
3
72
10
73
6
40
0
40
0
40
0
40
0
40
0.5
40
0.5
40
1
40
1
40
1
40
1
41
1
10
36.9734972260808
20
-20.6401306815159
30
0
41
1
10
37.0890916063463
20
-20.5244465028132
30
0
41
1
10
37.2209819977644
20
-20.3250294123932
30
0
41
1
10
37.5037232224198
20
-19.7793402357094
30
0
41
1
10
37.6545223780337
20
-19.4331678870052
30
0
41
1
10
37.8069571255107
20
-19.0315571639003
30
0
0
SPLINE
5
193
100
AcDbEntity
8
1
62
256
6
ByLayer
370
18
48
1
60
0
100
AcDbSpline
70
4
71
3
72
8
73
4
40
0
40
0
40
0
40
0
40
1
40
1
40
1
40
1
41
1
10
51.1464988173771
20
-14.5365931233002
30
0
41
1
10
50.9110696045932
20
-14.2008047088942
30
0
41
1
10
50.6746414673533
20
-13.8645924675316
30
0
41
1
10
50.4372231479908
20
-13.5279601084384
30
0
0
SPLINE
5
194
100
AcDbEntity
8
1
62
256
6
ByLayer
370
18
48
1
60
0
100
AcDbSpline
70
4
71
3
72
26
73
22
40
0
40
0
40
0
40
0
40
0.0625000000000029
40
0.0625000000000029
40
0.125000000000006
40
0.125000000000006
40
0.250000000000011
40
0.250000000000011
40
0.312500000000012
40
0.312500000000012
40
0.375000000000013
40
0.375000000000013
40
0.500000000000011
40
0.500000000000011
40
0.625000000000008
40
0.625000000000008
40
0.750000000000005
40
0.750000000000005
40
0.875000000000003
40
0.875000000000003
40
1
40
1
40
1
40
1
41
1
10
41.6611345566974
20
-17.092168764224
30
0
41
1
10
41.6125826941976
20
-17.17450028255
30
0
41
1
10
41.5607409627325
20
-17.2545522583769
30
0
41
1
10
41.4506488184917
20
-17.4102326205601
30
0
41
1
10
41.3923062336144
20
-17.4859297103555
30
0
41
1
10
41.2102582119422
20
-17.703787113381
30
0
41
1
10
41.0788992358291
20
-17.837805609631
30
0
41
1
10
40.8680742169919
20
-18.0237576097342
30
0
41
1
10
40.7954900922928
20
-18.0832162444294
30
0
41
1
10
40.6457789200288
20
-18.1972375879479
30
0
41
1
10
40.5683555043108
20
-18.2519862337916
30
0
41
1
10
40.3318441577673
20
-18.4073544517451
30
0
41
1
10
40.1687061081485
20
-18.4992083929987
30
0
41
1
10
39.832136150842
20
-18.6617596296278
30
0
41
1
10
39.6587003376907
20
-18.7324475998865
30
0
41
1
10
39.3013745595414
20
-18.8531154818396
30
0
41
1
10
39.1167830123436
20
-18.903075108135
30
0
41
1
10
38.7472690712063
20
-18.979362203691
30
0
41
1
10
38.561155510189
20
-19.0061834604956
30
0
41
1
10
38.1861779824591
20
-19.0367864487995
30
0
41
1
10
37.9973159594799
20
-19.0406250892055
30
0
41
1
10
37.8069571188356
20
-19.0315571814867
30
0
0
SPLINE
5
195
100
AcDbEntity
8
1
62
256
6
ByLayer
370
18
48
1
60
0
100
AcDbSpline
70
4
71
3
72
10
73
6
40
0
40
0
40
0
40
0
40
0.5
40
0.5
40
1
40
1
40
1
40
1
41
1
10
31.1073214611005
20
-15.918805997263
30
0
41
1
10
31.2244189074976
20
-15.9539934977171
30
0
41
1
10
31.3420945339306
20
-15.9944534904511
30
0
41
1
10
31.5753857123437
20
-16.0866520024702
30
0
41
1
10
31.6905696149052
20
-16.1381802582872
30
0
41
1
10
31.8039054553803
20
-16.1957972699047
30
0
0
SPLINE
5
196
100
AcDbEntity
8
1
62
256
6
ByLayer
370
18
48
1
60
0
100
AcDbSpline
70
4
71
3
72
10
73
6
40
0
40
0
40
0
40
0
40
0.805733812076329
40
0.805733812076329
40
1
40
1
40
1
40
1
41
1
10
27.4209385595497
20
-18.4029014363419
30
0
41
1
10
27.5587472986385
20
-18.5264384250654
30
0
41
1
10
27.7014542688885
20
-18.6367541965941
30
0
41
1
10
27.8821417730167
20
-18.760445287374
30
0
41
1
10
27.917465052175
20
-18.7838821620908
30
0
41
1
10
27.9528959579652
20
-18.806701676123
30
0
0
SPLINE
5
197
100
AcDbEntity
8
1
62
256
6
ByLayer
370
18
48
1
60
0
100
AcDbSpline
70
4
71
4
72
10
73
5
40
0
40
0
40
0
40
0
40
0
40
1
40
1
40
1
40
1
40
1
41
0.573234727275906
10
43.4285850835106
20
-7.39739525311105
30
0
41
0.573191162520867
10
44.0026733163121
20
-7.6723609048719
30
0
41
0.573211558287576
10
44.5815897162713
20
-7.93728731491951
30
0
41
0.573295914576032
10
45.1651400053468
20
-8.19208688412938
30
0
41
0.573444231386236
10
45.7531268753614
20
-8.43667882251455
30
0
0
SPLINE
5
198
100
AcDbEntity
8
1
62
256
6
ByLayer
370
18
48
1
60
0
100
AcDbSpline
70
4
71
3
72
22
73
18
40
0
40
0
40
0
40
0
40
0.125
40
0.125
40
0.25
40
0.25
40
0.375
40
0.375
40
0.5
40
0.5
40
0.625
40
0.625
40
0.75
40
0.75
40
0.875
40
0.875
40
1
40
1
40
1
40
1
41
1
10
25.5616481942313
20
-21.0957795857914
30
0
41
1
10
25.5070669199382
20
-21.0899472276889
30
0
41
1
10
25.4496982606618
20
-21.0848269235846
30
0
41
1
10
25.329568692779
20
-21.0759637973951
30
0
41
1
10
25.2660762124376
20
-21.0721955036233
30
0
41
1
10
25.1381425816526
20
-21.0663355555213
30
0
41
1
10
25.0735368730741
20
-21.0642099208783
30
0
41
1
10
24.9430660357075
20
-21.0615442081896
30
0
41
1
10
24.8768099975494
20
-21.06102162239
30
0
41
1
10
24.7483736313571
20
-21.0616241332897
30
0
41
1
10
24.685552475708
20
-21.0627266305825
30
0
41
1
10
24.5627276433305
20
-21.066547543315
30
0
41
1
10
24.5029910234494
20
-21.0692789119054
30
0
41
1
10
24.3911877934567
20
-21.0761534250219
30
0
41
1
10
24.3384777897996
20
-21.0803126883482
30
0
41
1
10
24.2396783675987
20
-21.0901289247007
30
0
41
1
10
24.1946417638438
20
-21.0956917941102
30
0
41
1
10
24.1545321319136
20
-21.1018151270625
30
0
0
SPLINE
5
199
100
AcDbEntity
8
1
62
256
6
ByLayer
370
18
48
1
60
0
100
AcDbSpline
70
4
71
3
72
12
73
8
40
0
40
0
40
0
40
0
40
0.25
40
0.25
40
0.499999999999999
40
0.499999999999999
40
1
40
1
40
1
40
1
41
1
10
19.5214693783134
20
-17.2767673681729
30
0
41
1
10
19.536388058147
20
-17.385893184305
30
0
41
1
10
19.5623639344573
20
-17.4911304363408
30
0
41
1
10
19.638328822238
20
-17.693979835884
30
0
41
1
10
19.6885716485755
20
-17.7917366988255
30
0
41
1
10
19.8754451995977
20
-18.06825167943
30
0
41
1
10
20.0478941915633
20
-18.2323781997934
30
0
41
1
10
20.2792076144253
20
-18.3778303557566
30
0
0
SPLINE
5
19A
100
AcDbEntity
8
1
62
256
6
ByLayer
370
18
48
1
60
0
100
AcDbSpline
70
4
71
3
72
8
73
4
40
0
40
0
40
0
40
0
40
1
40
1
40
1
40
1
41
1
10
20.675897960387
20
-18.6595138833731
30
0
41
1
10
20.5398321943302
20
-18.5477537702148
30
0
41
1
10
20.4051109181993
20
-18.4569995918098
30
0
41
1
10
20.2792076144253
20
-18.3778303557566
30
0
0
SPLINE
5
19B
100
AcDbEntity
8
1
62
256
6
ByLayer
370
18
48
1
60
0
100
AcDbSpline
70
4
71
3
72
8
73
4
40
0
40
0
40
0
40
0
40
1
40
1
40
1
40
1
41
1
10
42.8754245748006
20
-6.8124534281198
30
0
41
1
10
43.0605112933748
20
-7.00778284263276
30
0
41
1
10
43.244863531452
20
-7.20274586870252
30
0
41
1
10
43.4285850835096
20
-7.39739525311003
30
0
0
SPLINE
5
19C
100
AcDbEntity
8
1
62
256
6
ByLayer
370
18
48
1
60
0
100
AcDbSpline
70
4
71
3
72
8
73
4
40
0
40
0
40
0
40
0
40
1
40
1
40
1
40
1
41
1
10
20.675897960387
20
-18.6595138833731
30
0
41
1
10
20.7865514437547
20
-18.7813054583531
30
0
41
1
10
20.8909568304358
20
-18.9141781709162
30
0
41
1
10
20.98836923369
20
-19.0594530941615
30
0
0
SPLINE
5
19D
100
AcDbEntity
8
1
62
256
6
ByLayer
370
18
48
1
60
0
100
AcDbSpline
70
4
71
3
72
8
73
4
40
0
40
0
40
0
40
0
40
1
40
1
40
1
40
1
41
1
10
19.6562093550507
20
14.5629694299899
30
0
41
1
10
19.5872829847908
20
14.3571981054042
30
0
41
1
10
19.5429949302619
20
14.1422280453881
30
0
41
1
10
19.5214693783134
20
13.9177701036373
30
0
0
SPLINE
5
19E
100
AcDbEntity
8
1
62
256
6
ByLayer
370
18
48
1
60
0
100
AcDbSpline
70
4
71
3
72
14
73
10
40
0
40
0
40
0
40
0
40
0.25
40
0.25
40
0.5
40
0.5
40
0.75
40
0.75
40
1
40
1
40
1
40
1
41
1
10
9.33660254037858
20
-19.0245744101322
30
0
41
1
10
9.32720842156829
20
-19.0356185274184
30
0
41
1
10
9.31588453947575
20
-19.0464153092313
30
0
41
1
10
9.28838045037799
20
-19.06709867989
30
0
41
1
10
9.27225845989867
20
-19.0770274497583
30
0
41
1
10
9.23213528231531
20
-19.0956673725615
30
0
41
1
10
9.20863486580126
20
-19.1042242696215
30
0
41
1
10
9.14968727595817
20
-19.1177281115533
30
0
41
1
10
9.1143669866712
20
-19.1222825906925
30
0
41
1
10
9.07679491924324
20
-19.1222825906925
30
0
0
SPLINE
5
19F
100
AcDbEntity
8
1
62
256
6
ByLayer
370
18
48
1
60
0
100
AcDbSpline
70
4
71
4
72
10
73
5
40
0
40
0
40
0
40
0
40
0
40
1
40
1
40
1
40
1
40
1
41
0.573444231386241
10
45.753126875361
20
-8.43667882251508
30
0
41
0.570818456486682
10
47.2185656818182
20
-8.88617195297284
30
0
41
0.569943198186829
10
48.6365634956559
20
-9.46718860419922
30
0
41
0.570818456486682
10
49.9938564579084
20
-10.1749884131457
30
0
41
0.573444231386241
10
51.2782925685619
20
-11.0025088796493
30
0
0
SPLINE
5
1A0
100
AcDbEntity
8
1
62
256
6
ByLayer
370
18
48
1
60
0
100
AcDbSpline
70
4
71
3
72
14
73
10
40
0
40
0
40
0
40
0
40
0.25
40
0.25
40
0.5
40
0.5
40
0.75
40
0.75
40
1
40
1
40
1
40
1
41
1
10
6.92320508075687
20
5.85988980456935
30
0
41
1
10
6.88568264759598
20
5.85988980456935
30
0
41
1
10
6.84983063386522
20
5.87512340989326
30
0
41
1
10
6.79175708052526
20
5.918261819316
30
0
41
1
10
6.76785100487527
20
5.94614793734942
30
0
41
1
10
6.72773775344393
20
6.00567161829608
30
0
41
1
10
6.71147628110015
20
6.03742672607433
30
0
41
1
10
6.68402554771035
20
6.10231901184949
30
0
41
1
10
6.67278813956517
20
6.13568757087467
30
0
41
1
10
6.66339745962154
20
6.16973001948571
30
0
0
SPLINE
5
1A1
100
AcDbEntity
8
1
62
256
6
ByLayer
370
18
48
1
60
0
100
AcDbSpline
70
4
71
3
72
14
73
10
40
0
40
0
40
0
40
0
40
0.25
40
0.25
40
0.5
40
0.5
40
0.75
40
0.75
40
1
40
1
40
1
40
1
41
1
10
6.66339745962154
20
19.0245744101322
30
0
41
1
10
6.67279157843183
20
19.0356185274184
30
0
41
1
10
6.68411546052437
20
19.0464153092313
30
0
41
1
10
6.71161954962213
20
19.06709867989
30
0
41
1
10
6.72774154010145
20
19.0770274497583
30
0
41
1
10
6.7678647176848
20
19.0956673725615
30
0
41
1
10
6.79136513419885
20
19.1042242696215
30
0
41
1
10
6.85031272404194
20
19.1177281115534
30
0
41
1
10
6.88563301332894
20
19.1222825906925
30
0
41
1
10
6.92320508075687
20
19.1222825906925
30
0
0
SPLINE
5
1A2
100
AcDbEntity
8
1
62
256
6
ByLayer
370
18
48
1
60
0
100
AcDbSpline
70
4
71
3
72
25
73
21
40
0
40
0
40
0
40
0
40
0.125
40
0.125
40
0.25
40
0.25
40
0.3125
40
0.3125
40
0.375
40
0.4375
40
0.4375
40
0.500000000000001
40
0.500000000000001
40
0.625
40
0.625
40
0.75
40
0.75
40
0.875
40
0.875
40
1
40
1
40
1
40
1
41
1
10
19.6562093550507
20
14.56296942999
30
0
41
1
10
19.7044741701266
20
14.6806085099604
30
0
41
1
10
19.7663926529257
20
14.7902247740499
30
0
41
1
10
19.9169682371801
20
14.9827607879655
30
0
41
1
10
20.0057647856579
20
15.0666065784085
30
0
41
1
10
20.1623146459541
20
15.1720089751668
30
0
41
1
10
20.2181846407002
20
15.2035099175321
30
0
41
1
10
20.3354490069748
20
15.2582655371442
30
0
41
1
10
20.4587594869911
20
15.3051448422059
30
0
41
1
10
20.5942740772952
20
15.3366237104301
30
0
41
1
10
20.7360463843997
20
15.3604603202826
30
0
41
1
10
20.8104865711041
20
15.3685753716727
30
0
41
1
10
21.0405332070842
20
15.3812218240579
30
0
41
1
10
21.2006080911356
20
15.3742434020777
30
0
41
1
10
21.5332648654645
20
15.3340651586427
30
0
41
1
10
21.7062303082999
20
15.3007380757591
30
0
41
1
10
22.0631399101497
20
15.2102627730756
30
0
41
1
10
22.242470430188
20
15.1543599059422
30
0
41
1
10
22.6030448292849
20
15.0247463543032
30
0
41
1
10
22.7842878571362
20
14.9510055733085
30
0
41
1
10
22.9665588325119
20
14.869125853267
30
0
0
SPLINE
5
1A3
100
AcDbEntity
8
1
62
256
6
ByLayer
370
18
48
1
60
0
100
AcDbSpline
70
4
71
3
72
14
73
10
40
0
40
0
40
0
40
0
40
0.25
40
0.25
40
0.5
40
0.5
40
0.75
40
0.75
40
1
40
1
40
1
40
1
41
1
10
9.07679491924327
20
19.1222825906926
30
0
41
1
10
9.11431735240416
20
19.1222825906926
30
0
41
1
10
9.15016936613495
20
19.1176210455321
30
0
41
1
10
9.20824291947488
20
19.1043106800553
30
0
41
1
10
9.23214899512487
20
19.0956617404785
30
0
41
1
10
9.27226224655624
20
19.0770249518318
30
0
41
1
10
9.2885237189
20
19.0670039094875
30
0
41
1
10
9.31597445228982
20
19.0463346141653
30
0
41
1
10
9.32721186043506
20
19.0356144845434
30
0
41
1
10
9.33660254037869
20
19.0245744101321
30
0
0
SPLINE
5
1A4
100
AcDbEntity
8
1
62
256
6
ByLayer
370
18
48
1
60
0
100
AcDbSpline
70
4
71
3
72
14
73
10
40
0
40
0
40
0
40
0
40
0.25
40
0.25
40
0.5
40
0.5
40
0.75
40
0.75
40
1
40
1
40
1
40
1
41
1
10
9.33660254037869
20
6.16973001948611
30
0
41
1
10
9.3272084215684
20
6.13567510453157
30
0
41
1
10
9.31588453947577
20
6.10206728171747
30
0
41
1
10
9.28838045037801
20
6.03712755983034
30
0
41
1
10
9.27225845989869
20
6.00566371121212
30
0
41
1
10
9.23213528231534
20
5.94612987812181
30
0
41
1
10
9.20863486580126
20
5.91854200832069
30
0
41
1
10
9.1496872759582
20
5.87477627667442
30
0
41
1
10
9.1143669866712
20
5.85988980456941
30
0
41
1
10
9.07679491924324
20
5.85988980456941
30
0
0
SPLINE
5
1A5
100
AcDbEntity
8
1
62
256
6
ByLayer
370
18
48
1
60
0
100
AcDbSpline
70
4
71
4
72
10
73
5
40
0
40
0
40
0
40
0
40
0
40
1
40
1
40
1
40
1
40
1
41
0.585786437626905
10
54.4355086556722
20
-12.0413687760813
30
0
41
0.499547670576652
10
54.3850917390751
20
-12.1478387087589
30
0
41
0.470801414893234
10
54.3658057522359
20
-12.1620636652436
30
0
41
0.499547670576652
10
54.3420821565124
20
-12.1637322346523
30
0
41
0.585786437626905
10
54.2367498762751
20
-12.1148170082815
30
0
0
SPLINE
5
1A6
100
AcDbEntity
8
1
62
256
6
ByLayer
370
18
48
1
60
0
100
AcDbSpline
70
4
71
4
72
10
73
5
40
0
40
0
40
0
40
0
40
0
40
1
40
1
40
1
40
1
40
1
41
0.585786437626905
10
45.1167014335573
20
-21.3022831997696
30
0
41
0.558344623794314
10
45.1414248652309
20
-21.3561444667092
30
0
41
0.549197352516784
10
45.1426535972979
20
-21.3648475705431
30
0
41
0.558344623794314
10
45.1412632570288
20
-21.3735749573175
30
0
41
0.585786437626905
10
45.1155367303882
20
-21.4279039751222
30
0
0
SPLINE
5
1A7
100
AcDbEntity
8
1
62
256
6
ByLayer
370
18
48
1
60
0
100
AcDbSpline
70
4
71
3
72
10
73
6
40
0
40
0
40
0
40
0
40
0.5
40
0.5
40
1
40
1
40
1
40
1
41
1
10
47.7970370644518
20
2.87580418800908
30
0
41
1
10
43.7100821356154
20
4.97677007250999
30
0
41
1
10
39.5993112479242
20
7.03154340679455
30
0
41
1
10
31.324158269008
20
11.0357617665466
30
0
41
1
10
27.1607346318158
20
12.9850192940962
30
0
41
1
10
22.9665588325118
20
14.8691258532671
30
0
0
SPLINE
5
1A8
100
AcDbEntity
8
1
62
256
6
ByLayer
370
18
48
1
60
0
100
AcDbSpline
70
4
71
3
72
14
73
10
40
0
40
0
40
0
40
0
40
0.25
40
0.25
40
0.5
40
0.5
40
0.75
40
0.75
40
1
40
1
40
1
40
1
41
1
10
6.92320508075687
20
-19.1222825906926
30
0
41
1
10
6.88568264759598
20
-19.1222825906926
30
0
41
1
10
6.84983063386522
20
-19.1176210455321
30
0
41
1
10
6.79175708052526
20
-19.1043106800553
30
0
41
1
10
6.76785100487527
20
-19.0956617404786
30
0
41
1
10
6.72773775344393
20
-19.0770249518318
30
0
41
1
10
6.71147628110015
20
-19.0670039094876
30
0
41
1
10
6.68402554771035
20
-19.0463346141653
30
0
41
1
10
6.67278813956517
20
-19.0356144845435
30
0
41
1
10
6.66339745962154
20
-19.0245744101322
30
0
0
SPLINE
5
1A9
100
AcDbEntity
8
1
62
256
6
ByLayer
370
18
48
1
60
0
100
AcDbSpline
70
4
71
3
72
14
73
10
40
0
40
0
40
0
40
0
40
0.25
40
0.25
40
0.5
40
0.5
40
0.75
40
0.75
40
1
40
1
40
1
40
1
41
1
10
6.66339745962154
20
-6.16973001948571
30
0
41
1
10
6.67279157843183
20
-6.13567510453117
30
0
41
1
10
6.68411546052437
20
-6.10206728171741
30
0
41
1
10
6.71161954962213
20
-6.03712755983028
30
0
41
1
10
6.72774154010145
20
-6.00566371121207
30
0
41
1
10
6.7678647176848
20
-5.94612987812178
30
0
41
1
10
6.79136513419885
20
-5.91854200832063
30
0
41
1
10
6.85031272404194
20
-5.8747762766744
30
0
41
1
10
6.88563301332891
20
-5.85988980456938
30
0
41
1
10
6.92320508075687
20
-5.85988980456938
30
0
0
SPLINE
5
1AA
100
AcDbEntity
8
1
62
256
6
ByLayer
370
18
48
1
60
0
100
AcDbSpline
70
4
71
4
72
10
73
5
40
0
40
0
40
0
40
0
40
0
40
1
40
1
40
1
40
1
40
1
41
0.585786437626905
10
46.0245800442738
20
-8.25820523326945
30
0
41
0.585593921963552
10
45.2933687610731
20
-7.95403452088139
30
0
41
0.585506897264047
10
44.5619148567345
20
-7.63048243737835
30
0
41
0.585525363528389
10
43.8366964707208
20
-7.29024559619324
30
0
41
0.585649320756578
10
43.1136320184541
20
-6.93110030554556
30
0
0
SPLINE
5
1AB
100
AcDbEntity
8
1
62
256
6
ByLayer
370
18
48
1
60
0
100
AcDbSpline
70
4
71
3
72
22
73
18
40
0
40
0
40
0
40
0
40
0.125
40
0.125
40
0.25
40
0.25
40
0.375
40
0.375
40
0.5
40
0.5
40
0.625
40
0.625
40
0.75
40
0.75
40
0.875
40
0.875
40
1
40
1
40
1
40
1
41
1
10
27.7354884604551
20
0.429100053390755
30
0
41
1
10
27.6499014221535
20
0.440767068699614
30
0
41
1
10
27.5634656922491
20
0.445720633629236
30
0
41
1
10
27.3888941853338
20
0.442179790330016
30
0
41
1
10
27.3010597644843
20
0.433557295389733
30
0
41
1
10
27.1294803265534
20
0.403355813557567
30
0
41
1
10
27.0450093892204
20
0.381786690362162
30
0
41
1
10
26.8787948396802
20
0.325271413931631
30
0
41
1
10
26.7972190308188
20
0.290244550411728
30
0
41
1
10
26.6420987301162
20
0.208257980838425
30
0
41
1
10
26.5677476693438
20
0.16101616732459
30
0
41
1
10
26.4270660324047
20
0.0532812829757461
30
0
41
1
10
26.3624771095479
20
-0.0058299263520212
30
0
41
1
10
26.2456582396978
20
-0.135319516049009
30
0
41
1
10
26.1931750775571
20
-0.205950884082881
30
0
41
1
10
26.1047744133581
20
-0.360246551765385
30
0
41
1
10
26.0701377758192
20
-0.441767729071273
30
0
41
1
10
26.0482081528898
20
-0.526765224253694
30
0
0
SPLINE
5
1AC
100
AcDbEntity
8
1
62
256
6
ByLayer
370
18
48
1
60
0
100
AcDbSpline
70
4
71
3
72
12
73
8
40
0
40
0
40
0
40
0
40
0.5
40
0.5
40
0.75
40
0.75
40
1
40
1
40
1
40
1
41
1
10
43.4285850835114
20
-7.39739525311285
30
0
41
1
10
43.3829528484615
20
-7.29615229387548
30
0
41
1
10
43.3311799370042
20
-7.20636268886588
30
0
41
1
10
43.2491628464452
20
-7.08832033906367
30
0
41
1
10
43.2210446678719
20
-7.05169266419406
30
0
41
1
10
43.1649175808314
20
-6.98468797681272
30
0
41
1
10
43.136609545338
20
-6.95407783242945
30
0
41
1
10
43.111487113458
20
-6.92895540054951
30
0
0
SPLINE
5
1AD
100
AcDbEntity
8
1
62
256
6
ByLayer
370
18
48
1
60
0
100
AcDbSpline
70
4
71
4
72
10
73
5
40
0
40
0
40
0
40
0
40
0
40
1
40
1
40
1
40
1
40
1
41
0.585786437626905
10
54.2367498762751
20
-12.1148170082815
30
0
41
0.58576040151691
10
53.568937214449
20
-11.8046916843736
30
0
41
0.585751722813578
10
52.905393574109
20
-11.4892441892839
30
0
41
0.58576040151691
10
52.2447901054414
20
-11.1678577435221
30
0
41
0.585786437626905
10
51.6025912159468
20
-10.8482288112711
30
0
0
SPLINE
5
1AE
100
AcDbEntity
8
1
62
256
6
ByLayer
370
18
48
1
60
0
100
AcDbSpline
70
4
71
3
72
10
73
6
40
0
40
0
40
0
40
0
40
0.5
40
0.5
40
1
40
1
40
1
40
1
41
1
10
20.9883692336981
20
-19.0594530941451
30
0
41
1
10
21.4256908519785
20
-19.3993842644018
30
0
41
1
10
21.862670171653
20
-19.7400135274494
30
0
41
1
10
22.7266366874121
20
-20.4416502535159
30
0
41
1
10
23.1537863429772
20
-20.8023263923927
30
0
41
1
10
23.5669540548006
20
-21.1915176755228
30
0
0
SPLINE
5
1AF
100
AcDbEntity
8
1
62
256
6
ByLayer
370
18
48
1
60
0
100
AcDbSpline
70
4
71
3
72
14
73
10
40
0
40
0
40
0
40
0
40
0.25
40
0.25
40
0.5
40
0.5
40
0.75
40
0.75
40
1
40
1
40
1
40
1
41
1
10
9.07679491924327
20
-5.85988980456941
30
0
41
1
10
9.11431735240416
20
-5.85988980456941
30
0
41
1
10
9.15016936613492
20
-5.87512340989332
30
0
41
1
10
9.20824291947486
20
-5.91826181931603
30
0
41
1
10
9.23214899512485
20
-5.94614793734945
30
0
41
1
10
9.27226224655618
20
-6.00567161829611
30
0
41
1
10
9.28852371889997
20
-6.03742672607436
30
0
41
1
10
9.31597445228977
20
-6.10231901184949
30
0
41
1
10
9.32721186043494
20
-6.13568757087467
30
0
41
1
10
9.33660254037858
20
-6.16973001948574
30
0
0
SPLINE
5
1B0
100
AcDbEntity
8
1
62
256
6
ByLayer
370
18
48
1
60
0
100
AcDbSpline
70
4
71
4
72
10
73
5
40
0
40
0
40
0
40
0
40
0
40
1
40
1
40
1
40
1
40
1
41
0.585786437626905
10
51.6025912159468
20
-10.8482288112711
30
0
41
0.583104148329645
10
50.3208480517719
20
-10.0224433227144
30
0
41
0.582210051897225
10
48.9359682262815
20
-9.30025754325726
30
0
41
0.583104148329645
10
47.4891497282951
20
-8.70743177834495
30
0
41
0.585786437626905
10
46.0245800442738
20
-8.25820523326945
30
0
0
SPLINE
5
1B1
100
AcDbEntity
8
SK1
62
256
6
ByLayer
370
18
48
1
60
0
100
AcDbSpline
70
4
71
3
72
26
73
22
40
0
40
0
40
0
40
0
40
0.249999999999998
40
0.249999999999998
40
0.499999999999996
40
0.499999999999996
40
0.624999999999997
40
0.624999999999997
40
0.749999999999997
40
0.749999999999997
40
0.812499999999997
40
0.812499999999997
40
0.874999999999997
40
0.874999999999997
40
0.906249999999998
40
0.906249999999998
40
0.937499999999999
40
0.937499999999999
40
0.968749999999999
40
0.968749999999999
40
1
40
1
40
1
40
1
41
1
10
-0.199999999999989
20
14.0005308360297
30
0
41
1
10
-0.200325484931824
20
13.9929389755075
30
0
41
1
10
-0.201888899753499
20
13.9843210157469
30
0
41
1
10
-0.208609119240805
20
13.9646403216357
30
0
41
1
10
-0.213679061265992
20
13.9535995966933
30
0
41
1
10
-0.226167999261975
20
13.9345502713768
30
0
41
1
10
-0.231153161037923
20
13.9277833881154
30
0
41
1
10
-0.243888769290209
20
13.913115040607
30
0
41
1
10
-0.251556816304287
20
13.9052316346871
30
0
41
1
10
-0.267075773720649
20
13.8923152006562
30
0
41
1
10
-0.272924030069333
20
13.8878208927885
30
0
41
1
10
-0.287209208096499
20
13.878225468905
30
0
41
1
10
-0.295564457536244
20
13.8731201398341
30
0
41
1
10
-0.312114202499345
20
13.8650128625779
30
0
41
1
10
-0.318366184722322
20
13.8622189843533
30
0
41
1
10
-0.332743293280913
20
13.8567292113689
30
0
41
1
10
-0.341070083536834
20
13.8540052897844
30
0
41
1
10
-0.357954764476204
20
13.8496012556341
30
0
41
1
10
-0.366414150147989
20
13.8479342360846
30
0
41
1
10
-0.381697986923029
20
13.8456694438159
30
0
41
1
10
-0.388593885243012
20
13.8450250955503
30
0
41
1
10
-0.394913799811292
20
13.8446596982822
30
0
0
SPLINE
5
1B2
100
AcDbEntity
8
SK1
62
256
6
ByLayer
370
18
48
1
60
0
100
AcDbSpline
70
4
71
3
72
24
73
20
40
0
40
0
40
0
40
0
40
0.0624999999999986
40
0.0624999999999986
40
0.093749999999998
40
0.093749999999998
40
0.124999999999997
40
0.124999999999997
40
0.187499999999998
40
0.187499999999998
40
0.249999999999999
40
0.249999999999999
40
0.374999999999999
40
0.374999999999999
40
0.499999999999999
40
0.499999999999999
40
0.75
40
0.75
40
1
40
1
40
1
40
1
41
1
10
-0.394913799814617
20
-13.8446595289409
30
0
41
1
10
-0.382255785364464
20
-13.8453913768852
30
0
41
1
10
-0.366381305411494
20
-13.8473983411521
30
0
41
1
10
-0.340987965989854
20
-13.8540289822524
30
0
41
1
10
-0.332666868372428
20
-13.8567559126218
30
0
41
1
10
-0.318321797663032
20
-13.8622381003803
30
0
41
1
10
-0.312091372528243
20
-13.8650224034849
30
0
41
1
10
-0.29547826331904
20
-13.8731651598702
30
0
41
1
10
-0.287128669286233
20
-13.8782791877473
30
0
41
1
10
-0.272997114041232
20
-13.887771829979
30
0
41
1
10
-0.267181679795755
20
-13.8922335922221
30
0
41
1
10
-0.25172846701571
20
-13.9050753946242
30
0
41
1
10
-0.244061293421112
20
-13.9129349686681
30
0
41
1
10
-0.231313142997919
20
-13.9275805879124
30
0
41
1
10
-0.226297832831591
20
-13.9343664914098
30
0
41
1
10
-0.213720500579399
20
-13.9535077777845
30
0
41
1
10
-0.20862851543913
20
-13.9645912547912
30
0
41
1
10
-0.201888714477093
20
-13.9843134154885
30
0
41
1
10
-0.200325526921631
20
-13.9929377840209
30
0
41
1
10
-0.199999999999989
20
-14.0005306290775
30
0
0
SPLINE
5
1B3
100
AcDbEntity
8
SK1
62
256
6
ByLayer
370
18
48
1
60
0
100
AcDbSpline
70
4
71
3
72
19
73
15
40
0
40
0
40
0
40
0
40
0.0043814234970668
40
0.0787243202731182
40
0.15306721704917
40
0.301753010601272
40
0.376095907377324
40
0.450438804153375
40
0.599124597705478
40
0.74781039125758
40
0.822153288033632
40
0.896496184809683
40
0.970839081585735
40
1
40
1
40
1
40
1
41
1
10
-0.394913799811292
20
-5.00116108217654
30
0
41
1
10
-0.394913799811292
20
-5.02384266526144
30
0
41
1
10
-0.394913799811292
20
-5.43069780454795
30
0
41
1
10
-0.394913799811292
20
-6.19788950405021
30
0
41
1
10
-0.394913799811292
20
-7.59985122616763
30
0
41
1
10
-0.394913799811292
20
-8.86359092653058
30
0
41
1
10
-0.394913799811292
20
-9.98771978618731
30
0
41
1
10
-0.394913799811292
20
-11.015314225612
30
0
41
1
10
-0.394913799811292
20
-12.1118907902116
30
0
41
1
10
-0.394913799811292
20
-12.9393754432253
30
0
41
1
10
-0.394913799811292
20
-13.4200270263956
30
0
41
1
10
-0.394913799811292
20
-13.6822693038322
30
0
41
1
10
-0.394913799811292
20
-13.8056513394505
30
0
41
1
10
-0.394913799811292
20
-13.8386282511807
30
0
41
1
10
-0.394913799811292
20
-13.8446595289407
30
0
0
SPLINE
5
1B4
100
AcDbEntity
8
SK1
62
256
6
ByLayer
370
18
48
1
60
0
100
AcDbSpline
70
4
71
3
72
30
73
26
40
0
40
0
40
0
40
0
40
0.250000000000007
40
0.250000000000007
40
0.37500000000001
40
0.37500000000001
40
0.437500000000012
40
0.437500000000012
40
0.500000000000013
40
0.500000000000013
40
0.515625000000013
40
0.515625000000013
40
0.531250000000012
40
0.531250000000012
40
0.546875000000012
40
0.546875000000012
40
0.562500000000012
40
0.562500000000012
40
0.593750000000011
40
0.593750000000011
40
0.62500000000001
40
0.62500000000001
40
0.750000000000007
40
0.750000000000007
40
1
40
1
40
1
40
1
41
1
10
-1.49503997793928
20
-2.59572959682799
30
0
41
1
10
-1.51015162966533
20
-2.50368116498174
30
0
41
1
10
-1.52628507611223
20
-2.41180980880378
30
0
41
1
10
-1.55428878410458
20
-2.2755201435352
30
0
41
1
10
-1.56421680497178
20
-2.23037341461577
30
0
41
1
10
-1.58141440210633
20
-2.1639829941042
30
0
41
1
10
-1.58752132339228
20
-2.14206819971534
30
0
41
1
10
-1.60149534256203
20
-2.09931454439405
30
0
41
1
10
-1.60894575843759
20
-2.07790347543045
30
0
41
1
10
-1.62266900676536
20
-2.05586039978144
30
0
41
1
10
-1.62570082643288
20
-2.05168607565219
30
0
41
1
10
-1.6327429139065
20
-2.04525125497747
30
0
41
1
10
-1.63700800605315
20
-2.04294931985936
30
0
41
1
10
-1.64585244680077
20
-2.04467800309183
30
0
41
1
10
-1.64990007736449
20
-2.04874689379
30
0
41
1
10
-1.65615085025311
20
-2.05848683766303
30
0
41
1
10
-1.6585367992972
20
-2.06399527606521
30
0
41
1
10
-1.66489176376342
20
-2.08121679809486
30
0
41
1
10
-1.66788896083401
20
-2.0933619102222
30
0
41
1
10
-1.67305217630945
20
-2.11760538297838
30
0
41
1
10
-1.67515949014842
20
-2.12981712458023
30
0
41
1
10
-1.68448088583639
20
-2.19110728313305
30
0
41
1
10
-1.68842272666504
20
-2.24069381947155
30
0
41
1
10
-1.69767344187412
20
-2.38821758451058
30
0
41
1
10
-1.69960566352387
20
-2.48611817686324
30
0
41
1
10
-1.69999999999999
20
-2.58377808521789
30
0
0
SPLINE
5
1B5
100
AcDbEntity
8
SK1
62
256
6
ByLayer
370
18
48
1
60
0
100
AcDbSpline
70
4
71
3
72
8
73
4
40
0
40
0
40
0
40
0
40
1
40
1
40
1
40
1
41
1
10
-1.30710678118655
20
-3.62853433720642
30
0
41
1
10
-1.37356947571646
20
-3.29172452904805
30
0
41
1
10
-1.4372004972023
20
-2.94804273884375
30
0
41
1
10
-1.49503997793928
20
-2.59572959682799
30
0
0
SPLINE
5
1B6
100
AcDbEntity
8
SK1
62
256
6
ByLayer
370
18
48
1
60
0
100
AcDbSpline
70
4
71
3
72
24
73
20
40
0
40
0
40
0
40
0
40
0.0624999999999992
40
0.0624999999999992
40
0.0937499999999992
40
0.0937499999999992
40
0.124999999999999
40
0.124999999999999
40
0.187499999999999
40
0.187499999999999
40
0.249999999999999
40
0.249999999999999
40
0.374999999999999
40
0.374999999999999
40
0.499999999999999
40
0.499999999999999
40
0.749999999999999
40
0.749999999999999
40
1
40
1
40
1
40
1
41
1
10
-0.394913799811292
20
-5.00116108217659
30
0
41
1
10
-0.426416973178789
20
-5.02653616921788
30
0
41
1
10
-0.461874450689408
20
-5.04836955052753
30
0
41
1
10
-0.52321086550154
20
-5.0673384865444
30
0
41
1
10
-0.544642575651977
20
-5.07110826896445
30
0
41
1
10
-0.588380278389167
20
-5.07223202598755
30
0
41
1
10
-0.609788395540534
20
-5.06961980113229
30
0
41
1
10
-0.672789603751454
20
-5.05335078499465
30
0
41
1
10
-0.71031274046274
20
-5.0320109742261
30
0
41
1
10
-0.775266891414162
20
-4.98261066908682
30
0
41
1
10
-0.803680918974493
20
-4.95400421215445
30
0
41
1
10
-0.880877966896918
20
-4.86378271219749
30
0
41
1
10
-0.9217089680632
20
-4.79843151025682
30
0
41
1
10
-0.995084749893522
20
-4.66317059286271
30
0
41
1
10
-1.02706832630062
20
-4.59308791137028
30
0
41
1
10
-1.11408506565445
20
-4.37989740367411
30
0
41
1
10
-1.16074317918824
20
-4.23295129358476
30
0
41
1
10
-1.24213371033556
20
-3.93462763573854
30
0
41
1
10
-1.27666571440918
20
-3.78279907073758
30
0
41
1
10
-1.30710678118655
20
-3.62853433720645
30
0
0
SPLINE
5
1B7
100
AcDbEntity
8
SK1
62
256
6
ByLayer
370
18
48
1
60
0
100
AcDbSpline
70
4
71
3
72
20
73
16
40
0
40
0
40
0
40
0
40
0.125
40
0.125
40
0.25
40
0.25
40
0.5
40
0.5
40
0.5625
40
0.5625
40
0.625
40
0.625
40
0.75
40
0.75
40
1
40
1
40
1
40
1
41
1
10
-1.69999999999999
20
-2.58377808521789
30
0
41
1
10
-1.73306960917341
20
-2.37578562809972
30
0
41
1
10
-1.7640475098402
20
-2.164879474347
30
0
41
1
10
-1.8194991935238
20
-1.74011907259904
30
0
41
1
10
-1.84395869573467
20
-1.52647783394633
30
0
41
1
10
-1.90487477218429
20
-0.881257169357013
30
0
41
1
10
-1.92848782264878
20
-0.445321233524226
30
0
41
1
10
-1.92858331422559
20
0.108603735751103
30
0
41
1
10
-1.92713632468642
20
0.220177272976287
30
0
41
1
10
-1.92143351430278
20
0.442459814342243
30
0
41
1
10
-1.91719408999322
20
0.552958450347262
30
0
41
1
10
-1.90057185673115
20
0.882620801089502
30
0
41
1
10
-1.88427766240593
20
1.09995043784016
30
0
41
1
10
-1.82316215686583
20
1.74568146733014
30
0
41
1
10
-1.76613065886878
20
2.16784704245339
30
0
41
1
10
-1.69999999999999
20
2.58377729734613
30
0
0
SPLINE
5
1B8
100
AcDbEntity
8
SK1
62
256
6
ByLayer
370
18
48
1
60
0
100
AcDbSpline
70
4
71
3
72
28
73
24
40
0
40
0
40
0
40
0
40
0.250000000000001
40
0.250000000000001
40
0.500000000000001
40
0.500000000000001
40
0.625000000000001
40
0.625000000000001
40
0.750000000000002
40
0.750000000000002
40
0.812500000000002
40
0.812500000000002
40
0.843750000000002
40
0.843750000000002
40
0.875000000000001
40
0.875000000000001
40
0.906250000000001
40
0.906250000000001
40
0.937500000000001
40
0.937500000000001
40
0.96875
40
0.96875
40
1
40
1
40
1
40
1
41
1
10
-1.30710678118751
20
3.62853202212813
30
0
41
1
10
-1.27670549162968
20
3.78259514833064
30
0
41
1
10
-1.2421371307627
20
3.93459344202481
30
0
41
1
10
-1.16083113950114
20
4.23264645236986
30
0
41
1
10
-1.11451336449812
20
4.37849023577485
30
0
41
1
10
-1.02820118875781
20
4.59048527941053
30
0
41
1
10
-0.996609762205139
20
4.66001801709788
30
0
41
1
10
-0.923378272630288
20
4.79567937399449
30
0
41
1
10
-0.881888650095135
20
4.8622512979604
30
0
41
1
10
-0.805253616663919
20
4.95233336390731
30
0
41
1
10
-0.776903899179985
20
4.98114588820414
30
0
41
1
10
-0.727880800919934
20
5.01875181169186
30
0
41
1
10
-0.710603681718197
20
5.03020967742904
30
0
41
1
10
-0.673304446003755
20
5.04998964809849
30
0
41
1
10
-0.653158736519572
20
5.05828703242145
30
0
41
1
10
-0.611185322918914
20
5.06938278090792
30
0
41
1
10
-0.589028412652141
20
5.07217944542001
30
0
41
1
10
-0.545397777316936
20
5.07119381637494
30
0
41
1
10
-0.523543935447634
20
5.06739632525975
30
0
41
1
10
-0.482957659585708
20
5.05493293699533
30
0
41
1
10
-0.463557658080219
20
5.04617195190522
30
0
41
1
10
-0.427464692677432
20
5.02563245237855
30
0
41
1
10
-0.410735023483483
20
5.01390421017646
30
0
41
1
10
-0.394913799810496
20
5.00116056255814
30
0
0
SPLINE
5
1B9
100
AcDbEntity
8
SK1
62
256
6
ByLayer
370
18
48
1
60
0
100
AcDbSpline
70
4
71
3
72
24
73
20
40
0
40
0
40
0
40
0
40
0.0625000000000007
40
0.0625000000000007
40
0.0937500000000019
40
0.0937500000000019
40
0.125000000000003
40
0.125000000000003
40
0.187500000000003
40
0.187500000000003
40
0.250000000000003
40
0.250000000000003
40
0.375000000000002
40
0.375000000000002
40
0.5
40
0.5
40
0.75
40
0.75
40
1
40
1
40
1
40
1
41
1
10
-0.394913799807426
20
5.0011605625827
30
0
41
1
10
-0.382254242961466
20
4.99096356804125
30
0
41
1
10
-0.366377418887367
20
4.9831683916365
30
0
41
1
10
-0.340982791796648
20
4.98634390547852
30
0
41
1
10
-0.332661412714373
20
4.98993685342148
30
0
41
1
10
-0.318315705386453
20
4.99984728403027
30
0
41
1
10
-0.31208522105814
20
5.00607580183947
30
0
41
1
10
-0.295471476548585
20
5.02627441682435
30
0
41
1
10
-0.287121552431842
20
5.04154827938737
30
0
41
1
10
-0.272989810764841
20
5.07205528847362
30
0
41
1
10
-0.267174521636747
20
5.08763962812947
30
0
41
1
10
-0.251722151097141
20
5.13489726408181
30
0
41
1
10
-0.244056027637527
20
5.16717583039286
30
0
41
1
10
-0.231309806283861
20
5.23164989232507
30
0
41
1
10
-0.226295439929686
20
5.26391096453324
30
0
41
1
10
-0.213720374774368
20
5.36066104813298
30
0
41
1
10
-0.208629038638662
20
5.42477542925411
30
0
41
1
10
-0.201889292856521
20
5.55215860520599
30
0
41
1
10
-0.200325582586999
20
5.61546983788409
30
0
41
1
10
-0.199999999999989
20
5.67845150388044
30
0
0
SPLINE
5
1BA
100
AcDbEntity
8
SK1
62
256
6
ByLayer
370
18
48
1
60
0
100
AcDbSpline
70
4
71
3
72
30
73
26
40
0
40
0
40
0
40
0
40
0.249999999999997
40
0.249999999999997
40
0.374999999999995
40
0.374999999999995
40
0.437499999999994
40
0.437499999999994
40
0.453124999999994
40
0.453124999999994
40
0.468749999999994
40
0.468749999999994
40
0.484374999999993
40
0.484374999999993
40
0.499999999999993
40
0.499999999999993
40
0.531249999999993
40
0.531249999999993
40
0.562499999999993
40
0.562499999999993
40
0.624999999999994
40
0.624999999999994
40
0.749999999999996
40
0.749999999999996
40
1
40
1
40
1
40
1
41
1
10
-1.69999999999999
20
2.58377729734613
30
0
41
1
10
-1.69960872738636
20
2.48687635693037
30
0
41
1
10
-1.69768448821887
20
2.38941526242138
30
0
41
1
10
-1.68860167307957
20
2.24305175434046
30
0
41
1
10
-1.68475625827773
20
2.19427518050725
30
0
41
1
10
-1.67394889398383
20
2.12125011539192
30
0
41
1
10
-1.66982703189936
20
2.09657861776825
30
0
41
1
10
-1.66005581238082
20
2.06781172737621
30
0
41
1
10
-1.65780271049238
20
2.06209889338854
30
0
41
1
10
-1.65220264159373
20
2.0518349791368
30
0
41
1
10
-1.6486467847802
20
2.04701800620353
30
0
41
1
10
-1.64013457652291
20
2.0426851001975
30
0
41
1
10
-1.63551376705234
20
2.04375885060341
30
0
41
1
10
-1.62793524211719
20
2.04911817380736
30
0
41
1
10
-1.62477195539694
20
2.05301401465999
30
0
41
1
10
-1.61613906919189
20
2.06569139229669
30
0
41
1
10
-1.61148455352236
20
2.07564920040676
30
0
41
1
10
-1.60299914819288
20
2.09599696577877
30
0
41
1
10
-1.59920684184681
20
2.10654042134561
30
0
41
1
10
-1.58850203306025
20
2.13871110702169
30
0
41
1
10
-1.58228349561369
20
2.16081267675321
30
0
41
1
10
-1.56481458786166
20
2.2277305266698
30
0
41
1
10
-1.5547705960505
20
2.27328358340617
30
0
41
1
10
-1.52651109107336
20
2.41049873555409
30
0
41
1
10
-1.51026123722428
20
2.50301277869443
30
0
41
1
10
-1.49503997793928
20
2.59572866980201
30
0
0
SPLINE
5
1BB
100
AcDbEntity
8
SK1
62
256
6
ByLayer
370
18
48
1
60
0
100
AcDbSpline
70
4
71
3
72
8
73
4
40
0
40
0
40
0
40
0
40
1
40
1
40
1
40
1
41
1
10
-1.49503997793928
20
2.59572866974992
30
0
41
1
10
-1.43720046286555
20
2.94804131885212
30
0
41
1
10
-1.37356940710868
20
3.29172262772087
30
0
41
1
10
-1.30710678118655
20
3.62853202212773
30
0
0
SPLINE
5
1BC
100
AcDbEntity
8
SK1
62
256
6
ByLayer
370
18
48
1
60
0
100
AcDbSpline
70
4
71
3
72
26
73
22
40
0
40
0
40
0
40
0
40
0.249999999999998
40
0.249999999999998
40
0.499999999999997
40
0.499999999999997
40
0.624999999999997
40
0.624999999999997
40
0.749999999999998
40
0.749999999999998
40
0.812499999999998
40
0.812499999999998
40
0.874999999999998
40
0.874999999999998
40
0.906249999999999
40
0.906249999999999
40
0.937499999999999
40
0.937499999999999
40
0.96875
40
0.96875
40
1
40
1
40
1
40
1
41
1
10
-0.199999999999989
20
-5.6784520164293
30
0
41
1
10
-0.200325540023954
20
-5.61547854140406
30
0
41
1
10
-0.201889470916598
20
-5.55222154865803
30
0
41
1
10
-0.20860962730535
20
-5.42507701724676
30
0
41
1
10
-0.213678908808873
20
-5.36119137326006
30
0
41
1
10
-0.226165642229034
20
-5.2648064330395
30
0
41
1
10
-0.23114988012145
20
-5.23258507573846
30
0
41
1
10
-0.243883568597596
20
-5.16792600720157
30
0
41
1
10
-0.25155053379072
20
-5.1355012870109
30
0
41
1
10
-0.267068575155236
20
-5.08792546636624
30
0
41
1
10
-0.272916655032219
20
-5.0722125984079
30
0
41
1
10
-0.28720191092745
20
-5.04137639572579
30
0
41
1
10
-0.295557308756514
20
-5.02615606182937
30
0
41
1
10
-0.312107661781425
20
-5.00605634377803
30
0
41
1
10
-0.318359831773989
20
-4.99980634621772
30
0
41
1
10
-0.332737442838493
20
-4.98989594405836
30
0
41
1
10
-0.341064499256674
20
-4.98632315728017
30
0
41
1
10
-0.357950298206617
20
-4.98423386424884
30
0
41
1
10
-0.366410571944357
20
-4.98566435854278
30
0
41
1
10
-0.381696248959315
20
-4.9916485202956
30
0
41
1
10
-0.388593077844178
20
-4.9960698849118
30
0
41
1
10
-0.394913799811292
20
-5.00116108217654
30
0
0
SPLINE
5
1BD
100
AcDbEntity
8
SK1
62
256
6
ByLayer
370
18
48
1
60
0
100
AcDbSpline
70
4
71
3
72
19
73
15
40
0
40
0
40
0
40
0
40
0.0291608605356284
40
0.103503759205047
40
0.177846657874465
40
0.252189556543884
40
0.400875353882721
40
0.549561151221558
40
0.623904049890976
40
0.698246948560395
40
0.846932745899231
40
0.92127564456865
40
0.995618543238068
40
1
40
1
40
1
40
1
41
1
10
-0.394913799811292
20
13.8446596982822
30
0
41
1
10
-0.394913799811292
20
13.8386284705405
30
0
41
1
10
-0.394913799811292
20
13.8056517438291
30
0
41
1
10
-0.394913799811292
20
13.682269554805
30
0
41
1
10
-0.394913799811292
20
13.4200269261686
30
0
41
1
10
-0.394913799811292
20
12.9393760577865
30
0
41
1
10
-0.394913799811292
20
12.1118904563386
30
0
41
1
10
-0.394913799811292
20
11.0153145242408
30
0
41
1
10
-0.394913799811292
20
9.98771966705354
30
0
41
1
10
-0.394913799811292
20
8.86359091499725
30
0
41
1
10
-0.394913799811292
20
7.59985108367658
30
0
41
1
10
-0.394913799811292
20
6.19788936064779
30
0
41
1
10
-0.394913799811292
20
5.43069766104711
30
0
41
1
10
-0.394913799811292
20
5.02384231959817
30
0
41
1
10
-0.394913799811292
20
5.00116056257954
30
0
0
SPLINE
5
1BE
100
AcDbEntity
8
SK1
62
256
6
ByLayer
370
18
48
1
60
0
100
AcDbSpline
70
4
71
3
72
39
73
35
40
0
40
0
40
0
40
0
40
0.0170238599759296
40
0.0454342109223166
40
0.0738445618687035
40
0.10225491281509
40
0.159075614707864
40
0.215896316600638
40
0.244306667547025
40
0.272717018493412
40
0.329537720386186
40
0.357948071332573
40
0.38635842227896
40
0.414768773225347
40
0.443179124171734
40
0.471589475118121
40
0.485794650591314
40
0.499999826064507
40
0.514205001537701
40
0.528410177010894
40
0.556820527957281
40
0.585230878903668
40
0.613641229850055
40
0.642051580796442
40
0.670461931742829
40
0.727282633635603
40
0.75569298458199
40
0.784103335528377
40
0.840924037421151
40
0.897744739313925
40
0.926155090260312
40
0.954565441206699
40
0.982975792153086
40
1
40
1
40
1
40
1
41
1
10
-24
20
-12.6307248206761
30
0
41
1
10
-24
20
-12.627076093011
30
0
41
1
10
-24
20
-12.5983260714807
30
0
41
1
10
-24
20
-12.4743689830171
30
0
41
1
10
-24
20
-12.230146179188
30
0
41
1
10
-24
20
-11.778244241418
30
0
41
1
10
-24
20
-11.0029092636263
30
0
41
1
10
-24
20
-9.97333247862687
30
0
41
1
10
-24
20
-9.00198713477033
30
0
41
1
10
-24
20
-7.94098140173097
30
0
41
1
10
-24
20
-6.76812921007328
30
0
41
1
10
-24
20
-5.45799637564653
30
0
41
1
10
-24
20
-4.42753733029454
30
0
41
1
10
-24
20
-3.35000222974921
30
0
41
1
10
-24
20
-2.23771741989395
30
0
41
1
10
-24
20
-1.30515932004789
30
0
41
1
10
-24
20
-0.551100854738877
30
0
41
1
10
-24
20
-2.454147534E-07
30
0
41
1
10
-24
20
0.551100895559586
30
0
41
1
10
-24
20
1.30515943417129
30
0
41
1
10
-24
20
2.23771697460674
30
0
41
1
10
-24
20
3.35000208235883
30
0
41
1
10
-24
20
4.4275375451636
30
0
41
1
10
-24
20
5.45799609225458
30
0
41
1
10
-24
20
6.76812911518888
30
0
41
1
10
-24
20
7.94098139760015
30
0
41
1
10
-24
20
9.00198709358403
30
0
41
1
10
-24
20
9.97333275207075
30
0
41
1
10
-24
20
11.0029089912388
30
0
41
1
10
-24
20
11.7782448377074
30
0
41
1
10
-24
20
12.2301460729139
30
0
41
1
10
-24
20
12.4743692733745
30
0
41
1
10
-24
20
12.5983270944974
30
0
41
1
10
-24
20
12.6270767254079
30
0
41
1
10
-24
20
12.6307251788145
30
0
0
SPLINE
5
1BF
100
AcDbEntity
8
SK1
62
256
6
ByLayer
370
18
48
1
60
0
100
AcDbSpline
70
4
71
3
72
22
73
18
40
0
40
0
40
0
40
0
40
0.0583636977892361
40
0.117113811035488
40
0.17586392428174
40
0.234614037527992
40
0.293364150774244
40
0.410864377266749
40
0.528364603759253
40
0.587114717005505
40
0.645864830251757
40
0.763365056744261
40
0.822115169990513
40
0.880865283236765
40
0.939615396483017
40
0.998365509729269
40
1
40
1
40
1
40
1
41
1
10
-1.49503997793928
20
13.7145180527385
30
0
41
1
10
-1.49503997793928
20
13.7756141192075
30
0
41
1
10
-1.49503997793931
20
13.8437897411386
30
0
41
1
10
-1.49503997793928
20
13.8093979327696
30
0
41
1
10
-1.49503997793928
20
13.6549342276687
30
0
41
1
10
-1.49503997793928
20
13.3930993868039
30
0
41
1
10
-1.49503997793928
20
12.9130991355629
30
0
41
1
10
-1.49503997793928
20
12.0867937065467
30
0
41
1
10
-1.49503997793928
20
10.9917340076615
30
0
41
1
10
-1.49503997793928
20
9.96541209516295
30
0
41
1
10
-1.49503997793928
20
8.84271184628204
30
0
41
1
10
-1.49503997793928
20
7.58102884110858
30
0
41
1
10
-1.49503997793928
20
6.18114524290198
30
0
41
1
10
-1.49503997793928
20
5.06527592408099
30
0
41
1
10
-1.49503997793928
20
3.88412508952482
30
0
41
1
10
-1.49503997793928
20
3.04345441166049
30
0
41
1
10
-1.49503997793928
20
2.60753527399982
30
0
41
1
10
-1.49503997793928
20
2.59572866980201
30
0
0
SPLINE
5
1C0
100
AcDbEntity
8
SK1
62
256
6
ByLayer
370
18
48
1
60
0
100
AcDbSpline
70
4
71
3
72
22
73
18
40
0
40
0
40
0
40
0
40
0.0016344512530773
40
0.0603845703065242
40
0.119134689359971
40
0.177884808413418
40
0.236634927466865
40
0.354135165573758
40
0.412885284627205
40
0.471635403680652
40
0.589135641787546
40
0.706635879894439
40
0.765385998947886
40
0.824136118001333
40
0.88288623705478
40
0.941636356108227
40
1
40
1
40
1
40
1
41
1
10
-1.49503997793928
20
-2.59572959682796
30
0
41
1
10
-1.49503997793928
20
-2.60753591899177
30
0
41
1
10
-1.49503997793928
20
-3.04345481646683
30
0
41
1
10
-1.49503997793928
20
-3.88412534084222
30
0
41
1
10
-1.49503997793928
20
-5.0652758228772
30
0
41
1
10
-1.49503997793928
20
-6.18114538947242
30
0
41
1
10
-1.49503997793928
20
-7.58102898252227
30
0
41
1
10
-1.49503997793928
20
-8.84271185764786
30
0
41
1
10
-1.49503997793928
20
-9.96541221253273
30
0
41
1
10
-1.49503997793928
20
-10.9917337096027
30
0
41
1
10
-1.49503997793928
20
-12.0867940390283
30
0
41
1
10
-1.49503997793928
20
-12.9130985214152
30
0
41
1
10
-1.49503997793928
20
-13.3930994871677
30
0
41
1
10
-1.49503997793928
20
-13.6549339758046
30
0
41
1
10
-1.49503997793928
20
-13.8093974391494
30
0
41
1
10
-1.49503997793928
20
-13.8437899220388
30
0
41
1
10
-1.49503997793928
20
-13.7756137476817
30
0
41
1
10
-1.49503997793928
20
-13.71451794206
30
0
0
SPLINE
5
1C1
100
AcDbEntity
8
SK1
62
256
6
ByLayer
370
18
48
1
60
0
100
AcDbSpline
70
4
71
3
72
21
73
17
40
0
40
0
40
0
40
0
40
0.0053471909141291
40
0.0675275880675878
40
0.129707985221046
40
0.191888382374505
40
0.254068779527964
40
0.378429573834881
40
0.440609970988339
40
0.502790368141798
40
0.627151162448715
40
0.751511956755633
40
0.813692353909091
40
0.87587275106255
40
0.938053148216008
40
1
40
1
40
1
40
1
41
1
10
-1.69999999999999
20
-2.58377808521789
30
0
41
1
10
-1.69999999999999
20
-2.6211130853342
30
0
41
1
10
-1.69999999999999
20
-3.09163207213675
30
0
41
1
10
-1.69999999999999
20
-3.97134131573901
30
0
41
1
10
-1.69999999999999
20
-5.16941096177055
30
0
41
1
10
-1.69999999999999
20
-6.29922705440438
30
0
41
1
10
-1.69999999999999
20
-7.71376588282689
30
0
41
1
10
-1.69999999999999
20
-8.98995375595479
30
0
41
1
10
-1.69999999999999
20
-10.1227281115305
30
0
41
1
10
-1.69999999999999
20
-11.1580265629749
30
0
41
1
10
-1.69999999999999
20
-12.2637795792515
30
0
41
1
10
-1.69999999999999
20
-13.0984067777707
30
0
41
1
10
-1.69999999999999
20
-13.5829959818305
30
0
41
1
10
-1.69999999999999
20
-13.8477062499051
30
0
41
1
10
-1.69999999999999
20
-14.0038343026726
30
0
41
1
10
-1.69999999999999
20
-14.0272338769489
30
0
41
1
10
-1.69999999999999
20
-14.0158119585208
30
0
0
SPLINE
5
1C2
100
AcDbEntity
8
SK1
62
256
6
ByLayer
370
18
48
1
60
0
100
AcDbSpline
70
4
71
3
72
21
73
17
40
0
40
0
40
0
40
0
40
0.061947034286231
40
0.124127416969648
40
0.186307799653064
40
0.248488182336481
40
0.372848947703314
40
0.497209713070148
40
0.559390095753564
40
0.621570478436981
40
0.745931243803814
40
0.808111626487231
40
0.870292009170648
40
0.932472391854064
40
0.994652774537481
40
1
40
1
40
1
40
1
41
1
10
-1.69999999999999
20
14.0158119278506
30
0
41
1
10
-1.69999999999999
20
14.0272339861375
30
0
41
1
10
-1.69999999999999
20
14.0038349661584
30
0
41
1
10
-1.69999999999999
20
13.8477064954836
30
0
41
1
10
-1.69999999999999
20
13.5829958824317
30
0
41
1
10
-1.69999999999999
20
13.0984073948343
30
0
41
1
10
-1.69999999999999
20
12.2637792369573
30
0
41
1
10
-1.69999999999999
20
11.158026865053
30
0
41
1
10
-1.69999999999999
20
10.1227279817209
30
0
41
1
10
-1.69999999999999
20
8.9899537434076
30
0
41
1
10
-1.69999999999999
20
7.71376573381551
30
0
41
1
10
-1.69999999999999
20
6.29922693017525
30
0
41
1
10
-1.69999999999999
20
5.16941104441418
30
0
41
1
10
-1.69999999999999
20
3.97134104745157
30
0
41
1
10
-1.69999999999999
20
3.09163174208075
30
0
41
1
10
-1.69999999999999
20
2.62111254506641
30
0
41
1
10
-1.69999999999999
20
2.58377729734613
30
0
0
SPLINE
5
1C3
100
AcDbEntity
8
SK1
62
256
6
ByLayer
370
18
48
1
60
0
100
AcDbSpline
70
4
71
3
72
39
73
35
40
0
40
0
40
0
40
0
40
0.0163868837027971
40
0.0448347482892433
40
0.0732826128756895
40
0.101730477462136
40
0.158626206635028
40
0.215521935807921
40
0.243969800394367
40
0.272417664980813
40
0.329313394153706
40
0.357761258740152
40
0.386209123326598
40
0.414656987913045
40
0.443104852499491
40
0.471552717085937
40
0.48577664937916
40
0.500000581672383
40
0.514224513965606
40
0.528448446258829
40
0.556896310845276
40
0.585344175431722
40
0.613792040018168
40
0.642239904604614
40
0.67068776919106
40
0.727583498363953
40
0.756031362950399
40
0.784479227536845
40
0.841374956709738
40
0.89827068588263
40
0.926718550469077
40
0.955166415055523
40
0.983614279641969
40
1
40
1
40
1
40
1
41
1
10
-22.5
20
13.4958580203221
30
0
41
1
10
-22.5
20
13.4916244602912
30
0
41
1
10
-22.5
20
13.4608287986464
30
0
41
1
10
-22.5
20
13.3308795934982
30
0
41
1
10
-22.5
20
13.0738789920944
30
0
41
1
10
-22.5
20
12.6015916721314
30
0
41
1
10
-22.5
20
11.7892769425394
30
0
41
1
10
-22.5
20
10.7121918739409
30
0
41
1
10
-22.5
20
9.70096045673193
30
0
41
1
10
-22.5
20
8.5951948167403
30
0
41
1
10
-22.5
20
7.35789505897995
30
0
41
1
10
-22.5
20
5.98264719956148
30
0
41
1
10
-22.5
20
4.89022238185544
30
0
41
1
10
-22.5
20
3.73751305004353
30
0
41
1
10
-22.5
20
2.52988134516508
30
0
41
1
10
-22.5
20
1.48826022368627
30
0
41
1
10
-22.5
20
0.637225639727404
30
0
41
1
10
-22.5
20
-1.01300202E-07
30
0
41
1
10
-22.5
20
-0.63722566300541
30
0
41
1
10
-22.5
20
-1.48826017841199
30
0
41
1
10
-22.5
20
-2.52988151772914
30
0
41
1
10
-22.5
20
-3.73751327283387
30
0
41
1
10
-22.5
20
-4.89022224945154
30
0
41
1
10
-22.5
20
-5.98264738368823
30
0
41
1
10
-22.5
20
-7.35789518762175
30
0
41
1
10
-22.5
20
-8.59519482612015
30
0
41
1
10
-22.5
20
-9.70096055319001
30
0
41
1
10
-22.5
20
-10.7121915826386
30
0
41
1
10
-22.5
20
-11.7892772585257
30
0
41
1
10
-22.5
20
-12.6015910628856
30
0
41
1
10
-22.5
20
-13.0738790940806
30
0
41
1
10
-22.5
20
-13.3308793310681
30
0
41
1
10
-22.5
20
-13.4608262822398
30
0
41
1
10
-22.5
20
-13.4916226610979
30
0
41
1
10
-22.5
20
-13.495856979543
30
0
0
SPLINE
5
1C4
100
AcDbEntity
8
1
62
256
6
ByLayer
370
18
48
1
60
0
100
AcDbSpline
70
4
71
3
72
10
73
6
40
0
40
0
40
0
40
0
40
0.286869692109291
40
0.286869692109291
40
1
40
1
40
1
40
1
41
1
10
45.0629969304899
20
-21.529395628752
30
0
41
1
10
45.0763131891523
20
-21.5265721560393
30
0
41
1
10
45.0907579625799
20
-21.5239305078223
30
0
41
1
10
45.1445477541225
20
-21.5155031125172
30
0
41
1
10
45.1891992114253
20
-21.5107644433379
30
0
41
1
10
45.2400560598826
20
-21.5076067011928
30
0
0
SPLINE
5
1C5
100
AcDbEntity
8
1
62
256
6
ByLayer
370
18
48
1
60
0
100
AcDbSpline
70
4
71
4
72
10
73
5
40
0
40
0
40
0
40
0
40
0
40
1
40
1
40
1
40
1
40
1
41
0.573444231386236
10
45.2800570678162
20
-21.4231329786968
30
0
41
0.563072504329403
10
45.297798639083
20
-21.3856665085938
30
0
41
0.55537037737363
10
45.3115020282292
20
-21.3461965168638
30
0
41
0.550337850518916
10
45.3207982701164
20
-21.3052132717078
30
0
41
0.547974923765262
10
45.3254300737635
20
-21.263274061694
30
0
0
SPLINE
5
1C6
100
AcDbEntity
8
1
62
256
6
ByLayer
370
18
48
1
60
0
100
AcDbSpline
70
4
71
3
72
8
73
4
40
0
40
0
40
0
40
0
40
1
40
1
40
1
40
1
41
1
10
54.391276482898
20
-12.1169819164841
30
0
41
1
10
54.3869089199058
20
-12.1628523155656
30
0
41
1
10
54.3834583762434
20
-12.211016636023
30
0
41
1
10
54.3822226088076
20
-12.266266387931
30
0
0
SPLINE
5
1C7
100
AcDbEntity
8
1
62
256
6
ByLayer
370
18
48
1
60
0
100
AcDbSpline
70
4
71
4
72
10
73
5
40
0
40
0
40
0
40
0
40
0
40
1
40
1
40
1
40
1
40
1
41
0.521346492738149
10
54.0712704018435
20
-12.321467392345
30
0
41
0.500667995414103
10
54.1497692268018
20
-12.3331358526216
30
0
41
0.488808537331209
10
54.2305905658315
20
-12.32815110104
30
0
41
0.485768118489467
10
54.3095026294672
20
-12.3055649237774
30
0
41
0.491546738888878
10
54.3822226088089
20
-12.2662663879304
30
0
0
SPLINE
5
1C8
100
AcDbEntity
8
1
62
256
6
ByLayer
370
18
48
1
60
0
100
AcDbSpline
70
4
71
4
72
10
73
5
40
0
40
0
40
0
40
0
40
0
40
1
40
1
40
1
40
1
40
1
41
0.573444231386236
10
51.2782925685623
20
-11.0025088796489
30
0
41
0.573435699776518
10
51.499327197583
20
-11.1125200671799
30
0
41
0.573429072060637
10
51.7207021390815
20
-11.221867750182
30
0
41
0.573424348238593
10
51.9424151998186
20
-11.330550816474
30
0
41
0.573421528310386
10
52.1644641797327
20
-11.438568167071
30
0
0
SPLINE
5
1C9
100
AcDbEntity
8
1
62
256
6
ByLayer
370
18
48
1
60
0
100
AcDbSpline
70
4
71
4
72
10
73
5
40
0
40
0
40
0
40
0
40
0
40
1
40
1
40
1
40
1
40
1
41
0.573444231386236
10
51.2782925685623
20
-11.0025088796488
30
0
41
0.572334928239986
10
51.3705235280553
20
-10.8906493538095
30
0
41
0.574889008681245
10
51.4509417746362
20
-10.81319545924
30
0
41
0.582112177039274
10
51.5069287105803
20
-10.7853815634285
30
0
41
0.584865583858252
10
51.5397221425894
20
-10.7929504524515
30
0
0
SPLINE
5
1CA
100
AcDbEntity
8
1
62
256
6
ByLayer
370
18
48
1
60
0
100
AcDbSpline
70
4
71
3
72
8
73
4
40
0
40
0
40
0
40
0
40
1
40
1
40
1
40
1
41
1
10
42.7327671748878
20
-6.72237669204497
30
0
41
1
10
42.7088684651427
20
-6.66542546166386
30
0
41
1
10
42.6832981255568
20
-6.61257272600812
30
0
41
1
10
42.656667519797
20
-6.56354275441456
30
0
0
SPLINE
5
1CB
100
AcDbEntity
8
1
62
256
6
ByLayer
370
18
48
1
60
0
100
AcDbSpline
70
4
71
3
72
8
73
4
40
0
40
0
40
0
40
0
40
1
40
1
40
1
40
1
41
1
10
42.7779978223255
20
-6.65875028452822
30
0
41
1
10
42.7969410858153
20
-6.68636140971549
30
0
41
1
10
42.8155621901867
20
-6.71469542152545
30
0
41
1
10
42.8337471148957
20
-6.74370895787607
30
0
0
SPLINE
5
1CC
100
AcDbEntity
8
1
62
256
6
ByLayer
370
18
48
1
60
0
100
AcDbSpline
70
4
71
4
72
10
73
5
40
0
40
0
40
0
40
0
40
0
40
1
40
1
40
1
40
1
40
1
41
0.573444231386236
10
45.7531268753613
20
-8.43667882251457
30
0
41
0.572355247245464
10
45.8215427903781
20
-8.31674410061028
30
0
41
0.574796672058817
10
45.883507697414
20
-8.23219596456907
30
0
41
0.581719952058174
10
45.9299875415742
20
-8.19880988254074
30
0
41
0.58465507387559
10
45.9603284769211
20
-8.2029280414404
30
0
0
SPLINE
5
1CD
100
AcDbEntity
8
1
62
256
6
ByLayer
370
18
48
1
60
0
100
AcDbSpline
70
4
71
3
72
10
73
6
40
0
40
0
40
0
40
0
40
0.365411751810706
40
0.365411751810706
40
1
40
1
40
1
40
1
41
1
10
22.8276979054685
20
-20.8581514176903
30
0
41
1
10
22.9044580984938
20
-20.8989562039781
30
0
41
1
10
22.9885367637844
20
-20.9396510982207
30
0
41
1
10
23.2304564880599
20
-21.0508407397169
30
0
41
1
10
23.3971037471646
20
-21.1212032556376
30
0
41
1
10
23.5669540547918
20
-21.1915176755159
30
0
0
SPLINE
5
1CE
100
AcDbEntity
8
1
62
256
6
ByLayer
370
18
48
1
60
0
100
AcDbSpline
70
4
71
3
72
14
73
10
40
0
40
0
40
0
40
0
40
0.334266630610584
40
0.334266630610584
40
0.501399945915876
40
0.501399945915876
40
0.668533261221168
40
0.668533261221168
40
1
40
1
40
1
40
1
41
1
10
47.7970370644704
20
2.87580418800135
30
0
41
1
10
47.6222525535573
20
3.15427543871704
30
0
41
1
10
47.4607152230066
20
3.40163158270045
30
0
41
1
10
47.2414017162268
20
3.71866081564141
30
0
41
1
10
47.1728084923298
20
3.81433276439333
30
0
41
1
10
47.0452659466421
20
3.98461267052096
30
0
41
1
10
46.9862490793916
20
4.05931866006119
30
0
41
1
10
46.8247988400238
20
4.25011848462717
30
0
41
1
10
46.7366788968566
20
4.33480023403456
30
0
41
1
10
46.6694455869106
20
4.37364441975956
30
0
0
SPLINE
5
1CF
100
AcDbEntity
8
1
62
256
6
ByLayer
370
18
48
1
60
0
100
AcDbSpline
70
4
71
3
72
29
73
25
40
0
40
0
40
0
40
0
40
0.0130146883631403
40
0.0130146883631403
40
0.0649612837124487
40
0.0649612837124487
40
0.168854474411065
40
0.168854474411065
40
0.220801069760374
40
0.220801069760374
40
0.272747665109682
40
0.272747665109682
40
0.376640855808299
40
0.376640855808299
40
0.480534046506916
40
0.480534046506916
40
0.584427237205533
40
0.688320427904149
40
0.688320427904149
40
0.740267023253458
40
0.740267023253458
40
0.792213618602766
40
0.792213618602766
40
1
40
1
40
1
40
1
41
1
10
19.5602259624227
20
19.9999974513634
30
0
41
1
10
19.5602264114632
20
19.9999628649521
30
0
41
1
10
19.5602310349088
20
19.9996050745878
30
0
41
1
10
19.5602749651739
20
19.9962037970509
30
0
41
1
10
19.5603768893711
20
19.988309528866
30
0
41
1
10
19.5608828200741
20
19.9492296351738
30
0
41
1
10
19.5614858242707
20
19.9026876580055
30
0
41
1
10
19.5628035551859
20
19.802302497144
30
0
41
1
10
19.5633119004804
20
19.7637395099414
30
0
41
1
10
19.564472163884
20
19.6763668551635
30
0
41
1
10
19.5651249169382
20
19.6274950175606
30
0
41
1
10
19.5673025840122
20
19.4659060220937
30
0
41
1
10
19.5690446469272
20
19.3383168926022
30
0
41
1
10
19.5731729752692
20
19.043704775748
30
0
41
1
10
19.5755603832396
20
18.8765794441555
30
0
41
1
10
19.5810780140135
20
18.5028782637871
30
0
41
1
10
19.5873074196536
20
18.0917949447687
30
0
41
1
10
19.5952153527273
20
17.6066575461526
30
0
41
1
10
19.6019191721527
20
17.2147837264085
30
0
41
1
10
19.6042782960541
20
17.0797847414524
30
0
41
1
10
19.6092550927323
20
16.8020766272237
30
0
41
1
10
19.6118750790789
20
16.6592296585872
30
0
41
1
10
19.6257084893555
20
15.9252766689587
30
0
41
1
10
19.6390263223811
20
15.275371044261
30
0
41
1
10
19.6562093550511
20
14.5629694299899
30
0
0
SPLINE
5
1D0
100
AcDbEntity
8
SK1
62
256
6
ByLayer
370
18
48
1
60
0
100
AcDbSpline
70
4
71
2
72
6
73
3
40
0
40
0
40
0
40
1
40
1
40
1
41
1
10
-1.49503997793928
20
-13.7130167789402
30
0
41
1
10
-0.944976888873896
20
-13.7267321696587
30
0
41
1
10
-0.394913799811292
20
-13.740447551665
30
0
0
SPLINE
5
1D1
100
AcDbEntity
8
SK1
62
256
6
ByLayer
370
18
48
1
60
0
100
AcDbSpline
70
4
71
2
72
6
73
3
40
0
40
0
40
0
40
1
40
1
40
1
41
1
10
-0.394913799811292
20
13.7404477916605
30
0
41
1
10
-0.944976888873896
20
13.7267324097107
30
0
41
1
10
-1.49503997793928
20
13.7130170190491
30
0
0
SPLINE
5
1D2
100
AcDbEntity
8
SK1
62
256
6
ByLayer
370
18
48
1
60
0
100
AcDbSpline
70
4
71
2
72
6
73
3
40
0
40
0
40
0
40
1
40
1
40
1
41
1
10
-24
20
-12.6317156240216
30
0
41
1
10
-23.249999936895
20
-13.0645339427607
30
0
41
1
10
-22.5
20
-13.4973518251592
30
0
0
SPLINE
5
1D3
100
AcDbEntity
8
SK1
62
256
6
ByLayer
370
18
48
1
60
0
100
AcDbSpline
70
4
71
2
72
6
73
3
40
0
40
0
40
0
40
1
40
1
40
1
41
1
10
-22.5
20
13.4973518870616
30
0
41
1
10
-23.2499999368976
20
13.0645340070691
30
0
41
1
10
-24
20
12.6317156907499
30
0
0
SPLINE
5
1D4
100
AcDbEntity
8
SK1
62
256
6
ByLayer
370
18
48
1
60
0
100
AcDbSpline
70
4
71
3
72
13
73
9
40
0
40
0
40
0
40
0
40
0.239505896267058
40
0.368426445719716
40
0.500072184804663
40
0.631705935597398
40
0.760593415643758
40
1
40
1
40
1
40
1
41
1
10
-1.49503997793928
20
13.8252671707288
30
0
41
1
10
-1.52110926509485
20
13.8248650525742
30
0
41
1
10
-1.55883864918067
20
13.8310346548635
30
0
41
1
10
-1.60627567892249
20
13.8540680395026
30
0
41
1
10
-1.63886244003069
20
13.8792240145368
30
0
41
1
10
-1.66563490778341
20
13.9104917120148
30
0
41
1
10
-1.69103207617425
20
13.956689925787
30
0
41
1
10
-1.69909121849835
20
13.9940472396764
30
0
41
1
10
-1.69999999999999
20
14.020094440518
30
0
0
SPLINE
5
1D5
100
AcDbEntity
8
SK1
62
256
6
ByLayer
370
18
48
1
60
0
100
AcDbSpline
70
4
71
3
72
13
73
9
40
0
40
0
40
0
40
0
40
0.239406584968136
40
0.368294065212519
40
0.499927816069781
40
0.631573555071368
40
0.760494104316207
40
1
40
1
40
1
40
1
41
1
10
-1.69999999999999
20
-14.0200943498873
30
0
41
1
10
-1.69909121850787
20
-13.9940471489176
30
0
41
1
10
-1.69103207618372
20
-13.9566898348375
30
0
41
1
10
-1.66563490779617
20
-13.9104916208042
30
0
41
1
10
-1.63886244004752
20
-13.8792239231524
30
0
41
1
10
-1.60627567894025
20
-13.8540679479736
30
0
41
1
10
-1.55883864920244
20
-13.8310345631992
30
0
41
1
10
-1.52110926510645
20
-13.8248649608707
30
0
41
1
10
-1.49503997793928
20
-13.825267079015
30
0
0
SPLINE
5
1D6
100
AcDbEntity
8
SK1
62
256
6
ByLayer
370
18
48
1
60
0
100
AcDbSpline
70
4
71
2
72
6
73
3
40
0
40
0
40
0
40
1
40
1
40
1
41
1
10
-1.69999999999999
20
14.0158108591592
30
0
41
1
10
-12.0999999986036
20
13.7547063780669
30
0
41
1
10
-22.5
20
13.4936010331935
30
0
0
SPLINE
5
1D7
100
AcDbEntity
8
SK1
62
256
6
ByLayer
370
18
48
1
60
0
100
AcDbSpline
70
4
71
2
72
6
73
3
40
0
40
0
40
0
40
1
40
1
40
1
41
1
10
-22.5
20
-13.4936007996938
30
0
41
1
10
-12.0999999986039
20
-13.7547061446862
30
0
41
1
10
-1.69999999999999
20
-14.0158106259661
30
0
0
LINE
5
7B
100
AcDbEntity
8
1
62
256
6
ByLayer
370
18
48
1
60
0
100
AcDbLine
10
38.175292
20
-15.291832
30
0
11
38.478867
21
-15.595408
31
0
39
0
210
0
220
0
230
1
0
LINE
5
7C
100
AcDbEntity
8
1
62
256
6
ByLayer
370
18
48
1
60
0
100
AcDbLine
10
37.714877
20
-15.768301
30
0
11
38.018452
21
-16.071876
31
0
39
0
210
0
220
0
230
1
0
LINE
5
7D
100
AcDbEntity
8
1
62
256
6
ByLayer
370
18
48
1
60
0
100
AcDbLine
10
36.362101
20
-15.827144
30
0
11
36.665676
21
-16.13072
31
0
39
0
210
0
220
0
230
1
0
LINE
5
7E
100
AcDbEntity
8
1
62
256
6
ByLayer
370
18
48
1
60
0
100
AcDbLine
10
38.186919
20
-13.938702
30
0
11
38.490494
21
-14.242278
31
0
39
0
210
0
220
0
230
1
0
LINE
5
7F
100
AcDbEntity
8
1
62
256
6
ByLayer
370
18
48
1
60
0
100
AcDbLine
10
39.995411
20
-8.92743
30
0
11
32.673992
21
-7.165803
31
0
39
0
210
0
220
0
230
1
0
LINE
5
80
100
AcDbEntity
8
1
62
256
6
ByLayer
370
18
48
1
60
0
100
AcDbLine
10
36.958924
20
-18.910782
30
0
11
34.988732
21
-18.436729
31
0
39
0
210
0
220
0
230
1
0
LINE
5
81
100
AcDbEntity
8
1
62
256
6
ByLayer
370
18
48
1
60
0
100
AcDbLine
10
29.414245
20
-9.653716
30
0
11
28.096596
21
-14.76082
31
0
39
0
210
0
220
0
230
1
0
LINE
5
82
100
AcDbEntity
8
1
62
256
6
ByLayer
370
18
48
1
60
0
100
AcDbLine
10
32.794967
20
-5.526071
30
0
11
34.655534
21
-6.18932
31
0
39
0
210
0
220
0
230
1
0
LINE
5
83
100
AcDbEntity
8
1
62
256
6
ByLayer
370
18
48
1
60
0
100
AcDbLine
10
33.274503
20
-5.857026
30
0
11
32.722355
21
-5.500295
31
0
39
0
210
0
220
0
230
1
0
LINE
5
84
100
AcDbEntity
8
1
62
256
6
ByLayer
370
18
48
1
60
0
100
AcDbLine
10
34.659985
20
-6.193144
30
0
11
39.87369
21
-7.447627
31
0
39
0
210
0
220
0
230
1
0
LINE
5
85
100
AcDbEntity
8
1
62
256
6
ByLayer
370
18
48
1
60
0
100
AcDbLine
10
31.081014
20
-20.064952
30
0
11
31.075506
21
-20.065226
31
0
39
0
210
0
220
0
230
1
0
LINE
5
86
100
AcDbEntity
8
1
62
256
6
ByLayer
370
18
48
1
60
0
100
AcDbLine
10
34.655534
20
-6.18932
30
0
11
33.274503
21
-5.857026
31
0
39
0
210
0
220
0
230
1
0
LINE
5
87
100
AcDbEntity
8
1
62
256
6
ByLayer
370
18
48
1
60
0
100
AcDbLine
10
50.673474
20
-19.520132
30
0
11
50.871824
21
-19.384085
31
0
39
0
210
0
220
0
230
1
0
LINE
5
88
100
AcDbEntity
8
1
62
256
6
ByLayer
370
18
48
1
60
0
100
AcDbLine
10
28.096596
20
-14.76082
30
0
11
27.394331
21
-14.307102
31
0
39
0
210
0
220
0
230
1
0
LINE
5
89
100
AcDbEntity
8
1
62
256
6
ByLayer
370
18
48
1
60
0
100
AcDbLine
10
31.081014
20
-20.064952
30
0
11
36.29472
21
-21.319435
31
0
39
0
210
0
220
0
230
1
0
LINE
5
8A
100
AcDbEntity
8
1
62
256
6
ByLayer
370
18
48
1
60
0
100
AcDbLine
10
28.271515
20
-16.616386
30
0
11
26.607687
21
-15.541421
31
0
39
0
210
0
220
0
230
1
0
LINE
5
8B
100
AcDbEntity
8
1
62
256
6
ByLayer
370
18
48
1
60
0
100
AcDbLine
10
30.6777
20
-15.641236
30
0
11
29.218162
21
-15.292781
31
0
39
0
210
0
220
0
230
1
0
LINE
5
8C
100
AcDbEntity
8
1
62
256
6
ByLayer
370
18
48
1
60
0
100
AcDbLine
10
27.955931
20
-14.56008
30
0
11
28.096596
21
-14.76082
31
0
39
0
210
0
220
0
230
1
0
LINE
5
8D
100
AcDbEntity
8
1
62
256
6
ByLayer
370
18
48
1
60
0
100
AcDbLine
10
49.724222
20
-20.049227
30
0
11
50.673474
21
-19.520132
31
0
39
0
210
0
220
0
230
1
0
LINE
5
8E
100
AcDbEntity
8
1
62
256
6
ByLayer
370
18
48
1
60
0
100
AcDbLine
10
34.659985
20
-6.193144
30
0
11
34.655534
21
-6.18932
31
0
39
0
210
0
220
0
230
1
0
LINE
5
8F
100
AcDbEntity
8
1
62
256
6
ByLayer
370
18
48
1
60
0
100
AcDbLine
10
51.846264
20
-15.607232
30
0
11
51.737199
21
-15.397217
31
0
39
0
210
0
220
0
230
1
0
LINE
5
90
100
AcDbEntity
8
1
62
256
6
ByLayer
370
18
48
1
60
0
100
AcDbLine
10
27.328909
20
-14.154974
30
0
11
27.394331
21
-14.307102
31
0
39
0
210
0
220
0
230
1
0
LINE
5
91
100
AcDbEntity
8
1
62
256
6
ByLayer
370
18
48
1
60
0
100
AcDbLine
10
29.414245
20
-9.653716
30
0
11
28.71198
21
-9.199997
31
0
39
0
210
0
220
0
230
1
0
LINE
5
92
100
AcDbEntity
8
1
62
256
6
ByLayer
370
18
48
1
60
0
100
AcDbLine
10
30.359864
20
-8.522107
30
0
11
28.696036
21
-7.447142
31
0
39
0
210
0
220
0
230
1
0
LINE
5
93
100
AcDbEntity
8
1
62
256
6
ByLayer
370
18
48
1
60
0
100
AcDbLine
10
30.359864
20
-8.522107
30
0
11
28.271515
21
-16.616386
31
0
39
0
210
0
220
0
230
1
0
LINE
5
94
100
AcDbEntity
8
1
62
256
6
ByLayer
370
18
48
1
60
0
100
AcDbLine
10
51.146499
20
-14.536593
30
0
11
51.737199
21
-15.397217
31
0
39
0
210
0
220
0
230
1
0
LINE
5
95
100
AcDbEntity
8
1
62
256
6
ByLayer
370
18
48
1
60
0
100
AcDbLine
10
29.694475
20
-19.732932
30
0
11
31.075506
21
-20.065226
31
0
39
0
210
0
220
0
230
1
0
LINE
5
96
100
AcDbEntity
8
1
62
256
6
ByLayer
370
18
48
1
60
0
100
AcDbLine
10
37.05222
20
-10.438811
30
0
11
39.022412
21
-10.912864
31
0
39
0
210
0
220
0
230
1
0
LINE
5
97
100
AcDbEntity
8
1
62
256
6
ByLayer
370
18
48
1
60
0
100
AcDbLine
10
28.571975
20
-9.336951
30
0
11
27.328909
21
-14.154974
31
0
39
0
210
0
220
0
230
1
0
LINE
5
98
100
AcDbEntity
8
1
62
256
6
ByLayer
370
18
48
1
60
0
100
AcDbLine
10
30.51095
20
-10.282038
30
0
11
29.218162
21
-15.292781
31
0
39
0
210
0
220
0
230
1
0
LINE
5
99
100
AcDbEntity
8
1
62
256
6
ByLayer
370
18
48
1
60
0
100
AcDbLine
10
52.004076
20
-15.786044
30
0
11
52.129543
21
-15.968844
31
0
39
0
210
0
220
0
230
1
0
LINE
5
9A
100
AcDbEntity
8
1
62
256
6
ByLayer
370
18
48
1
60
0
100
AcDbLine
10
36.973497
20
-20.640131
30
0
11
29.652078
21
-18.878505
31
0
39
0
210
0
220
0
230
1
0
LINE
5
9B
100
AcDbEntity
8
1
62
256
6
ByLayer
370
18
48
1
60
0
100
AcDbLine
10
26.607687
20
-15.541421
30
0
11
28.696036
21
-7.447142
31
0
39
0
210
0
220
0
230
1
0
LINE
5
9C
100
AcDbEntity
8
1
62
256
6
ByLayer
370
18
48
1
60
0
100
AcDbLine
10
27.955931
20
-14.56008
30
0
11
27.328909
21
-14.154974
31
0
39
0
210
0
220
0
230
1
0
LINE
5
9D
100
AcDbEntity
8
1
62
256
6
ByLayer
370
18
48
1
60
0
100
AcDbLine
10
29.198997
20
-9.742057
30
0
11
27.955931
21
-14.56008
31
0
39
0
210
0
220
0
230
1
0
LINE
5
9E
100
AcDbEntity
8
1
62
256
6
ByLayer
370
18
48
1
60
0
100
AcDbLine
10
29.198997
20
-9.742057
30
0
11
29.414245
21
-9.653716
31
0
39
0
210
0
220
0
230
1
0
LINE
5
9F
100
AcDbEntity
8
1
62
256
6
ByLayer
370
18
48
1
60
0
100
AcDbLine
10
51.102344
20
-19.281089
30
0
11
51.303968
21
-19.168707
31
0
39
0
210
0
220
0
230
1
0
LINE
5
A0
100
AcDbEntity
8
1
62
256
6
ByLayer
370
18
48
1
60
0
100
AcDbLine
10
31.107321
20
-15.918806
30
0
11
30.6777
21
-15.641236
31
0
39
0
210
0
220
0
230
1
0
LINE
5
A1
100
AcDbEntity
8
1
62
256
6
ByLayer
370
18
48
1
60
0
100
AcDbLine
10
52.54264
20
-17.843521
30
0
11
50.002102
21
-17.556653
31
0
39
0
210
0
220
0
230
1
0
LINE
5
A2
100
AcDbEntity
8
1
62
256
6
ByLayer
370
18
48
1
60
0
100
AcDbLine
10
29.198997
20
-9.742057
30
0
11
28.571975
21
-9.336951
31
0
39
0
210
0
220
0
230
1
0
LINE
5
A3
100
AcDbEntity
8
1
62
256
6
ByLayer
370
18
48
1
60
0
100
AcDbLine
10
28.571975
20
-9.336951
30
0
11
28.71198
21
-9.199997
31
0
39
0
210
0
220
0
230
1
0
LINE
5
A4
100
AcDbEntity
8
1
62
256
6
ByLayer
370
18
48
1
60
0
100
AcDbLine
10
34.988732
20
-18.436729
30
0
11
34.545181
21
-18.150159
31
0
39
0
210
0
220
0
230
1
0
LINE
5
A5
100
AcDbEntity
8
1
62
256
6
ByLayer
370
13
48
1
60
0
100
AcDbLine
10
40.478211
20
-6.61098
30
0
11
41.287745
21
-7.420514
31
0
39
0
210
0
220
0
230
1
0
LINE
5
A6
100
AcDbEntity
8
1
62
256
6
ByLayer
370
13
48
1
60
0
100
AcDbLine
10
40.478211
20
-6.61098
30
0
11
41.957538
21
-6.726782
31
0
39
0
210
0
220
0
230
1
0
LINE
5
A7
100
AcDbEntity
8
1
62
256
6
ByLayer
370
13
48
1
60
0
100
AcDbLine
10
54.0734
20
-12.395098
30
0
11
44.424847
21
-7.966214
31
0
39
0
210
0
220
0
230
1
0
LINE
5
A8
100
AcDbEntity
8
1
62
256
6
ByLayer
370
13
48
1
60
0
100
AcDbLine
10
57.651583
20
-26.881236
30
0
11
59.13091
21
-26.997039
31
0
39
0
210
0
220
0
230
1
0
LINE
5
A9
100
AcDbEntity
8
1
62
256
6
ByLayer
370
13
48
1
60
0
100
AcDbLine
10
59.45189
20
-22.993257
30
0
11
55.023006
21
-13.344704
31
0
39
0
210
0
220
0
230
1
0
LINE
5
AA
100
AcDbEntity
8
1
62
256
6
ByLayer
370
13
48
1
60
0
100
AcDbLine
10
42.767072
20
-7.536316
30
0
11
41.287745
21
-7.420514
31
0
39
0
210
0
220
0
230
1
0
LINE
5
AB
100
AcDbEntity
8
1
62
256
6
ByLayer
370
13
48
1
60
0
100
AcDbLine
10
42.767072
20
-7.536316
30
0
11
41.957538
21
-6.726782
31
0
39
0
210
0
220
0
230
1
0
LINE
5
AC
100
AcDbEntity
8
1
62
256
6
ByLayer
370
13
48
1
60
0
100
AcDbLine
10
46.345255
20
-22.022454
30
0
11
55.993808
21
-26.451339
31
0
39
0
210
0
220
0
230
1
0
LINE
5
AD
100
AcDbEntity
8
1
62
256
6
ByLayer
370
13
48
1
60
0
100
AcDbLine
10
59.99759
20
-26.130359
30
0
11
59.881788
21
-24.651032
31
0
39
0
210
0
220
0
230
1
0
LINE
5
AE
100
AcDbEntity
8
1
62
256
6
ByLayer
370
18
48
1
60
0
100
AcDbLine
10
34.545181
20
-18.150159
30
0
11
35.305893
21
-18.331774
31
0
39
0
210
0
220
0
230
1
0
LINE
5
AF
100
AcDbEntity
8
1
62
256
6
ByLayer
370
18
48
1
60
0
100
AcDbLine
10
36.958924
20
-18.910782
30
0
11
36.720068
21
-18.756462
31
0
39
0
210
0
220
0
230
1
0
LINE
5
B0
100
AcDbEntity
8
1
62
256
6
ByLayer
370
13
48
1
60
0
100
AcDbLine
10
54.0734
20
-12.395098
30
0
11
53.928127
21
-12.249825
31
0
39
0
210
0
220
0
230
1
0
LINE
5
B1
100
AcDbEntity
8
1
62
256
6
ByLayer
370
13
48
1
60
0
100
AcDbLine
10
44.224728
20
-7.766094
30
0
11
44.424847
21
-7.966214
31
0
39
0
210
0
220
0
230
1
0
LINE
5
B2
100
AcDbEntity
8
1
62
256
6
ByLayer
370
18
48
1
60
0
100
AcDbLine
10
36.196038
20
-15.440067
30
0
11
36.196073
21
-15.440101
31
0
39
0
210
0
220
0
230
1
0
LINE
5
B3
100
AcDbEntity
8
1
62
256
6
ByLayer
370
18
48
1
60
0
100
AcDbLine
10
35.760596
20
-14.789898
30
0
11
35.960045
21
-14.989347
31
0
39
0
210
0
220
0
230
1
0
LINE
5
B4
100
AcDbEntity
8
1
62
256
6
ByLayer
370
18
48
1
60
0
100
AcDbLine
10
37.324448
20
-13.577373
30
0
11
37.142165
21
-13.395091
31
0
39
0
210
0
220
0
230
1
0
LINE
5
B5
100
AcDbEntity
8
1
62
256
6
ByLayer
370
18
48
1
60
0
100
AcDbLine
10
39.830356
20
-7.041937
30
0
11
40.042488
21
-6.829805
31
0
39
0
210
0
220
0
230
1
0
LINE
5
B6
100
AcDbEntity
8
1
62
256
6
ByLayer
370
18
48
1
60
0
100
AcDbLine
10
22.966559
20
-12.470996
30
0
11
26.048208
21
-0.526765
31
0
39
0
210
0
220
0
230
1
0
LINE
5
B7
100
AcDbEntity
8
1
62
256
6
ByLayer
370
18
48
1
60
0
100
AcDbLine
10
9.076795
20
19.122283
30
0
11
9.076795
21
5.85989
31
0
39
0
210
0
220
0
230
1
0
LINE
5
B8
100
AcDbEntity
8
1
62
256
6
ByLayer
370
18
48
1
60
0
100
AcDbLine
10
6.923205
20
19.122283
30
0
11
9.076795
21
19.122283
31
0
39
0
210
0
220
0
230
1
0
LINE
5
B9
100
AcDbEntity
8
1
62
256
6
ByLayer
370
18
48
1
60
0
100
AcDbLine
10
6.663397
20
19.024574
30
0
11
6.663397
21
6.16973
31
0
39
0
210
0
220
0
230
1
0
LINE
5
BA
100
AcDbEntity
8
1
62
256
6
ByLayer
370
18
48
1
60
0
100
AcDbLine
10
6.923205
20
-5.85989
30
0
11
6.923205
21
-19.122283
31
0
39
0
210
0
220
0
230
1
0
LINE
5
BB
100
AcDbEntity
8
1
62
256
6
ByLayer
370
18
48
1
60
0
100
AcDbLine
10
54.49695
20
-11.911618
30
0
11
54.435509
21
-12.041369
31
0
39
0
210
0
220
0
230
1
0
LINE
5
BC
100
AcDbEntity
8
1
62
256
6
ByLayer
370
18
48
1
60
0
100
AcDbLine
10
22.966559
20
14.869126
30
0
11
22.966559
21
-12.470996
31
0
39
0
210
0
220
0
230
1
0
LINE
5
BD
100
AcDbEntity
8
1
62
256
6
ByLayer
370
18
48
1
60
0
100
AcDbLine
10
24.245187
20
-20.782604
30
0
11
28.471609
21
-4.401326
31
0
39
0
210
0
220
0
230
1
0
LINE
5
BE
100
AcDbEntity
8
1
62
256
6
ByLayer
370
18
48
1
60
0
100
AcDbLine
10
45.115537
20
-21.427904
30
0
11
45.012877
21
-21.644701
31
0
39
0
210
0
220
0
230
1
0
LINE
5
BF
100
AcDbEntity
8
1
62
256
6
ByLayer
370
18
48
1
60
0
100
AcDbLine
10
9.336603
20
19.024574
30
0
11
9.336603
21
6.16973
31
0
39
0
210
0
220
0
230
1
0
LINE
5
C0
100
AcDbEntity
8
1
62
256
6
ByLayer
370
18
48
1
60
0
100
AcDbLine
10
9.336603
20
-6.16973
30
0
11
9.336603
21
-19.024574
31
0
39
0
210
0
220
0
230
1
0
LINE
5
C1
100
AcDbEntity
8
1
62
256
6
ByLayer
370
18
48
1
60
0
100
AcDbLine
10
9.076795
20
-19.122283
30
0
11
6.923205
21
-19.122283
31
0
39
0
210
0
220
0
230
1
0
LINE
5
C2
100
AcDbEntity
8
1
62
256
6
ByLayer
370
18
48
1
60
0
100
AcDbLine
10
45.240056
20
-21.507607
30
0
11
45.280057
21
-21.423133
31
0
39
0
210
0
220
0
230
1
0
LINE
5
C3
100
AcDbEntity
8
1
62
256
6
ByLayer
370
18
48
1
60
0
100
AcDbLine
10
6.923205
20
-5.85989
30
0
11
9.076795
21
-5.85989
31
0
39
0
210
0
220
0
230
1
0
LINE
5
C4
100
AcDbEntity
8
1
62
256
6
ByLayer
370
18
48
1
60
0
100
AcDbLine
10
6.663397
20
-6.16973
30
0
11
6.663397
21
-19.024574
31
0
39
0
210
0
220
0
230
1
0
LINE
5
C5
100
AcDbEntity
8
1
62
256
6
ByLayer
370
18
48
1
60
0
100
AcDbLine
10
23.566954
20
-21.191518
30
0
11
24.154532
21
-21.101815
31
0
39
0
210
0
220
0
230
1
0
LINE
5
C6
100
AcDbEntity
8
1
62
256
6
ByLayer
370
18
48
1
60
0
100
AcDbLine
10
42.985054
20
-6.802523
30
0
11
43.113632
21
-6.9311
31
0
39
0
210
0
220
0
230
1
0
LINE
5
C7
100
AcDbEntity
8
1
62
256
6
ByLayer
370
18
48
1
60
0
100
AcDbLine
10
6.923205
20
19.122283
30
0
11
6.923205
21
5.85989
31
0
39
0
210
0
220
0
230
1
0
LINE
5
C8
100
AcDbEntity
8
1
62
256
6
ByLayer
370
18
48
1
60
0
100
AcDbLine
10
9.076795
20
-5.85989
30
0
11
9.076795
21
-19.122283
31
0
39
0
210
0
220
0
230
1
0
LINE
5
C9
100
AcDbEntity
8
1
62
256
6
ByLayer
370
18
48
1
60
0
100
AcDbLine
10
42.545794
20
-6.535403
30
0
11
42.732767
21
-6.722377
31
0
39
0
210
0
220
0
230
1
0
LINE
5
CA
100
AcDbEntity
8
1
62
256
6
ByLayer
370
18
48
1
60
0
100
AcDbLine
10
47.797037
20
2.875804
30
0
11
54.492254
21
-11.71007
31
0
39
0
210
0
220
0
230
1
0
LINE
5
CB
100
AcDbEntity
8
1
62
256
6
ByLayer
370
18
48
1
60
0
100
AcDbLine
10
25.603834
20
-21.100496
30
0
11
30.255252
21
-21.644503
31
0
39
0
210
0
220
0
230
1
0
LINE
5
CC
100
AcDbEntity
8
1
62
256
6
ByLayer
370
18
48
1
60
0
100
AcDbLine
10
9.076795
20
5.85989
30
0
11
6.923205
21
5.85989
31
0
39
0
210
0
220
0
230
1
0
LINE
5
CD
100
AcDbEntity
8
1
62
256
6
ByLayer
370
18
48
1
60
0
100
AcDbLine
10
19.521469
20
-17.276767
30
0
11
19.521469
21
13.91777
31
0
39
0
210
0
220
0
230
1
0
LINE
5
CE
100
AcDbEntity
8
SK1
62
256
6
ByLayer
370
18
48
1
60
0
100
AcDbLine
10
-1.307107
20
3.628532
30
0
11
-1.307107
21
-3.628534
31
0
39
0
210
0
220
0
230
1
0
LINE
5
D0
100
AcDbEntity
8
1
62
256
6
ByLayer
370
18
48
1
60
0
100
AcDbLine
10
42.855288
20
-6.778616
30
0
11
42.732767
21
-6.722377
31
0
39
0
210
0
220
0
230
1
0
LINE
5
D1
100
AcDbEntity
8
1
62
256
6
ByLayer
370
18
48
1
60
0
100
AcDbLine
10
29.828065
20
-4.727707
30
0
11
29.481546
21
-6.070787
31
0
39
0
210
0
220
0
230
1
0
LINE
5
D2
100
AcDbEntity
8
1
62
256
6
ByLayer
370
18
48
1
60
0
100
AcDbLine
10
26.632632
20
-17.112955
30
0
11
25.603834
21
-21.100496
31
0
39
0
210
0
220
0
230
1
0
LINE
5
D3
100
AcDbEntity
8
1
62
256
6
ByLayer
370
18
48
1
60
0
100
AcDbLine
10
20.988369
20
-19.059453
30
0
11
20.988369
21
-20.231966
31
0
39
0
210
0
220
0
230
1
0
LINE
5
D4
100
AcDbEntity
8
1
62
256
6
ByLayer
370
18
48
1
60
0
100
AcDbLine
10
31.413597
20
-5.257687
30
0
11
29.828065
21
-4.727707
31
0
39
0
210
0
220
0
230
1
0
LINE
5
D5
100
AcDbEntity
8
1
62
256
6
ByLayer
370
18
48
1
60
0
100
AcDbLine
10
30.255252
20
-21.644503
30
0
11
38.748544
21
-21.644503
31
0
39
0
210
0
220
0
230
1
0
LINE
5
D6
100
AcDbEntity
8
1
62
256
6
ByLayer
370
18
48
1
60
0
100
AcDbLine
10
42.157115
20
-21.644503
30
0
11
44.956284
21
-21.644503
31
0
39
0
210
0
220
0
230
1
0
LINE
5
D7
100
AcDbEntity
8
1
62
256
6
ByLayer
370
18
48
1
60
0
100
AcDbLine
10
30.686848
20
-19.971672
30
0
11
30.255252
21
-21.644503
31
0
39
0
210
0
220
0
230
1
0
LINE
5
D8
100
AcDbEntity
8
1
62
256
6
ByLayer
370
18
48
1
60
0
100
AcDbLine
10
20.279208
20
-20
30
0
11
20.279208
21
-18.37783
31
0
39
0
210
0
220
0
230
1
0
LINE
5
D9
100
AcDbEntity
8
1
62
256
6
ByLayer
370
18
48
1
60
0
100
AcDbLine
10
0.3
20
20
30
0
11
0.3
21
-20
31
0
39
0
210
0
220
0
230
1
0
LINE
5
DA
100
AcDbEntity
8
1
62
256
6
ByLayer
370
18
48
1
60
0
100
AcDbLine
10
0
20
19.7
30
0
11
0
21
-19.7
31
0
39
0
210
0
220
0
230
1
0
LINE
5
DB
100
AcDbEntity
8
SK1
62
256
6
ByLayer
370
18
48
1
60
0
100
AcDbLine
10
-0.2
20
14.083485
30
0
11
-0.2
21
5.678452
31
0
39
0
210
0
220
0
230
1
0
LINE
5
DC
100
AcDbEntity
8
SK1
62
256
6
ByLayer
370
18
48
1
60
0
100
AcDbLine
10
-0.2
20
-14.083485
30
0
11
-0.2
21
-5.678452
31
0
39
0
210
0
220
0
230
1
0
LINE
5
DD
100
AcDbEntity
8
81
62
256
6
ByLayer
370
18
48
1
60
0
100
AcDbLine
10
60
20
-27
30
0
11
70
21
-27
31
0
39
0
210
0
220
0
230
1
0
LINE
5
DE
100
AcDbEntity
8
1
62
256
6
ByLayer
370
18
48
1
60
0
100
AcDbLine
10
46.690989
20
4.361226
30
0
11
19.5671
21
19.996037
31
0
39
0
210
0
220
0
230
1
0
LINE
5
DF
100
AcDbEntity
8
1
62
256
6
ByLayer
370
18
48
1
60
0
100
AcDbLine
10
19.560427
20
20
30
0
11
0.3
21
20
31
0
39
0
210
0
220
0
230
1
0
LINE
5
E0
100
AcDbEntity
8
1
62
256
6
ByLayer
370
18
48
1
60
0
100
AcDbLine
10
0.3
20
-20
30
0
11
20.279208
21
-20
31
0
39
0
210
0
220
0
230
1
0
LINE
5
E1
100
AcDbEntity
8
1
62
256
6
ByLayer
370
18
48
1
60
0
100
AcDbLine
10
0
20
-19.7
30
0
11
0.3
21
-20
31
0
39
0
210
0
220
0
230
1
0
LINE
5
E2
100
AcDbEntity
8
1
62
256
6
ByLayer
370
18
48
1
60
0
100
AcDbLine
10
0.3
20
20
30
0
11
0
21
19.7
31
0
39
0
210
0
220
0
230
1
0
LINE
5
E3
100
AcDbEntity
8
1
62
256
6
ByLayer
370
18
48
1
60
0
100
AcDbLine
10
27.949268
20
-18.804367
30
0
11
28.893722
21
-19.414559
31
0
39
0
210
0
220
0
230
1
0
LINE
5
E4
100
AcDbEntity
8
1
62
256
6
ByLayer
370
18
48
1
60
0
100
AcDbLine
10
32.127722
20
-16.381203
30
0
11
31.576319
21
-16.024953
31
0
39
0
210
0
220
0
230
1
0
LINE
5
E5
100
AcDbEntity
8
1
62
256
6
ByLayer
370
13
48
1
60
0
100
AcDbLine
10
45.410148
20
-21.257923
30
0
11
45.785165
21
-21.632939
31
0
39
0
210
0
220
0
230
1
0
LINE
5
E6
100
AcDbEntity
8
1
62
256
6
ByLayer
370
13
48
1
60
0
100
AcDbLine
10
54.63349
20
-12.784614
30
0
11
54.168805
21
-12.319928
31
0
39
0
210
0
220
0
230
1
0
LINE
5
E7
100
AcDbEntity
8
1
62
256
6
ByLayer
370
18
48
1
60
0
100
AcDbLine
10
40.024298
20
-11.985127
30
0
11
39.696004
21
-11.656832
31
0
39
0
210
0
220
0
230
1
0
LINE
5
E8
100
AcDbEntity
8
1
62
256
6
ByLayer
370
18
48
1
60
0
100
AcDbLine
10
34.03915
20
-17.313687
30
0
11
34.367444
21
-17.641981
31
0
39
0
210
0
220
0
230
1
0
LINE
5
E9
100
AcDbEntity
8
1
62
256
6
ByLayer
370
18
48
1
60
0
100
AcDbLine
10
37.21777
20
-16.163186
30
0
11
36.914195
21
-15.859611
31
0
39
0
210
0
220
0
230
1
0
LINE
5
EA
100
AcDbEntity
8
1
62
256
6
ByLayer
370
18
48
1
60
0
100
AcDbLine
10
38.228179
20
-14.478857
30
0
11
38.531754
21
-14.782432
31
0
39
0
210
0
220
0
230
1
0
LINE
5
EB
100
AcDbEntity
8
1
62
256
6
ByLayer
370
18
48
1
60
0
100
AcDbLine
10
36.093887
20
-15.078574
30
0
11
35.790312
21
-14.774999
31
0
39
0
210
0
220
0
230
1
0
LINE
5
EC
100
AcDbEntity
8
1
62
256
6
ByLayer
370
18
48
1
60
0
100
AcDbLine
10
37.104296
20
-13.394245
30
0
11
37.407872
21
-13.69782
31
0
39
0
210
0
220
0
230
1
0
LINE
5
ED
100
AcDbEntity
8
4
62
256
6
ByLayer
370
18
48
0.05
60
0
100
AcDbLine
10
-10
20
0
30
0
11
65
21
0
31
0
39
0
210
0
220
0
230
1
0
LINE
5
EF
100
AcDbEntity
8
SK4
62
256
6
ByLayer
370
18
48
0.05
60
0
100
AcDbLine
10
-29
20
0
30
0
11
65
21
0
31
0
39
0
210
0
220
0
230
1
0
LINE
5
F1
100
AcDbEntity
8
80
62
256
6
ByLayer
370
18
48
1
60
0
100
AcDbLine
10
0
20
0
30
0
11
-10
21
0
31
0
39
0
210
0
220
0
230
1
0
LINE
5
F2
100
AcDbEntity
8
2
62
256
6
ByLayer
370
13
48
1
60
0
100
AcDbLine
10
58.27305
20
-20.54773
30
0
11
48.018585
21
1.443041
31
0
39
0
210
0
220
0
230
1
0
LINE
5
F4
100
AcDbEntity
8
2
62
256
6
ByLayer
370
13
48
1
60
0
100
AcDbLine
10
60
20
-20.9125
30
0
11
60
21
4.099256
31
0
39
0
210
0
220
0
230
1
0
LINE
5
F5
100
AcDbEntity
8
1
62
256
6
ByLayer
370
13
48
1
60
0
100
AcDbLine
10
49.360398
20
-1.434487
30
0
11
51.943653
21
0.598038
31
0
39
0
210
0
220
0
230
1
0
LINE
5
F6
100
AcDbEntity
8
1
62
256
6
ByLayer
370
13
48
1
60
0
100
AcDbLine
10
49.360398
20
-1.434487
30
0
11
52.61383
21
-0.965895
31
0
39
0
210
0
220
0
230
1
0
LINE
5
F7
100
AcDbEntity
8
1
62
256
6
ByLayer
370
13
48
1
60
0
100
AcDbLine
10
51.943653
20
0.598038
30
0
11
52.61383
21
-0.965895
31
0
39
0
210
0
220
0
230
1
0
LINE
5
F8
100
AcDbEntity
8
1
62
256
6
ByLayer
370
13
48
1
60
0
100
AcDbLine
10
60
20
0.924256
30
0
11
56.85336
21
-0.026015
31
0
39
0
210
0
220
0
230
1
0
LINE
5
F9
100
AcDbEntity
8
1
62
256
6
ByLayer
370
13
48
1
60
0
100
AcDbLine
10
60
20
0.924256
30
0
11
56.799788
21
1.674618
31
0
39
0
210
0
220
0
230
1
0
LINE
5
FA
100
AcDbEntity
8
1
62
256
6
ByLayer
370
13
48
1
60
0
100
AcDbLine
10
56.85336
20
-0.026015
30
0
11
56.799788
21
1.674618
31
0
39
0
210
0
220
0
230
1
0
MTEXT
5
1D8
100
AcDbEntity
8
2
62
256
6
ByLayer
370
13
48
1
60
0
100
AcDbMText
10
49.390494
20
0.485549
30
0
210
0
220
0
230
1
1
\W0.7346;25.0
40
4.5
41
0
44
1.084337
50
12.4999999999999
71
7
72
5
7
iso_b_vert
0
MTEXT
5
1DB
100
AcDbEntity
8
SK6
62
256
6
ByLayer
370
13
48
1
60
0
100
AcDbMText
10
0.213034
20
28.507712
30
0
210
0
220
0
230
1
1
\W0.7354;C4-CP-25BL-27060-12B
40
3.5
41
0
44
1.084337
50
0
71
7
72
5
7
iso_b_vert
0
DIMENSION
5
1DE
100
AcDbEntity
8
2
62
256
6
ByLayer
370
13
48
1
60
0
100
AcDbDimension
2
_U0
10
60
20
-53.5
30
0
11
30
21
-53.5
31
0
70
32
71
1
72
1
41
1
210
0
220
0
230
1
3
Standard
100
AcDbAlignedDimension
13
0
23
-20
33
0
14
60
24
-27
34
0
50
0
100
AcDbRotatedDimension
1001
ACAD
1000
DSTYLE
1002
{
1070
   371
1070
    13
1070
   372
1070
    13
1070
     3
1000

1070
   170
1070
     0
1070
   144
1040
1.0
1070
   277
1070
     2
1070
   284
1070
     8
1070
   278
1070
    46
1070
   146
1040
0.777778
1070
   345
1005
16
1070
   347
1005
16
1070
   346
1005
16
1070
   344
1005
1DF
1070
   343
1005
1DF
1070
   172
1070
     1
1070
    76
1070
     0
1070
    75
1070
     0
1070
   282
1070
     0
1070
   281
1070
     0
1070
    71
1070
     0
1070
    74
1070
     0
1070
   279
1070
     0
1070
   173
1070
     1
1070
   340
1005
1D9
1070
   271
1070
     1
1070
   272
1070
     2
1070
    77
1070
     1
1070
    73
1070
     1
1070
   171
1070
     3
1070
   274
1070
     4
1070
   177
1070
   150
1070
   176
1070
     9
1070
   178
1070
    43
1070
    78
1070
     8
1070
    48
1040
-0.1
1070
    41
1040
3.175
1070
   147
1040
2.25
1070
    42
1040
1.5875
1070
    44
1040
3.175
1070
   140
1040
4.5
1002
}
1001
ACAD_DSTYLE_DIM_LINETYPE
1070
   380
1005
16
1001
ACAD_DSTYLE_DIM_EXT1_LINETYPE
1070
   381
1005
16
1001
ACAD_DSTYLE_DIM_EXT2_LINETYPE
1070
   382
1005
16
0
DIMENSION
5
202
100
AcDbEntity
8
SK2
62
256
6
ByLayer
370
13
48
1
60
0
100
AcDbDimension
2
_U1
10
-34.725
20
-20
30
0
11
-34.725
21
0
31
0
70
32
71
1
72
1
41
1
210
0
220
0
230
1
3
Standard
100
AcDbAlignedDimension
13
0
23
20
33
0
14
0
24
-20
34
0
50
90
100
AcDbRotatedDimension
1001
ACAD
1000
DSTYLE
1002
{
1070
   371
1070
    13
1070
   372
1070
    13
1070
     3
1000

1070
   170
1070
     0
1070
   144
1040
1.0
1070
   277
1070
     2
1070
   284
1070
     8
1070
   278
1070
    46
1070
   146
1040
0.777778
1070
   345
1005
16
1070
   347
1005
16
1070
   346
1005
16
1070
   344
1005
1DF
1070
   343
1005
1DF
1070
   172
1070
     1
1070
    76
1070
     0
1070
    75
1070
     0
1070
   282
1070
     0
1070
   281
1070
     0
1070
    71
1070
     0
1070
    74
1070
     0
1070
   279
1070
     0
1070
   173
1070
     1
1070
   340
1005
1D9
1070
   271
1070
     1
1070
   272
1070
     2
1070
    77
1070
     1
1070
    73
1070
     0
1070
   171
1070
     3
1070
   274
1070
     4
1070
   177
1070
   150
1070
   176
1070
     9
1070
   178
1070
    43
1070
    78
1070
     8
1070
    48
1040
-0.1
1070
    41
1040
3.175
1070
   147
1040
2.25
1070
    42
1040
1.5875
1070
    44
1040
3.175
1070
   140
1040
4.5
1002
}
1001
ACAD_DSTYLE_DIM_LINETYPE
1070
   380
1005
16
1001
ACAD_DSTYLE_DIM_EXT1_LINETYPE
1070
   381
1005
16
1001
ACAD_DSTYLE_DIM_EXT2_LINETYPE
1070
   382
1005
16
0
DIMENSION
5
220
100
AcDbEntity
8
2
62
256
6
ByLayer
370
13
48
1
60
0
100
AcDbDimension
2
_U2
10
85.85
20
0
30
0
11
85.85
21
-13.5
31
0
70
32
71
1
72
1
41
1
210
0
220
0
230
1
3
Standard
100
AcDbAlignedDimension
13
60
23
-27
33
0
14
60
24
0
34
0
50
90
100
AcDbRotatedDimension
1001
ACAD
1000
DSTYLE
1002
{
1070
   371
1070
    13
1070
   372
1070
    13
1070
     3
1000

1070
   170
1070
     0
1070
   144
1040
1.0
1070
   277
1070
     2
1070
   284
1070
     8
1070
   278
1070
    46
1070
   146
1040
0.777778
1070
   345
1005
16
1070
   347
1005
16
1070
   346
1005
16
1070
   344
1005
1DF
1070
   343
1005
1DF
1070
   172
1070
     1
1070
    76
1070
     0
1070
    75
1070
     0
1070
   282
1070
     0
1070
   281
1070
     0
1070
    71
1070
     0
1070
    74
1070
     0
1070
   279
1070
     0
1070
   173
1070
     1
1070
   340
1005
1D9
1070
   271
1070
     1
1070
   272
1070
     2
1070
    77
1070
     1
1070
    73
1070
     0
1070
   171
1070
     3
1070
   274
1070
     4
1070
   177
1070
   150
1070
   176
1070
     9
1070
   178
1070
    43
1070
    78
1070
     8
1070
    48
1040
-0.1
1070
    41
1040
3.175
1070
   147
1040
2.25
1070
    42
1040
1.5875
1070
    44
1040
3.175
1070
   140
1040
4.5
1002
}
1001
ACAD_DSTYLE_DIM_LINETYPE
1070
   380
1005
16
1001
ACAD_DSTYLE_DIM_EXT1_LINETYPE
1070
   381
1005
16
1001
ACAD_DSTYLE_DIM_EXT2_LINETYPE
1070
   382
1005
16
0
ENDSEC
0
SECTION
2
OBJECTS
0
DICTIONARY
5
2ac
330
0
100
AcDbDictionary
280
0
281
1
3
ACAD_GROUP
350
2ad
3
ACAD_MLINESTYLE
350
2ae
0
DICTIONARY
5
2ad
330
0
100
AcDbDictionary
280
0
281
1
0
DICTIONARY
5
2ae
330
0
100
AcDbDictionary
280
0
281
1
3
Standard
350
18
0
MLINESTYLE
5
18
330
2ae
100
AcDbMlineStyle
2
Standard
70
0
3

62
256
51
90
52
90
71
2
49
-0.5
62
256
6
ByLayer
49
0.5
62
256
6
ByLayer
0
RASTERVARIABLES
5
29a
330

100
AcDbRasterVariables
90
0
70
1
71
1
72
1
0
ENDSEC
0
EOF
