0
SECTION
2
HEADER
9
$ACADVER
1
AC1015
9
$DWGCODEPAGE
3
ANSI_1252
9
$HANDSEED
5
294
9
$ANGBASE
50
0
9
$ANGDIR
70
0
9
$ATTMODE
70
1
9
$AUNITS
70
0
9
$AUPREC
70
0
9
$CECOLOR
62
256
9
$CELTSCALE
40
1
9
$CELTYPE
6
ByLayer
9
$CELWEIGHT
370
18
9
$CLAYER
8
0
9
$CMLJUST
70
0
9
$CMLSCALE
40
1
9
$CMLSTYLE
2
Standard
9
$DIMSTYLE
2
Standard
9
$TEXTSIZE
40
0.2
9
$TEXTSTYLE
7
Standard
9
$LUNITS
70
2
9
$LUPREC
70
4
9
$EXTNAMES
290
1
9
$INSUNITS
70
4
9
$LTSCALE
40
1
9
$LWDISPLAY
290
1
9
$PDMODE
70
0
9
$PDSIZE
40
0
9
$PLINEGEN
70
0
0
ENDSEC
0
SECTION
2
CLASSES
0
CLASS
1
RASTERVARIABLES
2
AcDbRasterVariables
3
ISM
90
0
280
0
281
0
0
ENDSEC
0
SECTION
2
TABLES
0
TABLE
2
VPORT
5
28a
100
AcDbSymbolTable
0
VPORT
5
1
100
AcDbSymbolTableRecord
100
AcDbViewportTableRecord
2
*Active
70
0
10
0
20
0
11
1
21
1
12
-1
22
1
13
0
23
0
14
0.5
24
0.5
15
10
25
10
16
0
26
0
36
1
17
0
27
0
37
0
0
ENDTAB
0
TABLE
2
LTYPE
5
28b
100
AcDbSymbolTable
0
LTYPE
5
14
100
AcDbSymbolTableRecord
100
AcDbLinetypeTableRecord
70
0
2
ByBlock
3

72
65
73
0
40
0
0
LTYPE
5
15
100
AcDbSymbolTableRecord
100
AcDbLinetypeTableRecord
70
0
2
ByLayer
3

72
65
73
0
40
0
0
LTYPE
5
16
100
AcDbSymbolTableRecord
100
AcDbLinetypeTableRecord
70
0
2
Continuous
3
Solid line
72
65
73
0
40
0
0
LTYPE
5
6E
100
AcDbSymbolTableRecord
100
AcDbLinetypeTableRecord
70
0
2
CENTER
3
____ _ ____ _ ____ _ ____
72
65
73
4
40
47.5
49
22
74
0
49
-8.5
74
0
49
8.5
74
0
49
-8.5
74
0
0
LTYPE
5
6F
100
AcDbSymbolTableRecord
100
AcDbLinetypeTableRecord
70
0
2
DASHED
3
__ __ __ __ __ __ __ __ __
72
65
73
2
40
25.72
49
12.86
74
0
49
-12.86
74
0
0
ENDTAB
0
TABLE
2
LAYER
5
28c
100
AcDbSymbolTable
0
LAYER
5
10
100
AcDbSymbolTableRecord
100
AcDbLayerTableRecord
2
0
70
0
62
7
6
Continuous
290
1
370
-3
390
0
0
LAYER
5
71
100
AcDbSymbolTableRecord
100
AcDbLayerTableRecord
2
80
70
0
62
-6
6
Continuous
290
1
370
-3
390
0
0
LAYER
5
73
100
AcDbSymbolTableRecord
100
AcDbLayerTableRecord
2
81
70
0
62
-3
6
Continuous
290
1
370
-3
390
0
0
LAYER
5
75
100
AcDbSymbolTableRecord
100
AcDbLayerTableRecord
2
1
70
0
62
4
6
Continuous
290
1
370
-3
390
0
0
LAYER
5
D9
100
AcDbSymbolTableRecord
100
AcDbLayerTableRecord
2
4
70
0
62
-2
6
CENTER
290
1
370
-3
390
0
0
LAYER
5
ED
100
AcDbSymbolTableRecord
100
AcDbLayerTableRecord
2
2
70
0
62
7
6
Continuous
290
1
370
-3
390
0
0
LAYER
5
1D1
100
AcDbSymbolTableRecord
100
AcDbLayerTableRecord
2
121
70
0
62
7
6
Continuous
290
1
370
-3
390
0
0
LAYER
5
1DD
100
AcDbSymbolTableRecord
100
AcDbLayerTableRecord
2
Defpoints
70
0
62
7
6
Continuous
290
0
370
-3
390
0
0
LAYER
5
276
100
AcDbSymbolTableRecord
100
AcDbLayerTableRecord
2
SK1
70
0
62
4
6
Continuous
290
1
370
-3
390
0
0
LAYER
5
277
100
AcDbSymbolTableRecord
100
AcDbLayerTableRecord
2
SK4
70
0
62
2
6
CENTER
290
1
370
-3
390
0
0
LAYER
5
278
100
AcDbSymbolTableRecord
100
AcDbLayerTableRecord
2
SK6
70
0
62
5
6
Continuous
290
1
370
-3
390
0
0
LAYER
5
279
100
AcDbSymbolTableRecord
100
AcDbLayerTableRecord
2
SK2
70
0
62
7
6
Continuous
290
1
370
-3
390
0
0
ENDTAB
0
TABLE
2
STYLE
5
28d
100
AcDbSymbolTable
0
STYLE
5
11
100
AcDbSymbolTableRecord
100
AcDbTextStyleTableRecord
2
Standard
3
txt
70
0
71
0
40
0
41
1
42
0
50
0
0
STYLE
5
1CA
100
AcDbSymbolTableRecord
100
AcDbTextStyleTableRecord
2
iso_b_vert
3
simplex.shx
70
0
71
0
40
0
41
1
42
0
50
0
0
STYLE
5
1CB
100
AcDbSymbolTableRecord
100
AcDbTextStyleTableRecord
2
DWGDirectTextStyle
3
simplex
70
0
71
0
40
0
41
1
42
0
50
0
0
ENDTAB
0
TABLE
2
DIMSTYLE
5
28e
100
AcDbSymbolTable
100
AcDbDimStyleTable
0
DIMSTYLE
105
27
100
AcDbSymbolTableRecord
100
AcDbDimStyleTableRecord
2
Standard
70
0
3
<>
41
0.18
42
0.0625
44
0.18
140
0.18
147
0.09
73
0
74
0
77
1
271
2
275
0
278
52
280
0
340
11
0
ENDTAB
0
TABLE
2
VIEW
5
28f
100
AcDbSymbolTable
0
ENDTAB
0
TABLE
2
UCS
5
290
100
AcDbSymbolTable
0
ENDTAB
0
TABLE
2
APPID
5
291
100
AcDbSymbolTable
0
APPID
5
12
100
AcDbSymbolTableRecord
100
AcDbRegAppTableRecord
2
ACAD
70
0
0
APPID
5
1CF
100
AcDbSymbolTableRecord
100
AcDbRegAppTableRecord
2
ACAD_DSTYLE_DIMBREAK
70
0
0
APPID
5
235
100
AcDbSymbolTableRecord
100
AcDbRegAppTableRecord
2
ACAD_DSTYLE_DIM_LINETYPE
70
0
0
APPID
5
236
100
AcDbSymbolTableRecord
100
AcDbRegAppTableRecord
2
ACAD_DSTYLE_DIM_EXT1_LINETYPE
70
0
0
APPID
5
237
100
AcDbSymbolTableRecord
100
AcDbRegAppTableRecord
2
ACAD_DSTYLE_DIM_EXT2_LINETYPE
70
0
0
APPID
5
272
100
AcDbSymbolTableRecord
100
AcDbRegAppTableRecord
2
ACAD_MLEADERVER
70
0
0
ENDTAB
0
TABLE
2
BLOCK_RECORD
5
292
100
AcDbSymbolTable
0
BLOCK_RECORD
5
1F
100
AcDbSymbolTableRecord
100
AcDbBlockTableRecord
2
*Model_Space
340
0
70
0
0
BLOCK_RECORD
5
1B
100
AcDbSymbolTableRecord
100
AcDbBlockTableRecord
2
*Paper_Space
340
0
70
0
0
BLOCK_RECORD
5
23
100
AcDbSymbolTableRecord
100
AcDbBlockTableRecord
2
*Paper_Space0
340
0
70
0
0
BLOCK_RECORD
5
1D4
100
AcDbSymbolTableRecord
100
AcDbBlockTableRecord
2
_Closed
340
0
70
0
0
BLOCK_RECORD
5
1DE
100
AcDbSymbolTableRecord
100
AcDbBlockTableRecord
2
*D2
340
0
70
0
0
BLOCK_RECORD
5
1EA
100
AcDbSymbolTableRecord
100
AcDbBlockTableRecord
2
_U0
340
0
70
0
0
BLOCK_RECORD
5
1FC
100
AcDbSymbolTableRecord
100
AcDbBlockTableRecord
2
*D4
340
0
70
0
0
BLOCK_RECORD
5
209
100
AcDbSymbolTableRecord
100
AcDbBlockTableRecord
2
_U1
340
0
70
0
0
ENDTAB
0
ENDSEC
0
SECTION
2
BLOCKS
0
BLOCK
5
20
100
AcDbEntity
8
0
100
AcDbBlockBegin
2
*Model_Space
70
0
10
0
20
0
30
0
3
*Model_Space
0
ENDBLK
5
21
100
AcDbEntity
8
0
100
AcDbBlockEnd
0
BLOCK
5
1C
100
AcDbEntity
8
0
100
AcDbBlockBegin
2
*Paper_Space
70
0
10
0
20
0
30
0
3
*Paper_Space
0
ENDBLK
5
1D
100
AcDbEntity
8
0
100
AcDbBlockEnd
0
BLOCK
5
24
100
AcDbEntity
8
0
100
AcDbBlockBegin
2
*Paper_Space0
70
0
10
0
20
0
30
0
3
*Paper_Space0
0
ENDBLK
5
25
100
AcDbEntity
8
0
100
AcDbBlockEnd
0
BLOCK
5
1D5
100
AcDbEntity
8
0
100
AcDbBlockBegin
2
_Closed
70
0
10
0
20
0
30
0
3
_Closed
0
LINE
5
1D7
100
AcDbEntity
8
0
62
256
6
ByLayer
370
-2
48
1
60
0
100
AcDbLine
10
-1
20
0.166667
30
0
11
0
21
0
31
0
39
0
210
0
220
0
230
1
0
LINE
5
1D8
100
AcDbEntity
8
0
62
256
6
ByLayer
370
-2
48
1
60
0
100
AcDbLine
10
0
20
0
30
0
11
-1
21
-0.166667
31
0
39
0
210
0
220
0
230
1
0
LINE
5
1D9
100
AcDbEntity
8
0
62
256
6
ByLayer
370
-2
48
1
60
0
100
AcDbLine
10
-1
20
0.166667
30
0
11
-1
21
-0.166667
31
0
39
0
210
0
220
0
230
1
0
LINE
5
1DA
100
AcDbEntity
8
0
62
256
6
ByLayer
370
-2
48
1
60
0
100
AcDbLine
10
0
20
0
30
0
11
-1
21
0
31
0
39
0
210
0
220
0
230
1
0
ENDBLK
5
1D6
100
AcDbEntity
8
0
100
AcDbBlockEnd
0
BLOCK
5
1DF
100
AcDbEntity
8
0
100
AcDbBlockBegin
2
*D2
70
1
10
0
20
0
30
0
3
*D2
0
LINE
5
1E1
100
AcDbEntity
8
0
62
256
6
ByLayer
370
-2
48
1
60
0
100
AcDbLine
10
60
20
36.5875
30
0
11
60
21
55.675
31
0
39
0
210
0
220
0
230
1
0
LINE
5
1E2
100
AcDbEntity
8
0
62
256
6
ByLayer
370
-2
48
1
60
0
100
AcDbLine
10
0
20
26.5875
30
0
11
0
21
55.675
31
0
39
0
210
0
220
0
230
1
0
LINE
5
1E3
100
AcDbEntity
8
0
62
256
6
ByLayer
370
-2
48
1
60
0
100
AcDbLine
10
56.825
20
52.5
30
0
11
3.175
21
52.5
31
0
39
0
210
0
220
0
230
1
0
SOLID
5
1E4
100
AcDbEntity
8
0
62
256
6
ByLayer
370
-1
48
1
60
0
100
AcDbTrace
10
56.825
20
51.970833
30
0
11
56.825
21
53.029167
31
0
12
60
22
52.5
32
0
13
60
23
52.5
33
0
39
0
210
0
220
0
230
1
0
SOLID
5
1E5
100
AcDbEntity
8
0
62
256
6
ByLayer
370
-1
48
1
60
0
100
AcDbTrace
10
3.175
20
53.029167
30
0
11
3.175
21
51.970833
31
0
12
0
22
52.5
32
0
13
0
23
52.5
33
0
39
0
210
0
220
0
230
1
0
MTEXT
5
1E6
100
AcDbEntity
8
0
62
256
6
ByLayer
370
18
48
1
60
0
100
AcDbMText
10
30
20
61.89375
30
0
210
0
220
0
230
1
1
\A1;60
40
4.5
41
0
44
1
50
0
71
5
72
5
7
iso_b_vert
0
POINT
5
1E7
100
AcDbEntity
8
Defpoints
62
0
6
ByLayer
370
-1
48
1
60
0
100
AcDbPoint
10
60
20
35
30
0
39
0
210
0
220
0
230
1
50
360
0
POINT
5
1E8
100
AcDbEntity
8
Defpoints
62
0
6
ByLayer
370
-1
48
1
60
0
100
AcDbPoint
10
0
20
25
30
0
39
0
210
0
220
0
230
1
50
360
0
POINT
5
1E9
100
AcDbEntity
8
Defpoints
62
0
6
ByLayer
370
-1
48
1
60
0
100
AcDbPoint
10
0
20
52.5
30
0
39
0
210
0
220
0
230
1
50
360
0
ENDBLK
5
1E0
100
AcDbEntity
8
0
100
AcDbBlockEnd
0
BLOCK
5
1F5
100
AcDbEntity
8
0
100
AcDbBlockBegin
2
_U0
70
0
10
0
20
0
30
0
3
_U0
0
MTEXT
5
1EB
100
AcDbEntity
8
2
62
256
6
ByLayer
370
13
48
1
60
0
100
AcDbMText
10
24.957816
20
53.827672
30
0
210
0
220
0
230
1
1
\W0.7346;60.0
40
4.5
41
0
44
1.084337
50
0
71
7
72
5
7
iso_b_vert
0
LINE
5
1EC
100
AcDbEntity
8
2
62
256
6
ByLayer
370
13
48
1
60
0
100
AcDbLine
10
60
20
36.5875
30
0
11
60
21
55.675
31
0
39
0
210
0
220
0
230
1
0
LINE
5
1ED
100
AcDbEntity
8
2
62
256
6
ByLayer
370
13
48
1
60
0
100
AcDbLine
10
0
20
26.5875
30
0
11
0
21
55.675
31
0
39
0
210
0
220
0
230
1
0
LINE
5
1EE
100
AcDbEntity
8
2
62
256
6
ByLayer
370
13
48
1
60
0
100
AcDbLine
10
60
20
52.5
30
0
11
0
21
52.5
31
0
39
0
210
0
220
0
230
1
0
LINE
5
1EF
100
AcDbEntity
8
2
62
256
6
ByLayer
370
13
48
1
60
0
100
AcDbLine
10
60
20
52.5
30
0
11
56.825003
21
51.649261
31
0
39
0
210
0
220
0
230
1
0
LINE
5
1F0
100
AcDbEntity
8
2
62
256
6
ByLayer
370
13
48
1
60
0
100
AcDbLine
10
60
20
52.5
30
0
11
56.824997
21
53.350739
31
0
39
0
210
0
220
0
230
1
0
LINE
5
1F1
100
AcDbEntity
8
2
62
256
6
ByLayer
370
13
48
1
60
0
100
AcDbLine
10
56.825003
20
51.649261
30
0
11
56.824997
21
53.350739
31
0
39
0
210
0
220
0
230
1
0
LINE
5
1F2
100
AcDbEntity
8
2
62
256
6
ByLayer
370
13
48
1
60
0
100
AcDbLine
10
0
20
52.5
30
0
11
3.174997
21
53.350739
31
0
39
0
210
0
220
0
230
1
0
LINE
5
1F3
100
AcDbEntity
8
2
62
256
6
ByLayer
370
13
48
1
60
0
100
AcDbLine
10
0
20
52.5
30
0
11
3.175003
21
51.649261
31
0
39
0
210
0
220
0
230
1
0
LINE
5
1F4
100
AcDbEntity
8
2
62
256
6
ByLayer
370
13
48
1
60
0
100
AcDbLine
10
3.174997
20
53.350739
30
0
11
3.175003
21
51.649261
31
0
39
0
210
0
220
0
230
1
0
ENDBLK
5
1F6
100
AcDbEntity
8
0
100
AcDbBlockEnd
0
BLOCK
5
1FD
100
AcDbEntity
8
0
100
AcDbBlockBegin
2
*D4
70
1
10
0
20
0
30
0
3
*D4
0
LINE
5
1FF
100
AcDbEntity
8
0
62
256
6
ByLayer
370
-2
48
1
60
0
100
AcDbLine
10
-1.5875
20
25
30
0
11
-52.275
21
25
31
0
39
0
210
0
220
0
230
1
0
LINE
5
200
100
AcDbEntity
8
0
62
256
6
ByLayer
370
-2
48
1
60
0
100
AcDbLine
10
-1.5875
20
-25
30
0
11
-52.275
21
-25
31
0
39
0
210
0
220
0
230
1
0
LINE
5
201
100
AcDbEntity
8
0
62
256
6
ByLayer
370
-2
48
1
60
0
100
AcDbLine
10
-49.1
20
21.825
30
0
11
-49.1
21
-21.825
31
0
39
0
210
0
220
0
230
1
0
SOLID
5
202
100
AcDbEntity
8
0
62
256
6
ByLayer
370
-1
48
1
60
0
100
AcDbTrace
10
-48.570833
20
21.825
30
0
11
-49.629167
21
21.825
31
0
12
-49.1
22
25
32
0
13
-49.1
23
25
33
0
39
0
210
0
220
0
230
1
0
SOLID
5
203
100
AcDbEntity
8
0
62
256
6
ByLayer
370
-1
48
1
60
0
100
AcDbTrace
10
-49.629167
20
-21.825
30
0
11
-48.570833
21
-21.825
31
0
12
-49.1
22
-25
32
0
13
-49.1
23
-25
33
0
39
0
210
0
220
0
230
1
0
MTEXT
5
204
100
AcDbEntity
8
0
62
256
6
ByLayer
370
18
48
1
60
0
100
AcDbMText
10
-58.49375
20
0
30
0
210
0
220
0
230
1
1
\A1;50
40
4.5
41
0
44
1
50
90
71
5
72
5
7
iso_b_vert
0
POINT
5
205
100
AcDbEntity
8
Defpoints
62
0
6
ByLayer
370
-1
48
1
60
0
100
AcDbPoint
10
0
20
25
30
0
39
0
210
0
220
0
230
1
50
360
0
POINT
5
206
100
AcDbEntity
8
Defpoints
62
0
6
ByLayer
370
-1
48
1
60
0
100
AcDbPoint
10
0
20
-25
30
0
39
0
210
0
220
0
230
1
50
360
0
POINT
5
207
100
AcDbEntity
8
Defpoints
62
0
6
ByLayer
370
-1
48
1
60
0
100
AcDbPoint
10
-49.1
20
-25
30
0
39
0
210
0
220
0
230
1
50
360
0
ENDBLK
5
1FE
100
AcDbEntity
8
0
100
AcDbBlockEnd
0
BLOCK
5
215
100
AcDbEntity
8
0
100
AcDbBlockBegin
2
_U1
70
0
10
0
20
0
30
0
3
_U1
0
MTEXT
5
20A
100
AcDbEntity
8
SK2
62
256
6
ByLayer
370
13
48
1
60
0
100
AcDbMText
10
-51.111672
20
1.671816
30
0
210
0
220
0
230
1
1
\W0.7346;50.0
40
4.5
41
0
44
1.084337
50
90
71
7
72
5
7
iso_b_vert
0
MTEXT
5
20B
100
AcDbEntity
8
SK2
62
256
6
ByLayer
370
13
48
1
60
0
100
AcDbMText
10
-51.111672
20
-11.828184
30
0
210
0
220
0
230
1
1
%%c
40
4.5
41
0
44
1.084337
50
90
71
7
72
5
7
iso_b_vert
0
LINE
5
20C
100
AcDbEntity
8
SK2
62
256
6
ByLayer
370
13
48
1
60
0
100
AcDbLine
10
-1.5875
20
25
30
0
11
-52.275
21
25
31
0
39
0
210
0
220
0
230
1
0
LINE
5
20D
100
AcDbEntity
8
SK2
62
256
6
ByLayer
370
13
48
1
60
0
100
AcDbLine
10
-1.5875
20
-25
30
0
11
-52.275
21
-25
31
0
39
0
210
0
220
0
230
1
0
LINE
5
20E
100
AcDbEntity
8
SK2
62
256
6
ByLayer
370
13
48
1
60
0
100
AcDbLine
10
-49.1
20
25
30
0
11
-49.1
21
-25
31
0
39
0
210
0
220
0
230
1
0
LINE
5
20F
100
AcDbEntity
8
SK2
62
256
6
ByLayer
370
13
48
1
60
0
100
AcDbLine
10
-49.1
20
25
30
0
11
-48.249261
21
21.825003
31
0
39
0
210
0
220
0
230
1
0
LINE
5
210
100
AcDbEntity
8
SK2
62
256
6
ByLayer
370
13
48
1
60
0
100
AcDbLine
10
-49.1
20
25
30
0
11
-49.950739
21
21.824997
31
0
39
0
210
0
220
0
230
1
0
LINE
5
211
100
AcDbEntity
8
SK2
62
256
6
ByLayer
370
13
48
1
60
0
100
AcDbLine
10
-48.249261
20
21.825003
30
0
11
-49.950739
21
21.824997
31
0
39
0
210
0
220
0
230
1
0
LINE
5
212
100
AcDbEntity
8
SK2
62
256
6
ByLayer
370
13
48
1
60
0
100
AcDbLine
10
-49.1
20
-25
30
0
11
-49.950739
21
-21.825003
31
0
39
0
210
0
220
0
230
1
0
LINE
5
213
100
AcDbEntity
8
SK2
62
256
6
ByLayer
370
13
48
1
60
0
100
AcDbLine
10
-49.1
20
-25
30
0
11
-48.249261
21
-21.824997
31
0
39
0
210
0
220
0
230
1
0
LINE
5
214
100
AcDbEntity
8
SK2
62
256
6
ByLayer
370
13
48
1
60
0
100
AcDbLine
10
-49.950739
20
-21.825003
30
0
11
-48.249261
21
-21.824997
31
0
39
0
210
0
220
0
230
1
0
ENDBLK
5
216
100
AcDbEntity
8
0
100
AcDbBlockEnd
0
ENDSEC
0
SECTION
2
ENTITIES
0
ARC
5
F2
100
AcDbEntity
8
SK1
62
256
6
ByLayer
370
18
48
1
60
0
100
AcDbCircle
39
0
10
-0.6
20
18.75
30
0
40
0.999999999999998
210
0
220
0
230
1
100
AcDbArc
50
293.578178
51
306.869898
0
ARC
5
F3
100
AcDbEntity
8
SK1
62
256
6
ByLayer
370
18
48
1
60
0
100
AcDbCircle
39
0
10
-0.6
20
-18.75
30
0
40
0.999999999999998
210
0
220
0
230
1
100
AcDbArc
50
53.130102
51
66.421822
0
ARC
5
F4
100
AcDbEntity
8
1
62
256
6
ByLayer
370
18
48
1
60
0
100
AcDbCircle
39
0
10
20
20
31.15
30
0
40
6
210
0
220
0
230
1
100
AcDbArc
50
279.481446
51
315
0
ARC
5
F5
100
AcDbEntity
8
1
62
256
6
ByLayer
370
18
48
1
60
0
100
AcDbCircle
39
0
10
20.279208
20
26.2
30
0
40
1.2
210
0
220
0
230
1
100
AcDbArc
50
270
51
306.225732
0
ARC
5
F6
100
AcDbEntity
8
2
62
256
6
ByLayer
370
13
48
1
60
0
100
AcDbCircle
39
0
10
60
20
32.251187
30
0
40
42.0852488828193
210
0
220
0
230
1
100
AcDbArc
50
230.033931
51
284.966069
0
ELLIPSE
5
F7
100
AcDbEntity
8
1
62
256
6
ByLayer
370
18
48
1
60
0
100
AcDbEllipse
10
37.312821
20
22.930503
30
0
11
0.830850467894207
21
-0.83085046789418
31
0
210
0
220
0
230
1
40
0.981627
41
2.53729673377283
42
2.66378443717023
0
ELLIPSE
5
F8
100
AcDbEntity
8
1
62
256
6
ByLayer
370
18
48
1
60
0
100
AcDbEllipse
10
38.184902
20
22.028016
30
0
11
-0.268700576850893
21
0.268700576850883
31
0
210
0
220
0
230
1
40
0.981627
41
1.70666841647737
42
-1.74157500151728
0
ELLIPSE
5
F9
100
AcDbEntity
8
1
62
256
6
ByLayer
370
18
48
1
60
0
100
AcDbEllipse
10
36.981156
20
21.73838
30
0
11
-0.268700576850893
21
0.268700576850883
31
0
210
0
220
0
230
1
40
0.981627
41
0.659470865280738
42
-2.78877255271384
0
ELLIPSE
5
FA
100
AcDbEntity
8
1
62
256
6
ByLayer
370
18
48
1
60
0
100
AcDbEllipse
10
38.832275
20
22.481912
30
0
11
0.300520382004287
21
-0.300520382004278
31
0
210
0
220
0
230
1
40
0.981627
41
-2.45981145196304
42
-1.74157500151724
0
ELLIPSE
5
FB
100
AcDbEntity
8
1
62
256
6
ByLayer
370
18
48
1
60
0
100
AcDbEllipse
10
38.436704
20
24.015115
30
0
11
0.300520382004287
21
-0.300520382004278
31
0
210
0
220
0
230
1
40
0.981627
41
-2.48212178830903
42
-1.76388533786328
0
ELLIPSE
5
FC
100
AcDbEntity
8
1
62
256
6
ByLayer
370
18
48
1
60
0
100
AcDbEllipse
10
36.188938
20
21.845891
30
0
11
0.300520382004287
21
-0.300520382004278
31
0
210
0
220
0
230
1
40
0.981627
41
0.65947086528074
42
1.37770731572648
0
ELLIPSE
5
FD
100
AcDbEntity
8
1
62
256
6
ByLayer
370
18
48
1
60
0
100
AcDbEllipse
10
38.133128
20
23.71154
30
0
11
0.300520382004287
21
-0.300520382004278
31
0
210
0
220
0
230
1
40
0.981627
41
-2.48212178830904
42
-0.694377450320638
0
ELLIPSE
5
FE
100
AcDbEntity
8
1
62
256
6
ByLayer
370
18
48
1
60
0
100
AcDbEllipse
10
37.312821
20
22.930503
30
0
11
0.830850467894207
21
-0.83085046789418
31
0
210
0
220
0
230
1
40
0.981627
41
-0.604295919816952
42
-0.477808216419554
0
ELLIPSE
5
FF
100
AcDbEntity
8
1
62
256
6
ByLayer
370
18
48
1
60
0
100
AcDbEllipse
10
38.516566
20
23.22014
30
0
11
-0.268700576850893
21
0.268700576850883
31
0
210
0
220
0
230
1
40
0.981627
41
2.75386596767393
42
-0.694377450320685
0
ELLIPSE
5
100
100
AcDbEntity
8
1
62
256
6
ByLayer
370
18
48
1
60
0
100
AcDbEllipse
10
35.793367
20
23.379095
30
0
11
0.300520382004287
21
-0.300520382004278
31
0
210
0
220
0
230
1
40
0.981627
41
0.681781201626774
42
1.40001765207252
0
ELLIPSE
5
101
100
AcDbEntity
8
1
62
256
6
ByLayer
370
18
48
1
60
0
100
AcDbEllipse
10
37.708392
20
21.3973
30
0
11
0.300520382004287
21
-0.300520382004278
31
0
210
0
220
0
230
1
40
0.981627
41
1.70666841647734
42
2.4249048669231
0
ELLIPSE
5
102
100
AcDbEntity
8
1
62
256
6
ByLayer
370
18
48
1
60
0
100
AcDbEllipse
10
36.44074
20
23.83299
30
0
11
-0.268700576850893
21
0.268700576850883
31
0
210
0
220
0
230
1
40
0.981627
41
-1.43492423711244
42
1.40001765207255
0
ELLIPSE
5
103
100
AcDbEntity
8
1
62
256
6
ByLayer
370
18
48
1
60
0
100
AcDbEllipse
10
37.644486
20
24.122627
30
0
11
-0.268700576850893
21
0.268700576850883
31
0
210
0
220
0
230
1
40
0.981627
41
-2.48212178830904
42
0.352820100875914
0
ELLIPSE
5
104
100
AcDbEntity
8
1
62
256
6
ByLayer
370
18
48
1
60
0
100
AcDbEllipse
10
36.109075
20
22.640867
30
0
11
-0.268700576850893
21
0.268700576850883
31
0
210
0
220
0
230
1
40
0.981627
41
-0.387726685915809
42
2.44721520326909
0
ELLIPSE
5
105
100
AcDbEntity
8
1
62
256
6
ByLayer
370
18
48
1
60
0
100
AcDbEllipse
10
37.312821
20
22.930503
30
0
11
0.830850467894207
21
-0.83085046789418
31
0
210
0
220
0
230
1
40
0.981627
41
-1.65149347101356
42
-1.52500576761615
0
ELLIPSE
5
106
100
AcDbEntity
8
1
62
256
6
ByLayer
370
18
48
1
60
0
100
AcDbEllipse
10
36.917249
20
24.463707
30
0
11
0.300520382004287
21
-0.300520382004278
31
0
210
0
220
0
230
1
40
0.981627
41
-0.365416349569837
42
0.352820100875933
0
ELLIPSE
5
107
100
AcDbEntity
8
1
62
256
6
ByLayer
370
18
48
1
60
0
100
AcDbEllipse
10
37.195871
20
22.813554
30
0
11
-2.82842712474624
21
2.82842712474614
31
0
210
0
220
0
230
1
40
0.981627
41
0
42
6.28318530717959
0
ELLIPSE
5
108
100
AcDbEntity
8
1
62
256
6
ByLayer
370
18
48
1
60
0
100
AcDbEllipse
10
37.312821
20
22.930503
30
0
11
-1.62634559672908
21
1.62634559672903
31
0
210
0
220
0
230
1
40
0.981627
41
0
42
6.28318530717959
0
ELLIPSE
5
109
100
AcDbEntity
8
1
62
256
6
ByLayer
370
18
48
1
60
0
100
AcDbEllipse
10
37.312821
20
22.930503
30
0
11
0.830850467894207
21
-0.83085046789418
31
0
210
0
220
0
230
1
40
0.981627
41
1.49009918257624
42
1.61658688597364
0
ELLIPSE
5
10A
100
AcDbEntity
8
1
62
256
6
ByLayer
370
18
48
1
60
0
100
AcDbEllipse
10
36.188938
20
21.845891
30
0
11
0.300520382004287
21
-0.300520382004278
31
0
210
0
220
0
230
1
40
0.981627
41
1.72897875282338
42
2.44721520326916
0
ELLIPSE
5
10B
100
AcDbEntity
8
1
62
256
6
ByLayer
370
18
48
1
60
0
100
AcDbEllipse
10
37.708392
20
21.3973
30
0
11
0.300520382004287
21
-0.300520382004278
31
0
210
0
220
0
230
1
40
0.981627
41
2.77617630401999
42
-2.78877255271386
0
ELLIPSE
5
10C
100
AcDbEntity
8
1
62
256
6
ByLayer
370
18
48
1
60
0
100
AcDbEllipse
10
37.312821
20
22.930503
30
0
11
0.830850467894207
21
-0.83085046789418
31
0
210
0
220
0
230
1
40
0.981627
41
-2.69869102221016
42
-2.57220331881275
0
ELLIPSE
5
10D
100
AcDbEntity
8
1
62
256
6
ByLayer
370
18
48
1
60
0
100
AcDbEllipse
10
35.793367
20
23.379095
30
0
11
0.300520382004287
21
-0.300520382004278
31
0
210
0
220
0
230
1
40
0.981627
41
-0.387726685915843
42
0.33050976452988
0
ELLIPSE
5
10E
100
AcDbEntity
8
1
62
256
6
ByLayer
370
18
48
1
60
0
100
AcDbEllipse
10
38.436704
20
24.015115
30
0
11
0.300520382004287
21
-0.300520382004278
31
0
210
0
220
0
230
1
40
0.981627
41
-1.41261390076641
42
-0.694377450320685
0
ELLIPSE
5
10F
100
AcDbEntity
8
1
62
256
6
ByLayer
370
18
48
1
60
0
100
AcDbEllipse
10
38.832275
20
22.481912
30
0
11
0.300520382004287
21
-0.300520382004278
31
0
210
0
220
0
230
1
40
0.981627
41
2.75386596767393
42
-2.81108288905988
0
ELLIPSE
5
110
100
AcDbEntity
8
1
62
256
6
ByLayer
370
18
48
1
60
0
100
AcDbEllipse
10
36.917249
20
24.463707
30
0
11
0.300520382004287
21
-0.300520382004278
31
0
210
0
220
0
230
1
40
0.981627
41
-1.43492423711244
42
-0.716687786666667
0
ELLIPSE
5
111
100
AcDbEntity
8
1
62
256
6
ByLayer
370
18
48
1
60
0
100
AcDbEllipse
10
37.312821
20
22.930503
30
0
11
0.830850467894207
21
-0.83085046789418
31
0
210
0
220
0
230
1
40
0.981627
41
0.442901631379651
42
0.569389334777037
0
ELLIPSE
5
112
100
AcDbEntity
8
1
62
256
6
ByLayer
370
13
48
1
60
0
100
AcDbEllipse
10
59.207315
20
34.206764
30
0
11
-0.565685424949241
21
0.565685424949222
31
0
210
0
220
0
230
1
40
0.981627
41
-2.44346095279205
42
-0.698131700797712
0
ELLIPSE
5
113
100
AcDbEntity
8
1
62
256
6
ByLayer
370
13
48
1
60
0
100
AcDbEllipse
10
42.289539
20
20.475536
30
0
11
-3.5355339059328
21
3.53553390593268
31
0
210
0
220
0
230
1
40
0.981627
41
2.44346095279207
42
2.79252680319093
0
ELLIPSE
5
114
100
AcDbEntity
8
1
62
256
6
ByLayer
370
13
48
1
60
0
100
AcDbEllipse
10
58.129116
20
29.942017
30
0
11
-3.5355339059328
21
3.53553390593268
31
0
210
0
220
0
230
1
40
0.981627
41
-0.69813170079772
42
-0.349065850398857
0
ELLIPSE
5
115
100
AcDbEntity
8
1
62
256
6
ByLayer
370
13
48
1
60
0
100
AcDbEllipse
10
54.942568
20
33.128565
30
0
11
-3.5355339059328
21
3.53553390593268
31
0
210
0
220
0
230
1
40
0.981627
41
-2.79252680319092
42
-2.44346095279205
0
ELLIPSE
5
116
100
AcDbEntity
8
1
62
256
6
ByLayer
370
13
48
1
60
0
100
AcDbEllipse
10
53.219277
20
22.198827
30
0
11
-1.41421356237312
21
1.41421356237307
31
0
210
0
220
0
230
1
40
0.981627
41
2.79252680319093
42
-2.79252680319091
0
ELLIPSE
5
117
100
AcDbEntity
8
1
62
256
6
ByLayer
370
18
48
1
60
0
100
AcDbEllipse
10
31.595125
20
16.1447
30
0
11
2.51880211995584
21
-1.64437782658381
31
0
210
0
220
0
230
1
40
0.983715
41
-2.31890721803826
42
-1.26721815497395
0
ELLIPSE
5
118
100
AcDbEntity
8
1
62
256
6
ByLayer
370
18
48
1
60
0
100
AcDbEllipse
10
32.670174
20
26.06054
30
0
11
5.38057287489582
21
1.16063654031828
31
0
210
0
220
0
230
1
40
0.137422
41
-2.56203677032333
42
-2.50904446732805
0
ELLIPSE
5
119
100
AcDbEntity
8
1
62
256
6
ByLayer
370
18
48
1
60
0
100
AcDbEllipse
10
28.085635
20
12.834504
30
0
11
6.77804186487916
21
1.74875626602036
31
0
210
0
220
0
230
1
40
0.098274
41
-0.843105965086317
42
-0.828324928346336
0
ELLIPSE
5
11A
100
AcDbEntity
8
1
62
256
6
ByLayer
370
18
48
1
60
0
100
AcDbEllipse
10
34.508826
20
18.934068
30
0
11
5.32560432240505
21
1.37402278044457
31
0
210
0
220
0
230
1
40
0.098274
41
1.95241930865952
42
2.39418704794556
0
ELLIPSE
5
11B
100
AcDbEntity
8
1
62
256
6
ByLayer
370
18
48
1
60
0
100
AcDbEllipse
10
50.736247
20
25.63955
30
0
11
1.70992970874067
21
-1.39293623864888
31
0
210
0
220
0
230
1
40
0.720909
41
0.956227874479051
42
1.81143920795619
0
ELLIPSE
5
11C
100
AcDbEntity
8
1
62
256
6
ByLayer
370
18
48
1
60
0
100
AcDbEllipse
10
35.054691
20
16.81834
30
0
11
5.26424606919258
21
1.60944665379519
31
0
210
0
220
0
230
1
40
0.333606
41
2.49979287702603
42
2.55278517988443
0
ELLIPSE
5
11D
100
AcDbEntity
8
1
62
256
6
ByLayer
370
18
48
1
60
0
100
AcDbEllipse
10
30.0219
20
24.980246
30
0
11
-0.318905572352332
21
-1.97441111117281
31
0
210
0
220
0
230
1
40
0.794874
41
-2.70809243533899
42
-1.29541694107939
0
ELLIPSE
5
11E
100
AcDbEntity
8
1
62
256
6
ByLayer
370
18
48
1
60
0
100
AcDbEllipse
10
33.216038
20
23.944812
30
0
11
5.32560432240505
21
1.37402278044457
31
0
210
0
220
0
230
1
40
0.098274
41
1.95241930865952
42
2.39418704794555
0
ELLIPSE
5
11F
100
AcDbEntity
8
1
62
256
6
ByLayer
370
18
48
1
60
0
100
AcDbEllipse
10
50.736247
20
25.63955
30
0
11
0.283568735199812
21
-2.39012394613608
31
0
210
0
220
0
230
1
40
0.755274
41
0.711317568598857
42
1.56652890207605
0
ELLIPSE
5
120
100
AcDbEntity
8
1
62
256
6
ByLayer
370
18
48
1
60
0
100
AcDbEllipse
10
34.535974
20
18.044721
30
0
11
2.40672672729096
21
4.06845603533295
31
0
210
0
220
0
230
1
40
0.503948
41
-3.04642477858552
42
-2.6868090452273
0
ELLIPSE
5
121
100
AcDbEntity
8
1
62
256
6
ByLayer
370
18
48
1
60
0
100
AcDbEllipse
10
32.447624
20
26.139
30
0
11
3.98815702936115
21
-0.705463700117629
31
0
210
0
220
0
230
1
40
0.398793
41
2.40080609432592
42
2.76042182767918
0
ELLIPSE
5
122
100
AcDbEntity
8
1
62
256
6
ByLayer
370
18
48
1
60
0
100
AcDbEllipse
10
29.506776
20
24.238978
30
0
11
2.51880211995709
21
-1.64437782658222
31
0
210
0
220
0
230
1
40
0.983715
41
2.91258902607641
42
-2.31890721803893
0
ELLIPSE
5
123
100
AcDbEntity
8
1
62
256
6
ByLayer
370
18
48
1
60
0
100
AcDbEllipse
10
32.300351
20
27.958798
30
0
11
3.44677623534933
21
0.64822950266821
31
0
210
0
220
0
230
1
40
0.271328
41
3.06351220390303
42
-2.49645499687772
0
ELLIPSE
5
124
100
AcDbEntity
8
1
62
256
6
ByLayer
370
18
48
1
60
0
100
AcDbEllipse
10
32.113495
20
16.873388
30
0
11
1.52768892870121
21
-1.29080073486335
31
0
210
0
220
0
230
1
40
0.731926
41
-2.11226906956852
42
-0.699593575308913
0
ELLIPSE
5
125
100
AcDbEntity
8
1
62
256
6
ByLayer
370
18
48
1
60
0
100
AcDbEllipse
10
35.615187
20
15.110755
30
0
11
3.31761931272744
21
1.14159367643265
31
0
210
0
220
0
230
1
40
0.466714
41
2.47766070336367
42
-3.08230649741802
0
ELLIPSE
5
126
100
AcDbEntity
8
1
62
256
6
ByLayer
370
18
48
1
60
0
100
AcDbEllipse
10
35.500392
20
22.132929
30
0
11
-1.75636812407508
21
1.91707355433561
31
0
210
0
220
0
230
1
40
0.978623
41
0.858577090666853
42
1.31268446217363
0
ELLIPSE
5
127
100
AcDbEntity
8
1
62
256
6
ByLayer
370
18
48
1
60
0
100
AcDbEllipse
10
37.009246
20
22.626928
30
0
11
0.813172798364543
21
-0.813172798364517
31
0
210
0
220
0
230
1
40
0.981627
41
0
42
0.794669300011859
0
ELLIPSE
5
128
100
AcDbEntity
8
1
62
256
6
ByLayer
370
18
48
1
60
0
100
AcDbEllipse
10
37.009246
20
22.626928
30
0
11
0.813172798364543
21
-0.813172798364517
31
0
210
0
220
0
230
1
40
0.981627
41
-1.10692182376051
42
-0.615753744982811
0
ELLIPSE
5
129
100
AcDbEntity
8
1
62
256
6
ByLayer
370
18
48
1
60
0
100
AcDbEllipse
10
37.009246
20
22.626928
30
0
11
0.813172798364543
21
-0.813172798364517
31
0
210
0
220
0
230
1
40
0.981627
41
-2.56903917456312
42
-2.07433646695625
0
ELLIPSE
5
12A
100
AcDbEntity
8
1
62
256
6
ByLayer
370
18
48
1
60
0
100
AcDbEllipse
10
37.009246
20
22.626928
30
0
11
0.813172798364543
21
-0.813172798364517
31
0
210
0
220
0
230
1
40
0.981627
41
0.794669361210028
42
-3.14149650899215
0
ELLIPSE
5
12B
100
AcDbEntity
8
1
62
256
6
ByLayer
370
18
48
1
60
0
100
AcDbEllipse
10
37.34091
20
23.819051
30
0
11
-0.268700576850893
21
0.268700576850883
31
0
210
0
220
0
230
1
40
0.981627
41
-2.48212178830902
42
-0.512015650947765
0
ELLIPSE
5
12C
100
AcDbEntity
8
1
62
256
6
ByLayer
370
18
48
1
60
0
100
AcDbEllipse
10
38.212991
20
22.916564
30
0
11
-0.268700576850893
21
0.268700576850883
31
0
210
0
220
0
230
1
40
0.981627
41
-2.5971546670241
42
-0.694377450320685
0
ELLIPSE
5
12D
100
AcDbEntity
8
1
62
256
6
ByLayer
370
18
48
1
60
0
100
AcDbEllipse
10
36.867577
20
22.48526
30
0
11
2.82842712474623
21
-2.82842712474615
31
0
210
0
220
0
230
1
40
0.981627
41
-0.498336649378518
42
0
0
ELLIPSE
5
12E
100
AcDbEntity
8
1
62
256
6
ByLayer
370
18
48
1
60
0
100
AcDbEllipse
10
36.867577
20
22.48526
30
0
11
2.82842712474623
21
-2.82842712474615
31
0
210
0
220
0
230
1
40
0.981627
41
-3.14149603285283
42
-0.57825098108032
0
ELLIPSE
5
12F
100
AcDbEntity
8
1
62
256
6
ByLayer
370
18
48
1
60
0
100
AcDbEllipse
10
36.613674
20
24.160131
30
0
11
0.300520382004287
21
-0.300520382004278
31
0
210
0
220
0
230
1
40
0.981627
41
-1.43492423711245
42
-8.92054871885684E-06
0
ELLIPSE
5
130
100
AcDbEntity
8
1
62
256
6
ByLayer
370
18
48
1
60
0
100
AcDbEllipse
10
38.5287
20
22.178336
30
0
11
0.300520382004287
21
-0.300520382004278
31
0
210
0
220
0
230
1
40
0.981627
41
-3.14157407780587
42
-1.74157500151727
0
ELLIPSE
5
131
100
AcDbEntity
8
1
62
256
6
ByLayer
370
18
48
1
60
0
100
AcDbEllipse
10
36.137165
20
23.529415
30
0
11
-0.268700576850893
21
0.268700576850883
31
0
210
0
220
0
230
1
40
0.981627
41
-1.43492423711242
42
-0.613144320999946
0
ELLIPSE
5
132
100
AcDbEntity
8
1
62
256
6
ByLayer
370
18
48
1
60
0
100
AcDbEllipse
10
37.881326
20
21.724441
30
0
11
-0.268700576850893
21
0.268700576850883
31
0
210
0
220
0
230
1
40
0.981627
41
-2.52844792091239
42
-1.74157500151726
0
ELLIPSE
5
133
100
AcDbEntity
8
1
62
256
6
ByLayer
370
18
48
1
60
0
100
AcDbEllipse
10
35.489791
20
23.07552
30
0
11
0.300520382004287
21
-0.300520382004278
31
0
210
0
220
0
230
1
40
0.981627
41
-0.150710862754236
42
1.85757839373333E-05
0
ELLIPSE
5
134
100
AcDbEntity
8
1
62
256
6
ByLayer
370
18
48
1
60
0
100
AcDbEllipse
10
37.404817
20
21.093725
30
0
11
0.300520382004287
21
-0.300520382004278
31
0
210
0
220
0
230
1
40
0.981627
41
3.14158554702958
42
-3.07807899312252
0
ELLIPSE
5
135
100
AcDbEntity
8
1
62
256
6
ByLayer
370
13
48
1
60
0
100
AcDbEllipse
10
52.409743
20
21.389293
30
0
11
1.41421356237312
21
-1.41421356237307
31
0
210
0
220
0
230
1
40
0.981627
41
-0.117089934293511
42
-5.89080602068193E-08
0
ELLIPSE
5
136
100
AcDbEntity
8
1
62
256
6
ByLayer
370
13
48
1
60
0
100
AcDbEllipse
10
49.399794
20
24.399242
30
0
11
-1.8229212818964
21
1.82292128189634
31
0
210
0
220
0
230
1
40
0.981627
41
-2.91339142308619
42
-2.66942696004623
0
ELLIPSE
5
137
100
AcDbEntity
8
1
62
256
6
ByLayer
370
13
48
1
60
0
100
AcDbEllipse
10
41.480005
20
19.666002
30
0
11
3.53553390593279
21
-3.53553390593268
31
0
210
0
220
0
230
1
40
0.981627
41
-0.69813170079773
42
-0.47103161133005
0
ELLIPSE
5
138
100
AcDbEntity
8
1
62
256
6
ByLayer
370
13
48
1
60
0
100
AcDbEllipse
10
40.401806
20
15.401255
30
0
11
0.565685424949241
21
-0.565685424949223
31
0
210
0
220
0
230
1
40
0.981627
41
-0.935959696474017
42
-0.698131700797743
0
ELLIPSE
5
139
100
AcDbEntity
8
1
62
256
6
ByLayer
370
13
48
1
60
0
100
AcDbEllipse
10
40.401806
20
15.401255
30
0
11
0.565685424949241
21
-0.565685424949223
31
0
210
0
220
0
230
1
40
0.981627
41
-2.32529721354217
42
-2.20563323873371
0
ELLIPSE
5
13A
100
AcDbEntity
8
1
62
256
6
ByLayer
370
13
48
1
60
0
100
AcDbEllipse
10
50.209328
20
25.208776
30
0
11
-1.82292128189638
21
1.82292128189632
31
0
210
0
220
0
230
1
40
0.981627
41
2.84180971476557
42
-0.806561094758817
0
ELLIPSE
5
13B
100
AcDbEntity
8
1
62
256
6
ByLayer
370
13
48
1
60
0
100
AcDbEllipse
10
41.21134
20
16.210789
30
0
11
-0.565685424949241
21
0.565685424949222
31
0
210
0
220
0
230
1
40
0.981627
41
1.51200057937566
42
2.44346095279205
0
ELLIPSE
5
13C
100
AcDbEntity
8
1
62
256
6
ByLayer
370
13
48
1
60
0
100
AcDbEllipse
10
47.199378
20
28.218726
30
0
11
-1.41421356237312
21
1.41421356237307
31
0
210
0
220
0
230
1
40
0.981627
41
-0.34906585039885
42
0.2395574169018
0
ELLIPSE
5
13D
100
AcDbEntity
8
1
62
256
6
ByLayer
370
18
48
1
60
0
100
AcDbEllipse
10
36.894562
20
22.512244
30
0
11
0.813172798364543
21
-0.813172798364517
31
0
210
0
220
0
230
1
40
0.981627
41
0.126349020353071
42
0.794669361210028
0
ELLIPSE
5
13E
100
AcDbEntity
8
1
62
256
6
ByLayer
370
18
48
1
60
0
100
AcDbEllipse
10
36.894562
20
22.512244
30
0
11
0.813172798364543
21
-0.813172798364517
31
0
210
0
220
0
230
1
40
0.981627
41
2.99177603882456
42
-1.01120236327686
0
ELLIPSE
5
13F
100
AcDbEntity
8
1
62
256
6
ByLayer
370
18
48
1
60
0
100
AcDbEllipse
10
36.894562
20
22.512244
30
0
11
0.813172798364543
21
-0.813172798364517
31
0
210
0
220
0
230
1
40
0.981627
41
0.794669361210028
42
2.99177603882456
0
ELLIPSE
5
140
100
AcDbEntity
8
1
62
256
6
ByLayer
370
18
48
1
60
0
100
AcDbEllipse
10
37.538076
20
22.619412
30
0
11
-2.80343373650445
21
3.05994432711262
31
0
210
0
220
0
230
1
40
0.978623
41
3.00389222743815
42
-0.829243458132978
0
ELLIPSE
5
141
100
AcDbEntity
8
1
62
256
6
ByLayer
370
18
48
1
60
0
100
AcDbEllipse
10
35.576925
20
22.1512
30
0
11
2.80343373650445
21
-3.05994432711262
31
0
210
0
220
0
230
1
40
0.978623
41
2.64339442870472
42
2.93672510487938
0
ELLIPSE
5
142
100
AcDbEntity
8
1
62
256
6
ByLayer
370
18
48
1
60
0
100
AcDbEllipse
10
29.931861
20
26.53205
30
0
11
2.02657860470201
21
-2.21200794731033
31
0
210
0
220
0
230
1
40
0.978623
41
-0.498198224885084
42
-0.164808276190173
0
ELLIPSE
5
143
100
AcDbEntity
8
1
62
256
6
ByLayer
370
18
48
1
60
0
100
AcDbEllipse
10
26.140313
20
12.130183
30
0
11
1.26807582924789
21
-3.79367680374558
31
0
210
0
220
0
230
1
40
0.578464
41
-0.560314673965502
42
1.45002611344873
0
ELLIPSE
5
144
100
AcDbEntity
8
1
62
256
6
ByLayer
370
18
48
1
60
0
100
AcDbEllipse
10
23.506248
20
5.217029
30
0
11
3.23145132655702
21
-21.645976628941
31
0
210
0
220
0
230
1
40
0.108911
41
2.3364108712691
42
2.64967780821571
0
ELLIPSE
5
145
100
AcDbEntity
8
1
62
256
6
ByLayer
370
18
48
1
60
0
100
AcDbEllipse
10
21.056258
20
0
30
0
11
11.7092723497278
21
-24.6771864409381
31
0
210
0
220
0
230
1
40
0.341999
41
-2.97437958168082
42
-2.05975995310054
0
ELLIPSE
5
146
100
AcDbEntity
8
1
62
256
6
ByLayer
370
18
48
1
60
0
100
AcDbEllipse
10
62.616795
20
19.471153
30
0
11
-5.79827560572979
21
5.7982756057296
31
0
210
0
220
0
230
1
40
0.981627
41
0.74043193532369
42
0.765260130350112
0
ELLIPSE
5
147
100
AcDbEntity
8
1
62
256
6
ByLayer
370
18
48
1
60
0
100
AcDbEllipse
10
20.695866
20
0
30
0
11
0.300081483462087
21
-24.9999864742989
31
0
210
0
220
0
230
1
40
0.086661
41
-2.71242322943892
42
-0.705361663203522
0
ELLIPSE
5
148
100
AcDbEntity
8
1
62
256
6
ByLayer
370
18
48
1
60
0
100
AcDbEllipse
10
-1.056258
20
0
30
0
11
11.7092723497276
21
-24.677186440938
31
0
210
0
220
0
230
1
40
0.341999
41
0.167213071908981
42
1.08183270048926
0
ELLIPSE
5
149
100
AcDbEntity
8
1
62
256
6
ByLayer
370
18
48
1
60
0
100
AcDbEllipse
10
40.876192
20
15.663509
30
0
11
0.401575448201425
21
2.3175251434972
31
0
210
0
220
0
230
1
40
0.83453
41
-1.97368301113255
42
-1.92984928209078
0
ELLIPSE
5
14A
100
AcDbEntity
8
1
62
256
6
ByLayer
370
18
48
1
60
0
100
AcDbEllipse
10
41.312943
20
16.100262
30
0
11
0.448092149518941
21
2.36477846728842
31
0
210
0
220
0
230
1
40
0.80649
41
-2.02209008456544
42
-1.98760428662329
0
ELLIPSE
5
14B
100
AcDbEntity
8
1
62
256
6
ByLayer
370
18
48
1
60
0
100
AcDbEllipse
10
41.50013
20
16.287447
30
0
11
1.48492424049177
21
-1.48492424049172
31
0
210
0
220
0
230
1
40
0.981627
41
-1.57079632679489
42
-3.44686610795431E-15
0
ELLIPSE
5
14C
100
AcDbEntity
8
1
62
256
6
ByLayer
370
18
48
1
60
0
100
AcDbEllipse
10
112.085588
20
-38.356668
30
0
11
89.0730663163386
21
-63.5600704802179
31
0
210
0
220
0
230
1
40
0.471769
41
3.0910352419816
42
3.10279478585047
0
ELLIPSE
5
14D
100
AcDbEntity
8
1
62
256
6
ByLayer
370
18
48
1
60
0
100
AcDbEllipse
10
21.056258
20
0
30
0
11
11.7092723497277
21
24.6771864409379
31
0
210
0
220
0
230
1
40
0.341999
41
2.05975995310054
42
2.97437958168082
0
ELLIPSE
5
14E
100
AcDbEntity
8
1
62
256
6
ByLayer
370
18
48
1
60
0
100
AcDbEllipse
10
44.805633
20
37.769524
30
0
11
5.79827560572978
21
-5.7982756057296
31
0
210
0
220
0
230
1
40
0.981627
41
-0.776126848249463
42
-0.769159874791488
0
ELLIPSE
5
14F
100
AcDbEntity
8
1
62
256
6
ByLayer
370
18
48
1
60
0
100
AcDbEllipse
10
-1.056258
20
0
30
0
11
11.7092723497272
21
24.6771864409375
31
0
210
0
220
0
230
1
40
0.341999
41
-1.08183270048927
42
-0.167213071908988
0
ELLIPSE
5
150
100
AcDbEntity
8
1
62
256
6
ByLayer
370
18
48
1
60
0
100
AcDbEllipse
10
29.245241
20
12.659921
30
0
11
0.968291694982737
21
0.249822323717194
31
0
210
0
220
0
230
1
40
0.098274
41
-2.52129430278084
42
-0.950497975985935
0
ELLIPSE
5
151
100
AcDbEntity
8
1
62
256
6
ByLayer
370
18
48
1
60
0
100
AcDbEllipse
10
41.067396
20
14.51464
30
0
11
0.417170826495138
21
-0.908828092392264
31
0
210
0
220
0
230
1
40
0.179302
41
-1.78816413669549
42
-1.39587178497181
0
ELLIPSE
5
152
100
AcDbEntity
8
1
62
256
6
ByLayer
370
18
48
1
60
0
100
AcDbEllipse
10
45.963754
20
29.792432
30
0
11
0.903791065043359
21
0.427973960361909
31
0
210
0
220
0
230
1
40
0.065261
41
-2.80639477795374
42
-2.4590468374402
0
ELLIPSE
5
153
100
AcDbEntity
8
1
62
256
6
ByLayer
370
18
48
1
60
0
100
AcDbEllipse
10
53.759909
20
20.969
30
0
11
-0.421188894796624
21
0.906972940555571
31
0
210
0
220
0
230
1
40
0.179585
41
2.37902470334946
42
3.08093408286345
0
ELLIPSE
5
154
100
AcDbEntity
8
1
62
256
6
ByLayer
370
18
48
1
60
0
100
AcDbEllipse
10
26.913946
20
12.388778
30
0
11
-1.58509478655986
21
4.74209600468197
31
0
210
0
220
0
230
1
40
0.578464
41
-3.03344620829549
42
-1.69156654014106
0
ELLIPSE
5
155
100
AcDbEntity
8
1
62
256
6
ByLayer
370
18
48
1
60
0
100
AcDbEllipse
10
27.457121
20
12.57034
30
0
11
6.80989707169266
21
1.51699975840445
31
0
210
0
220
0
230
1
40
0.712996
41
-1.68792841816252
42
-0.00697472489468831
0
ELLIPSE
5
156
100
AcDbEntity
8
1
62
256
6
ByLayer
370
18
48
1
60
0
100
AcDbEllipse
10
41.287998
20
16.499579
30
0
11
1.48492424049176
21
-1.48492424049171
31
0
210
0
220
0
230
1
40
0.981627
41
-1.77435471627499
42
-1.57079632679489
0
POINT
5
70
100
AcDbEntity
8
80
62
256
6
ByLayer
370
18
48
1
60
0
100
AcDbPoint
10
0
20
0
30
0
39
0
210
0
220
0
230
1
50
360
0
POINT
5
72
100
AcDbEntity
8
81
62
256
6
ByLayer
370
18
48
1
60
0
100
AcDbPoint
10
60
20
35
30
0
39
0
210
0
220
0
230
1
50
360
0
POINT
5
1D0
100
AcDbEntity
8
121
62
172
6
Continuous
370
18
48
1
60
1
100
AcDbPoint
10
60
20
35
30
0
39
0
210
0
220
0
230
1
50
360
0
POINT
5
1D2
100
AcDbEntity
8
121
62
172
6
Continuous
370
18
48
1
60
1
100
AcDbPoint
10
0
20
25
30
0
39
0
210
0
220
0
230
1
50
360
0
POINT
5
1F7
100
AcDbEntity
8
121
62
172
6
Continuous
370
18
48
1
60
1
100
AcDbPoint
10
0
20
25
30
0
39
0
210
0
220
0
230
1
50
360
0
POINT
5
1F8
100
AcDbEntity
8
121
62
172
6
Continuous
370
18
48
1
60
1
100
AcDbPoint
10
0
20
-25
30
0
39
0
210
0
220
0
230
1
50
360
0
SPLINE
5
157
100
AcDbEntity
8
1
62
256
6
ByLayer
370
18
48
1
60
0
100
AcDbSpline
70
4
71
3
72
10
73
6
40
0
40
0
40
0
40
0
40
0.5
40
0.5
40
1
40
1
40
1
40
1
41
1
10
37.6755861945381
20
21.8176701082102
30
0
41
1
10
37.6507433031554
20
21.8149514312754
30
0
41
1
10
37.6251105024648
20
21.8106378799626
30
0
41
1
10
37.5762580608279
20
21.7988862596072
30
0
41
1
10
37.5532908332547
20
21.791506839273
30
0
41
1
10
37.5331279495394
20
21.7833928541065
30
0
0
SPLINE
5
158
100
AcDbEntity
8
1
62
256
6
ByLayer
370
18
48
1
60
0
100
AcDbSpline
70
4
71
3
72
10
73
6
40
0
40
0
40
0
40
0
40
0.5
40
0.5
40
1
40
1
40
1
40
1
41
1
10
36.9500553463162
20
24.0433364447048
30
0
41
1
10
36.9722644861278
20
24.0434213700686
30
0
41
1
10
36.9963783687697
20
24.0462160033326
30
0
41
1
10
37.0452284477618
20
24.0579652610433
30
0
41
1
10
37.0697139626312
20
24.0668629686736
30
0
41
1
10
37.0925135913149
20
24.0776136988085
30
0
0
SPLINE
5
159
100
AcDbEntity
8
1
62
256
6
ByLayer
370
18
48
1
60
0
100
AcDbSpline
70
4
71
3
72
10
73
6
40
0
40
0
40
0
40
0
40
0.5
40
0.5
40
1
40
1
40
1
40
1
41
1
10
38.4522848853541
20
22.6704324261723
30
0
41
1
10
38.4408844927425
20
22.6481851673778
30
0
41
1
10
38.4310983002754
20
22.6239718303701
30
0
41
1
10
38.4175455256884
20
22.5752237879822
30
0
41
1
10
38.4139300695023
20
22.5512397615413
30
0
41
1
10
38.4130337518116
20
22.5293496268378
30
0
0
SPLINE
5
15A
100
AcDbEntity
8
1
62
256
6
ByLayer
370
18
48
1
60
0
100
AcDbSpline
70
4
71
3
72
10
73
6
40
0
40
0
40
0
40
0
40
0.5
40
0.5
40
1
40
1
40
1
40
1
41
1
10
36.1733566554997
20
23.1905741267421
30
0
41
1
10
36.1821433465223
20
23.2102076839477
30
0
41
1
10
36.1903869725867
20
23.2328784545527
30
0
41
1
10
36.2039445857637
20
23.2816313355306
30
0
41
1
10
36.2091063435239
20
23.3071616635456
30
0
41
1
10
36.2126077890419
20
23.3316569260764
30
0
0
SPLINE
5
15B
100
AcDbEntity
8
1
62
256
6
ByLayer
370
18
48
1
60
0
100
AcDbSpline
70
4
71
3
72
10
73
6
40
0
40
0
40
0
40
0
40
0.5
40
0.5
40
1
40
1
40
1
40
1
41
1
10
36.5361220796119
20
22.0777409584957
30
0
41
1
10
36.5216096138465
20
22.0959235451667
30
0
41
1
10
36.5049327209694
20
22.1150249759726
30
0
41
1
10
36.469274520201
20
22.1519322357722
30
0
41
1
10
36.4506955234464
20
22.1693205497799
30
0
41
1
10
36.4329149681527
20
22.1845465037258
30
0
0
SPLINE
5
15C
100
AcDbEntity
8
1
62
256
6
ByLayer
370
18
48
1
60
0
100
AcDbSpline
70
4
71
3
72
10
73
6
40
0
40
0
40
0
40
0
40
0.5
40
0.5
40
1
40
1
40
1
40
1
41
1
10
38.0895194612417
20
23.7832655944185
30
0
41
1
10
38.1014267991798
20
23.7624778799202
30
0
41
1
10
38.1165573904827
20
23.7418301475402
30
0
41
1
10
38.1522107526611
20
23.7049180491506
30
0
41
1
10
38.1723323158185
20
23.6890723015456
30
0
41
1
10
38.1927265727011
20
23.6764600491887
30
0
0
SPLINE
5
15D
100
AcDbEntity
8
1
62
256
6
ByLayer
370
18
48
1
60
0
100
AcDbSpline
70
4
71
3
72
11
73
7
40
0
40
0
40
0
40
0
40
0.423407924939097
40
0.74096386864342
40
0.899741840495582
40
1
40
1
40
1
40
1
41
1.02805999725224
10
39.9954112204225
20
16.9274295099999
30
0
41
1.02767136955276
10
40.7982049329211
20
17.2404704417144
30
0
41
1.02349884684922
10
43.4215459225995
20
19.2106694013004
30
0
41
1.01876555595691
10
46.5685401517055
20
21.9505369597529
30
0
41
1.01635405201137
10
47.7560161333135
20
22.9518288302997
30
0
41
1.01722454828226
10
48.2150298982978
20
23.0892156658037
30
0
41
1.01774327987905
10
48.4077602521621
20
23.1365722189562
30
0
0
SPLINE
5
15E
100
AcDbEntity
8
1
62
256
6
ByLayer
370
18
48
1
60
0
100
AcDbSpline
70
4
71
3
72
24
73
20
40
0
40
0
40
0
40
0
40
0.125
40
0.125
40
0.25
40
0.25
40
0.3125
40
0.3125
40
0.374999999999999
40
0.374999999999999
40
0.5
40
0.5
40
0.625
40
0.625
40
0.75
40
0.75
40
0.875
40
0.875
40
1
40
1
40
1
40
1
41
1
10
49.7242218513043
20
28.0492268792798
30
0
41
1
10
49.5450371707115
20
28.1026737402935
30
0
41
1
10
49.3736876724606
20
28.1409334103645
30
0
41
1
10
49.0498603974806
20
28.1844787306223
30
0
41
1
10
48.9029194350372
20
28.1889141780775
30
0
41
1
10
48.7015382744238
20
28.1735317368205
30
0
41
1
10
48.6375076566982
20
28.1648188205299
30
0
41
1
10
48.5149347023155
20
28.1410379781857
30
0
41
1
10
48.4567409460027
20
28.1260166127407
30
0
41
1
10
48.2917796760121
20
28.0733809250668
30
0
41
1
10
48.1937290457515
20
28.0281218487865
30
0
41
1
10
48.0158245607771
20
27.9220851585057
30
0
41
1
10
47.9360246994848
20
27.8612614979434
30
0
41
1
10
47.791457055795
20
27.7267945493666
30
0
41
1
10
47.7269338373995
20
27.6532769158971
30
0
41
1
10
47.6120918864108
20
27.497148835007
30
0
41
1
10
47.561735365171
20
27.4142006413806
30
0
41
1
10
47.4722216546567
20
27.240561369699
30
0
41
1
10
47.4329132244462
20
27.1499748551206
30
0
41
1
10
47.3961077334641
20
27.0576578829365
30
0
0
SPLINE
5
15F
100
AcDbEntity
8
1
62
256
6
ByLayer
370
18
48
1
60
0
100
AcDbSpline
70
4
71
3
72
16
73
12
40
0
40
0
40
0
40
0
40
0.25
40
0.25
40
0.499999999999999
40
0.499999999999999
40
0.625
40
0.625
40
0.75
40
0.75
40
1
40
1
40
1
40
1
41
1
10
46.8680331259266
20
18.93273801261
30
0
41
1
10
47.0299480577165
20
19.0530235383707
30
0
41
1
10
47.1912602300411
20
19.1669490104437
30
0
41
1
10
47.5134471279566
20
19.3805807466077
30
0
41
1
10
47.6743261323572
20
19.4802999647351
30
0
41
1
10
47.9170009746489
20
19.6155468794639
30
0
41
1
10
47.9982943689269
20
19.6582503442756
30
0
41
1
10
48.1610863749477
20
19.7376396604492
30
0
41
1
10
48.2418024864877
20
19.7741027476207
30
0
41
1
10
48.481014754816
20
19.8757912955273
30
0
41
1
10
48.6364076103033
20
19.9337838149959
30
0
41
1
10
48.7866351528021
20
19.9836979584652
30
0
0
SPLINE
5
160
100
AcDbEntity
8
1
62
256
6
ByLayer
370
18
48
1
60
0
100
AcDbSpline
70
4
71
3
72
10
73
6
40
0
40
0
40
0
40
0
40
0.5
40
0.5
40
1
40
1
40
1
40
1
41
1
10
31.8039054553803
20
24.1957972699045
30
0
41
1
10
31.6905696149052
20
24.138180258287
30
0
41
1
10
31.5753857123437
20
24.0866520024701
30
0
41
1
10
31.3420945339305
20
23.9944534904509
30
0
41
1
10
31.2244189074976
20
23.9539934977169
30
0
41
1
10
31.1073214611005
20
23.9188059972628
30
0
0
SPLINE
5
161
100
AcDbEntity
8
1
62
256
6
ByLayer
370
18
48
1
60
0
100
AcDbSpline
70
4
71
3
72
8
73
4
40
0
40
0
40
0
40
0
40
1
40
1
40
1
40
1
41
1
10
50.4372231479908
20
21.5279601084383
30
0
41
1
10
50.6746414673533
20
21.8645924675314
30
0
41
1
10
50.9110696045933
20
22.2008047088941
30
0
41
1
10
51.1464988173771
20
22.5365931233001
30
0
0
SPLINE
5
162
100
AcDbEntity
8
1
62
256
6
ByLayer
370
18
48
1
60
0
100
AcDbSpline
70
4
71
3
72
18
73
14
40
0
40
0
40
0
40
0
40
0.250000000000002
40
0.250000000000002
40
0.375000000000003
40
0.375000000000003
40
0.500000000000004
40
0.500000000000004
40
0.750000000000004
40
0.750000000000004
40
0.875000000000002
40
0.875000000000002
40
1
40
1
40
1
40
1
41
1
10
30.5165045086094
20
16.5804609737071
30
0
41
1
10
30.6850757697373
20
16.7272845796868
30
0
41
1
10
30.8697464578292
20
16.893805124781
30
0
41
1
10
31.1692516267216
20
17.1695835132337
30
0
41
1
10
31.2730334466631
20
17.2660416765109
30
0
41
1
10
31.4874560333374
20
17.4668489775422
30
0
41
1
10
31.5968052435106
20
17.5699850689206
30
0
41
1
10
31.9309273019079
20
17.8868799371207
30
0
41
1
10
32.1617314485673
20
18.1080657695834
30
0
41
1
10
32.5195967906224
20
18.4533057987491
30
0
41
1
10
32.6410101143388
20
18.5708127658279
30
0
41
1
10
32.8851066050497
20
18.8076583225646
30
0
41
1
10
33.0080971512169
20
18.9272927366903
30
0
41
1
10
33.1320329810333
20
19.0480793484925
30
0
0
SPLINE
5
163
100
AcDbEntity
8
1
62
256
6
ByLayer
370
18
48
1
60
0
100
AcDbSpline
70
4
71
3
72
8
73
4
40
0
40
0
40
0
40
0
40
1
40
1
40
1
40
1
41
1
10
48.8064120849655
20
25.9705960718168
30
0
41
1
10
49.2099695048887
20
25.8206263386433
30
0
41
1
10
49.6093385748027
20
25.6808980036141
30
0
41
1
10
50.00210211835
20
25.5566534319408
30
0
0
SPLINE
5
164
100
AcDbEntity
8
1
62
256
6
ByLayer
370
18
48
1
60
0
100
AcDbSpline
70
4
71
3
72
8
73
4
40
0
40
0
40
0
40
0
40
1
40
1
40
1
40
1
41
1
10
50.0021021183696
20
25.5566534319346
30
0
41
1
10
49.7045972805636
20
25.312875431649
30
0
41
1
10
49.409073238348
20
25.0486688942
30
0
41
1
10
49.1157550043074
20
24.771607225492
30
0
0
SPLINE
5
165
100
AcDbEntity
8
1
62
256
6
ByLayer
370
18
48
1
60
0
100
AcDbSpline
70
4
71
3
72
28
73
24
40
0
40
0
40
0
40
0
40
0.125
40
0.125
40
0.25
40
0.25
40
0.375
40
0.375
40
0.5
40
0.5
40
0.5625
40
0.5625
40
0.625000000000001
40
0.625000000000001
40
0.75
40
0.75
40
0.8125
40
0.8125
40
0.875
40
0.875
40
0.9375
40
0.9375
40
1
40
1
40
1
40
1
41
1
10
32.3349650848297
20
13.8794234853462
30
0
41
1
10
32.2295283096269
20
13.9175516334204
30
0
41
1
10
32.1334060110984
20
13.9648470777852
30
0
41
1
10
31.9517831396185
20
14.0741433677977
30
0
41
1
10
31.8662865328047
20
14.1361743522386
30
0
41
1
10
31.6990857503618
20
14.2750980205796
30
0
41
1
10
31.6173698886011
20
14.3519865445822
30
0
41
1
10
31.4521774482997
20
14.5240689607939
30
0
41
1
10
31.3694457577769
20
14.6185316435509
30
0
41
1
10
31.2442814053579
20
14.7748143991103
30
0
41
1
10
31.2023496613722
20
14.829413742266
30
0
41
1
10
31.1180034715631
20
14.9443632208567
30
0
41
1
10
31.0754048540174
20
15.0049909527382
30
0
41
1
10
30.9483695217003
20
15.1948866272947
30
0
41
1
10
30.8654919515765
20
15.3307764639837
30
0
41
1
10
30.7458778251125
20
15.5514381227028
30
0
41
1
10
30.7065542084527
20
15.6283336039925
30
0
41
1
10
30.6311274821985
20
15.7858811048479
30
0
41
1
10
30.5951619609663
20
15.8661812009754
30
0
41
1
10
30.5268343749344
20
16.0299826460285
30
0
41
1
10
30.4944771674392
20
16.1134820195128
30
0
41
1
10
30.4333297561486
20
16.283941072324
30
0
41
1
10
30.4049850017578
20
16.3697312296586
30
0
41
1
10
30.3787349247587
20
16.4552505296295
30
0
0
SPLINE
5
166
100
AcDbEntity
8
1
62
256
6
ByLayer
370
18
48
1
60
0
100
AcDbSpline
70
4
71
3
72
8
73
4
40
0
40
0
40
0
40
0
40
1
40
1
40
1
40
1
41
1
10
32.8511539036881
20
25.0497496607099
30
0
41
1
10
32.8101985045556
20
24.9931761438662
30
0
41
1
10
32.7666481066381
20
24.9383232548784
30
0
41
1
10
32.7206169738457
20
24.8852185637546
30
0
0
SPLINE
5
167
100
AcDbEntity
8
1
62
256
6
ByLayer
370
18
48
1
60
0
100
AcDbSpline
70
4
71
3
72
8
73
4
40
0
40
0
40
0
40
0
40
1
40
1
40
1
40
1
41
1
10
51.1023435781445
20
27.281088858655
30
0
41
1
10
51.0247578980204
20
27.3194233180917
30
0
41
1
10
50.9479255525224
20
27.3537150680555
30
0
41
1
10
50.8718239586317
20
27.3840852984974
30
0
0
SPLINE
5
168
100
AcDbEntity
8
1
62
256
6
ByLayer
370
18
48
1
60
0
100
AcDbSpline
70
4
71
3
72
30
73
26
40
0
40
0
40
0
40
0
40
0.0625000000000003
40
0.0625000000000003
40
0.125000000000001
40
0.125000000000001
40
0.187500000000001
40
0.187500000000001
40
0.250000000000001
40
0.250000000000001
40
0.312500000000001
40
0.312500000000001
40
0.375000000000002
40
0.375000000000002
40
0.500000000000002
40
0.500000000000002
40
0.562500000000002
40
0.562500000000002
40
0.625000000000003
40
0.625000000000003
40
0.750000000000002
40
0.750000000000002
40
0.875000000000001
40
0.875000000000001
40
1
40
1
40
1
40
1
41
1
10
28.2555653380082
20
24.6844890032006
30
0
41
1
10
28.2368118524937
20
24.7734388563156
30
0
41
1
10
28.2203722502275
20
24.8610715549038
30
0
41
1
10
28.1925182020524
20
25.0344502635769
30
0
41
1
10
28.181093724137
20
25.1201834906478
30
0
41
1
10
28.1633955306753
20
25.2900126481569
30
0
41
1
10
28.157154614228
20
25.3742220700871
30
0
41
1
10
28.1499302546626
20
25.5364920529543
30
0
41
1
10
28.1488653096439
20
25.615181397735
30
0
41
1
10
28.1513116530904
20
25.7680069686148
30
0
41
1
10
28.1548589951753
20
25.8425282440097
30
0
41
1
10
28.165913342236
20
25.985066845701
30
0
41
1
10
28.1733737123875
20
26.0529434072733
30
0
41
1
10
28.2005523836519
20
26.2474854542556
30
0
41
1
10
28.2249734551554
20
26.3650686721491
30
0
41
1
10
28.2688297989535
20
26.5266606994344
30
0
41
1
10
28.2846202084155
20
26.5778077886146
30
0
41
1
10
28.3180475914206
20
26.6744802054388
30
0
41
1
10
28.3357342856652
20
26.7201897979259
30
0
41
1
10
28.3918233548307
20
26.8508259981795
30
0
41
1
10
28.4331585332481
20
26.9293140745608
30
0
41
1
10
28.5267944843828
20
27.0750805260282
30
0
41
1
10
28.5791164194987
20
27.142393144061
30
0
41
1
10
28.7008031229022
20
27.2697881229497
30
0
41
1
10
28.7696610574678
20
27.3293496350073
30
0
41
1
10
28.8503568710565
20
27.3854910915577
30
0
0
SPLINE
5
169
100
AcDbEntity
8
1
62
256
6
ByLayer
370
18
48
1
60
0
100
AcDbSpline
70
4
71
3
72
12
73
8
40
0
40
0
40
0
40
0
40
0.108853988597824
40
0.502629237150056
40
0.699516861426172
40
0.896404485702288
40
1
40
1
40
1
40
1
41
1.02441262532194
10
42.2609897548755
20
22.7671771547434
30
0
41
1.02394775681993
10
42.581800414761
20
22.8678827646546
30
0
41
1.02173322384663
10
44.0981756681515
20
23.3467248375379
30
0
41
1.01876555595691
10
46.2167800456448
20
24.0252776240173
30
0
41
1.01610930227499
10
47.6272515433725
20
24.4840779460828
30
0
41
1.01814069306383
10
48.3025556208477
20
24.6042252284849
30
0
41
1.02005196006992
10
48.8985327633673
20
24.7255776835384
30
0
41
1.02076673234807
10
49.1157550043085
20
24.7716072254923
30
0
0
SPLINE
5
16A
100
AcDbEntity
8
1
62
256
6
ByLayer
370
18
48
1
60
0
100
AcDbSpline
70
4
71
3
72
24
73
20
40
0
40
0
40
0
40
0
40
0.125000000000003
40
0.125000000000003
40
0.187500000000003
40
0.187500000000003
40
0.250000000000004
40
0.250000000000004
40
0.375000000000003
40
0.375000000000003
40
0.500000000000003
40
0.500000000000003
40
0.625000000000002
40
0.625000000000002
40
0.750000000000001
40
0.750000000000001
40
0.875000000000001
40
0.875000000000001
40
1
40
1
40
1
40
1
41
1
10
42.2609897547944
20
22.767177154718
30
0
41
1
10
42.2548920392333
20
22.5795802676233
30
0
41
1
10
42.2334253387057
20
22.3937623165285
30
0
41
1
10
42.1800282506087
20
22.1177749250926
30
0
41
1
10
42.1586806753964
20
22.0262376591102
30
0
41
1
10
42.1090264579984
20
21.844115968347
30
0
41
1
10
42.0805963318099
20
21.7532099563949
30
0
41
1
10
41.9860544754535
20
21.4850561930825
30
0
41
1
10
41.9108138071615
20
21.3120908567084
30
0
41
1
10
41.7378232659499
20
20.97698544281
30
0
41
1
10
41.6396904031113
20
20.8143246153541
30
0
41
1
10
41.4227959986216
20
20.5023261119259
30
0
41
1
10
41.3047411181988
20
20.3538429198157
30
0
41
1
10
41.0496415092357
20
20.071802657261
30
0
41
1
10
40.9142162946371
20
19.9400876152471
30
0
41
1
10
40.6290065884333
20
19.695775603747
30
0
41
1
10
40.4790718329614
20
19.583028369618
30
0
41
1
10
40.1640299674334
20
19.3769095186123
30
0
41
1
10
39.9983529198619
20
19.2834124291286
30
0
41
1
10
39.8272005841222
20
19.2012522664836
30
0
0
SPLINE
5
16B
100
AcDbEntity
8
1
62
256
6
ByLayer
370
18
48
1
60
0
100
AcDbSpline
70
4
71
3
72
22
73
18
40
0
40
0
40
0
40
0
40
0.125000000000001
40
0.125000000000001
40
0.250000000000001
40
0.250000000000001
40
0.5
40
0.5
40
0.625000000000001
40
0.625000000000001
40
0.750000000000001
40
0.750000000000001
40
0.875000000000002
40
0.875000000000002
40
0.937500000000001
40
0.937500000000001
40
1
40
1
40
1
40
1
41
1
10
46.8680331259263
20
18.9327380126098
30
0
41
1
10
46.6057857560425
20
18.7379161860054
30
0
41
1
10
46.3387656932687
20
18.5495205364636
30
0
41
1
10
45.7971148331048
20
18.1829766866363
30
0
41
1
10
45.5221877435871
20
18.0047674277145
30
0
41
1
10
44.6880423808
20
17.4871724788009
30
0
41
1
10
44.1194719388822
20
17.1643625738368
30
0
41
1
10
43.2413372571165
20
16.7252467238181
30
0
41
1
10
42.9444132396036
20
16.5857748658106
30
0
41
1
10
42.3450022319074
20
16.3198080428754
30
0
41
1
10
42.0427757728583
20
16.1933842649865
30
0
41
1
10
41.4334207899527
20
15.9532920921287
30
0
41
1
10
41.1263445557125
20
15.8394876373353
30
0
41
1
10
40.661183265704
20
15.6806122845649
30
0
41
1
10
40.5053653922268
20
15.6296420810078
30
0
41
1
10
40.1915726028807
20
15.5333143907307
30
0
41
1
10
40.0336849387526
20
15.4877298712381
30
0
41
1
10
39.8736904788999
20
15.4476273245994
30
0
0
SPLINE
5
16C
100
AcDbEntity
8
1
62
256
6
ByLayer
370
18
48
1
60
0
100
AcDbSpline
70
4
71
3
72
25
73
21
40
0
40
0
40
0
40
0
40
0.125000000000001
40
0.125000000000001
40
0.250000000000001
40
0.250000000000001
40
0.375000000000002
40
0.375000000000002
40
0.500000000000002
40
0.500000000000002
40
0.625000000000003
40
0.625000000000003
40
0.750000000000003
40
0.750000000000003
40
0.812500000000002
40
0.812500000000002
40
0.875000000000002
40
0.937500000000001
40
0.937500000000001
40
1
40
1
40
1
40
1
41
1
10
48.4077602521589
20
23.1365722189554
30
0
41
1
10
48.4941434968871
20
23.0364523948855
30
0
41
1
10
48.5818195874776
20
22.9390866584621
30
0
41
1
10
48.762741517515
20
22.7562201549566
30
0
41
1
10
48.8560627955561
20
22.6708800911003
30
0
41
1
10
49.0498302532735
20
22.5153778002424
30
0
41
1
10
49.150177718335
20
22.4450052862228
30
0
41
1
10
49.3591325632447
20
22.3218559592162
30
0
41
1
10
49.4677217837386
20
22.2690404622269
30
0
41
1
10
49.695417611073
20
22.1858141528703
30
0
41
1
10
49.815039777014
20
22.155473030047
30
0
41
1
10
50.060960130972
20
22.125951572194
30
0
41
1
10
50.1878941376832
20
22.1263129886809
30
0
41
1
10
50.3862882921142
20
22.1572724940067
30
0
41
1
10
50.4541833101068
20
22.1728884817845
30
0
41
1
10
50.5909564230769
20
22.2155883843095
30
0
41
1
10
50.7283569160434
20
22.2693740257503
30
0
41
1
10
50.8670144973997
20
22.3453722875608
30
0
41
1
10
51.0063056387987
20
22.4325654890595
30
0
41
1
10
51.0764709678436
20
22.4819204679151
30
0
41
1
10
51.1464988173737
20
22.5365931233035
30
0
0
SPLINE
5
16D
100
AcDbEntity
8
1
62
256
6
ByLayer
370
18
48
1
60
0
100
AcDbSpline
70
4
71
3
72
8
73
4
40
0
40
0
40
0
40
0
40
1
40
1
40
1
40
1
41
1
10
37.8069571188356
20
27.0315571814865
30
0
41
1
10
37.5187506450212
20
27.017179861689
30
0
41
1
10
37.2358828220408
20
26.97742157826
30
0
41
1
10
36.9589238436761
20
26.9107817479167
30
0
0
SPLINE
5
16E
100
AcDbEntity
8
1
62
256
6
ByLayer
370
18
48
1
60
0
100
AcDbSpline
70
4
71
3
72
8
73
4
40
0
40
0
40
0
40
0
40
1
40
1
40
1
40
1
41
1
10
49.0742914250461
20
20.0871250799986
30
0
41
1
10
48.9791637189412
20
20.0503567824709
30
0
41
1
10
48.8832999637773
20
20.0158155126978
30
0
41
1
10
48.7866351527951
20
19.9836979584628
30
0
0
SPLINE
5
16F
100
AcDbEntity
8
1
62
256
6
ByLayer
370
18
48
1
60
0
100
AcDbSpline
70
4
71
3
72
16
73
12
40
0
40
0
40
0
40
0
40
0.25
40
0.25
40
0.375
40
0.375
40
0.5
40
0.5
40
0.75
40
0.75
40
1
40
1
40
1
40
1
41
1
10
29.6520777060826
20
26.87850461846
30
0
41
1
10
29.8380792528125
20
26.8207373499225
30
0
41
1
10
30.047284034769
20
26.7286938095523
30
0
41
1
10
30.3924035766475
20
26.5466169570247
30
0
41
1
10
30.5127174739304
20
26.4784964013031
30
0
41
1
10
30.763890664395
20
26.3277101733495
30
0
41
1
10
30.8927420401525
20
26.2462475145668
30
0
41
1
10
31.2876498362121
20
25.9857415234018
30
0
41
1
10
31.5623648400416
20
25.7905096664653
30
0
41
1
10
32.1340776260569
20
25.3601635539366
30
0
41
1
10
32.4250334449436
20
25.1295756813188
30
0
41
1
10
32.7206169738456
20
24.8852185637546
30
0
0
SPLINE
5
170
100
AcDbEntity
8
1
62
256
6
ByLayer
370
18
48
1
60
0
100
AcDbSpline
70
4
71
3
72
8
73
4
40
0
40
0
40
0
40
0
40
1
40
1
40
1
40
1
41
1
10
46.3995773088662
20
29.2357465798014
30
0
41
1
10
46.5038221685882
20
29.2384844607822
30
0
41
1
10
46.6085316825552
20
29.2387402645583
30
0
41
1
10
46.7136681434486
20
29.2367154150411
30
0
0
SPLINE
5
171
100
AcDbEntity
8
1
62
256
6
ByLayer
370
18
48
1
60
0
100
AcDbSpline
70
4
71
3
72
8
73
4
40
0
40
0
40
0
40
0
40
1
40
1
40
1
40
1
41
1.02417048289515
10
48.6172102078322
20
28.5818899602899
30
0
41
1.02233815481013
10
47.9425022877666
20
28.8511736033428
30
0
41
1.02059845255999
10
47.2635633880627
20
29.0744793392859
30
0
41
1.01923193651471
10
46.7137188819206
20
29.2367004456905
30
0
0
SPLINE
5
172
100
AcDbEntity
8
1
62
256
6
ByLayer
370
18
48
1
60
0
100
AcDbSpline
70
4
71
3
72
11
73
7
40
0
40
0
40
0
40
0
40
0.423407924937774
40
0.740963868641105
40
0.89974184049277
40
1
40
1
40
1
40
1
41
1.02805999725224
10
36.9734972260808
20
28.6401306815157
30
0
41
1.02767136955276
10
37.830010869888
20
28.7449573810983
30
0
41
1.02349884684922
10
41.0682118771986
20
28.3320072299915
30
0
41
1.01876555595691
10
45.1719111847222
20
27.3637610848324
30
0
41
1.01635405201136
10
46.7165063098192
20
26.9808872185714
30
0
41
1.01722454828229
10
47.1983119644931
20
27.0299344806936
30
0
41
1.0177432798791
10
47.3961077334736
20
27.0576578829378
30
0
0
SPLINE
5
173
100
AcDbEntity
8
1
62
256
6
ByLayer
370
18
48
1
60
0
100
AcDbSpline
70
4
71
3
72
26
73
22
40
0
40
0
40
0
40
0
40
0.124999999999997
40
0.124999999999997
40
0.249999999999995
40
0.249999999999995
40
0.374999999999992
40
0.374999999999992
40
0.499999999999989
40
0.499999999999989
40
0.624999999999987
40
0.624999999999987
40
0.687499999999988
40
0.687499999999988
40
0.749999999999989
40
0.749999999999989
40
0.874999999999994
40
0.874999999999994
40
0.937499999999997
40
0.937499999999997
40
1
40
1
40
1
40
1
41
1
10
37.8069571188356
20
27.0315571814865
30
0
41
1
10
37.9973159594799
20
27.0406250892053
30
0
41
1
10
38.1861779824591
20
27.0367864487993
30
0
41
1
10
38.561155510189
20
27.0061834604954
30
0
41
1
10
38.7472690712063
20
26.9793622036908
30
0
41
1
10
39.1167830123435
20
26.9030751081349
30
0
41
1
10
39.3013745595414
20
26.8531154818394
30
0
41
1
10
39.6587003376906
20
26.7324475998863
30
0
41
1
10
39.832136150842
20
26.6617596296276
30
0
41
1
10
40.1687061081485
20
26.4992083929986
30
0
41
1
10
40.3318441577673
20
26.4073544517449
30
0
41
1
10
40.5683555043108
20
26.2519862337914
30
0
41
1
10
40.6457789200288
20
26.1972375879477
30
0
41
1
10
40.7954900922928
20
26.0832162444292
30
0
41
1
10
40.8680742169919
20
26.023757609734
30
0
41
1
10
41.0788992358291
20
25.8378056096308
30
0
41
1
10
41.2102582119421
20
25.7037871133808
30
0
41
1
10
41.3923062336144
20
25.4859297103554
30
0
41
1
10
41.4506488184917
20
25.4102326205599
30
0
41
1
10
41.5607409627325
20
25.2545522583767
30
0
41
1
10
41.6125826941976
20
25.1745002825499
30
0
41
1
10
41.6611345566973
20
25.0921687642238
30
0
0
SPLINE
5
174
100
AcDbEntity
8
1
62
256
6
ByLayer
370
18
48
1
60
0
100
AcDbSpline
70
4
71
3
72
26
73
22
40
0
40
0
40
0
40
0
40
0.062499999999999
40
0.062499999999999
40
0.124999999999998
40
0.124999999999998
40
0.187499999999997
40
0.187499999999997
40
0.249999999999996
40
0.249999999999996
40
0.312499999999995
40
0.312499999999995
40
0.374999999999994
40
0.374999999999994
40
0.499999999999995
40
0.499999999999995
40
0.624999999999996
40
0.624999999999996
40
0.749999999999997
40
0.749999999999997
40
1
40
1
40
1
40
1
41
1
10
47.396107733464
20
27.0576578829364
30
0
41
1
10
47.3886271357889
20
27.0389004826477
30
0
41
1
10
47.3838104723258
20
27.0186424395701
30
0
41
1
10
47.3808150561903
20
26.9743870970488
30
0
41
1
10
47.382692865632
20
26.9501215849275
30
0
41
1
10
47.3949646962751
20
26.8979870162777
30
0
41
1
10
47.4052304034213
20
26.8703807866995
30
0
41
1
10
47.435459071344
20
26.8115546968623
30
0
41
1
10
47.4552338358014
20
26.7809028578522
30
0
41
1
10
47.5026031026924
20
26.7192837459047
30
0
41
1
10
47.5307615926036
20
26.6876454908504
30
0
41
1
10
47.5920287955836
20
26.6263509133189
30
0
41
1
10
47.6255094330477
20
26.5962252690486
30
0
41
1
10
47.7309238091029
20
26.5089966001358
30
0
41
1
10
47.8058153930746
20
26.4563304753837
30
0
41
1
10
47.9606434271163
20
26.3581284227895
30
0
41
1
10
48.0381649073676
20
26.314167688769
30
0
41
1
10
48.1933358611682
20
26.2323685284147
30
0
41
1
10
48.2711551356373
20
26.1945175947713
30
0
41
1
10
48.503610646721
20
26.0879190163976
30
0
41
1
10
48.6557930724313
20
26.0265411549802
30
0
41
1
10
48.8064120849655
20
25.9705960718168
30
0
0
SPLINE
5
175
100
AcDbEntity
8
1
62
256
6
ByLayer
370
18
48
1
60
0
100
AcDbSpline
70
4
71
3
72
16
73
12
40
0
40
0
40
0
40
0
40
0.249999999999999
40
0.249999999999999
40
0.499999999999998
40
0.499999999999998
40
0.624999999999998
40
0.624999999999998
40
0.749999999999998
40
0.749999999999998
40
1
40
1
40
1
40
1
41
1
10
41.6611345566973
20
25.0921687642238
30
0
41
1
10
41.765109788957
20
24.9158293194476
30
0
41
1
10
41.8560653701305
20
24.733336222031
30
0
41
1
10
42.0122115499523
20
24.3561921430789
30
0
41
1
10
42.0768658165838
20
24.1626058424926
30
0
41
1
10
42.1529173083014
20
23.8674424516578
30
0
41
1
10
42.1748539844929
20
23.7678868447468
30
0
41
1
10
42.2114202325878
20
23.5686969947786
30
0
41
1
10
42.2261022577548
20
23.4689276916839
30
0
41
1
10
42.2594650971968
20
23.1690952989705
30
0
41
1
10
42.267523950913
20
22.9685122773706
30
0
41
1
10
42.2609897547944
20
22.767177154718
30
0
0
SPLINE
5
176
100
AcDbEntity
8
1
62
256
6
ByLayer
370
18
48
1
60
0
100
AcDbSpline
70
4
71
3
72
8
73
4
40
0
40
0
40
0
40
0
40
1
40
1
40
1
40
1
41
1
10
28.271514718595
20
24.6163856242706
30
0
41
1
10
28.2656671255033
20
24.6390504355737
30
0
41
1
10
28.2603590111858
20
24.661752081859
30
0
41
1
10
28.2555653380082
20
24.6844890032006
30
0
0
SPLINE
5
177
100
AcDbEntity
8
1
62
256
6
ByLayer
370
18
48
1
60
0
100
AcDbSpline
70
4
71
3
72
10
73
6
40
0
40
0
40
0
40
0
40
0.5
40
0.5
40
1
40
1
40
1
40
1
41
1
10
37.8069571255107
20
27.0315571639001
30
0
41
1
10
37.6545223780337
20
27.433167887005
30
0
41
1
10
37.5037232224198
20
27.7793402357092
30
0
41
1
10
37.2209819977644
20
28.3250294123931
30
0
41
1
10
37.0890916063463
20
28.524446502813
30
0
41
1
10
36.9734972260808
20
28.6401306815157
30
0
0
SPLINE
5
178
100
AcDbEntity
8
1
62
256
6
ByLayer
370
18
48
1
60
0
100
AcDbSpline
70
4
71
3
72
16
73
12
40
0
40
0
40
0
40
0
40
0.250000000000002
40
0.250000000000002
40
0.500000000000004
40
0.500000000000004
40
0.625000000000005
40
0.625000000000005
40
0.750000000000006
40
0.750000000000006
40
1
40
1
40
1
40
1
41
1
10
46.3995773088662
20
29.2357465798013
30
0
41
1
10
46.2378126213008
20
29.2314980013809
30
0
41
1
10
46.0688866375739
20
29.2295186094635
30
0
41
1
10
45.7173062576843
20
29.2340277269827
30
0
41
1
10
45.5345430926672
20
29.2417539044194
30
0
41
1
10
45.2500112637632
20
29.265374293661
30
0
41
1
10
45.1531662909721
20
29.2749856419915
30
0
41
1
10
44.9587470562184
20
29.2966778039467
30
0
41
1
10
44.8609224911154
20
29.308771408037
30
0
41
1
10
44.5656283415605
20
29.3479943809192
30
0
41
1
10
44.3663370440551
20
29.3779512341043
30
0
41
1
10
44.1646457220617
20
29.4108551501585
30
0
0
SPLINE
5
179
100
AcDbEntity
8
1
62
256
6
ByLayer
370
18
48
1
60
0
100
AcDbSpline
70
4
71
3
72
20
73
16
40
0
40
0
40
0
40
0
40
0.25
40
0.25
40
0.375
40
0.375
40
0.5
40
0.5
40
0.75
40
0.75
40
0.8125
40
0.8125
40
0.875
40
0.875
40
1
40
1
40
1
40
1
41
1
10
34.2695291716703
20
18.8817566028955
30
0
41
1
10
34.1329107257875
20
18.5091532970232
30
0
41
1
10
33.9959523628525
20
18.1462879833499
30
0
41
1
10
33.7893221152989
20
17.6174287977409
30
0
41
1
10
33.7202369324385
20
17.443714157319
30
0
41
1
10
33.5815416940586
20
17.1019569881321
30
0
41
1
10
33.5130532037725
20
16.9366807252433
30
0
41
1
10
33.3099697024687
20
16.4577870549063
30
0
41
1
10
33.1777448099258
20
16.1608711228559
30
0
41
1
10
33.0160197332656
20
15.8211335688599
30
0
41
1
10
32.9838534983422
20
15.7547751209513
30
0
41
1
10
32.9198718962421
20
15.6254098027982
30
0
41
1
10
32.888032826672
20
15.5623658898892
30
0
41
1
10
32.7940823583862
20
15.3805699081843
30
0
41
1
10
32.7331859638744
20
15.2684097329239
30
0
41
1
10
32.6739917004243
20
15.1658034469442
30
0
0
SPLINE
5
17A
100
AcDbEntity
8
1
62
256
6
ByLayer
370
18
48
1
60
0
100
AcDbSpline
70
4
71
3
72
8
73
4
40
0
40
0
40
0
40
0
40
1
40
1
40
1
40
1
41
1
10
39.8272005841222
20
19.2012522664837
30
0
41
1
10
39.5674960842143
20
19.0764035355902
30
0
41
1
10
39.2993710124241
20
18.9795035070753
30
0
41
1
10
39.0224120340594
20
18.912863676732
30
0
0
SPLINE
5
17B
100
AcDbEntity
8
1
62
256
6
ByLayer
370
18
48
1
60
0
100
AcDbSpline
70
4
71
3
72
12
73
8
40
0
40
0
40
0
40
0
40
0.10885398581315
40
0.502629224287398
40
0.699516843524523
40
0.896404462761647
40
1
40
1
40
1
40
1
41
1.02441262532196
10
41.6611345567821
20
25.0921687642359
30
0
41
1.02394775681994
10
41.9956673157053
20
25.1396885966137
30
0
41
1.02173322384664
10
43.5801152000835
20
25.3546865011443
30
0
41
1.01876555595691
10
45.8137835281504
20
25.5872604572341
30
0
41
1.01610930227499
10
47.3139306330221
20
25.6984851729553
30
0
41
1.01814069316835
10
47.9845775220611
20
25.8366834923406
30
0
41
1.02005196039548
10
48.5860351187103
20
25.936794410656
30
0
41
1.02076673287779
10
48.8064122481791
20
25.9705960968507
30
0
0
SPLINE
5
17C
100
AcDbEntity
8
1
62
256
6
ByLayer
370
18
48
1
60
0
100
AcDbSpline
70
4
71
3
72
10
73
6
40
0
40
0
40
0
40
0
40
0.5
40
0.5
40
1
40
1
40
1
40
1
41
1
10
33.1320329810333
20
19.0480793484925
30
0
41
1
10
33.0064571332617
20
19.0379036433017
30
0
41
1
10
32.8824378049575
20
19.0206208033508
30
0
41
1
10
32.6375756721718
20
18.9732704012015
30
0
41
1
10
32.5172066894245
20
18.9432496458903
30
0
41
1
10
32.4001092430274
20
18.9080621454362
30
0
0
SPLINE
5
17D
100
AcDbEntity
8
1
62
256
6
ByLayer
370
18
48
1
60
0
100
AcDbSpline
70
4
71
3
72
14
73
10
40
0
40
0
40
0
40
0
40
0.25
40
0.25
40
0.5
40
0.5
40
0.75
40
0.75
40
1
40
1
40
1
40
1
41
1
10
32.7206169738456
20
24.8852185637546
30
0
41
1
10
32.6609843568848
20
24.8164222619368
30
0
41
1
10
32.5959401422411
20
24.7499401301002
30
0
41
1
10
32.4556603918753
20
24.621627116945
30
0
41
1
10
32.3796275623798
20
24.5592567102875
30
0
41
1
10
32.2226505647027
20
24.4428448385091
30
0
41
1
10
32.14159227359
20
24.3885440996172
30
0
41
1
10
31.9750049980601
20
24.286736608717
30
0
41
1
10
31.8896624286377
20
24.2393938983297
30
0
41
1
10
31.8039054553803
20
24.1957972699045
30
0
0
SPLINE
5
17E
100
AcDbEntity
8
1
62
256
6
ByLayer
370
18
48
1
60
0
100
AcDbSpline
70
4
71
3
72
26
73
22
40
0
40
0
40
0
40
0
40
0.249999999999999
40
0.249999999999999
40
0.374999999999999
40
0.374999999999999
40
0.5
40
0.5
40
0.625
40
0.625
40
0.6875
40
0.6875
40
0.75
40
0.75
40
0.8125
40
0.8125
40
0.875
40
0.875
40
0.9375
40
0.9375
40
1
40
1
40
1
40
1
41
1
10
49.1157550043074
20
24.771607225492
30
0
41
1
10
49.006226858835
20
24.6681972670999
30
0
41
1
10
48.8984274117087
20
24.5580714775942
30
0
41
1
10
48.7412997826042
20
24.3751227825859
30
0
41
1
10
48.6894463675337
20
24.3107753136754
30
0
41
1
10
48.5896514436365
20
24.1748305358545
30
0
41
1
10
48.5416924451761
20
24.1033650612369
30
0
41
1
10
48.4521595067143
20
23.9489283206472
30
0
41
1
10
48.4118002468755
20
23.8681936046657
30
0
41
1
10
48.3623078939525
20
23.7388659276917
30
0
41
1
10
48.3480293947608
20
23.695132977723
30
0
41
1
10
48.3253180871444
20
23.6077879811014
30
0
41
1
10
48.3167766049253
20
23.5633586289773
30
0
41
1
10
48.3071641304216
20
23.4787600888123
30
0
41
1
10
48.3059173233374
20
23.4382353540311
30
0
41
1
10
48.3107286372564
20
23.3608277181759
30
0
41
1
10
48.3167035196401
20
23.3254337583219
30
0
41
1
10
48.3345398919232
20
23.2607853271759
30
0
41
1
10
48.3464705815086
20
23.2314990827206
30
0
41
1
10
48.3742490484583
20
23.1797493032287
30
0
41
1
10
48.3901865701389
20
23.1569374096172
30
0
41
1
10
48.4077602521589
20
23.1365722189554
30
0
0
SPLINE
5
17F
100
AcDbEntity
8
1
62
256
6
ByLayer
370
18
48
1
60
0
100
AcDbSpline
70
4
71
3
72
8
73
4
40
0
40
0
40
0
40
0
40
1
40
1
40
1
40
1
41
1
10
48.617295713109
20
28.5818558339013
30
0
41
1
10
48.9865047167744
20
28.4076778568275
30
0
41
1
10
49.3554807817127
20
28.2301447461291
30
0
41
1
10
49.7242218513043
20
28.0492268792798
30
0
0
SPLINE
5
180
100
AcDbEntity
8
1
62
256
6
ByLayer
370
18
48
1
60
0
100
AcDbSpline
70
4
71
3
72
8
73
4
40
0
40
0
40
0
40
0
40
1
40
1
40
1
40
1
41
1
10
34.2695291716692
20
18.8817566028931
30
0
41
1
10
34.3369692533767
20
18.8526205496574
30
0
41
1
10
34.4029241845692
20
18.8205905242416
30
0
41
1
10
34.4673124863659
20
18.7856459965652
30
0
0
SPLINE
5
181
100
AcDbEntity
8
1
62
256
6
ByLayer
370
18
48
1
60
0
100
AcDbSpline
70
4
71
3
72
18
73
14
40
0
40
0
40
0
40
0
40
0.249999999999998
40
0.249999999999998
40
0.374999999999999
40
0.374999999999999
40
0.499999999999999
40
0.499999999999999
40
0.625
40
0.625
40
0.75
40
0.75
40
1
40
1
40
1
40
1
41
1
10
32.851153903688
20
25.0497496607099
30
0
41
1
10
32.975123403365
20
25.2209942518176
30
0
41
1
10
33.1122949378099
20
25.3780466914522
30
0
41
1
10
33.3393145741264
20
25.5944543468477
30
0
41
1
10
33.4185524422004
20
25.663373222234
30
0
41
1
10
33.5846722364568
20
25.7948785197544
30
0
41
1
10
33.6718350302057
20
25.857644933734
30
0
41
1
10
33.8531821988876
20
25.9759123418138
30
0
41
1
10
33.9469805930862
20
26.0311995664468
30
0
41
1
10
34.1411083666963
20
26.1342140921863
30
0
41
1
10
34.2417209423442
20
26.1820348492177
30
0
41
1
10
34.5498462514582
20
26.3124770437087
30
0
41
1
10
34.7645555160887
20
26.3827889963386
30
0
41
1
10
34.9887322178581
20
26.4367287438818
30
0
0
SPLINE
5
182
100
AcDbEntity
8
1
62
256
6
ByLayer
370
18
48
1
60
0
100
AcDbSpline
70
4
71
3
72
20
73
16
40
0
40
0
40
0
40
0
40
0.0624999999999998
40
0.0624999999999998
40
0.125
40
0.125
40
0.249999999999999
40
0.249999999999999
40
0.499999999999999
40
0.499999999999999
40
0.749999999999998
40
0.749999999999998
40
0.874999999999999
40
0.874999999999999
40
1
40
1
40
1
40
1
41
1
10
36.294720155022
20
29.3194350543349
30
0
41
1
10
36.4554589367033
20
29.3565053373202
30
0
41
1
10
36.6170218401121
20
29.3877868445871
30
0
41
1
10
36.9409237284726
20
29.4448985260929
30
0
41
1
10
37.1032967988717
20
29.4704892781651
30
0
41
1
10
37.5913135045148
20
29.5409573758063
30
0
41
1
10
37.9178447701686
20
29.5795998495208
30
0
41
1
10
38.90025739856
20
29.6757273037507
30
0
41
1
10
39.5601452783198
20
29.7136855766457
30
0
41
1
10
40.8782332467232
20
29.7271346873962
30
0
41
1
10
41.5372856596758
20
29.6996873808104
30
0
41
1
10
42.5258736578758
20
29.6204929850758
30
0
41
1
10
42.8550306641528
20
29.5876966354547
30
0
41
1
10
43.5112107846174
20
29.5094436888465
30
0
41
1
10
43.8384574402205
20
29.4640694964054
30
0
41
1
10
44.1646457220614
20
29.4108551501586
30
0
0
SPLINE
5
183
100
AcDbEntity
8
1
62
256
6
ByLayer
370
18
48
1
60
0
100
AcDbSpline
70
4
71
3
72
14
73
10
40
0
40
0
40
0
40
0
40
0.25
40
0.25
40
0.5
40
0.5
40
0.75
40
0.75
40
1
40
1
40
1
40
1
41
1
10
33.1320329810333
20
19.0480793484925
30
0
41
1
10
33.2270450485085
20
19.0557783989498
30
0
41
1
10
33.3227258834607
20
19.0589835169493
30
0
41
1
10
33.5155869306931
20
19.0550155219747
30
0
41
1
10
33.6133046193728
20
19.0477807298011
30
0
41
1
10
33.8081610354483
20
19.0211295118917
30
0
41
1
10
33.9036475898525
20
19.0019887611986
30
0
41
1
10
34.0904388103382
20
18.9512927371822
30
0
41
1
10
34.1823639905259
20
18.9194144658996
30
0
41
1
10
34.2695291716693
20
18.881756602893
30
0
0
SPLINE
5
184
100
AcDbEntity
8
1
62
256
6
ByLayer
370
18
48
1
60
0
100
AcDbSpline
70
4
71
2
72
6
73
3
40
0
40
0
40
0
40
1
40
1
40
1
41
0.937301687733888
10
39.8272005836414
20
19.2012522695628
30
0
41
0.930554445970897
10
40.0598692254821
20
17.7110683176564
30
0
41
1.02805999725224
10
39.9954112204225
20
16.9274295099999
30
0
0
SPLINE
5
185
100
AcDbEntity
8
1
62
256
6
ByLayer
370
18
48
1
60
0
100
AcDbSpline
70
4
71
3
72
14
73
10
40
0
40
0
40
0
40
0
40
0.499999999999996
40
0.499999999999996
40
0.624999999999997
40
0.624999999999997
40
0.749999999999998
40
0.749999999999998
40
1
40
1
40
1
40
1
41
1
10
32.7223553700453
20
13.5002949530627
30
0
41
1
10
32.4470423253358
20
13.402964408198
30
0
41
1
10
32.1490794791426
20
13.3237076637021
30
0
41
1
10
31.7456519772206
20
13.2701064855769
30
0
41
1
10
31.6634060940651
20
13.261702804299
30
0
41
1
10
31.4956719214985
20
13.2503387631759
30
0
41
1
10
31.410359538705
20
13.2474182088629
30
0
41
1
10
31.153499688901
20
13.2480327500203
30
0
41
1
10
30.979840907535
20
13.2607901695905
30
0
41
1
10
30.8044561809458
20
13.288653022199
30
0
0
SPLINE
5
186
100
AcDbEntity
8
1
62
256
6
ByLayer
370
18
48
1
60
0
100
AcDbSpline
70
4
71
2
72
6
73
3
40
0
40
0
40
0
40
1
40
1
40
1
41
1.02805999725224
10
39.9954112204225
20
16.9274295099999
30
0
41
1.02805999725224
10
39.9345508496612
20
16.1875284172997
30
0
41
1.02805999725224
10
39.8736904788999
20
15.4476273245994
30
0
0
SPLINE
5
187
100
AcDbEntity
8
1
62
256
6
ByLayer
370
18
48
1
60
0
100
AcDbSpline
70
4
71
3
72
18
73
14
40
0
40
0
40
0
40
0
40
0.125
40
0.125
40
0.250000000000001
40
0.250000000000001
40
0.5
40
0.5
40
0.625
40
0.625
40
0.750000000000001
40
0.750000000000001
40
1
40
1
40
1
40
1
41
1
10
37.0522204082414
20
18.4388106726971
30
0
41
1
10
36.9401251934283
20
18.4118391473775
30
0
41
1
10
36.8277487217773
20
18.3901558880056
30
0
41
1
10
36.602403944721
20
18.3573875332914
30
0
41
1
10
36.4889838501279
20
18.3462880613724
30
0
41
1
10
36.1512063551134
20
18.329312993863
30
0
41
1
10
35.9304179217023
20
18.339493401551
30
0
41
1
10
35.604220577048
20
18.3851168460835
30
0
41
1
10
35.4963186649101
20
18.4054101664394
30
0
41
1
10
35.2819048521812
20
18.4561726145122
30
0
41
1
10
35.1757576484225
20
18.4865963544933
30
0
41
1
10
34.8637725260324
20
18.5914043958506
30
0
41
1
10
34.6627941820566
20
18.6795550555919
30
0
41
1
10
34.4673124863659
20
18.7856459965652
30
0
0
SPLINE
5
188
100
AcDbEntity
8
1
62
256
6
ByLayer
370
18
48
1
60
0
100
AcDbSpline
70
4
71
1
72
4
73
2
40
0
40
0
40
1
40
1
41
1
10
36.9734972260808
20
28.6401306815157
30
0
41
1
10
36.294720155022
20
29.3194350543349
30
0
0
SPLINE
5
189
100
AcDbEntity
8
1
62
256
6
ByLayer
370
18
48
1
60
0
100
AcDbSpline
70
4
71
3
72
8
73
4
40
0
40
0
40
0
40
0
40
1
40
1
40
1
40
1
41
1.01923193626848
10
49.0743288860146
20
20.0871612181361
30
0
41
1.02059843516864
10
49.481076737143
20
20.479546843204
30
0
41
1.0223381109506
10
49.9721479749924
20
20.9843658161901
30
0
41
1.0241704137769
10
50.4371467097881
20
21.5278707644724
30
0
0
SPLINE
5
18A
100
AcDbEntity
8
1
62
256
6
ByLayer
370
18
48
1
60
0
100
AcDbSpline
70
4
71
3
72
8
73
4
40
0
40
0
40
0
40
0
40
1
40
1
40
1
40
1
41
1
10
51.8462641466374
20
23.607231704055
30
0
41
1
10
51.9006993073872
20
23.6622553866663
30
0
41
1
10
51.9533022877072
20
23.7218621239958
30
0
41
1
10
52.0040761610259
20
23.7860442281047
30
0
0
SPLINE
5
18B
100
AcDbEntity
8
1
62
256
6
ByLayer
370
18
48
1
60
0
100
AcDbSpline
70
4
71
3
72
18
73
14
40
0
40
0
40
0
40
0
40
0.25
40
0.25
40
0.5
40
0.5
40
0.625
40
0.625
40
0.75
40
0.75
40
0.875
40
0.875
40
1
40
1
40
1
40
1
41
1
10
31.8039054553803
20
24.1957972699045
30
0
41
1
10
31.4734004559808
20
24.2734085037408
30
0
41
1
10
31.1524000982805
20
24.3433292252759
30
0
41
1
10
30.529706880635
20
24.4667830857348
30
0
41
1
10
30.2279936123708
20
24.5203442810042
30
0
41
1
10
29.7915575827335
20
24.5862751197546
30
0
41
1
10
29.6492713453699
20
24.6057335760141
30
0
41
1
10
29.3761195264189
20
24.6386749116981
30
0
41
1
10
29.2445560303185
20
24.6522677648842
30
0
41
1
10
28.9917692155015
20
24.6733661203165
30
0
41
1
10
28.8705437446638
20
24.6808735886943
30
0
41
1
10
28.6390459634358
20
24.6892628531955
30
0
41
1
10
28.5283794950288
20
24.6901268423058
30
0
41
1
10
28.4249095128201
20
24.6873188139331
30
0
0
SPLINE
5
18C
100
AcDbEntity
8
1
62
256
6
ByLayer
370
18
48
1
60
0
100
AcDbSpline
70
4
71
3
72
8
73
4
40
0
40
0
40
0
40
0
40
1
40
1
40
1
40
1
41
1
10
30.359864212477
20
16.5221070943968
30
0
41
1
10
30.3657118055687
20
16.4994422830937
30
0
41
1
10
30.3720089293872
20
16.4771629383361
30
0
41
1
10
30.3787349247587
20
16.4552505296295
30
0
0
SPLINE
5
18D
100
AcDbEntity
8
1
62
256
6
ByLayer
370
18
48
1
60
0
100
AcDbSpline
70
4
71
3
72
10
73
6
40
0
40
0
40
0
40
0
40
0.194266187921007
40
0.194266187921007
40
1
40
1
40
1
40
1
41
1
10
27.9528959579633
20
26.8067016761217
30
0
41
1
10
27.9174650521737
20
26.7838821620898
30
0
41
1
10
27.8821417730161
20
26.7604452873734
30
0
41
1
10
27.7014542688885
20
26.6367541965939
30
0
41
1
10
27.5587472986385
20
26.5264384250652
30
0
41
1
10
27.4209385595496
20
26.4029014363417
30
0
0
SPLINE
5
18E
100
AcDbEntity
8
1
62
256
6
ByLayer
370
18
48
1
60
0
100
AcDbSpline
70
4
71
4
72
10
73
5
40
0
40
0
40
0
40
0
40
0
40
1
40
1
40
1
40
1
40
1
41
0.585786437626905
10
45.1155367303881
20
29.427903975122
30
0
41
0.558344623794313
10
45.1412632570287
20
29.3735749573174
30
0
41
0.549197352516782
10
45.1426535972978
20
29.3648475705429
30
0
41
0.558344623794313
10
45.1414248652308
20
29.3561444667091
30
0
41
0.585786437626905
10
45.1167014335572
20
29.3022831997694
30
0
0
SPLINE
5
18F
100
AcDbEntity
8
1
62
256
6
ByLayer
370
18
48
1
60
0
100
AcDbSpline
70
4
71
4
72
10
73
5
40
0
40
0
40
0
40
0
40
0
40
1
40
1
40
1
40
1
40
1
41
0.585786437626905
10
46.0245800442739
20
16.2582052332693
30
0
41
0.583104148329645
10
47.4891497282952
20
16.7074317783448
30
0
41
0.582210051897225
10
48.9359682262814
20
17.3002575432571
30
0
41
0.583104148329645
10
50.3208480517718
20
18.0224433227143
30
0
41
0.585786437626905
10
51.6025912159468
20
18.848228811271
30
0
0
SPLINE
5
190
100
AcDbEntity
8
1
62
256
6
ByLayer
370
18
48
1
60
0
100
AcDbSpline
70
4
71
4
72
10
73
5
40
0
40
0
40
0
40
0
40
0
40
1
40
1
40
1
40
1
40
1
41
0.585786437626905
10
54.2367498762752
20
20.1148170082813
30
0
41
0.499547670576651
10
54.3420821565124
20
20.1637322346522
30
0
41
0.470801414893233
10
54.3658057522359
20
20.1620636652435
30
0
41
0.499547670576651
10
54.385091739075
20
20.1478387087588
30
0
41
0.585786437626905
10
54.4355086556721
20
20.0413687760812
30
0
0
SPLINE
5
191
100
AcDbEntity
8
1
62
256
6
ByLayer
370
18
48
1
60
0
100
AcDbSpline
70
4
71
3
72
16
73
12
40
0
40
0
40
0
40
0
40
0.124999999999999
40
0.124999999999999
40
0.249999999999998
40
0.249999999999998
40
0.499999999999999
40
0.499999999999999
40
0.749999999999999
40
0.749999999999999
40
1
40
1
40
1
40
1
41
1
10
8.53867513459488
20
-23.8391299750503
30
0
41
1
10
8.50692224136546
20
-23.8391299750503
30
0
41
1
10
8.47600932946904
20
-23.8371392949586
30
0
41
1
10
8.41759599948898
20
-23.8299833264009
30
0
41
1
10
8.39103491659975
20
-23.8249896713849
30
0
41
1
10
8.31704385770794
20
-23.8070141183761
30
0
41
1
10
8.27807345100135
20
-23.7919105160782
30
0
41
1
10
8.21173961735192
20
-23.7591079584197
30
0
41
1
10
8.1851219392768
20
-23.7416171457991
30
0
41
1
10
8.13975567725333
20
-23.7051129235882
30
0
41
1
10
8.12111376292623
20
-23.686033116806
30
0
41
1
10
8.10566243270247
20
-23.6665017920808
30
0
0
SPLINE
5
192
100
AcDbEntity
8
1
62
256
6
ByLayer
370
18
48
1
60
0
100
AcDbSpline
70
4
71
4
72
10
73
5
40
0
40
0
40
0
40
0
40
0
40
1
40
1
40
1
40
1
40
1
41
0.585786437626905
10
51.6025912159468
20
18.848228811271
30
0
41
0.58576040151691
10
52.2447901054412
20
19.1678577435218
30
0
41
0.585751722813578
10
52.9053935741087
20
19.4892441892836
30
0
41
0.58576040151691
10
53.5689372144488
20
19.8046916843733
30
0
41
0.585786437626905
10
54.2367498762752
20
20.1148170082813
30
0
0
SPLINE
5
193
100
AcDbEntity
8
1
62
256
6
ByLayer
370
18
48
1
60
0
100
AcDbSpline
70
4
71
3
72
8
73
4
40
0
40
0
40
0
40
0
40
1
40
1
40
1
40
1
41
1
10
43.4285850835116
20
15.397395253112
30
0
41
1
10
43.2448635314533
20
15.2027458687037
30
0
41
1
10
43.0605112933755
20
15.0077828426333
30
0
41
1
10
42.8754245748006
20
14.8124534281196
30
0
0
SPLINE
5
194
100
AcDbEntity
8
1
62
256
6
ByLayer
370
18
48
1
60
0
100
AcDbSpline
70
4
71
3
72
16
73
12
40
0
40
0
40
0
40
0
40
0.125000000000002
40
0.125000000000002
40
0.250000000000004
40
0.250000000000004
40
0.500000000000002
40
0.500000000000002
40
0.750000000000001
40
0.750000000000001
40
1
40
1
40
1
40
1
41
1
10
11.4613248654052
20
-7.52966679426524
30
0
41
1
10
11.4930777586346
20
-7.52966679426524
30
0
41
1
10
11.523990670531
20
-7.53597576299669
30
0
41
1
10
11.582404000511
20
-7.55857361750125
30
0
41
1
10
11.6089650834003
20
-7.57431556968129
30
0
41
1
10
11.6829561422921
20
-7.63070347545357
30
0
41
1
10
11.7219265489987
20
-7.67774765104249
30
0
41
1
10
11.788260382648
20
-7.7786633825047
30
0
41
1
10
11.8148780607232
20
-7.8319194748606
30
0
41
1
10
11.8602443227466
20
-7.94172327888199
30
0
41
1
10
11.8788862370737
20
-7.99846916820724
30
0
41
1
10
11.8943375672975
20
-8.05584836782788
30
0
0
SPLINE
5
195
100
AcDbEntity
8
1
62
256
6
ByLayer
370
18
48
1
60
0
100
AcDbSpline
70
4
71
3
72
16
73
12
40
0
40
0
40
0
40
0
40
0.250000000000001
40
0.250000000000001
40
0.500000000000001
40
0.500000000000001
40
0.750000000000002
40
0.750000000000002
40
0.875000000000001
40
0.875000000000001
40
1
40
1
40
1
40
1
41
1
10
8.10566243270264
20
-8.05584836782791
30
0
41
1
10
8.12110769698504
20
-7.99849169434927
30
0
41
1
10
8.13959628273548
20
-7.94218253951266
30
0
41
1
10
8.1848578107932
20
-7.83248598676815
30
0
41
1
10
8.2117121049007
20
-7.77870179643037
30
0
41
1
10
8.27812666032537
20
-7.67767014498904
30
0
41
1
10
8.31777781748553
20
-7.63015704912706
30
0
41
1
10
8.39058907041834
20
-7.57464889660903
30
0
41
1
10
8.41770072232742
20
-7.55854989603597
30
0
41
1
10
8.47563983861087
20
-7.53610198950852
30
0
41
1
10
8.50697323176124
20
-7.52966679426487
30
0
41
1
10
8.5386751345948
20
-7.52966679426487
30
0
0
SPLINE
5
196
100
AcDbEntity
8
1
62
256
6
ByLayer
370
18
48
1
60
0
100
AcDbSpline
70
4
71
3
72
12
73
8
40
0
40
0
40
0
40
0
40
0.25
40
0.25
40
0.499999999999999
40
0.499999999999999
40
1
40
1
40
1
40
1
41
1
10
24.2426406871194
20
26.7855223756445
30
0
41
1
10
24.0525747735127
20
26.560723780456
30
0
41
1
10
23.8566647175612
20
26.3474255744737
30
0
41
1
10
23.4565414277884
20
25.937168562119
30
0
41
1
10
23.252310916426
20
25.7402437553374
30
0
41
1
10
22.6305728877723
20
25.1672714695625
30
0
41
1
10
22.2042541774426
20
24.8085630872803
30
0
41
1
10
21.7714229723693
20
24.462670310751
30
0
0
SPLINE
5
197
100
AcDbEntity
8
1
62
256
6
ByLayer
370
18
48
1
60
0
100
AcDbSpline
70
4
71
3
72
12
73
8
40
0
40
0
40
0
40
0
40
0.499999999999999
40
0.499999999999999
40
0.75
40
0.75
40
1
40
1
40
1
40
1
41
1
10
20.2792076144253
20
23.5914022717677
30
0
41
1
10
20.0526056069041
20
23.4763360473012
30
0
41
1
10
19.8804510522109
20
23.3467954761117
30
0
41
1
10
19.6920761659836
20
23.1285422989348
30
0
41
1
10
19.6409762859153
20
23.0513574394193
30
0
41
1
10
19.5634286099775
20
22.8912062602398
30
0
41
1
10
19.5367186876993
20
22.8081271915701
30
0
41
1
10
19.5214693783131
20
22.7219583866799
30
0
0
SPLINE
5
198
100
AcDbEntity
8
1
62
256
6
ByLayer
370
18
48
1
60
0
100
AcDbSpline
70
4
71
4
72
10
73
5
40
0
40
0
40
0
40
0
40
0
40
1
40
1
40
1
40
1
40
1
41
0.573444231386241
10
51.2782925685619
20
19.0025088796492
30
0
41
0.570818456486682
10
49.9938564579084
20
18.1749884131456
30
0
41
0.569943198186829
10
48.6365634956559
20
17.4671886041991
30
0
41
0.570818456486682
10
47.2185656818182
20
16.8861719529727
30
0
41
0.573444231386241
10
45.7531268753611
20
16.4366788225149
30
0
0
SPLINE
5
199
100
AcDbEntity
8
1
62
256
6
ByLayer
370
18
48
1
60
0
100
AcDbSpline
70
4
71
4
72
10
73
5
40
0
40
0
40
0
40
0
40
0
40
1
40
1
40
1
40
1
40
1
41
0.585649320756578
10
43.113632018454
20
14.9311003055453
30
0
41
0.585525363528389
10
43.8366964707207
20
15.290245596193
30
0
41
0.585506897264047
10
44.5619148567343
20
15.6304824373781
30
0
41
0.585593921963552
10
45.2933687610731
20
15.9540345208812
30
0
41
0.585786437626905
10
46.0245800442739
20
16.2582052332693
30
0
0
SPLINE
5
19A
100
AcDbEntity
8
1
62
256
6
ByLayer
370
18
48
1
60
0
100
AcDbSpline
70
4
71
3
72
16
73
12
40
0
40
0
40
0
40
0
40
0.124999999999999
40
0.124999999999999
40
0.249999999999998
40
0.249999999999998
40
0.499999999999999
40
0.499999999999999
40
0.749999999999999
40
0.749999999999999
40
1
40
1
40
1
40
1
41
1
10
8.53867513459488
20
7.52966679426515
30
0
41
1
10
8.50692224136546
20
7.52966679426518
30
0
41
1
10
8.47600932946904
20
7.53597576299657
30
0
41
1
10
8.41759599948901
20
7.55857361750117
30
0
41
1
10
8.39103491659975
20
7.57431556968123
30
0
41
1
10
8.31704385770794
20
7.63070347545352
30
0
41
1
10
8.27807345100138
20
7.67774765104244
30
0
41
1
10
8.21173961735192
20
7.77866338250467
30
0
41
1
10
8.1851219392768
20
7.83191947486057
30
0
41
1
10
8.13975567725333
20
7.94172327888199
30
0
41
1
10
8.12111376292626
20
7.99846916820718
30
0
41
1
10
8.1056624327025
20
8.05584836782782
30
0
0
SPLINE
5
19B
100
AcDbEntity
8
1
62
256
6
ByLayer
370
18
48
1
60
0
100
AcDbSpline
70
4
71
3
72
22
73
18
40
0
40
0
40
0
40
0
40
0.125
40
0.125
40
0.25
40
0.25
40
0.375
40
0.375
40
0.5
40
0.5
40
0.625
40
0.625
40
0.75
40
0.75
40
0.875
40
0.875
40
1
40
1
40
1
40
1
41
1
10
24.6416866857769
20
27.2458024127941
30
0
41
1
10
24.6734122553746
20
27.2814948921812
30
0
41
1
10
24.7090993895476
20
27.3206121433974
30
0
41
1
10
24.7869032597474
20
27.40438991941
30
0
41
1
10
24.8295297402834
20
27.4495874486523
30
0
41
1
10
24.9190632012785
20
27.5434412983852
30
0
41
1
10
24.9658734485804
20
27.5920081670587
30
0
41
1
10
25.0633584626603
20
27.6923505723285
30
0
41
1
10
25.1144461419662
20
27.7445411369067
30
0
41
1
10
25.2173196853964
20
27.8489733557037
30
0
41
1
10
25.2693572563332
20
27.9014793230166
30
0
41
1
10
25.3746355133976
20
28.0071042547608
30
0
41
1
10
25.4283901711479
20
28.0607301899205
30
0
41
1
10
25.5333747809705
20
28.1648250811907
30
0
41
1
10
25.5848764695957
20
28.2155733341502
30
0
41
1
10
25.6857890143969
20
28.3142569469699
30
0
41
1
10
25.7357741701195
20
28.3627412287484
30
0
41
1
10
25.7825918545804
20
28.407644237286
30
0
0
SPLINE
5
19C
100
AcDbEntity
8
1
62
256
6
ByLayer
370
18
48
1
60
0
100
AcDbSpline
70
4
71
4
72
10
73
5
40
0
40
0
40
0
40
0
40
0
40
1
40
1
40
1
40
1
40
1
41
0.573444231386236
10
45.7531268753614
20
16.4366788225144
30
0
41
0.573295914576033
10
45.1651400053468
20
16.1920868841293
30
0
41
0.573211558287576
10
44.5815897162714
20
15.9372873149194
30
0
41
0.573191162520867
10
44.0026733163122
20
15.6723609048718
30
0
41
0.573234727275906
10
43.4285850835108
20
15.397395253111
30
0
0
SPLINE
5
19D
100
AcDbEntity
8
1
62
256
6
ByLayer
370
18
48
1
60
0
100
AcDbSpline
70
4
71
3
72
12
73
8
40
0
40
0
40
0
40
0
40
0.250000000000002
40
0.250000000000002
40
0.500000000000004
40
0.500000000000004
40
1
40
1
40
1
40
1
41
1
10
43.111487113458
20
14.9289554005494
30
0
41
1
10
43.1366095453378
20
14.9540778324292
30
0
41
1
10
43.1649175808311
20
14.9846879768123
30
0
41
1
10
43.2210446678713
20
15.0516926641931
30
0
41
1
10
43.2491628464444
20
15.0883203390625
30
0
41
1
10
43.331179937003
20
15.2063626888638
30
0
41
1
10
43.38295284846
20
15.2961522938726
30
0
41
1
10
43.4285850835098
20
15.3973952531091
30
0
0
SPLINE
5
19E
100
AcDbEntity
8
1
62
256
6
ByLayer
370
18
48
1
60
0
100
AcDbSpline
70
4
71
3
72
30
73
26
40
0
40
0
40
0
40
0
40
0.125
40
0.125
40
0.249999999999999
40
0.249999999999999
40
0.312499999999999
40
0.312499999999999
40
0.375
40
0.375
40
0.4375
40
0.4375
40
0.500000000000001
40
0.500000000000001
40
0.625
40
0.625
40
0.6875
40
0.6875
40
0.75
40
0.75
40
0.8125
40
0.8125
40
0.875
40
0.875
40
1
40
1
40
1
40
1
41
1
10
22.9665588325115
20
-18.5730436103688
30
0
41
1
10
22.7740938325413
20
-18.7185863496086
30
0
41
1
10
22.5818110450633
20
-18.8562671403496
30
0
41
1
10
22.1972707275733
20
-19.1138332592861
30
0
41
1
10
22.0050191428679
20
-19.2337675879407
30
0
41
1
10
21.7162156556321
20
-19.3970459963864
30
0
41
1
10
21.6197123635184
20
-19.4487264211045
30
0
41
1
10
21.430114313923
20
-19.5438281823569
30
0
41
1
10
21.3365892840199
20
-19.5875074871323
30
0
41
1
10
21.1522008597671
20
-19.6663302159666
30
0
41
1
10
21.0613365418241
20
-19.7014782086517
30
0
41
1
10
20.8824633127502
20
-19.7620865778103
30
0
41
1
10
20.7940196268441
20
-19.7876045347659
30
0
41
1
10
20.5397068670257
20
-19.8459391928025
30
0
41
1
10
20.3830390431501
20
-19.8615187788509
30
0
41
1
10
20.1694836194028
20
-19.843510804655
30
0
41
1
10
20.1031911344154
20
-19.8306058170575
30
0
41
1
10
19.981411547594
20
-19.7914379477023
30
0
41
1
10
19.9256838372161
20
-19.76515542039
30
0
41
1
10
19.8243296715369
20
-19.6992193089998
30
0
41
1
10
19.7784318419137
20
-19.6591878902557
30
0
41
1
10
19.6984938099337
20
-19.5677475919636
30
0
41
1
10
19.6643094182239
20
-19.5164376201554
30
0
41
1
10
19.5774056487282
20
-19.347184744457
30
0
41
1
10
19.5402783374236
20
-19.2130373664828
30
0
41
1
10
19.5214693783131
20
-19.0647866220679
30
0
0
SPLINE
5
19F
100
AcDbEntity
8
1
62
256
6
ByLayer
370
18
48
1
60
0
100
AcDbSpline
70
4
71
3
72
22
73
18
40
0
40
0
40
0
40
0
40
0.125
40
0.125
40
0.249999999999999
40
0.249999999999999
40
0.374999999999999
40
0.374999999999999
40
0.499999999999999
40
0.499999999999999
40
0.624999999999999
40
0.624999999999999
40
0.749999999999999
40
0.749999999999999
40
0.875
40
0.875
40
1
40
1
40
1
40
1
41
1
10
26.0482081528897
20
8.52676522425347
30
0
41
1
10
26.070085396668
20
8.44197074654443
30
0
41
1
10
26.104569429703
20
8.36073094583705
30
0
41
1
10
26.1925938609349
20
8.20683985920243
30
0
41
1
10
26.2448060509023
20
8.13632255345428
30
0
41
1
10
26.3625296584561
20
8.00571365683899
30
0
41
1
10
26.4286597446167
20
7.94540990612742
30
0
41
1
10
26.5680941291735
20
7.83880808583683
30
0
41
1
10
26.6418964652056
20
7.79185950964535
30
0
41
1
10
26.7971140759537
20
7.70980035656117
30
0
41
1
10
26.8788996955702
20
7.67470236244355
30
0
41
1
10
27.0445777649631
20
7.61835065766476
30
0
41
1
10
27.1290927995926
20
7.59671259419693
30
0
41
1
10
27.3014398901369
20
7.56637559964497
30
0
41
1
10
27.3894724223832
20
7.55780088151269
30
0
41
1
10
27.5631836456192
20
7.55429269985049
30
0
41
1
10
27.6495743284721
20
7.5591883426911
30
0
41
1
10
27.7354884604551
20
7.57089994660896
30
0
0
SPLINE
5
1A0
100
AcDbEntity
8
1
62
256
6
ByLayer
370
18
48
1
60
0
100
AcDbSpline
70
4
71
3
72
8
73
4
40
0
40
0
40
0
40
0
40
1
40
1
40
1
40
1
41
1
10
20.9883692336848
20
24.1068072253964
30
0
41
1
10
21.2337120576891
20
24.2163547444092
30
0
41
1
10
21.4966911155591
20
24.3317285241093
30
0
41
1
10
21.7714229723693
20
24.462670310751
30
0
0
SPLINE
5
1A1
100
AcDbEntity
8
1
62
256
6
ByLayer
370
18
48
1
60
0
100
AcDbSpline
70
4
71
3
72
16
73
12
40
0
40
0
40
0
40
0
40
0.125
40
0.125
40
0.250000000000001
40
0.250000000000001
40
0.5
40
0.5
40
0.75
40
0.75
40
1
40
1
40
1
40
1
41
1
10
11.4613248654052
20
23.8391299750502
30
0
41
1
10
11.4930777586346
20
23.8391299750502
30
0
41
1
10
11.523990670531
20
23.8371392949585
30
0
41
1
10
11.582404000511
20
23.8299833264009
30
0
41
1
10
11.6089650834003
20
23.8249896713849
30
0
41
1
10
11.6829561422921
20
23.807014118376
30
0
41
1
10
11.7219265489987
20
23.7919105160782
30
0
41
1
10
11.7882603826481
20
23.7591079584197
30
0
41
1
10
11.8148780607232
20
23.7416171457991
30
0
41
1
10
11.8602443227467
20
23.7051129235882
30
0
41
1
10
11.8788862370737
20
23.686033116806
30
0
41
1
10
11.8943375672975
20
23.6665017920808
30
0
0
SPLINE
5
1A2
100
AcDbEntity
8
1
62
256
6
ByLayer
370
18
48
1
60
0
100
AcDbSpline
70
4
71
3
72
8
73
4
40
0
40
0
40
0
40
0
40
1
40
1
40
1
40
1
41
1
10
19.5197570661904
20
-19.0512775924141
30
0
41
1
10
19.520327673015
20
-19.0557835504496
30
0
41
1
10
19.5208984437245
20
-19.0602865603005
30
0
41
1
10
19.5214693783131
20
-19.0647866220679
30
0
0
SPLINE
5
1A3
100
AcDbEntity
8
1
62
256
6
ByLayer
370
18
48
1
60
0
100
AcDbSpline
70
4
71
3
72
12
73
8
40
0
40
0
40
0
40
0
40
0.500000000000004
40
0.500000000000004
40
0.750000000000002
40
0.750000000000002
40
1
40
1
40
1
40
1
41
1
10
20.2792076144253
20
23.5914022717677
30
0
41
1
10
20.3899607082566
20
23.6476415809184
30
0
41
1
10
20.5077151600408
20
23.7141848765584
30
0
41
1
10
20.6880374496262
20
23.8395361189255
30
0
41
1
10
20.7487465791289
20
23.885583033366
30
0
41
1
10
20.8699031887192
20
23.9882862953289
30
0
41
1
10
20.9302120942208
20
24.0448851042652
30
0
41
1
10
20.9883692336805
20
24.106807225408
30
0
0
SPLINE
5
1A4
100
AcDbEntity
8
1
62
256
6
ByLayer
370
18
48
1
60
0
100
AcDbSpline
70
4
71
3
72
16
73
12
40
0
40
0
40
0
40
0
40
0.250000000000001
40
0.250000000000001
40
0.500000000000002
40
0.500000000000002
40
0.750000000000004
40
0.750000000000004
40
0.875000000000002
40
0.875000000000002
40
1
40
1
40
1
40
1
41
1
10
8.10566243270267
20
23.6665017920808
30
0
41
1
10
8.12110769698506
20
23.6860254491251
30
0
41
1
10
8.13959628273548
20
23.704958919593
30
0
41
1
10
8.1848578107932
20
23.7414301198899
30
0
41
1
10
8.2117121049007
20
23.7590955179201
30
0
41
1
10
8.27812666032537
20
23.7919356634172
30
0
41
1
10
8.31777781748553
20
23.8071882416308
30
0
41
1
10
8.39058907041834
20
23.8248834464053
30
0
41
1
10
8.41770072232742
20
23.8299908115613
30
0
41
1
10
8.47563983861087
20
23.8370993498304
30
0
41
1
10
8.50697323176126
20
23.8391299750504
30
0
41
1
10
8.5386751345948
20
23.8391299750504
30
0
0
SPLINE
5
1A5
100
AcDbEntity
8
1
62
256
6
ByLayer
370
18
48
1
60
0
100
AcDbSpline
70
4
71
3
72
10
73
6
40
0
40
0
40
0
40
0
40
0.5
40
0.5
40
1
40
1
40
1
40
1
41
1
10
22.9665588325114
20
-18.5730436103688
30
0
41
1
10
26.6732348870267
20
-15.770041576065
30
0
41
1
10
30.3467587364744
20
-12.9250835940105
30
0
41
1
10
37.63784960002
20
-7.16435116217519
30
0
41
1
10
41.2556166004814
20
-4.24825325583592
30
0
41
1
10
44.8477056785638
20
-1.30107423816102
30
0
0
SPLINE
5
1A6
100
AcDbEntity
8
1
62
256
6
ByLayer
370
18
48
1
60
0
100
AcDbSpline
70
4
71
3
72
16
73
12
40
0
40
0
40
0
40
0
40
0.249999999999999
40
0.249999999999999
40
0.499999999999999
40
0.499999999999999
40
0.749999999999998
40
0.749999999999998
40
0.874999999999999
40
0.874999999999999
40
1
40
1
40
1
40
1
41
1
10
11.8943375672973
20
-23.6665017920808
30
0
41
1
10
11.8788923030149
20
-23.6860254491251
30
0
41
1
10
11.8604037172645
20
-23.704958919593
30
0
41
1
10
11.8151421892068
20
-23.7414301198899
30
0
41
1
10
11.7882878950993
20
-23.75909551792
30
0
41
1
10
11.7218733396746
20
-23.7919356634172
30
0
41
1
10
11.6822221825145
20
-23.8071882416307
30
0
41
1
10
11.6094109295817
20
-23.8248834464052
30
0
41
1
10
11.5822992776726
20
-23.8299908115612
30
0
41
1
10
11.5243601613892
20
-23.8370993498304
30
0
41
1
10
11.4930267682388
20
-23.8391299750504
30
0
41
1
10
11.4613248654053
20
-23.8391299750504
30
0
0
SPLINE
5
1A7
100
AcDbEntity
8
1
62
256
6
ByLayer
370
18
48
1
60
0
100
AcDbSpline
70
4
71
3
72
8
73
4
40
0
40
0
40
0
40
0
40
1
40
1
40
1
40
1
41
1
10
26.6384167498099
20
29.2214961593892
30
0
41
1
10
26.3522476374289
20
28.9516243673212
30
0
41
1
10
26.0669512015153
20
28.6803743035035
30
0
41
1
10
25.7825918545804
20
28.407644237286
30
0
0
SPLINE
5
1A8
100
AcDbEntity
8
1
62
256
6
ByLayer
370
18
48
1
60
0
100
AcDbSpline
70
4
71
3
72
16
73
12
40
0
40
0
40
0
40
0
40
0.25
40
0.25
40
0.5
40
0.5
40
0.75
40
0.75
40
0.875
40
0.875
40
1
40
1
40
1
40
1
41
1
10
11.8943375672973
20
8.05584836782793
30
0
41
1
10
11.8788923030149
20
7.9984916943493
30
0
41
1
10
11.8604037172645
20
7.94218253951274
30
0
41
1
10
11.8151421892068
20
7.83248598676826
30
0
41
1
10
11.7882878950993
20
7.77870179643048
30
0
41
1
10
11.7218733396747
20
7.67767014498912
30
0
41
1
10
11.6822221825145
20
7.63015704912715
30
0
41
1
10
11.6094109295817
20
7.57464889660915
30
0
41
1
10
11.5822992776726
20
7.55854989603606
30
0
41
1
10
11.5243601613892
20
7.53610198950864
30
0
41
1
10
11.4930267682388
20
7.52966679426498
30
0
41
1
10
11.4613248654053
20
7.52966679426495
30
0
0
SPLINE
5
1A9
100
AcDbEntity
8
SK1
62
256
6
ByLayer
370
18
48
1
60
0
100
AcDbSpline
70
4
71
3
72
24
73
20
40
0
40
0
40
0
40
0
40
0.125
40
0.125
40
0.25
40
0.25
40
0.375
40
0.375
40
0.4375
40
0.4375
40
0.5
40
0.5
40
0.625
40
0.625
40
0.75
40
0.75
40
0.875
40
0.875
40
1
40
1
40
1
40
1
41
1
10
-1.30710678118655
20
-3.91808269248793
30
0
41
1
10
-1.36342296385064
20
-3.60715642249775
30
0
41
1
10
-1.41678689271535
20
-3.2928718767493
30
0
41
1
10
-1.51435013598103
20
-2.65639932915298
30
0
41
1
10
-1.55846884179033
20
-2.33418302861884
30
0
41
1
10
-1.63296978491243
20
-1.6800471987703
30
0
41
1
10
-1.66337509736468
20
-1.34813830750841
30
0
41
1
10
-1.69497255616446
20
-0.841409485072973
30
0
41
1
10
-1.70313796781008
20
-0.670747237856574
30
0
41
1
10
-1.71388361409092
20
-0.331968562038014
30
0
41
1
10
-1.71646782396985
20
-0.163187101305937
30
0
41
1
10
-1.71631112713953
20
0.34141357315076
30
0
41
1
10
-1.70526445338857
20
0.675435342836977
30
0
41
1
10
-1.66399327242203
20
1.33914312869115
30
0
41
1
10
-1.63408221528164
20
1.66887252592323
30
0
41
1
10
-1.55971183331712
20
2.32463254151125
30
0
41
1
10
-1.51508950477916
20
2.65135896403518
30
0
41
1
10
-1.41696122519085
20
3.29195215520878
30
0
41
1
10
-1.3634250101253
20
3.60714571014046
30
0
41
1
10
-1.30710678118655
20
3.91808311129771
30
0
0
SPLINE
5
1AA
100
AcDbEntity
8
SK1
62
256
6
ByLayer
370
18
48
1
60
0
100
AcDbSpline
70
4
71
3
72
24
73
20
40
0
40
0
40
0
40
0
40
0.250000000000001
40
0.250000000000001
40
0.500000000000003
40
0.500000000000003
40
0.625000000000002
40
0.625000000000002
40
0.750000000000001
40
0.750000000000001
40
0.812499999999999
40
0.812499999999999
40
0.874999999999998
40
0.874999999999998
40
0.906249999999998
40
0.906249999999998
40
0.937499999999999
40
0.937499999999999
40
1
40
1
40
1
40
1
41
1
10
-0.199999999999989
20
-6.07843116862819
30
0
41
1
10
-0.200329859654715
20
-6.01357702681219
30
0
41
1
10
-0.201930655445068
20
-5.94848814748264
30
0
41
1
10
-0.208773542204568
20
-5.81776970228805
30
0
41
1
10
-0.213933058044063
20
-5.7520930105876
30
0
41
1
10
-0.226581907125762
20
-5.65322539657006
30
0
41
1
10
-0.231616433421465
20
-5.62029294902339
30
0
41
1
10
-0.244374377579391
20
-5.55456420326047
30
0
41
1
10
-0.25203538275133
20
-5.52169220269846
30
0
41
1
10
-0.267422418729012
20
-5.47365965349934
30
0
41
1
10
-0.27320640701916
20
-5.45783596374696
30
0
41
1
10
-0.287231048809588
20
-5.42690966193143
30
0
41
1
10
-0.295495964408673
20
-5.41144453452657
30
0
41
1
10
-0.312019326339481
20
-5.39094692539055
30
0
41
1
10
-0.318249907555923
20
-5.38460165612528
30
0
41
1
10
-0.332559804953661
20
-5.37459778054654
30
0
41
1
10
-0.34089466589495
20
-5.3709894160074
30
0
41
1
10
-0.366449401847319
20
-5.36811434840899
30
0
41
1
10
-0.382302316356146
20
-5.37652018847754
30
0
41
1
10
-0.394913799811292
20
-5.38724256160012
30
0
0
SPLINE
5
1AB
100
AcDbEntity
8
SK1
62
256
6
ByLayer
370
18
48
1
60
0
100
AcDbSpline
70
4
71
3
72
26
73
22
40
0
40
0
40
0
40
0
40
0.249999999999999
40
0.249999999999999
40
0.499999999999999
40
0.499999999999999
40
0.624999999999998
40
0.624999999999998
40
0.687499999999999
40
0.687499999999999
40
0.749999999999999
40
0.749999999999999
40
0.8125
40
0.8125
40
0.875
40
0.875
40
0.90625
40
0.90625
40
0.9375
40
0.9375
40
1
40
1
40
1
40
1
41
1
10
-1.30710678118655
20
3.91808311129773
30
0
41
1
10
-1.27767538362411
20
4.08057618757042
30
0
41
1
10
-1.24419096070105
20
4.24098765739046
30
0
41
1
10
-1.16481584483415
20
4.55711269541771
30
0
41
1
10
-1.11911162318856
20
4.71322546119325
30
0
41
1
10
-1.03396027230474
20
4.93953094779039
30
0
41
1
10
-1.00277623392986
20
5.01373263568635
30
0
41
1
10
-0.948685190430837
20
5.12220258194975
30
0
41
1
10
-0.9294183550615
20
5.15788155457784
30
0
41
1
10
-0.887207638430624
20
5.227898486214
30
0
41
1
10
-0.864122395129101
20
5.26246883011058
30
0
41
1
10
-0.813063784086808
20
5.32779515181233
30
0
41
1
10
-0.78518823553631
20
5.35873160222491
30
0
41
1
10
-0.720059017960438
20
5.41387289777214
30
0
41
1
10
-0.68194582378834
20
5.43835586444311
30
0
41
1
10
-0.618145771845491
20
5.4581109799407
30
0
41
1
10
-0.595598556706449
20
5.46181779364261
30
0
41
1
10
-0.550367797420336
20
5.46186904162576
30
0
41
1
10
-0.528055384786086
20
5.45826434527572
30
0
41
1
10
-0.464148785594233
20
5.43856597575441
30
0
41
1
10
-0.427340171474128
20
5.41481400234201
30
0
41
1
10
-0.394913799811292
20
5.38724490303878
30
0
0
SPLINE
5
1AC
100
AcDbEntity
8
SK1
62
256
6
ByLayer
370
18
48
1
60
0
100
AcDbSpline
70
4
71
3
72
22
73
18
40
0
40
0
40
0
40
0
40
0.0625000000000026
40
0.0625000000000026
40
0.0937500000000042
40
0.0937500000000042
40
0.125000000000006
40
0.125000000000006
40
0.187500000000006
40
0.187500000000006
40
0.250000000000006
40
0.250000000000006
40
0.500000000000004
40
0.500000000000004
40
0.750000000000002
40
0.750000000000002
40
1
40
1
40
1
40
1
41
1
10
-0.394913799809103
20
5.38724490303883
30
0
41
1
10
-0.382385932375428
20
5.37659363360643
30
0
41
1
10
-0.366686804044804
20
5.36823758676638
30
0
41
1
10
-0.341344926981577
20
5.37086979141571
30
0
41
1
10
-0.33303320258986
20
5.37434773304167
30
0
41
1
10
-0.318577749103326
20
5.38430052549953
30
0
41
1
10
-0.312400979321524
20
5.39054104494755
30
0
41
1
10
-0.295831486626412
20
5.41090649401409
30
0
41
1
10
-0.287591117889946
20
5.4261891191257
30
0
41
1
10
-0.273296210573335
20
5.45757128507682
30
0
41
1
10
-0.267463037667511
20
5.47353830586408
30
0
41
1
10
-0.241665889113307
20
5.55405133317635
30
0
41
1
10
-0.230738304263952
20
5.62066281404103
30
0
41
1
10
-0.213920028330733
20
5.7522739315628
30
0
41
1
10
-0.208771139684615
20
5.81781617640974
30
0
41
1
10
-0.201932717755398
20
5.94845143863458
30
0
41
1
10
-0.200330038101583
20
6.01354333629638
30
0
41
1
10
-0.199999999999989
20
6.07843244581235
30
0
0
SPLINE
5
1AD
100
AcDbEntity
8
SK1
62
256
6
ByLayer
370
18
48
1
60
0
100
AcDbSpline
70
4
71
3
72
30
73
26
40
0
40
0
40
0
40
0
40
0.0312500000000007
40
0.0312500000000007
40
0.0625000000000013
40
0.0625000000000013
40
0.093750000000002
40
0.093750000000002
40
0.125000000000003
40
0.125000000000003
40
0.156250000000003
40
0.156250000000003
40
0.187500000000004
40
0.187500000000004
40
0.250000000000005
40
0.250000000000005
40
0.312500000000005
40
0.312500000000005
40
0.375000000000006
40
0.375000000000006
40
0.500000000000006
40
0.500000000000006
40
0.750000000000003
40
0.750000000000003
40
1
40
1
40
1
40
1
41
1
10
-0.394913799811292
20
-5.38724256160785
30
0
41
1
10
-0.411056331481689
20
-5.40096705709072
30
0
41
1
10
-0.428167571421085
20
-5.41359596702645
30
0
41
1
10
-0.465243842399843
20
-5.43564998709786
30
0
41
1
10
-0.485181785775097
20
-5.44498472977625
30
0
41
1
10
-0.527084358655031
20
-5.45802310642136
30
0
41
1
10
-0.549712129856715
20
-5.46177888945653
30
0
41
1
10
-0.594583752204926
20
-5.46190211761595
30
0
41
1
10
-0.617332847382016
20
-5.45828493727092
30
0
41
1
10
-0.65999803098677
20
-5.44522245408467
30
0
41
1
10
-0.680380496424021
20
-5.43574711585012
30
0
41
1
10
-0.717826906306072
20
-5.41366379171245
30
0
41
1
10
-0.735187935399324
20
-5.40097830060952
30
0
41
1
10
-0.784458452137216
20
-5.35950654192544
30
0
41
1
10
-0.812482621038896
20
-5.32846061496338
30
0
41
1
10
-0.863582196387284
20
-5.26323158283498
30
0
41
1
10
-0.886670718365792
20
-5.228730346937
30
0
41
1
10
-0.9290296408507
20
-5.15857889561175
30
0
41
1
10
-0.948347177186236
20
-5.12284414993093
30
0
41
1
10
-1.00255771394654
20
-5.01423503792978
30
0
41
1
10
-1.03377854809037
20
-4.93997760418031
30
0
41
1
10
-1.11900192184814
20
-4.7135824866773
30
0
41
1
10
-1.16471148040884
20
-4.55749423011594
30
0
41
1
10
-1.24415567180659
20
-4.24116014101819
30
0
41
1
10
-1.2776606709638
20
-4.08065708556941
30
0
41
1
10
-1.30710678118655
20
-3.91808269248796
30
0
0
SPLINE
5
1AE
100
AcDbEntity
8
SK1
62
256
6
ByLayer
370
18
48
1
60
0
100
AcDbSpline
70
4
71
3
72
20
73
16
40
0
40
0
40
0
40
0
40
0.0453727252266131
40
0.113628745412273
40
0.181884765597933
40
0.250140785783594
40
0.318396805969254
40
0.386652826154914
40
0.454908846340574
40
0.591420886711894
40
0.727932927083215
40
0.796188947268875
40
0.864444967454535
40
0.932700987640195
40
1
40
1
40
1
40
1
41
1
10
-0.394913799811292
20
-5.38724256160785
30
0
41
1
10
-0.394913799811292
20
-5.7190547501427
30
0
41
1
10
-0.394913799811292
20
-6.5348354946259
30
0
41
1
10
-0.394913799811292
20
-7.7796880789966
30
0
41
1
10
-0.394913799811292
20
-9.09679923539034
30
0
41
1
10
-0.394913799811292
20
-10.3283869583107
30
0
41
1
10
-0.394913799811292
20
-11.4729576347282
30
0
41
1
10
-0.394913799811292
20
-12.5286533763275
30
0
41
1
10
-0.394913799811292
20
-13.8156305223415
30
0
41
1
10
-0.394913799811292
20
-15.1889742433629
30
0
41
1
10
-0.394913799811292
20
-16.224825355641
30
0
41
1
10
-0.394913799811292
20
-16.8259463034278
30
0
41
1
10
-0.394913799811292
20
-17.1536380024563
30
0
41
1
10
-0.394913799811292
20
-17.3455727752705
30
0
41
1
10
-0.394913799811292
20
-17.3740994375909
30
0
41
1
10
-0.394913799811206
20
-17.3602758927019
30
0
0
SPLINE
5
1AF
100
AcDbEntity
8
SK1
62
256
6
ByLayer
370
18
48
1
60
0
100
AcDbSpline
70
4
71
3
72
20
73
16
40
0
40
0
40
0
40
0
40
0.0672997442229296
40
0.135555718060909
40
0.203811691898888
40
0.272067665736867
40
0.408579613412825
40
0.545091561088783
40
0.613347534926762
40
0.681603508764741
40
0.74985948260272
40
0.818115456440699
40
0.886371430278678
40
0.954627404116657
40
1
40
1
40
1
40
1
41
1
10
-0.394913799811292
20
17.3602753112138
30
0
41
1
10
-0.394913799811292
20
17.3740997080964
30
0
41
1
10
-0.394913799811292
20
17.3455729044628
30
0
41
1
10
-0.394913799811292
20
17.1536376810083
30
0
41
1
10
-0.394913799811292
20
16.8259464323311
30
0
41
1
10
-0.394913799811292
20
16.2248245878661
30
0
41
1
10
-0.394913799811292
20
15.1889746622834
30
0
41
1
10
-0.394913799811292
20
13.8156301488903
30
0
41
1
10
-0.394913799811292
20
12.5286535254346
30
0
41
1
10
-0.394913799811292
20
11.4729578043957
30
0
41
1
10
-0.394913799811292
20
10.3283867090429
30
0
41
1
10
-0.394913799811292
20
9.09679950047928
30
0
41
1
10
-0.394913799811292
20
7.77968825069564
30
0
41
1
10
-0.394913799811292
20
6.53483606378791
30
0
41
1
10
-0.394913799811292
20
5.71905630139054
30
0
41
1
10
-0.394913799811292
20
5.38724490303878
30
0
0
SPLINE
5
1B0
100
AcDbEntity
8
SK1
62
256
6
ByLayer
370
18
48
1
60
0
100
AcDbSpline
70
4
71
3
72
45
73
41
40
0
40
0
40
0
40
0
40
0.0144246360227066
40
0.0429878938991122
40
0.0715511517755177
40
0.100114409651923
40
0.157240925404735
40
0.214367441157546
40
0.242930699033951
40
0.271493956910357
40
0.300057214786762
40
0.328620472663168
40
0.357183730539574
40
0.385746988415979
40
0.414310246292385
40
0.428591875230588
40
0.44287350416879
40
0.471436762045196
40
0.485718390983399
40
0.4928592054525
40
0.500000019921602
40
0.507140834390703
40
0.514281648859804
40
0.528563277798007
40
0.557126535674413
40
0.571408164612616
40
0.585689793550818
40
0.614253051427224
40
0.64281630930363
40
0.671379567180035
40
0.699942825056441
40
0.728506082932846
40
0.757069340809252
40
0.785632598685657
40
0.842759114438469
40
0.89988563019128
40
0.928448888067686
40
0.957012145944091
40
0.985575403820497
40
1
40
1
40
1
40
1
41
1
10
-1.99503997793931
20
17.3207624246554
30
0
41
1
10
-1.99503997793931
20
17.3143028580198
30
0
41
1
10
-1.99503997793928
20
17.2745742828564
30
0
41
1
10
-1.99503997793928
20
17.1138751154123
30
0
41
1
10
-1.99503997793928
20
16.7867763596001
30
0
41
1
10
-1.99503997793928
20
16.1866009265939
30
0
41
1
10
-1.99503997793928
20
15.1524691326423
30
0
41
1
10
-1.99503997793928
20
13.7813331880937
30
0
41
1
10
-1.99503997793928
20
12.4962106263157
30
0
41
1
10
-1.99503997793928
20
11.4421779521075
30
0
41
1
10
-1.99503997793928
20
10.2994799380558
30
0
41
1
10
-1.99503997793928
20
9.07001746022104
30
0
41
1
10
-1.99503997793928
20
7.75535376586828
30
0
41
1
10
-1.99503997793928
20
6.35676341745574
30
0
41
1
10
-1.99503997793928
20
5.12318926412425
30
0
41
1
10
-1.99503997793928
20
4.09531236648536
30
0
41
1
10
-1.99503997793928
20
3.04236295320669
30
0
41
1
10
-1.99503997793928
20
1.95640625727882
30
0
41
1
10
-1.99503997793928
20
0.981337226851394
30
0
41
1
10
-1.99503997793928
20
0.420771319084707
30
0
41
1
10
-1.99503997793928
20
6.88173714E-08
30
0
41
1
10
-1.99503997793928
20
-0.420771221994357
30
0
41
1
10
-1.99503997793928
20
-0.981337209960486
30
0
41
1
10
-1.99503997793928
20
-1.95640624898675
30
0
41
1
10
-1.99503997793928
20
-3.04236280324244
30
0
41
1
10
-1.99503997793928
20
-4.0953123914187
30
0
41
1
10
-1.99503997793928
20
-5.12318891405303
30
0
41
1
10
-1.99503997793928
20
-6.35676356337376
30
0
41
1
10
-1.99503997793928
20
-7.7553535878281
30
0
41
1
10
-1.99503997793928
20
-9.07001720037854
30
0
41
1
10
-1.99503997793928
20
-10.2994801886281
30
0
41
1
10
-1.99503997793928
20
-11.4421777785236
30
0
41
1
10
-1.99503997793928
20
-12.4962104807245
30
0
41
1
10
-1.99503997793928
20
-13.7813335607202
30
0
41
1
10
-1.99503997793928
20
-15.152468715744
30
0
41
1
10
-1.99503997793928
20
-16.1866016937524
30
0
41
1
10
-1.99503997793928
20
-16.786776230537
30
0
41
1
10
-1.99503997793928
20
-17.1138754381145
30
0
41
1
10
-1.99503997793928
20
-17.2745747504183
30
0
41
1
10
-1.99503997793931
20
-17.3143030625868
30
0
41
1
10
-1.99503997793926
20
-17.3207625751948
30
0
0
SPLINE
5
1B1
100
AcDbEntity
8
SK1
62
256
6
ByLayer
370
18
48
1
60
0
100
AcDbSpline
70
4
71
3
72
45
73
41
40
0
40
0
40
0
40
0
40
0.0138970646204489
40
0.0424913609367721
40
0.0710856572530954
40
0.0996799535694186
40
0.156868546202065
40
0.214057138834712
40
0.242651435151035
40
0.271245731467358
40
0.299840027783681
40
0.328434324100005
40
0.357028620416328
40
0.385622916732651
40
0.414217213048974
40
0.428514361207136
40
0.442811509365298
40
0.471405805681621
40
0.485702953839783
40
0.492851527918863
40
0.500000101997944
40
0.507148676077025
40
0.514297250156106
40
0.528594398314267
40
0.557188694630591
40
0.571485842788752
40
0.585782990946914
40
0.614377287263237
40
0.64297158357956
40
0.671565879895884
40
0.700160176212207
40
0.72875447252853
40
0.757348768844853
40
0.785943065161177
40
0.843131657793823
40
0.90032025042647
40
0.928914546742793
40
0.957508843059116
40
0.986103139375439
40
1
40
1
40
1
40
1
41
1
10
-2.19999999999996
20
17.5147945426403
30
0
41
1
10
-2.19999999999996
20
17.5080193392575
30
0
41
1
10
-2.20000000000002
20
17.4676802392014
30
0
41
1
10
-2.19999999999999
20
17.3066644250431
30
0
41
1
10
-2.19999999999999
20
16.9766929599708
30
0
41
1
10
-2.19999999999999
20
16.3719288388599
30
0
41
1
10
-2.19999999999999
20
15.3294666616432
30
0
41
1
10
-2.19999999999999
20
13.9476224427057
30
0
41
1
10
-2.19999999999999
20
12.6535104390874
30
0
41
1
10
-2.19999999999999
20
11.5914144609754
30
0
41
1
10
-2.19999999999999
20
10.4396347881955
30
0
41
1
10
-2.19999999999999
20
9.19987052615136
30
0
41
1
10
-2.19999999999999
20
7.87333982787851
30
0
41
1
10
-2.19999999999999
20
6.4607857552443
30
0
41
1
10
-2.19999999999999
20
5.21252898167785
30
0
41
1
10
-2.19999999999999
20
4.17223684682958
30
0
41
1
10
-2.19999999999999
20
3.10486150423552
30
0
41
1
10
-2.19999999999999
20
1.99745537289451
30
0
41
1
10
-2.19999999999999
20
1.00299597482069
30
0
41
1
10
-2.19999999999999
20
0.430523794544825
30
0
41
1
10
-2.19999999999999
20
2.03164063E-08
30
0
41
1
10
-2.19999999999999
20
-0.430523737893537
30
0
41
1
10
-2.19999999999999
20
-1.00299590932914
30
0
41
1
10
-2.19999999999999
20
-1.99745538275133
30
0
41
1
10
-2.19999999999999
20
-3.10486136355075
30
0
41
1
10
-2.19999999999999
20
-4.17223690222141
30
0
41
1
10
-2.19999999999999
20
-5.21252864051553
30
0
41
1
10
-2.19999999999999
20
-6.46078587277509
30
0
41
1
10
-2.19999999999999
20
-7.87333968058334
30
0
41
1
10
-2.19999999999999
20
-9.19987024087132
30
0
41
1
10
-2.19999999999999
20
-10.4396350324424
30
0
41
1
10
-2.19999999999999
20
-11.5914143063801
30
0
41
1
10
-2.19999999999999
20
-12.6535102764493
30
0
41
1
10
-2.19999999999999
20
-13.9476228193307
30
0
41
1
10
-2.19999999999999
20
-15.3294662349403
30
0
41
1
10
-2.19999999999999
20
-16.3719296090069
30
0
41
1
10
-2.19999999999999
20
-16.9766928316826
30
0
41
1
10
-2.19999999999999
20
-17.3066647416643
30
0
41
1
10
-2.19999999999999
20
-17.4676803354842
30
0
41
1
10
-2.19999999999996
20
-17.5080192378202
30
0
41
1
10
-2.19999999999996
20
-17.5147944567158
30
0
0
SPLINE
5
1B2
100
AcDbEntity
8
SK1
62
256
6
ByLayer
370
18
48
1
60
0
100
AcDbSpline
70
4
71
3
72
45
73
41
40
0
40
0
40
0
40
0
40
0.016225721403713
40
0.0446830371396377
40
0.0731403528755623
40
0.101597668611487
40
0.158512300083336
40
0.215426931555185
40
0.24388424729111
40
0.272341563027035
40
0.30079887876296
40
0.329256194498884
40
0.357713510234809
40
0.386170825970733
40
0.414628141706658
40
0.42885679957462
40
0.443085457442583
40
0.471542773178507
40
0.48577143104647
40
0.492885759980451
40
0.500000088914432
40
0.507114417848413
40
0.514228746782394
40
0.528457404650357
40
0.556914720386281
40
0.571143378254244
40
0.585372036122206
40
0.61382935185813
40
0.642286667594055
40
0.67074398332998
40
0.699201299065904
40
0.727658614801829
40
0.756115930537754
40
0.784573246273678
40
0.841487877745527
40
0.898402509217377
40
0.926859824953302
40
0.955317140689226
40
0.983774456425151
40
1
40
1
40
1
40
1
41
1
10
-28.5
20
16.8573189962254
30
0
41
1
10
-28.5
20
16.8521405996171
30
0
41
1
10
-28.5
20
16.8142049391568
30
0
41
1
10
-28.5
20
16.6531187925377
30
0
41
1
10
-28.5
20
16.3328856609547
30
0
41
1
10
-28.5
20
15.7436769514769
30
0
41
1
10
-28.5
20
14.7294543359372
30
0
41
1
10
-28.5
20
13.3839106046769
30
0
41
1
10
-28.5
20
12.1202723366856
30
0
41
1
10
-28.5
20
11.0855105352455
30
0
41
1
10
-28.5
20
9.96451720849825
30
0
41
1
10
-28.5
20
8.75967545377557
30
0
41
1
10
-28.5
20
7.47337327542297
30
0
41
1
10
-28.5
20
6.10815549439155
30
0
41
1
10
-28.5
20
4.9096720321497
30
0
41
1
10
-28.5
20
3.9114668992739
30
0
41
1
10
-28.5
20
2.89299469927084
30
0
41
1
10
-28.5
20
1.85830102725041
30
0
41
1
10
-28.5
20
0.929573956929886
30
0
41
1
10
-28.5
20
0.39746341502854
30
0
41
1
10
-28.5
20
1.847321585E-07
30
0
41
1
10
-28.5
20
-0.397463221290906
30
0
41
1
10
-28.5
20
-0.929574056191939
30
0
41
1
10
-28.5
20
-1.85830097558352
30
0
41
1
10
-28.5
20
-2.89299452712916
30
0
41
1
10
-28.5
20
-3.91146685141305
30
0
41
1
10
-28.5
20
-4.90967166078667
30
0
41
1
10
-28.5
20
-6.10815570815362
30
0
41
1
10
-28.5
20
-7.47337302390386
30
0
41
1
10
-28.5
20
-8.75967525472745
30
0
41
1
10
-28.5
20
-9.96451747418803
30
0
41
1
10
-28.5
20
-11.0855103162798
30
0
41
1
10
-28.5
20
-12.1202722318355
30
0
41
1
10
-28.5
20
-13.3839109677473
30
0
41
1
10
-28.5
20
-14.7294539424715
30
0
41
1
10
-28.5
20
-15.7436777114932
30
0
41
1
10
-28.5
20
-16.3328855300396
30
0
41
1
10
-28.5
20
-16.653119129773
30
0
41
1
10
-28.5
20
-16.8142051025342
30
0
41
1
10
-28.5
20
-16.8521405499658
30
0
41
1
10
-28.5
20
-16.8573190035767
30
0
0
SPLINE
5
1B3
100
AcDbEntity
8
1
62
256
6
ByLayer
370
18
48
1
60
0
100
AcDbSpline
70
4
71
3
72
10
73
6
40
0
40
0
40
0
40
0
40
0.713130307892434
40
0.713130307892434
40
1
40
1
40
1
40
1
41
1
10
45.2400560598826
20
29.5076067011926
30
0
41
1
10
45.1891992114253
20
29.5107644433377
30
0
41
1
10
45.1445477541225
20
29.515503112517
30
0
41
1
10
45.09075796258
20
29.5239305078221
30
0
41
1
10
45.0763131891525
20
29.5265721560391
30
0
41
1
10
45.0629969304902
20
29.5293956287517
30
0
0
SPLINE
5
1B4
100
AcDbEntity
8
1
62
256
6
ByLayer
370
18
48
1
60
0
100
AcDbSpline
70
4
71
4
72
10
73
5
40
0
40
0
40
0
40
0
40
0
40
1
40
1
40
1
40
1
40
1
41
0.547983244537153
10
45.325413695376
20
29.2634221587845
30
0
41
0.550351128031025
10
45.3207735202734
20
29.3053223337513
30
0
41
0.555383920337164
10
45.3114775995378
20
29.3462668681592
30
0
41
0.563081621455567
10
45.2977827565853
20
29.3857000490911
30
0
41
0.573444231386237
10
45.2800570678162
20
29.4231329786967
30
0
0
SPLINE
5
1B5
100
AcDbEntity
8
1
62
256
6
ByLayer
370
18
48
1
60
0
100
AcDbSpline
70
4
71
3
72
10
73
6
40
0
40
0
40
0
40
0
40
0.996571983478443
40
0.996571983478443
40
1
40
1
40
1
40
1
41
1
10
54.3822226088075
20
20.2662663879309
30
0
41
1
10
54.3834769936451
20
20.2101842732305
30
0
41
1
10
54.3870133906273
20
20.1614026886806
30
0
41
1
10
54.391489846231
20
20.1147503614403
30
0
41
1
10
54.3915052014427
20
20.1145904545684
30
0
41
1
10
54.3915205664578
20
20.1144305655118
30
0
0
SPLINE
5
1B6
100
AcDbEntity
8
1
62
256
6
ByLayer
370
18
48
1
60
0
100
AcDbSpline
70
4
71
4
72
10
73
5
40
0
40
0
40
0
40
0
40
0
40
1
40
1
40
1
40
1
40
1
41
0.491546738888872
10
54.3822226088087
20
20.2662663879303
30
0
41
0.485768118489467
10
54.309502629467
20
20.3055649237773
30
0
41
0.488808537331216
10
54.2305905658314
20
20.3281511010399
30
0
41
0.500667995414118
10
54.1497692268017
20
20.3331358526215
30
0
41
0.521346492738174
10
54.0712704018434
20
20.3214673923449
30
0
0
SPLINE
5
1B7
100
AcDbEntity
8
1
62
256
6
ByLayer
370
18
48
1
60
0
100
AcDbSpline
70
4
71
3
72
8
73
4
40
0
40
0
40
0
40
0
40
1
40
1
40
1
40
1
41
1
10
26.6384167498099
20
29.2214961593892
30
0
41
1
10
26.4853231765264
20
29.1217247873973
30
0
41
1
10
26.3571013006937
20
29.0215531524473
30
0
41
1
10
26.256225132665
20
28.9209414400189
30
0
0
SPLINE
5
1B8
100
AcDbEntity
8
1
62
256
6
ByLayer
370
18
48
1
60
0
100
AcDbSpline
70
4
71
4
72
10
73
5
40
0
40
0
40
0
40
0
40
0
40
1
40
1
40
1
40
1
40
1
41
0.573421528310386
10
52.1644641797328
20
19.4385681670708
30
0
41
0.573424348238593
10
51.9424151998187
20
19.3305508164738
30
0
41
0.573429072060637
10
51.7207021390815
20
19.2218677501818
30
0
41
0.573435699776518
10
51.4993271975831
20
19.1125200671798
30
0
41
0.573444231386236
10
51.2782925685623
20
19.0025088796487
30
0
0
SPLINE
5
1B9
100
AcDbEntity
8
1
62
256
6
ByLayer
370
18
48
1
60
0
100
AcDbSpline
70
4
71
4
72
10
73
5
40
0
40
0
40
0
40
0
40
0
40
1
40
1
40
1
40
1
40
1
41
0.584865583858255
10
51.5397221425894
20
18.7929504524513
30
0
41
0.582112177039281
10
51.5069287105805
20
18.7853815634284
30
0
41
0.574889008681248
10
51.4509417746363
20
18.8131954592399
30
0
41
0.572334928239986
10
51.3705235280552
20
18.8906493538093
30
0
41
0.573444231386236
10
51.2782925685623
20
19.0025088796487
30
0
0
SPLINE
5
1BA
100
AcDbEntity
8
1
62
256
6
ByLayer
370
18
48
1
60
0
100
AcDbSpline
70
4
71
3
72
8
73
4
40
0
40
0
40
0
40
0
40
1
40
1
40
1
40
1
41
1
10
42.6633025297274
20
14.5758796744155
30
0
41
1
10
42.6875481128304
20
14.6214097104646
30
0
41
1
10
42.7108599644028
20
14.6701712548205
30
0
41
1
10
42.7327671748878
20
14.7223766920448
30
0
0
SPLINE
5
1BB
100
AcDbEntity
8
1
62
256
6
ByLayer
370
18
48
1
60
0
100
AcDbSpline
70
4
71
4
72
10
73
5
40
0
40
0
40
0
40
0
40
0
40
1
40
1
40
1
40
1
40
1
41
0.584655073875585
10
45.9603284769211
20
16.2029280414403
30
0
41
0.581719952058164
10
45.9299875415742
20
16.1988098825406
30
0
41
0.574796672058814
10
45.883507697414
20
16.232195964569
30
0
41
0.572355247245464
10
45.8215427903781
20
16.3167441006102
30
0
41
0.573444231386237
10
45.7531268753614
20
16.4366788225145
30
0
0
SPLINE
5
1BC
100
AcDbEntity
8
1
62
256
6
ByLayer
370
18
48
1
60
0
100
AcDbSpline
70
4
71
3
72
20
73
16
40
0
40
0
40
0
40
0
40
0.0009989542108847
40
0.0009989542108847
40
0.0675990239301592
40
0.0675990239301592
40
0.200799163368708
40
0.200799163368708
40
0.467199442245806
40
0.467199442245806
40
0.600399581684354
40
0.600399581684354
40
0.733599721122903
40
0.733599721122903
40
1
40
1
40
1
40
1
41
1
10
43.1250812708361
20
-3.8555336191402
30
0
41
1
10
43.1254028762757
20
-3.85524794674944
30
0
41
1
10
43.1257248069663
20
-3.85496158823588
30
0
41
1
10
43.1475317996195
20
-3.83553733725571
30
0
41
1
10
43.1705144138898
20
-3.81329325460061
30
0
41
1
10
43.2432709465564
20
-3.73797134240726
30
0
41
1
10
43.2968903728557
20
-3.67630900278468
30
0
41
1
10
43.4720879480794
20
-3.45923007197717
30
0
41
1
10
43.607963027578
20
-3.27181638507807
30
0
41
1
10
43.8373096940682
20
-2.93354964776324
30
0
41
1
10
43.9180258188127
20
-2.8112438260186
30
0
41
1
10
44.0875972471428
20
-2.54841637858021
30
0
41
1
10
44.175840651575
20
-2.40883994044921
30
0
41
1
10
44.4492653151633
20
-1.96898934815013
30
0
41
1
10
44.6434395013381
20
-1.64716448292145
30
0
41
1
10
44.8477056785744
20
-1.30107423815406
30
0
0
SPLINE
5
1BD
100
AcDbEntity
8
1
62
256
6
ByLayer
370
18
48
1
60
0
100
AcDbSpline
70
4
71
3
72
29
73
25
40
0
40
0
40
0
40
0
40
0.0699151741432286
40
0.0699151741432286
40
0.139830348286457
40
0.209745522429686
40
0.209745522429686
40
0.279660696572914
40
0.279660696572914
40
0.419491044859371
40
0.419491044859371
40
0.4894062190026
40
0.4894062190026
40
0.559321393145828
40
0.559321393145828
40
0.699151741432285
40
0.699151741432285
40
0.769066915575513
40
0.769066915575513
40
0.838982089718741
40
0.838982089718741
40
0.978812438005198
40
0.978812438005198
40
1
40
1
40
1
40
1
41
1
10
19.5197570661904
20
-19.0512775924141
30
0
41
1
10
19.5167247781238
20
-19.3168642703796
30
0
41
1
10
19.5138978599735
20
-19.5753825991355
30
0
41
1
10
19.5086228478123
20
-20.0751189191997
30
0
41
1
10
19.5037196500862
20
-20.5581436058586
30
0
41
1
10
19.4994499498362
20
-21.007908723752
30
0
41
1
10
19.4954540610811
20
-21.4410051631991
30
0
41
1
10
19.4935915977008
20
-21.6493926782776
30
0
41
1
10
19.4883750361304
20
-22.2481385071213
30
0
41
1
10
19.4854020474851
20
-22.6105147481194
30
0
41
1
10
19.4815332669276
20
-23.0993379755901
30
0
41
1
10
19.480343033322
20
-23.253138946021
30
0
41
1
10
19.4781426627011
20
-23.5423343120694
30
0
41
1
10
19.4771337762939
20
-23.6775719059212
30
0
41
1
10
19.4743688605919
20
-24.0535303997578
30
0
41
1
10
19.4728670272343
20
-24.2653113654808
30
0
41
1
10
19.471056860855
20
-24.5246312772624
30
0
41
1
10
19.4705272116169
20
-24.6014047171441
30
0
41
1
10
19.4696139436962
20
-24.734686779153
30
0
41
1
10
19.4692298508097
20
-24.7912625052276
30
0
41
1
10
19.4682854953405
20
-24.9309677114514
30
0
41
1
10
19.4679316994396
20
-24.9841500457274
30
0
41
1
10
19.4678332326407
20
-24.9989024960149
30
0
41
1
10
19.4678264494628
20
-24.9999147586968
30
0
41
1
10
19.4678258492385
20
-24.9999994409922
30
0
0
SPLINE
5
1BE
100
AcDbEntity
8
SK1
62
256
6
ByLayer
370
18
48
1
60
0
100
AcDbSpline
70
4
71
3
72
45
73
41
40
0
40
0
40
0
40
0
40
0.0183375370165542
40
0.046670589390747
40
0.0750036417649397
40
0.103336694139133
40
0.160002798887518
40
0.216668903635904
40
0.245001956010096
40
0.273335008384289
40
0.301668060758482
40
0.330001113132675
40
0.358334165506868
40
0.38666721788106
40
0.415000270255253
40
0.42916679644235
40
0.443333322629446
40
0.471666375003639
40
0.485832901190735
40
0.492916164284283
40
0.499999427377831
40
0.50708269047138
40
0.514165953564928
40
0.528332479752024
40
0.556665532126217
40
0.570832058313313
40
0.58499858450041
40
0.613331636874602
40
0.641664689248795
40
0.669997741622988
40
0.698330793997181
40
0.726663846371374
40
0.754996898745567
40
0.783329951119759
40
0.839996055868145
40
0.89666216061653
40
0.924995212990723
40
0.953328265364916
40
0.981661317739109
40
1
40
1
40
1
40
1
41
1
10
-30
20
-15.9933017817382
30
0
41
1
10
-30
20
-15.9901528689367
30
0
41
1
10
-30
20
-15.9551832730159
30
0
41
1
10
-30
20
-15.7965331178349
30
0
41
1
10
-30
20
-15.4890632796305
30
0
41
1
10
-30
20
-14.9202435431778
30
0
41
1
10
-30
20
-13.9430327235571
30
0
41
1
10
-30
20
-12.6450678356931
30
0
41
1
10
-30
20
-11.42137036219
30
0
41
1
10
-30
20
-10.4224345134304
30
0
41
1
10
-30
20
-9.34179268341308
30
0
41
1
10
-30
20
-8.18272261240929
30
0
41
1
10
-30
20
-6.94914665451273
30
0
41
1
10
-30
20
-5.64597210397025
30
0
41
1
10
-30
20
-4.51272453462846
30
0
41
1
10
-30
20
-3.56968201835696
30
0
41
1
10
-30
20
-2.61530592334967
30
0
41
1
10
-30
20
-1.67591474804155
30
0
41
1
10
-30
20
-0.833341855678952
30
0
41
1
10
-30
20
-0.354131622770439
30
0
41
1
10
-30
20
4.002277763E-07
30
0
41
1
10
-30
20
0.354131996183753
30
0
41
1
10
-30
20
0.8333415404785
30
0
41
1
10
-30
20
1.675914880346
30
0
41
1
10
-30
20
2.61530613672116
30
0
41
1
10
-30
20
3.56968220154852
30
0
41
1
10
-30
20
4.51272494557483
30
0
41
1
10
-30
20
5.64597176408017
30
0
41
1
10
-30
20
6.94914704263559
30
0
41
1
10
-30
20
8.18272269843541
30
0
41
1
10
-30
20
9.34179238961872
30
0
41
1
10
-30
20
10.4224348167646
30
0
41
1
10
-30
20
11.4213703912989
30
0
41
1
10
-30
20
12.6450674903883
30
0
41
1
10
-30
20
13.9430330734595
30
0
41
1
10
-30
20
14.9202427964398
30
0
41
1
10
-30
20
15.4890634139888
30
0
41
1
10
-30
20
15.7965327535813
30
0
41
1
10
-30
20
15.9551851502523
30
0
41
1
10
-30
20
15.9901543640205
30
0
41
1
10
-30
20
15.9933022184631
30
0
0
SPLINE
5
1BF
100
AcDbEntity
8
SK1
62
256
6
ByLayer
370
18
48
1
60
0
100
AcDbSpline
70
4
71
3
72
11
73
7
40
0
40
0
40
0
40
0
40
0.242589954178611
40
0.502544718947534
40
0.761087572808619
40
1
40
1
40
1
40
1
41
1
10
-0.199999999999989
20
17.5545583467655
30
0
41
1
10
-0.200957889270342
20
17.5289140231062
30
0
41
1
10
-0.211248315226243
20
17.4799022728818
30
0
41
1
10
-0.255179720944142
20
17.4139496110851
30
0
41
1
10
-0.321113897423771
20
17.3707504109673
30
0
41
1
10
-0.369683795840189
20
17.3607068368228
30
0
41
1
10
-0.394913799811292
20
17.3597802673791
30
0
0
SPLINE
5
1C0
100
AcDbEntity
8
SK1
62
256
6
ByLayer
370
18
48
1
60
0
100
AcDbSpline
70
4
71
3
72
11
73
7
40
0
40
0
40
0
40
0
40
0.238912427113142
40
0.497455280942537
40
0.757410045745086
40
1
40
1
40
1
40
1
41
1
10
-0.394913799811292
20
-17.3597801301672
30
0
41
1
10
-0.369683795838398
20
-17.3607066995757
30
0
41
1
10
-0.321113897416438
20
-17.3707502735068
30
0
41
1
10
-0.255179720936354
20
-17.4139494728386
30
0
41
1
10
-0.211248315224566
20
-17.4799021334559
30
0
41
1
10
-0.200957889268722
20
-17.5289138828004
30
0
41
1
10
-0.199999999999989
20
-17.5545582060014
30
0
0
SPLINE
5
1C1
100
AcDbEntity
8
SK1
62
256
6
ByLayer
370
18
48
1
60
0
100
AcDbSpline
70
4
71
2
72
6
73
3
40
0
40
0
40
0
40
1
40
1
40
1
41
1
10
-28.5
20
16.8588088260863
30
0
41
1
10
-29.2499999297871
20
16.4259984461422
30
0
41
1
10
-30
20
15.9931873508859
30
0
0
SPLINE
5
1C2
100
AcDbEntity
8
SK1
62
256
6
ByLayer
370
18
48
1
60
0
100
AcDbSpline
70
4
71
2
72
6
73
3
40
0
40
0
40
0
40
1
40
1
40
1
41
1
10
-30
20
-15.9931874249212
30
0
41
1
10
-29.2499999297894
20
-16.425998517687
30
0
41
1
10
-28.5
20
-16.8588088951667
30
0
0
SPLINE
5
1C3
100
AcDbEntity
8
SK1
62
256
6
ByLayer
370
18
48
1
60
0
100
AcDbSpline
70
4
71
2
72
6
73
3
40
0
40
0
40
0
40
1
40
1
40
1
41
1
10
-0.394913799811292
20
17.3602209523781
30
0
41
1
10
-1.19497688886898
20
17.3401342706943
30
0
41
1
10
-1.99503997793928
20
17.3200475850767
30
0
0
SPLINE
5
1C4
100
AcDbEntity
8
SK1
62
256
6
ByLayer
370
18
48
1
60
0
100
AcDbSpline
70
4
71
2
72
6
73
3
40
0
40
0
40
0
40
1
40
1
40
1
41
1
10
-1.99503997793928
20
-17.3200478774323
30
0
41
1
10
-1.19497688886898
20
-17.340134563042
30
0
41
1
10
-0.394913799811292
20
-17.3602212447177
30
0
0
SPLINE
5
1C5
100
AcDbEntity
8
SK1
62
256
6
ByLayer
370
18
48
1
60
0
100
AcDbSpline
70
4
71
3
72
13
73
9
40
0
40
0
40
0
40
0
40
0.239505987673083
40
0.368426538155688
40
0.500072261058321
40
0.631705987654816
40
0.760593443052916
40
1
40
1
40
1
40
1
41
1
10
-1.99503997793928
20
17.3252686883828
30
0
41
1
10
-2.02110925982339
20
17.3248665791032
30
0
41
1
10
-2.05883863809936
20
17.3310361992814
30
0
41
1
10
-2.10627567686484
20
17.3540696096461
30
0
41
1
10
-2.13886243911927
20
17.3792256041407
30
0
41
1
10
-2.16563490776915
20
17.4104933211739
30
0
41
1
10
-2.19103207710595
20
17.4566915621889
30
0
41
1
10
-2.19909121921685
20
17.4940488942773
30
0
41
1
10
-2.19999999999999
20
17.5200961072231
30
0
0
SPLINE
5
1C6
100
AcDbEntity
8
SK1
62
256
6
ByLayer
370
18
48
1
60
0
100
AcDbSpline
70
4
71
3
72
13
73
9
40
0
40
0
40
0
40
0
40
0.239406556342956
40
0.368294011542631
40
0.499927738071791
40
0.631573461053609
40
0.76049401174041
40
1
40
1
40
1
40
1
41
1
10
-2.19999999999999
20
-17.5200962264206
30
0
41
1
10
-2.19909121920765
20
-17.4940490135991
30
0
41
1
10
-2.19103207709688
20
-17.4566916816953
30
0
41
1
10
-2.16563490775661
20
-17.4104934409328
30
0
41
1
10
-2.13886243910255
20
-17.379225724067
30
0
41
1
10
-2.10627567684702
20
-17.3540697297104
30
0
41
1
10
-2.05883863807622
20
-17.3310363194718
30
0
41
1
10
-2.0211092598112
20
-17.3248666993254
30
0
41
1
10
-1.99503997793928
20
-17.3252688086104
30
0
0
SPLINE
5
1C7
100
AcDbEntity
8
SK1
62
256
6
ByLayer
370
18
48
1
60
0
100
AcDbSpline
70
4
71
2
72
6
73
3
40
0
40
0
40
0
40
1
40
1
40
1
41
1
10
-2.19999999999999
20
17.5148287077807
30
0
41
1
10
-15.3499999982431
20
17.1846805562453
30
0
41
1
10
-28.5
20
16.8545313165689
30
0
0
SPLINE
5
1C8
100
AcDbEntity
8
SK1
62
256
6
ByLayer
370
18
48
1
60
0
100
AcDbSpline
70
4
71
2
72
6
73
3
40
0
40
0
40
0
40
1
40
1
40
1
41
1
10
-28.5
20
-16.8545316091351
30
0
41
1
10
-15.3499999982428
20
-17.1846808487114
30
0
41
1
10
-2.19999999999999
20
-17.5148290000611
30
0
0
LINE
5
74
100
AcDbEntity
8
1
62
256
6
ByLayer
370
18
48
1
60
0
100
AcDbLine
10
36.362101
20
23.827144
30
0
11
36.665676
21
24.13072
31
0
39
0
210
0
220
0
230
1
0
LINE
5
76
100
AcDbEntity
8
1
62
256
6
ByLayer
370
18
48
1
60
0
100
AcDbLine
10
37.714877
20
23.768301
30
0
11
38.018452
21
24.071876
31
0
39
0
210
0
220
0
230
1
0
LINE
5
77
100
AcDbEntity
8
1
62
256
6
ByLayer
370
18
48
1
60
0
100
AcDbLine
10
38.175292
20
23.291832
30
0
11
38.478867
21
23.595408
31
0
39
0
210
0
220
0
230
1
0
LINE
5
78
100
AcDbEntity
8
1
62
256
6
ByLayer
370
18
48
1
60
0
100
AcDbLine
10
38.186919
20
21.938702
30
0
11
38.490494
21
22.242278
31
0
39
0
210
0
220
0
230
1
0
LINE
5
79
100
AcDbEntity
8
1
62
256
6
ByLayer
370
13
48
1
60
0
100
AcDbLine
10
59.13091
20
34.997039
30
0
11
57.651583
21
34.881236
31
0
39
0
210
0
220
0
230
1
0
LINE
5
7A
100
AcDbEntity
8
1
62
256
6
ByLayer
370
13
48
1
60
0
100
AcDbLine
10
41.957538
20
14.726782
30
0
11
42.767072
21
15.536316
31
0
39
0
210
0
220
0
230
1
0
LINE
5
7B
100
AcDbEntity
8
1
62
256
6
ByLayer
370
13
48
1
60
0
100
AcDbLine
10
55.023006
20
21.344704
30
0
11
59.45189
21
30.993257
31
0
39
0
210
0
220
0
230
1
0
LINE
5
7C
100
AcDbEntity
8
1
62
256
6
ByLayer
370
13
48
1
60
0
100
AcDbLine
10
41.957538
20
14.726782
30
0
11
40.478211
21
14.61098
31
0
39
0
210
0
220
0
230
1
0
LINE
5
7D
100
AcDbEntity
8
1
62
256
6
ByLayer
370
13
48
1
60
0
100
AcDbLine
10
55.993808
20
34.451339
30
0
11
46.345255
21
30.022454
31
0
39
0
210
0
220
0
230
1
0
LINE
5
7E
100
AcDbEntity
8
1
62
256
6
ByLayer
370
13
48
1
60
0
100
AcDbLine
10
41.287745
20
15.420514
30
0
11
40.478211
21
14.61098
31
0
39
0
210
0
220
0
230
1
0
LINE
5
7F
100
AcDbEntity
8
1
62
256
6
ByLayer
370
13
48
1
60
0
100
AcDbLine
10
44.424847
20
15.966214
30
0
11
54.0734
21
20.395098
31
0
39
0
210
0
220
0
230
1
0
LINE
5
80
100
AcDbEntity
8
1
62
256
6
ByLayer
370
13
48
1
60
0
100
AcDbLine
10
59.881788
20
32.651032
30
0
11
59.99759
21
34.130359
31
0
39
0
210
0
220
0
230
1
0
LINE
5
81
100
AcDbEntity
8
1
62
256
6
ByLayer
370
13
48
1
60
0
100
AcDbLine
10
41.287745
20
15.420514
30
0
11
42.767072
21
15.536316
31
0
39
0
210
0
220
0
230
1
0
LINE
5
82
100
AcDbEntity
8
1
62
256
6
ByLayer
370
18
48
1
60
0
100
AcDbLine
10
34.988732
20
26.436729
30
0
11
36.958924
21
26.910782
31
0
39
0
210
0
220
0
230
1
0
LINE
5
83
100
AcDbEntity
8
1
62
256
6
ByLayer
370
18
48
1
60
0
100
AcDbLine
10
30.359864
20
16.522107
30
0
11
28.696036
21
15.447142
31
0
39
0
210
0
220
0
230
1
0
LINE
5
84
100
AcDbEntity
8
1
62
256
6
ByLayer
370
18
48
1
60
0
100
AcDbLine
10
29.218162
20
23.292781
30
0
11
30.51095
21
18.282038
31
0
39
0
210
0
220
0
230
1
0
LINE
5
85
100
AcDbEntity
8
1
62
256
6
ByLayer
370
18
48
1
60
0
100
AcDbLine
10
27.328909
20
22.154974
30
0
11
28.571975
21
17.336951
31
0
39
0
210
0
220
0
230
1
0
LINE
5
86
100
AcDbEntity
8
1
62
256
6
ByLayer
370
18
48
1
60
0
100
AcDbLine
10
34.655534
20
14.18932
30
0
11
34.659985
21
14.193144
31
0
39
0
210
0
220
0
230
1
0
LINE
5
87
100
AcDbEntity
8
1
62
256
6
ByLayer
370
18
48
1
60
0
100
AcDbLine
10
50.673474
20
27.520132
30
0
11
49.724222
21
28.049227
31
0
39
0
210
0
220
0
230
1
0
LINE
5
88
100
AcDbEntity
8
1
62
256
6
ByLayer
370
18
48
1
60
0
100
AcDbLine
10
28.271515
20
24.616386
30
0
11
30.359864
21
16.522107
31
0
39
0
210
0
220
0
230
1
0
LINE
5
89
100
AcDbEntity
8
1
62
256
6
ByLayer
370
18
48
1
60
0
100
AcDbLine
10
32.673992
20
15.165803
30
0
11
39.995411
21
16.92743
31
0
39
0
210
0
220
0
230
1
0
LINE
5
8A
100
AcDbEntity
8
1
62
256
6
ByLayer
370
18
48
1
60
0
100
AcDbLine
10
34.655534
20
14.18932
30
0
11
32.794967
21
13.526071
31
0
39
0
210
0
220
0
230
1
0
LINE
5
8B
100
AcDbEntity
8
1
62
256
6
ByLayer
370
18
48
1
60
0
100
AcDbLine
10
51.737199
20
23.397217
30
0
11
51.146499
21
22.536593
31
0
39
0
210
0
220
0
230
1
0
LINE
5
8C
100
AcDbEntity
8
1
62
256
6
ByLayer
370
18
48
1
60
0
100
AcDbLine
10
28.571975
20
17.336951
30
0
11
29.198997
21
17.742057
31
0
39
0
210
0
220
0
230
1
0
LINE
5
8D
100
AcDbEntity
8
1
62
256
6
ByLayer
370
18
48
1
60
0
100
AcDbLine
10
51.737199
20
23.397217
30
0
11
51.846264
21
23.607232
31
0
39
0
210
0
220
0
230
1
0
LINE
5
8E
100
AcDbEntity
8
1
62
256
6
ByLayer
370
18
48
1
60
0
100
AcDbLine
10
33.274503
20
13.857026
30
0
11
34.655534
21
14.18932
31
0
39
0
210
0
220
0
230
1
0
LINE
5
8F
100
AcDbEntity
8
1
62
256
6
ByLayer
370
18
48
1
60
0
100
AcDbLine
10
34.988732
20
26.436729
30
0
11
34.545181
21
26.150159
31
0
39
0
210
0
220
0
230
1
0
LINE
5
90
100
AcDbEntity
8
1
62
256
6
ByLayer
370
18
48
1
60
0
100
AcDbLine
10
39.022412
20
18.912864
30
0
11
37.05222
21
18.438811
31
0
39
0
210
0
220
0
230
1
0
LINE
5
91
100
AcDbEntity
8
1
62
256
6
ByLayer
370
18
48
1
60
0
100
AcDbLine
10
28.71198
20
17.199997
30
0
11
28.571975
21
17.336951
31
0
39
0
210
0
220
0
230
1
0
LINE
5
92
100
AcDbEntity
8
1
62
256
6
ByLayer
370
18
48
1
60
0
100
AcDbLine
10
36.29472
20
29.319435
30
0
11
31.081014
21
28.064952
31
0
39
0
210
0
220
0
230
1
0
LINE
5
93
100
AcDbEntity
8
1
62
256
6
ByLayer
370
18
48
1
60
0
100
AcDbLine
10
28.096596
20
22.76082
30
0
11
29.414245
21
17.653716
31
0
39
0
210
0
220
0
230
1
0
LINE
5
94
100
AcDbEntity
8
1
62
256
6
ByLayer
370
18
48
1
60
0
100
AcDbLine
10
52.129543
20
23.968844
30
0
11
52.004076
21
23.786044
31
0
39
0
210
0
220
0
230
1
0
LINE
5
95
100
AcDbEntity
8
1
62
256
6
ByLayer
370
18
48
1
60
0
100
AcDbLine
10
29.652078
20
26.878505
30
0
11
36.973497
21
28.640131
31
0
39
0
210
0
220
0
230
1
0
LINE
5
96
100
AcDbEntity
8
1
62
256
6
ByLayer
370
18
48
1
60
0
100
AcDbLine
10
27.328909
20
22.154974
30
0
11
27.955931
21
22.56008
31
0
39
0
210
0
220
0
230
1
0
LINE
5
97
100
AcDbEntity
8
1
62
256
6
ByLayer
370
18
48
1
60
0
100
AcDbLine
10
27.955931
20
22.56008
30
0
11
29.198997
21
17.742057
31
0
39
0
210
0
220
0
230
1
0
LINE
5
98
100
AcDbEntity
8
1
62
256
6
ByLayer
370
18
48
1
60
0
100
AcDbLine
10
28.096596
20
22.76082
30
0
11
27.955931
21
22.56008
31
0
39
0
210
0
220
0
230
1
0
LINE
5
99
100
AcDbEntity
8
1
62
256
6
ByLayer
370
18
48
1
60
0
100
AcDbLine
10
31.075506
20
28.065226
30
0
11
29.694475
21
27.732932
31
0
39
0
210
0
220
0
230
1
0
LINE
5
9A
100
AcDbEntity
8
1
62
256
6
ByLayer
370
18
48
1
60
0
100
AcDbLine
10
29.414245
20
17.653716
30
0
11
29.198997
21
17.742057
31
0
39
0
210
0
220
0
230
1
0
LINE
5
9B
100
AcDbEntity
8
1
62
256
6
ByLayer
370
18
48
1
60
0
100
AcDbLine
10
31.075506
20
28.065226
30
0
11
31.081014
21
28.064952
31
0
39
0
210
0
220
0
230
1
0
LINE
5
9C
100
AcDbEntity
8
1
62
256
6
ByLayer
370
18
48
1
60
0
100
AcDbLine
10
27.394331
20
22.307102
30
0
11
27.328909
21
22.154974
31
0
39
0
210
0
220
0
230
1
0
LINE
5
9D
100
AcDbEntity
8
1
62
256
6
ByLayer
370
18
48
1
60
0
100
AcDbLine
10
33.274503
20
13.857026
30
0
11
32.722355
21
13.500295
31
0
39
0
210
0
220
0
230
1
0
LINE
5
9E
100
AcDbEntity
8
1
62
256
6
ByLayer
370
18
48
1
60
0
100
AcDbLine
10
28.71198
20
17.199997
30
0
11
29.414245
21
17.653716
31
0
39
0
210
0
220
0
230
1
0
LINE
5
9F
100
AcDbEntity
8
1
62
256
6
ByLayer
370
18
48
1
60
0
100
AcDbLine
10
27.394331
20
22.307102
30
0
11
28.096596
21
22.76082
31
0
39
0
210
0
220
0
230
1
0
LINE
5
A0
100
AcDbEntity
8
1
62
256
6
ByLayer
370
18
48
1
60
0
100
AcDbLine
10
51.303968
20
27.168707
30
0
11
51.102344
21
27.281089
31
0
39
0
210
0
220
0
230
1
0
LINE
5
A1
100
AcDbEntity
8
1
62
256
6
ByLayer
370
18
48
1
60
0
100
AcDbLine
10
50.871824
20
27.384085
30
0
11
50.673474
21
27.520132
31
0
39
0
210
0
220
0
230
1
0
LINE
5
A2
100
AcDbEntity
8
1
62
256
6
ByLayer
370
18
48
1
60
0
100
AcDbLine
10
39.87369
20
15.447627
30
0
11
34.659985
21
14.193144
31
0
39
0
210
0
220
0
230
1
0
LINE
5
A3
100
AcDbEntity
8
1
62
256
6
ByLayer
370
18
48
1
60
0
100
AcDbLine
10
28.271515
20
24.616386
30
0
11
26.607687
21
23.541421
31
0
39
0
210
0
220
0
230
1
0
LINE
5
A4
100
AcDbEntity
8
1
62
256
6
ByLayer
370
18
48
1
60
0
100
AcDbLine
10
50.002102
20
25.556653
30
0
11
52.54264
21
25.843521
31
0
39
0
210
0
220
0
230
1
0
LINE
5
A5
100
AcDbEntity
8
1
62
256
6
ByLayer
370
18
48
1
60
0
100
AcDbLine
10
28.696036
20
15.447142
30
0
11
26.607687
21
23.541421
31
0
39
0
210
0
220
0
230
1
0
LINE
5
A6
100
AcDbEntity
8
1
62
256
6
ByLayer
370
18
48
1
60
0
100
AcDbLine
10
31.107321
20
23.918806
30
0
11
30.6777
21
23.641236
31
0
39
0
210
0
220
0
230
1
0
LINE
5
A7
100
AcDbEntity
8
1
62
256
6
ByLayer
370
18
48
1
60
0
100
AcDbLine
10
30.6777
20
23.641236
30
0
11
29.218162
21
23.292781
31
0
39
0
210
0
220
0
230
1
0
LINE
5
A8
100
AcDbEntity
8
1
62
256
6
ByLayer
370
18
48
1
60
0
100
AcDbLine
10
35.760596
20
22.789898
30
0
11
35.960045
21
22.989347
31
0
39
0
210
0
220
0
230
1
0
LINE
5
A9
100
AcDbEntity
8
1
62
256
6
ByLayer
370
18
48
1
60
0
100
AcDbLine
10
37.142165
20
21.395091
30
0
11
37.324448
21
21.577373
31
0
39
0
210
0
220
0
230
1
0
LINE
5
AA
100
AcDbEntity
8
1
62
256
6
ByLayer
370
13
48
1
60
0
100
AcDbLine
10
53.928127
20
20.249825
30
0
11
54.0734
21
20.395098
31
0
39
0
210
0
220
0
230
1
0
LINE
5
AB
100
AcDbEntity
8
1
62
256
6
ByLayer
370
13
48
1
60
0
100
AcDbLine
10
44.424847
20
15.966214
30
0
11
44.224728
21
15.766094
31
0
39
0
210
0
220
0
230
1
0
LINE
5
AC
100
AcDbEntity
8
1
62
256
6
ByLayer
370
18
48
1
60
0
100
AcDbLine
10
34.545181
20
26.150159
30
0
11
35.305893
21
26.331774
31
0
39
0
210
0
220
0
230
1
0
LINE
5
AD
100
AcDbEntity
8
1
62
256
6
ByLayer
370
18
48
1
60
0
100
AcDbLine
10
36.958924
20
26.910782
30
0
11
36.720068
21
26.756462
31
0
39
0
210
0
220
0
230
1
0
LINE
5
AE
100
AcDbEntity
8
1
62
256
6
ByLayer
370
18
48
1
60
0
100
AcDbLine
10
19.521469
20
-19.064787
30
0
11
19.521469
21
22.721958
31
0
39
0
210
0
220
0
230
1
0
LINE
5
AF
100
AcDbEntity
8
1
62
256
6
ByLayer
370
18
48
1
60
0
100
AcDbLine
10
11.894338
20
-8.055848
30
0
11
11.894338
21
-23.666502
31
0
39
0
210
0
220
0
230
1
0
LINE
5
B0
100
AcDbEntity
8
1
62
256
6
ByLayer
370
18
48
1
60
0
100
AcDbLine
10
8.538675
20
-7.529667
30
0
11
8.538675
21
-23.83913
31
0
39
0
210
0
220
0
230
1
0
LINE
5
B1
100
AcDbEntity
8
1
62
256
6
ByLayer
370
18
48
1
60
0
100
AcDbLine
10
30.255252
20
29.644503
30
0
11
26.638417
21
29.221496
31
0
39
0
210
0
220
0
230
1
0
LINE
5
B2
100
AcDbEntity
8
1
62
256
6
ByLayer
370
18
48
1
60
0
100
AcDbLine
10
8.538675
20
-7.529667
30
0
11
11.461325
21
-7.529667
31
0
39
0
210
0
220
0
230
1
0
LINE
5
B3
100
AcDbEntity
8
1
62
256
6
ByLayer
370
18
48
1
60
0
100
AcDbLine
10
11.461325
20
23.83913
30
0
11
11.461325
21
7.529667
31
0
39
0
210
0
220
0
230
1
0
LINE
5
B4
100
AcDbEntity
8
1
62
256
6
ByLayer
370
18
48
1
60
0
100
AcDbLine
10
11.461325
20
-23.83913
30
0
11
8.538675
21
-23.83913
31
0
39
0
210
0
220
0
230
1
0
LINE
5
B5
100
AcDbEntity
8
1
62
256
6
ByLayer
370
18
48
1
60
0
100
AcDbLine
10
42.732767
20
14.722377
30
0
11
42.545794
21
14.535403
31
0
39
0
210
0
220
0
230
1
0
LINE
5
B6
100
AcDbEntity
8
1
62
256
6
ByLayer
370
18
48
1
60
0
100
AcDbLine
10
40.042488
20
14.829805
30
0
11
39.830356
21
15.041937
31
0
39
0
210
0
220
0
230
1
0
LINE
5
B7
100
AcDbEntity
8
1
62
256
6
ByLayer
370
18
48
1
60
0
100
AcDbLine
10
8.538675
20
23.83913
30
0
11
8.538675
21
7.529667
31
0
39
0
210
0
220
0
230
1
0
LINE
5
B8
100
AcDbEntity
8
1
62
256
6
ByLayer
370
18
48
1
60
0
100
AcDbLine
10
8.105662
20
-8.055848
30
0
11
8.105662
21
-23.666502
31
0
39
0
210
0
220
0
230
1
0
LINE
5
B9
100
AcDbEntity
8
1
62
256
6
ByLayer
370
18
48
1
60
0
100
AcDbLine
10
43.113632
20
14.9311
30
0
11
42.985054
21
14.802523
31
0
39
0
210
0
220
0
230
1
0
LINE
5
BA
100
AcDbEntity
8
1
62
256
6
ByLayer
370
18
48
1
60
0
100
AcDbLine
10
8.538675
20
23.83913
30
0
11
11.461325
21
23.83913
31
0
39
0
210
0
220
0
230
1
0
LINE
5
BB
100
AcDbEntity
8
1
62
256
6
ByLayer
370
18
48
1
60
0
100
AcDbLine
10
26.048208
20
8.526765
30
0
11
22.966559
21
20.470996
31
0
39
0
210
0
220
0
230
1
0
LINE
5
BC
100
AcDbEntity
8
1
62
256
6
ByLayer
370
18
48
1
60
0
100
AcDbLine
10
22.966559
20
20.470996
30
0
11
22.966559
21
-18.573044
31
0
39
0
210
0
220
0
230
1
0
LINE
5
BD
100
AcDbEntity
8
1
62
256
6
ByLayer
370
18
48
1
60
0
100
AcDbLine
10
24.641687
20
27.245802
30
0
11
28.471609
21
12.401326
31
0
39
0
210
0
220
0
230
1
0
LINE
5
BE
100
AcDbEntity
8
1
62
256
6
ByLayer
370
18
48
1
60
0
100
AcDbLine
10
11.461325
20
-7.529667
30
0
11
11.461325
21
-23.83913
31
0
39
0
210
0
220
0
230
1
0
LINE
5
BF
100
AcDbEntity
8
1
62
256
6
ByLayer
370
18
48
1
60
0
100
AcDbLine
10
8.105662
20
23.666502
30
0
11
8.105662
21
8.055848
31
0
39
0
210
0
220
0
230
1
0
LINE
5
C0
100
AcDbEntity
8
1
62
256
6
ByLayer
370
18
48
1
60
0
100
AcDbLine
10
45.280057
20
29.423133
30
0
11
45.240056
21
29.507607
31
0
39
0
210
0
220
0
230
1
0
LINE
5
C1
100
AcDbEntity
8
1
62
256
6
ByLayer
370
18
48
1
60
0
100
AcDbLine
10
11.461325
20
7.529667
30
0
11
8.538675
21
7.529667
31
0
39
0
210
0
220
0
230
1
0
LINE
5
C2
100
AcDbEntity
8
1
62
256
6
ByLayer
370
18
48
1
60
0
100
AcDbLine
10
54.492254
20
19.71007
30
0
11
44.847706
21
-1.301074
31
0
39
0
210
0
220
0
230
1
0
LINE
5
C3
100
AcDbEntity
8
1
62
256
6
ByLayer
370
18
48
1
60
0
100
AcDbLine
10
45.012877
20
29.644701
30
0
11
45.115537
21
29.427904
31
0
39
0
210
0
220
0
230
1
0
LINE
5
C4
100
AcDbEntity
8
1
62
256
6
ByLayer
370
18
48
1
60
0
100
AcDbLine
10
11.894338
20
23.666502
30
0
11
11.894338
21
8.055848
31
0
39
0
210
0
220
0
230
1
0
LINE
5
C5
100
AcDbEntity
8
1
62
256
6
ByLayer
370
18
48
1
60
0
100
AcDbLine
10
54.435509
20
20.041369
30
0
11
54.49695
21
19.911618
31
0
39
0
210
0
220
0
230
1
0
LINE
5
C6
100
AcDbEntity
8
SK1
62
256
6
ByLayer
370
18
48
1
60
0
100
AcDbLine
10
-1.307107
20
3.918083
30
0
11
-1.307107
21
-3.918083
31
0
39
0
210
0
220
0
230
1
0
LINE
5
C8
100
AcDbEntity
8
SK1
62
256
6
ByLayer
370
18
48
1
60
0
100
AcDbLine
10
-0.2
20
-6.078431
30
0
11
-0.2
21
-17.833485
31
0
39
0
210
0
220
0
230
1
0
LINE
5
C9
100
AcDbEntity
8
SK1
62
256
6
ByLayer
370
18
48
1
60
0
100
AcDbLine
10
-0.2
20
17.833485
30
0
11
-0.2
21
6.078432
31
0
39
0
210
0
220
0
230
1
0
LINE
5
CA
100
AcDbEntity
8
1
62
256
6
ByLayer
370
18
48
1
60
0
100
AcDbLine
10
42.732767
20
14.722377
30
0
11
42.855288
21
14.778616
31
0
39
0
210
0
220
0
230
1
0
LINE
5
CB
100
AcDbEntity
8
1
62
256
6
ByLayer
370
18
48
1
60
0
100
AcDbLine
10
29.828065
20
12.727707
30
0
11
29.481608
21
14.070547
31
0
39
0
210
0
220
0
230
1
0
LINE
5
CC
100
AcDbEntity
8
1
62
256
6
ByLayer
370
18
48
1
60
0
100
AcDbLine
10
26.632647
20
25.112897
30
0
11
25.782592
21
28.407644
31
0
39
0
210
0
220
0
230
1
0
LINE
5
CD
100
AcDbEntity
8
1
62
256
6
ByLayer
370
18
48
1
60
0
100
AcDbLine
10
24.242641
20
26.785522
30
0
11
24.242641
21
26.907359
31
0
39
0
210
0
220
0
230
1
0
LINE
5
CE
100
AcDbEntity
8
1
62
256
6
ByLayer
370
18
48
1
60
0
100
AcDbLine
10
31.413597
20
13.257687
30
0
11
29.828065
21
12.727707
31
0
39
0
210
0
220
0
230
1
0
LINE
5
CF
100
AcDbEntity
8
1
62
256
6
ByLayer
370
18
48
1
60
0
100
AcDbLine
10
20.988369
20
25.231966
30
0
11
20.988369
21
24.106807
31
0
39
0
210
0
220
0
230
1
0
LINE
5
D0
100
AcDbEntity
8
1
62
256
6
ByLayer
370
18
48
1
60
0
100
AcDbLine
10
44.956284
20
29.644503
30
0
11
42.156426
21
29.644503
31
0
39
0
210
0
220
0
230
1
0
LINE
5
D1
100
AcDbEntity
8
1
62
256
6
ByLayer
370
18
48
1
60
0
100
AcDbLine
10
38.749922
20
29.644503
30
0
11
30.255252
21
29.644503
31
0
39
0
210
0
220
0
230
1
0
LINE
5
D2
100
AcDbEntity
8
1
62
256
6
ByLayer
370
18
48
1
60
0
100
AcDbLine
10
30.255252
20
29.644503
30
0
11
30.686848
21
27.971672
31
0
39
0
210
0
220
0
230
1
0
LINE
5
D3
100
AcDbEntity
8
1
62
256
6
ByLayer
370
18
48
1
60
0
100
AcDbLine
10
0
20
-24.7
30
0
11
0
21
24.7
31
0
39
0
210
0
220
0
230
1
0
LINE
5
D4
100
AcDbEntity
8
1
62
256
6
ByLayer
370
18
48
1
60
0
100
AcDbLine
10
0.3
20
-25
30
0
11
0.3
21
25
31
0
39
0
210
0
220
0
230
1
0
LINE
5
D5
100
AcDbEntity
8
1
62
256
6
ByLayer
370
18
48
1
60
0
100
AcDbLine
10
20.279208
20
25
30
0
11
20.279208
21
23.591402
31
0
39
0
210
0
220
0
230
1
0
LINE
5
D6
100
AcDbEntity
8
81
62
256
6
ByLayer
370
18
48
1
60
0
100
AcDbLine
10
60
20
35
30
0
11
70
21
35
31
0
39
0
210
0
220
0
230
1
0
LINE
5
D7
100
AcDbEntity
8
80
62
256
6
ByLayer
370
18
48
1
60
0
100
AcDbLine
10
0
20
0
30
0
11
-10
21
0
31
0
39
0
210
0
220
0
230
1
0
LINE
5
D8
100
AcDbEntity
8
4
62
256
6
ByLayer
370
18
48
0.05
60
0
100
AcDbLine
10
70
20
0
30
0
11
-10
21
0
31
0
39
0
210
0
220
0
230
1
0
LINE
5
DA
100
AcDbEntity
8
1
62
256
6
ByLayer
370
18
48
1
60
0
100
AcDbLine
10
26.256722
20
28.921441
30
0
11
24.242641
21
26.907359
31
0
39
0
210
0
220
0
230
1
0
LINE
5
DB
100
AcDbEntity
8
1
62
256
6
ByLayer
370
18
48
1
60
0
100
AcDbLine
10
19.474649
20
-24.993902
30
0
11
43.134495
21
-3.847126
31
0
39
0
210
0
220
0
230
1
0
LINE
5
DC
100
AcDbEntity
8
1
62
256
6
ByLayer
370
18
48
1
60
0
100
AcDbLine
10
0
20
-24.7
30
0
11
0.3
21
-25
31
0
39
0
210
0
220
0
230
1
0
LINE
5
DD
100
AcDbEntity
8
1
62
256
6
ByLayer
370
18
48
1
60
0
100
AcDbLine
10
0.3
20
25
30
0
11
0
21
24.7
31
0
39
0
210
0
220
0
230
1
0
LINE
5
DE
100
AcDbEntity
8
1
62
256
6
ByLayer
370
18
48
1
60
0
100
AcDbLine
10
20.279208
20
25
30
0
11
0.3
21
25
31
0
39
0
210
0
220
0
230
1
0
LINE
5
DF
100
AcDbEntity
8
1
62
256
6
ByLayer
370
18
48
1
60
0
100
AcDbLine
10
0.3
20
-25
30
0
11
19.467917
21
-25
31
0
39
0
210
0
220
0
230
1
0
LINE
5
E0
100
AcDbEntity
8
1
62
256
6
ByLayer
370
18
48
1
60
0
100
AcDbLine
10
34.367444
20
25.641981
30
0
11
34.03915
21
25.313687
31
0
39
0
210
0
220
0
230
1
0
LINE
5
E1
100
AcDbEntity
8
1
62
256
6
ByLayer
370
18
48
1
60
0
100
AcDbLine
10
39.696004
20
19.656832
30
0
11
40.024298
21
19.985127
31
0
39
0
210
0
220
0
230
1
0
LINE
5
E2
100
AcDbEntity
8
1
62
256
6
ByLayer
370
18
48
1
60
0
100
AcDbLine
10
36.914195
20
23.859611
30
0
11
37.21777
21
24.163186
31
0
39
0
210
0
220
0
230
1
0
LINE
5
E3
100
AcDbEntity
8
1
62
256
6
ByLayer
370
18
48
1
60
0
100
AcDbLine
10
38.531754
20
22.782432
30
0
11
38.228179
21
22.478857
31
0
39
0
210
0
220
0
230
1
0
LINE
5
E4
100
AcDbEntity
8
1
62
256
6
ByLayer
370
18
48
1
60
0
100
AcDbLine
10
35.790312
20
22.774999
30
0
11
36.093887
21
23.078574
31
0
39
0
210
0
220
0
230
1
0
LINE
5
E5
100
AcDbEntity
8
1
62
256
6
ByLayer
370
18
48
1
60
0
100
AcDbLine
10
37.407872
20
21.69782
30
0
11
37.104296
21
21.394245
31
0
39
0
210
0
220
0
230
1
0
LINE
5
E6
100
AcDbEntity
8
1
62
256
6
ByLayer
370
13
48
1
60
0
100
AcDbLine
10
54.168805
20
20.319928
30
0
11
54.63349
21
20.784614
31
0
39
0
210
0
220
0
230
1
0
LINE
5
E7
100
AcDbEntity
8
1
62
256
6
ByLayer
370
13
48
1
60
0
100
AcDbLine
10
45.785165
20
29.632939
30
0
11
45.410388
21
29.258163
31
0
39
0
210
0
220
0
230
1
0
LINE
5
E8
100
AcDbEntity
8
1
62
256
6
ByLayer
370
18
48
1
60
0
100
AcDbLine
10
28.893722
20
27.414559
30
0
11
27.949268
21
26.804367
31
0
39
0
210
0
220
0
230
1
0
LINE
5
E9
100
AcDbEntity
8
1
62
256
6
ByLayer
370
18
48
1
60
0
100
AcDbLine
10
31.576319
20
24.024953
30
0
11
32.127722
21
24.381203
31
0
39
0
210
0
220
0
230
1
0
LINE
5
EA
100
AcDbEntity
8
SK4
62
256
6
ByLayer
370
18
48
0.05
60
0
100
AcDbLine
10
70
20
0
30
0
11
-40
21
0
31
0
39
0
210
0
220
0
230
1
0
LINE
5
EC
100
AcDbEntity
8
2
62
256
6
ByLayer
370
13
48
1
60
0
100
AcDbLine
10
83.6
20
0
30
0
11
83.6
21
35
31
0
39
0
210
0
220
0
230
1
0
LINE
5
EE
100
AcDbEntity
8
2
62
256
6
ByLayer
370
13
48
1
60
0
100
AcDbLine
10
61.5875
20
35
30
0
11
86.775
21
35
31
0
39
0
210
0
220
0
230
1
0
LINE
5
EF
100
AcDbEntity
8
2
62
256
6
ByLayer
370
13
48
1
60
0
100
AcDbLine
10
61.5875
20
0
30
0
11
86.775
21
0
31
0
39
0
210
0
220
0
230
1
0
LINE
5
F0
100
AcDbEntity
8
2
62
256
6
ByLayer
370
13
48
1
60
0
100
AcDbLine
10
58.27305
20
28.54773
30
0
11
40.872192
21
-8.768529
31
0
39
0
210
0
220
0
230
1
0
LINE
5
F1
100
AcDbEntity
8
2
62
256
6
ByLayer
370
13
48
1
60
0
100
AcDbLine
10
60
20
28.9125
30
0
11
60
21
-13.009062
31
0
39
0
210
0
220
0
230
1
0
MTEXT
5
1C9
100
AcDbEntity
8
2
62
256
6
ByLayer
370
13
48
1
60
0
100
AcDbMText
10
82.713328
20
12.423189
30
0
210
0
220
0
230
1
1
\W0.7346;35.0
40
4.5
41
0
44
1.084337
50
90
71
7
72
5
7
iso_b_vert
0
MTEXT
5
1CC
100
AcDbEntity
8
2
62
256
6
ByLayer
370
13
48
1
60
0
100
AcDbMText
10
46.218946
20
-6.392821
30
0
210
0
220
0
230
1
1
\W0.7346;25.0
40
4.5
41
0
44
1.084337
50
347.5
71
7
72
5
7
iso_b_vert
0
MTEXT
5
1CD
100
AcDbEntity
8
SK6
62
256
6
ByLayer
370
13
48
1
60
0
100
AcDbMText
10
0.353024
20
-39.677256
30
0
210
0
220
0
230
1
1
\W0.7285;C5-CP-25BR-35060-12B
40
3.5
41
0
44
1.084337
50
0
71
7
72
5
7
iso_b_vert
0
DIMENSION
5
1D3
100
AcDbEntity
8
2
62
256
6
ByLayer
370
13
48
1
60
0
100
AcDbDimension
2
_U0
10
0
20
52.5
30
0
11
30
21
52.5
31
0
70
32
71
1
72
1
41
1
210
0
220
0
230
1
3
Standard
100
AcDbAlignedDimension
13
60
23
35
33
0
14
0
24
25
34
0
50
0
100
AcDbRotatedDimension
1001
ACAD
1000
DSTYLE
1002
{
1070
   371
1070
    13
1070
   372
1070
    13
1070
     3
1000

1070
   170
1070
     0
1070
   144
1040
1.0
1070
   277
1070
     2
1070
   284
1070
     8
1070
   278
1070
    46
1070
   146
1040
0.777778
1070
   345
1005
16
1070
   347
1005
16
1070
   346
1005
16
1070
   344
1005
1D4
1070
   343
1005
1D4
1070
   172
1070
     1
1070
    76
1070
     0
1070
    75
1070
     0
1070
   282
1070
     0
1070
   281
1070
     0
1070
    71
1070
     0
1070
    74
1070
     0
1070
   279
1070
     0
1070
   173
1070
     1
1070
   340
1005
1CA
1070
   271
1070
     1
1070
   272
1070
     2
1070
    77
1070
     1
1070
    73
1070
     1
1070
   171
1070
     3
1070
   274
1070
     4
1070
   177
1070
   150
1070
   176
1070
     9
1070
   178
1070
    43
1070
    78
1070
     8
1070
    48
1040
-0.1
1070
    41
1040
3.175
1070
   147
1040
2.25
1070
    42
1040
1.5875
1070
    44
1040
3.175
1070
   140
1040
4.5
1002
}
1001
ACAD_DSTYLE_DIM_LINETYPE
1070
   380
1005
16
1001
ACAD_DSTYLE_DIM_EXT1_LINETYPE
1070
   381
1005
16
1001
ACAD_DSTYLE_DIM_EXT2_LINETYPE
1070
   382
1005
16
0
DIMENSION
5
1F9
100
AcDbEntity
8
SK2
62
256
6
ByLayer
370
13
48
1
60
0
100
AcDbDimension
2
_U1
10
-49.1
20
-25
30
0
11
-49.1
21
0
31
0
70
32
71
1
72
1
41
1
210
0
220
0
230
1
3
Standard
100
AcDbAlignedDimension
13
0
23
25
33
0
14
0
24
-25
34
0
50
90
100
AcDbRotatedDimension
1001
ACAD
1000
DSTYLE
1002
{
1070
   371
1070
    13
1070
   372
1070
    13
1070
     3
1000

1070
   170
1070
     0
1070
   144
1040
1.0
1070
   277
1070
     2
1070
   284
1070
     8
1070
   278
1070
    46
1070
   146
1040
0.777778
1070
   345
1005
16
1070
   347
1005
16
1070
   346
1005
16
1070
   344
1005
1D4
1070
   343
1005
1D4
1070
   172
1070
     1
1070
    76
1070
     0
1070
    75
1070
     0
1070
   282
1070
     0
1070
   281
1070
     0
1070
    71
1070
     0
1070
    74
1070
     0
1070
   279
1070
     0
1070
   173
1070
     1
1070
   340
1005
1CA
1070
   271
1070
     1
1070
   272
1070
     2
1070
    77
1070
     1
1070
    73
1070
     0
1070
   171
1070
     3
1070
   274
1070
     4
1070
   177
1070
   150
1070
   176
1070
     9
1070
   178
1070
    43
1070
    78
1070
     8
1070
    48
1040
-0.1
1070
    41
1040
3.175
1070
   147
1040
2.25
1070
    42
1040
1.5875
1070
    44
1040
3.175
1070
   140
1040
4.5
1002
}
1001
ACAD_DSTYLE_DIM_LINETYPE
1070
   380
1005
16
1001
ACAD_DSTYLE_DIM_EXT1_LINETYPE
1070
   381
1005
16
1001
ACAD_DSTYLE_DIM_EXT2_LINETYPE
1070
   382
1005
16
0
ENDSEC
0
SECTION
2
OBJECTS
0
DICTIONARY
5
287
330
0
100
AcDbDictionary
280
0
281
1
3
ACAD_GROUP
350
288
3
ACAD_MLINESTYLE
350
289
0
DICTIONARY
5
288
330
0
100
AcDbDictionary
280
0
281
1
0
DICTIONARY
5
289
330
0
100
AcDbDictionary
280
0
281
1
3
Standard
350
18
0
MLINESTYLE
5
18
330
289
100
AcDbMlineStyle
2
Standard
70
0
3

62
256
51
90
52
90
71
2
49
-0.5
62
256
6
ByLayer
49
0.5
62
256
6
ByLayer
0
RASTERVARIABLES
5
275
330

100
AcDbRasterVariables
90
0
70
1
71
1
72
1
0
ENDSEC
0
EOF
