0
SECTION
2
HEADER
9
$ACADVER
1
AC1015
9
$DWGCODEPAGE
3
ANSI_1252
9
$HANDSEED
5
2aa
9
$ANGBASE
50
0
9
$ANGDIR
70
0
9
$ATTMODE
70
1
9
$AUNITS
70
0
9
$AUPREC
70
0
9
$CECOLOR
62
256
9
$CELTSCALE
40
1
9
$CELTYPE
6
ByLayer
9
$CELWEIGHT
370
18
9
$CLAYER
8
0
9
$CMLJUST
70
0
9
$CMLSCALE
40
1
9
$CMLSTYLE
2
Standard
9
$DIMSTYLE
2
Standard
9
$TEXTSIZE
40
0.2
9
$TEXTSTYLE
7
Standard
9
$LUNITS
70
2
9
$LUPREC
70
4
9
$EXTNAMES
290
1
9
$INSUNITS
70
4
9
$LTSCALE
40
1
9
$LWDISPLAY
290
1
9
$PDMODE
70
0
9
$PDSIZE
40
0
9
$PLINEGEN
70
0
0
ENDSEC
0
SECTION
2
CLASSES
0
CLASS
1
RASTERVARIABLES
2
AcDbRasterVariables
3
ISM
90
0
280
0
281
0
0
ENDSEC
0
SECTION
2
TABLES
0
TABLE
2
VPORT
5
2a0
100
AcDbSymbolTable
0
VPORT
5
1
100
AcDbSymbolTableRecord
100
AcDbViewportTableRecord
2
*Active
70
0
10
0
20
0
11
1
21
1
12
-1
22
1
13
0
23
0
14
0.5
24
0.5
15
10
25
10
16
0
26
0
36
1
17
0
27
0
37
0
0
ENDTAB
0
TABLE
2
LTYPE
5
2a1
100
AcDbSymbolTable
0
LTYPE
5
14
100
AcDbSymbolTableRecord
100
AcDbLinetypeTableRecord
70
0
2
ByBlock
3

72
65
73
0
40
0
0
LTYPE
5
15
100
AcDbSymbolTableRecord
100
AcDbLinetypeTableRecord
70
0
2
ByLayer
3

72
65
73
0
40
0
0
LTYPE
5
16
100
AcDbSymbolTableRecord
100
AcDbLinetypeTableRecord
70
0
2
Continuous
3
Solid line
72
65
73
0
40
0
0
LTYPE
5
6E
100
AcDbSymbolTableRecord
100
AcDbLinetypeTableRecord
70
0
2
CENTER
3
____ _ ____ _ ____ _ ____
72
65
73
4
40
47.5
49
22
74
0
49
-8.5
74
0
49
8.5
74
0
49
-8.5
74
0
0
LTYPE
5
6F
100
AcDbSymbolTableRecord
100
AcDbLinetypeTableRecord
70
0
2
DASHED
3
__ __ __ __ __ __ __ __ __
72
65
73
2
40
25.72
49
12.86
74
0
49
-12.86
74
0
0
ENDTAB
0
TABLE
2
LAYER
5
2a2
100
AcDbSymbolTable
0
LAYER
5
10
100
AcDbSymbolTableRecord
100
AcDbLayerTableRecord
2
0
70
0
62
7
6
Continuous
290
1
370
-3
390
0
0
LAYER
5
71
100
AcDbSymbolTableRecord
100
AcDbLayerTableRecord
2
80
70
0
62
-6
6
Continuous
290
1
370
-3
390
0
0
LAYER
5
73
100
AcDbSymbolTableRecord
100
AcDbLayerTableRecord
2
81
70
0
62
-3
6
Continuous
290
1
370
-3
390
0
0
LAYER
5
75
100
AcDbSymbolTableRecord
100
AcDbLayerTableRecord
2
1
70
0
62
4
6
Continuous
290
1
370
-3
390
0
0
LAYER
5
7B
100
AcDbSymbolTableRecord
100
AcDbLayerTableRecord
2
4
70
0
62
-2
6
CENTER
290
1
370
-3
390
0
0
LAYER
5
E4
100
AcDbSymbolTableRecord
100
AcDbLayerTableRecord
2
2
70
0
62
7
6
Continuous
290
1
370
-3
390
0
0
LAYER
5
1FE
100
AcDbSymbolTableRecord
100
AcDbLayerTableRecord
2
Defpoints
70
0
62
7
6
Continuous
290
0
370
-3
390
0
0
LAYER
5
28c
100
AcDbSymbolTableRecord
100
AcDbLayerTableRecord
2
SK4
70
0
62
2
6
CENTER
290
1
370
-3
390
0
0
LAYER
5
28d
100
AcDbSymbolTableRecord
100
AcDbLayerTableRecord
2
SK1
70
0
62
4
6
Continuous
290
1
370
-3
390
0
0
LAYER
5
28e
100
AcDbSymbolTableRecord
100
AcDbLayerTableRecord
2
SK2
70
0
62
7
6
Continuous
290
1
370
-3
390
0
0
LAYER
5
28f
100
AcDbSymbolTableRecord
100
AcDbLayerTableRecord
2
SK6
70
0
62
5
6
Continuous
290
1
370
-3
390
0
0
ENDTAB
0
TABLE
2
STYLE
5
2a3
100
AcDbSymbolTable
0
STYLE
5
11
100
AcDbSymbolTableRecord
100
AcDbTextStyleTableRecord
2
Standard
3
txt
70
0
71
0
40
0
41
1
42
0
50
0
0
STYLE
5
1D0
100
AcDbSymbolTableRecord
100
AcDbTextStyleTableRecord
2
iso_b_vert
3
simplex.shx
70
0
71
0
40
0
41
1
42
0
50
0
0
STYLE
5
1D1
100
AcDbSymbolTableRecord
100
AcDbTextStyleTableRecord
2
DWGDirectTextStyle
3
simplex
70
0
71
0
40
0
41
1
42
0
50
0
0
ENDTAB
0
TABLE
2
DIMSTYLE
5
2a4
100
AcDbSymbolTable
100
AcDbDimStyleTable
0
DIMSTYLE
105
27
100
AcDbSymbolTableRecord
100
AcDbDimStyleTableRecord
2
Standard
70
0
3
<>
41
0.18
42
0.0625
44
0.18
140
0.18
147
0.09
73
0
74
0
77
1
271
2
275
0
278
52
280
0
340
11
0
ENDTAB
0
TABLE
2
VIEW
5
2a5
100
AcDbSymbolTable
0
ENDTAB
0
TABLE
2
UCS
5
2a6
100
AcDbSymbolTable
0
ENDTAB
0
TABLE
2
APPID
5
2a7
100
AcDbSymbolTable
0
APPID
5
12
100
AcDbSymbolTableRecord
100
AcDbRegAppTableRecord
2
ACAD
70
0
0
APPID
5
1FA
100
AcDbSymbolTableRecord
100
AcDbRegAppTableRecord
2
ACAD_DSTYLE_DIMBREAK
70
0
0
APPID
5
24B
100
AcDbSymbolTableRecord
100
AcDbRegAppTableRecord
2
ACAD_DSTYLE_DIM_LINETYPE
70
0
0
APPID
5
24C
100
AcDbSymbolTableRecord
100
AcDbRegAppTableRecord
2
ACAD_DSTYLE_DIM_EXT1_LINETYPE
70
0
0
APPID
5
24D
100
AcDbSymbolTableRecord
100
AcDbRegAppTableRecord
2
ACAD_DSTYLE_DIM_EXT2_LINETYPE
70
0
0
APPID
5
288
100
AcDbSymbolTableRecord
100
AcDbRegAppTableRecord
2
ACAD_MLEADERVER
70
0
0
ENDTAB
0
TABLE
2
BLOCK_RECORD
5
2a8
100
AcDbSymbolTable
0
BLOCK_RECORD
5
1F
100
AcDbSymbolTableRecord
100
AcDbBlockTableRecord
2
*Model_Space
340
0
70
0
0
BLOCK_RECORD
5
1B
100
AcDbSymbolTableRecord
100
AcDbBlockTableRecord
2
*Paper_Space
340
0
70
0
0
BLOCK_RECORD
5
23
100
AcDbSymbolTableRecord
100
AcDbBlockTableRecord
2
*Paper_Space0
340
0
70
0
0
BLOCK_RECORD
5
1FF
100
AcDbSymbolTableRecord
100
AcDbBlockTableRecord
2
*D1
340
0
70
0
0
BLOCK_RECORD
5
20C
100
AcDbSymbolTableRecord
100
AcDbBlockTableRecord
2
_U0
340
0
70
0
0
BLOCK_RECORD
5
218
100
AcDbSymbolTableRecord
100
AcDbBlockTableRecord
2
*D3
340
0
70
0
0
BLOCK_RECORD
5
224
100
AcDbSymbolTableRecord
100
AcDbBlockTableRecord
2
_U1
340
0
70
0
0
ENDTAB
0
ENDSEC
0
SECTION
2
BLOCKS
0
BLOCK
5
20
100
AcDbEntity
8
0
100
AcDbBlockBegin
2
*Model_Space
70
0
10
0
20
0
30
0
3
*Model_Space
0
ENDBLK
5
21
100
AcDbEntity
8
0
100
AcDbBlockEnd
0
BLOCK
5
1C
100
AcDbEntity
8
0
100
AcDbBlockBegin
2
*Paper_Space
70
0
10
0
20
0
30
0
3
*Paper_Space
0
ENDBLK
5
1D
100
AcDbEntity
8
0
100
AcDbBlockEnd
0
BLOCK
5
24
100
AcDbEntity
8
0
100
AcDbBlockBegin
2
*Paper_Space0
70
0
10
0
20
0
30
0
3
*Paper_Space0
0
ENDBLK
5
25
100
AcDbEntity
8
0
100
AcDbBlockEnd
0
BLOCK
5
200
100
AcDbEntity
8
0
100
AcDbBlockBegin
2
*D1
70
1
10
0
20
0
30
0
3
*D1
0
LINE
5
202
100
AcDbEntity
8
0
62
256
6
ByLayer
370
-2
48
1
60
0
100
AcDbLine
10
21
20
-4.5875
30
0
11
21
21
-19.575009
31
0
39
0
210
0
220
0
230
1
0
LINE
5
203
100
AcDbEntity
8
0
62
256
6
ByLayer
370
-2
48
1
60
0
100
AcDbLine
10
9
20
-4.5875
30
0
11
9
21
-19.575009
31
0
39
0
210
0
220
0
230
1
0
LINE
5
204
100
AcDbEntity
8
0
62
256
6
ByLayer
370
-2
48
1
60
0
100
AcDbLine
10
24.5
20
-17.575009
30
0
11
28
21
-17.575009
31
0
39
0
210
0
220
0
230
1
0
LINE
5
205
100
AcDbEntity
8
0
62
256
6
ByLayer
370
-2
48
1
60
0
100
AcDbLine
10
5.5
20
-17.575009
30
0
11
2
21
-17.575009
31
0
39
0
210
0
220
0
230
1
0
SOLID
5
206
100
AcDbEntity
8
0
62
256
6
ByLayer
370
-1
48
1
60
0
100
AcDbTrace
10
24.5
20
-16.991675
30
0
11
24.5
21
-18.158342
31
0
12
21
22
-17.575009
32
0
13
21
23
-17.575009
33
0
39
0
210
0
220
0
230
1
0
SOLID
5
207
100
AcDbEntity
8
0
62
256
6
ByLayer
370
-1
48
1
60
0
100
AcDbTrace
10
5.5
20
-18.158342
30
0
11
5.5
21
-16.991675
31
0
12
9
22
-17.575009
32
0
13
9
23
-17.575009
33
0
39
0
210
0
220
0
230
1
0
MTEXT
5
208
100
AcDbEntity
8
0
62
256
6
ByLayer
370
18
48
1
60
0
100
AcDbMText
10
15
20
-10.575009
30
0
210
0
220
0
230
1
1
\A1;12
40
3.5
41
0
44
1
50
0
71
5
72
5
7
iso_b_vert
0
POINT
5
209
100
AcDbEntity
8
Defpoints
62
0
6
ByLayer
370
-1
48
1
60
0
100
AcDbPoint
10
21
20
-3
30
0
39
0
210
0
220
0
230
1
50
360
0
POINT
5
20A
100
AcDbEntity
8
Defpoints
62
0
6
ByLayer
370
-1
48
1
60
0
100
AcDbPoint
10
9
20
-3
30
0
39
0
210
0
220
0
230
1
50
360
0
POINT
5
20B
100
AcDbEntity
8
Defpoints
62
0
6
ByLayer
370
-1
48
1
60
0
100
AcDbPoint
10
9
20
-17.575009
30
0
39
0
210
0
220
0
230
1
50
360
0
ENDBLK
5
201
100
AcDbEntity
8
0
100
AcDbBlockEnd
0
BLOCK
5
213
100
AcDbEntity
8
0
100
AcDbBlockBegin
2
_U0
70
0
10
0
20
0
30
0
3
_U0
0
MTEXT
5
20D
100
AcDbEntity
8
2
62
256
6
ByLayer
370
18
48
1
60
0
100
AcDbMText
10
13.532467
20
-16.542375
30
0
210
0
220
0
230
1
1
\W0.5321;12
40
3.5
41
0
44
1.084337
50
0
71
7
72
5
7
iso_b_vert
0
LINE
5
20E
100
AcDbEntity
8
2
62
256
6
ByLayer
370
13
48
1
60
0
100
AcDbLine
10
21
20
-4.5875
30
0
11
21
21
-19.575009
31
0
39
0
210
0
220
0
230
1
0
LINE
5
20F
100
AcDbEntity
8
2
62
256
6
ByLayer
370
13
48
1
60
0
100
AcDbLine
10
9
20
-4.5875
30
0
11
9
21
-19.575009
31
0
39
0
210
0
220
0
230
1
0
LINE
5
210
100
AcDbEntity
8
2
62
256
6
ByLayer
370
13
48
1
60
0
100
AcDbLine
10
21
20
-17.575009
30
0
11
9
21
-17.575009
31
0
39
0
210
0
220
0
230
1
0
SOLID
5
211
100
AcDbEntity
8
2
62
256
6
ByLayer
370
18
48
1
60
0
100
AcDbTrace
10
21
20
-17.575009
30
0
11
17.500002
21
-18.035792
31
0
12
17.499998
22
-17.114225
32
0
13
17.499998
23
-17.114225
33
0
39
0
210
0
220
0
230
1
0
SOLID
5
212
100
AcDbEntity
8
2
62
256
6
ByLayer
370
18
48
1
60
0
100
AcDbTrace
10
9
20
-17.575009
30
0
11
12.499998
21
-17.114225
31
0
12
12.500002
22
-18.035792
32
0
13
12.500002
23
-18.035792
33
0
39
0
210
0
220
0
230
1
0
ENDBLK
5
214
100
AcDbEntity
8
0
100
AcDbBlockEnd
0
BLOCK
5
219
100
AcDbEntity
8
0
100
AcDbBlockBegin
2
*D3
70
1
10
0
20
0
30
0
3
*D3
0
LINE
5
21B
100
AcDbEntity
8
0
62
256
6
ByLayer
370
-2
48
1
60
0
100
AcDbLine
10
21
20
-4.5875
30
0
11
21
21
-34.575009
31
0
39
0
210
0
220
0
230
1
0
LINE
5
21C
100
AcDbEntity
8
0
62
256
6
ByLayer
370
-2
48
1
60
0
100
AcDbLine
10
2.996857
20
-4.4675
30
0
11
2.996857
21
-34.575009
31
0
39
0
210
0
220
0
230
1
0
LINE
5
21D
100
AcDbEntity
8
0
62
256
6
ByLayer
370
-2
48
1
60
0
100
AcDbLine
10
17.5
20
-32.575009
30
0
11
6.496857
21
-32.575009
31
0
39
0
210
0
220
0
230
1
0
SOLID
5
21E
100
AcDbEntity
8
0
62
256
6
ByLayer
370
-1
48
1
60
0
100
AcDbTrace
10
17.5
20
-33.158342
30
0
11
17.5
21
-31.991675
31
0
12
21
22
-32.575009
32
0
13
21
23
-32.575009
33
0
39
0
210
0
220
0
230
1
0
SOLID
5
21F
100
AcDbEntity
8
0
62
256
6
ByLayer
370
-1
48
1
60
0
100
AcDbTrace
10
6.496857
20
-31.991675
30
0
11
6.496857
21
-33.158342
31
0
12
2.996857
22
-32.575009
32
0
13
2.996857
23
-32.575009
33
0
39
0
210
0
220
0
230
1
0
MTEXT
5
220
100
AcDbEntity
8
0
62
256
6
ByLayer
370
18
48
1
60
0
100
AcDbMText
10
11.998429
20
-25.575009
30
0
210
0
220
0
230
1
1
\A1;18
40
3.5
41
0
44
1
50
0
71
5
72
5
7
iso_b_vert
0
POINT
5
221
100
AcDbEntity
8
Defpoints
62
0
6
ByLayer
370
-1
48
1
60
0
100
AcDbPoint
10
21
20
-3
30
0
39
0
210
0
220
0
230
1
50
360
0
POINT
5
222
100
AcDbEntity
8
Defpoints
62
0
6
ByLayer
370
-1
48
1
60
0
100
AcDbPoint
10
2.996857
20
-2.88
30
0
39
0
210
0
220
0
230
1
50
360
0
POINT
5
223
100
AcDbEntity
8
Defpoints
62
0
6
ByLayer
370
-1
48
1
60
0
100
AcDbPoint
10
2.996857
20
-32.575009
30
0
39
0
210
0
220
0
230
1
50
360
0
ENDBLK
5
21A
100
AcDbEntity
8
0
100
AcDbBlockEnd
0
BLOCK
5
22B
100
AcDbEntity
8
0
100
AcDbBlockBegin
2
_U1
70
0
10
0
20
0
30
0
3
_U1
0
MTEXT
5
225
100
AcDbEntity
8
SK2
62
256
6
ByLayer
370
18
48
1
60
0
100
AcDbMText
10
10.530896
20
-31.542375
30
0
210
0
220
0
230
1
1
\W0.5321;18
40
3.5
41
0
44
1.084337
50
0
71
7
72
5
7
iso_b_vert
0
LINE
5
226
100
AcDbEntity
8
SK2
62
256
6
ByLayer
370
13
48
1
60
0
100
AcDbLine
10
21
20
-4.5875
30
0
11
21
21
-34.575009
31
0
39
0
210
0
220
0
230
1
0
LINE
5
227
100
AcDbEntity
8
SK2
62
256
6
ByLayer
370
13
48
1
60
0
100
AcDbLine
10
2.996857
20
-4.4675
30
0
11
2.996857
21
-34.575009
31
0
39
0
210
0
220
0
230
1
0
LINE
5
228
100
AcDbEntity
8
SK2
62
256
6
ByLayer
370
13
48
1
60
0
100
AcDbLine
10
21
20
-32.575009
30
0
11
2.996857
21
-32.575009
31
0
39
0
210
0
220
0
230
1
0
SOLID
5
229
100
AcDbEntity
8
SK2
62
256
6
ByLayer
370
18
48
1
60
0
100
AcDbTrace
10
21
20
-32.575009
30
0
11
17.500002
21
-33.035792
31
0
12
17.499998
22
-32.114225
32
0
13
17.499998
23
-32.114225
33
0
39
0
210
0
220
0
230
1
0
SOLID
5
22A
100
AcDbEntity
8
SK2
62
256
6
ByLayer
370
18
48
1
60
0
100
AcDbTrace
10
2.996857
20
-32.575009
30
0
11
6.496856
21
-32.114225
31
0
12
6.496859
22
-33.035792
32
0
13
6.496859
23
-33.035792
33
0
39
0
210
0
220
0
230
1
0
ENDBLK
5
22C
100
AcDbEntity
8
0
100
AcDbBlockEnd
0
ENDSEC
0
SECTION
2
ENTITIES
0
ARC
5
F6
100
AcDbEntity
8
1
62
256
6
ByLayer
370
18
48
1
60
0
100
AcDbCircle
39
0
10
8.525026
20
-3.88
30
0
40
1
210
0
220
0
230
1
100
AcDbArc
50
69.123607
51
90
0
ARC
5
F7
100
AcDbEntity
8
1
62
256
6
ByLayer
370
18
48
1
60
0
100
AcDbCircle
39
0
10
2.996857
20
3.88
30
0
40
1
210
0
220
0
230
1
100
AcDbArc
50
241.642363
51
270
0
ARC
5
F8
100
AcDbEntity
8
1
62
256
6
ByLayer
370
18
48
1
60
0
100
AcDbCircle
39
0
10
2.996857
20
-3.88
30
0
40
1
210
0
220
0
230
1
100
AcDbArc
50
90
51
118.357637
0
ELLIPSE
5
F9
100
AcDbEntity
8
1
62
256
6
ByLayer
370
18
48
1
60
0
100
AcDbEllipse
10
20.974003
20
0.810744
30
0
11
0.428714315667638
21
4.30513033550641
31
0
210
0
220
0
230
1
40
0.002745
41
1.59092664829597
42
1.63519407439985
0
ELLIPSE
5
FA
100
AcDbEntity
8
1
62
256
6
ByLayer
370
18
48
1
60
0
100
AcDbEllipse
10
20.932709
20
-0.566338
30
0
11
0.017442056705857
21
-0.390755917467923
31
0
210
0
220
0
230
1
40
0.55891
41
-2.73024938737026
42
-1.2677302881494
0
ELLIPSE
5
FB
100
AcDbEntity
8
1
62
256
6
ByLayer
370
18
48
1
60
0
100
AcDbEllipse
10
20.7001
20
-0.528874
30
0
11
0.209037006741933
21
-0.166665764406001
31
0
210
0
220
0
230
1
40
0.383873
41
-1.79053804837444
42
-1.69567918768129
0
POINT
5
70
100
AcDbEntity
8
80
62
256
6
ByLayer
370
18
48
1
60
0
100
AcDbPoint
10
0
20
0
30
0
39
0
210
0
220
0
230
1
50
360
0
POINT
5
72
100
AcDbEntity
8
81
62
256
6
ByLayer
370
18
48
1
60
0
100
AcDbPoint
10
21
20
0
30
0
39
0
210
0
220
0
230
1
50
360
0
POINT
5
74
100
AcDbEntity
8
1
62
256
6
ByLayer
370
18
48
1
60
1
100
AcDbPoint
10
21
20
-3
30
0
39
0
210
0
220
0
230
1
50
360
0
POINT
5
76
100
AcDbEntity
8
1
62
256
6
ByLayer
370
18
48
1
60
1
100
AcDbPoint
10
9
20
-3
30
0
39
0
210
0
220
0
230
1
50
360
0
POINT
5
77
100
AcDbEntity
8
1
62
256
6
ByLayer
370
18
48
1
60
1
100
AcDbPoint
10
21
20
-3
30
0
39
0
210
0
220
0
230
1
50
360
0
POINT
5
78
100
AcDbEntity
8
1
62
256
6
ByLayer
370
18
48
1
60
1
100
AcDbPoint
10
2.996857
20
-2.88
30
0
39
0
210
0
220
0
230
1
50
360
0
SPLINE
5
FC
100
AcDbEntity
8
1
62
256
6
ByLayer
370
18
48
1
60
0
100
AcDbSpline
70
4
71
3
72
10
73
6
40
0
40
0
40
0
40
0
40
0.615671254770691
40
0.615671254770691
40
1
40
1
40
1
40
1
41
1
10
20.9728487033792
20
-0.674309310377424
30
0
41
1
10
20.9741365409587
20
-0.693081512959736
30
0
41
1
10
20.9720117089769
20
-0.711934479337771
30
0
41
1
10
20.9634628694623
20
-0.74267692537714
30
0
41
1
10
20.9589511666734
20
-0.754521148706743
30
0
41
1
10
20.9532225771184
20
-0.766394170715245
30
0
0
SPLINE
5
FD
100
AcDbEntity
8
1
62
256
6
ByLayer
370
18
48
1
60
0
100
AcDbSpline
70
4
71
3
72
10
73
6
40
0
40
0
40
0
40
0
40
0.132555102821351
40
0.132555102821351
40
1
40
1
40
1
40
1
41
1
10
8.86466450247795
20
2.71235595933044
30
0
41
1
10
8.87077312059867
20
2.71600387858075
30
0
41
1
10
8.87686489862111
20
2.71970021588052
30
0
41
1
10
8.9226940498651
20
2.74795185784285
30
0
41
1
10
8.96172538714305
20
2.7745371318461
30
0
41
1
10
8.99997471410563
20
2.80337081399151
30
0
0
SPLINE
5
FE
100
AcDbEntity
8
1
62
256
6
ByLayer
370
18
48
1
60
0
100
AcDbSpline
70
4
71
3
72
10
73
6
40
0
40
0
40
0
40
0
40
0.967231355572464
40
0.967231355572464
40
1
40
1
40
1
40
1
41
1
10
20.9728487033788
20
1.10394282542535
30
0
41
1
10
20.9741064286883
20
1.12863024225584
30
0
41
1
10
20.9721190879518
20
1.15282789431092
30
0
41
1
10
20.9669862524397
20
1.17738075870568
30
0
41
1
10
20.9668146307582
20
1.1781848057737
30
0
41
1
10
20.9666395853174
20
1.17898833610749
30
0
0
SPLINE
5
FF
100
AcDbEntity
8
1
62
256
6
ByLayer
370
18
48
1
60
0
100
AcDbSpline
70
4
71
3
72
8
73
4
40
0
40
0
40
0
40
0
40
1
40
1
40
1
40
1
41
1
10
20.9728487033826
20
-0.674309310386946
30
0
41
1
10
20.9621704357996
20
-0.742237456886556
30
0
41
1
10
20.9514921682167
20
-0.810165603386139
30
0
41
1
10
20.9408139006337
20
-0.878093749885721
30
0
0
SPLINE
5
100
100
AcDbEntity
8
1
62
256
6
ByLayer
370
18
48
1
60
0
100
AcDbSpline
70
4
71
3
72
12
73
8
40
0
40
0
40
0
40
0
40
0.249999993082021
40
0.249999993082021
40
0.624999992125986
40
0.624999992125986
40
1
40
1
40
1
40
1
41
1
10
20.9535567571764
20
0.725262689124492
30
0
41
1
10
20.9535627370588
20
0.725381031617133
30
0
41
1
10
20.9535687231073
20
0.725499373798328
30
0
41
1
10
20.9535837036036
20
0.725795228476613
30
0
41
1
10
20.9535927057384
20
0.725972740585178
30
0
41
1
10
20.9536107375721
20
0.726327763405379
30
0
41
1
10
20.9536197672711
20
0.726505274118097
30
0
41
1
10
20.9536288106974
20
0.726682784130929
30
0
0
SPLINE
5
101
100
AcDbEntity
8
1
62
256
6
ByLayer
370
18
48
1
60
0
100
AcDbSpline
70
4
71
3
72
10
73
6
40
0
40
0
40
0
40
0
40
0.5
40
0.5
40
1
40
1
40
1
40
1
41
1
10
20.168378199949
20
2.93485573981101
30
0
41
1
10
20.2209669559888
20
2.93775908995784
30
0
41
1
10
20.2731583857699
20
2.93624617125917
30
0
41
1
10
20.377091876455
20
2.92298352430174
30
0
41
1
10
20.4288314159587
20
2.91127951440268
30
0
41
1
10
20.4805276873259
20
2.89286865032531
30
0
0
SPLINE
5
102
100
AcDbEntity
8
1
62
256
6
ByLayer
370
18
48
1
60
0
100
AcDbSpline
70
4
71
3
72
10
73
6
40
0
40
0
40
0
40
0
40
0.0164740313338544
40
0.0164740313338544
40
1
40
1
40
1
40
1
41
1
10
19.4624400317967
20
2.77896113929634
30
0
41
1
10
19.4663288539784
20
2.78006703032986
30
0
41
1
10
19.4702173418389
20
2.78116883666885
30
0
41
1
10
19.7062348859598
20
2.84780221147579
30
0
41
1
10
19.9372111252579
20
2.898775116889
30
0
41
1
10
20.1683781999493
20
2.93485573981283
30
0
0
SPLINE
5
103
100
AcDbEntity
8
1
62
256
6
ByLayer
370
18
48
1
60
0
100
AcDbSpline
70
4
71
3
72
27
73
23
40
0
40
0
40
0
40
0
40
0.125000000000005
40
0.125000000000005
40
0.25000000000001
40
0.25000000000001
40
0.312500000000012
40
0.312500000000012
40
0.375000000000015
40
0.375000000000015
40
0.500000000000015
40
0.625000000000014
40
0.625000000000014
40
0.687500000000015
40
0.687500000000015
40
0.750000000000015
40
0.750000000000015
40
0.875000000000015
40
0.875000000000015
40
0.937500000000007
40
0.937500000000007
40
1
40
1
40
1
40
1
41
1
10
20.9728487033792
20
-1.85986252568878
30
0
41
1
10
20.9741064293285
20
-1.90534828060689
30
0
41
1
10
20.9721190859499
20
-1.95045861595531
30
0
41
1
10
20.9621897958859
20
-2.03999040313795
30
0
41
1
10
20.9542405699164
20
-2.0844110128495
30
0
41
1
10
20.9379116239589
20
-2.150532303966
30
0
41
1
10
20.9317317445831
20
-2.17248748324428
30
0
41
1
10
20.9178764063261
20
-2.21622481935478
30
0
41
1
10
20.9102119311839
20
-2.23795377362424
30
0
41
1
10
20.885306664619
20
-2.30199418446503
30
0
41
1
10
20.8468474210549
20
-2.38490372175843
30
0
41
1
10
20.7980808690378
20
-2.46295090074238
30
0
41
1
10
20.7574747486901
20
-2.51958460815473
30
0
41
1
10
20.7432263579424
20
-2.53818402534975
30
0
41
1
10
20.7137606646835
20
-2.57420803682436
30
0
41
1
10
20.6985033947836
20
-2.59169433636578
30
0
41
1
10
20.6511688253628
20
-2.64258665220373
30
0
41
1
10
20.617536817334
20
-2.67443415662362
30
0
41
1
10
20.563874934471
20
-2.71898368016485
30
0
41
1
10
20.5454500451168
20
-2.73329461113053
30
0
41
1
10
20.5074821470979
20
-2.76079561843432
30
0
41
1
10
20.4878881426502
20
-2.77401733328097
30
0
41
1
10
20.4678213744692
20
-2.78657344040082
30
0
0
SPLINE
5
104
100
AcDbEntity
8
1
62
256
6
ByLayer
370
18
48
1
60
0
100
AcDbSpline
70
4
71
3
72
25
73
21
40
0
40
0
40
0
40
0
40
0.124999999999996
40
0.124999999999996
40
0.249999999999993
40
0.249999999999993
40
0.312499999999991
40
0.312499999999991
40
0.374999999999989
40
0.374999999999989
40
0.499999999999986
40
0.624999999999982
40
0.624999999999982
40
0.687499999999985
40
0.687499999999985
40
0.749999999999988
40
0.749999999999988
40
0.874999999999994
40
0.874999999999994
40
1
40
1
40
1
40
1
41
1
10
20.9728487033788
20
1.96250748347049
30
0
41
1
10
20.9740918797052
20
2.00893251966448
30
0
41
1
10
20.9721695121919
20
2.05485513373725
30
0
41
1
10
20.9625231037558
20
2.14577954404339
30
0
41
1
10
20.9547920604921
20
2.19078022890861
30
0
41
1
10
20.9389107894235
20
2.25760120521483
30
0
41
1
10
20.9329003655225
20
2.27976111755581
30
0
41
1
10
20.9194274462671
20
2.32385047541186
30
0
41
1
10
20.9119613089501
20
2.34576961229041
30
0
41
1
10
20.887702381335
20
2.41028240098853
30
0
41
1
10
20.8502385793527
20
2.49360891356514
30
0
41
1
10
20.8027512952814
20
2.57166665084432
30
0
41
1
10
20.7632303243517
20
2.6281570501082
30
0
41
1
10
20.7493493481151
20
2.64670754403787
30
0
41
1
10
20.720577471088
20
2.68266579275496
30
0
41
1
10
20.7056793033733
20
2.7000948043281
30
0
41
1
10
20.6594609427107
20
2.75074527966683
30
0
41
1
10
20.6266245093183
20
2.7823383644716
30
0
41
1
10
20.5567903416047
20
2.8410554705448
30
0
41
1
10
20.5197949480117
20
2.86818200565773
30
0
41
1
10
20.4805276873247
20
2.89286865032224
30
0
0
SPLINE
5
105
100
AcDbEntity
8
1
62
256
6
ByLayer
370
18
48
1
60
0
100
AcDbSpline
70
4
71
3
72
8
73
4
40
0
40
0
40
0
40
0
40
1
40
1
40
1
40
1
41
1
10
20.480527687315
20
2.89286865032045
30
0
41
1
10
20.4937074569328
20
2.85100745649396
30
0
41
1
10
20.5074892435392
20
2.80934355480099
30
0
41
1
10
20.5219532245752
20
2.76790322251605
30
0
0
SPLINE
5
106
100
AcDbEntity
8
1
62
256
6
ByLayer
370
18
48
1
60
0
100
AcDbSpline
70
4
71
3
72
37
73
33
40
0
40
0
40
0
40
0
40
0.0262385733885447
40
0.0526391901833697
40
0.0791494290051458
40
0.10576371433286
40
0.132476476399813
40
0.159282150989881
40
0.186175167382069
40
0.213149941619186
40
0.291546705516148
40
0.372007733663741
40
0.454373458576194
40
0.538485304454618
40
0.613615427169447
40
0.693018134336085
40
0.776532592871665
40
0.864009628761384
40
0.870646802809066
40
0.87776211257469
40
0.885354484109893
40
0.893422784458632
40
0.90196582591314
40
0.910982370566441
40
0.920471135214841
40
0.930430796655071
40
0.940859997411668
40
0.951757351923864
40
0.963121453211015
40
0.974950880023711
40
0.987244204472584
40
1
40
1
40
1
40
1
41
1
10
20.9155056384219
20
-2.01254594389977
30
0
41
1
10
20.9143240778555
20
-2.02296256525514
30
0
41
1
10
20.9116454252271
20
-2.04384279886707
30
0
41
1
10
20.906604528311
20
-2.07515705693925
30
0
41
1
10
20.9005512712846
20
-2.10650680324363
30
0
41
1
10
20.893481850341
20
-2.13783528503112
30
0
41
1
10
20.8853994291695
20
-2.16910410495268
30
0
41
1
10
20.8763064780948
20
-2.20027454525879
30
0
41
1
10
20.866207138475
20
-2.23130871073715
30
0
41
1
10
20.8480656676281
20
-2.28174498029182
30
0
41
1
10
20.8182646423063
20
-2.35129787614733
30
0
41
1
10
20.7715098792637
20
-2.4381966628487
30
0
41
1
10
20.715568984375
20
-2.52284073789548
30
0
41
1
10
20.6532049776516
20
-2.60054309185077
30
0
41
1
10
20.5849045885486
20
-2.67168258259855
30
0
41
1
10
20.5107324300147
20
-2.73658061882017
30
0
41
1
10
20.4266530024604
20
-2.79734965526799
30
0
41
1
10
20.3630156074974
20
-2.83432383025536
30
0
41
1
10
20.3257476312703
20
-2.85327269442149
30
0
41
1
10
20.3178577123557
20
-2.85720338162122
30
0
41
1
10
20.3094036959995
20
-2.86132278253143
30
0
41
1
10
20.3003807308926
20
-2.86561518898898
30
0
41
1
10
20.2907840798879
20
-2.87006368798609
30
0
41
1
10
20.2806089870699
20
-2.87465028504329
30
0
41
1
10
20.2698507875093
20
-2.87935585983868
30
0
41
1
10
20.2585049395368
20
-2.8841601357467
30
0
41
1
10
20.2465671239326
20
-2.8890417936837
30
0
41
1
10
20.2340331652061
20
-2.89397795934767
30
0
41
1
10
20.2208996544757
20
-2.89894621375581
30
0
41
1
10
20.2071618037552
20
-2.90391658057311
30
0
41
1
10
20.1928222863643
20
-2.90888325903958
30
0
41
1
10
20.1830256972984
20
-2.91206199643051
30
0
41
1
10
20.1780369676699
20
-2.91368070895345
30
0
0
SPLINE
5
107
100
AcDbEntity
8
1
62
256
6
ByLayer
370
18
48
1
60
0
100
AcDbSpline
70
4
71
3
72
19
73
15
40
0
40
0
40
0
40
0
40
0.336629708734713
40
0.336629708734713
40
0.420787135918391
40
0.420787135918391
40
0.504944563102068
40
0.673259417469421
40
0.673259417469421
40
0.757416844653099
40
0.757416844653099
40
0.841574271836777
40
0.841574271836777
40
1
40
1
40
1
40
1
41
1
10
20.5219531950584
20
2.76790321184424
30
0
41
1
10
20.5368102057125
20
2.72533722282029
30
0
41
1
10
20.5468963760562
20
2.68181040784086
30
0
41
1
10
20.5518231805147
20
2.62585498366764
30
0
41
1
10
20.5524194056854
20
2.61455012663168
30
0
41
1
10
20.5527629262297
20
2.591932564019
30
0
41
1
10
20.5520082645922
20
2.55819651156608
30
0
41
1
10
20.5474016239694
20
2.52503764962032
30
0
41
1
10
20.5401253482255
20
2.49227881271574
30
0
41
1
10
20.5372544843196
20
2.48142594609706
30
0
41
1
10
20.5305988315481
20
2.45985715774128
30
0
41
1
10
20.5267937679426
20
2.44909275862409
30
0
41
1
10
20.5146196921995
20
2.41863088493235
30
0
41
1
10
20.505247994613
20
2.3995304827564
30
0
41
1
10
20.4945883850224
20
2.38114929521885
30
0
0
SPLINE
5
108
100
AcDbEntity
8
1
62
256
6
ByLayer
370
13
48
1
60
0
100
AcDbSpline
70
4
71
3
72
9
73
5
40
0
40
0
40
0
40
0
40
0.435832027104331
40
1
40
1
40
1
40
1
41
1
10
20.5219531998996
20
2.76790321073759
30
0
41
1
10
20.4313021332664
20
2.75921699377733
30
0
41
1
10
20.2233067107282
20
2.73428920054755
30
0
41
1
10
20.0153112881902
20
2.69821311513735
30
0
41
1
10
19.8979669322853
20
2.67444384070038
30
0
0
SPLINE
5
109
100
AcDbEntity
8
1
62
256
6
ByLayer
370
13
48
1
60
0
100
AcDbSpline
70
4
71
3
72
8
73
4
40
0
40
0
40
0
40
0
40
1
40
1
40
1
40
1
41
1
10
19.4559924482216
20
2.56902381053769
30
0
41
1
10
19.4460308898032
20
2.5662954119523
30
0
41
1
10
19.4360693313848
20
2.56354356840728
30
0
41
1
10
19.4261077729665
20
2.56076834730357
30
0
0
SPLINE
5
10A
100
AcDbEntity
8
1
62
256
6
ByLayer
370
18
48
1
60
0
100
AcDbSpline
70
4
71
3
72
14
73
10
40
0
40
0
40
0
40
0
40
0.0458015180211682
40
0.0458015180211682
40
0.284351138515876
40
0.284351138515876
40
0.522900759010585
40
0.522900759010585
40
1
40
1
40
1
40
1
41
1
10
10.4496451581677
20
-2.80958415495616
30
0
41
1
10
10.4275154824804
20
-2.81374283290469
30
0
41
1
10
10.4053836523623
20
-2.81776881075496
30
0
41
1
10
10.2679663148345
20
-2.84193178290991
30
0
41
1
10
10.1527477677738
20
-2.8585505869805
30
0
41
1
10
9.92217200210732
20
-2.88476836291119
30
0
41
1
10
9.80686697562098
20
-2.89431346090674
30
0
41
1
10
9.46101052271413
20
-2.91184654223059
30
0
41
1
10
9.23098971642165
20
-2.90867625869387
30
0
41
1
10
8.99999999999994
20
-2.89113358050469
30
0
0
SPLINE
5
10B
100
AcDbEntity
8
1
62
256
6
ByLayer
370
18
48
1
60
0
100
AcDbSpline
70
4
71
3
72
10
73
6
40
0
40
0
40
0
40
0
40
0.309754067585053
40
0.803924020220548
40
1
40
1
40
1
40
1
41
1
10
8.99934245059524
20
-2.97905908367196
30
0
41
1
10
9.05027636850608
20
-2.9745772015213
30
0
41
1
10
9.18251259383197
20
-2.96104752613974
30
0
41
1
10
9.3471477975622
20
-2.93806253016237
30
0
41
1
10
9.46088062679868
20
-2.91859595969117
30
0
41
1
10
9.49319616186139
20
-2.91277682820456
30
0
0
SPLINE
5
10C
100
AcDbEntity
8
1
62
256
6
ByLayer
370
13
48
1
60
0
100
AcDbSpline
70
4
71
3
72
8
73
4
40
0
40
0
40
0
40
0
40
1
40
1
40
1
40
1
41
1
10
10.3048638585284
20
-2.79043031993723
30
0
41
1
10
9.86990923901894
20
-2.84956385347232
30
0
41
1
10
9.43495461950945
20
-2.8585820129075
30
0
41
1
10
8.99999999999997
20
-2.81584569046513
30
0
0
SPLINE
5
10D
100
AcDbEntity
8
1
62
256
6
ByLayer
370
18
48
1
60
0
100
AcDbSpline
70
4
71
3
72
8
73
4
40
0
40
0
40
0
40
0
40
1
40
1
40
1
40
1
41
1
10
10.2523638388194
20
-2.77518352975198
30
0
41
1
10
9.83490922587961
20
-2.81695770960022
30
0
41
1
10
9.41745461293979
20
-2.81305623661734
30
0
41
1
10
9
20
-2.76123868687859
30
0
0
SPLINE
5
10E
100
AcDbEntity
8
1
62
256
6
ByLayer
370
18
48
1
60
0
100
AcDbSpline
70
4
71
3
72
8
73
4
40
0
40
0
40
0
40
0
40
1
40
1
40
1
40
1
41
1
10
9
20
-2.89113358050469
30
0
41
1
10
8.91840467287858
20
-2.88527859290431
30
0
41
1
10
8.83729409653117
20
-2.87769852469532
30
0
41
1
10
8.75681204447901
20
-2.86821954758989
30
0
0
SPLINE
5
10F
100
AcDbEntity
8
1
62
256
6
ByLayer
370
18
48
1
60
0
100
AcDbSpline
70
4
71
3
72
8
73
4
40
0
40
0
40
0
40
0
40
1
40
1
40
1
40
1
41
1
10
20.2449437496177
20
2.52759783910605
30
0
41
1
10
20.2304189080811
20
2.5322584271282
30
0
41
1
10
20.2158940665445
20
2.53686879978849
30
0
41
1
10
20.2013692250079
20
2.54142889158621
30
0
0
SPLINE
5
110
100
AcDbEntity
8
1
62
256
6
ByLayer
370
18
48
1
60
0
100
AcDbSpline
70
4
71
3
72
22
73
18
40
0
40
0
40
0
40
0
40
0.0759109604744978
40
0.0759109604744978
40
0.229925800395431
40
0.229925800395431
40
0.306933220355889
40
0.306933220355889
40
0.383940640316347
40
0.383940640316347
40
0.537955480237241
40
0.537955480237241
40
0.614962900197701
40
0.614962900197701
40
0.69197032015816
40
0.69197032015816
40
1
40
1
40
1
40
1
41
1
10
20.6414164076159
20
2.2084926805934
30
0
41
1
10
20.6371957104918
20
2.21599474678544
30
0
41
1
10
20.6326497741173
20
2.22354572560275
30
0
41
1
10
20.6178644929779
20
2.24659384274418
30
0
41
1
10
20.6065877991218
20
2.26227110584148
30
0
41
1
10
20.5873954482446
20
2.28628913045523
30
0
41
1
10
20.5806532110668
20
2.29433077195853
30
0
41
1
10
20.5665713620356
20
2.31038825546287
30
0
41
1
10
20.5592179997175
20
2.31842141812243
30
0
41
1
10
20.5362123984585
20
2.34255461390046
30
0
41
1
10
20.519619086873
20
2.35868858977423
30
0
41
1
10
20.4927290584731
20
2.38303342514345
30
0
41
1
10
20.4834062520763
20
2.39119451081871
30
0
41
1
10
20.4641916884486
20
2.40747661719828
30
0
41
1
10
20.4543739765051
20
2.41553645911713
30
0
41
1
10
20.404273330423
20
2.45545854791229
30
0
41
1
10
20.3609880083146
20
2.48621661214935
30
0
41
1
10
20.3146252004149
20
2.51588969331388
30
0
0
SPLINE
5
111
100
AcDbEntity
8
1
62
256
6
ByLayer
370
18
48
1
60
0
100
AcDbSpline
70
4
71
3
72
16
73
12
40
0
40
0
40
0
40
0
40
0.250000000000088
40
0.250000000000088
40
0.500000000000177
40
0.500000000000177
40
0.625000000000157
40
0.625000000000157
40
0.750000000000137
40
0.750000000000137
40
1
40
1
40
1
40
1
41
1
10
20.3146252004149
20
2.51588969331388
30
0
41
1
10
20.3072378789915
20
2.51913875764419
30
0
41
1
10
20.2999648352713
20
2.52200483511572
30
0
41
1
10
20.2858248300232
20
2.52676948056484
30
0
41
1
10
20.2790146455166
20
2.528643287237
30
0
41
1
10
20.2696432315227
20
2.53043443370009
30
0
41
1
10
20.2666520619224
20
2.53086378860101
30
0
41
1
10
20.2610017134554
20
2.53133713394519
30
0
41
1
10
20.2583218416616
20
2.53137762125718
30
0
41
1
10
20.251140031169
20
2.53084783016823
30
0
41
1
10
20.2474392328181
20
2.52964706084114
30
0
41
1
10
20.2449437496177
20
2.52759783910608
30
0
0
SPLINE
5
112
100
AcDbEntity
8
1
62
256
6
ByLayer
370
18
48
1
60
0
100
AcDbSpline
70
4
71
3
72
26
73
22
40
0
40
0
40
0
40
0
40
0.0312499999999883
40
0.0312499999999883
40
0.0624999999999765
40
0.0624999999999765
40
0.125000000000013
40
0.125000000000013
40
0.187500000000049
40
0.187500000000049
40
0.250000000000085
40
0.250000000000085
40
0.375000000000071
40
0.375000000000071
40
0.500000000000057
40
0.500000000000057
40
0.625000000000043
40
0.625000000000043
40
0.750000000000029
40
0.750000000000029
40
1
40
1
40
1
40
1
41
1
10
20.2449437496177
20
2.52759783910605
30
0
41
1
10
20.2443364336973
20
2.52709904843985
30
0
41
1
10
20.2435450313615
20
2.52671977684472
30
0
41
1
10
20.2415432000608
20
2.52622806223548
30
0
41
1
10
20.2403106897638
20
2.52611835967988
30
0
41
1
10
20.2361158573627
20
2.5262269024615
30
0
41
1
10
20.2325628472979
20
2.5268877009502
30
0
41
1
10
20.2249471883918
20
2.52891844877934
30
0
41
1
10
20.2208135107066
20
2.53029201256413
30
0
41
1
10
20.2125435104564
20
2.53331086068343
30
0
41
1
10
20.2083587613091
20
2.53497041403665
30
0
41
1
10
20.1956949683295
20
2.54020849451123
30
0
41
1
10
20.1873560413805
20
2.54393304740915
30
0
41
1
10
20.1709020213814
20
2.55144020025051
30
0
41
1
10
20.1627528785432
20
2.55524983855341
30
0
41
1
10
20.1465258817106
20
2.56287764754947
30
0
41
1
10
20.1384489283317
20
2.56669786155248
30
0
41
1
10
20.1224870364756
20
2.57422344545566
30
0
41
1
10
20.1145778782934
20
2.57794107960334
30
0
41
1
10
20.0909914508432
20
2.58893144835341
30
0
41
1
10
20.0754505267367
20
2.59604830578024
30
0
41
1
10
20.0599908229368
20
2.60291648209596
30
0
0
SPLINE
5
113
100
AcDbEntity
8
1
62
256
6
ByLayer
370
18
48
1
60
0
100
AcDbSpline
70
4
71
3
72
8
73
4
40
0
40
0
40
0
40
0
40
1
40
1
40
1
40
1
41
1
10
8.52502631651856
20
2.48997338967564
30
0
41
1
10
8.60437234806048
20
2.469715041358
30
0
41
1
10
8.6813609188778
20
2.45561397619323
30
0
41
1
10
8.75472416536701
20
2.44458143286255
30
0
0
SPLINE
5
114
100
AcDbEntity
8
1
62
256
6
ByLayer
370
18
48
1
60
0
100
AcDbSpline
70
4
71
3
72
14
73
10
40
0
40
0
40
0
40
0
40
0.133208043297257
40
0.133208043297257
40
0.566604021648628
40
0.566604021648628
40
0.783302010824314
40
0.783302010824314
40
1
40
1
40
1
40
1
41
1
10
19.6994263052883
20
1.17242677407518
30
0
41
1
10
19.6991830664692
20
1.17410641916737
30
0
41
1
10
19.6990076628938
20
1.17593958481157
30
0
41
1
10
19.6985749419546
20
1.18433709331137
30
0
41
1
10
19.6990036114948
20
1.19228114445551
30
0
41
1
10
19.7009037722249
20
1.20688452009463
30
0
41
1
10
19.7017428057442
20
1.21215932971867
30
0
41
1
10
19.7037944245407
20
1.22342010926519
30
0
41
1
10
19.7050096163775
20
1.22942582301798
30
0
41
1
10
19.7064043795383
20
1.23583842175049
30
0
0
SPLINE
5
115
100
AcDbEntity
8
1
62
256
6
ByLayer
370
13
48
1
60
0
100
AcDbSpline
70
4
71
3
72
8
73
4
40
0
40
0
40
0
40
0
40
1
40
1
40
1
40
1
41
0.999993677214547
10
19.9368955673687
20
2.37275722720398
30
0
41
0.999993677214547
10
19.9351762849757
20
2.37960111776323
30
0
41
0.999993677214547
10
19.9334570025826
20
2.38644500832249
30
0
41
0.999993677214548
10
19.9317377201896
20
2.39328889888174
30
0
0
SPLINE
5
116
100
AcDbEntity
8
1
62
256
6
ByLayer
370
13
48
1
60
0
100
AcDbSpline
70
4
71
3
72
8
73
4
40
0
40
0
40
0
40
0
40
1
40
1
40
1
40
1
41
1
10
19.9729640151469
20
2.36403230427359
30
0
41
1
10
19.9724962590528
20
2.36589428548737
30
0
41
1
10
19.9720285029586
20
2.36775626670115
30
0
41
1
10
19.9715607468644
20
2.3696182479149
30
0
0
SPLINE
5
117
100
AcDbEntity
8
1
62
256
6
ByLayer
370
18
48
1
60
0
100
AcDbSpline
70
4
71
3
72
8
73
4
40
0
40
0
40
0
40
0
40
1
40
1
40
1
40
1
41
1
10
20.7132074489286
20
-1.15350827953031
30
0
41
1
10
20.712115148647
20
-1.19162594257341
30
0
41
1
10
20.7099853217161
20
-1.22789807986899
30
0
41
1
10
20.7069777609139
20
-1.26260892670547
30
0
0
SPLINE
5
118
100
AcDbEntity
8
1
62
256
6
ByLayer
370
18
48
1
60
0
100
AcDbSpline
70
4
71
3
72
10
73
6
40
0
40
0
40
0
40
0
40
0.5
40
0.5
40
1
40
1
40
1
40
1
41
1
10
20.1780311271983
20
2.4012284335505
30
0
41
1
10
20.1521361115873
20
2.43642277197225
30
0
41
1
10
20.1292045069041
20
2.4706393399249
30
0
41
1
10
20.0898749192495
20
2.53777450677609
30
0
41
1
10
20.0735521983453
20
2.57056600422484
30
0
41
1
10
20.0599908229369
20
2.60291648209574
30
0
0
SPLINE
5
119
100
AcDbEntity
8
1
62
256
6
ByLayer
370
18
48
1
60
0
100
AcDbSpline
70
4
71
3
72
18
73
14
40
0
40
0
40
0
40
0
40
0.196927887782345
40
0.196927887782345
40
0.295391831673522
40
0.295391831673522
40
0.393855775564698
40
0.393855775564698
40
0.590783663347059
40
0.590783663347059
40
0.787711551129419
40
0.787711551129419
40
1
40
1
40
1
40
1
41
1
10
20.0599908229368
20
2.60291648209596
30
0
41
1
10
19.9446752779959
20
2.63964212059548
30
0
41
1
10
19.8292882941475
20
2.67318442626123
30
0
41
1
10
19.6562932060137
20
2.71866449770798
30
0
41
1
10
19.5986492122489
20
2.73301589090823
30
0
41
1
10
19.483402160796
20
2.76008924579682
30
0
41
1
10
19.4257924239814
20
2.77281416838639
30
0
41
1
10
19.2531680862365
20
2.8084531613174
30
0
41
1
10
19.1382955716785
20
2.82884076147835
30
0
41
1
10
18.9084529861117
20
2.86267853776221
30
0
41
1
10
18.7934052361925
20
2.87613220428082
30
0
41
1
10
18.5540707807952
20
2.89674481324397
30
0
41
1
10
18.4297701243715
20
2.90334577848873
30
0
41
1
10
18.3054083280569
20
2.90587100464486
30
0
0
SPLINE
5
11A
100
AcDbEntity
8
1
62
256
6
ByLayer
370
18
48
1
60
0
100
AcDbSpline
70
4
71
3
72
18
73
14
40
0
40
0
40
0
40
0
40
0.125000000000108
40
0.125000000000108
40
0.250000000000217
40
0.250000000000217
40
0.375000000000325
40
0.375000000000325
40
0.500000000000434
40
0.500000000000434
40
0.750000000000217
40
0.750000000000217
40
1
40
1
40
1
40
1
41
1
10
19.9317377201896
20
2.39328889888173
30
0
41
1
10
19.9310750802215
20
2.39366447001555
30
0
41
1
10
19.9303569049644
20
2.39402767185183
30
0
41
1
10
19.9287156565789
20
2.39466584306371
30
0
41
1
10
19.9277651342098
20
2.39493780757493
30
0
41
1
10
19.9258940747163
20
2.39514854589399
30
0
41
1
10
19.9250542448077
20
2.39507787050624
30
0
41
1
10
19.9237209263603
20
2.39477331639341
30
0
41
1
10
19.9231968976616
20
2.39454973882485
30
0
41
1
10
19.9218357249624
20
2.39380617806808
30
0
41
1
10
19.921214274104
20
2.39322146590732
30
0
41
1
10
19.9201480585414
20
2.39199740467745
30
0
41
1
10
19.9197221314974
20
2.39135229376345
30
0
41
1
10
19.9193555840069
20
2.39069437746647
30
0
0
SPLINE
5
11B
100
AcDbEntity
8
1
62
256
6
ByLayer
370
18
48
1
60
0
100
AcDbSpline
70
4
71
3
72
8
73
4
40
0
40
0
40
0
40
0
40
1
40
1
40
1
40
1
41
1
10
19.9317377201896
20
2.39328889888173
30
0
41
1
10
19.9453812120533
20
2.38555603947816
30
0
41
1
10
19.9586688717207
20
2.37767037136322
30
0
41
1
10
19.9715607468592
20
2.36961824791376
30
0
0
SPLINE
5
11C
100
AcDbEntity
8
1
62
256
6
ByLayer
370
18
48
1
60
0
100
AcDbSpline
70
4
71
3
72
8
73
4
40
0
40
0
40
0
40
0
40
1
40
1
40
1
40
1
41
1
10
19.9715607468643
20
2.36961824791507
30
0
41
1
10
19.9766115417444
20
2.36646357697279
30
0
41
1
10
19.9817389193855
20
2.36331183273347
30
0
41
1
10
19.9869669838803
20
2.3601684157764
30
0
0
SPLINE
5
11D
100
AcDbEntity
8
1
62
256
6
ByLayer
370
13
48
1
60
0
100
AcDbSpline
70
4
71
3
72
8
73
4
40
0
40
0
40
0
40
0
40
1
40
1
40
1
40
1
41
1
10
19.9729110078342
20
-2.27955285757889
30
0
41
1
10
19.9724773500138
20
-2.27698374379062
30
0
41
1
10
19.9720436921934
20
-2.27441463000233
30
0
41
1
10
19.971610034373
20
-2.27184551621406
30
0
0
SPLINE
5
11E
100
AcDbEntity
8
1
62
256
6
ByLayer
370
13
48
1
60
0
100
AcDbSpline
70
4
71
3
72
8
73
4
40
0
40
0
40
0
40
0
40
1
40
1
40
1
40
1
41
0.999992808167158
10
19.9370276204954
20
-2.26989755739665
30
0
41
0.999992808167158
10
19.9354426857945
20
-2.26050794788786
30
0
41
0.999992808167158
10
19.9338577510935
20
-2.25111833837907
30
0
41
0.999992808167158
10
19.9322728163925
20
-2.24172872887026
30
0
0
SPLINE
5
11F
100
AcDbEntity
8
1
62
256
6
ByLayer
370
18
48
1
60
0
100
AcDbSpline
70
4
71
3
72
25
73
21
40
0
40
0
40
0
40
0
40
0.125000000000004
40
0.125000000000004
40
0.250000000000008
40
0.250000000000008
40
0.312500000000009
40
0.312500000000009
40
0.375000000000011
40
0.375000000000011
40
0.500000000000016
40
0.62500000000002
40
0.62500000000002
40
0.687500000000016
40
0.687500000000016
40
0.750000000000013
40
0.750000000000013
40
0.875000000000006
40
0.875000000000006
40
1
40
1
40
1
40
1
41
1
10
20.9728487033784
20
-1.69172678020274
30
0
41
1
10
20.9740775709118
20
-1.73035144481088
30
0
41
1
10
20.9722179969342
20
-1.76844835258493
30
0
41
1
10
20.9628469379174
20
-1.84367636234032
30
0
41
1
10
20.9553291194233
20
-1.88080638205395
30
0
41
1
10
20.9398835717104
20
-1.93578903833614
30
0
41
1
10
20.9340377926395
20
-1.95399744120854
30
0
41
1
10
20.9209355861512
20
-1.99017319355986
30
0
41
1
10
20.913664965968
20
-2.00815971052825
30
0
41
1
10
20.8900336965608
20
-2.06103740335419
30
0
41
1
10
20.8535356895991
20
-2.1291506231496
30
0
41
1
10
20.8072879434331
20
-2.19259307428766
30
0
41
1
10
20.7688167194623
20
-2.23836144929476
30
0
41
1
10
20.7553142771021
20
-2.25336047153473
30
0
41
1
10
20.7272172867773
20
-2.28249689255335
30
0
41
1
10
20.7126682878011
20
-2.29659422655715
30
0
41
1
10
20.6675347488029
20
-2.33748768231271
30
0
41
1
10
20.6354708757147
20
-2.36289204007491
30
0
41
1
10
20.5673001913399
20
-2.40989713900709
30
0
41
1
10
20.531195389227
20
-2.43149977041787
30
0
41
1
10
20.4928959511517
20
-2.45103767727662
30
0
0
SPLINE
5
120
100
AcDbEntity
8
1
62
256
6
ByLayer
370
13
48
1
60
0
100
AcDbSpline
70
4
71
3
72
8
73
4
40
0
40
0
40
0
40
0
40
1
40
1
40
1
40
1
41
1
10
20.9728487033826
20
-1.69172678020556
30
0
41
1
10
20.9561058704601
20
-1.5925374173157
30
0
41
1
10
20.9393630375377
20
-1.49334805442581
30
0
41
1
10
20.9226202046152
20
-1.39415869153592
30
0
0
SPLINE
5
121
100
AcDbEntity
8
1
62
256
6
ByLayer
370
18
48
1
60
0
100
AcDbSpline
70
4
71
3
72
10
73
6
40
0
40
0
40
0
40
0
40
0.5
40
0.5
40
1
40
1
40
1
40
1
41
1
10
20.9202569526828
20
-1.45162581392307
30
0
41
1
10
20.9213856427251
20
-1.44348759108681
30
0
41
1
10
20.9221517263964
20
-1.43462667140352
30
0
41
1
10
20.9229431322603
20
-1.41542844875158
30
0
41
1
10
20.9229633762524
20
-1.40504522687013
30
0
41
1
10
20.9226202046127
20
-1.39415869154391
30
0
0
SPLINE
5
122
100
AcDbEntity
8
1
62
256
6
ByLayer
370
13
48
1
60
0
100
AcDbSpline
70
4
71
3
72
9
73
5
40
0
40
0
40
0
40
0
40
0.329076645531454
40
1
40
1
40
1
40
1
41
1
10
19.3987621158316
20
1.34681382754192
30
0
41
1
10
19.4325080772211
20
1.33506857231424
30
0
41
1
10
19.5350554984608
20
1.29893846992047
30
0
41
1
10
19.6376029197005
20
1.26150302368842
30
0
41
1
10
19.7064043795507
20
1.23583842175631
30
0
0
SPLINE
5
123
100
AcDbEntity
8
1
62
256
6
ByLayer
370
18
48
1
60
0
100
AcDbSpline
70
4
71
3
72
28
73
24
40
0
40
0
40
0
40
0
40
0.124999999999981
40
0.124999999999981
40
0.187499999999964
40
0.187499999999964
40
0.249999999999946
40
0.249999999999946
40
0.374999999999937
40
0.374999999999937
40
0.437499999999948
40
0.437499999999948
40
0.49999999999996
40
0.49999999999996
40
0.624999999999946
40
0.624999999999946
40
0.68749999999994
40
0.68749999999994
40
0.749999999999933
40
0.749999999999933
40
0.874999999999966
40
0.874999999999966
40
1
40
1
40
1
40
1
41
1
10
19.7064043795541
20
1.23583842175367
30
0
41
1
10
19.7090855358673
20
1.24816288289938
30
0
41
1
10
19.7130494807772
20
1.26049546647212
30
0
41
1
10
19.7207695852684
20
1.27910825191245
30
0
41
1
10
19.7236409693417
20
1.28533088644412
30
0
41
1
10
19.7299815044196
20
1.29782371611685
30
0
41
1
10
19.7334700264664
20
1.30412521846523
30
0
41
1
10
19.7447073614736
20
1.32286031369347
30
0
41
1
10
19.753174526212
20
1.33507627324889
30
0
41
1
10
19.7673027267727
20
1.35298931735409
30
0
41
1
10
19.7722519422966
20
1.35889084883601
30
0
41
1
10
19.7826475900416
20
1.37054240541841
30
0
41
1
10
19.7881139626545
20
1.37630925371008
30
0
41
1
10
19.8049607458005
20
1.39301942305263
30
0
41
1
10
19.816870201222
20
1.40348617807669
30
0
41
1
10
19.8358320735022
20
1.41806214706531
30
0
41
1
10
19.8423370825995
20
1.42273187502204
30
0
41
1
10
19.8557489755642
20
1.431652556129
30
0
41
1
10
19.8626210508319
20
1.43587650944701
30
0
41
1
10
19.8834439221808
20
1.44761110251818
30
0
41
1
10
19.8977194114133
20
1.45427528811433
30
0
41
1
10
19.9272316110564
20
1.46499454116457
30
0
41
1
10
19.9425545983565
20
1.46904265372262
30
0
41
1
10
19.957983727194
20
1.47145179513532
30
0
0
SPLINE
5
124
100
AcDbEntity
8
1
62
256
6
ByLayer
370
18
48
1
60
0
100
AcDbSpline
70
4
71
3
72
14
73
10
40
0
40
0
40
0
40
0
40
0.25
40
0.25
40
0.5
40
0.5
40
0.75
40
0.75
40
1
40
1
40
1
40
1
41
1
10
19.7833122507454
20
-0.511813770524071
30
0
41
1
10
19.7795066772256
20
-0.499597140407531
30
0
41
1
10
19.7764469483094
20
-0.486966890464487
30
0
41
1
10
19.7716506588813
20
-0.460766224463157
30
0
41
1
10
19.7699134302396
20
-0.447153603554597
30
0
41
1
10
19.7677903304924
20
-0.418978534049359
30
0
41
1
10
19.7674240270026
20
-0.404656725196901
30
0
41
1
10
19.7680050465865
20
-0.375720696302579
30
0
41
1
10
19.7689450354881
20
-0.361383044558408
30
0
41
1
10
19.7704375406449
20
-0.347182439203891
30
0
0
SPLINE
5
125
100
AcDbEntity
8
1
62
256
6
ByLayer
370
18
48
1
60
0
100
AcDbSpline
70
4
71
3
72
28
73
24
40
0
40
0
40
0
40
0
40
0.0551336591810403
40
0.0551336591810403
40
0.149620293262935
40
0.149620293262935
40
0.24410692734483
40
0.24410692734483
40
0.433080195508619
40
0.433080195508619
40
0.527566829590514
40
0.527566829590514
40
0.622053463672409
40
0.622053463672409
40
0.716540097754303
40
0.716540097754303
40
0.76378341479525
40
0.76378341479525
40
0.811026731836196
40
0.811026731836196
40
0.905513365918098
40
0.905513365918098
40
1
40
1
40
1
40
1
41
1
10
20.6549759078391
20
-0.222019960857665
30
0
41
1
10
20.6493879898178
20
-0.228412923238068
30
0
41
1
10
20.6440484954131
20
-0.234888989799259
30
0
41
1
10
20.6302416400453
20
-0.252557583113315
30
0
41
1
10
20.6222200500327
20
-0.263861227228574
30
0
41
1
10
20.6074091159987
20
-0.286646433100088
30
0
41
1
10
20.6005868574202
20
-0.298192836627038
30
0
41
1
10
20.5821228050553
20
-0.332497736693227
30
0
41
1
10
20.5724060542087
20
-0.35487827790206
30
0
41
1
10
20.561307039419
20
-0.388138946476005
30
0
41
1
10
20.5581997642751
20
-0.399177208088474
30
0
41
1
10
20.5532742422892
20
-0.421268357270748
30
0
41
1
10
20.5514666470156
20
-0.432299583624655
30
0
41
1
10
20.549400891338
20
-0.454122760829961
30
0
41
1
10
20.5491270378726
20
-0.464959999009352
30
0
41
1
10
20.5501380635005
20
-0.481218556945635
30
0
41
1
10
20.5507139894708
20
-0.486638787012964
30
0
41
1
10
20.5524281601451
20
-0.49750631883569
30
0
41
1
10
20.5535695446993
20
-0.502956602285309
30
0
41
1
10
20.5579446757695
20
-0.519154178477635
30
0
41
1
10
20.5620994175206
20
-0.529818588981328
30
0
41
1
10
20.5741899580462
20
-0.551033923467571
30
0
41
1
10
20.5819110740651
20
-0.561206809306555
30
0
41
1
10
20.5920944530624
20
-0.570858946456354
30
0
0
SPLINE
5
126
100
AcDbEntity
8
1
62
256
6
ByLayer
370
18
48
1
60
0
100
AcDbSpline
70
4
71
3
72
8
73
4
40
0
40
0
40
0
40
0
40
1
40
1
40
1
40
1
41
1
10
20.7128807412238
20
-1.15314573714525
30
0
41
1
10
20.712989669786
20
-1.15326659359778
30
0
41
1
10
20.7130985723394
20
-1.15338744105426
30
0
41
1
10
20.7132074489288
20
-1.15350827953017
30
0
0
SPLINE
5
127
100
AcDbEntity
8
1
62
256
6
ByLayer
370
18
48
1
60
0
100
AcDbSpline
70
4
71
3
72
33
73
29
40
0
40
0
40
0
40
0
40
0.0079992022686158
40
0.0386511095277432
40
0.0694028908941615
40
0.100248161192345
40
0.18989374451728
40
0.2818997846224
40
0.376083818359682
40
0.472264516560823
40
0.558174742203297
40
0.648970607334706
40
0.744468201614718
40
0.844496946681338
40
0.852086460707234
40
0.860222716118921
40
0.868904484871712
40
0.878130471446659
40
0.887899317716705
40
0.898209608152825
40
0.909059875429953
40
0.920448606483941
40
0.932374249060971
40
0.944835218791957
40
0.957829906814619
40
0.971356687950512
40
0.985413929428418
40
1
40
1
40
1
40
1
41
1
10
20.8874570785514
20
1.76652735932413
30
0
41
1
10
20.8867312144113
20
1.76864598213777
30
0
41
1
10
20.8831697901332
20
1.77887995546402
30
0
41
1
10
20.8763064781069
20
1.79722781271735
30
0
41
1
10
20.8662071384824
20
1.82153141836326
30
0
41
1
10
20.8480656676318
20
1.8611959914621
30
0
41
1
10
20.8182646423077
20
1.91635044464576
30
0
41
1
10
20.7715098792654
20
1.98619001088599
30
0
41
1
10
20.7155689843767
20
2.05524021334787
30
0
41
1
10
20.6532049776532
20
2.11970604917968
30
0
41
1
10
20.5849045885502
20
2.17979055297624
30
0
41
1
10
20.5107324300163
20
2.23576177963179
30
0
41
1
10
20.4266530024619
20
2.28961463397619
30
0
41
1
10
20.3630156074984
20
2.32360719777381
30
0
41
1
10
20.3257476312707
20
2.34146735558642
30
0
41
1
10
20.3178577123557
20
2.34518475934874
30
0
41
1
10
20.3094036959991
20
2.34909717816723
30
0
41
1
10
20.3003807308918
20
2.35319344474536
30
0
41
1
10
20.2907840798868
20
2.35746181608442
30
0
41
1
10
20.2806089870687
20
2.36188963343767
30
0
41
1
10
20.269850787508
20
2.36646340208992
30
0
41
1
10
20.2585049395354
20
2.37116872200698
30
0
41
1
10
20.2465671239314
20
2.37599036767119
30
0
41
1
10
20.234033165205
20
2.38091190500265
30
0
41
1
10
20.2208996544749
20
2.38591711977364
30
0
41
1
10
20.2071618037546
20
2.3909842623639
30
0
41
1
10
20.1928222863642
20
2.39610877205959
30
0
41
1
10
20.1830256972986
20
2.39945029198304
30
0
41
1
10
20.1780369676704
20
2.40115189846404
30
0
0
SPLINE
5
128
100
AcDbEntity
8
1
62
256
6
ByLayer
370
18
48
1
60
0
100
AcDbSpline
70
4
71
3
72
27
73
23
40
0
40
0
40
0
40
0
40
0.125
40
0.125
40
0.25
40
0.25
40
0.3125
40
0.3125
40
0.375
40
0.375
40
0.499999999999999
40
0.624999999999999
40
0.624999999999999
40
0.687499999999999
40
0.687499999999999
40
0.749999999999999
40
0.749999999999999
40
0.875
40
0.875
40
0.9375
40
0.9375
40
1
40
1
40
1
40
1
41
1
10
20.9728487033791
20
1.3453013224358
30
0
41
1
10
20.9741064323952
20
1.37930507410573
30
0
41
1
10
20.9721190763645
20
1.41316458142617
30
0
41
1
10
20.9621897328414
20
1.48061891205785
30
0
41
1
10
20.9542404659897
20
1.51421341181518
30
0
41
1
10
20.9379114370415
20
1.56440935302899
30
0
41
1
10
20.9317315263642
20
1.58110857810715
30
0
41
1
10
20.917876117812
20
1.61444054925886
30
0
41
1
10
20.910211606388
20
1.6310329916102
30
0
41
1
10
20.8853062211764
20
1.68003255508981
30
0
41
1
10
20.8468467957995
20
1.74373166696421
30
0
41
1
10
20.7980800108549
20
1.8042248147749
30
0
41
1
10
20.757473692695
20
1.84834081651707
30
0
41
1
10
20.7432252366175
20
1.86286770113151
30
0
41
1
10
20.7137594151841
20
1.89108269048742
30
0
41
1
10
20.6985020788434
20
1.90481868475612
30
0
41
1
10
20.6511673024489
20
1.94491961121031
30
0
41
1
10
20.6175351463368
20
1.97018319055289
30
0
41
1
10
20.5638730223688
20
2.00580185659692
30
0
41
1
10
20.5454480494613
20
2.01729391344762
30
0
41
1
10
20.507479976963
20
2.03948595196937
30
0
41
1
10
20.4878854480794
20
2.05021199082367
30
0
41
1
10
20.4678191597691
20
2.06045909236948
30
0
0
SPLINE
5
129
100
AcDbEntity
8
1
62
256
6
ByLayer
370
18
48
1
60
0
100
AcDbSpline
70
4
71
3
72
33
73
29
40
0
40
0
40
0
40
0
40
0.125000000000015
40
0.125000000000015
40
0.187500000000021
40
0.187500000000021
40
0.250000000000027
40
0.250000000000027
40
0.312500000000033
40
0.312500000000033
40
0.37500000000004
40
0.37500000000004
40
0.437500000000046
40
0.437500000000046
40
0.468750000000049
40
0.468750000000049
40
0.500000000000052
40
0.500000000000052
40
0.625000000000051
40
0.625000000000051
40
0.656250000000047
40
0.656250000000047
40
0.687500000000043
40
0.750000000000034
40
0.750000000000034
40
0.875000000000017
40
0.875000000000017
40
1
40
1
40
1
40
1
41
1
10
20.5118990839153
20
1.96243930692401
30
0
41
1
10
20.5264467906594
20
1.93173694413358
30
0
41
1
10
20.5365142217441
20
1.90067338395528
30
0
41
1
10
20.5429942551895
20
1.85338303715125
30
0
41
1
10
20.5436746178056
20
1.83741417165098
30
0
41
1
10
20.5417499270903
20
1.8062551552332
30
0
41
1
10
20.5391762170637
20
1.79095439919976
30
0
41
1
10
20.5306810776813
20
1.76093201367723
30
0
41
1
10
20.5247425880883
20
1.74617859807898
30
0
41
1
10
20.5094058094376
20
1.71741376446585
30
0
41
1
10
20.5002023688598
20
1.70374830430978
30
0
41
1
10
20.4790279495648
20
1.67770998245757
30
0
41
1
10
20.4670561099771
20
1.66533752283709
30
0
41
1
10
20.4471978966908
20
1.64766645397489
30
0
41
1
10
20.4402670625876
20
1.64193266444278
30
0
41
1
10
20.426002446239
20
1.63089374174103
30
0
41
1
10
20.418645787488
20
1.62556761478865
30
0
41
1
10
20.3808417710266
20
1.59981658913455
30
0
41
1
10
20.3473745906315
20
1.58199402652272
30
0
41
1
10
20.302610340274
20
1.56224099139755
30
0
41
1
10
20.2934927757021
20
1.55841278871418
30
0
41
1
10
20.2751113505876
20
1.55104756032921
30
0
41
1
10
20.2472858697252
20
1.54042048290921
30
0
41
1
10
20.2187729136409
20
1.5309351990347
30
0
41
1
10
20.160975831723
20
1.51324542892758
30
0
41
1
10
20.1214235420109
20
1.50314781403478
30
0
41
1
10
20.0407830335645
20
1.48550353269184
30
0
41
1
10
19.9996474224625
20
1.47795726506393
30
0
41
1
10
19.957983727194
20
1.47145179513521
30
0
0
SPLINE
5
12A
100
AcDbEntity
8
1
62
256
6
ByLayer
370
18
48
1
60
0
100
AcDbSpline
70
4
71
3
72
39
73
35
40
0
40
0
40
0
40
0
40
0.0246325235697323
40
0.0493867154562377
40
0.0742570983307593
40
0.0992381563995927
40
0.124324308178296
40
0.14950992378861
40
0.1747893581028
40
0.200156990704049
40
0.225607261595385
40
0.25113465342716
40
0.326144760569284
40
0.403162152355083
40
0.48202213963028
40
0.562562698362457
40
0.63440295488956
40
0.710391150429249
40
0.790361667510886
40
0.874163437344839
40
0.8801544379274
40
0.886611351379954
40
0.893533127794444
40
0.900918654226414
40
0.908766759035366
40
0.917076216516285
40
0.92584575188379
40
0.935074046660464
40
0.944759744514926
40
0.954901457588119
40
0.965497773340609
40
0.976547261942978
40
0.98804848421949
40
1
40
1
40
1
40
1
41
1
10
20.9202389185956
20
-1.45155177038987
30
0
41
1
10
20.9196074944913
20
-1.46027935167896
30
0
41
1
10
20.9183415274665
20
-1.47777762271585
30
0
41
1
10
20.9152059072254
20
-1.50385531141728
30
0
41
1
10
20.9111552700582
20
-1.52985227280126
30
0
41
1
10
20.9060965025764
20
-1.55572045393177
30
0
41
1
10
20.9000517681892
20
-1.58143109325613
30
0
41
1
10
20.893014276933
20
-1.6069506179544
30
0
41
1
10
20.8849871342379
20
-1.63224732320225
30
0
41
1
10
20.8759729481642
20
-1.65728945854209
30
0
41
1
10
20.8659761666867
20
-1.68204673530812
30
0
41
1
10
20.8479241901465
20
-1.72225649015229
30
0
41
1
10
20.8182034915728
20
-1.7770720818539
30
0
41
1
10
20.7715057478611
20
-1.84402451403955
30
0
41
1
10
20.7156266648213
20
-1.90743332222891
30
0
41
1
10
20.6533545811388
20
-1.96369774448144
30
0
41
1
10
20.5851683390704
20
-2.01330032476616
30
0
41
1
10
20.5111200321283
20
-2.05647680246534
30
0
41
1
10
20.4271241088548
20
-2.09433168749058
30
0
41
1
10
20.3636651545079
20
-2.11510374728664
30
0
41
1
10
20.3266966514694
20
-2.1249100168408
30
0
41
1
10
20.3192284008209
20
-2.12683324195376
30
0
41
1
10
20.3111906520027
20
-2.12883309792687
30
0
41
1
10
20.3025787041218
20
-2.13089530864477
30
0
41
1
10
20.2933879438638
20
-2.13300393218589
30
0
41
1
10
20.2836137082369
20
-2.13514224027796
30
0
41
1
10
20.2732513952168
20
-2.13729247558987
30
0
41
1
10
20.2622964956031
20
-2.13943591055272
30
0
41
1
10
20.2507446905328
20
-2.1415529488747
30
0
41
1
10
20.2385917785252
20
-2.14362270154993
30
0
41
1
10
20.2258342761252
20
-2.1456247827239
30
0
41
1
10
20.212467354215
20
-2.14753224005733
30
0
41
1
10
20.1984933751064
20
-2.14933974409917
30
0
41
1
10
20.1889397832336
20
-2.15039440247483
30
0
41
1
10
20.184071272625
20
-2.15093185640404
30
0
0
SPLINE
5
12B
100
AcDbEntity
8
1
62
256
6
ByLayer
370
18
48
1
60
0
100
AcDbSpline
70
4
71
3
72
10
73
6
40
0
40
0
40
0
40
0
40
0.336915243769666
40
0.336915243769666
40
1
40
1
40
1
40
1
41
1
10
20.7151942138917
20
-1.15248525802306
30
0
41
1
10
20.7382185238446
20
-1.18610743689675
30
0
41
1
10
20.761242490504
20
-1.2197162086367
30
0
41
1
10
20.8295791200074
20
-1.31943457216664
30
0
41
1
10
20.8748908888273
20
-1.3855094355834
30
0
41
1
10
20.920201628581
20
-1.45154518473947
30
0
0
SPLINE
5
12C
100
AcDbEntity
8
1
62
256
6
ByLayer
370
18
48
1
60
0
100
AcDbSpline
70
4
71
3
72
8
73
4
40
0
40
0
40
0
40
0
40
1
40
1
40
1
40
1
41
1
10
20.7128807412238
20
-1.15314573714525
30
0
41
1
10
20.713655656683
20
-1.15292864008686
30
0
41
1
10
20.7144268241196
20
-1.15270848843315
30
0
41
1
10
20.7151942138887
20
-1.15248525802394
30
0
0
SPLINE
5
12D
100
AcDbEntity
8
1
62
256
6
ByLayer
370
13
48
1
60
0
100
AcDbSpline
70
4
71
3
72
10
73
6
40
0
40
0
40
0
40
0
40
0.0049344174453852
40
0.33662294496359
40
1
40
1
40
1
40
1
41
1
10
11.26115749499
20
-1.65648558458997
30
0
41
1
10
11.2574383299934
20
-1.65544092631171
30
0
41
1
10
11.0037191649967
20
-1.58403978214568
30
0
41
1
10
10.25
20
-1.34456999386615
30
0
41
1
10
9.5
20
-1.04016765831375
30
0
41
1
10
9
20
-0.818551618166026
30
0
0
SPLINE
5
12E
100
AcDbEntity
8
1
62
256
6
ByLayer
370
18
48
1
60
0
100
AcDbSpline
70
4
71
3
72
12
73
8
40
0
40
0
40
0
40
0
40
0.118064914592248
40
0.278416748302748
40
0.518944498868499
40
0.679296332578999
40
1
40
1
40
1
40
1
41
1
10
13.6772149880995
20
-2.75706917385267
30
0
41
1
10
13.4931433253997
20
-2.77669184355389
30
0
41
1
10
13.0590716626999
20
-2.80309185117332
30
0
41
1
10
12.25
20
-2.76310560208313
30
0
41
1
10
11.375
20
-2.57994879315692
30
0
41
1
10
10.25
20
-2.18257990357307
30
0
41
1
10
9.5
20
-1.80237769574648
30
0
41
1
10
9
20
-1.51152397808809
30
0
0
SPLINE
5
12F
100
AcDbEntity
8
1
62
256
6
ByLayer
370
13
48
1
60
0
100
AcDbSpline
70
4
71
3
72
12
73
8
40
0
40
0
40
0
40
0
40
0.142635158686936
40
0.298519675289311
40
0.532346450192874
40
0.68823096679525
40
1
40
1
40
1
40
1
41
1
10
13.8112539740753
20
-2.76579764717599
30
0
41
1
10
13.5825026493835
20
-2.80278427676907
30
0
41
1
10
13.1037513246917
20
-2.85275731470512
30
0
41
1
10
12.25
20
-2.8345059128209
30
0
41
1
10
11.375
20
-2.67520428709841
30
0
41
1
10
10.25
20
-2.30069401094008
30
0
41
1
10
9.49999999999997
20
-1.92776379599354
30
0
41
1
10
8.99999999999997
20
-1.64181812922885
30
0
0
SPLINE
5
130
100
AcDbEntity
8
1
62
256
6
ByLayer
370
18
48
1
60
0
100
AcDbSpline
70
4
71
3
72
36
73
32
40
0
40
0
40
0
40
0
40
0.0067048422271554
40
0.0067048422271554
40
0.0776544963537872
40
0.0776544963537872
40
0.148604150480419
40
0.148604150480419
40
0.219553804607051
40
0.219553804607051
40
0.290503458733682
40
0.290503458733682
40
0.361453112860314
40
0.361453112860314
40
0.432402766986946
40
0.432402766986946
40
0.503352421113578
40
0.503352421113578
40
0.574302075240209
40
0.574302075240209
40
0.645251729366841
40
0.645251729366841
40
0.716201383493473
40
0.716201383493473
40
0.787151037620104
40
0.787151037620104
40
0.858100691746736
40
0.858100691746736
40
0.929050345873368
40
0.929050345873368
40
1
40
1
40
1
40
1
41
1
10
13.8703149932376
20
-2.79440257939223
30
0
41
1
10
13.8594260658912
20
-2.79656026737959
30
0
41
1
10
13.8485375431636
20
-2.79868817460408
30
0
41
1
10
13.7224337590293
20
-2.82298682854221
30
0
41
1
10
13.6072119812565
20
-2.84182639111421
30
0
41
1
10
13.3769183379629
20
-2.87242138194659
30
0
41
1
10
13.2617956956171
20
-2.88411658380434
30
0
41
1
10
13.0315902444627
20
-2.90049172314298
30
0
41
1
10
12.91638818625
20
-2.90529598554437
30
0
41
1
10
12.6861941489386
20
-2.90788361060922
30
0
41
1
10
12.5711526370286
20
-2.90567163113255
30
0
41
1
10
12.3408945718253
20
-2.89406980111272
30
0
41
1
10
12.2256354571921
20
-2.88459719766266
30
0
41
1
10
11.9951033496882
20
-2.85892283328084
30
0
41
1
10
11.8797245194076
20
-2.84274783895069
30
0
41
1
10
11.6492346789865
20
-2.80355843682108
30
0
41
1
10
11.5340606925135
20
-2.78056231088752
30
0
41
1
10
11.3036531125844
20
-2.72767202167162
30
0
41
1
10
11.1883913850441
20
-2.69770913405554
30
0
41
1
10
10.957945472059
20
-2.63165236093681
30
0
41
1
10
10.8426790093839
20
-2.59547082352915
30
0
41
1
10
10.6124543105175
20
-2.51688127686376
30
0
41
1
10
10.4974244630922
20
-2.47448419519091
30
0
41
1
10
10.2672515257655
20
-2.38353095872023
30
0
41
1
10
10.1520729313137
20
-2.33497603436578
30
0
41
1
10
9.92174288337327
20
-2.23263948784933
30
0
41
1
10
9.80653339239623
20
-2.17872152821698
30
0
41
1
10
9.57622136911934
20
-2.06574694703781
30
0
41
1
10
9.46100023270148
20
-2.00665328973292
30
0
41
1
10
9.23057070960337
20
-1.88380094852198
30
0
41
1
10
9.11537045348882
20
-1.82006645695708
30
0
41
1
10
8.99999999999997
20
-1.75427784777889
30
0
0
SPLINE
5
131
100
AcDbEntity
8
1
62
256
6
ByLayer
370
18
48
1
60
0
100
AcDbSpline
70
4
71
3
72
10
73
6
40
0
40
0
40
0
40
0
40
0.5
40
0.5
40
1
40
1
40
1
40
1
41
1
10
20.1718124441421
20
2.25379754203507
30
0
41
1
10
20.2216667130271
20
2.22622166015805
30
0
41
1
10
20.2711658481696
20
2.19642222671999
30
0
41
1
10
20.3697393378653
20
2.13214772745124
30
0
41
1
10
20.418811924965
20
2.0976858566101
30
0
41
1
10
20.4678191597689
20
2.0604590923715
30
0
0
SPLINE
5
132
100
AcDbEntity
8
1
62
256
6
ByLayer
370
13
48
1
60
0
100
AcDbSpline
70
4
71
3
72
14
73
10
40
0
40
0
40
0
40
0
40
0.0624177452748485
40
0.241163342232
40
0.419908939189151
40
0.598654536146302
40
0.777400133103453
40
0.956145730060605
40
1
40
1
40
1
40
1
41
1
10
20.5118990887219
20
1.96243931175357
30
0
41
1
10
20.4245993924813
20
2.0050718795288
30
0
41
1
10
20.0872996962406
20
2.16445939372036
30
0
41
1
10
19.5
20
2.40446529372372
30
0
41
1
10
18.75
20
2.6310051808986
30
0
41
1
10
18
20
2.76841500380561
30
0
41
1
10
17.25
20
2.80718501506092
30
0
41
1
10
16.6886638458709
20
2.7652588114976
30
0
41
1
10
16.377327691742
20
2.7184472099824
30
0
41
1
10
16.3159915376129
20
2.70831862425678
30
0
0
SPLINE
5
133
100
AcDbEntity
8
1
62
256
6
ByLayer
370
18
48
1
60
0
100
AcDbSpline
70
4
71
3
72
8
73
4
40
0
40
0
40
0
40
0
40
1
40
1
40
1
40
1
41
1
10
20.4678191597748
20
2.06045909236971
30
0
41
1
10
20.4818144917181
20
2.02766609733658
30
0
41
1
10
20.4964769368714
20
1.99498753850676
30
0
41
1
10
20.5118991139363
20
1.96243930487739
30
0
0
SPLINE
5
134
100
AcDbEntity
8
1
62
256
6
ByLayer
370
18
48
1
60
0
100
AcDbSpline
70
4
71
3
72
8
73
4
40
0
40
0
40
0
40
0
40
1
40
1
40
1
40
1
41
1
10
19.9869669838809
20
2.36016841577614
30
0
41
1
10
19.982380305249
20
2.36156844077075
30
0
41
1
10
19.9777188192659
20
2.3628642679657
30
0
41
1
10
19.9729640151473
20
2.36403230427413
30
0
0
SPLINE
5
135
100
AcDbEntity
8
1
62
256
6
ByLayer
370
18
48
1
60
0
100
AcDbSpline
70
4
71
3
72
8
73
4
40
0
40
0
40
0
40
0
40
1
40
1
40
1
40
1
41
1
10
19.972964015147
20
2.36403230427359
30
0
41
1
10
19.9609654504567
20
2.36697979881953
30
0
41
1
10
19.9489441027876
20
2.36989048261597
30
0
41
1
10
19.9368955673683
20
2.37275722720548
30
0
0
SPLINE
5
136
100
AcDbEntity
8
1
62
256
6
ByLayer
370
18
48
1
60
0
100
AcDbSpline
70
4
71
3
72
8
73
4
40
0
40
0
40
0
40
0
40
1
40
1
40
1
40
1
41
1
10
9
20
-1.75427784777892
30
0
41
1
10
8.91825573167995
20
-1.70972632319712
30
0
41
1
10
8.83697994207827
20
-1.66364176065321
30
0
41
1
10
8.75630646416442
20
-1.61595448884594
30
0
0
SPLINE
5
137
100
AcDbEntity
8
1
62
256
6
ByLayer
370
18
48
1
60
0
100
AcDbSpline
70
4
71
3
72
14
73
10
40
0
40
0
40
0
40
0
40
0.150563198516219
40
0.150563198516219
40
0.433708799010813
40
0.433708799010813
40
0.716854399505406
40
0.716854399505406
40
1
40
1
40
1
40
1
41
1
10
19.8717351298151
20
1.0904910401849
30
0
41
1
10
19.9127992288807
20
1.07172034823847
30
0
41
1
10
19.9540246782648
20
1.05227363420428
30
0
41
1
10
20.0731800245477
20
0.994570386654459
30
0
41
1
10
20.1514668457162
20
0.954818419523576
30
0
41
1
10
20.3088708391049
20
0.871835498315789
30
0
41
1
10
20.3879901666154
20
0.828595514049738
30
0
41
1
10
20.546949798933
20
0.739094810374382
30
0
41
1
10
20.6264843764043
20
0.693004239930616
30
0
41
1
10
20.7059402333165
20
0.645819350988603
30
0
0
SPLINE
5
138
100
AcDbEntity
8
1
62
256
6
ByLayer
370
18
48
1
60
0
100
AcDbSpline
70
4
71
3
72
13
73
9
40
0
40
0
40
0
40
0
40
0.0160764258180843
40
0.253086597271747
40
0.49009676872541
40
0.727106940179073
40
0.964117111632736
40
1
40
1
40
1
40
1
41
1
10
20.3008725819217
20
0.734119485341125
30
0
41
1
10
20.2839150546145
20
0.745661276934271
30
0
41
1
10
20.0169575273072
20
0.927004869229023
30
0
41
1
10
19.5
20
1.26661221331372
30
0
41
1
10
18.75
20
1.71896695072232
30
0
41
1
10
18
20
2.10681746515252
30
0
41
1
10
17.4621504763412
20
2.33182790796062
30
0
41
1
10
17.1743009526824
20
2.43352437800391
30
0
41
1
10
17.1364514290236
20
2.44656794304157
30
0
0
SPLINE
5
139
100
AcDbEntity
8
1
62
256
6
ByLayer
370
13
48
1
60
0
100
AcDbSpline
70
4
71
3
72
9
73
5
40
0
40
0
40
0
40
0
40
0.908577456227173
40
1
40
1
40
1
40
1
41
1
10
9
20
-0.619667734794405
30
0
41
1
10
9.5
20
-0.839150042920437
30
0
41
1
10
10.0503108145301
20
-1.06570162120127
30
0
41
1
10
10.6006216290601
20
-1.26156439383371
30
0
41
1
10
10.6509324435901
20
-1.27920061436481
30
0
0
SPLINE
5
13A
100
AcDbEntity
8
1
62
256
6
ByLayer
370
18
48
1
60
0
100
AcDbSpline
70
4
71
3
72
16
73
12
40
0
40
0
40
0
40
0
40
0.225031540376118
40
0.225031540376118
40
0.35419295031342
40
0.35419295031342
40
0.483354360250721
40
0.483354360250721
40
0.741677180125361
40
0.741677180125361
40
1
40
1
40
1
40
1
41
1
10
20.4286520053562
20
-0.178213823171177
30
0
41
1
10
20.4041397859411
20
-0.174598895188922
30
0
41
1
10
20.3773299105598
20
-0.170927792434838
30
0
41
1
10
20.3324188967222
20
-0.165083254848582
30
0
41
1
10
20.3154643118802
20
-0.162937758599355
30
0
41
1
10
20.2805493555945
20
-0.158622549373206
30
0
41
1
10
20.2627849223375
20
-0.156476960827433
30
0
41
1
10
20.2087222267395
20
-0.150070314011998
30
0
41
1
10
20.171662212417
20
-0.14583907530394
30
0
41
1
10
20.0960272795051
20
-0.137435900384105
30
0
41
1
10
20.0574477819394
20
-0.133264143421116
30
0
41
1
10
20.0182637217509
20
-0.129116052688005
30
0
0
SPLINE
5
13B
100
AcDbEntity
8
1
62
256
6
ByLayer
370
18
48
1
60
0
100
AcDbSpline
70
4
71
3
72
8
73
4
40
0
40
0
40
0
40
0
40
1
40
1
40
1
40
1
41
1
10
12.7720087433167
20
1.94993774378685
30
0
41
1
10
12.7997202676399
20
1.95004264107229
30
0
41
1
10
12.827431791963
20
1.9500068211031
30
0
41
1
10
12.8551433162862
20
1.94983020429871
30
0
0
SPLINE
5
13C
100
AcDbEntity
8
1
62
256
6
ByLayer
370
13
48
1
60
0
100
AcDbSpline
70
4
71
3
72
14
73
10
40
0
40
0
40
0
40
0
40
0.0211738193392658
40
0.20377077006216
40
0.386367720785054
40
0.568964671507949
40
0.751561622230843
40
0.934158572953737
40
1
40
1
40
1
40
1
41
1
10
15.6630305054845
20
1.46818175706841
30
0
41
1
10
15.6920203369897
20
1.45887429409117
30
0
41
1
10
15.9710101684948
20
1.36816920187601
30
0
41
1
10
16.5
20
1.17575207338501
30
0
41
1
10
17.25
20
0.859550461775143
30
0
41
1
10
18
20
0.513221159193677
30
0
41
1
10
18.75
20
0.151724065721822
30
0
41
1
10
19.3401458468852
20
-0.138248229350751
30
0
41
1
10
19.6802916937703
20
-0.303602953671486
30
0
41
1
10
19.7704375406555
20
-0.347182439200253
30
0
0
SPLINE
5
13D
100
AcDbEntity
8
1
62
256
6
ByLayer
370
18
48
1
60
0
100
AcDbSpline
70
4
71
3
72
30
73
26
40
0
40
0
40
0
40
0
40
0.125000000000001
40
0.125000000000001
40
0.187500000000002
40
0.187500000000002
40
0.250000000000003
40
0.250000000000003
40
0.375000000000003
40
0.375000000000003
40
0.437500000000017
40
0.437500000000017
40
0.500000000000031
40
0.500000000000031
40
0.625000000000059
40
0.625000000000059
40
0.687500000000072
40
0.687500000000072
40
0.750000000000085
40
0.750000000000085
40
0.875000000000065
40
0.875000000000065
40
0.937500000000033
40
0.937500000000033
40
1
40
1
40
1
40
1
41
1
10
19.7704375406555
20
-0.347182439200282
30
0
41
1
10
19.7721655255868
20
-0.330747311373642
30
0
41
1
10
19.7753135947308
20
-0.314827473647455
30
0
41
1
10
19.7819847314165
20
-0.291714538441681
30
0
41
1
10
19.7845359160637
20
-0.284138688497905
30
0
41
1
10
19.7902935261947
20
-0.269251099234879
30
0
41
1
10
19.7935197224418
20
-0.261903051230775
30
0
41
1
10
19.8040176194925
20
-0.240647864961062
30
0
41
1
10
19.812103688667
20
-0.227465690888124
30
0
41
1
10
19.8258172077215
20
-0.209138507531435
30
0
41
1
10
19.8306546924721
20
-0.203271904857985
30
0
41
1
10
19.8408826711002
20
-0.1920357980147
30
0
41
1
10
19.8462551866816
20
-0.186692158931379
30
0
41
1
10
19.8628867219851
20
-0.171727325512535
30
0
41
1
10
19.8747481191926
20
-0.163054556992506
30
0
41
1
10
19.8938048258513
20
-0.151991645769925
30
0
41
1
10
19.9003973019557
20
-0.148618580698695
30
0
41
1
10
19.9139233879168
20
-0.142607282094673
30
0
41
1
10
19.9208051612168
20
-0.139988311814136
30
0
41
1
10
19.941833082097
20
-0.133257824871066
30
0
41
1
10
19.9563563477011
20
-0.130262308250309
30
0
41
1
10
19.979091247698
20
-0.1280626471424
30
0
41
1
10
19.9868534881195
20
-0.127717767355364
30
0
41
1
10
20.0024520353392
20
-0.127826543440477
30
0
41
1
10
20.0103183419725
20
-0.128274941374173
30
0
41
1
10
20.01826372175
20
-0.129116052684935
30
0
0
SPLINE
5
13E
100
AcDbEntity
8
1
62
256
6
ByLayer
370
13
48
1
60
0
100
AcDbSpline
70
4
71
3
72
13
73
9
40
0
40
0
40
0
40
0
40
0.267607480568641
40
0.401411220852961
40
0.602116831279441
40
0.735920571563762
40
0.936626181990242
40
1
40
1
40
1
40
1
41
1
10
9
20
1.20277093717507
30
0
41
1
10
9.50000000000003
20
1.01392425122944
30
0
41
1
10
10.25
20
0.689643482897282
30
0
41
1
10
11.375
20
0.155373707224413
30
0
41
1
10
12.25
20
-0.269421309153103
30
0
41
1
10
13.25
20
-0.733746209072166
30
0
41
1
10
13.9934081586118
20
-1.05373147949095
30
0
41
1
10
14.4868163172236
20
-1.23966911110065
30
0
41
1
10
14.6052244758354
20
-1.28261623382363
30
0
0
SPLINE
5
13F
100
AcDbEntity
8
1
62
256
6
ByLayer
370
18
48
1
60
0
100
AcDbSpline
70
4
71
3
72
23
73
19
40
0
40
0
40
0
40
0
40
0.0625000000000055
40
0.0625000000000055
40
0.125000000000011
40
0.125000000000011
40
0.250000000000021
40
0.250000000000021
40
0.375000000000031
40
0.375000000000031
40
0.500000000000041
40
0.625000000000051
40
0.625000000000051
40
0.687500000000046
40
0.687500000000046
40
0.750000000000041
40
0.750000000000041
40
1
40
1
40
1
40
1
41
1
10
20.6706712480835
20
-1.29229860286901
30
0
41
1
10
20.6683831972282
20
-1.30478168224676
30
0
41
1
10
20.665767236425
20
-1.31719891780492
30
0
41
1
10
20.6599040808061
20
-1.34166239020661
30
0
41
1
10
20.6566491360115
20
-1.3537389371354
30
0
41
1
10
20.6459087794218
20
-1.38948707397071
30
0
41
1
10
20.6374566073079
20
-1.41268187391177
30
0
41
1
10
20.6178622533051
20
-1.45767124120607
30
0
41
1
10
20.6067127290386
20
-1.47948159344259
30
0
41
1
10
20.5814761747899
20
-1.52141798969092
30
0
41
1
10
20.5538081419435
20
-1.5608253652324
30
0
41
1
10
20.5211572439173
20
-1.59485062609636
30
0
41
1
10
20.4946558908287
20
-1.61813215678421
30
0
41
1
10
20.4854423570446
20
-1.62555160575406
30
0
41
1
10
20.4665808003328
20
-1.63943801852238
30
0
41
1
10
20.4569437364444
20
-1.64590447086286
30
0
41
1
10
20.4077760992956
20
-1.67593769499374
30
0
41
1
10
20.3653532583295
20
-1.69270085870545
30
0
41
1
10
20.3199963676472
20
-1.70248210599456
30
0
0
SPLINE
5
140
100
AcDbEntity
8
1
62
256
6
ByLayer
370
18
48
1
60
0
100
AcDbSpline
70
4
71
3
72
8
73
4
40
0
40
0
40
0
40
0
40
1
40
1
40
1
40
1
41
1
10
20.6706712480819
20
-1.29229860286799
30
0
41
1
10
20.6829726025184
20
-1.28271632596938
30
0
41
1
10
20.6950728669003
20
-1.27281549320776
30
0
41
1
10
20.706977760914
20
-1.26260892670564
30
0
0
SPLINE
5
141
100
AcDbEntity
8
1
62
256
6
ByLayer
370
18
48
1
60
0
100
AcDbSpline
70
4
71
3
72
8
73
4
40
0
40
0
40
0
40
0
40
1
40
1
40
1
40
1
41
1
10
20.6912347949809
20
-1.16482239970617
30
0
41
1
10
20.6962951334671
20
-1.19732942999431
30
0
41
1
10
20.7015451683657
20
-1.22994202951907
30
0
41
1
10
20.7069777609139
20
-1.26260892670547
30
0
0
SPLINE
5
142
100
AcDbEntity
8
1
62
256
6
ByLayer
370
18
48
1
60
0
100
AcDbSpline
70
4
71
3
72
12
73
8
40
0
40
0
40
0
40
0
40
0.25
40
0.25
40
0.5
40
0.5
40
1
40
1
40
1
40
1
41
1
10
19.8490571841993
20
-0.5986230849945
30
0
41
1
10
19.9187283172661
20
-0.648344226996954
30
0
41
1
10
19.9885506930818
20
-0.697313247013739
30
0
41
1
10
20.1284547434691
20
-0.793961808398876
30
0
41
1
10
20.1985366738228
20
-0.841640077777527
30
0
41
1
10
20.409131192758
20
-0.98294068111079
30
0
41
1
10
20.54998957696
20
-1.07484339220244
30
0
41
1
10
20.6912347949795
20
-1.16482239970364
30
0
0
SPLINE
5
143
100
AcDbEntity
8
1
62
256
6
ByLayer
370
18
48
1
60
0
100
AcDbSpline
70
4
71
3
72
16
73
12
40
0
40
0
40
0
40
0
40
0.250000000000044
40
0.250000000000044
40
0.375000000000001
40
0.375000000000001
40
0.499999999999959
40
0.499999999999959
40
0.749999999999979
40
0.749999999999979
40
1
40
1
40
1
40
1
41
1
10
19.8490571841993
20
-0.5986230849945
30
0
41
1
10
19.8411681679463
20
-0.5929930502856
30
0
41
1
10
19.833755247328
20
-0.58691827589206
30
0
41
1
10
19.8234219942297
20
-0.577074489716949
30
0
41
1
10
19.8201089589627
20
-0.573670953598196
30
0
41
1
10
19.8137629585367
20
-0.566603639421174
30
0
41
1
10
19.8107264266655
20
-0.562930673629012
30
0
41
1
10
19.8022675302472
20
-0.551779550282845
30
0
41
1
10
19.7974141243791
20
-0.544087199263913
30
0
41
1
10
19.7892096339302
20
-0.528213558654073
30
0
41
1
10
19.7858643999906
20
-0.520008442543201
30
0
41
1
10
19.7833122507423
20
-0.511813770521655
30
0
0
SPLINE
5
144
100
AcDbEntity
8
1
62
256
6
ByLayer
370
13
48
1
60
0
100
AcDbSpline
70
4
71
3
72
13
73
9
40
0
40
0
40
0
40
0
40
0.0772777112469574
40
0.281851580829526
40
0.486425450412094
40
0.690999319994663
40
0.895573189577231
40
1
40
1
40
1
40
1
41
1
10
19.7833122507458
20
-0.511813770523361
30
0
41
1
10
19.6888748338305
20
-0.465474849225927
30
0
41
1
10
19.3444374169153
20
-0.294994229509314
30
0
41
1
10
18.75
20
0.0049249567338734
30
0
41
1
10
18
20
0.382376039584443
30
0
41
1
10
17.25
20
0.750137628894777
30
0
41
1
10
16.6223849597265
20
1.03633209314543
30
0
41
1
10
16.244769919453
20
1.19330737025777
30
0
41
1
10
16.1171548791794
20
1.24441273239918
30
0
0
SPLINE
5
145
100
AcDbEntity
8
1
62
256
6
ByLayer
370
18
48
1
60
0
100
AcDbSpline
70
4
71
3
72
8
73
4
40
0
40
0
40
0
40
0
40
1
40
1
40
1
40
1
41
1
10
16.1171544414399
20
1.24441290769852
30
0
41
1
10
16.0971042192345
20
1.252442320027
30
0
41
1
10
16.0770539970291
20
1.26042373347457
30
0
41
1
10
16.0570037748236
20
1.26835634772635
30
0
0
SPLINE
5
146
100
AcDbEntity
8
1
62
256
6
ByLayer
370
18
48
1
60
0
100
AcDbSpline
70
4
71
3
72
26
73
22
40
0
40
0
40
0
40
0
40
0.0324147328184343
40
0.0324147328184343
40
0.170641199558669
40
0.170641199558669
40
0.308867666298904
40
0.308867666298904
40
0.377980899669021
40
0.377980899669021
40
0.447094133039138
40
0.447094133039138
40
0.585320599779355
40
0.585320599779355
40
0.654433833149462
40
0.654433833149462
40
0.72354706651957
40
0.72354706651957
40
0.861773533259785
40
0.861773533259785
40
1
40
1
40
1
40
1
41
1
10
20.6884753373173
20
-2.30667518997237
30
0
41
1
10
20.6868700784139
20
-2.31302732424021
30
0
41
1
10
20.6851750366157
20
-2.31936575668038
30
0
41
1
10
20.6757841012212
20
-2.35262160770867
30
0
41
1
10
20.6665576045116
20
-2.37927309822905
30
0
41
1
10
20.6448106002377
20
-2.43207159391554
30
0
41
1
10
20.6322727297364
20
-2.45821615905405
30
0
41
1
10
20.6107788018387
20
-2.49708425918121
30
0
41
1
10
20.6031752948952
20
-2.50994951634195
30
0
41
1
10
20.5873087904858
20
-2.53513082936914
30
0
41
1
10
20.579018607664
20
-2.54750032610809
30
0
41
1
10
20.5530896089247
20
-2.58395907813275
30
0
41
1
10
20.534398387595
20
-2.60740249566817
30
0
41
1
10
20.5041965563541
20
-2.64125944706527
30
0
41
1
10
20.4937674534566
20
-2.65232641194589
30
0
41
1
10
20.4721757555066
20
-2.6740197490073
30
0
41
1
10
20.4609809711703
20
-2.68467017107179
30
0
41
1
10
20.4269164608188
20
-2.71537975930559
30
0
41
1
10
20.4033860475316
20
-2.73439192495692
30
0
41
1
10
20.3547948309371
20
-2.76967862810596
30
0
41
1
10
20.3297359582845
20
-2.78595662214317
30
0
41
1
10
20.3039220496944
20
-2.80088646234316
30
0
0
SPLINE
5
147
100
AcDbEntity
8
1
62
256
6
ByLayer
370
13
48
1
60
0
100
AcDbSpline
70
4
71
3
72
16
73
12
40
0
40
0
40
0
40
0
40
0.0054112863395153
40
0.172971134178496
40
0.284677699404483
40
0.452237547243464
40
0.563944112469451
40
0.675650677695438
40
0.787357242921425
40
0.899063808147412
40
1
40
1
40
1
40
1
41
1
10
18.7863314792325
20
-1.61378869830023
30
0
41
1
10
18.774220986155
20
-1.60997430078209
30
0
41
1
10
18.3871104930775
20
-1.48731933190936
30
0
41
1
10
17.75
20
-1.24736528053342
30
0
41
1
10
16.75
20
-0.792263753528261
30
0
41
1
10
15.875
20
-0.352025397736895
30
0
41
1
10
15
20
0.0991831563686105
30
0
41
1
10
14.25
20
0.485443505174544
30
0
41
1
10
13.5
20
0.853504102988864
30
0
41
1
10
12.7741041637786
20
1.17626840965667
30
0
41
1
10
12.2982083275572
20
1.36029513772599
30
0
41
1
10
12.0723124913358
20
1.44057593113522
30
0
0
SPLINE
5
148
100
AcDbEntity
8
1
62
256
6
ByLayer
370
13
48
1
60
0
100
AcDbSpline
70
4
71
3
72
16
73
12
40
0
40
0
40
0
40
0
40
0.0497773562122981
40
0.163018630516535
40
0.276259904820772
40
0.389501179125009
40
0.502742453429246
40
0.615983727733483
40
0.785845639189838
40
0.899086913494075
40
1
40
1
40
1
40
1
41
1
10
11.6703232333917
20
1.61118736269938
30
0
41
1
10
11.7802154889278
20
1.58029396968561
30
0
41
0.999999999999999
10
12.1401077444639
20
1.47300072405315
30
0
41
1
10
12.75
20
1.25979692696436
30
0
41
1
10
13.5
20
0.950291873336368
30
0
41
1
10
14.25
20
0.603914516175649
30
0
41
1
10
15
20
0.236019304315505
30
0
41
1
10
15.875
20
-0.199346352328178
30
0
41
1
10
16.75
20
-0.630407781651542
30
0
41
1
10
17.5977833604088
20
-1.01444186147606
30
0
41
1
10
18.0705667208178
20
-1.20417005116153
30
0
41
1
10
18.2933500812266
20
-1.28728796102467
30
0
0
SPLINE
5
149
100
AcDbEntity
8
1
62
256
6
ByLayer
370
18
48
1
60
0
100
AcDbSpline
70
4
71
3
72
13
73
9
40
0
40
0
40
0
40
0
40
0.137038829453707
40
0.321959080285056
40
0.445239247505955
40
0.630159498337303
40
0.753439665558202
40
1
40
1
40
1
40
1
41
1
10
15.0837036232772
20
-1.58657131251996
30
0
41
1
10
14.8058024155182
20
-1.5006846731589
30
0
41
1
10
14.1529012077591
20
-1.27210756865057
30
0
41
1
10
13.25
20
-0.884092363657572
30
0
41
1
10
12.25
20
-0.413420094192816
30
0
41
1
10
11.375
20
0.0239608191794218
30
0
41
1
10
10.25
20
0.581330080808073
30
0
41
1
10
9.50000000000003
20
0.925339778481117
30
0
41
1
10
9
20
1.12865767155989
30
0
0
SPLINE
5
14A
100
AcDbEntity
8
1
62
256
6
ByLayer
370
18
48
1
60
0
100
AcDbSpline
70
4
71
3
72
16
73
12
40
0
40
0
40
0
40
0
40
0.250000000000068
40
0.250000000000068
40
0.500000000000137
40
0.500000000000137
40
0.625000000000104
40
0.625000000000104
40
0.750000000000071
40
0.750000000000071
40
1
40
1
40
1
40
1
41
1
10
20.3039220496943
20
-2.80088646234319
30
0
41
1
10
20.2975388315451
20
-2.80528211839322
30
0
41
1
10
20.2912951001432
20
-2.80951894249546
30
0
41
1
10
20.2792520093785
20
-2.81765037585339
30
0
41
1
10
20.2734987990854
20
-2.8215136381134
30
0
41
1
10
20.2656508094299
20
-2.82685587230199
30
0
41
1
10
20.2631574769741
20
-2.82856669597064
30
0
41
1
10
20.2584635383407
20
-2.83183969036042
30
0
41
1
10
20.2562482437854
20
-2.83341300036466
30
0
41
1
10
20.2502503574103
20
-2.83780087520697
30
0
41
1
10
20.2471297191946
20
-2.84027190681334
30
0
41
1
10
20.2449437640936
20
-2.84231568627962
30
0
0
SPLINE
5
14B
100
AcDbEntity
8
1
62
256
6
ByLayer
370
18
48
1
60
0
100
AcDbSpline
70
4
71
3
72
21
73
17
40
0
40
0
40
0
40
0
40
0.0050961199460518
40
0.0759778831802043
40
0.146859646414357
40
0.253182291265585
40
0.324064054499738
40
0.430386699350967
40
0.501268462585119
40
0.572150225819272
40
0.643031989053424
40
0.713913752287577
40
0.784795515521729
40
0.855677278755882
40
0.926559041990034
40
1
40
1
40
1
40
1
41
1
10
20.3039220496944
20
-2.80088646234316
30
0
41
1
10
20.2859480331296
20
-2.80054485615619
30
0
41
1
10
20.0179740165648
20
-2.79419576973157
30
0
41
1
10
19.5
20
-2.74555827568577
30
0
41
1
10
18.625
20
-2.55709759350404
30
0
41
1
10
17.75
20
-2.23679259035515
30
0
41
1
10
16.75
20
-1.74733883924301
30
0
41
1
10
15.875
20
-1.23059933463395
30
0
41
1
10
15
20
-0.656537320344995
30
0
41
1
10
14.25
20
-0.141005427932868
30
0
41
1
10
13.5
20
0.380037296365458
30
0
41
1
10
12.75
20
0.887885772913109
30
0
41
0.999999999999999
10
12
20
1.36415576313229
30
0
41
1
10
11.25
20
1.79384231843522
30
0
41
1
10
10.4909737192649
20
2.16772623627796
30
0
41
1
10
9.98194743852974
20
2.36755502378409
30
0
41
1
10
9.72292115779462
20
2.4541269132674
30
0
0
SPLINE
5
14C
100
AcDbEntity
8
1
62
256
6
ByLayer
370
18
48
1
60
0
100
AcDbSpline
70
4
71
3
72
16
73
12
40
0
40
0
40
0
40
0
40
0.250000000000025
40
0.250000000000025
40
0.500000000000049
40
0.500000000000049
40
0.625000000000062
40
0.625000000000062
40
0.750000000000074
40
0.750000000000074
40
1
40
1
40
1
40
1
41
1
10
20.3199963676472
20
-1.70248210599459
30
0
41
1
10
20.312797991157
20
-1.70801558627471
30
0
41
1
10
20.3057226357999
20
-1.713818063898
30
0
41
1
10
20.2919942024484
20
-1.7262423320974
30
0
41
1
10
20.2853956746442
20
-1.73282312669397
30
0
41
1
10
20.2763476873014
20
-1.74328285436314
30
0
41
1
10
20.2734647348507
20
-1.74687713163226
30
0
41
1
10
20.2680271201021
20
-1.75433258040783
30
0
41
1
10
20.2654556725391
20
-1.75822777934002
30
0
41
1
10
20.2585774403126
20
-1.77000266367372
30
0
41
1
10
20.2550393896333
20
-1.77804385388802
30
0
41
1
10
20.2526359946544
20
-1.78631937719806
30
0
0
SPLINE
5
14D
100
AcDbEntity
8
1
62
256
6
ByLayer
370
18
48
1
60
0
100
AcDbSpline
70
4
71
3
72
17
73
13
40
0
40
0
40
0
40
0
40
0.0104695702126353
40
0.122649357870413
40
0.234829145528191
40
0.347008933185969
40
0.459188720843748
40
0.571368508501526
40
0.683548296159304
40
0.795728083817082
40
0.90790787147486
40
1
40
1
40
1
40
1
41
1
10
20.3199963676472
20
-1.70248210599459
30
0
41
1
10
20.2966642450981
20
-1.68925310135262
30
0
41
1
10
20.023332122549
20
-1.53322900561761
30
0
41
1
10
19.5
20
-1.21164511460174
30
0
41
1
10
18.75
20
-0.704869328395404
30
0
41
1
10
18
20
-0.17333247849902
30
0
41
1
10
17.25
20
0.364810826328068
30
0
41
1
10
16.5
20
0.889996222318501
30
0
41
1
10
15.75
20
1.38212451384911
30
0
41
1
10
15
20
1.82331648744054
30
0
41
1
10
14.2947666633002
20
2.17483372908311
30
0
41
1
10
13.8395333266002
20
2.35770947466915
30
0
41
1
10
13.6342999899005
20
2.43018745150493
30
0
0
SPLINE
5
14E
100
AcDbEntity
8
1
62
256
6
ByLayer
370
13
48
1
60
0
100
AcDbSpline
70
4
71
3
72
11
73
7
40
0
40
0
40
0
40
0
40
0.296957807918002
40
0.594379577813522
40
0.891801347709042
40
1
40
1
40
1
40
1
41
1
10
20.2488300403051
20
0.683829494346327
30
0
41
1
10
19.9992200268701
20
0.856800902591374
30
0
41
1
10
19.499610013435
20
1.19252191891039
30
0
41
1
10
18.75
20
1.66214568973027
30
0
41
1
10
18.1590528474689
20
1.9806473818723
30
0
41
1
10
17.8181056949379
20
2.142254762182
30
0
41
1
10
17.7271585424068
20
2.18369009349951
30
0
0
SPLINE
5
14F
100
AcDbEntity
8
1
62
256
6
ByLayer
370
18
48
1
60
0
100
AcDbSpline
70
4
71
3
72
16
73
12
40
0
40
0
40
0
40
0
40
0.032233805317098
40
0.164201922773857
40
0.25218066774503
40
0.38414878520179
40
0.516116902658549
40
0.604095647629722
40
0.736063765086481
40
0.824042510057654
40
1
40
1
40
1
40
1
41
1
10
17.5247863020295
20
-2.74656160701611
30
0
41
1
10
17.4331908680197
20
-2.75855330155258
30
0
41
1
10
16.9665954340098
20
-2.80965375347125
30
0
41
1
10
16.25
20
-2.80976848406249
30
0
41
1
10
15.25
20
-2.66273923044747
30
0
41
1
10
14.25
20
-2.37171669449921
30
0
41
1
10
13.25
20
-1.93138849590753
30
0
41
1
10
12.25
20
-1.39406894457321
30
0
41
1
10
11.375
20
-0.855037405771498
30
0
41
1
10
10.25
20
-0.114744859961775
30
0
41
1
10
9.50000000000003
20
0.391077041990741
30
0
41
1
10
9
20
0.71279472013353
30
0
0
SPLINE
5
150
100
AcDbEntity
8
1
62
256
6
ByLayer
370
18
48
1
60
0
100
AcDbSpline
70
4
71
3
72
20
73
16
40
0
40
0
40
0
40
0
40
0.249999999999997
40
0.249999999999997
40
0.374999999999997
40
0.374999999999997
40
0.499999999999998
40
0.499999999999998
40
0.624999999999999
40
0.624999999999999
40
0.749999999999999
40
0.749999999999999
40
0.875
40
0.875
40
1
40
1
40
1
40
1
41
1
10
6.82570623418542
20
2.55564892833641
30
0
41
1
10
6.82157083184734
20
2.56061729098002
30
0
41
1
10
6.81841671219493
20
2.56564531966288
30
0
41
1
10
6.81595925627457
20
2.57335378241379
30
0
41
1
10
6.81553567430745
20
2.57594856335797
30
0
41
1
10
6.81567473757832
20
2.58104879590437
30
0
41
1
10
6.81622876886405
20
2.5835724163864
30
0
41
1
10
6.81852034438686
20
2.58856262861502
30
0
41
1
10
6.82024410590137
20
2.59097210883309
30
0
41
1
10
6.82480675411901
20
2.59550885740907
30
0
41
1
10
6.82766335769028
20
2.59766028419983
30
0
41
1
10
6.83450466722746
20
2.60169267655212
30
0
41
1
10
6.83837231740208
20
2.60350909300769
30
0
41
1
10
6.84686732787478
20
2.60680888649253
30
0
41
1
10
6.8515163884376
20
2.60829579957371
30
0
41
1
10
6.8564042560883
20
2.60961505029306
30
0
0
SPLINE
5
151
100
AcDbEntity
8
1
62
256
6
ByLayer
370
18
48
1
60
0
100
AcDbSpline
70
4
71
3
72
28
73
24
40
0
40
0
40
0
40
0
40
0.0312500000000049
40
0.0312500000000049
40
0.0625000000000098
40
0.0625000000000098
40
0.125000000000008
40
0.125000000000008
40
0.187500000000007
40
0.187500000000007
40
0.250000000000006
40
0.250000000000006
40
0.375000000000003
40
0.375000000000003
40
0.437500000000002
40
0.437500000000002
40
0.5
40
0.5
40
0.624999999999997
40
0.624999999999997
40
0.749999999999995
40
0.749999999999995
40
1
40
1
40
1
40
1
41
1
10
6.85640425608827
20
2.60961505029306
30
0
41
1
10
6.87194189242129
20
2.61380870678587
30
0
41
1
10
6.88791999138064
20
2.61746072061814
30
0
41
1
10
6.92055325266506
20
2.62396110545018
30
0
41
1
10
6.93721005408918
20
2.62680715692267
30
0
41
1
10
6.98800970441482
20
2.63439148069156
30
0
41
1
10
7.02297180859577
20
2.63818981734082
30
0
41
1
10
7.09450883317507
20
2.64403274293713
30
0
41
1
10
7.13059984740124
20
2.64602973158827
30
0
41
1
10
7.20306396905991
20
2.64867180171356
30
0
41
1
10
7.23955501713922
20
2.64931337553003
30
0
41
1
10
7.34886987118185
20
2.64960565490551
30
0
41
1
10
7.42137729540832
20
2.6476677289954
30
0
41
1
10
7.52974348479265
20
2.64239844542323
30
0
41
1
10
7.56582814255509
20
2.64023537948927
30
0
41
1
10
7.63755426893761
20
2.63518521772934
30
0
41
1
10
7.6732328941707
20
2.63229654924692
30
0
41
1
10
7.77977480546392
20
2.62260218947912
30
0
41
1
10
7.85023377003563
20
2.61476071875873
30
0
41
1
10
7.98945063687492
20
2.59655026751724
30
0
41
1
10
8.05825944510559
20
2.58617571910605
30
0
41
1
10
8.26253814429575
20
2.55128463784786
30
0
41
1
10
8.39511554166228
20
2.52314174953045
30
0
41
1
10
8.52502631651865
20
2.48997338967538
30
0
0
SPLINE
5
152
100
AcDbEntity
8
1
62
256
6
ByLayer
370
18
48
1
60
0
100
AcDbSpline
70
4
71
3
72
16
73
12
40
0
40
0
40
0
40
0
40
0.125
40
0.125
40
0.249999999999999
40
0.249999999999999
40
0.499999999999999
40
0.499999999999999
40
0.75
40
0.75
40
1
40
1
40
1
40
1
41
1
10
8.34193870307828
20
-2.7511880951422
30
0
41
1
10
8.33866556133077
20
-2.74817366595028
30
0
41
1
10
8.33422080603603
20
-2.74530704848004
30
0
41
1
10
8.32456850677048
20
-2.73962396564281
30
0
41
1
10
8.31929245311181
20
-2.73681831003808
30
0
41
1
10
8.30274677980697
20
-2.72841318507793
30
0
41
1
10
8.29075124090195
20
-2.72281773492873
30
0
41
1
10
8.26599379034954
20
-2.71153723376227
30
0
41
1
10
8.25320866700372
20
-2.70586109591619
30
0
41
1
10
8.22715599186651
20
-2.69437452768835
30
0
41
1
10
8.21388209697071
20
-2.68856540794278
30
0
41
1
10
8.20043484230362
20
-2.68267767646435
30
0
0
SPLINE
5
153
100
AcDbEntity
8
1
62
256
6
ByLayer
370
18
48
1
60
0
100
AcDbSpline
70
4
71
3
72
18
73
14
40
0
40
0
40
0
40
0
40
0.250000000000002
40
0.250000000000002
40
0.500000000000004
40
0.500000000000004
40
0.625000000000005
40
0.625000000000005
40
0.687500000000002
40
0.687500000000002
40
0.749999999999999
40
0.749999999999999
40
1
40
1
40
1
40
1
41
1
10
8.20043484230365
20
-2.68267767646438
30
0
41
1
10
8.05671371900547
20
-2.63952615988737
30
0
41
1
10
7.91655569079632
20
-2.58865540405529
30
0
41
1
10
7.64358798712448
20
-2.46942060645677
30
0
41
1
10
7.51078100739898
20
-2.40106456892241
30
0
41
1
10
7.31713121636932
20
-2.28329966862441
30
0
41
1
10
7.2535065598895
20
-2.24149956948284
30
0
41
1
10
7.15944657481018
20
-2.1746417294537
30
0
41
1
10
7.12829376484794
20
-2.15163825253157
30
0
41
1
10
7.06674935362847
20
-2.1044215529179
30
0
41
1
10
7.03632555541819
20
-2.08018706400702
30
0
41
1
10
6.88592306174581
20
-1.95580926927423
30
0
41
1
10
6.77110246690089
20
-1.84608309023741
30
0
41
1
10
6.66138595333692
20
-1.72494242625319
30
0
0
SPLINE
5
154
100
AcDbEntity
8
1
62
256
6
ByLayer
370
18
48
1
60
0
100
AcDbSpline
70
4
71
3
72
24
73
20
40
0
40
0
40
0
40
0
40
0.250000000000015
40
0.250000000000015
40
0.375000000000006
40
0.375000000000006
40
0.499999999999996
40
0.499999999999996
40
0.624999999999986
40
0.624999999999986
40
0.687499999999988
40
0.687499999999988
40
0.74999999999999
40
0.74999999999999
40
0.812499999999992
40
0.812499999999992
40
0.874999999999994
40
0.874999999999994
40
1
40
1
40
1
40
1
41
1
10
6.66138595333692
20
-1.72494242625319
30
0
41
1
10
6.64945539814977
20
-1.71176961087539
30
0
41
1
10
6.6386691548104
20
-1.69800843915962
30
0
41
1
10
6.62544677945075
20
-1.6758896997016
30
0
41
1
10
6.62152027893674
20
-1.66821749663259
30
0
41
1
10
6.61527345510547
20
-1.65237128969051
30
0
41
1
10
6.6129565277019
20
-1.64424942414371
30
0
41
1
10
6.61082293234713
20
-1.62749936801924
30
0
41
1
10
6.6110428478278
20
-1.61916627580797
30
0
41
1
10
6.61413227408195
20
-1.6067792039226
30
0
41
1
10
6.61564937754486
20
-1.60265989783528
30
0
41
1
10
6.61960087742241
20
-1.5948745530817
30
0
41
1
10
6.62204283943746
20
-1.59115841068947
30
0
41
1
10
6.62790044478962
20
-1.58409886227625
30
0
41
1
10
6.6312263688009
20
-1.58086485216344
30
0
41
1
10
6.63854175076338
20
-1.57495335404261
30
0
41
1
10
6.64257557636651
20
-1.57224998442544
30
0
41
1
10
6.65525705880773
20
-1.56505519197046
30
0
41
1
10
6.66444231930799
20
-1.56143211104776
30
0
41
1
10
6.67412125171344
20
-1.55860720818174
30
0
0
SPLINE
5
155
100
AcDbEntity
8
1
62
256
6
ByLayer
370
18
48
1
60
0
100
AcDbSpline
70
4
71
3
72
36
73
32
40
0
40
0
40
0
40
0
40
0.0312500000000033
40
0.0312500000000033
40
0.0625000000000067
40
0.0625000000000067
40
0.125000000000013
40
0.125000000000013
40
0.156250000000017
40
0.156250000000017
40
0.18750000000002
40
0.18750000000002
40
0.250000000000016
40
0.250000000000016
40
0.312500000000012
40
0.312500000000012
40
0.375000000000008
40
0.375000000000008
40
0.437500000000005
40
0.437500000000005
40
0.500000000000001
40
0.500000000000001
40
0.624999999999993
40
0.624999999999993
40
0.687499999999994
40
0.687499999999994
40
0.749999999999995
40
0.749999999999995
40
0.874999999999998
40
0.874999999999998
40
1
40
1
40
1
40
1
41
1
10
6.67412125171342
20
-1.55860720818174
30
0
41
1
10
6.69383653974683
20
-1.55285308455149
30
0
41
1
10
6.71372623289309
20
-1.54809362874465
30
0
41
1
10
6.75377255377592
20
-1.54011067112782
30
0
41
1
10
6.77392987618734
20
-1.53689094396753
30
0
41
1
10
6.83472842729597
20
-1.52912268674783
30
0
41
1
10
6.87569234334413
20
-1.52644374839534
30
0
41
1
10
6.9376144366727
20
-1.52520181253709
30
0
41
1
10
6.95835694846758
20
-1.52525965408904
30
0
41
1
10
6.99967737937956
20
-1.52620039349409
30
0
41
1
10
7.02029382690316
20
-1.52708185002206
30
0
41
1
10
7.0820274934874
20
-1.53081040914557
30
0
41
1
10
7.12302978500222
20
-1.53473494337086
30
0
41
1
10
7.20478378656523
20
-1.54490982219411
30
0
41
1
10
7.24552664514971
20
-1.55116647167122
30
0
41
1
10
7.32635697108972
20
-1.56554887889143
30
0
41
1
10
7.36650658828117
20
-1.57368363603774
30
0
41
1
10
7.44634680471995
20
-1.59154427418085
30
0
41
1
10
7.4860529696403
20
-1.60127710303866
30
0
41
1
10
7.56473989006204
20
-1.62201831823401
30
0
41
1
10
7.60376296958421
20
-1.63303606829558
30
0
41
1
10
7.71998109886962
20
-1.66773627212399
30
0
41
1
10
7.79632902724461
20
-1.69305628637588
30
0
41
1
10
7.90947912026363
20
-1.73340228627311
30
0
41
1
10
7.9469858905735
20
-1.74725590432186
30
0
41
1
10
8.02144911021909
20
-1.7755791832096
30
0
41
1
10
8.05841229386078
20
-1.79005077695373
30
0
41
1
10
8.16857540059621
20
-1.83422084065782
30
0
41
1
10
8.24108853365706
20
-1.864687757491
30
0
41
1
10
8.38430977236041
20
-1.92670711655893
30
0
41
1
10
8.45502451059562
20
-1.95826212635566
30
0
41
1
10
8.52502631651845
20
-1.99001279913111
30
0
0
SPLINE
5
156
100
AcDbEntity
8
1
62
256
6
ByLayer
370
18
48
1
60
0
100
AcDbSpline
70
4
71
3
72
18
73
14
40
0
40
0
40
0
40
0
40
0.062499999999979
40
0.062499999999979
40
0.124999999999958
40
0.124999999999958
40
0.249999999999949
40
0.249999999999949
40
0.499999999999966
40
0.499999999999966
40
0.749999999999983
40
0.749999999999983
40
1
40
1
40
1
40
1
41
1
10
8.3302006902554
20
-1.25876570878194
30
0
41
1
10
8.32806836032714
20
-1.25290784985532
30
0
41
1
10
8.32542647407448
20
-1.24730766709956
30
0
41
1
10
8.31966887805109
20
-1.2363402640307
30
0
41
1
10
8.31653750682526
20
-1.2309811708628
30
0
41
1
10
8.30668672255899
20
-1.21512213133536
30
0
41
1
10
8.29951937043325
20
-1.20483592483416
30
0
41
1
10
8.27712564853189
20
-1.17436844427374
30
0
41
1
10
8.26100100116531
20
-1.15457403221632
30
0
41
1
10
8.22796013860889
20
-1.11556817230476
30
0
41
1
10
8.21096122662945
20
-1.09633539061329
30
0
41
1
10
8.17639407377931
20
-1.05813354979767
30
0
41
1
10
8.15881778178561
20
-1.03917032042926
30
0
41
1
10
8.14103108238407
20
-1.02028709833192
30
0
0
SPLINE
5
157
100
AcDbEntity
8
1
62
256
6
ByLayer
370
18
48
1
60
0
100
AcDbSpline
70
4
71
3
72
22
73
18
40
0
40
0
40
0
40
0
40
0.25
40
0.25
40
0.374999999999999
40
0.374999999999999
40
0.499999999999999
40
0.499999999999999
40
0.624999999999999
40
0.624999999999999
40
0.687499999999999
40
0.687499999999999
40
0.749999999999999
40
0.749999999999999
40
0.874999999999999
40
0.874999999999999
40
1
40
1
40
1
40
1
41
1
10
6.65188959981194
20
0.52431236987178
30
0
41
1
10
6.64063705860033
20
0.539921699204967
30
0
41
1
10
6.63052077848127
20
0.556100460409027
30
0
41
1
10
6.61828294933335
20
0.581853777258686
30
0
41
1
10
6.61468386204825
20
0.590743046084015
30
0
41
1
10
6.60906182476592
20
0.609036087359186
30
0
41
1
10
6.60705329247702
20
0.618338763134716
30
0
41
1
10
6.60546929057242
20
0.637424590041661
30
0
41
1
10
6.60593090162266
20
0.646847769176247
30
0
41
1
10
6.60921516568561
20
0.660708140046609
30
0
41
1
10
6.6107681369057
20
0.665300592956953
30
0
41
1
10
6.61470862350876
20
0.673954961429075
30
0
41
1
10
6.61710366114133
20
0.678070512789759
30
0
41
1
10
6.62558891556085
20
0.689771601118025
30
0
41
1
10
6.63275299697668
20
0.696359158983284
30
0
41
1
10
6.64889599275892
20
0.707188617543409
30
0
41
1
10
6.65764535623089
20
0.71134084396337
30
0
41
1
10
6.66685533806537
20
0.71463747723638
30
0
0
SPLINE
5
158
100
AcDbEntity
8
1
62
256
6
ByLayer
370
18
48
1
60
0
100
AcDbSpline
70
4
71
3
72
18
73
14
40
0
40
0
40
0
40
0
40
0.0625000000000167
40
0.0625000000000167
40
0.125000000000033
40
0.125000000000033
40
0.250000000000029
40
0.250000000000029
40
0.500000000000019
40
0.500000000000019
40
0.75000000000001
40
0.75000000000001
40
1
40
1
40
1
40
1
41
1
10
8.303169422114
20
1.076850403024
30
0
41
1
10
8.30134881167615
20
1.08180917229265
30
0
41
1
10
8.2991706511628
20
1.08656061761994
30
0
41
1
10
8.29444369506123
20
1.09584494114571
30
0
41
1
10
8.29188670859537
20
1.10037316472662
30
0
41
1
10
8.28384834937319
20
1.11373751398398
30
0
41
1
10
8.27800709328358
20
1.12235760793035
30
0
41
1
10
8.2597306114539
20
1.14774609113636
30
0
41
1
10
8.24652988588517
20
1.16406641342539
30
0
41
1
10
8.21935028075325
20
1.19599208546634
30
0
41
1
10
8.20534280023458
20
1.2115717037089
30
0
41
1
10
8.17683439631739
20
1.24223470999058
30
0
41
1
10
8.16232677307258
20
1.25731286068478
30
0
41
1
10
8.14764170158023
20
1.27219835666571
30
0
0
SPLINE
5
159
100
AcDbEntity
8
1
62
256
6
ByLayer
370
18
48
1
60
0
100
AcDbSpline
70
4
71
3
72
21
73
17
40
0
40
0
40
0
40
0
40
0.249999999999995
40
0.249999999999995
40
0.374999999999996
40
0.374999999999996
40
0.499999999999996
40
0.499999999999996
40
0.562499999999996
40
0.562499999999996
40
0.624999999999997
40
0.749999999999998
40
0.749999999999998
40
0.874999999999999
40
0.874999999999999
40
1
40
1
40
1
40
1
41
1
10
8.1476417015802
20
1.27219835666571
30
0
41
1
10
8.00398558189332
20
1.38535318228045
30
0
41
1
10
7.86705523171395
20
1.49937224366951
30
0
41
1
10
7.67295573333843
20
1.67058870306374
30
0
41
1
10
7.61013793381571
20
1.72768312046531
30
0
41
1
10
7.48845694153485
20
1.84159327002456
30
0
41
1
10
7.42959363245799
20
1.89841013331719
30
0
41
1
10
7.34440208879269
20
1.98309013351977
30
0
41
1
10
7.31646683795461
20
2.01128313774188
30
0
41
1
10
7.26221999999885
20
2.06682674982792
30
0
41
1
10
7.1831008482695
20
2.14905514465187
30
0
41
1
10
7.11061919833938
20
2.22771459548423
30
0
41
1
10
7.01966892051146
20
2.32879147304038
30
0
41
1
10
6.9770386570984
20
2.37742988785021
30
0
41
1
10
6.89728033188149
20
2.47016628552501
30
0
41
1
10
6.86015082038267
20
2.51426645056384
30
0
41
1
10
6.82570623418542
20
2.55564892833641
30
0
0
SPLINE
5
15A
100
AcDbEntity
8
1
62
256
6
ByLayer
370
18
48
1
60
0
100
AcDbSpline
70
4
71
3
72
18
73
14
40
0
40
0
40
0
40
0
40
0.250000000000002
40
0.250000000000002
40
0.500000000000003
40
0.500000000000003
40
0.625000000000007
40
0.625000000000007
40
0.687500000000006
40
0.687500000000006
40
0.750000000000005
40
0.750000000000005
40
1
40
1
40
1
40
1
41
1
10
8.14103108238373
20
-1.02028709833223
30
0
41
1
10
8.0012213641709
20
-0.91193444008502
30
0
41
1
10
7.86503675020711
20
-0.798683047537082
30
0
41
1
10
7.60017164288854
20
-0.561708313051355
30
0
41
1
10
7.47149342529812
20
-0.437984624793671
30
0
41
1
10
7.28418904489251
20
-0.244017159423265
30
0
41
1
10
7.2227050643645
20
-0.177964184820525
30
0
41
1
10
7.13190103916011
20
-0.0767205973128853
30
0
41
1
10
7.10183463725284
20
-0.0425709584316962
30
0
41
1
10
7.04235017862135
20
0.0262559689447244
30
0
41
1
10
7.01296207488633
20
0.0608968697217165
30
0
41
1
10
6.86776852970988
20
0.235208915314445
30
0
41
1
10
6.75721081048209
20
0.378212619405844
30
0
41
1
10
6.65188959981194
20
0.52431236987178
30
0
0
SPLINE
5
15B
100
AcDbEntity
8
1
62
256
6
ByLayer
370
18
48
1
60
0
100
AcDbSpline
70
4
71
3
72
26
73
22
40
0
40
0
40
0
40
0
40
0.0312500000000011
40
0.0312500000000011
40
0.0625000000000021
40
0.0625000000000021
40
0.125000000000002
40
0.125000000000002
40
0.187500000000002
40
0.187500000000002
40
0.250000000000002
40
0.250000000000002
40
0.375000000000001
40
0.375000000000001
40
0.500000000000001
40
0.500000000000001
40
0.625000000000001
40
0.625000000000001
40
0.750000000000001
40
0.750000000000001
40
1
40
1
40
1
40
1
41
1
10
20.2449437640935
20
-2.84231568627965
30
0
41
1
10
20.2443364333633
20
-2.84288354610754
30
0
41
1
10
20.2435450067191
20
-2.84352789992607
30
0
41
1
10
20.241543103596
20
-2.84498574322126
30
0
41
1
10
20.2403105451513
20
-2.84581222722312
30
0
41
1
10
20.2361155530919
20
-2.84843448047946
30
0
41
1
10
20.232562403743
20
-2.85042816391922
30
0
41
1
10
20.2249464802599
20
-2.85439078820096
30
0
41
1
10
20.2208126682647
20
-2.85640293956078
30
0
41
1
10
20.212542423561
20
-2.86023894145978
30
0
41
1
10
20.2083575502428
20
-2.86208870732398
30
0
41
1
10
20.1956933800172
20
-2.86747568515892
30
0
41
1
10
20.1873542613723
20
-2.87074876985204
30
0
41
1
10
20.1708998003939
20
-2.8768373370807
30
0
41
1
10
20.1627504356976
20
-2.8796616565601
30
0
41
1
10
20.1465229924754
20
-2.88497047337967
30
0
41
1
10
20.1384458298682
20
-2.88745244372973
30
0
41
1
10
20.1224831365737
20
-2.89207632126329
30
0
41
1
10
20.1145734451141
20
-2.89422590604394
30
0
41
1
10
20.0909851127221
20
-2.90024517911172
30
0
41
1
10
20.0754426042438
20
-2.90370048039779
30
0
41
1
10
20.0599809665241
20
-2.90667639603569
30
0
0
SPLINE
5
15C
100
AcDbEntity
8
1
62
256
6
ByLayer
370
13
48
1
60
0
100
AcDbSpline
70
4
71
3
72
20
73
16
40
0
40
0
40
0
40
0
40
0.0662469977370858
40
0.132943640755865
40
0.232988605284035
40
0.299685248302814
40
0.399730212830984
40
0.466426855849763
40
0.533123498868543
40
0.599820141887322
40
0.666516784906102
40
0.733213427924882
40
0.799910070943661
40
0.866606713962441
40
1
40
1
40
1
40
1
41
1
10
20.2449437640935
20
-2.84231568627962
30
0
41
1
10
19.9966291760624
20
-2.84153257087462
30
0
41
1
10
19.4983145880312
20
-2.80803616038185
30
0
41
1
10
18.625
20
-2.63611602326122
30
0
41
1
10
17.75
20
-2.33377775141605
30
0
41
1
10
16.75
20
-1.85797952106623
30
0
41
1
10
15.875
20
-1.34361398475048
30
0
41
1
10
15
20
-0.768264257541574
30
0
41
1
10
14.25
20
-0.250590406148376
30
0
41
1
10
13.5
20
0.27788306873461
30
0
41
1
10
12.75
20
0.798295474349772
30
0
41
0.999999999999999
10
12
20
1.28937805921132
30
0
41
1
10
11.25
20
1.73554109582233
30
0
41
1
10
10.25
20
2.25393158789524
30
0
41
1
10
9.49999999999997
20
2.53373423240328
30
0
41
1
10
8.99999999999997
20
2.65737974355378
30
0
0
SPLINE
5
15D
100
AcDbEntity
8
1
62
256
6
ByLayer
370
18
48
1
60
0
100
AcDbSpline
70
4
71
3
72
34
73
30
40
0
40
0
40
0
40
0
40
0.0312499999999908
40
0.0312499999999908
40
0.0624999999999817
40
0.0624999999999817
40
0.124999999999974
40
0.124999999999974
40
0.15624999999997
40
0.15624999999997
40
0.187499999999966
40
0.187499999999966
40
0.249999999999968
40
0.249999999999968
40
0.312499999999971
40
0.312499999999971
40
0.374999999999974
40
0.374999999999974
40
0.437499999999976
40
0.437499999999976
40
0.499999999999979
40
0.499999999999979
40
0.624999999999984
40
0.624999999999984
40
0.74999999999999
40
0.74999999999999
40
0.874999999999995
40
0.874999999999995
40
1
40
1
40
1
40
1
41
1
10
6.66685533806535
20
0.71463747723638
30
0
41
1
10
6.68643262264789
20
0.721644996785301
30
0
41
1
10
6.70620620225617
20
0.72747157613847
30
0
41
1
10
6.74605253318336
20
0.737331678897419
30
0
41
1
10
6.76612609031409
20
0.741360261877077
30
0
41
1
10
6.82671173406666
20
0.751264639174337
30
0
41
1
10
6.86758436832375
20
0.754986111192125
30
0
41
1
10
6.92942321117997
20
0.757412021616943
30
0
41
1
10
6.95015603435408
20
0.757683911206044
30
0
41
1
10
6.99148238649937
20
0.757283066911384
30
0
41
1
10
7.01210842461862
20
0.756612714913871
30
0
41
1
10
7.07388852630754
20
0.753360713767933
30
0
41
1
10
7.1149452231044
20
0.749546436799676
30
0
41
1
10
7.19684669044696
20
0.739225398048205
30
0
41
1
10
7.23769574549093
20
0.732708854916069
30
0
41
1
10
7.3187710739796
20
0.717449737986243
30
0
41
1
10
7.3590592966386
20
0.708698080589215
30
0
41
1
10
7.43920444228823
20
0.689237903530994
30
0
41
1
10
7.4790849273312
20
0.678519278418804
30
0
41
1
10
7.55814925463895
20
0.655426382238034
30
0
41
1
10
7.59737209627321
20
0.643043060621352
30
0
41
1
10
7.71421765119734
20
0.603642146743709
30
0
41
1
10
7.79102127152441
20
0.574383689118235
30
0
41
1
10
7.9428513671044
20
0.510874977694357
30
0
41
1
10
8.01786962981819
20
0.476613225245387
30
0
41
1
10
8.1658212835369
20
0.404141326034107
30
0
41
1
10
8.23888114904426
20
0.365870222167615
30
0
41
1
10
8.38320691205232
20
0.286068255995019
30
0
41
1
10
8.45447601729211
20
0.244537240606235
30
0
41
1
10
8.52502631651848
20
0.201661625443506
30
0
0
SPLINE
5
15E
100
AcDbEntity
8
1
62
256
6
ByLayer
370
18
48
1
60
0
100
AcDbSpline
70
4
71
3
72
28
73
24
40
0
40
0
40
0
40
0
40
0.0312499999999708
40
0.0312499999999708
40
0.0624999999999417
40
0.0624999999999417
40
0.12499999999994
40
0.12499999999994
40
0.187499999999938
40
0.187499999999938
40
0.249999999999937
40
0.249999999999937
40
0.312499999999935
40
0.312499999999935
40
0.374999999999934
40
0.374999999999934
40
0.49999999999993
40
0.49999999999993
40
0.624999999999927
40
0.624999999999927
40
0.749999999999924
40
0.749999999999924
40
1
40
1
40
1
40
1
41
1
10
20.2526359946544
20
-1.78631937719806
30
0
41
1
10
20.2520731976156
20
-1.78825712803871
30
0
41
1
10
20.2513493600495
20
-1.79016415812325
30
0
41
1
10
20.2495335722589
20
-1.79390649896482
30
0
41
1
10
20.2484224607771
20
-1.79576507501159
30
0
41
1
10
20.2446175727879
20
-1.80098909982013
30
0
41
1
10
20.2413854383435
20
-1.80407661427762
30
0
41
1
10
20.2343501188049
20
-1.80911628571352
30
0
41
1
10
20.2305039618573
20
-1.81113439730422
30
0
41
1
10
20.2227519207966
20
-1.8143375124844
30
0
41
1
10
20.2188237909089
20
-1.81554599266423
30
0
41
1
10
20.2108921816071
20
-1.81744986865147
30
0
41
1
10
20.2069086761002
20
-1.8181342437619
30
0
41
1
10
20.1990529709169
20
-1.81911376024843
30
0
41
1
10
20.1951549412864
20
-1.81941300868578
30
0
41
1
10
20.1835187253803
20
-1.81989006555546
30
0
41
1
10
20.1758370046875
20
-1.8196540647167
30
0
41
1
10
20.1605432798291
20
-1.81846450077629
30
0
41
1
10
20.1529324262894
20
-1.81750200133928
30
0
41
1
10
20.1378999246778
20
-1.81506415629772
30
0
41
1
10
20.1304543137468
20
-1.81358494106786
30
0
41
1
10
20.1082563210292
20
-1.80853591858718
30
0
41
1
10
20.0936394442019
20
-1.80435924790783
30
0
41
1
10
20.0791029600235
20
-1.79961805464615
30
0
0
SPLINE
5
15F
100
AcDbEntity
8
1
62
256
6
ByLayer
370
13
48
1
60
0
100
AcDbSpline
70
4
71
3
72
16
73
12
40
0
40
0
40
0
40
0
40
0.0004431154554925
40
0.126519468149554
40
0.252595820843616
40
0.378672173537677
40
0.504748526231739
40
0.6308248789258
40
0.756901231619862
40
0.882977584313924
40
1
40
1
40
1
40
1
41
1
10
20.2526359946533
20
-1.78631937719746
30
0
41
1
10
20.2517573297689
20
-1.78582273900474
30
0
41
1
10
20.0008786648844
20
-1.64398666274809
30
0
41
1
10
19.5
20
-1.34109238084582
30
0
41
1
10
18.75
20
-0.829689169463904
30
0
41
1
10
17.9999999999999
20
-0.295382273187386
30
0
41
1
10
17.2499999999999
20
0.25060470428528
30
0
41
1
10
16.5
20
0.789984154245019
30
0
41
1
10
15.75
20
1.30090935041039
30
0
41
1
10
15.0179532815125
20
1.75118901108254
30
0
41
1
10
14.5359065630251
20
2.00698447580518
30
0
41
1
10
14.3038598445377
20
2.1191780270976
30
0
0
SPLINE
5
160
100
AcDbEntity
8
1
62
256
6
ByLayer
370
18
48
1
60
0
100
AcDbSpline
70
4
71
3
72
8
73
4
40
0
40
0
40
0
40
0
40
1
40
1
40
1
40
1
41
1
10
17.5468099513475
20
-2.75975011253351
30
0
41
1
10
17.503734751442
20
-2.76669944154807
30
0
41
1
10
17.4606595515366
20
-2.77321394853621
30
0
41
1
10
17.4175843516311
20
-2.77929221713654
30
0
0
SPLINE
5
161
100
AcDbEntity
8
1
62
256
6
ByLayer
370
13
48
1
60
0
100
AcDbSpline
70
4
71
3
72
16
73
12
40
0
40
0
40
0
40
0
40
0.0199088413763422
40
0.153557635734114
40
0.242656831972628
40
0.3763056263304
40
0.509954420688171
40
0.599053616926685
40
0.732702411284457
40
0.821801607522971
40
1
40
1
40
1
40
1
41
1
10
17.4175843516285
20
-2.77929221713694
30
0
41
1
10
17.3617229010857
20
-2.78717473193774
30
0
41
0.999999999999999
10
16.9308614505428
20
-2.84231413047698
30
0
41
1
10
16.25
20
-2.86018595758597
30
0
41
1
10
15.25
20
-2.73449131733
30
0
41
1
10
14.25
20
-2.46420587319074
30
0
41
1
10
13.2499999999999
20
-2.03737077722991
30
0
41
1
10
12.25
20
-1.50548405694698
30
0
41
1
10
11.375
20
-0.969755852842496
30
0
41
1
10
10.25
20
-0.224512219854575
30
0
41
1
10
9.49999999999997
20
0.291369251701156
30
0
41
1
10
8.99999999999997
20
0.619519771012875
30
0
0
SPLINE
5
162
100
AcDbEntity
8
1
62
256
6
ByLayer
370
18
48
1
60
0
100
AcDbSpline
70
4
71
3
72
8
73
4
40
0
40
0
40
0
40
0
40
1
40
1
40
1
40
1
41
1
10
20.8387018294928
20
0.405119145222983
30
0
41
1
10
20.8659196827162
20
0.334350600228078
30
0
41
1
10
20.893137130149
20
0.263582868985168
30
0
41
1
10
20.920354208839
20
0.192815879774827
30
0
0
SPLINE
5
163
100
AcDbEntity
8
1
62
256
6
ByLayer
370
18
48
1
60
0
100
AcDbSpline
70
4
71
3
72
10
73
6
40
0
40
0
40
0
40
0
40
0.5
40
0.5
40
1
40
1
40
1
40
1
41
1
10
20.7059402333164
20
0.645819350988603
30
0
41
1
10
20.7322660170316
20
0.604469623205148
30
0
41
1
10
20.756577980402
20
0.563711270178175
30
0
41
1
10
20.800981441592
20
0.483433938231087
30
0
41
1
10
20.8210787197363
20
0.443913261871501
30
0
41
1
10
20.8387018294928
20
0.405119145223097
30
0
0
SPLINE
5
164
100
AcDbEntity
8
1
62
256
6
ByLayer
370
18
48
1
60
0
100
AcDbSpline
70
4
71
3
72
23
73
19
40
0
40
0
40
0
40
0
40
0.124999999999977
40
0.124999999999977
40
0.249999999999954
40
0.249999999999954
40
0.374999999999932
40
0.374999999999932
40
0.437499999999928
40
0.437499999999928
40
0.499999999999925
40
0.624999999999938
40
0.624999999999938
40
0.687499999999945
40
0.687499999999945
40
0.749999999999951
40
0.749999999999951
40
1
40
1
40
1
40
1
41
1
10
20.7059402333165
20
0.645819350988603
30
0
41
1
10
20.6991035665283
20
0.641962692385903
30
0
41
1
10
20.6908632414344
20
0.6388144080519
30
0
41
1
10
20.6716444397953
20
0.634093287603719
30
0
41
1
10
20.6606574180872
20
0.632525172383737
30
0
41
1
10
20.6358108744291
20
0.631239991296923
30
0
41
1
10
20.6219616776138
20
0.631515843789998
30
0
41
1
10
20.5988623765266
20
0.633570334227358
30
0
41
1
10
20.59083890471
20
0.634524392022797
30
0
41
1
10
20.5742747476719
20
0.636965683280806
30
0
41
1
10
20.5486006732527
20
0.641430845107351
30
0
41
1
10
20.520488271298
20
0.648352047588645
30
0
41
1
10
20.4907691353577
20
0.656980132968414
30
0
41
1
10
20.4805958805658
20
0.660139464133323
30
0
41
1
10
20.4597153639556
20
0.667035541103047
30
0
41
1
10
20.4489664711397
20
0.67078817306006
30
0
41
1
10
20.3945363696929
20
0.690782759855523
30
0
41
1
10
20.3487272642801
20
0.710704307892769
30
0
41
1
10
20.3008725819218
20
0.734119485341125
30
0
0
SPLINE
5
165
100
AcDbEntity
8
1
62
256
6
ByLayer
370
18
48
1
60
0
100
AcDbSpline
70
4
71
3
72
14
73
10
40
0
40
0
40
0
40
0
40
0.25
40
0.25
40
0.5
40
0.5
40
0.75
40
0.75
40
1
40
1
40
1
40
1
41
1
10
20.3008725819219
20
0.73411948534104
30
0
41
1
10
20.2951517219896
20
0.732099653301276
30
0
41
1
10
20.2895841833545
20
0.729661921013872
30
0
41
1
10
20.2789085227061
20
0.723689501095635
30
0
41
1
10
20.2738404847202
20
0.720165295037759
30
0
41
1
10
20.2646785231214
20
0.711936325746734
30
0
41
1
10
20.2605300978213
20
0.707181023729703
30
0
41
1
10
20.2535462273573
20
0.69629677619011
30
0
41
1
10
20.2508025775929
20
0.690324628957427
30
0
41
1
10
20.2488300403053
20
0.683829494346242
30
0
0
SPLINE
5
166
100
AcDbEntity
8
1
62
256
6
ByLayer
370
18
48
1
60
0
100
AcDbSpline
70
4
71
3
72
26
73
22
40
0
40
0
40
0
40
0
40
0.0312500000000119
40
0.0312500000000119
40
0.0625000000000238
40
0.0625000000000238
40
0.124999999999987
40
0.124999999999987
40
0.18749999999995
40
0.18749999999995
40
0.249999999999913
40
0.249999999999913
40
0.374999999999927
40
0.374999999999927
40
0.499999999999942
40
0.499999999999942
40
0.624999999999957
40
0.624999999999957
40
0.749999999999971
40
0.749999999999971
40
1
40
1
40
1
40
1
41
1
10
20.2488300403053
20
0.683829494346185
30
0
41
1
10
20.2482463516211
20
0.681907474453709
30
0
41
1
10
20.2474910133913
20
0.680103568833516
30
0
41
1
10
20.2455888017579
20
0.676762570042172
30
0
41
1
10
20.2444212105881
20
0.675209031679714
30
0
41
1
10
20.2404348231144
20
0.671189751231083
30
0
41
1
10
20.2370521081818
20
0.669299618114025
30
0
41
1
10
20.2297451612874
20
0.667016384254822
30
0
41
1
10
20.2257631050212
20
0.666564638663147
30
0
41
1
10
20.2177681252838
20
0.666544917472777
30
0
41
1
10
20.213719697143
20
0.666963028523213
30
0
41
1
10
20.2014631636337
20
0.669029203299914
30
0
41
1
10
20.1933596071698
20
0.671427641732919
30
0
41
1
10
20.1774035087263
20
0.677091370588812
30
0
41
1
10
20.1695022479727
20
0.68040172274479
30
0
41
1
10
20.1537702467316
20
0.687595906587859
30
0
41
1
10
20.1459399736734
20
0.69148849193698
30
0
41
1
10
20.1304694937946
20
0.699588327665168
30
0
41
1
10
20.1228053206201
20
0.703808763729796
30
0
41
1
10
20.099952405794
20
0.716830727376163
30
0
41
1
10
20.084899531176
20
0.725984828471553
30
0
41
1
10
20.0699269878523
20
0.735400296347621
30
0
0
SPLINE
5
167
100
AcDbEntity
8
1
62
256
6
ByLayer
370
13
48
1
60
0
100
AcDbSpline
70
4
71
3
72
8
73
4
40
0
40
0
40
0
40
0
40
1
40
1
40
1
40
1
41
1
10
19.9729378997251
20
0.171280111477614
30
0
41
1
10
19.9724881822302
20
0.174797410132612
30
0
41
1
10
19.9720384647352
20
0.178314708787582
30
0
41
1
10
19.9715887472403
20
0.18183200744258
30
0
0
SPLINE
5
168
100
AcDbEntity
8
1
62
256
6
ByLayer
370
13
48
1
60
0
100
AcDbSpline
70
4
71
3
72
8
73
4
40
0
40
0
40
0
40
0
40
1
40
1
40
1
40
1
41
0.9999932524613
10
19.9369605575791
20
0.185763686458756
30
0
41
0.9999932524613
10
19.9353111003317
20
0.198664304786884
30
0
41
0.9999932524613
10
19.9336616430843
20
0.211564923114984
30
0
41
0.9999932524613
10
19.9320121858369
20
0.224465541443083
30
0
0
SPLINE
5
169
100
AcDbEntity
8
1
62
256
6
ByLayer
370
18
48
1
60
0
100
AcDbSpline
70
4
71
3
72
22
73
18
40
0
40
0
40
0
40
0
40
0.0625000000000022
40
0.0625000000000022
40
0.125000000000004
40
0.125000000000004
40
0.187500000000007
40
0.187500000000007
40
0.250000000000009
40
0.250000000000009
40
0.375000000000014
40
0.375000000000014
40
0.50000000000002
40
0.50000000000002
40
0.75000000000001
40
0.75000000000001
40
1
40
1
40
1
40
1
41
1
10
20.0807666194186
20
-2.9348233016749
30
0
41
1
10
20.0862469693102
20
-2.93385441284633
30
0
41
1
10
20.0917349255487
20
-2.93285266873329
30
0
41
1
10
20.1026333361048
20
-2.93079996899019
30
0
41
1
10
20.1076814294002
20
-2.9298175525237
30
0
41
1
10
20.1169780980145
20
-2.92796411394957
30
0
41
1
10
20.1209869757849
20
-2.92714172432434
30
0
41
1
10
20.1281977040848
20
-2.92563627988017
30
0
41
1
10
20.131324172725
20
-2.92496854739784
30
0
41
1
10
20.1396918427813
20
-2.92315574278922
30
0
41
1
10
20.1440576367843
20
-2.92217258267581
30
0
41
1
10
20.1514688493217
20
-2.92047112321217
30
0
41
1
10
20.1545161490504
20
-2.91975084828365
30
0
41
1
10
20.1625734280886
20
-2.91781057938485
30
0
41
1
10
20.1665160297004
20
-2.91680749499005
30
0
41
1
10
20.1731551261611
20
-2.91506075765975
30
0
41
1
10
20.1757998337432
20
-2.9143272263392
30
0
41
1
10
20.1780589995207
20
-2.91367367039283
30
0
0
SPLINE
5
16A
100
AcDbEntity
8
1
62
256
6
ByLayer
370
18
48
1
60
0
100
AcDbSpline
70
4
71
3
72
10
73
6
40
0
40
0
40
0
40
0
40
0.5
40
0.5
40
1
40
1
40
1
40
1
41
1
10
20.1780311271978
20
-2.9136734187895
30
0
41
1
10
20.1521356279339
20
-2.91520193427715
30
0
41
1
10
20.1292044015021
20
-2.91515342778243
30
0
41
1
10
20.0898704989275
20
-2.91254734694095
30
0
41
1
10
20.0735444403823
20
-2.91000862637699
30
0
41
1
10
20.0599809665242
20
-2.90667639603572
30
0
0
SPLINE
5
16B
100
AcDbEntity
8
1
62
256
6
ByLayer
370
18
48
1
60
0
100
AcDbSpline
70
4
71
3
72
70
73
66
40
0
40
0
40
0
40
0
40
0.03125
40
0.03125
40
0.046875
40
0.046875
40
0.0625
40
0.0625
40
0.09375
40
0.09375
40
0.125
40
0.125
40
0.1875
40
0.1875
40
0.21875
40
0.21875
40
0.25
40
0.25
40
0.28125
40
0.28125
40
0.3125
40
0.3125
40
0.34375
40
0.34375
40
0.375
40
0.375
40
0.40625
40
0.40625
40
0.4375
40
0.4375
40
0.46875
40
0.46875
40
0.5
40
0.5
40
0.53125
40
0.53125
40
0.5625
40
0.5625
40
0.59375
40
0.59375
40
0.625
40
0.625
40
0.65625
40
0.65625
40
0.6875
40
0.6875
40
0.71875
40
0.71875
40
0.75
40
0.75
40
0.78125
40
0.78125
40
0.8125
40
0.8125
40
0.84375
40
0.84375
40
0.875
40
0.875
40
0.90625
40
0.90625
40
0.9375
40
0.9375
40
0.96875
40
0.96875
40
1
40
1
40
1
40
1
41
1
10
20.0599809665241
20
-2.90667639603569
30
0
41
1
10
19.9446548696541
20
-2.90513118998237
30
0
41
1
10
19.8292573238605
20
-2.90007284729958
30
0
41
1
10
19.6562467880614
20
-2.88727220403303
30
0
41
1
10
19.5985977047384
20
-2.88213441004308
30
0
41
1
10
19.4833406372557
20
-2.870104850334
30
0
41
1
10
19.4257260090629
20
-2.86320963821035
30
0
41
1
10
19.2530870685288
20
-2.83991073042623
30
0
41
1
10
19.1382048273014
20
-2.82088384364749
30
0
41
1
10
18.9083413137423
20
-2.77599103088141
30
0
41
1
10
18.7932822046807
20
-2.75011043085632
30
0
41
1
10
18.4477196446853
20
-2.66275106822155
30
0
41
1
10
18.2168563773307
20
-2.59151436415579
30
0
41
1
10
17.8706219696338
20
-2.46655671968549
30
0
41
1
10
17.7551653290114
20
-2.42186743322966
30
0
41
1
10
17.5245468940021
20
-2.32674918261975
30
0
41
1
10
17.4093910636749
20
-2.2763178537478
30
0
41
1
10
17.1790669431706
20
-2.16994718707201
30
0
41
1
10
17.0638284196265
20
-2.11396840688815
30
0
41
1
10
16.8334354334946
20
-1.99700716105551
30
0
41
1
10
16.7181998345565
20
-1.93599184411155
30
0
41
1
10
16.4879535756894
20
-1.80949854364633
30
0
41
1
10
16.3729323368776
20
-1.74401590008352
30
0
41
1
10
16.1427899917278
20
-1.608909973799
30
0
41
1
10
16.0275998333393
20
-1.53924218083472
30
0
41
1
10
15.7972458798072
20
-1.39643898233706
30
0
41
1
10
15.6819881207088
20
-1.3232598361638
30
0
41
1
10
15.4516206764892
20
-1.17410449610415
30
0
41
1
10
15.3364929812045
20
-1.09810732636581
30
0
41
1
10
15.1060795303467
20
-0.94362058415183
30
0
41
1
10
14.9907242051197
20
-0.865089099244898
30
0
41
1
10
14.7600673203685
20
-0.706211631568834
30
0
41
1
10
14.6446761770412
20
-0.625791158550015
30
0
41
1
10
14.4141634037073
20
-0.46373435132611
30
0
41
1
10
14.2990124992166
20
-0.382064472778609
30
0
41
1
10
14.0686523694509
20
-0.217829354593789
30
0
41
1
10
13.9533575614428
20
-0.135267536365148
30
0
41
1
10
13.7229010665513
20
0.0299816835578497
30
0
41
1
10
13.6076674845189
20
0.112739115436682
30
0
41
1
10
13.3773564316995
20
0.277843420926928
30
0
41
1
10
13.2622114148429
20
0.360272783696217
30
0
41
1
10
13.032141721831
20
0.523856388394762
30
0
41
1
10
12.9171335994434
20
0.605021626493652
30
0
41
1
10
12.6869099104421
20
0.765700701045887
30
0
41
1
10
12.5716330332244
20
0.845242571816897
30
0
41
1
10
12.3411736864148
20
1.00195566886526
30
0
41
1
10
12.2259081937298
20
1.07919393636391
30
0
41
1
10
11.9955085656794
20
1.23064602184974
30
0
41
1
10
11.8803089593974
20
1.30490357840398
30
0
41
1
10
11.6497778974474
20
1.45018386599142
30
0
41
1
10
11.5343940828145
20
1.52123595754566
30
0
41
1
10
11.3038310765959
20
1.65943921273188
30
0
41
1
10
11.1885789616208
20
1.72662961235582
30
0
41
1
10
10.9581125930799
20
1.85677965247109
30
0
41
1
10
10.8428359272961
20
1.9197722905146
30
0
41
1
10
10.612591156084
20
2.04083582974732
30
0
41
1
10
10.4975520763046
20
2.09894755219054
30
0
41
1
10
10.2673614668031
20
2.20993167106201
30
0
41
1
10
10.1521730332832
20
2.26282309253159
30
0
41
1
10
9.9218233397435
20
2.36306901348658
30
0
41
1
10
9.80660340557418
20
2.41041777656417
30
0
41
1
10
9.57627083776055
20
2.49904271203769
30
0
41
1
10
9.4610402075713
20
2.54037092383814
30
0
41
1
10
9.23059026831649
20
2.61664280073654
30
0
41
1
10
9.11538010120722
20
2.65159283471507
30
0
41
1
10
8.99999999999997
20
2.6833248298243
30
0
0
SPLINE
5
16C
100
AcDbEntity
8
1
62
256
6
ByLayer
370
18
48
1
60
0
100
AcDbSpline
70
4
71
3
72
18
73
14
40
0
40
0
40
0
40
0
40
0.124999999999895
40
0.124999999999895
40
0.249999999999789
40
0.249999999999789
40
0.374999999999684
40
0.374999999999684
40
0.499999999999579
40
0.499999999999579
40
0.749999999999789
40
0.749999999999789
40
1
40
1
40
1
40
1
41
1
10
19.9317377202146
20
-2.95397828060237
30
0
41
1
10
19.9310750802513
20
-2.95404196571752
30
0
41
1
10
19.930356904995
20
-2.95411961880558
30
0
41
1
10
19.928715656604
20
-2.9543360491422
30
0
41
1
10
19.9277651342867
20
-2.95448121550297
30
0
41
1
10
19.9258940748623
20
-2.95483482437416
30
0
41
1
10
19.9250542449801
20
-2.95502826523023
30
0
41
1
10
19.923720926523
20
-2.95537659605202
30
0
41
1
10
19.9231968979087
20
-2.95553573764701
30
0
41
1
10
19.9218357250663
20
-2.95598435228513
30
0
41
1
10
19.9212142741785
20
-2.95624220250389
30
0
41
1
10
19.920148058564
20
-2.95673279913933
30
0
41
1
10
19.9197221315045
20
-2.95696276617198
30
0
41
1
10
19.9193555840022
20
-2.95718307325316
30
0
0
SPLINE
5
16D
100
AcDbEntity
8
1
62
256
6
ByLayer
370
18
48
1
60
0
100
AcDbSpline
70
4
71
3
72
8
73
4
40
0
40
0
40
0
40
0
40
1
40
1
40
1
40
1
41
1
10
19.9317377201824
20
-2.95397828060547
30
0
41
1
10
19.9453812120412
20
-2.95266702954632
30
0
41
1
10
19.9586688717253
20
-2.95135216382926
30
0
41
1
10
19.9715607468591
20
-2.95003743028602
30
0
0
SPLINE
5
16E
100
AcDbEntity
8
1
62
256
6
ByLayer
370
18
48
1
60
0
100
AcDbSpline
70
4
71
3
72
8
73
4
40
0
40
0
40
0
40
0
40
1
40
1
40
1
40
1
41
1
10
19.9715607468644
20
-2.95003743028468
30
0
41
1
10
19.9766115417444
20
-2.94952234234134
30
0
41
1
10
19.9817389193853
20
-2.94897334663548
30
0
41
1
10
19.98696698388
20
-2.94838508522028
30
0
0
SPLINE
5
16F
100
AcDbEntity
8
1
62
256
6
ByLayer
370
18
48
1
60
0
100
AcDbSpline
70
4
71
3
72
28
73
24
40
0
40
0
40
0
40
0
40
0.0624999999999968
40
0.0624999999999968
40
0.124999999999994
40
0.124999999999994
40
0.156249999999993
40
0.156249999999993
40
0.187499999999992
40
0.187499999999992
40
0.249999999999993
40
0.249999999999993
40
0.312499999999994
40
0.312499999999994
40
0.374999999999995
40
0.374999999999995
40
0.499999999999996
40
0.499999999999996
40
0.624999999999997
40
0.624999999999997
40
0.749999999999998
40
0.749999999999998
40
1
40
1
40
1
40
1
41
1
10
20.0731167949575
20
-2.32606883903083
30
0
41
1
10
20.0783865964951
20
-2.32678036293484
30
0
41
1
10
20.08374896395
20
-2.32702326918536
30
0
41
1
10
20.0947549851567
20
-2.32611466265036
30
0
41
1
10
20.1001875099345
20
-2.3249576452836
30
0
41
1
10
20.1080186567492
20
-2.32205323449205
30
0
41
1
10
20.1105820106546
20
-2.32088510214985
30
0
41
1
10
20.1154137543361
20
-2.31827331065514
30
0
41
1
10
20.1177121478442
20
-2.31681999291777
30
0
41
1
10
20.1242995925807
20
-2.31207464834554
30
0
41
1
10
20.1281637744164
20
-2.3084859006014
30
0
41
1
10
20.1350535854899
20
-2.30092388976655
30
0
41
1
10
20.1381293908801
20
-2.29688923031134
30
0
41
1
10
20.1436245464989
20
-2.28872319845561
30
0
41
1
10
20.1460624129852
20
-2.28457393108667
30
0
41
1
10
20.1527580297452
20
-2.27199548276153
30
0
41
1
10
20.1564109795264
20
-2.26343852727658
30
0
41
1
10
20.1628405112477
20
-2.24614291213646
30
0
41
1
10
20.1655895474173
20
-2.23743080605888
30
0
41
1
10
20.1704694151909
20
-2.22009026675625
30
0
41
1
10
20.1726062862704
20
-2.2114300553618
30
0
41
1
10
20.1784052774639
20
-2.18547061172637
30
0
41
1
10
20.1814691251138
20
-2.16819215015582
30
0
41
1
10
20.1840986215937
20
-2.15092895559243
30
0
0
SPLINE
5
170
100
AcDbEntity
8
1
62
256
6
ByLayer
370
18
48
1
60
0
100
AcDbSpline
70
4
71
3
72
10
73
6
40
0
40
0
40
0
40
0
40
0.5
40
0.5
40
1
40
1
40
1
40
1
41
1
10
20.184063482501
20
-2.15077447124577
30
0
41
1
10
20.1603105400248
20
-2.0951118416659
30
0
41
1
10
20.1397978964128
20
-2.0377658886438
30
0
41
1
10
20.1050648560385
20
-1.92025198673502
30
0
41
1
10
20.0908998890001
20
-1.86032121428641
30
0
41
1
10
20.0791029599963
20
-1.79961805463734
30
0
0
SPLINE
5
171
100
AcDbEntity
8
1
62
256
6
ByLayer
370
18
48
1
60
0
100
AcDbSpline
70
4
71
3
72
67
73
63
40
0
40
0
40
0
40
0
40
0.0400777525472551
40
0.0400777525472551
40
0.0801555050945102
40
0.0801555050945102
40
0.120233257641765
40
0.120233257641765
40
0.16031101018902
40
0.16031101018902
40
0.200388762736276
40
0.200388762736276
40
0.240466515283531
40
0.240466515283531
40
0.280544267830786
40
0.280544267830786
40
0.320622020378041
40
0.320622020378041
40
0.360699772925296
40
0.360699772925296
40
0.380738649198924
40
0.380738649198924
40
0.400777525472553
40
0.440855278019808
40
0.440855278019808
40
0.460894154293436
40
0.460894154293436
40
0.480933030567064
40
0.480933030567064
40
0.521010783114321
40
0.521010783114321
40
0.561088535661578
40
0.561088535661578
40
0.601166288208835
40
0.601166288208835
40
0.641244040756091
40
0.641244040756091
40
0.681321793303348
40
0.681321793303348
40
0.721399545850605
40
0.721399545850605
40
0.741438422124233
40
0.741438422124233
40
0.761477298397862
40
0.761477298397862
40
0.78151617467149
40
0.78151617467149
40
0.801555050945118
40
0.801555050945118
40
0.821593927218747
40
0.821593927218747
40
0.841632803492375
40
0.841632803492375
40
0.881710556039631
40
0.881710556039631
40
0.901749432313258
40
0.901749432313258
40
0.921788308586886
40
0.921788308586886
40
0.961866061134139
40
0.961866061134139
40
1
40
1
40
1
40
1
41
1
10
20.0791029600217
20
-1.79961805465203
30
0
41
1
10
19.9635982724588
20
-1.73228019411482
30
0
41
1
10
19.8481267196059
20
-1.66273562851614
30
0
41
1
10
19.6171774729491
20
-1.5193753267443
30
0
41
1
10
19.5016477546214
20
-1.4454731884916
30
0
41
1
10
19.2709871710299
20
-1.29371250190204
30
0
41
1
10
19.1557339424453
20
-1.21583745601222
30
0
41
1
10
18.9254544215631
20
-1.05726439799935
30
0
41
1
10
18.8103906647038
20
-0.976557648744517
30
0
41
1
10
18.5797791151056
20
-0.813126954785616
30
0
41
1
10
18.4641806329068
20
-0.730313311875619
30
0
41
1
10
18.2331604270376
20
-0.563377234148987
30
0
41
1
10
18.1176629271955
20
-0.479201805023735
30
0
41
1
10
17.8865406163525
20
-0.309640426768283
30
0
41
1
10
17.7708838968295
20
-0.224227867685983
30
0
41
1
10
17.5397416797419
20
-0.0530360013393931
30
0
41
1
10
17.4241694350001
20
0.0328076806079878
30
0
41
1
10
17.1933609701707
20
0.204104150693212
30
0
41
1
10
17.078051802783
20
0.289616845722208
30
0
41
1
10
16.9049780402812
20
0.417341791510893
30
0
41
1
10
16.8472450341502
20
0.459842382937495
30
0
41
1
10
16.7318787446799
20
0.544466430332022
30
0
41
1
10
16.5589377793713
20
0.670869498214188
30
0
41
1
10
16.3861069654752
20
0.79539400001201
30
0
41
1
10
16.2130889280075
20
0.918324562010667
30
0
41
1
10
16.155380166034
20
0.959039181643448
30
0
41
1
10
16.0400088354002
20
1.03977104174996
30
0
41
1
10
15.982327339974
20
1.07980178371085
30
0
41
1
10
15.8092248569759
20
1.19880103700876
30
0
41
1
10
15.6938522980439
20
1.27659093060726
30
0
41
1
10
15.4631677568714
20
1.42846299646985
30
0
41
1
10
15.347810721899
20
1.5025890036496
30
0
41
1
10
15.116757275658
20
1.64684675217305
30
0
41
1
10
15.0013012306614
20
1.7168207737852
30
0
41
1
10
14.7704156952236
20
1.85201550660179
30
0
41
1
10
14.6549477324916
20
1.91726940960052
30
0
41
1
10
14.4237940782515
20
2.04276029659937
30
0
41
1
10
14.3082808808806
20
2.10289987711562
30
0
41
1
10
14.0772938042591
20
2.21765288939102
30
0
41
1
10
13.9619470400929
20
2.27223001897136
30
0
41
1
10
13.788934063203
20
2.34966039651815
30
0
41
1
10
13.7312672477891
20
2.37472479960013
30
0
41
1
10
13.6159047115199
20
2.42330861759564
30
0
41
1
10
13.5581889880058
20
2.44683592378459
30
0
41
1
10
13.4428098393848
20
2.49223977297808
30
0
41
1
10
13.3851458192582
20
2.5141174035908
30
0
41
1
10
13.2698297347699
20
2.55616643574791
30
0
41
1
10
13.2121659466875
20
2.57633983092546
30
0
41
1
10
13.0968595426955
20
2.6149908775611
30
0
41
1
10
13.0392068791166
20
2.63347969551549
30
0
41
1
10
12.923852354632
20
2.66877276248158
30
0
41
1
10
12.8661405466176
20
2.68557372531066
30
0
41
1
10
12.6931046354788
20
2.73327770297522
30
0
41
1
10
12.5778069870237
20
2.76151263777425
30
0
41
1
10
12.4047693848508
20
2.79831427682123
30
0
41
1
10
12.3470766108227
20
2.80965067203383
30
0
41
1
10
12.2316242611138
20
2.83043789689026
30
0
41
1
10
12.1738683175917
20
2.8398951301435
30
0
41
1
10
12.0006955334065
20
2.86553510863933
30
0
41
1
10
11.8852619751643
20
2.8790344245798
30
0
41
1
10
11.6598857685157
20
2.89799798624512
30
0
41
1
10
11.5498792429458
20
2.90383757274938
30
0
41
1
10
11.439955050637
20
2.906160125544
30
0
0
SPLINE
5
172
100
AcDbEntity
8
1
62
256
6
ByLayer
370
18
48
1
60
0
100
AcDbSpline
70
4
71
3
72
18
73
14
40
0
40
0
40
0
40
0
40
0.125000000000166
40
0.125000000000166
40
0.250000000000332
40
0.250000000000332
40
0.375000000000498
40
0.375000000000498
40
0.500000000000664
40
0.500000000000664
40
0.750000000000332
40
0.750000000000332
40
1
40
1
40
1
40
1
41
1
10
19.9322728163926
20
-2.24172872887067
30
0
41
1
10
19.931687137021
20
-2.2413007945641
30
0
41
1
10
19.9310648955502
20
-2.24091511609063
30
0
41
1
10
19.9296757103418
20
-2.24031141725993
30
0
41
1
10
19.9289009647926
20
-2.24009660052815
30
0
41
1
10
19.927269056107
20
-2.24008349298066
30
0
41
1
10
19.926417848297
20
-2.2403140723014
30
0
41
1
10
19.924968498511
20
-2.24113204907846
30
0
41
1
10
19.9243629696764
20
-2.24168752849295
30
0
41
1
10
19.9228221060084
20
-2.24345829756408
30
0
41
1
10
19.9221049848234
20
-2.24480120724655
30
0
41
1
10
19.9209070394203
20
-2.24747511426494
30
0
41
1
10
19.9204311270456
20
-2.2488384253962
30
0
41
1
10
19.9200166694241
20
-2.25021493074902
30
0
0
SPLINE
5
173
100
AcDbEntity
8
1
62
256
6
ByLayer
370
18
48
1
60
0
100
AcDbSpline
70
4
71
3
72
8
73
4
40
0
40
0
40
0
40
0
40
1
40
1
40
1
40
1
41
1
10
19.9322728163913
20
-2.24172872886328
30
0
41
1
10
19.9457039594141
20
-2.25154236949075
30
0
41
1
10
19.9588286830746
20
-2.26157159159592
30
0
41
1
10
19.9716100343701
20
-2.27184551621673
30
0
0
SPLINE
5
174
100
AcDbEntity
8
1
62
256
6
ByLayer
370
18
48
1
60
0
100
AcDbSpline
70
4
71
3
72
8
73
4
40
0
40
0
40
0
40
0
40
1
40
1
40
1
40
1
41
1
10
19.9716100343731
20
-2.27184551621426
30
0
41
1
10
19.9767545847084
20
-2.27598081624089
30
0
41
1
10
19.9819774368395
20
-2.28003516546272
30
0
41
1
10
19.987302657928
20
-2.28398753938944
30
0
0
SPLINE
5
175
100
AcDbEntity
8
1
62
256
6
ByLayer
370
18
48
1
60
0
100
AcDbSpline
70
4
71
3
72
10
73
6
40
0
40
0
40
0
40
0
40
0.5
40
0.5
40
1
40
1
40
1
40
1
41
1
10
20.1811072616901
20
0.301157250900616
30
0
41
1
10
20.156319203974
20
0.372520678110789
30
0
41
1
10
20.1346435547299
20
0.444397697487119
30
0
41
1
10
20.0977257878773
20
0.589408731429074
30
0
41
1
10
20.0825478063604
20
0.66225311743122
30
0
41
1
10
20.0699269878615
20
0.735400296341595
30
0
0
SPLINE
5
176
100
AcDbEntity
8
1
62
256
6
ByLayer
370
18
48
1
60
0
100
AcDbSpline
70
4
71
3
72
38
73
34
40
0
40
0
40
0
40
0
40
0.0675538707050384
40
0.0675538707050384
40
0.101330806057558
40
0.101330806057558
40
0.135107741410077
40
0.135107741410077
40
0.202661612115115
40
0.202661612115115
40
0.270215482820154
40
0.270215482820154
40
0.337769353525192
40
0.337769353525192
40
0.40532322423023
40
0.40532322423023
40
0.472877094935268
40
0.472877094935268
40
0.540430965640307
40
0.540430965640307
40
0.607984836345345
40
0.607984836345345
40
0.675538707050383
40
0.675538707050383
40
0.743092577755421
40
0.743092577755421
40
0.81064644846046
40
0.81064644846046
40
0.878200319165498
40
0.878200319165498
40
0.945754189870536
40
0.945754189870536
40
1
40
1
40
1
40
1
41
1
10
20.0699269878528
20
0.735400296347905
30
0
41
1
10
19.9544884358642
20
0.816779432179629
30
0
41
1
10
19.8389672668326
20
0.897148642695896
30
0
41
1
10
19.665780096791
20
1.01595224720728
30
0
41
1
10
19.6080715802762
20
1.05526018488828
30
0
41
1
10
19.4926952856093
20
1.13328461511716
30
0
41
1
10
19.4350287453865
20
1.17200891660136
30
0
41
1
10
19.2622517592536
20
1.28706299141066
30
0
41
1
10
19.1472864116834
20
1.36231566215574
30
0
41
1
10
18.9172327125267
20
1.50922489298495
30
0
41
1
10
18.8020634803449
20
1.58091543195312
30
0
41
1
10
18.5714797456897
20
1.71973092560529
30
0
41
1
10
18.4560296882301
20
1.78693001005547
30
0
41
1
10
18.2250827609092
20
1.91653576628255
30
0
41
1
10
18.1095015357306
20
1.9789888239051
30
0
41
1
10
17.878618365566
20
2.09871149720243
30
0
41
1
10
17.7632790164235
20
2.156002622644
30
0
41
1
10
17.5325199460322
20
2.26517109776844
30
0
41
1
10
17.4170426196443
20
2.3170697957255
30
0
41
1
10
17.1862655927773
20
2.41491478670275
30
0
41
1
10
17.0708822536068
20
2.46089822703479
30
0
41
1
10
16.8402500765889
20
2.54655851937855
30
0
41
1
10
16.724917116394
20
2.58626422769942
30
0
41
1
10
16.4945341278722
20
2.65899002404853
30
0
41
1
10
16.3794178041296
20
2.69203516778083
30
0
41
1
10
16.1490109213199
20
2.75130679282285
30
0
41
1
10
16.0336862464523
20
2.77753288251509
30
0
41
1
10
15.8032941028392
20
2.82284792795835
30
0
41
1
10
15.6881254612182
20
2.84196458116259
30
0
41
1
10
15.4575278755774
20
2.87302996986125
30
0
41
1
10
15.3420999218748
20
2.88497341387199
30
0
41
1
10
15.1340275787666
20
2.89991620380033
30
0
41
1
10
15.0413300318189
20
2.90421704389632
30
0
41
1
10
14.9486788992548
20
2.90615326579905
30
0
0
SPLINE
5
177
100
AcDbEntity
8
1
62
256
6
ByLayer
370
18
48
1
60
0
100
AcDbSpline
70
4
71
3
72
18
73
14
40
0
40
0
40
0
40
0
40
0.125000000000133
40
0.125000000000133
40
0.250000000000265
40
0.250000000000265
40
0.375000000000398
40
0.375000000000398
40
0.500000000000531
40
0.500000000000531
40
0.750000000000265
40
0.750000000000265
40
1
40
1
40
1
40
1
41
1
10
19.9320121858368
20
0.224465541443095
30
0
41
1
10
19.9313892529048
20
0.225105428877981
30
0
41
1
10
19.9307242928409
20
0.225697605771074
30
0
41
1
10
19.929209808647
20
0.226672516283088
30
0
41
1
10
19.9283608581982
20
0.227040766218806
30
0
41
1
10
19.9265977596567
20
0.227165020215295
30
0
41
1
10
19.925731408641
20
0.226882431991101
30
0
41
1
10
19.9243335118388
20
0.225937165212969
30
0
41
1
10
19.9237679166956
20
0.225303067135115
30
0
41
1
10
19.9223161540152
20
0.223270923146259
30
0
41
1
10
19.9216498167368
20
0.221740311884019
30
0
41
1
10
19.920522111243
20
0.218641148544577
30
0
41
1
10
19.9200716666166
20
0.217042501637479
30
0
41
1
10
19.9196815644485
20
0.215425061816063
30
0
0
SPLINE
5
178
100
AcDbEntity
8
1
62
256
6
ByLayer
370
18
48
1
60
0
100
AcDbSpline
70
4
71
3
72
8
73
4
40
0
40
0
40
0
40
0
40
1
40
1
40
1
40
1
41
1
10
19.9320121858368
20
0.224465541443152
30
0
41
1
10
19.945547063123
20
0.210562282419829
30
0
41
1
10
19.9587520820635
20
0.196362434788512
30
0
41
1
10
19.9715887472363
20
0.181832007439141
30
0
0
SPLINE
5
179
100
AcDbEntity
8
1
62
256
6
ByLayer
370
18
48
1
60
0
100
AcDbSpline
70
4
71
3
72
8
73
4
40
0
40
0
40
0
40
0
40
1
40
1
40
1
40
1
41
1
10
19.9715887472403
20
0.181832007442296
30
0
41
1
10
19.976678810439
20
0.176070324597418
30
0
41
1
10
19.981846178173
20
0.170371791086922
30
0
41
1
10
19.9871148536458
20
0.164756759502581
30
0
0
SPLINE
5
17A
100
AcDbEntity
8
1
62
256
6
ByLayer
370
18
48
1
60
0
100
AcDbSpline
70
4
71
3
72
50
73
46
40
0
40
0
40
0
40
0
40
0.0431956981277025
40
0.0431956981277025
40
0.122929389950393
40
0.122929389950393
40
0.162796235861738
40
0.162796235861738
40
0.202663081773083
40
0.202663081773083
40
0.242529927684428
40
0.242529927684428
40
0.282396773595773
40
0.282396773595773
40
0.362130465418464
40
0.362130465418464
40
0.40199731132981
40
0.40199731132981
40
0.441864157241156
40
0.441864157241156
40
0.481731003152502
40
0.481731003152502
40
0.521597849063848
40
0.521597849063848
40
0.60133154088654
40
0.60133154088654
40
0.641198386797886
40
0.641198386797886
40
0.681065232709232
40
0.681065232709232
40
0.720932078620578
40
0.720932078620578
40
0.760798924531924
40
0.760798924531924
40
0.80066577044327
40
0.80066577044327
40
0.840532616354616
40
0.840532616354616
40
0.880399462265962
40
0.880399462265962
40
0.920266308177308
40
0.920266308177308
40
0.960133154088654
40
0.960133154088654
40
1
40
1
40
1
40
1
41
1
10
17.6517964194241
20
-2.77815810471668
30
0
41
1
10
17.5272390449126
20
-2.80344914993648
30
0
41
1
10
17.4026520195289
20
-2.82508679962908
30
0
41
1
10
17.0477794534825
20
-2.87614358990803
30
0
41
1
10
16.8178416433355
20
-2.89651350511693
30
0
41
1
10
16.4728863383745
20
-2.90748970219229
30
0
41
1
10
16.357982828185
20
-2.90788531370342
30
0
41
1
10
16.1280815135906
20
-2.90211994696065
30
0
41
1
10
16.0132489281968
20
-2.89596416538169
30
0
41
1
10
15.7836142590307
20
-2.87719898137891
30
0
41
1
10
15.6688004206063
20
-2.86459322101521
30
0
41
1
10
15.4388968835887
20
-2.83298881979096
30
0
41
1
10
15.3239337773563
20
-2.8140075732662
30
0
41
1
10
14.9788927853521
20
-2.74768764162482
30
0
41
1
10
14.7488401964206
20
-2.69096657211316
30
0
41
1
10
14.4037944123592
20
-2.5879839867668
30
0
41
1
10
14.2888145819127
20
-2.5506609097844
30
0
41
1
10
14.0588475852411
20
-2.4704064259318
30
0
41
1
10
13.9438565186784
20
-2.42756680816189
30
0
41
1
10
13.7138767286536
20
-2.33658576058215
30
0
41
1
10
13.5989017604313
20
-2.28843098424346
30
0
41
1
10
13.3690046296721
20
-2.18693201093799
30
0
41
1
10
13.2540992353528
20
-2.13351980364982
30
0
41
1
10
12.9093323401625
20
-1.96644072433946
30
0
41
1
10
12.6793151038825
20
-1.84617051278593
30
0
41
1
10
12.3343386741728
20
-1.65387992974749
30
0
41
1
10
12.2193335522761
20
-1.58776719461912
30
0
41
1
10
11.9892648265675
20
-1.45239137646553
30
0
41
1
10
11.8741678795619
20
-1.38310109272871
30
0
41
1
10
11.6440438788122
20
-1.24154330837624
30
0
41
1
10
11.5289693133161
20
-1.16926394057825
30
0
41
1
10
11.2989661903059
20
-1.0220860330262
30
0
41
1
10
11.1839962110058
20
-0.947134692423504
30
0
41
1
10
10.9540855619396
20
-0.795436603101336
30
0
41
1
10
10.8391028816876
20
-0.718602924729595
30
0
41
1
10
10.6094132562318
20
-0.563561585892302
30
0
41
1
10
10.4946370120524
20
-0.485328971927345
30
0
41
1
10
10.2649709107912
20
-0.327766293538701
30
0
41
1
10
10.1500400894917
20
-0.248432558493278
30
0
41
1
10
9.92019561272443
20
-0.0895991683162549
30
0
41
1
10
9.80522557251356
20
-0.0099862493226226
30
0
41
1
10
9.57534715888937
20
0.14894850938299
30
0
41
1
10
9.46033802474429
20
0.22832172046671
30
0
41
1
10
9.23025302336899
20
0.386180391761911
30
0
41
1
10
9.11520975259208
20
0.464663910318336
30
0
41
1
10
8.99999999999994
20
0.542471487325798
30
0
0
SPLINE
5
17B
100
AcDbEntity
8
1
62
256
6
ByLayer
370
18
48
1
60
0
100
AcDbSpline
70
4
71
3
72
8
73
4
40
0
40
0
40
0
40
0
40
1
40
1
40
1
40
1
41
1
10
9.00000000000003
20
0.54247148732577
30
0
41
1
10
8.91798169002575
20
0.595478442843529
30
0
41
1
10
8.83639621708281
20
0.648871742381147
30
0
41
1
10
8.75535938348318
20
0.702581090373513
30
0
0
SPLINE
5
17C
100
AcDbEntity
8
1
62
256
6
ByLayer
370
18
48
1
60
0
100
AcDbSpline
70
4
71
3
72
25
73
21
40
0
40
0
40
0
40
0
40
0.125000000000003
40
0.125000000000003
40
0.250000000000006
40
0.250000000000006
40
0.312500000000007
40
0.312500000000007
40
0.375000000000008
40
0.375000000000008
40
0.500000000000018
40
0.625000000000027
40
0.625000000000027
40
0.687500000000026
40
0.687500000000026
40
0.750000000000026
40
0.750000000000026
40
0.875000000000013
40
0.875000000000013
40
1
40
1
40
1
40
1
41
1
10
20.9728487033792
20
-0.206877776107603
30
0
41
1
10
20.9740918812805
20
-0.209584368270697
30
0
41
1
10
20.9721695073705
20
-0.211988687991038
30
0
41
1
10
20.9625230718955
20
-0.216243335452333
30
0
41
1
10
20.9547920079467
20
-0.218092994550375
30
0
41
1
10
20.9389106949222
20
-0.220458343816034
30
0
41
1
10
20.9329002552018
20
-0.22117836025663
30
0
41
1
10
20.9194273004431
20
-0.222479737263143
30
0
41
1
10
20.9119611444989
20
-0.22306020524357
30
0
41
1
10
20.8877021567934
20
-0.224570807149035
30
0
41
1
10
20.8502382627612
20
-0.225991039238522
30
0
41
1
10
20.8027508609426
20
-0.226248252953752
30
0
41
1
10
20.7632297901707
20
-0.225988009421229
30
0
41
1
10
20.7493487789554
20
-0.225824350863263
30
0
41
1
10
20.7205768368617
20
-0.225345599197453
30
0
41
1
10
20.7056786354299
20
-0.225031066681453
30
0
41
1
10
20.6594601697793
20
-0.223863881528587
30
0
41
1
10
20.6266236613275
20
-0.222788758904329
30
0
41
1
10
20.5567893308999
20
-0.2200279475299
30
0
41
1
10
20.5197938496948
20
-0.218342602227864
30
0
41
1
10
20.4805264928912
20
-0.216323917398597
30
0
0
SPLINE
5
17D
100
AcDbEntity
8
1
62
256
6
ByLayer
370
18
48
1
60
0
100
AcDbSpline
70
4
71
3
72
10
73
6
40
0
40
0
40
0
40
0
40
0.5
40
0.5
40
1
40
1
40
1
40
1
41
1
10
20.9204097146975
20
0.192671559271901
30
0
41
1
10
20.9214805358414
20
0.189733176436789
30
0
41
1
10
20.9222038571233
20
0.187695405812434
30
0
41
1
10
20.922943410998
20
0.185452419844609
30
0
41
1
10
20.9229551363851
20
0.185258260825975
30
0
41
1
10
20.9226202046135
20
0.185965804885825
30
0
0
SPLINE
5
17E
100
AcDbEntity
8
1
62
256
6
ByLayer
370
18
48
1
60
0
100
AcDbSpline
70
4
71
3
72
39
73
35
40
0
40
0
40
0
40
0
40
0.0246898885119353
40
0.0495005923568277
40
0.0744268238773127
40
0.0994632218163509
40
0.124604327681159
40
0.149844660848628
40
0.175178786150303
40
0.200601305591296
40
0.226106829542216
40
0.251689955061306
40
0.32645117373344
40
0.403196201860309
40
0.481766733655565
40
0.562006987761924
40
0.633630311894657
40
0.709357849586805
40
0.789029907187611
40
0.872500267057537
40
0.878651952734537
40
0.885263003206965
40
0.89233238525855
40
0.899859006445905
40
0.907841719239116
40
0.9162793254446
40
0.925170580967963
40
0.934514200967744
40
0.944308865442969
40
0.954553225293189
40
0.965245908880672
40
0.97638552911597
40
0.987970691072966
40
1
40
1
40
1
40
1
41
1
10
20.9203915456953
20
0.192801150719106
30
0
41
1
10
20.9197751088771
20
0.192397192167732
30
0
41
1
10
20.9185392188227
20
0.191587298369626
30
0
41
1
10
20.9154336555794
20
0.190637934275429
30
0
41
1
10
20.9114020201844
20
0.189883342409559
30
0
41
1
10
20.9063501102714
20
0.189346126691021
30
0
41
1
10
20.9003005162577
20
0.189023598034453
30
0
41
1
10
20.8932465200413
20
0.18891896676621
30
0
41
1
10
20.8851913212703
20
0.189032987012382
30
0
41
1
10
20.8761374915484
20
0.189366254233306
30
0
41
1
10
20.866089293601
20
0.18991856880848
30
0
41
1
10
20.8479923697245
20
0.191182462826333
30
0
41
1
10
20.8182312114377
20
0.193927566882394
30
0
41
1
10
20.7715050342763
20
0.199403286305994
30
0
41
1
10
20.7155952349094
20
0.206984626522626
30
0
41
1
10
20.6532776612397
20
0.216312741591452
30
0
41
1
10
20.585034638763
20
0.227190326832556
30
0
41
1
10
20.5109242497353
20
0.239659183612645
30
0
41
1
10
20.4268860898886
20
0.254510139620976
30
0
41
1
10
20.3633368842888
20
0.266232462883266
30
0
41
1
10
20.3262176540817
20
0.273187085847923
30
0
41
1
10
20.31853783681
20
0.274623691709763
30
0
41
1
10
20.3102921507022
20
0.276167720507175
30
0
41
1
10
20.3014758260502
20
0.277821326996929
30
0
41
1
10
20.2920841942771
20
0.279587450060348
30
0
41
1
10
20.2821125530199
20
0.281468867354278
30
0
41
1
10
20.2715562760589
20
0.283468443965859
30
0
41
1
10
20.2604108452448
20
0.285589032751204
30
0
41
1
10
20.2486719486203
20
0.287833456578795
30
0
41
1
10
20.2363354044691
20
0.290204538698532
30
0
41
1
10
20.2233977723889
20
0.292704823671841
30
0
41
1
10
20.2098542502334
20
0.295337555651656
30
0
41
1
10
20.1957073544607
20
0.298102651031627
30
0
41
1
10
20.1860391997035
20
0.300006799334199
30
0
41
1
10
20.181114201769
20
0.30097678033809
30
0
0
SPLINE
5
17F
100
AcDbEntity
8
1
62
256
6
ByLayer
370
18
48
1
60
0
100
AcDbSpline
70
4
71
3
72
26
73
22
40
0
40
0
40
0
40
0
40
0.062499999999999
40
0.062499999999999
40
0.124999999999998
40
0.124999999999998
40
0.187499999999997
40
0.187499999999997
40
0.249999999999996
40
0.249999999999996
40
0.312499999999995
40
0.312499999999995
40
0.374999999999995
40
0.374999999999995
40
0.499999999999993
40
0.499999999999993
40
0.624999999999991
40
0.624999999999991
40
0.749999999999989
40
0.749999999999989
40
1
40
1
40
1
40
1
41
1
10
20.0770104155401
20
0.0971504379267571
30
0
41
1
10
20.0823855426071
20
0.0956488880799213
30
0
41
1
10
20.0878183166795
20
0.0948062418627558
30
0
41
1
10
20.0988557734777
20
0.0950479845146788
30
0
41
1
10
20.1041215380407
20
0.0961451652884477
30
0
41
1
10
20.1140973338464
20
0.100323407379449
30
0
41
1
10
20.1185652125188
20
0.103301665394753
30
0
41
1
10
20.1265594049733
20
0.110370012614851
30
0
41
1
10
20.1300020329523
20
0.114356562682644
30
0
41
1
10
20.1362093858703
20
0.122884678518488
30
0
41
1
10
20.1389771914315
20
0.127455254066263
30
0
41
1
10
20.1439363880137
20
0.136764861338776
30
0
41
1
10
20.1461458745307
20
0.14152943867515
30
0
41
1
10
20.1522266962014
20
0.156046410080677
30
0
41
1
10
20.1555619461381
20
0.16601737390755
30
0
41
1
10
20.1614412912612
20
0.186283379604049
30
0
41
1
10
20.1639765664198
20
0.196604734079329
30
0
41
1
10
20.1684908991218
20
0.217303046502622
30
0
41
1
10
20.1704720240752
20
0.22769680508938
30
0
41
1
10
20.1758515298512
20
0.258969468052982
30
0
41
1
10
20.1786982185216
20
0.279937799957651
30
0
41
1
10
20.1811389364208
20
0.300971900478714
30
0
0
SPLINE
5
180
100
AcDbEntity
8
1
62
256
6
ByLayer
370
18
48
1
60
0
100
AcDbSpline
70
4
71
3
72
8
73
4
40
0
40
0
40
0
40
0
40
1
40
1
40
1
40
1
41
1
10
19.9873026579287
20
-2.28398753938978
30
0
41
1
10
19.9825999566801
20
-2.28238089984433
30
0
41
1
10
19.9778109548396
20
-2.28089071038264
30
0
41
1
10
19.9729110078353
20
-2.27955285757756
30
0
0
SPLINE
5
181
100
AcDbEntity
8
1
62
256
6
ByLayer
370
18
48
1
60
0
100
AcDbSpline
70
4
71
1
72
4
73
2
40
0
40
0
40
1
40
1
41
1
10
8.99997471410563
20
2.80337081399151
30
0
41
1
10
9.00000000000014
20
2.80337620320012
30
0
0
SPLINE
5
182
100
AcDbEntity
8
1
62
256
6
ByLayer
370
18
48
1
60
0
100
AcDbSpline
70
4
71
3
72
14
73
10
40
0
40
0
40
0
40
0
40
0.5
40
0.5
40
0.749999999999999
40
0.749999999999999
40
0.875
40
0.875
40
1
40
1
40
1
40
1
41
1
10
20.1648305872928
20
-2.38852301232134
30
0
41
1
10
20.2199688075744
20
-2.40928960925746
30
0
41
1
10
20.2747321034034
20
-2.42559901622568
30
0
41
1
10
20.3566369107521
20
-2.44195328643139
30
0
41
1
10
20.3838984921199
20
-2.44604239776771
30
0
41
1
10
20.4247749238231
20
-2.44980940815816
30
0
41
1
10
20.4383977906355
20
-2.45066935918129
30
0
41
1
10
20.4656464529416
20
-2.45152450549881
30
0
41
1
10
20.4792984243433
20
-2.45151874631756
30
0
41
1
10
20.4928959511498
20
-2.4510376772665
30
0
0
SPLINE
5
183
100
AcDbEntity
8
1
62
256
6
ByLayer
370
13
48
1
60
0
100
AcDbSpline
70
4
71
3
72
16
73
12
40
0
40
0
40
0
40
0
40
0.0200201988432714
40
0.131856356043881
40
0.24369251324449
40
0.3555286704451
40
0.467364827645709
40
0.579200984846319
40
0.691037142046928
40
0.802873299247537
40
1
40
1
40
1
40
1
41
1
10
15.8842602384443
20
0.5199067375531
30
0
41
1
10
15.8395068256295
20
0.551333600713946
30
0
41
1
10
15.5447534128147
20
0.757630900263223
30
0
41
1
10
15
20
1.12904455917825
30
0
41
1
10
14.25
20
1.5968867600001
30
0
41
1
10
13.5
20
2.00721328533362
30
0
41
1
10
12.75
20
2.34617649441705
30
0
41
0.999999999999999
10
12
20
2.59969529940068
30
0
41
1
10
11.25
20
2.75325981899599
30
0
41
1
10
10.3093404099202
20
2.82058388637779
30
0
41
1
10
9.61868081984045
20
2.74289711449805
30
0
41
1
10
9.1780212297607
20
2.64111179879416
30
0
0
SPLINE
5
184
100
AcDbEntity
8
1
62
256
6
ByLayer
370
13
48
1
60
0
100
AcDbSpline
70
4
71
3
72
16
73
12
40
0
40
0
40
0
40
0
40
0.109760847958139
40
0.223690752464009
40
0.337620656969879
40
0.45155056147575
40
0.56548046598162
40
0.67941037048749
40
0.79334027499336
40
0.907270179499231
40
1
40
1
40
1
40
1
41
1
10
19.4725551212883
20
0.520300356616502
30
0
41
1
10
19.2317034141922
20
0.6864003753509
30
0
41
1
10
18.7408517070961
20
1.01913071185206
30
0
41
1
10
18
20
1.48632795201348
30
0
41
1
10
17.25
20
1.9044428927242
30
0
41
1
10
16.5
20
2.2563575387797
30
0
41
1
10
15.75
20
2.53081953269091
30
0
41
1
10
15
20
2.71630378689966
30
0
41
1
10
14.25
20
2.80089750651754
30
0
41
1
10
13.5465200161824
20
2.78815265630388
30
0
41
1
10
13.0930400323648
20
2.72748425907548
30
0
41
1
10
12.8895600485473
20
2.6898933193128
30
0
0
SPLINE
5
185
100
AcDbEntity
8
1
62
256
6
ByLayer
370
18
48
1
60
0
100
AcDbSpline
70
4
71
3
72
10
73
6
40
0
40
0
40
0
40
0
40
0.352907076312373
40
0.352907076312373
40
1
40
1
40
1
40
1
41
1
10
20.2396108853738
20
-2.89277040589715
30
0
41
1
10
20.2666429582657
20
-2.8836160177307
30
0
41
1
10
20.2935874435928
20
-2.873366702852
30
0
41
1
10
20.3697547829706
20
-2.84103624670314
30
0
41
1
10
20.4188235700717
20
-2.81624030646628
30
0
41
1
10
20.467821374469
20
-2.78657344040082
30
0
0
SPLINE
5
186
100
AcDbEntity
8
1
62
256
6
ByLayer
370
13
48
1
60
0
100
AcDbSpline
70
4
71
3
72
10
73
6
40
0
40
0
40
0
40
0
40
0.27874143835103
40
0.519160958900687
40
1
40
1
40
1
40
1
41
1
10
12.1195470246563
20
0.520832659342318
30
0
41
1
10
11.8296980164376
20
0.716614497432715
30
0
41
1
10
11.2898490082188
20
1.0735234956216
30
0
41
1
10
10.25
20
1.70597539125331
30
0
41
1
10
9.5
20
2.08512045398274
30
0
41
1
10
8.99999999999997
20
2.2836066478437
30
0
0
SPLINE
5
187
100
AcDbEntity
8
1
62
256
6
ByLayer
370
18
48
1
60
0
100
AcDbSpline
70
4
71
3
72
8
73
4
40
0
40
0
40
0
40
0
40
1
40
1
40
1
40
1
41
1
10
19.9869669837537
20
-2.94838508523748
30
0
41
1
10
20.0181507017966
20
-2.944138182335
30
0
41
1
10
20.0494165984536
20
-2.93961869596998
30
0
41
1
10
20.0807666194188
20
-2.93482330167487
30
0
0
SPLINE
5
188
100
AcDbEntity
8
1
62
256
6
ByLayer
370
18
48
1
60
0
100
AcDbSpline
70
4
71
3
72
8
73
4
40
0
40
0
40
0
40
0
40
1
40
1
40
1
40
1
41
1
10
19.9871148536464
20
0.164756759502126
30
0
41
1
10
19.9824764516744
20
0.167120280810565
30
0
41
1
10
19.9777578870612
20
0.169310039723484
30
0
41
1
10
19.9729378997258
20
0.171280111478921
30
0
0
SPLINE
5
189
100
AcDbEntity
8
1
62
256
6
ByLayer
370
18
48
1
60
0
100
AcDbSpline
70
4
71
3
72
8
73
4
40
0
40
0
40
0
40
0
40
1
40
1
40
1
40
1
41
1
10
19.972937899725
20
0.171280111477586
30
0
41
1
10
19.9609711597988
20
0.176171272945936
30
0
41
1
10
19.9489803795541
20
0.181004265523569
30
0
41
1
10
19.9369605575793
20
0.185763686457165
30
0
0
SPLINE
5
18A
100
AcDbEntity
8
1
62
256
6
ByLayer
370
18
48
1
60
0
100
AcDbSpline
70
4
71
3
72
10
73
6
40
0
40
0
40
0
40
0
40
0.5
40
0.5
40
1
40
1
40
1
40
1
41
1
10
8.75472416536607
20
2.44458143286275
30
0
41
1
10
8.79705715059745
20
2.43821529564508
30
0
41
1
10
8.83867561600698
20
2.43375572352753
30
0
41
1
10
8.92045311078473
20
2.42873081670504
30
0
41
1
10
8.96061262488237
20
2.42816418858868
30
0
41
1
10
8.99997963034201
20
2.42971222442495
30
0
0
SPLINE
5
18B
100
AcDbEntity
8
1
62
256
6
ByLayer
370
18
48
1
60
0
100
AcDbSpline
70
4
71
3
72
22
73
18
40
0
40
0
40
0
40
0
40
0.0625000000000002
40
0.0625000000000002
40
0.125
40
0.125
40
0.187500000000001
40
0.187500000000001
40
0.250000000000001
40
0.250000000000001
40
0.375000000000001
40
0.375000000000001
40
0.500000000000001
40
0.500000000000001
40
0.75
40
0.75
40
1
40
1
40
1
40
1
41
1
10
20.0807666194188
20
2.31673951486863
30
0
41
1
10
20.0862469693105
20
2.31546393092023
30
0
41
1
10
20.091734925549
20
2.31454468537314
30
0
41
1
10
20.1026333361051
20
2.31370736826514
30
0
41
1
10
20.1076814294006
20
2.31382350038206
30
0
41
1
10
20.1169780980149
20
2.31499564298699
30
0
41
1
10
20.1209869757852
20
2.31600582065312
30
0
41
1
10
20.1281977040851
20
2.318569005462
30
0
41
1
10
20.1313241727254
20
2.32010047719217
30
0
41
1
10
20.1396918427817
20
2.32508221535349
30
0
41
1
10
20.1440576367847
20
2.32897404159664
30
0
41
1
10
20.1514688493222
20
2.33707861194424
30
0
41
1
10
20.1545161490508
20
2.34132122878773
30
0
41
1
10
20.162573428089
20
2.35436780050472
30
0
41
1
10
20.1665160297008
20
2.36348528184502
30
0
41
1
10
20.1731551261615
20
2.38209193335413
30
0
41
1
10
20.1757998337435
20
2.39158229017246
30
0
41
1
10
20.1780589995209
20
2.40114446561384
30
0
0
SPLINE
5
18C
100
AcDbEntity
8
1
62
256
6
ByLayer
370
18
48
1
60
0
100
AcDbSpline
70
4
71
3
72
17
73
13
40
0
40
0
40
0
40
0
40
0.250140670484632
40
0.250140670484632
40
0.31267583810579
40
0.31267583810579
40
0.375211005726947
40
0.500281340969268
40
0.500281340969268
40
0.750422011453904
40
0.750422011453904
40
1
40
1
40
1
40
1
41
1
10
9.00000000000011
20
-2.31197759557341
30
0
41
1
10
9.23476911774421
20
-2.42269680385167
30
0
41
1
10
9.46876159995679
20
-2.52146921350254
30
0
41
1
10
9.76178797439567
20
-2.62882825624411
30
0
41
1
10
9.820466921904
20
-2.64951106480788
30
0
41
1
10
9.93770168884416
20
-2.68916131546783
30
0
41
1
10
10.113176249324
20
-2.74600255562214
30
0
41
1
10
10.2877111221728
20
-2.7949106428737
30
0
41
1
10
10.6360366995566
20
-2.88202489235218
30
0
41
1
10
10.8672713308474
20
-2.92589194127353
30
0
41
1
10
11.3297847584707
20
-2.98474798262294
30
0
41
1
10
11.561075177364
20
-2.99972364168423
30
0
41
1
10
11.7937578850603
20
-2.99999252282751
30
0
0
SPLINE
5
18D
100
AcDbEntity
8
1
62
256
6
ByLayer
370
18
48
1
60
0
100
AcDbSpline
70
4
71
3
72
20
73
16
40
0
40
0
40
0
40
0
40
0.104437898700784
40
0.231773833468441
40
0.295441800852269
40
0.359109768236098
40
0.486445703003754
40
0.550113670387583
40
0.613781637771411
40
0.741117572539068
40
0.804785539922896
40
0.868453507306725
40
0.932121474690553
40
0.995789442074381
40
1
40
1
40
1
40
1
41
1
10
8.99933709214028
20
-2.29218874488166
30
0
41
1
10
9.1327238501475
20
-2.35585579432041
30
0
41
1
10
9.42898723353687
20
-2.48902182169078
30
0
41
1
10
9.80740713566379
20
-2.63369508389729
30
0
41
1
10
10.1342349173507
20
-2.73922831418207
30
0
41
1
10
10.4615138220612
20
-2.83154955373129
30
0
41
1
10
10.7894882675044
20
-2.90335085960098
30
0
41
1
10
11.1179098090758
20
-2.95379033862741
30
0
41
1
10
11.446551044317
20
-2.98973517542109
30
0
41
1
10
11.7754109643463
20
-3.00354777373718
30
0
41
1
10
12.1042482019343
20
-2.99520524628116
30
0
41
1
10
12.3508082941329
20
-2.97787949159309
30
0
41
1
10
12.5972315818319
20
-2.94950328060742
30
0
41
1
10
12.7667958598577
20
-2.92250166251711
30
0
41
1
10
12.8542328442404
20
-2.90655630118468
30
0
41
1
10
12.8596563979743
20
-2.90555946455007
30
0
0
SPLINE
5
18E
100
AcDbEntity
8
1
62
256
6
ByLayer
370
18
48
1
60
0
100
AcDbSpline
70
4
71
3
72
27
73
23
40
0
40
0
40
0
40
0
40
0.0385770525804634
40
0.0385770525804634
40
0.198814210483718
40
0.198814210483718
40
0.238873499959532
40
0.238873499959532
40
0.278932789435346
40
0.359051368386974
40
0.359051368386974
40
0.519288526290226
40
0.519288526290226
40
0.679525684193478
40
0.679525684193478
40
0.719584973669292
40
0.719584973669292
40
0.759644263145107
40
0.759644263145107
40
0.839762842096739
40
0.839762842096739
40
1
40
1
40
1
40
1
41
1
10
15.8146705294449
20
2.81392480434218
30
0
41
1
10
15.870395103462
20
2.82823392505009
30
0
41
1
10
15.9261337814711
20
2.84175163151241
30
0
41
1
10
16.2135554465945
20
2.90728562453563
30
0
41
1
10
16.4457542822202
20
2.94626150434129
30
0
41
1
10
16.738394353748
20
2.97659615015536
30
0
41
1
10
16.797119547078
20
2.98174724542636
30
0
41
1
10
16.914254878688
20
2.99014397334653
30
0
41
1
10
17.0896172066696
20
2.99990223132065
30
0
41
1
10
17.2641518212854
20
3.0012369334537
30
0
41
1
10
17.6125840891999
20
2.99288170329797
30
0
41
1
10
17.8440409032538
20
2.9726378614624
30
0
41
1
10
18.3073273211732
20
2.90344323375126
30
0
41
1
10
18.5391235065275
20
2.85447318989208
30
0
41
1
10
18.8305549689288
20
2.7753979568603
30
0
41
1
10
18.8889268193482
20
2.75868946619488
30
0
41
1
10
19.005883567376
20
2.72348807401397
30
0
41
1
10
19.0645279704668
20
2.7049753071739
30
0
41
1
10
19.2404273318366
20
2.64690251450176
30
0
41
1
10
19.3572747547901
20
2.60494025179841
30
0
41
1
10
19.7070741742717
20
2.46980404434606
30
0
41
1
10
19.9392917436523
20
2.36738984638498
30
0
41
1
10
20.1718124441425
20
2.2537975420361
30
0
0
SPLINE
5
18F
100
AcDbEntity
8
1
62
256
6
ByLayer
370
18
48
1
60
0
100
AcDbSpline
70
4
71
3
72
10
73
6
40
0
40
0
40
0
40
0
40
0.5
40
0.5
40
1
40
1
40
1
40
1
41
1
10
20.1718124441391
20
2.25379754203314
30
0
41
1
10
20.1574575814059
20
2.26495629125227
30
0
41
1
10
20.1427932222237
20
2.27583624967903
30
0
41
1
10
20.1125726870617
20
2.29688750775821
30
0
41
1
10
20.0970250882113
20
2.30706343652184
30
0
41
1
10
20.0807666194188
20
2.31673951486863
30
0
0
SPLINE
5
190
100
AcDbEntity
8
1
62
256
6
ByLayer
370
18
48
1
60
0
100
AcDbSpline
70
4
71
3
72
8
73
4
40
0
40
0
40
0
40
0
40
1
40
1
40
1
40
1
41
1
10
19.9869669837541
20
2.36016841583404
30
0
41
1
10
20.0181507017969
20
2.34593810703339
30
0
41
1
10
20.0494165984537
20
2.33146202990608
30
0
41
1
10
20.0807666194188
20
2.31673951486863
30
0
0
SPLINE
5
191
100
AcDbEntity
8
1
62
256
6
ByLayer
370
18
48
1
60
0
100
AcDbSpline
70
4
71
3
72
14
73
10
40
0
40
0
40
0
40
0
40
0.500000000000123
40
0.500000000000123
40
0.750000000000062
40
0.750000000000062
40
0.875000000000031
40
0.875000000000031
40
1
40
1
40
1
40
1
41
1
10
19.9193555840249
20
2.39069437746872
30
0
41
1
10
19.9213578251359
20
2.38739688332464
30
0
41
1
10
19.9235170686151
20
2.38413959738719
30
0
41
1
10
19.9274095663339
20
2.37943332250299
30
0
41
1
10
19.9288095188317
20
2.37789261968396
30
0
41
1
10
19.931325419946
20
2.37569917478183
30
0
41
1
10
19.9322451999011
20
2.3749796721018
30
0
41
1
10
19.9343221070913
20
2.3736887027745
30
0
41
1
10
19.9354909150526
20
2.37309144039514
30
0
41
1
10
19.9368955673548
20
2.37275722720867
30
0
0
SPLINE
5
192
100
AcDbEntity
8
1
62
256
6
ByLayer
370
18
48
1
60
0
100
AcDbSpline
70
4
71
3
72
13
73
9
40
0
40
0
40
0
40
0
40
0.168746125900998
40
0.370315159094199
40
0.5718841922874
40
0.7734532254806
40
0.9750222586738
40
1
40
1
40
1
40
1
41
1
10
17.3165138490226
20
2.99961199883774
30
0
41
1
10
17.4558656232067
20
2.99894046934111
30
0
41
1
10
17.7635052030388
20
2.98579486560865
30
0
41
1
10
18.2460818392449
20
2.9245570015737
30
0
41
1
10
18.7668203508867
20
2.81083306432564
30
0
41
1
10
19.2999143896039
20
2.6464018283842
30
0
41
1
10
19.6875676011949
20
2.49317140855362
30
0
41
1
10
19.8962977092953
20
2.40099260811488
30
0
41
1
10
19.9193555840254
20
2.39069437747065
30
0
0
SPLINE
5
193
100
AcDbEntity
8
1
62
256
6
ByLayer
370
18
48
1
60
0
100
AcDbSpline
70
4
71
3
72
43
73
39
40
0
40
0
40
0
40
0
40
0.107631037472926
40
0.107631037472926
40
0.16144655620939
40
0.16144655620939
40
0.215262074945854
40
0.215262074945854
40
0.269077593682318
40
0.269077593682318
40
0.29598535305055
40
0.29598535305055
40
0.32289311241878
40
0.32289311241878
40
0.430524149891707
40
0.430524149891707
40
0.484339668628171
40
0.484339668628171
40
0.511247427996403
40
0.511247427996403
40
0.538155187364635
40
0.538155187364635
40
0.645786224837563
40
0.645786224837563
40
0.672693984205796
40
0.672693984205796
40
0.699601743574028
40
0.699601743574028
40
0.753417262310492
40
0.753417262310492
40
0.861048299783418
40
0.861048299783418
40
0.88795605915165
40
0.88795605915165
40
0.914863818519882
40
0.968679337256348
40
0.968679337256348
40
1
40
1
40
1
40
1
41
1
10
9.00000000000011
20
-0.132179504977358
30
0
41
1
10
9.23341413449614
20
-0.298532109280842
30
0
41
1
10
9.46615191219152
20
-0.463798991448783
30
0
41
1
10
9.81579809111386
20
-0.707947863837063
30
0
41
1
10
9.93251615922821
20
-0.78875021983913
30
0
41
1
10
10.1653894769463
20
-0.947976157956845
30
0
41
1
10
10.2816626312151
20
-1.02648521229608
30
0
41
1
10
10.5141774004589
20
-1.18090634963806
30
0
41
1
10
10.6304193857173
20
-1.2568187596905
30
0
41
1
10
10.8049747705085
20
-1.36847241102424
30
0
41
1
10
10.8631919105907
20
-1.40532099929808
30
0
41
1
10
10.9797256074976
20
-1.47823315431572
30
0
41
1
10
11.0380742411045
20
-1.51431626908334
30
0
41
1
10
11.3297680984005
20
-1.6924149700763
30
0
41
1
10
11.5623369174536
20
-1.82706699138956
30
0
41
1
10
11.911535135587
20
-2.01577952114957
30
0
41
1
10
12.0279892678492
20
-2.07647656109313
30
0
41
1
10
12.2029288704431
20
-2.16399447826484
30
0
41
1
10
12.2613231873725
20
-2.19259725993399
30
0
41
1
10
12.3780174322255
20
-2.24849224053952
30
0
41
1
10
12.4363037379318
20
-2.27577888730846
30
0
41
1
10
12.727510360471
20
-2.40885821258044
30
0
41
1
10
12.9597378300515
20
-2.5046428825348
30
0
41
1
10
13.2506226843461
20
-2.60968897961837
30
0
41
1
10
13.3088305302307
20
-2.62996251930676
30
0
41
1
10
13.4253464244605
20
-2.66900443199603
30
0
41
1
10
13.4836926444231
20
-2.68778468342501
30
0
41
1
10
13.6585533249743
20
-2.74171561042851
30
0
41
1
10
13.7749332025989
20
-2.77447739160007
30
0
41
1
10
14.1239205481984
20
-2.86304834904641
30
0
41
1
10
14.3563806316882
20
-2.90912284843753
30
0
41
1
10
14.6480268809189
20
-2.94987078179116
30
0
41
1
10
14.7064404731922
20
-2.95718178084977
30
0
41
1
10
14.8231176315662
20
-2.97007741647772
30
0
41
1
10
14.9979893930994
20
-2.98684471809057
30
0
41
1
10
15.1725682881055
20
-2.99590414325681
30
0
41
1
10
15.3566622839371
20
-3.00003874241241
30
0
41
1
10
15.4243806649807
20
-3.00039925673622
30
0
41
1
10
15.4921161078217
20
-2.99959467402562
30
0
0
SPLINE
5
194
100
AcDbEntity
8
1
62
256
6
ByLayer
370
18
48
1
60
0
100
AcDbSpline
70
4
71
3
72
29
73
25
40
0
40
0
40
0
40
0
40
0.0217693309805948
40
0.0543673207359305
40
0.119563300246602
40
0.152161290001938
40
0.184759279757273
40
0.249955259267945
40
0.28255324902328
40
0.315151238778616
40
0.380347218289288
40
0.412945208044623
40
0.445543197799959
40
0.478141187555295
40
0.51073917731063
40
0.543337167065966
40
0.575935156821302
40
0.641131136331973
40
0.673729126087309
40
0.706327115842645
40
0.771523095353316
40
0.901915054374659
40
0.96711103388533
40
1
40
1
40
1
40
1
41
1
10
8.99933537345007
20
-0.101749309265926
30
0
41
1
10
9.05375579962407
20
-0.140545043333361
30
0
41
1
10
9.18970723468027
20
-0.237398923605809
30
0
41
1
10
9.48891009147306
20
-0.449737630692027
30
0
41
1
10
9.81570074004875
20
-0.679066344270524
30
0
41
1
10
10.1430183674694
20
-0.903727463256217
30
0
41
1
10
10.4707108541265
20
-1.12454010297756
30
0
41
1
10
10.798970068835
20
-1.33840175103234
30
0
41
1
10
11.1275934142102
20
-1.54297314422251
30
0
41
1
10
11.4563957398379
20
-1.74059512953619
30
0
41
1
10
11.785375395288
20
-1.92664955892431
30
0
41
1
10
12.1143307291223
20
-2.09915889514053
30
0
41
1
10
12.3609877167628
20
-2.22128923145132
30
0
41
1
10
12.6075278925756
20
-2.33569531243276
30
0
41
1
10
12.8538880272378
20
-2.44202095604456
30
0
41
1
10
13.0999946239151
20
-2.53989743853788
30
0
41
1
10
13.4277096488076
20
-2.65865337326738
30
0
41
1
10
13.7546589433242
20
-2.7591446979651
30
0
41
1
10
14.0805992272899
20
-2.84061690118185
30
0
41
1
10
14.4057544641789
20
-2.90916260583364
30
0
41
1
10
14.9729052233478
20
-2.99471067820394
30
0
41
1
10
15.6196037730288
20
-3.01321246800058
30
0
41
1
10
16.1896190549054
20
-2.95896502948784
30
0
41
1
10
16.4355827424159
20
-2.9204301008098
30
0
41
1
10
16.5182287208985
20
-2.90579494061069
30
0
0
SPLINE
5
195
100
AcDbEntity
8
1
62
256
6
ByLayer
370
18
48
1
60
0
100
AcDbSpline
70
4
71
3
72
10
73
6
40
0
40
0
40
0
40
0
40
0.5
40
0.5
40
1
40
1
40
1
40
1
41
1
10
20.1648305872891
20
-2.38852301232691
30
0
41
1
10
20.1503873145061
20
-2.37783429816162
30
0
41
1
10
20.1356326149517
20
-2.36721859629088
30
0
41
1
10
20.1052036686609
20
-2.34631362061549
30
0
41
1
10
20.0895402053673
20
-2.3360176348682
30
0
41
1
10
20.0731167951205
20
-2.32606883910816
30
0
0
SPLINE
5
196
100
AcDbEntity
8
1
62
256
6
ByLayer
370
18
48
1
60
0
100
AcDbSpline
70
4
71
3
72
8
73
4
40
0
40
0
40
0
40
0
40
1
40
1
40
1
40
1
41
1
10
19.9873026579287
20
-2.28398753938978
30
0
41
1
10
20.0158308390057
20
-2.29816258197187
30
0
41
1
10
20.0444349842379
20
-2.31219139606651
30
0
41
1
10
20.0731167951205
20
-2.32606883910816
30
0
0
SPLINE
5
197
100
AcDbEntity
8
1
62
256
6
ByLayer
370
18
48
1
60
0
100
AcDbSpline
70
4
71
3
72
8
73
4
40
0
40
0
40
0
40
0
40
1
40
1
40
1
40
1
41
1
10
19.9729110078341
20
-2.27955285757892
30
0
41
1
10
19.9609771454192
20
-2.27629450574523
30
0
41
1
10
19.9490179114885
20
-2.27307180034626
30
0
41
1
10
19.9370276204947
20
-2.26989755739211
30
0
0
SPLINE
5
198
100
AcDbEntity
8
1
62
256
6
ByLayer
370
18
48
1
60
0
100
AcDbSpline
70
4
71
3
72
14
73
10
40
0
40
0
40
0
40
0
40
0.500000000000036
40
0.500000000000036
40
0.750000000000029
40
0.750000000000029
40
0.875000000000015
40
0.875000000000015
40
1
40
1
40
1
40
1
41
1
10
19.9200166694377
20
-2.25021493075511
30
0
41
1
10
19.9219642169403
20
-2.25384950885018
30
0
41
1
10
19.9240612251032
20
-2.25743105365388
30
0
41
1
10
19.9278332951195
20
-2.2625927092935
30
0
41
1
10
19.9291887391487
20
-2.26428018314436
30
0
41
1
10
19.9316225391133
20
-2.26667978365009
30
0
41
1
10
19.9325102823464
20
-2.26746505914713
30
0
41
1
10
19.9345189046481
20
-2.26887625711606
30
0
41
1
10
19.9356481246747
20
-2.26953235733535
30
0
41
1
10
19.9370276204635
20
-2.26989755738384
30
0
0
SPLINE
5
199
100
AcDbEntity
8
1
62
256
6
ByLayer
370
18
48
1
60
0
100
AcDbSpline
70
4
71
3
72
64
73
60
40
0
40
0
40
0
40
0
40
0.0624999999999989
40
0.0624999999999989
40
0.0781249999999987
40
0.0781249999999987
40
0.0937499999999984
40
0.124999999999998
40
0.124999999999998
40
0.156249999999997
40
0.156249999999997
40
0.171874999999997
40
0.171874999999997
40
0.187499999999997
40
0.187499999999997
40
0.249999999999995
40
0.249999999999995
40
0.281249999999994
40
0.281249999999994
40
0.312499999999994
40
0.312499999999994
40
0.343749999999993
40
0.343749999999993
40
0.359374999999992
40
0.359374999999992
40
0.374999999999992
40
0.374999999999992
40
0.437499999999991
40
0.437499999999991
40
0.49999999999999
40
0.49999999999999
40
0.53124999999999
40
0.53124999999999
40
0.54687499999999
40
0.54687499999999
40
0.56249999999999
40
0.56249999999999
40
0.624999999999991
40
0.624999999999991
40
0.687499999999993
40
0.687499999999993
40
0.749999999999994
40
0.749999999999994
40
0.765624999999995
40
0.765624999999995
40
0.781249999999995
40
0.812499999999997
40
0.843749999999998
40
0.843749999999998
40
0.859374999999998
40
0.859374999999998
40
0.874999999999998
40
0.874999999999998
40
0.937499999999998
40
0.937499999999998
40
0.953124999999999
40
0.953124999999999
40
0.968749999999999
40
1
40
1
40
1
40
1
41
1
10
9.00000000000014
20
2.80337620320012
30
0
41
1
10
9.23380607605012
20
2.86729116244456
30
0
41
1
10
9.4667584070593
20
2.91592199722123
30
0
41
1
10
9.75853917085269
20
2.95712104547837
30
0
41
1
10
9.81696033015854
20
2.96438366687599
30
0
41
1
10
9.93373897670395
20
2.97691344254159
30
0
41
1
10
10.1087117690304
20
2.99270990118339
30
0
41
1
10
10.2833106991241
20
2.9994853576458
30
0
41
1
10
10.5161596786062
20
3.00047539692531
30
0
41
1
10
10.6326094751553
20
2.99695623997414
30
0
41
1
10
10.8075990198734
20
2.98568798706052
30
0
41
1
10
10.8660030526572
20
2.98093062947334
30
0
41
1
10
10.9828678031339
20
2.96942270512156
30
0
41
1
10
11.041243214541
20
2.96268136591237
30
0
41
1
10
11.3329478681141
20
2.92407853924089
30
0
41
1
10
11.5657883310224
20
2.87750626235092
30
0
41
1
10
11.9161480586258
20
2.78498288997878
30
0
41
1
10
12.0332467642096
20
2.75030636047634
30
0
41
1
10
12.2667678945528
20
2.67384777010778
30
0
41
1
10
12.3833192049399
20
2.63203381960997
30
0
41
1
10
12.6163416696654
20
2.54147031546771
30
0
41
1
10
12.7328114355325
20
2.49273521948985
30
0
41
1
10
12.907724132192
20
2.41461860284451
30
0
41
1
10
12.9660633295808
20
2.38774322786941
30
0
41
1
10
13.0828605287012
20
2.33234035848045
30
0
41
1
10
13.1412178268158
20
2.30385880419956
30
0
41
1
10
13.4322049220567
20
2.15803005858888
30
0
41
1
10
13.6631582219566
20
2.03009547009333
30
0
41
1
10
14.1244028670927
20
1.7553567691829
30
0
41
1
10
14.3546938823046
20
1.60853112448291
30
0
41
1
10
14.7016034676718
20
1.37617427269575
30
0
41
1
10
14.8174815567652
20
1.29670000158185
30
0
41
1
10
14.9918703685935
20
1.17465796649472
30
0
41
1
10
15.0500944079084
20
1.13350427095705
30
0
41
1
10
15.1667682953355
20
1.05028347571442
30
0
41
1
10
15.2253052731872
20
1.0081531367739
30
0
41
1
10
15.5171908232149
20
0.796384934185255
30
0
41
1
10
15.7485622153226
20
0.623108443691677
30
0
41
1
10
16.2098824745391
20
0.272602402031509
30
0
41
1
10
16.4398311475518
20
0.0953721319381202
30
0
41
1
10
16.9012698249829
20
-0.259142790861489
30
0
41
1
10
17.1327727808992
20
-0.436410224023518
30
0
41
1
10
17.4249567555853
20
-0.655614280911891
30
0
41
1
10
17.4834405098603
20
-0.699268028556531
30
0
41
1
10
17.6002294444803
20
-0.78592462197642
30
0
41
1
10
17.7752858390345
20
-0.915039541847591
30
0
41
1
10
18.0666711967385
20
-1.1255783072526
30
0
41
1
10
18.2999846505227
20
-1.28830103657711
30
0
41
1
10
18.4752911221809
20
-1.40789057904723
30
0
41
1
10
18.5337683570237
20
-1.44733549299659
30
0
41
1
10
18.650520518872
20
-1.52512053167044
30
0
41
1
10
18.7088389393892
20
-1.56349049428812
30
0
41
1
10
19.0002485024246
20
-1.75261750110431
30
0
41
1
10
19.2327835155114
20
-1.89522251365031
30
0
41
1
10
19.5246084517377
20
-2.06054800762746
30
0
41
1
10
19.583050673135
20
-2.09297403124228
30
0
41
1
10
19.6996850399979
20
-2.15625504899273
30
0
41
1
10
19.8744121011539
20
-2.24890795705045
30
0
41
1
10
20.0486796787063
20
-2.33460509672196
30
0
41
1
10
20.1648305872932
20
-2.38852301232362
30
0
0
SPLINE
5
19A
100
AcDbEntity
8
1
62
256
6
ByLayer
370
18
48
1
60
0
100
AcDbSpline
70
4
71
3
72
10
73
6
40
0
40
0
40
0
40
0
40
0.5
40
0.5
40
1
40
1
40
1
40
1
41
1
10
20.1683760521359
20
-0.0018945992521253
30
0
41
1
10
20.2209256815667
20
-0.0405755402408374
30
0
41
1
10
20.2730959588913
20
-0.0781410292630369
30
0
41
1
10
20.3770271885315
20
-0.1500496314668
30
0
41
1
10
20.4287853991447
20
-0.184413581148703
30
0
41
1
10
20.4805264928906
20
-0.216323917394249
30
0
0
SPLINE
5
19B
100
AcDbEntity
8
1
62
256
6
ByLayer
370
18
48
1
60
0
100
AcDbSpline
70
4
71
3
72
10
73
6
40
0
40
0
40
0
40
0
40
0.5
40
0.5
40
1
40
1
40
1
40
1
41
1
10
20.1683760521332
20
-0.0018945992568149
30
0
41
1
10
20.1539786820755
20
0.0153800524016958
30
0
41
1
10
20.1392709175377
20
0.0323672173456657
30
0
41
1
10
20.1089504700077
20
0.0655058734096485
30
0
41
1
10
20.0933473712015
20
0.0816661551355651
30
0
41
1
10
20.0770104155625
20
0.0971504379097894
30
0
0
SPLINE
5
19C
100
AcDbEntity
8
1
62
256
6
ByLayer
370
18
48
1
60
0
100
AcDbSpline
70
4
71
3
72
8
73
4
40
0
40
0
40
0
40
0
40
1
40
1
40
1
40
1
41
1
10
19.9871148536464
20
0.164756759502126
30
0
41
1
10
20.0170000370607
20
0.142291616435756
30
0
41
1
10
20.0469646139121
20
0.119754957784892
30
0
41
1
10
20.0770104155625
20
0.0971504379097894
30
0
0
SPLINE
5
19D
100
AcDbEntity
8
1
62
256
6
ByLayer
370
18
48
1
60
0
100
AcDbSpline
70
4
71
3
72
14
73
10
40
0
40
0
40
0
40
0
40
0.499999999999833
40
0.499999999999833
40
0.749999999999749
40
0.749999999999749
40
0.874999999999874
40
0.874999999999874
40
1
40
1
40
1
40
1
41
1
10
19.9196815644607
20
0.215425061805746
30
0
41
1
10
19.9216569095723
20
0.209959309678084
30
0
41
1
10
19.9237855055584
20
0.204566983787203
30
0
41
1
10
19.9276185887942
20
0.196786357348884
30
0
41
1
10
19.9289965709307
20
0.194241033226746
30
0
41
1
10
19.9314718854044
20
0.19061971676274
30
0
41
1
10
19.9323758520733
20
0.189433212631513
30
0
41
1
10
19.9344189903689
20
0.187302890959501
30
0
41
1
10
19.9355683421687
20
0.186314954115829
30
0
41
1
10
19.9369605575945
20
0.185763686451139
30
0
0
SPLINE
5
19E
100
AcDbEntity
8
1
62
256
6
ByLayer
370
18
48
1
60
0
100
AcDbSpline
70
4
71
3
72
20
73
16
40
0
40
0
40
0
40
0
40
0.014716438435699
40
0.0570488366460361
40
0.14171363306671
40
0.311043225908059
40
0.395708022328734
40
0.480372818749408
40
0.565037615170082
40
0.649702411590757
40
0.734367208011431
40
0.819032004432105
40
0.90369680085278
40
0.988361597273454
40
1
40
1
40
1
40
1
41
1
10
13.977752387859
20
2.99956472602389
30
0
41
1
10
14.0059662178482
20
2.99943266274883
30
0
41
1
10
14.11528283093
20
2.99804801545687
30
0
41
1
10
14.3862762819078
20
2.98622536849396
30
0
41
1
10
14.9504864025729
20
2.92276410870846
30
0
41
1
10
15.5930509341446
20
2.76409116492053
30
0
41
1
10
16.2397650883779
20
2.52433394017157
30
0
41
1
10
16.7285065666246
20
2.30530304229325
30
0
41
1
10
17.2226416966859
20
2.04862498014165
30
0
41
1
10
17.7239406332625
20
1.75599809014511
30
0
41
1
10
18.2342813434751
20
1.42960653648825
30
0
41
1
10
18.7556454255168
20
1.07193870184119
30
0
41
1
10
19.2900308507451
20
0.686103323226462
30
0
41
1
10
19.6816544473204
20
0.394091307207248
30
0
41
1
10
19.8939652242035
20
0.234738543424839
30
0
41
1
10
19.9196815644612
20
0.215425061806513
30
0
0
SPLINE
5
19F
100
AcDbEntity
8
1
62
256
6
ByLayer
370
18
48
1
60
0
100
AcDbSpline
70
4
71
3
72
18
73
14
40
0
40
0
40
0
40
0
40
0.124999999999998
40
0.124999999999998
40
0.249999999999996
40
0.249999999999996
40
0.374999999999995
40
0.374999999999995
40
0.499999999999993
40
0.499999999999993
40
0.749999999999996
40
0.749999999999996
40
1
40
1
40
1
40
1
41
1
10
8.75681204450848
20
-2.86821954758659
30
0
41
1
10
8.76098109616231
20
-2.87509115439116
30
0
41
1
10
8.76712040077678
20
-2.88172466935475
30
0
41
1
10
8.78171489102206
20
-2.89442658048796
30
0
41
1
10
8.79018149584437
20
-2.90049732892638
30
0
41
1
10
8.8085137571816
20
-2.91205505124856
30
0
41
1
10
8.81839264713116
20
-2.91754536800437
30
0
41
1
10
8.83898416306747
20
-2.92792613722884
30
0
41
1
10
8.8497014760313
20
-2.93281799298143
30
0
41
1
10
8.88262880491772
20
-2.94661959453407
30
0
41
1
10
8.90559443091021
20
-2.95465738699968
30
0
41
1
10
8.9521410380278
20
-2.9685019327388
30
0
41
1
10
8.97574506227008
20
-2.97430931054876
30
0
41
1
10
8.99934245059544
20
-2.97905908367184
30
0
0
SPLINE
5
1A0
100
AcDbEntity
8
1
62
256
6
ByLayer
370
18
48
1
60
0
100
AcDbSpline
70
4
71
3
72
12
73
8
40
0
40
0
40
0
40
0
40
0.500000000000025
40
0.500000000000025
40
0.750000000000012
40
0.750000000000012
40
1
40
1
40
1
40
1
41
1
10
8.75681204448492
20
-2.86821954758162
30
0
41
1
10
8.71866118370841
20
-2.85369572112796
30
0
41
1
10
8.68059138440918
20
-2.84083367448633
30
0
41
1
10
8.62293709851912
20
-2.82388278527878
30
0
41
1
10
8.60361950992959
20
-2.81862693825013
30
0
41
1
10
8.56465457474326
20
-2.80898842720504
30
0
41
1
10
8.54500376716479
20
-2.80460196215682
30
0
41
1
10
8.52502631651848
20
-2.80073742709621
30
0
0
SPLINE
5
1A1
100
AcDbEntity
8
1
62
256
6
ByLayer
370
18
48
1
60
0
100
AcDbSpline
70
4
71
3
72
12
73
8
40
0
40
0
40
0
40
0
40
0.500000000000001
40
0.500000000000001
40
0.75
40
0.75
40
1
40
1
40
1
40
1
41
1
10
8.75630630511819
20
2.74423678559935
30
0
41
1
10
8.71829468470071
20
2.74671932063592
30
0
41
1
10
8.6803458492773
20
2.75100624563879
30
0
41
1
10
8.62282546375948
20
2.75961278670044
30
0
41
1
10
8.60354277664746
20
2.76285006771292
30
0
41
1
10
8.56462839453005
20
2.77000834839109
30
0
41
1
10
8.544993860441
20
2.7739288100486
30
0
41
1
10
8.52502631652166
20
2.77819118559228
30
0
0
SPLINE
5
1A2
100
AcDbEntity
8
1
62
256
6
ByLayer
370
18
48
1
60
0
100
AcDbSpline
70
4
71
1
72
4
73
2
40
0
40
0
40
1
40
1
41
1
10
8.99997957404122
20
-2.3119688607967
30
0
41
1
10
9.00000044692561
20
-2.31197778669207
30
0
0
SPLINE
5
1A3
100
AcDbEntity
8
1
62
256
6
ByLayer
370
18
48
1
60
0
100
AcDbSpline
70
4
71
3
72
18
73
14
40
0
40
0
40
0
40
0
40
0.125
40
0.125
40
0.25
40
0.25
40
0.375
40
0.375
40
0.5
40
0.5
40
0.75
40
0.75
40
1
40
1
40
1
40
1
41
1
10
8.75630646419128
20
-1.61595448883955
30
0
41
1
10
8.76049632968059
20
-1.64641805556906
30
0
41
1
10
8.7666542980846
20
-1.67643539300812
30
0
41
1
10
8.78128816534164
20
-1.73578939274816
30
0
41
1
10
8.7897751816212
20
-1.76512554319135
30
0
41
1
10
8.80814986304424
20
-1.82325446330884
30
0
41
1
10
8.81805069760392
20
-1.85206102665597
30
0
41
1
10
8.83868660654284
20
-1.90912635622124
30
0
41
1
10
8.84942633932556
20
-1.93738852824515
30
0
41
1
10
8.88242044469879
20
-2.02149080349332
30
0
41
1
10
8.90542967346809
20
-2.0766664987716
30
0
41
1
10
8.95205916343627
20
-2.18550589139699
30
0
41
1
10
8.97570264717055
20
-2.2391666891788
30
0
41
1
10
8.99933709214153
20
-2.29218874488211
30
0
0
SPLINE
5
1A4
100
AcDbEntity
8
1
62
256
6
ByLayer
370
18
48
1
60
0
100
AcDbSpline
70
4
71
3
72
8
73
4
40
0
40
0
40
0
40
0
40
1
40
1
40
1
40
1
41
1
10
8.52502631651842
20
-1.99001279913099
30
0
41
1
10
8.59531273665493
20
-2.02189256418691
30
0
41
1
10
8.66385605598055
20
-2.05945660252502
30
0
41
1
10
8.72979468870042
20
-2.10282020176408
30
0
0
SPLINE
5
1A5
100
AcDbEntity
8
1
62
256
6
ByLayer
370
18
48
1
60
0
100
AcDbSpline
70
4
71
3
72
10
73
6
40
0
40
0
40
0
40
0
40
0.5
40
0.5
40
1
40
1
40
1
40
1
41
1
10
8.72979468869988
20
-2.10282020176365
30
0
41
1
10
8.77650100436492
20
-2.13353594261065
30
0
41
1
10
8.82238807945259
20
-2.16627710503019
30
0
41
1
10
8.91248521060774
20
-2.23590555079531
30
0
41
1
10
8.95669596377573
20
-2.27279111068822
30
0
41
1
10
8.99997957404122
20
-2.3119688607967
30
0
0
SPLINE
5
1A6
100
AcDbEntity
8
1
62
256
6
ByLayer
370
18
48
1
60
0
100
AcDbSpline
70
4
71
3
72
8
73
4
40
0
40
0
40
0
40
0
40
1
40
1
40
1
40
1
41
1
10
8.99933709214056
20
-2.29218874488166
30
0
41
1
10
8.99945950895275
20
-2.29878485341183
30
0
41
1
10
8.99967510206255
20
-2.30537870847965
30
0
41
1
10
8.99997957404125
20
-2.3119688607967
30
0
0
SPLINE
5
1A7
100
AcDbEntity
8
1
62
256
6
ByLayer
370
18
48
1
60
0
100
AcDbSpline
70
4
71
3
72
12
73
8
40
0
40
0
40
0
40
0
40
0.500000000000025
40
0.500000000000025
40
0.750000000000013
40
0.750000000000013
40
1
40
1
40
1
40
1
41
1
10
8.75630646416923
20
-1.61595448883938
30
0
41
1
10
8.7182949820631
20
-1.58319299867813
30
0
41
1
10
8.68034622264372
20
-1.55104723887737
30
0
41
1
10
8.62282580826465
20
-1.50430219129808
30
0
41
1
10
8.60354308352123
20
-1.48896504549521
30
0
41
1
10
8.56462857315228
20
-1.45904332679686
30
0
41
1
10
8.54499395095283
20
-1.44445277257287
30
0
41
1
10
8.52502631652285
20
-1.43041531522655
30
0
0
SPLINE
5
1A8
100
AcDbEntity
8
1
62
256
6
ByLayer
370
18
48
1
60
0
100
AcDbSpline
70
4
71
3
72
20
73
16
40
0
40
0
40
0
40
0
40
0.249999999999987
40
0.249999999999987
40
0.499999999999974
40
0.499999999999974
40
0.749999999999961
40
0.749999999999961
40
0.874999999999981
40
0.874999999999981
40
0.93749999999999
40
0.93749999999999
40
0.968749999999995
40
0.968749999999995
40
1
40
1
40
1
40
1
41
1
10
8.52502631651876
20
2.77819118559287
30
0
41
1
10
8.50710724277496
20
2.78201628406256
30
0
41
1
10
8.48934011870648
20
2.78578023478127
30
0
41
1
10
8.45424775961078
20
2.79320699986857
30
0
41
1
10
8.43691613283113
20
2.7968685577288
30
0
41
1
10
8.40299110477855
20
2.80414140303748
30
0
41
1
10
8.38633406393859
20
2.80774884929758
30
0
41
1
10
8.36270396346154
20
2.81324641581091
30
0
41
1
10
8.35506986734936
20
2.81508668596374
30
0
41
1
10
8.34447601600857
20
2.81793145073803
30
0
41
1
10
8.34108450885441
20
2.81889425401755
30
0
41
1
10
8.33644407535331
20
2.8203918264922
30
0
41
1
10
8.334983701043
20
2.82089678501791
30
0
41
1
10
8.33234387983921
20
2.82192832070703
30
0
41
1
10
8.33115592612765
20
2.82245408647185
30
0
41
1
10
8.33024676251895
20
2.82300370633988
30
0
0
SPLINE
5
1A9
100
AcDbEntity
8
1
62
256
6
ByLayer
370
18
48
1
60
0
100
AcDbSpline
70
4
71
3
72
18
73
14
40
0
40
0
40
0
40
0
40
0.0624999999999839
40
0.0624999999999839
40
0.124999999999968
40
0.124999999999968
40
0.249999999999973
40
0.249999999999973
40
0.499999999999982
40
0.499999999999982
40
0.749999999999991
40
0.749999999999991
40
1
40
1
40
1
40
1
41
1
10
8.33024676251975
20
2.8230037063397
30
0
41
1
10
8.32851481292417
20
2.82405072790897
30
0
41
1
10
8.32644122637194
20
2.82504422033034
30
0
41
1
10
8.3219332856313
20
2.82696561719223
30
0
41
1
10
8.31949154672449
20
2.82789258996269
30
0
41
1
10
8.31180671634868
20
2.8305989313223
30
0
41
1
10
8.30621142272179
20
2.83230470140123
30
0
41
1
10
8.28868227774839
20
2.83721643094134
30
0
41
1
10
8.27599334161735
20
2.84022139798591
30
0
41
1
10
8.2498454896263
20
2.84581895221032
30
0
41
1
10
8.23635532444177
20
2.84840740685957
30
0
41
1
10
8.20888176397918
20
2.85323265756352
30
0
41
1
10
8.19489176799436
20
2.85546823999664
30
0
41
1
10
8.18072414922429
20
2.8575436348803
30
0
0
SPLINE
5
1AA
100
AcDbEntity
8
1
62
256
6
ByLayer
370
18
48
1
60
0
100
AcDbSpline
70
4
71
3
72
8
73
4
40
0
40
0
40
0
40
0
40
1
40
1
40
1
40
1
41
1
10
8.18072414922429
20
2.85754363488033
30
0
41
1
10
8.05512648706716
20
2.87186387281071
30
0
41
1
10
7.93513431005417
20
2.87992141335184
30
0
41
1
10
7.82129407173093
20
2.88000124616727
30
0
0
SPLINE
5
1AB
100
AcDbEntity
8
1
62
256
6
ByLayer
370
18
48
1
60
0
100
AcDbSpline
70
4
71
3
72
8
73
4
40
0
40
0
40
0
40
0
40
1
40
1
40
1
40
1
41
1
10
6.92465596548928
20
-2.88000519925021
30
0
41
1
10
6.9148584602132
20
-2.88001257916989
30
0
41
1
10
6.90525047373168
20
-2.87972362044118
30
0
41
1
10
6.89583015096059
20
-2.87912938280172
30
0
0
SPLINE
5
1AC
100
AcDbEntity
8
1
62
256
6
ByLayer
370
18
48
1
60
0
100
AcDbSpline
70
4
71
3
72
20
73
16
40
0
40
0
40
0
40
0
40
0.249999999999983
40
0.249999999999983
40
0.374999999999986
40
0.374999999999986
40
0.499999999999989
40
0.499999999999989
40
0.624999999999992
40
0.624999999999992
40
0.749999999999994
40
0.749999999999994
40
0.874999999999997
40
0.874999999999997
40
1
40
1
40
1
40
1
41
1
10
6.89583015096059
20
-2.87912938280172
30
0
41
1
10
6.89153249583072
20
-2.87885828503769
30
0
41
1
10
6.88820031241349
20
-2.87851847930304
30
0
41
1
10
6.88542187490401
20
-2.87788350514663
30
0
41
1
10
6.88487731392183
20
-2.87764936238807
30
0
41
1
10
6.88477097205634
20
-2.87714959059048
30
0
41
1
10
6.8851987288983
20
-2.876882790824
30
0
41
1
10
6.88723068020536
20
-2.87631693546757
30
0
41
1
10
6.88884566098116
20
-2.87601947656981
30
0
41
1
10
6.89325496477656
20
-2.87542640480865
30
0
41
1
10
6.89609785540432
20
-2.87512452322804
30
0
41
1
10
6.9028630773357
20
-2.87454308821265
30
0
41
1
10
6.90673720635149
20
-2.87426625106735
30
0
41
1
10
6.91535538302008
20
-2.87374544971783
30
0
41
1
10
6.92009960226417
20
-2.87350214381587
30
0
41
1
10
6.92510100380301
20
-2.87328226330942
30
0
0
SPLINE
5
1AD
100
AcDbEntity
8
1
62
256
6
ByLayer
370
18
48
1
60
0
100
AcDbSpline
70
4
71
3
72
26
73
22
40
0
40
0
40
0
40
0
40
0.06907149648019
40
0.06907149648019
40
0.13814299296038
40
0.13814299296038
40
0.20721448944057
40
0.20721448944057
40
0.27628598592076
40
0.27628598592076
40
0.41442897888114
40
0.41442897888114
40
0.483500475361324
40
0.483500475361324
40
0.552571971841507
40
0.552571971841507
40
0.690714964801873
40
0.690714964801873
40
0.82885795776224
40
0.82885795776224
40
1
40
1
40
1
40
1
41
1
10
6.92510100380301
20
-2.87328226330939
30
0
41
1
10
6.9549029780824
20
-2.8719720559312
30
0
41
1
10
6.9863694572712
20
-2.87078536506868
30
0
41
1
10
7.05141818405659
20
-2.86875806920347
30
0
41
1
10
7.08502384283807
20
-2.86791434399723
30
0
41
1
10
7.15384742024949
20
-2.86658366394744
30
0
41
1
10
7.18855330207697
20
-2.86610552715541
30
0
41
1
10
7.25828037439285
20
-2.86548006534309
30
0
41
1
10
7.29341040138564
20
-2.86533239315003
30
0
41
1
10
7.39852695976401
20
-2.86531083200452
30
0
41
1
10
7.46824719019216
20
-2.86585233731472
30
0
41
1
10
7.57244429652565
20
-2.86716743578953
30
0
41
1
10
7.60709614826749
20
-2.86769001525866
30
0
41
1
10
7.67594453767597
20
-2.86884482184226
30
0
41
1
10
7.71018712323379
20
-2.86947762485056
30
0
41
1
10
7.81242876616136
20
-2.87146432248795
30
0
41
1
10
7.87998940108375
20
-2.87290686003311
30
0
41
1
10
8.01333192777886
20
-2.87561470697702
30
0
41
1
10
8.07928017593241
20
-2.87688312824531
30
0
41
1
10
8.22498201445467
20
-2.87910901776098
30
0
41
1
10
8.3042297187277
20
-2.87991461475113
30
0
41
1
10
8.38232904491343
20
-2.87999127288552
30
0
0
SPLINE
5
1AE
100
AcDbEntity
8
1
62
256
6
ByLayer
370
18
48
1
60
0
100
AcDbSpline
70
4
71
3
72
18
73
14
40
0
40
0
40
0
40
0
40
0.249999999999999
40
0.249999999999999
40
0.499999999999999
40
0.499999999999999
40
0.749999999999998
40
0.749999999999998
40
0.874999999999998
40
0.874999999999998
40
0.937499999999999
40
0.937499999999999
40
1
40
1
40
1
40
1
41
1
10
8.52502631651848
20
-2.80073742709675
30
0
41
1
10
8.50812641079477
20
-2.79746822727009
30
0
41
1
10
8.49137649943421
20
-2.79406225985411
30
0
41
1
10
8.45831276233687
20
-2.78692422947123
30
0
41
1
10
8.44199269121023
20
-2.78319432714318
30
0
41
1
10
8.41007995328636
20
-2.77530085208508
30
0
41
1
10
8.39444591387007
20
-2.77115129944076
30
0
41
1
10
8.37225788754725
20
-2.76434916096881
30
0
41
1
10
8.36509562906897
20
-2.76199499662263
30
0
41
1
10
8.35520051187618
20
-2.75822491434113
30
0
41
1
10
8.35204190900077
20
-2.75692819988905
30
0
41
1
10
8.34628919087791
20
-2.75418752754828
30
0
41
1
10
8.34363917642955
20
-2.75275416129691
30
0
41
1
10
8.34193870307823
20
-2.7511880951422
30
0
0
SPLINE
5
1AF
100
AcDbEntity
8
1
62
256
6
ByLayer
370
18
48
1
60
0
100
AcDbSpline
70
4
71
3
72
20
73
16
40
0
40
0
40
0
40
0
40
0.249999999999999
40
0.249999999999999
40
0.499999999999998
40
0.499999999999998
40
0.749999999999997
40
0.749999999999997
40
0.874999999999996
40
0.874999999999996
40
0.937500000000019
40
0.937500000000019
40
0.968750000000009
40
0.968750000000009
40
1
40
1
40
1
40
1
41
1
10
8.52502631651876
20
-1.43041531524267
30
0
41
1
10
8.50710306499855
20
-1.41781508061859
30
0
41
1
10
8.48933178111179
20
-1.40501463374952
30
0
41
1
10
8.45423115504994
20
-1.37886915054131
30
0
41
1
10
8.43689541995519
20
-1.36553065667155
30
0
41
1
10
8.40296227019812
20
-1.33800213913335
30
0
41
1
10
8.38630108103817
20
-1.3238354381688
30
0
41
1
10
8.362665404799
20
-1.30125736062666
30
0
41
1
10
8.35502945833602
20
-1.29353745618172
30
0
41
1
10
8.34443295827259
20
-1.28129859105991
30
0
41
1
10
8.34104043952891
20
-1.27710671952161
30
0
41
1
10
8.33639907067885
20
-1.27049549969024
30
0
41
1
10
8.33493840111694
20
-1.2682514303597
30
0
41
1
10
8.33229807996898
20
-1.26363349034946
30
0
41
1
10
8.33110990993256
20
-1.26126348388542
30
0
41
1
10
8.3302006902546
20
-1.25876570878242
30
0
0
SPLINE
5
1B0
100
AcDbEntity
8
1
62
256
6
ByLayer
370
18
48
1
60
0
100
AcDbSpline
70
4
71
3
72
20
73
16
40
0
40
0
40
0
40
0
40
0.250000000000009
40
0.250000000000009
40
0.500000000000018
40
0.500000000000018
40
0.750000000000028
40
0.750000000000028
40
0.875000000000055
40
0.875000000000055
40
0.937500000000047
40
0.937500000000047
40
0.968750000000023
40
0.968750000000023
40
1
40
1
40
1
40
1
41
1
10
8.52502631651853
20
0.880338441206874
30
0
41
1
10
8.50475591232157
20
0.895166964495814
30
0
41
1
10
8.4846414770274
20
0.910132545767169
30
0
41
1
10
8.44486619685657
20
0.940491915203125
30
0
41
1
10
8.42519866824068
20
0.955878320151299
30
0
41
1
10
8.38662347927504
20
0.987414726956558
30
0
41
1
10
8.36763131693718
20
1.00355314776536
30
0
41
1
10
8.34064428489495
20
1.02902271720109
30
0
41
1
10
8.3318926780014
20
1.03771092195481
30
0
41
1
10
8.31965877687975
20
1.05149458127758
30
0
41
1
10
8.31571819899216
20
1.05623036357525
30
0
41
1
10
8.31036896376617
20
1.06361386497287
30
0
41
1
10
8.30867811658192
20
1.06612471026008
30
0
41
1
10
8.30561011274202
20
1.07131672916049
30
0
41
1
10
8.3042194451686
20
1.07399047051021
30
0
41
1
10
8.30316942193369
20
1.07685040292094
30
0
0
SPLINE
5
1B1
100
AcDbEntity
8
1
62
256
6
ByLayer
370
18
48
1
60
0
100
AcDbSpline
70
4
71
3
72
10
73
6
40
0
40
0
40
0
40
0
40
0.5
40
0.5
40
1
40
1
40
1
40
1
41
1
10
8.75535938348145
20
0.702581090373371
30
0
41
1
10
8.7176131932043
20
0.731486538575211
30
0
41
1
10
8.6798922581215
20
0.761205096734187
30
0
41
1
10
8.60353014474288
20
0.821018669179125
30
0
41
1
10
8.5649192570211
20
0.85115533309019
30
0
41
1
10
8.52502631651871
20
0.880338441209886
30
0
0
SPLINE
5
1B2
100
AcDbEntity
8
1
62
256
6
ByLayer
370
18
48
1
60
0
100
AcDbSpline
70
4
71
3
72
8
73
4
40
0
40
0
40
0
40
0
40
1
40
1
40
1
40
1
41
1
10
8.52502631651848
20
0.201661625443506
30
0
41
1
10
8.59568480665044
20
0.158720259296274
30
0
41
1
10
8.66458923093768
20
0.114460110528483
30
0
41
1
10
8.73086233542531
20
0.0672801823035343
30
0
0
SPLINE
5
1B3
100
AcDbEntity
8
1
62
256
6
ByLayer
370
18
48
1
60
0
100
AcDbSpline
70
4
71
3
72
10
73
6
40
0
40
0
40
0
40
0
40
0.5
40
0.5
40
1
40
1
40
1
40
1
41
1
10
8.73086233543719
20
0.0672801822951783
30
0
41
1
10
8.77723831291618
20
0.0342650503537527
30
0
41
1
10
8.82290463554816
20
0.0011181318926106
30
0
41
1
10
8.91276680909581
20
-0.065448779117304
30
0
41
1
10
8.95704352992294
20
-0.0989346559984483
30
0
41
1
10
8.99999536874265
20
-0.132176471949492
30
0
0
SPLINE
5
1B4
100
AcDbEntity
8
1
62
256
6
ByLayer
370
18
48
1
60
0
100
AcDbSpline
70
4
71
3
72
8
73
4
40
0
40
0
40
0
40
0
40
1
40
1
40
1
40
1
41
1
10
9.00000000000003
20
2.68332482982427
30
0
41
1
10
8.91825567273318
20
2.70489968373087
30
0
41
1
10
8.83697981418911
20
2.72526059428424
30
0
41
1
10
8.75630630511338
20
2.74423678560475
30
0
0
SPLINE
5
1B5
100
AcDbEntity
8
1
62
256
6
ByLayer
370
18
48
1
60
0
100
AcDbSpline
70
4
71
3
72
18
73
14
40
0
40
0
40
0
40
0
40
0.125000000000002
40
0.125000000000002
40
0.250000000000003
40
0.250000000000003
40
0.375000000000005
40
0.375000000000005
40
0.500000000000007
40
0.500000000000007
40
0.750000000000003
40
0.750000000000003
40
1
40
1
40
1
40
1
41
1
10
8.75630630514021
20
2.74423678560538
30
0
41
1
10
8.7604961265256
20
2.73330253867127
30
0
41
1
10
8.76665406988715
20
2.722348538848
30
0
41
1
10
8.78128790746152
20
2.70014791172613
30
0
41
1
10
8.78977491919642
20
2.68890466091719
30
0
41
1
10
8.80814960232658
20
2.66601200847063
30
0
41
1
10
8.8180504432658
20
2.65435795138549
30
0
41
1
10
8.83868637127955
20
2.63062589317403
30
0
41
1
10
8.84942611652826
20
2.6185474838837
30
0
41
1
10
8.8824202640466
20
2.58162050026857
30
0
41
1
10
8.90542952705678
20
2.55606977404085
30
0
41
1
10
8.95205908858398
20
2.50305035772982
30
0
41
1
10
8.97570260978765
20
2.47558437149337
30
0
41
1
10
8.99933709214153
20
2.44715907891506
30
0
0
SPLINE
5
1B6
100
AcDbEntity
8
1
62
256
6
ByLayer
370
18
48
1
60
0
100
AcDbSpline
70
4
71
3
72
18
73
14
40
0
40
0
40
0
40
0
40
0.125
40
0.125
40
0.25
40
0.25
40
0.375
40
0.375
40
0.5
40
0.5
40
0.75
40
0.75
40
1
40
1
40
1
40
1
41
1
10
8.75535938346243
20
0.702581090369506
30
0
41
1
10
8.75964439199029
20
0.668179571193718
30
0
41
1
10
8.76587242354444
20
0.634148811226368
30
0
41
1
10
8.78062764602046
20
0.566456944945571
30
0
41
1
10
8.78916528712645
20
0.532798703793389
30
0
41
1
10
8.80763225464185
20
0.465646898762316
30
0
41
1
10
8.81757449214703
20
0.432138085281849
30
0
41
1
10
8.83828709079609
20
0.365275675749416
30
0
41
1
10
8.8490623714795
20
0.331917752773819
30
0
41
1
10
8.88215729528264
20
0.231911467943348
30
0
41
1
10
8.90522577895047
20
0.165306424767039
30
0
41
1
10
8.95196404007325
20
0.0319417122569803
30
0
41
1
10
8.9756569082968
20
-0.0348136127116732
30
0
41
1
10
8.99933537345248
20
-0.101749309267575
30
0
0
SPLINE
5
1B7
100
AcDbEntity
8
1
62
256
6
ByLayer
370
18
48
1
60
0
100
AcDbSpline
70
4
71
3
72
8
73
4
40
0
40
0
40
0
40
0
40
1
40
1
40
1
40
1
41
1
10
8.99933537345203
20
-0.101749309267319
30
0
41
1
10
8.99946363266295
20
-0.111893741899166
30
0
41
1
10
8.99968502536166
20
-0.122036116605159
30
0
41
1
10
8.99999536872565
20
-0.132176471950487
30
0
0
SPLINE
5
1B8
100
AcDbEntity
8
1
62
256
6
ByLayer
370
18
48
1
60
0
100
AcDbSpline
70
4
71
3
72
37
73
33
40
0
40
0
40
0
40
0
40
0.0139807609636362
40
0.0367515707057847
40
0.0595223804479332
40
0.0822931901900816
40
0.10506399993223
40
0.127834809674379
40
0.173376429158675
40
0.196147238900824
40
0.218918048642973
40
0.26445966812727
40
0.287230477869418
40
0.310001287611566
40
0.332772097353715
40
0.355542907095863
40
0.378313716838012
40
0.40108452658016
40
0.446626146064457
40
0.469396955806606
40
0.492167765548754
40
0.537709385033051
40
0.628792624001645
40
0.674334243485942
40
0.719875862970239
40
0.765417482454536
40
0.810959101938833
40
0.85650072142313
40
0.902042340907427
40
0.947583960391724
40
0.993125579876021
40
1
40
1
40
1
40
1
41
1
10
8.99935006427222
20
2.79207550748336
30
0
41
1
10
9.04920760143739
20
2.80606509127978
30
0
41
1
10
9.18031476220543
20
2.84106619635602
30
0
41
1
10
9.39285255129974
20
2.89001078979825
30
0
41
1
10
9.63708045062791
20
2.93499254924723
30
0
41
1
10
9.88163358591706
20
2.96855647948655
30
0
41
1
10
10.1265317375659
20
2.99057007186104
30
0
41
1
10
10.453555307412
20
3.00428426119976
30
0
41
1
10
10.7813432497855
20
2.99424339892812
30
0
41
1
10
11.1096171189497
20
2.96059224415262
30
0
41
1
10
11.4381264781264
20
2.91127656945059
30
0
41
1
10
11.7668657556663
20
2.83855757979129
30
0
41
1
10
12.0955678065561
20
2.74353148296524
30
0
41
1
10
12.3420136083125
20
2.66139649358499
30
0
41
1
10
12.5883012926247
20
2.56868782490855
30
0
41
1
10
12.834331929818
20
2.46592619284951
30
0
41
1
10
13.079993658487
20
2.35361571526155
30
0
41
1
10
13.4069113783577
20
2.19180963239697
30
0
41
1
10
13.7327061675115
20
2.0129590934628
30
0
41
1
10
14.0571017541515
20
1.81972152932488
30
0
41
1
10
14.3804389241058
20
1.61780025438315
30
0
41
1
10
14.9436350415401
20
1.24369454476675
30
0
41
1
10
15.584762612632
20
0.776809376349291
30
0
41
1
10
16.2300968201669
20
0.28690725492919
30
0
41
1
10
16.7179180028545
20
-0.0879030427119574
30
0
41
1
10
17.2113368669206
20
-0.465615198877089
30
0
41
1
10
17.7122232192943
20
-0.841577758018673
30
0
41
1
10
18.2225762272986
20
-1.2104327332971
30
0
41
1
10
18.7445148548063
20
-1.56643869502256
30
0
41
1
10
19.2801468006172
20
-1.90301938548888
30
0
41
1
10
19.6757236903672
20
-2.12499958021237
30
0
41
1
10
19.8916262878977
20
-2.23582238558063
30
0
41
1
10
19.9200166694382
20
-2.25021493075616
30
0
0
SPLINE
5
1B9
100
AcDbEntity
8
1
62
256
6
ByLayer
370
18
48
1
60
0
100
AcDbSpline
70
4
71
3
72
63
73
59
40
0
40
0
40
0
40
0
40
0.0649245243814604
40
0.0649245243814604
40
0.0811556554768265
40
0.0811556554768265
40
0.0973867865721925
40
0.129849048762925
40
0.129849048762925
40
0.162311310953657
40
0.162311310953657
40
0.178542442049023
40
0.178542442049023
40
0.194773573144389
40
0.194773573144389
40
0.25969809752585
40
0.25969809752585
40
0.324622621907312
40
0.324622621907312
40
0.389547146288774
40
0.389547146288774
40
0.40577827738414
40
0.40577827738414
40
0.422009408479506
40
0.454471670670238
40
0.454471670670238
40
0.48693393286097
40
0.48693393286097
40
0.503165063956336
40
0.503165063956336
40
0.519396195051702
40
0.519396195051702
40
0.584320719433166
40
0.584320719433166
40
0.64924524381463
40
0.64924524381463
40
0.714169768196094
40
0.714169768196094
40
0.730400899291459
40
0.730400899291459
40
0.746632030386825
40
0.779094292577558
40
0.779094292577558
40
0.81155655476829
40
0.81155655476829
40
0.827787685863657
40
0.827787685863657
40
0.844018816959023
40
0.844018816959023
40
0.90894334134049
40
0.90894334134049
40
0.925174472435856
40
0.925174472435856
40
0.941405603531222
40
0.941405603531222
40
0.973867865721955
40
0.973867865721955
40
1
40
1
40
1
40
1
41
1
10
9.00000000000014
20
2.42970522193011
30
0
41
1
10
9.23408118219817
20
2.32811088028669
30
0
41
1
10
9.4673968649607
20
2.21469326689996
30
0
41
1
10
9.75956865309908
20
2.05944510381048
30
0
41
1
10
9.81805783232019
20
2.02770825644745
30
0
41
1
10
9.93500143766573
20
1.9629975571354
30
0
41
1
10
10.1102306137201
20
1.86415238492364
30
0
41
1
10
10.2850876720069
20
1.76018166933432
30
0
41
1
10
10.5182384905005
20
1.61736523639726
30
0
41
1
10
10.6348181721782
20
1.54386591666358
30
0
41
1
10
10.8099408273011
20
1.43077631479096
30
0
41
1
10
10.8683571765598
20
1.39260589530647
30
0
41
1
10
10.985314766624
20
1.31536152330966
30
0
41
1
10
11.0438496955111
20
1.2762906932586
30
0
41
1
10
11.3356786360587
20
1.07964072456602
30
0
41
1
10
11.5674587273628
20
0.917531429851977
30
0
41
1
10
12.0299590132419
20
0.58695890638748
30
0
41
1
10
12.2606683606971
20
0.418482525295985
30
0
41
1
10
12.7229680828923
20
0.0777571391313359
30
0
41
1
10
12.9545323436254
20
-0.0945128233662729
30
0
41
1
10
13.2462537710295
20
-0.309935134738566
30
0
41
1
10
13.3047712819183
20
-0.353064447352125
30
0
41
1
10
13.4216390579685
20
-0.438941170793186
30
0
41
1
10
13.5967829725611
20
-0.567253578343923
30
0
41
1
10
13.771648724619
20
-0.693818484123966
30
0
41
1
10
14.0048813852929
20
-0.860601089553825
30
0
41
1
10
14.121536867564
20
-0.94300657156316
30
0
41
1
10
14.2968099135856
20
-1.06482701841148
30
0
41
1
10
14.3552823830662
20
-1.1051359634194
30
0
41
1
10
14.4723612331358
20
-1.18510790774954
30
0
41
1
10
14.5308337199193
20
-1.22467918003792
30
0
41
1
10
14.8225462817371
20
-1.42009929030445
30
0
41
1
10
15.0542780686692
20
-1.56891758646734
30
0
41
1
10
15.5165567305441
20
-1.84957630742386
30
0
41
1
10
15.7470320918823
20
-1.98148556785279
30
0
41
1
10
16.2091308886969
20
-2.225675896653
30
0
41
1
10
16.4407925452969
20
-2.33791395346057
30
0
41
1
10
16.7328534690853
20
-2.46394667247211
30
0
41
1
10
16.7913919161827
20
-2.48843822747136
30
0
41
1
10
16.9082546538687
20
-2.53574819313363
30
0
41
1
10
17.0834165190293
20
-2.60428684417389
30
0
41
1
10
17.2583648674908
20
-2.66545700169399
30
0
41
1
10
17.4917422626324
20
-2.74030764610194
30
0
41
1
10
17.6084880353403
20
-2.77437849381647
30
0
41
1
10
17.7839028352422
20
-2.82032084519687
30
0
41
1
10
17.8424531736543
20
-2.83478096266583
30
0
41
1
10
17.9595483061886
20
-2.86192450930832
30
0
41
1
10
18.0180357545067
20
-2.87459578199852
30
0
41
1
10
18.3102516233232
20
-2.93343908600161
30
0
41
1
10
18.5433029146453
20
-2.96609258323986
30
0
41
1
10
18.8352237234438
20
-2.98842097494799
30
0
41
1
10
18.8936391834824
20
-2.99196123706238
30
0
41
1
10
19.0105739409951
20
-2.99717676222292
30
0
41
1
10
19.0690922890392
20
-2.99884951418738
30
0
41
1
10
19.2441788493202
20
-3.00105281838657
30
0
41
1
10
19.3605085712959
20
-2.99878174546362
30
0
41
1
10
19.5700755938576
20
-2.98804670440256
30
0
41
1
10
19.663393788921
20
-2.98087743435693
30
0
41
1
10
19.756649451278
20
-2.97135076853144
30
0
0
SPLINE
5
1BA
100
AcDbEntity
8
1
62
256
6
ByLayer
370
18
48
1
60
0
100
AcDbSpline
70
4
71
3
72
35
73
31
40
0
40
0
40
0
40
0
40
0.0373757154456737
40
0.0829460660855297
40
0.105731241405458
40
0.128516416725386
40
0.174086767365242
40
0.19687194268517
40
0.219657118005098
40
0.265227468644954
40
0.288012643964882
40
0.31079781928481
40
0.333582994604738
40
0.356368169924666
40
0.379153345244594
40
0.401938520564522
40
0.447508871204378
40
0.470294046524306
40
0.493079221844234
40
0.538649572484091
40
0.629790273763803
40
0.675360624403659
40
0.720930975043515
40
0.766501325683371
40
0.812071676323227
40
0.857642026963083
40
0.903212377602939
40
0.948782728242795
40
0.994353078882651
40
1
40
1
40
1
40
1
41
1
10
8.99933709214031
20
2.44715907891566
30
0
41
1
10
9.1327238501475
20
2.39009186845198
30
0
41
1
10
9.42898723353684
20
2.2545437224797
30
0
41
1
10
9.80740713566377
20
2.05810656930771
30
0
41
1
10
10.1342349173507
20
1.87377835444275
30
0
41
1
10
10.4615138220612
20
1.6800596399072
30
0
41
1
10
10.7894882675044
20
1.47316412448242
30
0
41
1
10
11.1179098090758
20
1.25555973938074
30
0
41
1
10
11.446551044317
20
1.03163614917284
30
0
41
1
10
11.7754109643462
20
0.799464168827228
30
0
41
1
10
12.1042482019343
20
0.561857301310482
30
0
41
1
10
12.350808294133
20
0.381627123294351
30
0
41
1
10
12.597231581832
20
0.200083932762965
30
0
41
1
10
12.8434368443618
20
0.0179521225154531
30
0
41
1
10
13.0893313340109
20
-0.164009953151975
30
0
41
1
10
13.4166615646602
20
-0.405423667994853
30
0
41
1
10
13.7430486198609
20
-0.643604145863833
30
0
41
1
10
14.0682333167882
20
-0.875854615212972
30
0
41
1
10
14.3924972073104
20
-1.10324719894163
30
0
41
1
10
14.9577072362026
20
-1.4864522838277
30
0
41
1
10
15.6016762347927
20
-1.88392629838484
30
0
41
1
10
16.249723803266
20
-2.22740372317236
30
0
41
1
10
16.7393442181439
20
-2.45463863304613
30
0
41
1
10
17.2341485573355
20
-2.64799243851502
30
0
41
1
10
17.7358080426605
20
-2.80389171966539
30
0
41
1
10
18.2460818392448
20
-2.91853680300122
30
0
41
1
10
18.7668203508867
20
-2.9880061840621
30
0
41
1
10
19.2999143896038
20
-3.00818771935693
30
0
41
1
10
19.6875676011892
20
-2.98463787487947
30
0
41
1
10
19.8962977092837
20
-2.96004354346323
30
0
41
1
10
19.9193555840081
20
-2.95718307325242
30
0
0
SPLINE
5
1BB
100
AcDbEntity
8
1
62
256
6
ByLayer
370
18
48
1
60
0
100
AcDbSpline
70
4
71
3
72
8
73
4
40
0
40
0
40
0
40
0
40
1
40
1
40
1
40
1
41
1
10
8.99933709214056
20
2.44715907891546
30
0
41
1
10
8.99945951646126
20
2.44134392138807
30
0
41
1
10
8.99967512851092
20
2.43552886299207
30
0
41
1
10
8.99997963006706
20
2.42971222429989
30
0
0
SPLINE
5
1BC
100
AcDbEntity
8
1
62
256
6
ByLayer
370
18
48
1
60
0
100
AcDbSpline
70
4
71
1
72
4
73
2
40
0
40
0
40
1
40
1
41
1
10
8.99997963035341
20
2.42971222431342
30
0
41
1
10
9.00000000000009
20
2.42970522193011
30
0
0
SPLINE
5
1BD
100
AcDbEntity
8
1
62
256
6
ByLayer
370
18
48
1
60
0
100
AcDbSpline
70
4
71
3
72
41
73
37
40
0
40
0
40
0
40
0
40
0.0040742871521772
40
0.0040742871521772
40
0.0946129883201607
40
0.0946129883201607
40
0.185151689488144
40
0.185151689488144
40
0.230421040072137
40
0.230421040072137
40
0.253055715364133
40
0.253055715364133
40
0.275690390656129
40
0.275690390656129
40
0.366229091824117
40
0.366229091824117
40
0.456767792992104
40
0.456767792992104
40
0.502037143576097
40
0.524671818868094
40
0.524671818868094
40
0.54730649416009
40
0.54730649416009
40
0.637845195328074
40
0.637845195328074
40
0.728383896496058
40
0.728383896496058
40
0.818922597664041
40
0.818922597664041
40
0.83023993531004
40
0.83023993531004
40
0.841557272956038
40
0.864191948248033
40
0.909461298832022
40
0.909461298832022
40
1
40
1
40
1
40
1
41
1
10
12.4658500026918
20
2.80402452861733
30
0
41
1
10
12.4763305646299
20
2.80682970859627
30
0
41
1
10
12.4868081361808
20
2.80960508760066
30
0
41
1
10
12.7300513798426
20
2.87336262876886
30
0
41
1
10
12.9613958028915
20
2.91976271603008
30
0
41
1
10
13.4239953054697
20
2.98254667184264
30
0
41
1
10
13.6552668986208
20
2.99888260814703
30
0
41
1
10
14.0042099729377
20
3.00045317794363
30
0
41
1
10
14.1208631825788
20
2.99714687939576
30
0
41
1
10
14.2966131229983
20
2.98632282363536
30
0
41
1
10
14.355387619006
20
2.98172840926645
30
0
41
1
10
14.4725712988027
20
2.97063570625335
30
0
41
1
10
14.5310493337008
20
2.96413563474152
30
0
41
1
10
14.8229682283733
20
2.92694676638232
30
0
41
1
10
15.0550016501992
20
2.88222661094733
30
0
41
1
10
15.5182124651676
20
2.76430736706362
30
0
41
1
10
15.7493904380496
20
2.69108691927664
30
0
41
1
10
16.0974957052858
20
2.56067580532687
30
0
41
1
10
16.2718880583585
20
2.49032462305553
30
0
41
1
10
16.4471999702994
20
2.41240837298352
30
0
41
1
10
16.5643264145214
20
2.35880071219432
30
0
41
1
10
16.6230305094066
20
2.33115505931784
30
0
41
1
10
16.9155476209936
20
2.18968435093203
30
0
41
1
10
17.1477654505575
20
2.06553660636442
30
0
41
1
10
17.6113367858137
20
1.79858617104941
30
0
41
1
10
17.842690252257
20
1.65579480895104
30
0
41
1
10
18.3066746914828
20
1.35393960526503
30
0
41
1
10
18.5392677029493
20
1.19482624452169
30
0
41
1
10
18.8030756936393
20
1.00802217669391
30
0
41
1
10
18.8324313473147
20
0.987148418645575
30
0
41
1
10
18.8910420094045
20
0.945309826526767
30
0
41
1
10
18.9788622467731
20
0.882376457369787
30
0
41
1
10
19.1831657816503
20
0.73438449439567
30
0
41
1
10
19.3574418911095
20
0.605844093982739
30
0
41
1
10
19.7054059059823
20
0.347228272312549
30
0
41
1
10
19.9366056829593
20
0.172781858379551
30
0
41
1
10
20.1683760521363
20
-0.0018945992526938
30
0
0
SPLINE
5
1BE
100
AcDbEntity
8
1
62
256
6
ByLayer
370
18
48
1
60
0
100
AcDbSpline
70
4
71
2
72
6
73
3
40
0
40
0
40
0
40
1
40
1
40
1
41
1
10
20.1974515617942
20
-2.90725822975159
30
0
41
1
10
20.2179782115435
20
-2.90020394757622
30
0
41
1
10
20.2429257288862
20
-2.89163598488184
30
0
0
SPLINE
5
1BF
100
AcDbEntity
8
1
62
256
6
ByLayer
370
18
48
1
60
0
100
AcDbSpline
70
4
71
1
72
4
73
2
40
0
40
0
40
1
40
1
41
1
10
20.2789632449504
20
2.52473657900671
30
0
41
1
10
20.214941332078
20
2.54247704795242
30
0
0
SPLINE
5
1C0
100
AcDbEntity
8
1
62
256
6
ByLayer
370
18
48
1
60
0
100
AcDbSpline
70
4
71
2
72
6
73
3
40
0
40
0
40
0
40
1
40
1
40
1
41
1
10
19.8749339877157
20
1.09172198841352
30
0
41
1
10
19.5295596580554
20
1.24303576882579
30
0
41
1
10
19.1933849889612
20
1.44941996369263
30
0
0
SPLINE
5
1C1
100
AcDbEntity
8
1
62
256
6
ByLayer
370
18
48
1
60
0
100
AcDbSpline
70
4
71
2
72
6
73
3
40
0
40
0
40
0
40
1
40
1
40
1
41
1
10
11.019394923753
20
-2.65132158223801
30
0
41
1
10
11.3728367874264
20
-2.58198120877833
30
0
41
1
10
11.726593431573
20
-2.44383336968599
30
0
0
SPLINE
5
1C2
100
AcDbEntity
8
1
62
256
6
ByLayer
370
18
48
1
60
0
100
AcDbSpline
70
4
71
2
72
6
73
3
40
0
40
0
40
0
40
1
40
1
40
1
41
1
10
20.2149413320781
20
2.54247704795242
30
0
41
1
10
20.184860613983
20
2.55189227919325
30
0
41
1
10
20.1547834103077
20
2.56100940597474
30
0
0
SPLINE
5
1C3
100
AcDbEntity
8
1
62
256
6
ByLayer
370
18
48
1
60
0
100
AcDbSpline
70
4
71
1
72
4
73
2
40
0
40
0
40
1
40
1
41
1
10
20.8270931032139
20
1.89882366549338
30
0
41
1
10
20.6387147553823
20
2.21304132363093
30
0
0
SPLINE
5
1C4
100
AcDbEntity
8
1
62
256
6
ByLayer
370
18
48
1
60
0
100
AcDbSpline
70
4
71
2
72
6
73
3
40
0
40
0
40
0
40
1
40
1
40
1
41
1
10
20.9393537447658
20
1.55991896084188
30
0
41
1
10
20.9126184434397
20
1.66634329060091
30
0
41
1
10
20.8858831421136
20
1.77276762035993
30
0
0
SPLINE
5
1C5
100
AcDbEntity
8
1
62
256
6
ByLayer
370
18
48
1
60
0
100
AcDbSpline
70
4
71
2
72
6
73
3
40
0
40
0
40
0
40
1
40
1
40
1
41
1
10
17.3163073653155
20
2.99961298998321
30
0
41
1
10
17.3163515988548
20
2.99961297373656
30
0
41
1
10
17.3163958326186
20
2.99961261023861
30
0
0
SPLINE
5
1C6
100
AcDbEntity
8
1
62
256
6
ByLayer
370
18
48
1
60
0
100
AcDbSpline
70
4
71
2
72
6
73
3
40
0
40
0
40
0
40
1
40
1
40
1
41
1
10
17.094521921281
20
2.46088288708742
30
0
41
1
10
17.02410368072
20
2.4852169383685
30
0
41
1
10
16.9536935498089
20
2.50795931279188
30
0
0
SPLINE
5
1C7
100
AcDbEntity
8
1
62
256
6
ByLayer
370
18
48
1
60
0
100
AcDbSpline
70
4
71
2
72
6
73
3
40
0
40
0
40
0
40
1
40
1
40
1
41
1
10
16.1076564130839
20
1.24821294215388
30
0
41
1
10
15.7038712295509
20
1.41003272361746
30
0
41
1
10
15.2985283362167
20
1.64472117633215
30
0
0
SPLINE
5
1C8
100
AcDbEntity
8
1
62
256
6
ByLayer
370
18
48
1
60
0
100
AcDbSpline
70
4
71
2
72
6
73
3
40
0
40
0
40
0
40
1
40
1
40
1
41
1
10
12.08666353639
20
1.43546622791234
30
0
41
1
10
11.5691384039788
20
1.62138842008088
30
0
41
1
10
11.0521292079199
20
1.88707849600186
30
0
0
SPLINE
5
1C9
100
AcDbEntity
8
1
62
256
6
ByLayer
370
18
48
1
60
0
100
AcDbSpline
70
4
71
2
72
6
73
3
40
0
40
0
40
0
40
1
40
1
40
1
41
1
10
13.8144732339859
20
2.36402415535568
30
0
41
1
10
13.6702509787566
20
2.42639550382768
30
0
41
1
10
13.5260103946552
20
2.47746020142543
30
0
0
SPLINE
5
1CA
100
AcDbEntity
8
1
62
256
6
ByLayer
370
18
48
1
60
0
100
AcDbSpline
70
4
71
3
72
9
73
5
40
0
40
0
40
0
40
0
40
0.434098376029562
40
1
40
1
40
1
40
1
41
1
10
17.7389984894921
20
2.16101175692012
30
0
41
1
10
17.756589582974
20
2.15265567142512
30
0
41
1
10
17.7971041401596
20
2.13322612122934
30
0
41
1
10
17.837600139138
20
2.1133531628401
30
0
41
1
10
17.8605107225453
20
2.10196910077474
30
0
0
SPLINE
5
1CB
100
AcDbEntity
8
1
62
256
6
ByLayer
370
18
48
1
60
0
100
AcDbSpline
70
4
71
2
72
6
73
3
40
0
40
0
40
0
40
1
40
1
40
1
41
1
10
18.2813215994406
20
1.88313504928075
30
0
41
1
10
18.5891216164554
20
1.72053318539963
30
0
41
1
10
18.8955089976137
20
1.52219421738684
30
0
0
SPLINE
5
1CC
100
AcDbEntity
8
1
62
256
6
ByLayer
370
18
48
1
60
0
100
AcDbSpline
70
4
71
1
72
4
73
2
40
0
40
0
40
1
40
1
41
1
10
17.4191558673026
20
-2.77907026967426
30
0
41
1
10
17.5517082960284
20
-2.75370232319816
30
0
0
SPLINE
5
1CD
100
AcDbEntity
8
1
62
256
6
ByLayer
370
18
48
1
60
0
100
AcDbSpline
70
4
71
2
72
6
73
3
40
0
40
0
40
0
40
1
40
1
40
1
41
1
10
20.9730861241633
20
-0.207223001017269
30
0
41
1
10
20.9471617411255
20
-0.0044650727133444
30
0
41
1
10
20.9212325196951
20
0.198330755524751
30
0
0
SPLINE
5
1CE
100
AcDbEntity
8
1
62
256
6
ByLayer
370
18
48
1
60
0
100
AcDbSpline
70
4
71
2
72
6
73
3
40
0
40
0
40
0
40
1
40
1
40
1
41
1
10
10.4599458254711
20
2.99967151964918
30
0
41
1
10
10.4599978637918
20
2.99977693402605
30
0
41
1
10
10.4600499020469
20
2.99988193194696
30
0
0
LINE
5
79
100
AcDbEntity
8
80
62
256
6
ByLayer
370
18
48
1
60
0
100
AcDbLine
10
0
20
0
30
0
11
-5
21
0
31
0
39
0
210
0
220
0
230
1
0
LINE
5
7A
100
AcDbEntity
8
4
62
256
6
ByLayer
370
18
48
0.05
60
0
100
AcDbLine
10
0
20
0
30
0
11
21
21
0
31
0
39
0
210
0
220
0
230
1
0
LINE
5
7C
100
AcDbEntity
8
81
62
256
6
ByLayer
370
18
48
1
60
0
100
AcDbLine
10
21
20
0
30
0
11
26
21
0
31
0
39
0
210
0
220
0
230
1
0
LINE
5
7D
100
AcDbEntity
8
SK4
62
256
6
ByLayer
370
18
48
0.05
60
0
100
AcDbLine
10
-36
20
0
30
0
11
21
21
0
31
0
39
0
210
0
220
0
230
1
0
LINE
5
7F
100
AcDbEntity
8
1
62
256
6
ByLayer
370
18
48
1
60
0
100
AcDbLine
10
0
20
3
30
0
11
0
21
0
31
0
39
0
210
0
220
0
230
1
0
LINE
5
80
100
AcDbEntity
8
1
62
256
6
ByLayer
370
18
48
1
60
0
100
AcDbLine
10
0
20
0
30
0
11
0
21
-3
31
0
39
0
210
0
220
0
230
1
0
LINE
5
81
100
AcDbEntity
8
1
62
256
6
ByLayer
370
18
48
1
60
0
100
AcDbLine
10
20.953629
20
0.726683
30
0
11
20.972849
21
1.103943
31
0
39
0
210
0
220
0
230
1
0
LINE
5
82
100
AcDbEntity
8
1
62
256
6
ByLayer
370
18
48
1
60
0
100
AcDbLine
10
20.913169
20
-0.853792
30
0
11
20.905393
21
-0.738585
31
0
39
0
210
0
220
0
230
1
0
LINE
5
83
100
AcDbEntity
8
1
62
256
6
ByLayer
370
18
48
1
60
0
100
AcDbLine
10
20.940147
20
-0.197635
30
0
11
20.972849
21
-0.674309
31
0
39
0
210
0
220
0
230
1
0
LINE
5
84
100
AcDbEntity
8
1
62
256
6
ByLayer
370
18
48
1
60
0
100
AcDbLine
10
20.881492
20
-0.825949
30
0
11
20.905393
21
-0.738585
31
0
39
0
210
0
220
0
230
1
0
LINE
5
85
100
AcDbEntity
8
1
62
256
6
ByLayer
370
18
48
1
60
0
100
AcDbLine
10
20.905393
20
-0.738585
30
0
11
20.937589
21
-0.217166
31
0
39
0
210
0
220
0
230
1
0
LINE
5
86
100
AcDbEntity
8
1
62
256
6
ByLayer
370
13
48
1
60
0
100
AcDbLine
10
20.950077
20
0.729746
30
0
11
20.953629
21
0.726683
31
0
39
0
210
0
220
0
230
1
0
LINE
5
87
100
AcDbEntity
8
1
62
256
6
ByLayer
370
13
48
1
60
0
100
AcDbLine
10
20.888387
20
-0.223062
30
0
11
20.715795
21
-0.600167
31
0
39
0
210
0
220
0
230
1
0
LINE
5
88
100
AcDbEntity
8
1
62
256
6
ByLayer
370
18
48
1
60
0
100
AcDbLine
10
20.968827
20
-1.714415
30
0
11
20.972849
21
-1.859863
31
0
39
0
210
0
220
0
230
1
0
LINE
5
89
100
AcDbEntity
8
1
62
256
6
ByLayer
370
18
48
1
60
0
100
AcDbLine
10
20.92485
20
0.170064
30
0
11
20.939417
21
0.714035
31
0
39
0
210
0
220
0
230
1
0
LINE
5
8A
100
AcDbEntity
8
1
62
256
6
ByLayer
370
18
48
1
60
0
100
AcDbLine
10
20.958265
20
1.417882
30
0
11
20.972849
21
1.962507
31
0
39
0
210
0
220
0
230
1
0
LINE
5
8B
100
AcDbEntity
8
1
62
256
6
ByLayer
370
13
48
1
60
0
100
AcDbLine
10
6.89583
20
-2.879129
30
0
11
6.904707
21
-2.874499
31
0
39
0
210
0
220
0
230
1
0
LINE
5
8C
100
AcDbEntity
8
1
62
256
6
ByLayer
370
18
48
1
60
0
100
AcDbLine
10
9
20
-2.815846
30
0
11
9
21
-2.891134
31
0
39
0
210
0
220
0
230
1
0
LINE
5
8D
100
AcDbEntity
8
1
62
256
6
ByLayer
370
13
48
1
60
0
100
AcDbLine
10
8.341939
20
-2.751188
30
0
11
9
21
-2.815846
31
0
39
0
210
0
220
0
230
1
0
LINE
5
8E
100
AcDbEntity
8
1
62
256
6
ByLayer
370
18
48
1
60
0
100
AcDbLine
10
9
20
-2.815846
30
0
11
9
21
-2.761239
31
0
39
0
210
0
220
0
230
1
0
LINE
5
8F
100
AcDbEntity
8
1
62
256
6
ByLayer
370
13
48
1
60
0
100
AcDbLine
10
20.755741
20
-0.225754
30
0
11
20.577009
21
-0.551799
31
0
39
0
210
0
220
0
230
1
0
LINE
5
90
100
AcDbEntity
8
1
62
256
6
ByLayer
370
18
48
1
60
0
100
AcDbLine
10
20.94714
20
-0.88366
30
0
11
20.972849
21
-1.691727
31
0
39
0
210
0
220
0
230
1
0
LINE
5
91
100
AcDbEntity
8
1
62
256
6
ByLayer
370
13
48
1
60
0
100
AcDbLine
10
6.856404
20
2.609615
30
0
11
9
21
1.202771
31
0
39
0
210
0
220
0
230
1
0
LINE
5
92
100
AcDbEntity
8
1
62
256
6
ByLayer
370
13
48
1
60
0
100
AcDbLine
10
8.754724
20
2.444581
30
0
11
9
21
2.283607
31
0
39
0
210
0
220
0
230
1
0
LINE
5
93
100
AcDbEntity
8
1
62
256
6
ByLayer
370
18
48
1
60
0
100
AcDbLine
10
20.92262
20
-1.394159
30
0
11
20.911811
21
-1.051244
31
0
39
0
210
0
220
0
230
1
0
LINE
5
94
100
AcDbEntity
8
1
62
256
6
ByLayer
370
18
48
1
60
0
100
AcDbLine
10
9
20
1.128658
30
0
11
9
21
1.202771
31
0
39
0
210
0
220
0
230
1
0
LINE
5
95
100
AcDbEntity
8
1
62
256
6
ByLayer
370
18
48
1
60
0
100
AcDbLine
10
20.715194
20
-1.152485
30
0
11
20.911811
21
-1.051244
31
0
39
0
210
0
220
0
230
1
0
LINE
5
96
100
AcDbEntity
8
1
62
256
6
ByLayer
370
18
48
1
60
0
100
AcDbLine
10
20.911811
20
-1.051244
30
0
11
20.94714
21
-0.88366
31
0
39
0
210
0
220
0
230
1
0
LINE
5
97
100
AcDbEntity
8
1
62
256
6
ByLayer
370
18
48
1
60
0
100
AcDbLine
10
20.610582
20
-0.587733
30
0
11
20.94714
21
-0.88366
31
0
39
0
210
0
220
0
230
1
0
LINE
5
98
100
AcDbEntity
8
1
62
256
6
ByLayer
370
13
48
1
60
0
100
AcDbLine
10
20.592094
20
-0.570859
30
0
11
19.849057
21
-0.598623
31
0
39
0
210
0
220
0
230
1
0
LINE
5
99
100
AcDbEntity
8
1
62
256
6
ByLayer
370
18
48
1
60
0
100
AcDbLine
10
20.691235
20
-1.164822
30
0
11
20.713207
21
-1.153508
31
0
39
0
210
0
220
0
230
1
0
LINE
5
9A
100
AcDbEntity
8
1
62
256
6
ByLayer
370
18
48
1
60
0
100
AcDbLine
10
20.94975
20
0.720805
30
0
11
20.972849
21
1.345301
31
0
39
0
210
0
220
0
230
1
0
LINE
5
9B
100
AcDbEntity
8
1
62
256
6
ByLayer
370
13
48
1
60
0
100
AcDbLine
10
19.957984
20
1.471452
30
0
11
20.321035
21
0.86221
31
0
39
0
210
0
220
0
230
1
0
LINE
5
9C
100
AcDbEntity
8
1
62
256
6
ByLayer
370
18
48
1
60
0
100
AcDbLine
10
20.94975
20
0.720805
30
0
11
20.740368
21
0.583412
31
0
39
0
210
0
220
0
230
1
0
LINE
5
9D
100
AcDbEntity
8
1
62
256
6
ByLayer
370
18
48
1
60
0
100
AcDbLine
10
8.200435
20
-2.682678
30
0
11
9
21
-2.761239
31
0
39
0
210
0
220
0
230
1
0
LINE
5
9E
100
AcDbEntity
8
1
62
256
6
ByLayer
370
18
48
1
60
0
100
AcDbLine
10
9
20
-2.761239
30
0
11
9
21
-2.315824
31
0
39
0
210
0
220
0
230
1
0
LINE
5
9F
100
AcDbEntity
8
1
62
256
6
ByLayer
370
13
48
1
60
0
100
AcDbLine
10
6.661386
20
-1.724942
30
0
11
8.285188
21
-1.884489
31
0
39
0
210
0
220
0
230
1
0
LINE
5
A0
100
AcDbEntity
8
1
62
256
6
ByLayer
370
13
48
1
60
0
100
AcDbLine
10
6.674121
20
-1.558607
30
0
11
7.649718
21
-1.654464
31
0
39
0
210
0
220
0
230
1
0
LINE
5
A1
100
AcDbEntity
8
1
62
256
6
ByLayer
370
18
48
1
60
0
100
AcDbLine
10
9
20
-1.641818
30
0
11
9
21
-1.754278
31
0
39
0
210
0
220
0
230
1
0
LINE
5
A2
100
AcDbEntity
8
1
62
256
6
ByLayer
370
13
48
1
60
0
100
AcDbLine
10
6.825706
20
2.555649
30
0
11
9
21
1.128658
31
0
39
0
210
0
220
0
230
1
0
LINE
5
A3
100
AcDbEntity
8
1
62
256
6
ByLayer
370
13
48
1
60
0
100
AcDbLine
10
8.330201
20
-1.258766
30
0
11
9
21
-1.641818
31
0
39
0
210
0
220
0
230
1
0
LINE
5
A4
100
AcDbEntity
8
1
62
256
6
ByLayer
370
18
48
1
60
0
100
AcDbLine
10
9
20
-1.641818
30
0
11
9
21
-1.511524
31
0
39
0
210
0
220
0
230
1
0
LINE
5
A5
100
AcDbEntity
8
1
62
256
6
ByLayer
370
18
48
1
60
0
100
AcDbLine
10
8.147642
20
1.272198
30
0
11
9
21
0.712795
31
0
39
0
210
0
220
0
230
1
0
LINE
5
A6
100
AcDbEntity
8
1
62
256
6
ByLayer
370
18
48
1
60
0
100
AcDbLine
10
9
20
1.202771
30
0
11
9
21
2.283607
31
0
39
0
210
0
220
0
230
1
0
LINE
5
A7
100
AcDbEntity
8
1
62
256
6
ByLayer
370
18
48
1
60
0
100
AcDbLine
10
9
20
0.712795
30
0
11
9
21
1.128658
31
0
39
0
210
0
220
0
230
1
0
LINE
5
A8
100
AcDbEntity
8
1
62
256
6
ByLayer
370
18
48
1
60
0
100
AcDbLine
10
9
20
-0.818552
30
0
11
9
21
-0.619668
31
0
39
0
210
0
220
0
230
1
0
LINE
5
A9
100
AcDbEntity
8
1
62
256
6
ByLayer
370
13
48
1
60
0
100
AcDbLine
10
8.303169
20
1.07685
30
0
11
9
21
0.61952
31
0
39
0
210
0
220
0
230
1
0
LINE
5
AA
100
AcDbEntity
8
1
62
256
6
ByLayer
370
18
48
1
60
0
100
AcDbLine
10
9
20
0.61952
30
0
11
9
21
0.712795
31
0
39
0
210
0
220
0
230
1
0
LINE
5
AB
100
AcDbEntity
8
1
62
256
6
ByLayer
370
13
48
1
60
0
100
AcDbLine
10
8.525026
20
2.489973
30
0
11
8.525026
21
2.778191
31
0
39
0
210
0
220
0
230
1
0
LINE
5
AC
100
AcDbEntity
8
1
62
256
6
ByLayer
370
18
48
1
60
0
100
AcDbLine
10
8.141031
20
-1.020287
30
0
11
9
21
-1.511524
31
0
39
0
210
0
220
0
230
1
0
LINE
5
AD
100
AcDbEntity
8
1
62
256
6
ByLayer
370
18
48
1
60
0
100
AcDbLine
10
9
20
-1.511524
30
0
11
9
21
-0.818552
31
0
39
0
210
0
220
0
230
1
0
LINE
5
AE
100
AcDbEntity
8
1
62
256
6
ByLayer
370
13
48
1
60
0
100
AcDbLine
10
6.65189
20
0.524312
30
0
11
9
21
-0.818552
31
0
39
0
210
0
220
0
230
1
0
LINE
5
AF
100
AcDbEntity
8
1
62
256
6
ByLayer
370
13
48
1
60
0
100
AcDbLine
10
6.666855
20
0.714637
30
0
11
9
21
-0.619668
31
0
39
0
210
0
220
0
230
1
0
LINE
5
B0
100
AcDbEntity
8
1
62
256
6
ByLayer
370
18
48
1
60
0
100
AcDbLine
10
9
20
-0.117417
30
0
11
9
21
-0.619668
31
0
39
0
210
0
220
0
230
1
0
LINE
5
B1
100
AcDbEntity
8
1
62
256
6
ByLayer
370
18
48
1
60
0
100
AcDbLine
10
9
20
0.61952
30
0
11
9
21
0.542471
31
0
39
0
210
0
220
0
230
1
0
LINE
5
B2
100
AcDbEntity
8
1
62
256
6
ByLayer
370
18
48
1
60
0
100
AcDbLine
10
9
20
2.803376
30
0
11
9
21
2.683327
31
0
39
0
210
0
220
0
230
1
0
LINE
5
B3
100
AcDbEntity
8
1
62
256
6
ByLayer
370
18
48
1
60
0
100
AcDbLine
10
9
20
2.429709
30
0
11
9
21
2.283607
31
0
39
0
210
0
220
0
230
1
0
LINE
5
B4
100
AcDbEntity
8
1
62
256
6
ByLayer
370
18
48
1
60
0
100
AcDbLine
10
19.919356
20
-2.957183
30
0
11
19.924448
21
-2.955108
31
0
39
0
210
0
220
0
230
1
0
LINE
5
B5
100
AcDbEntity
8
1
62
256
6
ByLayer
370
13
48
1
60
0
100
AcDbLine
10
8.330247
20
2.823004
30
0
11
8.422118
21
2.800285
31
0
39
0
210
0
220
0
230
1
0
LINE
5
B6
100
AcDbEntity
8
1
62
256
6
ByLayer
370
13
48
1
60
0
100
AcDbLine
10
8.525026
20
-2.88
30
0
11
8.525026
21
-2.800737
31
0
39
0
210
0
220
0
230
1
0
LINE
5
B7
100
AcDbEntity
8
1
62
256
6
ByLayer
370
13
48
1
60
0
100
AcDbLine
10
8.525026
20
-1.990013
30
0
11
8.525026
21
-1.430415
31
0
39
0
210
0
220
0
230
1
0
LINE
5
B8
100
AcDbEntity
8
1
62
256
6
ByLayer
370
13
48
1
60
0
100
AcDbLine
10
8.525026
20
0.201662
30
0
11
8.525026
21
0.880338
31
0
39
0
210
0
220
0
230
1
0
LINE
5
B9
100
AcDbEntity
8
1
62
256
6
ByLayer
370
13
48
1
60
0
100
AcDbLine
10
2.996857
20
-2.88
30
0
11
2.996857
21
0
31
0
39
0
210
0
220
0
230
1
0
LINE
5
BA
100
AcDbEntity
8
1
62
256
6
ByLayer
370
13
48
1
60
0
100
AcDbLine
10
2.996857
20
0
30
0
11
2.996857
21
2.88
31
0
39
0
210
0
220
0
230
1
0
LINE
5
BB
100
AcDbEntity
8
1
62
256
6
ByLayer
370
18
48
1
60
0
100
AcDbLine
10
2.521884
20
3
30
0
11
2.521884
21
0
31
0
39
0
210
0
220
0
230
1
0
LINE
5
BC
100
AcDbEntity
8
1
62
256
6
ByLayer
370
18
48
1
60
0
100
AcDbLine
10
2.521884
20
0
30
0
11
2.521884
21
-3
31
0
39
0
210
0
220
0
230
1
0
LINE
5
BD
100
AcDbEntity
8
SK1
62
256
6
ByLayer
370
18
48
1
60
0
100
AcDbLine
10
-36
20
-2.6
30
0
11
-36
21
2.6
31
0
39
0
210
0
220
0
230
1
0
LINE
5
BF
100
AcDbEntity
8
SK1
62
256
6
ByLayer
370
18
48
1
60
0
100
AcDbLine
10
0
20
3
30
0
11
0
21
0
31
0
39
0
210
0
220
0
230
1
0
LINE
5
C0
100
AcDbEntity
8
SK1
62
256
6
ByLayer
370
18
48
1
60
0
100
AcDbLine
10
0
20
0
30
0
11
0
21
-3
31
0
39
0
210
0
220
0
230
1
0
LINE
5
C1
100
AcDbEntity
8
SK1
62
256
6
ByLayer
370
18
48
1
60
0
100
AcDbLine
10
-35.6
20
3
30
0
11
-35.6
21
-3
31
0
39
0
210
0
220
0
230
1
0
LINE
5
C2
100
AcDbEntity
8
SK1
62
256
6
ByLayer
370
18
48
1
60
0
100
AcDbLine
10
-20.1
20
2.1
30
0
11
-21
21
3
31
0
39
0
210
0
220
0
230
1
0
LINE
5
C3
100
AcDbEntity
8
SK1
62
256
6
ByLayer
370
18
48
1
60
0
100
AcDbLine
10
-15.9
20
2.1
30
0
11
-15
21
3
31
0
39
0
210
0
220
0
230
1
0
LINE
5
C4
100
AcDbEntity
8
SK1
62
256
6
ByLayer
370
18
48
1
60
0
100
AcDbLine
10
-20.1
20
2.1
30
0
11
-15.9
21
2.1
31
0
39
0
210
0
220
0
230
1
0
LINE
5
C5
100
AcDbEntity
8
1
62
256
6
ByLayer
370
18
48
1
60
0
100
AcDbLine
10
2.521884
20
3
30
0
11
0
21
3
31
0
39
0
210
0
220
0
230
1
0
LINE
5
C6
100
AcDbEntity
8
1
62
256
6
ByLayer
370
18
48
1
60
0
100
AcDbLine
10
0
20
-3
30
0
11
2.521884
21
-3
31
0
39
0
210
0
220
0
230
1
0
LINE
5
C7
100
AcDbEntity
8
1
62
256
6
ByLayer
370
18
48
1
60
0
100
AcDbLine
10
8.532599
20
2.776736
30
0
11
8.28241
21
2.838606
31
0
39
0
210
0
220
0
230
1
0
LINE
5
C8
100
AcDbEntity
8
1
62
256
6
ByLayer
370
18
48
1
60
0
100
AcDbLine
10
7.823805
20
2.88
30
0
11
2.996857
21
2.88
31
0
39
0
210
0
220
0
230
1
0
LINE
5
C9
100
AcDbEntity
8
1
62
256
6
ByLayer
370
18
48
1
60
0
100
AcDbLine
10
2.996857
20
-2.88
30
0
11
6.928307
21
-2.88
31
0
39
0
210
0
220
0
230
1
0
LINE
5
CA
100
AcDbEntity
8
1
62
256
6
ByLayer
370
18
48
1
60
0
100
AcDbLine
10
8.379555
20
-2.88
30
0
11
8.525026
21
-2.88
31
0
39
0
210
0
220
0
230
1
0
LINE
5
CB
100
AcDbEntity
8
SK1
62
256
6
ByLayer
370
18
48
1
60
0
100
AcDbLine
10
-36
20
-2.6
30
0
11
-35.6
21
-3
31
0
39
0
210
0
220
0
230
1
0
LINE
5
CC
100
AcDbEntity
8
SK1
62
256
6
ByLayer
370
18
48
1
60
0
100
AcDbLine
10
-35.6
20
3
30
0
11
-36
21
2.6
31
0
39
0
210
0
220
0
230
1
0
LINE
5
CD
100
AcDbEntity
8
SK1
62
256
6
ByLayer
370
18
48
1
60
0
100
AcDbLine
10
0
20
3
30
0
11
-15
21
3
31
0
39
0
210
0
220
0
230
1
0
LINE
5
CE
100
AcDbEntity
8
SK1
62
256
6
ByLayer
370
18
48
1
60
0
100
AcDbLine
10
-21
20
3
30
0
11
-35.6
21
3
31
0
39
0
210
0
220
0
230
1
0
LINE
5
CF
100
AcDbEntity
8
SK1
62
256
6
ByLayer
370
18
48
1
60
0
100
AcDbLine
10
-35.6
20
-3
30
0
11
0
21
-3
31
0
39
0
210
0
220
0
230
1
0
LINE
5
D0
100
AcDbEntity
8
SK2
62
256
6
ByLayer
370
18
48
1
60
0
100
AcDbLine
10
-43.85
20
11.75
30
0
11
-43.85
21
-19.315466
31
0
39
0
210
0
220
0
230
1
0
LINE
5
D2
100
AcDbEntity
8
SK2
62
256
6
ByLayer
370
18
48
1
60
0
100
AcDbLine
10
-37.1875
20
3
30
0
11
-45.85
21
3
31
0
39
0
210
0
220
0
230
1
0
LINE
5
D3
100
AcDbEntity
8
SK2
62
256
6
ByLayer
370
18
48
1
60
0
100
AcDbLine
10
-37.1875
20
-3
30
0
11
-45.85
21
-3
31
0
39
0
210
0
220
0
230
1
0
LINE
5
D4
100
AcDbEntity
8
1
62
256
6
ByLayer
370
18
48
1
60
1
100
AcDbLine
10
-43.85
20
3
30
0
11
-44.310784
21
6.499998
31
0
39
0
210
0
220
0
230
1
0
LINE
5
D5
100
AcDbEntity
8
1
62
256
6
ByLayer
370
18
48
1
60
1
100
AcDbLine
10
-44.310784
20
6.499998
30
0
11
-43.389216
21
6.500002
31
0
39
0
210
0
220
0
230
1
0
LINE
5
D6
100
AcDbEntity
8
1
62
256
6
ByLayer
370
18
48
1
60
1
100
AcDbLine
10
-43.389216
20
6.500002
30
0
11
-43.85
21
3
31
0
39
0
210
0
220
0
230
1
0
LINE
5
D7
100
AcDbEntity
8
1
62
256
6
ByLayer
370
18
48
1
60
1
100
AcDbLine
10
-43.85
20
-3
30
0
11
-43.389216
21
-6.499998
31
0
39
0
210
0
220
0
230
1
0
LINE
5
D8
100
AcDbEntity
8
1
62
256
6
ByLayer
370
18
48
1
60
1
100
AcDbLine
10
-43.389216
20
-6.499998
30
0
11
-44.310784
21
-6.500002
31
0
39
0
210
0
220
0
230
1
0
LINE
5
D9
100
AcDbEntity
8
1
62
256
6
ByLayer
370
18
48
1
60
1
100
AcDbLine
10
-44.310784
20
-6.500002
30
0
11
-43.85
21
-3
31
0
39
0
210
0
220
0
230
1
0
LINE
5
DA
100
AcDbEntity
8
SK2
62
256
6
ByLayer
370
13
48
1
60
0
100
AcDbLine
10
7.210942
20
29.844398
30
0
11
7.210942
21
-11.63
31
0
39
0
210
0
220
0
230
1
0
LINE
5
DB
100
AcDbEntity
8
SK2
62
256
6
ByLayer
370
13
48
1
60
0
100
AcDbLine
10
6.937526
20
2.88
30
0
11
5.210942
21
2.88
31
0
39
0
210
0
220
0
230
1
0
LINE
5
DC
100
AcDbEntity
8
SK2
62
256
6
ByLayer
370
13
48
1
60
0
100
AcDbLine
10
6.937526
20
-2.88
30
0
11
5.210942
21
-2.88
31
0
39
0
210
0
220
0
230
1
0
LINE
5
DD
100
AcDbEntity
8
1
62
256
6
ByLayer
370
18
48
1
60
1
100
AcDbLine
10
7.210942
20
2.88
30
0
11
6.750158
21
6.379998
31
0
39
0
210
0
220
0
230
1
0
LINE
5
DE
100
AcDbEntity
8
1
62
256
6
ByLayer
370
18
48
1
60
1
100
AcDbLine
10
6.750158
20
6.379998
30
0
11
7.671726
21
6.380002
31
0
39
0
210
0
220
0
230
1
0
LINE
5
DF
100
AcDbEntity
8
1
62
256
6
ByLayer
370
18
48
1
60
1
100
AcDbLine
10
7.671726
20
6.380002
30
0
11
7.210942
21
2.88
31
0
39
0
210
0
220
0
230
1
0
LINE
5
E0
100
AcDbEntity
8
1
62
256
6
ByLayer
370
18
48
1
60
1
100
AcDbLine
10
7.210942
20
-2.88
30
0
11
7.671726
21
-6.379998
31
0
39
0
210
0
220
0
230
1
0
LINE
5
E1
100
AcDbEntity
8
1
62
256
6
ByLayer
370
18
48
1
60
1
100
AcDbLine
10
7.671726
20
-6.379998
30
0
11
6.750158
21
-6.380002
31
0
39
0
210
0
220
0
230
1
0
LINE
5
E2
100
AcDbEntity
8
1
62
256
6
ByLayer
370
18
48
1
60
1
100
AcDbLine
10
6.750158
20
-6.380002
30
0
11
7.210942
21
-2.88
31
0
39
0
210
0
220
0
230
1
0
LINE
5
E3
100
AcDbEntity
8
2
62
256
6
ByLayer
370
18
48
1
60
0
100
AcDbLine
10
33
20
19.315466
30
0
11
33
21
-11.75
31
0
39
0
210
0
220
0
230
1
0
LINE
5
E5
100
AcDbEntity
8
2
62
256
6
ByLayer
370
18
48
1
60
0
100
AcDbLine
10
22.5875
20
3
30
0
11
35
21
3
31
0
39
0
210
0
220
0
230
1
0
LINE
5
E6
100
AcDbEntity
8
2
62
256
6
ByLayer
370
18
48
1
60
0
100
AcDbLine
10
22.5875
20
-3
30
0
11
35
21
-3
31
0
39
0
210
0
220
0
230
1
0
LINE
5
E7
100
AcDbEntity
8
1
62
256
6
ByLayer
370
18
48
1
60
1
100
AcDbLine
10
33
20
3
30
0
11
32.539216
21
6.499998
31
0
39
0
210
0
220
0
230
1
0
LINE
5
E8
100
AcDbEntity
8
1
62
256
6
ByLayer
370
18
48
1
60
1
100
AcDbLine
10
32.539216
20
6.499998
30
0
11
33.460784
21
6.500002
31
0
39
0
210
0
220
0
230
1
0
LINE
5
E9
100
AcDbEntity
8
1
62
256
6
ByLayer
370
18
48
1
60
1
100
AcDbLine
10
33.460784
20
6.500002
30
0
11
33
21
3
31
0
39
0
210
0
220
0
230
1
0
LINE
5
EA
100
AcDbEntity
8
1
62
256
6
ByLayer
370
18
48
1
60
1
100
AcDbLine
10
33
20
-3
30
0
11
33.460784
21
-6.499998
31
0
39
0
210
0
220
0
230
1
0
LINE
5
EB
100
AcDbEntity
8
1
62
256
6
ByLayer
370
18
48
1
60
1
100
AcDbLine
10
33.460784
20
-6.499998
30
0
11
32.539216
21
-6.500002
31
0
39
0
210
0
220
0
230
1
0
LINE
5
EC
100
AcDbEntity
8
1
62
256
6
ByLayer
370
18
48
1
60
1
100
AcDbLine
10
32.539216
20
-6.500002
30
0
11
33
21
-3
31
0
39
0
210
0
220
0
230
1
0
LINE
5
ED
100
AcDbEntity
8
SK2
62
256
6
ByLayer
370
18
48
1
60
0
100
AcDbLine
10
21
20
-49.575009
30
0
11
-36
21
-49.575009
31
0
39
0
210
0
220
0
230
1
0
LINE
5
EE
100
AcDbEntity
8
SK2
62
256
6
ByLayer
370
18
48
1
60
0
100
AcDbLine
10
-36
20
-4.1875
30
0
11
-36
21
-51.575009
31
0
39
0
210
0
220
0
230
1
0
LINE
5
EF
100
AcDbEntity
8
SK2
62
256
6
ByLayer
370
18
48
1
60
0
100
AcDbLine
10
21
20
-4.5875
30
0
11
21
21
-51.575009
31
0
39
0
210
0
220
0
230
1
0
LINE
5
F0
100
AcDbEntity
8
1
62
256
6
ByLayer
370
18
48
1
60
1
100
AcDbLine
10
-36
20
-49.575009
30
0
11
-32.500002
21
-49.114225
31
0
39
0
210
0
220
0
230
1
0
LINE
5
F1
100
AcDbEntity
8
1
62
256
6
ByLayer
370
18
48
1
60
1
100
AcDbLine
10
-32.500002
20
-49.114225
30
0
11
-32.499998
21
-50.035792
31
0
39
0
210
0
220
0
230
1
0
LINE
5
F2
100
AcDbEntity
8
1
62
256
6
ByLayer
370
18
48
1
60
1
100
AcDbLine
10
-32.499998
20
-50.035792
30
0
11
-36
21
-49.575009
31
0
39
0
210
0
220
0
230
1
0
LINE
5
F3
100
AcDbEntity
8
1
62
256
6
ByLayer
370
18
48
1
60
1
100
AcDbLine
10
21
20
-49.575009
30
0
11
17.500002
21
-50.035792
31
0
39
0
210
0
220
0
230
1
0
LINE
5
F4
100
AcDbEntity
8
1
62
256
6
ByLayer
370
18
48
1
60
1
100
AcDbLine
10
17.500002
20
-50.035792
30
0
11
17.499998
21
-49.114225
31
0
39
0
210
0
220
0
230
1
0
LINE
5
F5
100
AcDbEntity
8
1
62
256
6
ByLayer
370
18
48
1
60
1
100
AcDbLine
10
17.499998
20
-49.114225
30
0
11
21
21
-49.575009
31
0
39
0
210
0
220
0
230
1
0
LINE
5
1D3
100
AcDbEntity
8
1
62
256
6
ByLayer
370
18
48
1
60
1
100
AcDbLine
10
-43.85
20
3
30
0
11
-44.310784
21
6.499998
31
0
39
0
210
0
220
0
230
1
0
LINE
5
1D4
100
AcDbEntity
8
1
62
256
6
ByLayer
370
18
48
1
60
1
100
AcDbLine
10
-44.310784
20
6.499998
30
0
11
-43.389216
21
6.500002
31
0
39
0
210
0
220
0
230
1
0
LINE
5
1D5
100
AcDbEntity
8
1
62
256
6
ByLayer
370
18
48
1
60
1
100
AcDbLine
10
-43.389216
20
6.500002
30
0
11
-43.85
21
3
31
0
39
0
210
0
220
0
230
1
0
LINE
5
1D7
100
AcDbEntity
8
1
62
256
6
ByLayer
370
18
48
1
60
1
100
AcDbLine
10
-43.85
20
-3
30
0
11
-43.389216
21
-6.499998
31
0
39
0
210
0
220
0
230
1
0
LINE
5
1D8
100
AcDbEntity
8
1
62
256
6
ByLayer
370
18
48
1
60
1
100
AcDbLine
10
-43.389216
20
-6.499998
30
0
11
-44.310784
21
-6.500002
31
0
39
0
210
0
220
0
230
1
0
LINE
5
1D9
100
AcDbEntity
8
1
62
256
6
ByLayer
370
18
48
1
60
1
100
AcDbLine
10
-44.310784
20
-6.500002
30
0
11
-43.85
21
-3
31
0
39
0
210
0
220
0
230
1
0
LINE
5
1DD
100
AcDbEntity
8
1
62
256
6
ByLayer
370
18
48
1
60
1
100
AcDbLine
10
7.210942
20
2.88
30
0
11
6.750158
21
6.379998
31
0
39
0
210
0
220
0
230
1
0
LINE
5
1DE
100
AcDbEntity
8
1
62
256
6
ByLayer
370
18
48
1
60
1
100
AcDbLine
10
6.750158
20
6.379998
30
0
11
7.671726
21
6.380002
31
0
39
0
210
0
220
0
230
1
0
LINE
5
1DF
100
AcDbEntity
8
1
62
256
6
ByLayer
370
18
48
1
60
1
100
AcDbLine
10
7.671726
20
6.380002
30
0
11
7.210942
21
2.88
31
0
39
0
210
0
220
0
230
1
0
LINE
5
1E1
100
AcDbEntity
8
1
62
256
6
ByLayer
370
18
48
1
60
1
100
AcDbLine
10
7.210942
20
-2.88
30
0
11
7.671726
21
-6.379998
31
0
39
0
210
0
220
0
230
1
0
LINE
5
1E2
100
AcDbEntity
8
1
62
256
6
ByLayer
370
18
48
1
60
1
100
AcDbLine
10
7.671726
20
-6.379998
30
0
11
6.750158
21
-6.380002
31
0
39
0
210
0
220
0
230
1
0
LINE
5
1E3
100
AcDbEntity
8
1
62
256
6
ByLayer
370
18
48
1
60
1
100
AcDbLine
10
6.750158
20
-6.380002
30
0
11
7.210942
21
-2.88
31
0
39
0
210
0
220
0
230
1
0
LINE
5
1E7
100
AcDbEntity
8
1
62
256
6
ByLayer
370
18
48
1
60
1
100
AcDbLine
10
33
20
3
30
0
11
32.539216
21
6.499998
31
0
39
0
210
0
220
0
230
1
0
LINE
5
1E8
100
AcDbEntity
8
1
62
256
6
ByLayer
370
18
48
1
60
1
100
AcDbLine
10
32.539216
20
6.499998
30
0
11
33.460784
21
6.500002
31
0
39
0
210
0
220
0
230
1
0
LINE
5
1E9
100
AcDbEntity
8
1
62
256
6
ByLayer
370
18
48
1
60
1
100
AcDbLine
10
33.460784
20
6.500002
30
0
11
33
21
3
31
0
39
0
210
0
220
0
230
1
0
LINE
5
1EB
100
AcDbEntity
8
1
62
256
6
ByLayer
370
18
48
1
60
1
100
AcDbLine
10
33
20
-3
30
0
11
33.460784
21
-6.499998
31
0
39
0
210
0
220
0
230
1
0
LINE
5
1EC
100
AcDbEntity
8
1
62
256
6
ByLayer
370
18
48
1
60
1
100
AcDbLine
10
33.460784
20
-6.499998
30
0
11
32.539216
21
-6.500002
31
0
39
0
210
0
220
0
230
1
0
LINE
5
1ED
100
AcDbEntity
8
1
62
256
6
ByLayer
370
18
48
1
60
1
100
AcDbLine
10
32.539216
20
-6.500002
30
0
11
33
21
-3
31
0
39
0
210
0
220
0
230
1
0
LINE
5
1F0
100
AcDbEntity
8
1
62
256
6
ByLayer
370
18
48
1
60
1
100
AcDbLine
10
-36
20
-49.575009
30
0
11
-32.500002
21
-49.114225
31
0
39
0
210
0
220
0
230
1
0
LINE
5
1F1
100
AcDbEntity
8
1
62
256
6
ByLayer
370
18
48
1
60
1
100
AcDbLine
10
-32.500002
20
-49.114225
30
0
11
-32.499998
21
-50.035792
31
0
39
0
210
0
220
0
230
1
0
LINE
5
1F2
100
AcDbEntity
8
1
62
256
6
ByLayer
370
18
48
1
60
1
100
AcDbLine
10
-32.499998
20
-50.035792
30
0
11
-36
21
-49.575009
31
0
39
0
210
0
220
0
230
1
0
LINE
5
1F4
100
AcDbEntity
8
1
62
256
6
ByLayer
370
18
48
1
60
1
100
AcDbLine
10
21
20
-49.575009
30
0
11
17.500002
21
-50.035792
31
0
39
0
210
0
220
0
230
1
0
LINE
5
1F5
100
AcDbEntity
8
1
62
256
6
ByLayer
370
18
48
1
60
1
100
AcDbLine
10
17.500002
20
-50.035792
30
0
11
17.499998
21
-49.114225
31
0
39
0
210
0
220
0
230
1
0
LINE
5
1F6
100
AcDbEntity
8
1
62
256
6
ByLayer
370
18
48
1
60
1
100
AcDbLine
10
17.499998
20
-49.114225
30
0
11
21
21
-49.575009
31
0
39
0
210
0
220
0
230
1
0
MTEXT
5
1CF
100
AcDbEntity
8
SK2
62
256
6
ByLayer
370
18
48
1
60
0
100
AcDbMText
10
-45.414634
20
-17.380622
30
0
210
0
220
0
230
1
1
%%c
40
3.5
41
0
44
1.084337
50
90
71
7
72
5
7
iso_b_vert
0
MTEXT
5
1D2
100
AcDbEntity
8
SK2
62
256
6
ByLayer
370
18
48
1
60
0
100
AcDbMText
10
-45.414634
20
-10.407966
30
0
210
0
220
0
230
1
1
\W0.5404;6
40
3.5
41
0
44
1.084337
50
90
71
7
72
5
7
iso_b_vert
0
MTEXT
5
1DB
100
AcDbEntity
8
SK2
62
256
6
ByLayer
370
18
48
1
60
0
100
AcDbMText
10
5.646308
20
14.814844
30
0
210
0
220
0
230
1
1
%%c
40
3.5
41
0
44
1.084337
50
90
71
7
72
5
7
iso_b_vert
0
MTEXT
5
1DC
100
AcDbEntity
8
SK2
62
256
6
ByLayer
370
18
48
1
60
0
100
AcDbMText
10
5.646308
20
21.7875
30
0
210
0
220
0
230
1
1
\W0.7346;5.76
40
3.5
41
0
44
1.084337
50
90
71
7
72
5
7
iso_b_vert
0
MTEXT
5
1E5
100
AcDbEntity
8
2
62
256
6
ByLayer
370
18
48
1
60
0
100
AcDbMText
10
31.435366
20
10.934844
30
0
210
0
220
0
230
1
1
%%c
40
3.5
41
0
44
1.084337
50
90
71
7
72
5
7
iso_b_vert
0
MTEXT
5
1E6
100
AcDbEntity
8
2
62
256
6
ByLayer
370
18
48
1
60
0
100
AcDbMText
10
31.435366
20
17.9075
30
0
210
0
220
0
230
1
1
\W0.5404;6
40
3.5
41
0
44
1.084337
50
90
71
7
72
5
7
iso_b_vert
0
MTEXT
5
1EF
100
AcDbEntity
8
SK2
62
256
6
ByLayer
370
18
48
1
60
0
100
AcDbMText
10
-9.404966
20
-48.542375
30
0
210
0
220
0
230
1
1
\W0.6740;57
40
3.5
41
0
44
1.084337
50
0
71
7
72
5
7
iso_b_vert
0
MTEXT
5
1F8
100
AcDbEntity
8
SK6
62
256
6
ByLayer
370
18
48
1
60
0
100
AcDbMText
10
-32.647905
20
-62.121777
30
0
210
0
220
0
230
1
1
\W0.7088;1K337-0600-100-XD   1730
40
3
41
0
44
1.084337
50
0
71
7
72
5
7
iso_b_vert
0
HATCH
5
1D6
100
AcDbEntity
8
SK2
62
256
6
ByLayer
370
13
48
1
60
0
100
AcDbHatch
10
0
20
0
30
0
210
0
220
0
230
1
2
ANSI31
70
0
71
0
91
1
92
5
93
3
72
1
10
-43.85
20
3
11
-44.3107837415528
21
6.49999830744682
72
1
10
-44.3107837415528
20
6.49999830744682
11
-43.3892162584472
21
6.50000169255318
72
1
10
-43.3892162584472
20
6.50000169255318
11
-43.85
21
3
97
0
75
0
76
1
52
0
41
0.0062
77
0
78
1
53
45
43
0
44
0
45
-0.0139193969876572
46
0.0139193969876572
79
0
47
0
98
1
10
0
20
0
0
HATCH
5
1DA
100
AcDbEntity
8
SK2
62
256
6
ByLayer
370
13
48
1
60
0
100
AcDbHatch
10
0
20
0
30
0
210
0
220
0
230
1
2
ANSI31
70
0
71
0
91
1
92
5
93
3
72
1
10
-43.85
20
-3.00000000000003
11
-43.3892162584472
21
-6.49999830744684
72
1
10
-43.3892162584472
20
-6.49999830744684
11
-44.3107837415528
21
-6.50000169255321
72
1
10
-44.3107837415528
20
-6.50000169255321
11
-43.85
21
-3.00000000000003
97
0
75
0
76
1
52
0
41
0.0062
77
0
78
1
53
45
43
0
44
0
45
-0.0139193969876572
46
0.0139193969876572
79
0
47
0
98
1
10
0
20
0
0
HATCH
5
1E0
100
AcDbEntity
8
SK2
62
256
6
ByLayer
370
13
48
1
60
0
100
AcDbHatch
10
0
20
0
30
0
210
0
220
0
230
1
2
ANSI31
70
0
71
0
91
1
92
5
93
3
72
1
10
7.21094181641072
20
2.87999999999997
11
6.75015807485795
21
6.37999830744678
72
1
10
6.75015807485795
20
6.37999830744678
11
7.6717255579635
21
6.38000169255315
72
1
10
7.6717255579635
20
6.38000169255315
11
7.21094181641072
21
2.87999999999997
97
0
75
0
76
1
52
0
41
0.0062
77
0
78
1
53
45
43
0
44
0
45
-0.0139193969876572
46
0.0139193969876572
79
0
47
0
98
1
10
0
20
0
0
HATCH
5
1E4
100
AcDbEntity
8
SK2
62
256
6
ByLayer
370
13
48
1
60
0
100
AcDbHatch
10
0
20
0
30
0
210
0
220
0
230
1
2
ANSI31
70
0
71
0
91
1
92
5
93
3
72
1
10
7.21094181641072
20
-2.88000000000002
11
7.6717255579635
21
-6.37999830744684
72
1
10
7.6717255579635
20
-6.37999830744684
11
6.75015807485795
21
-6.38000169255321
72
1
10
6.75015807485795
20
-6.38000169255321
11
7.21094181641072
21
-2.88000000000002
97
0
75
0
76
1
52
0
41
0.0062
77
0
78
1
53
45
43
0
44
0
45
-0.0139193969876572
46
0.0139193969876572
79
0
47
0
98
1
10
0
20
0
0
HATCH
5
1EA
100
AcDbEntity
8
2
62
256
6
ByLayer
370
13
48
1
60
0
100
AcDbHatch
10
0
20
0
30
0
210
0
220
0
230
1
2
ANSI31
70
0
71
0
91
1
92
5
93
3
72
1
10
33
20
2.99999999999992
11
32.5392162584472
21
6.49999830744673
72
1
10
32.5392162584472
20
6.49999830744673
11
33.4607837415528
21
6.5000016925531
72
1
10
33.4607837415528
20
6.5000016925531
11
33
21
2.99999999999992
97
0
75
0
76
1
52
0
41
0.0062
77
0
78
1
53
45
43
0
44
0
45
-0.0139193969876572
46
0.0139193969876572
79
0
47
0
98
1
10
0
20
0
0
HATCH
5
1EE
100
AcDbEntity
8
2
62
256
6
ByLayer
370
13
48
1
60
0
100
AcDbHatch
10
0
20
0
30
0
210
0
220
0
230
1
2
ANSI31
70
0
71
0
91
1
92
5
93
3
72
1
10
33
20
-3.00000000000008
11
33.4607837415528
21
-6.4999983074469
72
1
10
33.4607837415528
20
-6.4999983074469
11
32.5392162584472
21
-6.50000169255327
72
1
10
32.5392162584472
20
-6.50000169255327
11
33
21
-3.00000000000008
97
0
75
0
76
1
52
0
41
0.0062
77
0
78
1
53
45
43
0
44
0
45
-0.0139193969876572
46
0.0139193969876572
79
0
47
0
98
1
10
0
20
0
0
HATCH
5
1F3
100
AcDbEntity
8
SK2
62
256
6
ByLayer
370
13
48
1
60
0
100
AcDbHatch
10
0
20
0
30
0
210
0
220
0
230
1
2
ANSI31
70
0
71
0
91
1
92
5
93
3
72
1
10
-36
20
-49.5750085855234
11
-32.5000016925532
21
-49.1142248439707
72
1
10
-32.5000016925532
20
-49.1142248439707
11
-32.4999983074468
21
-50.0357923270762
72
1
10
-32.4999983074468
20
-50.0357923270762
11
-36
21
-49.5750085855234
97
0
75
0
76
1
52
0
41
0.0062
77
0
78
1
53
45
43
0
44
0
45
-0.0139193969876572
46
0.0139193969876572
79
0
47
0
98
1
10
0
20
0
0
HATCH
5
1F7
100
AcDbEntity
8
SK2
62
256
6
ByLayer
370
13
48
1
60
0
100
AcDbHatch
10
0
20
0
30
0
210
0
220
0
230
1
2
ANSI31
70
0
71
0
91
1
92
5
93
3
72
1
10
21
20
-49.5750085855234
11
17.5000016925532
21
-50.0357923270762
72
1
10
17.5000016925532
20
-50.0357923270762
11
17.4999983074468
21
-49.1142248439707
72
1
10
17.4999983074468
20
-49.1142248439707
11
21
21
-49.5750085855234
97
0
75
0
76
1
52
0
41
0.0062
77
0
78
1
53
45
43
0
44
0
45
-0.0139193969876572
46
0.0139193969876572
79
0
47
0
98
1
10
0
20
0
0
DIMENSION
5
1FB
100
AcDbEntity
8
2
62
256
6
ByLayer
370
18
48
1
60
0
100
AcDbDimension
2
_U0
10
9
20
-17.575009
30
0
11
15
21
-17.575009
31
0
70
32
71
1
72
1
41
1
210
0
220
0
230
1
3
Standard
100
AcDbAlignedDimension
13
21
23
-3
33
0
14
9
24
-3
34
0
50
0
100
AcDbRotatedDimension
1001
ACAD
1000
DSTYLE
1002
{
1070
   371
1070
    13
1070
   372
1070
    13
1070
   170
1070
     0
1070
   144
1040
1.0
1070
   277
1070
     2
1070
   284
1070
     8
1070
   278
1070
    46
1070
   146
1040
1.0
1070
   345
1005
16
1070
   347
1005
16
1070
   346
1005
16
1070
   344
1005
0
1070
   343
1005
0
1070
   172
1070
     1
1070
    76
1070
     0
1070
    75
1070
     0
1070
   282
1070
     0
1070
   281
1070
     0
1070
    71
1070
     0
1070
    74
1070
     0
1070
   279
1070
     0
1070
   173
1070
     1
1070
   340
1005
1D0
1070
   271
1070
     2
1070
   272
1070
     2
1070
    77
1070
     1
1070
    73
1070
     1
1070
   171
1070
     3
1070
   274
1070
     4
1070
   177
1070
     2
1070
   176
1070
     2
1070
   178
1070
     2
1070
    78
1070
     8
1070
    48
1040
-0.1
1070
    41
1040
3.5
1070
   147
1040
1.75
1070
    42
1040
1.5875
1070
    44
1040
2.0
1070
   140
1040
3.5
1002
}
1001
ACAD_DSTYLE_DIM_LINETYPE
1070
   380
1005
16
1001
ACAD_DSTYLE_DIM_EXT1_LINETYPE
1070
   381
1005
16
1001
ACAD_DSTYLE_DIM_EXT2_LINETYPE
1070
   382
1005
16
0
DIMENSION
5
215
100
AcDbEntity
8
SK2
62
256
6
ByLayer
370
18
48
1
60
0
100
AcDbDimension
2
_U1
10
2.996857
20
-32.575009
30
0
11
11.998429
21
-32.575009
31
0
70
32
71
1
72
1
41
1
210
0
220
0
230
1
3
Standard
100
AcDbAlignedDimension
13
21
23
-3
33
0
14
2.996857
24
-2.88
34
0
50
0
100
AcDbRotatedDimension
1001
ACAD
1000
DSTYLE
1002
{
1070
   371
1070
    13
1070
   372
1070
    13
1070
   170
1070
     0
1070
   144
1040
1.0
1070
   277
1070
     2
1070
   284
1070
     8
1070
   278
1070
    46
1070
   146
1040
1.0
1070
   345
1005
16
1070
   347
1005
16
1070
   346
1005
16
1070
   344
1005
0
1070
   343
1005
0
1070
   172
1070
     1
1070
    76
1070
     0
1070
    75
1070
     0
1070
   282
1070
     0
1070
   281
1070
     0
1070
    71
1070
     0
1070
    74
1070
     0
1070
   279
1070
     0
1070
   173
1070
     1
1070
   340
1005
1D0
1070
   271
1070
     2
1070
   272
1070
     2
1070
    77
1070
     1
1070
    73
1070
     1
1070
   171
1070
     3
1070
   274
1070
     4
1070
   177
1070
     2
1070
   176
1070
     2
1070
   178
1070
     2
1070
    78
1070
     8
1070
    48
1040
-0.1
1070
    41
1040
3.5
1070
   147
1040
1.75
1070
    42
1040
1.5875
1070
    44
1040
2.0
1070
   140
1040
3.5
1002
}
1001
ACAD_DSTYLE_DIM_LINETYPE
1070
   380
1005
16
1001
ACAD_DSTYLE_DIM_EXT1_LINETYPE
1070
   381
1005
16
1001
ACAD_DSTYLE_DIM_EXT2_LINETYPE
1070
   382
1005
16
0
ENDSEC
0
SECTION
2
OBJECTS
0
DICTIONARY
5
29d
330
0
100
AcDbDictionary
280
0
281
1
3
ACAD_GROUP
350
29e
3
ACAD_MLINESTYLE
350
29f
0
DICTIONARY
5
29e
330
0
100
AcDbDictionary
280
0
281
1
0
DICTIONARY
5
29f
330
0
100
AcDbDictionary
280
0
281
1
3
Standard
350
18
0
MLINESTYLE
5
18
330
29f
100
AcDbMlineStyle
2
Standard
70
0
3

62
256
51
90
52
90
71
2
49
-0.5
62
256
6
ByLayer
49
0.5
62
256
6
ByLayer
0
RASTERVARIABLES
5
28b
330

100
AcDbRasterVariables
90
0
70
1
71
1
72
1
0
ENDSEC
0
EOF
