0
SECTION
2
HEADER
9
$ACADVER
1
AC1015
9
$DWGCODEPAGE
3
ANSI_1252
9
$HANDSEED
5
2b3
9
$ANGBASE
50
0
9
$ANGDIR
70
0
9
$ATTMODE
70
1
9
$AUNITS
70
0
9
$AUPREC
70
0
9
$CECOLOR
62
256
9
$CELTSCALE
40
1
9
$CELTYPE
6
ByLayer
9
$CELWEIGHT
370
18
9
$CLAYER
8
0
9
$CMLJUST
70
0
9
$CMLSCALE
40
1
9
$CMLSTYLE
2
Standard
9
$DIMSTYLE
2
Standard
9
$TEXTSIZE
40
0.2
9
$TEXTSTYLE
7
Standard
9
$LUNITS
70
2
9
$LUPREC
70
4
9
$EXTNAMES
290
1
9
$INSUNITS
70
4
9
$LTSCALE
40
1
9
$LWDISPLAY
290
1
9
$PDMODE
70
0
9
$PDSIZE
40
0
9
$PLINEGEN
70
0
0
ENDSEC
0
SECTION
2
CLASSES
0
CLASS
1
RASTERVARIABLES
2
AcDbRasterVariables
3
ISM
90
0
280
0
281
0
0
ENDSEC
0
SECTION
2
TABLES
0
TABLE
2
VPORT
5
2a9
100
AcDbSymbolTable
0
VPORT
5
1
100
AcDbSymbolTableRecord
100
AcDbViewportTableRecord
2
*Active
70
0
10
0
20
0
11
1
21
1
12
-1
22
1
13
0
23
0
14
0.5
24
0.5
15
10
25
10
16
0
26
0
36
1
17
0
27
0
37
0
0
ENDTAB
0
TABLE
2
LTYPE
5
2aa
100
AcDbSymbolTable
0
LTYPE
5
14
100
AcDbSymbolTableRecord
100
AcDbLinetypeTableRecord
70
0
2
ByBlock
3

72
65
73
0
40
0
0
LTYPE
5
15
100
AcDbSymbolTableRecord
100
AcDbLinetypeTableRecord
70
0
2
ByLayer
3

72
65
73
0
40
0
0
LTYPE
5
16
100
AcDbSymbolTableRecord
100
AcDbLinetypeTableRecord
70
0
2
Continuous
3
Solid line
72
65
73
0
40
0
0
LTYPE
5
6E
100
AcDbSymbolTableRecord
100
AcDbLinetypeTableRecord
70
0
2
CENTER
3
____ _ ____ _ ____ _ ____
72
65
73
4
40
47.5
49
22
74
0
49
-8.5
74
0
49
8.5
74
0
49
-8.5
74
0
0
LTYPE
5
6F
100
AcDbSymbolTableRecord
100
AcDbLinetypeTableRecord
70
0
2
DASHED
3
__ __ __ __ __ __ __ __ __
72
65
73
2
40
25.72
49
12.86
74
0
49
-12.86
74
0
0
ENDTAB
0
TABLE
2
LAYER
5
2ab
100
AcDbSymbolTable
0
LAYER
5
10
100
AcDbSymbolTableRecord
100
AcDbLayerTableRecord
2
0
70
0
62
7
6
Continuous
290
1
370
-3
390
0
0
LAYER
5
71
100
AcDbSymbolTableRecord
100
AcDbLayerTableRecord
2
81
70
0
62
-3
6
Continuous
290
1
370
-3
390
0
0
LAYER
5
73
100
AcDbSymbolTableRecord
100
AcDbLayerTableRecord
2
80
70
0
62
-6
6
Continuous
290
1
370
-3
390
0
0
LAYER
5
75
100
AcDbSymbolTableRecord
100
AcDbLayerTableRecord
2
1
70
0
62
4
6
Continuous
290
1
370
-3
390
0
0
LAYER
5
7B
100
AcDbSymbolTableRecord
100
AcDbLayerTableRecord
2
4
70
0
62
-2
6
CENTER
290
1
370
-3
390
0
0
LAYER
5
EA
100
AcDbSymbolTableRecord
100
AcDbLayerTableRecord
2
2
70
0
62
7
6
Continuous
290
1
370
-3
390
0
0
LAYER
5
207
100
AcDbSymbolTableRecord
100
AcDbLayerTableRecord
2
Defpoints
70
0
62
7
6
Continuous
290
0
370
-3
390
0
0
LAYER
5
295
100
AcDbSymbolTableRecord
100
AcDbLayerTableRecord
2
SK4
70
0
62
2
6
CENTER
290
1
370
-3
390
0
0
LAYER
5
296
100
AcDbSymbolTableRecord
100
AcDbLayerTableRecord
2
SK1
70
0
62
4
6
Continuous
290
1
370
-3
390
0
0
LAYER
5
297
100
AcDbSymbolTableRecord
100
AcDbLayerTableRecord
2
SK2
70
0
62
7
6
Continuous
290
1
370
-3
390
0
0
LAYER
5
298
100
AcDbSymbolTableRecord
100
AcDbLayerTableRecord
2
SK6
70
0
62
5
6
Continuous
290
1
370
-3
390
0
0
ENDTAB
0
TABLE
2
STYLE
5
2ac
100
AcDbSymbolTable
0
STYLE
5
11
100
AcDbSymbolTableRecord
100
AcDbTextStyleTableRecord
2
Standard
3
txt
70
0
71
0
40
0
41
1
42
0
50
0
0
STYLE
5
1D9
100
AcDbSymbolTableRecord
100
AcDbTextStyleTableRecord
2
iso_b_vert
3
simplex.shx
70
0
71
0
40
0
41
1
42
0
50
0
0
STYLE
5
1DA
100
AcDbSymbolTableRecord
100
AcDbTextStyleTableRecord
2
DWGDirectTextStyle
3
simplex
70
0
71
0
40
0
41
1
42
0
50
0
0
ENDTAB
0
TABLE
2
DIMSTYLE
5
2ad
100
AcDbSymbolTable
100
AcDbDimStyleTable
0
DIMSTYLE
105
27
100
AcDbSymbolTableRecord
100
AcDbDimStyleTableRecord
2
Standard
70
0
3
<>
41
0.18
42
0.0625
44
0.18
140
0.18
147
0.09
73
0
74
0
77
1
271
2
275
0
278
52
280
0
340
11
0
ENDTAB
0
TABLE
2
VIEW
5
2ae
100
AcDbSymbolTable
0
ENDTAB
0
TABLE
2
UCS
5
2af
100
AcDbSymbolTable
0
ENDTAB
0
TABLE
2
APPID
5
2b0
100
AcDbSymbolTable
0
APPID
5
12
100
AcDbSymbolTableRecord
100
AcDbRegAppTableRecord
2
ACAD
70
0
0
APPID
5
203
100
AcDbSymbolTableRecord
100
AcDbRegAppTableRecord
2
ACAD_DSTYLE_DIMBREAK
70
0
0
APPID
5
254
100
AcDbSymbolTableRecord
100
AcDbRegAppTableRecord
2
ACAD_DSTYLE_DIM_LINETYPE
70
0
0
APPID
5
255
100
AcDbSymbolTableRecord
100
AcDbRegAppTableRecord
2
ACAD_DSTYLE_DIM_EXT1_LINETYPE
70
0
0
APPID
5
256
100
AcDbSymbolTableRecord
100
AcDbRegAppTableRecord
2
ACAD_DSTYLE_DIM_EXT2_LINETYPE
70
0
0
APPID
5
291
100
AcDbSymbolTableRecord
100
AcDbRegAppTableRecord
2
ACAD_MLEADERVER
70
0
0
ENDTAB
0
TABLE
2
BLOCK_RECORD
5
2b1
100
AcDbSymbolTable
0
BLOCK_RECORD
5
1F
100
AcDbSymbolTableRecord
100
AcDbBlockTableRecord
2
*Model_Space
340
0
70
0
0
BLOCK_RECORD
5
1B
100
AcDbSymbolTableRecord
100
AcDbBlockTableRecord
2
*Paper_Space
340
0
70
0
0
BLOCK_RECORD
5
23
100
AcDbSymbolTableRecord
100
AcDbBlockTableRecord
2
*Paper_Space0
340
0
70
0
0
BLOCK_RECORD
5
208
100
AcDbSymbolTableRecord
100
AcDbBlockTableRecord
2
*D1
340
0
70
0
0
BLOCK_RECORD
5
215
100
AcDbSymbolTableRecord
100
AcDbBlockTableRecord
2
_U0
340
0
70
0
0
BLOCK_RECORD
5
221
100
AcDbSymbolTableRecord
100
AcDbBlockTableRecord
2
*D3
340
0
70
0
0
BLOCK_RECORD
5
22D
100
AcDbSymbolTableRecord
100
AcDbBlockTableRecord
2
_U1
340
0
70
0
0
ENDTAB
0
ENDSEC
0
SECTION
2
BLOCKS
0
BLOCK
5
20
100
AcDbEntity
8
0
100
AcDbBlockBegin
2
*Model_Space
70
0
10
0
20
0
30
0
3
*Model_Space
0
ENDBLK
5
21
100
AcDbEntity
8
0
100
AcDbBlockEnd
0
BLOCK
5
1C
100
AcDbEntity
8
0
100
AcDbBlockBegin
2
*Paper_Space
70
0
10
0
20
0
30
0
3
*Paper_Space
0
ENDBLK
5
1D
100
AcDbEntity
8
0
100
AcDbBlockEnd
0
BLOCK
5
24
100
AcDbEntity
8
0
100
AcDbBlockBegin
2
*Paper_Space0
70
0
10
0
20
0
30
0
3
*Paper_Space0
0
ENDBLK
5
25
100
AcDbEntity
8
0
100
AcDbBlockEnd
0
BLOCK
5
209
100
AcDbEntity
8
0
100
AcDbBlockBegin
2
*D1
70
1
10
0
20
0
30
0
3
*D1
0
LINE
5
20B
100
AcDbEntity
8
0
62
256
6
ByLayer
370
-2
48
1
60
0
100
AcDbLine
10
21
20
-4.5875
30
0
11
21
21
-19.575009
31
0
39
0
210
0
220
0
230
1
0
LINE
5
20C
100
AcDbEntity
8
0
62
256
6
ByLayer
370
-2
48
1
60
0
100
AcDbLine
10
9
20
-4.5875
30
0
11
9
21
-19.575009
31
0
39
0
210
0
220
0
230
1
0
LINE
5
20D
100
AcDbEntity
8
0
62
256
6
ByLayer
370
-2
48
1
60
0
100
AcDbLine
10
24.5
20
-17.575009
30
0
11
28
21
-17.575009
31
0
39
0
210
0
220
0
230
1
0
LINE
5
20E
100
AcDbEntity
8
0
62
256
6
ByLayer
370
-2
48
1
60
0
100
AcDbLine
10
5.5
20
-17.575009
30
0
11
2
21
-17.575009
31
0
39
0
210
0
220
0
230
1
0
SOLID
5
20F
100
AcDbEntity
8
0
62
256
6
ByLayer
370
-1
48
1
60
0
100
AcDbTrace
10
24.5
20
-16.991675
30
0
11
24.5
21
-18.158342
31
0
12
21
22
-17.575009
32
0
13
21
23
-17.575009
33
0
39
0
210
0
220
0
230
1
0
SOLID
5
210
100
AcDbEntity
8
0
62
256
6
ByLayer
370
-1
48
1
60
0
100
AcDbTrace
10
5.5
20
-18.158342
30
0
11
5.5
21
-16.991675
31
0
12
9
22
-17.575009
32
0
13
9
23
-17.575009
33
0
39
0
210
0
220
0
230
1
0
MTEXT
5
211
100
AcDbEntity
8
0
62
256
6
ByLayer
370
18
48
1
60
0
100
AcDbMText
10
15
20
-10.575009
30
0
210
0
220
0
230
1
1
\A1;12
40
3.5
41
0
44
1
50
0
71
5
72
5
7
iso_b_vert
0
POINT
5
212
100
AcDbEntity
8
Defpoints
62
0
6
ByLayer
370
-1
48
1
60
0
100
AcDbPoint
10
21
20
-3
30
0
39
0
210
0
220
0
230
1
50
360
0
POINT
5
213
100
AcDbEntity
8
Defpoints
62
0
6
ByLayer
370
-1
48
1
60
0
100
AcDbPoint
10
9
20
-3
30
0
39
0
210
0
220
0
230
1
50
360
0
POINT
5
214
100
AcDbEntity
8
Defpoints
62
0
6
ByLayer
370
-1
48
1
60
0
100
AcDbPoint
10
9
20
-17.575009
30
0
39
0
210
0
220
0
230
1
50
360
0
ENDBLK
5
20A
100
AcDbEntity
8
0
100
AcDbBlockEnd
0
BLOCK
5
21C
100
AcDbEntity
8
0
100
AcDbBlockBegin
2
_U0
70
0
10
0
20
0
30
0
3
_U0
0
MTEXT
5
216
100
AcDbEntity
8
2
62
256
6
ByLayer
370
18
48
1
60
0
100
AcDbMText
10
13.532467
20
-16.542375
30
0
210
0
220
0
230
1
1
\W0.5321;12
40
3.5
41
0
44
1.084337
50
0
71
7
72
5
7
iso_b_vert
0
LINE
5
217
100
AcDbEntity
8
2
62
256
6
ByLayer
370
13
48
1
60
0
100
AcDbLine
10
21
20
-4.5875
30
0
11
21
21
-19.575009
31
0
39
0
210
0
220
0
230
1
0
LINE
5
218
100
AcDbEntity
8
2
62
256
6
ByLayer
370
13
48
1
60
0
100
AcDbLine
10
9
20
-4.5875
30
0
11
9
21
-19.575009
31
0
39
0
210
0
220
0
230
1
0
LINE
5
219
100
AcDbEntity
8
2
62
256
6
ByLayer
370
13
48
1
60
0
100
AcDbLine
10
21
20
-17.575009
30
0
11
9
21
-17.575009
31
0
39
0
210
0
220
0
230
1
0
SOLID
5
21A
100
AcDbEntity
8
2
62
256
6
ByLayer
370
18
48
1
60
0
100
AcDbTrace
10
21
20
-17.575009
30
0
11
17.500002
21
-18.035792
31
0
12
17.499998
22
-17.114225
32
0
13
17.499998
23
-17.114225
33
0
39
0
210
0
220
0
230
1
0
SOLID
5
21B
100
AcDbEntity
8
2
62
256
6
ByLayer
370
18
48
1
60
0
100
AcDbTrace
10
9
20
-17.575009
30
0
11
12.499998
21
-17.114225
31
0
12
12.500002
22
-18.035792
32
0
13
12.500002
23
-18.035792
33
0
39
0
210
0
220
0
230
1
0
ENDBLK
5
21D
100
AcDbEntity
8
0
100
AcDbBlockEnd
0
BLOCK
5
222
100
AcDbEntity
8
0
100
AcDbBlockBegin
2
*D3
70
1
10
0
20
0
30
0
3
*D3
0
LINE
5
224
100
AcDbEntity
8
0
62
256
6
ByLayer
370
-2
48
1
60
0
100
AcDbLine
10
21
20
-4.5875
30
0
11
21
21
-34.575009
31
0
39
0
210
0
220
0
230
1
0
LINE
5
225
100
AcDbEntity
8
0
62
256
6
ByLayer
370
-2
48
1
60
0
100
AcDbLine
10
2.996857
20
-4.4675
30
0
11
2.996857
21
-34.575009
31
0
39
0
210
0
220
0
230
1
0
LINE
5
226
100
AcDbEntity
8
0
62
256
6
ByLayer
370
-2
48
1
60
0
100
AcDbLine
10
17.5
20
-32.575009
30
0
11
6.496857
21
-32.575009
31
0
39
0
210
0
220
0
230
1
0
SOLID
5
227
100
AcDbEntity
8
0
62
256
6
ByLayer
370
-1
48
1
60
0
100
AcDbTrace
10
17.5
20
-33.158342
30
0
11
17.5
21
-31.991675
31
0
12
21
22
-32.575009
32
0
13
21
23
-32.575009
33
0
39
0
210
0
220
0
230
1
0
SOLID
5
228
100
AcDbEntity
8
0
62
256
6
ByLayer
370
-1
48
1
60
0
100
AcDbTrace
10
6.496857
20
-31.991675
30
0
11
6.496857
21
-33.158342
31
0
12
2.996857
22
-32.575009
32
0
13
2.996857
23
-32.575009
33
0
39
0
210
0
220
0
230
1
0
MTEXT
5
229
100
AcDbEntity
8
0
62
256
6
ByLayer
370
18
48
1
60
0
100
AcDbMText
10
11.998429
20
-25.575009
30
0
210
0
220
0
230
1
1
\A1;18
40
3.5
41
0
44
1
50
0
71
5
72
5
7
iso_b_vert
0
POINT
5
22A
100
AcDbEntity
8
Defpoints
62
0
6
ByLayer
370
-1
48
1
60
0
100
AcDbPoint
10
21
20
-3
30
0
39
0
210
0
220
0
230
1
50
360
0
POINT
5
22B
100
AcDbEntity
8
Defpoints
62
0
6
ByLayer
370
-1
48
1
60
0
100
AcDbPoint
10
2.996857
20
-2.88
30
0
39
0
210
0
220
0
230
1
50
360
0
POINT
5
22C
100
AcDbEntity
8
Defpoints
62
0
6
ByLayer
370
-1
48
1
60
0
100
AcDbPoint
10
2.996857
20
-32.575009
30
0
39
0
210
0
220
0
230
1
50
360
0
ENDBLK
5
223
100
AcDbEntity
8
0
100
AcDbBlockEnd
0
BLOCK
5
234
100
AcDbEntity
8
0
100
AcDbBlockBegin
2
_U1
70
0
10
0
20
0
30
0
3
_U1
0
MTEXT
5
22E
100
AcDbEntity
8
SK2
62
256
6
ByLayer
370
18
48
1
60
0
100
AcDbMText
10
10.530896
20
-31.542375
30
0
210
0
220
0
230
1
1
\W0.5321;18
40
3.5
41
0
44
1.084337
50
0
71
7
72
5
7
iso_b_vert
0
LINE
5
22F
100
AcDbEntity
8
SK2
62
256
6
ByLayer
370
13
48
1
60
0
100
AcDbLine
10
21
20
-4.5875
30
0
11
21
21
-34.575009
31
0
39
0
210
0
220
0
230
1
0
LINE
5
230
100
AcDbEntity
8
SK2
62
256
6
ByLayer
370
13
48
1
60
0
100
AcDbLine
10
2.996857
20
-4.4675
30
0
11
2.996857
21
-34.575009
31
0
39
0
210
0
220
0
230
1
0
LINE
5
231
100
AcDbEntity
8
SK2
62
256
6
ByLayer
370
13
48
1
60
0
100
AcDbLine
10
21
20
-32.575009
30
0
11
2.996857
21
-32.575009
31
0
39
0
210
0
220
0
230
1
0
SOLID
5
232
100
AcDbEntity
8
SK2
62
256
6
ByLayer
370
18
48
1
60
0
100
AcDbTrace
10
21
20
-32.575009
30
0
11
17.500002
21
-33.035792
31
0
12
17.499998
22
-32.114225
32
0
13
17.499998
23
-32.114225
33
0
39
0
210
0
220
0
230
1
0
SOLID
5
233
100
AcDbEntity
8
SK2
62
256
6
ByLayer
370
18
48
1
60
0
100
AcDbTrace
10
2.996857
20
-32.575009
30
0
11
6.496856
21
-32.114225
31
0
12
6.496859
22
-33.035792
32
0
13
6.496859
23
-33.035792
33
0
39
0
210
0
220
0
230
1
0
ENDBLK
5
235
100
AcDbEntity
8
0
100
AcDbBlockEnd
0
ENDSEC
0
SECTION
2
ENTITIES
0
ARC
5
FC
100
AcDbEntity
8
1
62
256
6
ByLayer
370
18
48
1
60
0
100
AcDbCircle
39
0
10
8.525026
20
-3.88
30
0
40
1
210
0
220
0
230
1
100
AcDbArc
50
69.123607
51
90
0
ARC
5
FD
100
AcDbEntity
8
1
62
256
6
ByLayer
370
18
48
1
60
0
100
AcDbCircle
39
0
10
2.996857
20
3.88
30
0
40
1
210
0
220
0
230
1
100
AcDbArc
50
241.642363
51
270
0
ARC
5
FE
100
AcDbEntity
8
1
62
256
6
ByLayer
370
18
48
1
60
0
100
AcDbCircle
39
0
10
2.996857
20
-3.88
30
0
40
1
210
0
220
0
230
1
100
AcDbArc
50
90
51
118.357637
0
ELLIPSE
5
FF
100
AcDbEntity
8
1
62
256
6
ByLayer
370
18
48
1
60
0
100
AcDbEllipse
10
20.974003
20
0.853115
30
0
11
0.428668387858223
21
4.4123651037371
31
0
210
0
220
0
230
1
40
0.003042
41
1.61321033248041
42
1.62684688075421
0
ELLIPSE
5
100
100
AcDbEntity
8
1
62
256
6
ByLayer
370
18
48
1
60
0
100
AcDbEllipse
10
20.932709
20
-0.534179
30
0
11
0.0101001510136288
21
-0.39730161798113
31
0
210
0
220
0
230
1
40
0.550866
41
-1.91068700667353
42
-1.08146057772674
0
ELLIPSE
5
101
100
AcDbEntity
8
1
62
256
6
ByLayer
370
18
48
1
60
0
100
AcDbEllipse
10
20.7001
20
-0.52492
30
0
11
0.204363815612239
21
-0.175592703832814
31
0
210
0
220
0
230
1
40
0.442056
41
-1.72455658120862
42
-1.62969772053463
0
POINT
5
70
100
AcDbEntity
8
81
62
256
6
ByLayer
370
18
48
1
60
0
100
AcDbPoint
10
21
20
0
30
0
39
0
210
0
220
0
230
1
50
360
0
POINT
5
72
100
AcDbEntity
8
80
62
256
6
ByLayer
370
18
48
1
60
0
100
AcDbPoint
10
0
20
0
30
0
39
0
210
0
220
0
230
1
50
360
0
POINT
5
74
100
AcDbEntity
8
1
62
256
6
ByLayer
370
18
48
1
60
1
100
AcDbPoint
10
21
20
-3
30
0
39
0
210
0
220
0
230
1
50
360
0
POINT
5
76
100
AcDbEntity
8
1
62
256
6
ByLayer
370
18
48
1
60
1
100
AcDbPoint
10
9
20
-3
30
0
39
0
210
0
220
0
230
1
50
360
0
POINT
5
77
100
AcDbEntity
8
1
62
256
6
ByLayer
370
18
48
1
60
1
100
AcDbPoint
10
21
20
-3
30
0
39
0
210
0
220
0
230
1
50
360
0
POINT
5
78
100
AcDbEntity
8
1
62
256
6
ByLayer
370
18
48
1
60
1
100
AcDbPoint
10
2.996857
20
-2.88
30
0
39
0
210
0
220
0
230
1
50
360
0
SPLINE
5
102
100
AcDbEntity
8
1
62
256
6
ByLayer
370
18
48
1
60
0
100
AcDbSpline
70
4
71
3
72
10
73
6
40
0
40
0
40
0
40
0
40
0.610832947798393
40
0.610832947798393
40
1
40
1
40
1
40
1
41
1
10
20.9864515721366
20
-0.737702886462642
30
0
41
1
10
20.9871177881886
20
-0.746067284319764
30
0
41
1
10
20.9859590242197
20
-0.75449237956667
30
0
41
1
10
20.9812908342144
20
-0.768377344025737
30
0
41
1
10
20.9787900921129
20
-0.773803665219191
30
0
41
1
10
20.9756082919533
20
-0.779252637861759
30
0
0
SPLINE
5
103
100
AcDbEntity
8
1
62
256
6
ByLayer
370
18
48
1
60
0
100
AcDbSpline
70
4
71
3
72
10
73
6
40
0
40
0
40
0
40
0
40
0.132555102821223
40
0.132555102821223
40
1
40
1
40
1
40
1
41
1
10
8.86466450247795
20
2.71235595933047
30
0
41
1
10
8.87077312059867
20
2.71600387858078
30
0
41
1
10
8.87686489862111
20
2.71970021588052
30
0
41
1
10
8.9226940498651
20
2.74795185784285
30
0
41
1
10
8.96172538714305
20
2.7745371318461
30
0
41
1
10
8.99997471410563
20
2.80337081399151
30
0
0
SPLINE
5
104
100
AcDbEntity
8
1
62
256
6
ByLayer
370
18
48
1
60
0
100
AcDbSpline
70
4
71
3
72
8
73
4
40
0
40
0
40
0
40
0
40
1
40
1
40
1
40
1
41
1
10
20.9864515721238
20
-0.73770288651582
30
0
41
1
10
20.9741012770203
20
-0.819534830885374
30
0
41
1
10
20.9617509819168
20
-0.901366775254928
30
0
41
1
10
20.9494006868133
20
-0.983198719624454
30
0
0
SPLINE
5
105
100
AcDbEntity
8
1
62
256
6
ByLayer
370
18
48
1
60
0
100
AcDbSpline
70
4
71
3
72
20
73
16
40
0
40
0
40
0
40
0
40
0.1451037263018
40
0.1451037263018
40
0.2902074526036
40
0.2902074526036
40
0.4353111789054
40
0.4353111789054
40
0.580414905207199
40
0.580414905207199
40
0.725518631508999
40
0.725518631508999
40
0.870622357810799
40
0.870622357810799
40
1
40
1
40
1
40
1
41
1
10
20.9864515721372
20
-2.30164701286861
30
0
41
1
10
20.9871026157865
20
-2.32474584521629
30
0
41
1
10
20.9860158256615
20
-2.34765603642472
30
0
41
1
10
20.9806276299931
20
-2.39312747366179
30
0
41
1
10
20.9763325709667
20
-2.41568940860284
30
0
41
1
10
20.9645812379377
20
-2.46047012990232
30
0
41
1
10
20.9570520019195
20
-2.48281475735854
30
0
41
1
10
20.939210377303
20
-2.52598117905421
30
0
41
1
10
20.9288867728716
20
-2.54692249619796
30
0
41
1
10
20.9055013653711
20
-2.58755217758028
30
0
41
1
10
20.8924338906757
20
-2.60723794657957
30
0
41
1
10
20.8634118094682
20
-2.64528838239536
30
0
41
1
10
20.8477251417957
20
-2.66329168176389
30
0
41
1
10
20.8160295139623
20
-2.69528272089698
30
0
41
1
10
20.8002246036044
20
-2.70952430050372
30
0
41
1
10
20.7835178880665
20
-2.72289282841462
30
0
0
SPLINE
5
106
100
AcDbEntity
8
1
62
256
6
ByLayer
370
13
48
1
60
0
100
AcDbSpline
70
4
71
3
72
12
73
8
40
0
40
0
40
0
40
0
40
0.076269254834646
40
0.076269254834646
40
0.72483991706799
40
0.72483991706799
40
1
40
1
40
1
40
1
41
1
10
20.3666989792779
20
-2.88138741109086
30
0
41
1
10
20.3681576476025
20
-2.88145614661892
30
0
41
1
10
20.369616316943
20
-2.88152489684981
30
0
41
1
10
20.3834790785628
20
-2.88217841770342
30
0
41
1
10
20.3958832431462
20
-2.88276423479599
30
0
41
1
10
20.4135500533714
20
-2.88360007541161
30
0
41
1
10
20.418805875557
20
-2.8838488857424
30
0
41
1
10
20.4240647689817
20
-2.88409621943822
30
0
0
SPLINE
5
107
100
AcDbEntity
8
1
62
256
6
ByLayer
370
13
48
1
60
0
100
AcDbSpline
70
4
71
3
72
10
73
6
40
0
40
0
40
0
40
0
40
0.834596662234523
40
0.834596662234523
40
1
40
1
40
1
40
1
41
1
10
20.362627511906
20
-2.90061461524726
30
0
41
1
10
20.359561554274
20
-2.9004699570448
30
0
41
1
10
20.3564956013006
20
-2.90032536345851
30
0
41
1
10
20.3528220324562
20
-2.90015219153426
30
0
41
1
10
20.3522144120915
20
-2.9001235508681
30
0
41
1
10
20.3516067919107
20
-2.90009491275214
30
0
0
SPLINE
5
108
100
AcDbEntity
8
1
62
256
6
ByLayer
370
18
48
1
60
0
100
AcDbSpline
70
4
71
3
72
10
73
6
40
0
40
0
40
0
40
0
40
0.5
40
0.5
40
1
40
1
40
1
40
1
41
1
10
20.6148852968093
20
2.98591904199864
30
0
41
1
10
20.6332115073589
20
2.98457039966985
30
0
41
1
10
20.6514315745998
20
2.98211336229056
30
0
41
1
10
20.6876811232876
20
2.97478130906981
30
0
41
1
10
20.7057105232543
20
2.96990768245343
30
0
41
1
10
20.7236489783422
20
2.96362340418253
30
0
0
SPLINE
5
109
100
AcDbEntity
8
1
62
256
6
ByLayer
370
18
48
1
60
0
100
AcDbSpline
70
4
71
3
72
11
73
7
40
0
40
0
40
0
40
0
40
0.0696232622476883
40
0.379748841498459
40
0.379748841498459
40
1
40
1
40
1
40
1
41
1
10
19.4504360749807
20
2.77553481292122
30
0
41
1
10
19.4775493282343
20
2.78330239314917
30
0
41
1
10
19.6253436882513
20
2.8245871112284
30
0
41
1
10
19.7727137491004
20
2.85995472438887
30
0
41
1
10
20.1334970733731
20
2.93462561828159
30
0
41
1
10
20.3736773155019
20
2.96841936010267
30
0
41
1
10
20.6148852968092
20
2.98591904199884
30
0
0
SPLINE
5
10A
100
AcDbEntity
8
1
62
256
6
ByLayer
370
18
48
1
60
0
100
AcDbSpline
70
4
71
3
72
39
73
35
40
0
40
0
40
0
40
0
40
0.0326756178089208
40
0.0657545712912372
40
0.0991579943383486
40
0.132773567269047
40
0.166573288342039
40
0.200604729173098
40
0.234945682268581
40
0.269675038861845
40
0.304835611532778
40
0.340368255800577
40
0.37608704390756
40
0.411872027101856
40
0.447743115529646
40
0.483780206666552
40
0.520074955950956
40
0.589352321690322
40
0.662101246301035
40
0.737564771796479
40
0.816314645484578
40
0.827790697423963
40
0.839737935370667
40
0.852151371014832
40
0.865021965177137
40
0.878337426317693
40
0.892084974392603
40
0.906254322766462
40
0.920838806542578
40
0.935835596588874
40
0.951245463056809
40
0.967072028478755
40
0.983321008071248
40
1
40
1
40
1
40
1
41
1
10
20.933850239306
20
-2.38989285368171
30
0
41
1
10
20.9332407438929
20
-2.39690381922043
30
0
41
1
10
20.9320142296819
20
-2.41101229104888
30
0
41
1
10
20.9289590624223
20
-2.43223915521133
30
0
41
1
10
20.9249924463553
20
-2.45358182242455
30
0
41
1
10
20.9200250645044
20
-2.47495050597223
30
0
41
1
10
20.9140807283269
20
-2.49628372681963
30
0
41
1
10
20.9071428220146
20
-2.5175598454463
30
0
41
1
10
20.8991921619287
20
-2.53877788279829
30
0
41
1
10
20.890204086786
20
-2.55993325733414
30
0
41
1
10
20.8801610611949
20
-2.58098924712951
30
0
41
1
10
20.8690773449959
20
-2.60185404172344
30
0
41
1
10
20.8569974153218
20
-2.62240373449973
30
0
41
1
10
20.8439630760262
20
-2.64253264327013
30
0
41
1
10
20.8299944644615
20
-2.66219176216882
30
0
41
1
10
20.8150817338566
20
-2.68137004826812
30
0
41
1
10
20.7944473053622
20
-2.7056586556796
30
0
41
1
10
20.7664615103023
20
-2.73467278123431
30
0
41
1
10
20.7293261163766
20
-2.76716906920044
30
0
41
1
10
20.6875891302654
20
-2.79756268496595
30
0
41
1
10
20.655097233614
20
-2.81682689837197
30
0
41
1
10
20.6344665020922
20
-2.82754443864619
30
0
41
1
10
20.6271762802592
20
-2.83119799508253
30
0
41
1
10
20.6195463306581
20
-2.83487817424731
30
0
41
1
10
20.6115777045883
20
-2.83856807142163
30
0
41
1
10
20.6032735476014
20
-2.84224935989806
30
0
41
1
10
20.5946376140077
20
-2.84590309814584
30
0
41
1
10
20.5856729999948
20
-2.84951038038039
30
0
41
1
10
20.5763813246424
20
-2.85305290333326
30
0
41
1
10
20.5667624106144
20
-2.85651244035361
30
0
41
1
10
20.5568149344155
20
-2.85987285243672
30
0
41
1
10
20.5465349013373
20
-2.86311119195031
30
0
41
1
10
20.5359232420098
20
-2.86623035708067
30
0
41
1
10
20.5287086147608
20
-2.86813843326666
30
0
41
1
10
20.5250541925751
20
-2.86910493031567
30
0
0
SPLINE
5
10B
100
AcDbEntity
8
1
62
256
6
ByLayer
370
18
48
1
60
0
100
AcDbSpline
70
4
71
3
72
26
73
22
40
0
40
0
40
0
40
0
40
0.12500000000001
40
0.12500000000001
40
0.250000000000019
40
0.250000000000019
40
0.375000000000029
40
0.375000000000029
40
0.500000000000039
40
0.500000000000039
40
0.625000000000048
40
0.625000000000048
40
0.687500000000053
40
0.687500000000053
40
0.750000000000058
40
0.750000000000058
40
0.875000000000043
40
0.875000000000043
40
0.937500000000021
40
0.937500000000021
40
1
40
1
40
1
40
1
41
1
10
20.9864515721372
20
2.4826697107018
30
0
41
1
10
20.9870953097319
20
2.50688059538928
30
0
41
1
10
20.9860426254546
20
2.53082831215482
30
0
41
1
10
20.9808033126276
20
2.5782375731649
30
0
41
1
10
20.9766231895945
20
2.60170012663269
30
0
41
1
10
20.9651849154276
20
2.64814773541889
30
0
41
1
10
20.9578561884428
20
2.67127488653205
30
0
41
1
10
20.9404681457188
20
2.71589626210908
30
0
41
1
10
20.9304054032551
20
2.73748929420884
30
0
41
1
10
20.9076184177106
20
2.77927986515837
30
0
41
1
10
20.8948884828916
20
2.79947441968338
30
0
41
1
10
20.8736971284313
20
2.82866702762709
30
0
41
1
10
20.8662981158597
20
2.83818743122384
30
0
41
1
10
20.8510072057997
20
2.8565877914215
30
0
41
1
10
20.8430919766195
20
2.86550064517815
30
0
41
1
10
20.8185436807449
20
2.89138437837596
30
0
41
1
10
20.8011174043933
20
2.90751043992347
30
0
41
1
10
20.7733224313012
20
2.92993625883173
30
0
41
1
10
20.7637804396592
20
2.93711650882602
30
0
41
1
10
20.7441190621171
20
2.95086204781856
30
0
41
1
10
20.7339668740863
20
2.9574447712574
30
0
41
1
10
20.7236489783422
20
2.96362340418287
30
0
0
SPLINE
5
10C
100
AcDbEntity
8
1
62
256
6
ByLayer
370
18
48
1
60
0
100
AcDbSpline
70
4
71
3
72
8
73
4
40
0
40
0
40
0
40
0
40
1
40
1
40
1
40
1
41
1
10
20.7236489783433
20
2.96362340418304
30
0
41
1
10
20.7421308593711
20
2.90427933389853
30
0
41
1
10
20.7617673323471
20
2.8453245231093
30
0
41
1
10
20.7827733198473
20
2.78683143262012
30
0
0
SPLINE
5
10D
100
AcDbEntity
8
1
62
256
6
ByLayer
370
18
48
1
60
0
100
AcDbSpline
70
4
71
3
72
14
73
10
40
0
40
0
40
0
40
0
40
0.0214067774075597
40
0.0214067774075597
40
0.26605508305567
40
0.26605508305567
40
0.51070338870378
40
0.51070338870378
40
1
40
1
40
1
40
1
41
1
10
10.4494940178581
20
-2.80961258469193
30
0
41
1
10
10.4391508595519
20
-2.81155599016881
30
0
41
1
10
10.428806813688
20
-2.81347049752762
30
0
41
1
10
10.3002329554471
20
-2.83690448715896
30
0
41
1
10
10.1820968689901
20
-2.85459388456033
30
0
41
1
10
9.94564082445225
20
-2.88259482709711
30
0
41
1
10
9.82742209464203
20
-2.89285694518239
30
0
41
1
10
9.47271909426917
20
-2.91199575222902
30
0
41
1
10
9.23686877030312
20
-2.90912274761942
30
0
41
1
10
8.99999999999994
20
-2.89113358050469
30
0
0
SPLINE
5
10E
100
AcDbEntity
8
1
62
256
6
ByLayer
370
18
48
1
60
0
100
AcDbSpline
70
4
71
3
72
10
73
6
40
0
40
0
40
0
40
0
40
0.307883775355285
40
0.799069934332138
40
1
40
1
40
1
40
1
41
1
10
8.99934245059524
20
-2.97905908367196
30
0
41
1
10
9.05027636850605
20
-2.9745772015213
30
0
41
1
10
9.18251259383197
20
-2.96104752613974
30
0
41
1
10
9.3481479020397
20
-2.93792290390462
30
0
41
1
10
9.46288249844753
20
-2.91825304061186
30
0
41
1
10
9.49619970677711
20
-2.91223514405627
30
0
0
SPLINE
5
10F
100
AcDbEntity
8
1
62
256
6
ByLayer
370
13
48
1
60
0
100
AcDbSpline
70
4
71
3
72
8
73
4
40
0
40
0
40
0
40
0
40
1
40
1
40
1
40
1
41
1
10
10.3054722572677
20
-2.79034757341216
30
0
41
1
10
9.87031483817844
20
-2.84955543270513
30
0
41
1
10
9.43515741908919
20
-2.85860193891321
30
0
41
1
10
8.99999999999994
20
-2.81584569046513
30
0
0
SPLINE
5
110
100
AcDbEntity
8
1
62
256
6
ByLayer
370
18
48
1
60
0
100
AcDbSpline
70
4
71
3
72
18
73
14
40
0
40
0
40
0
40
0
40
0.168726685472583
40
0.168726685472583
40
0.337453370945166
40
0.337453370945166
40
0.674906741890331
40
0.674906741890331
40
0.843633427362913
40
0.843633427362913
40
0.927996770099205
40
0.927996770099205
40
1
40
1
40
1
40
1
41
1
10
20.7827732905882
20
2.78683142232705
30
0
41
1
10
20.7922343739112
20
2.76048545763439
30
0
41
1
10
20.7999078217356
20
2.73376222287291
30
0
41
1
10
20.8111256310661
20
2.67944432890007
30
0
41
1
10
20.8146765685763
20
2.65182416336142
30
0
41
1
10
20.8178086888169
20
2.56753971524984
30
0
41
1
10
20.8097871073448
20
2.51279489149655
30
0
41
1
10
20.7806748697614
20
2.43317867823072
30
0
41
1
10
20.7684670083738
20
2.40803925870304
30
0
41
1
10
20.7468424698534
20
2.37218156301236
30
0
41
1
10
20.7390805825349
20
2.36053845498583
30
0
41
1
10
20.7237216701079
20
2.33950149674476
30
0
41
1
10
20.7162472386806
20
2.33000999850043
30
0
41
1
10
20.7085058539435
20
2.32083090877919
30
0
0
SPLINE
5
111
100
AcDbEntity
8
1
62
256
6
ByLayer
370
18
48
1
60
0
100
AcDbSpline
70
4
71
3
72
10
73
6
40
0
40
0
40
0
40
0
40
0.341810959316706
40
0.341810959316706
40
1
40
1
40
1
40
1
41
1
10
20.4435809945017
20
2.12782661394871
30
0
41
1
10
20.440308407251
20
2.12626013536791
30
0
41
1
10
20.4370291138175
20
2.12470871122596
30
0
41
1
10
20.4274161839361
20
2.12021263808649
30
0
41
1
10
20.4210651340664
20
2.11730707977583
30
0
41
1
10
20.4146909951954
20
2.11445335303131
30
0
0
SPLINE
5
112
100
AcDbEntity
8
1
62
256
6
ByLayer
370
18
48
1
60
0
100
AcDbSpline
70
4
71
3
72
9
73
5
40
0
40
0
40
0
40
0
40
0.590218849337113
40
1
40
1
40
1
40
1
41
1
10
20.7827732954318
20
2.78683142158533
30
0
41
1
10
20.6051821969545
20
2.77810835426402
30
0
41
1
10
20.3042919446748
20
2.74878838820587
30
0
41
1
10
20.0034016923952
20
2.69613829935238
30
0
41
1
10
19.8801025385928
20
2.67079885320328
30
0
0
SPLINE
5
113
100
AcDbEntity
8
1
62
256
6
ByLayer
370
18
48
1
60
0
100
AcDbSpline
70
4
71
3
72
8
73
4
40
0
40
0
40
0
40
0
40
1
40
1
40
1
40
1
41
1
10
19.4931118355087
20
2.57908190090393
30
0
41
1
10
19.4817585436373
20
2.57603881345523
30
0
41
1
10
19.4704052517661
20
2.5729651636702
30
0
41
1
10
19.4590519598948
20
2.56986105133024
30
0
0
SPLINE
5
114
100
AcDbEntity
8
1
62
256
6
ByLayer
370
18
48
1
60
0
100
AcDbSpline
70
4
71
3
72
8
73
4
40
0
40
0
40
0
40
0
40
1
40
1
40
1
40
1
41
1
10
11.1982367291864
20
-2.60376417948177
30
0
41
1
10
11.1478840138144
20
-2.61687726395346
30
0
41
1
10
11.0975312984424
20
-2.62937068078861
30
0
41
1
10
11.0471785830704
20
-2.64123611959363
30
0
0
SPLINE
5
115
100
AcDbEntity
8
1
62
256
6
ByLayer
370
18
48
1
60
0
100
AcDbSpline
70
4
71
3
72
8
73
4
40
0
40
0
40
0
40
0
40
1
40
1
40
1
40
1
41
1
10
10.2539847206463
20
-2.77502110053217
30
0
41
1
10
9.83598981376417
20
-2.81696772836051
30
0
41
1
10
9.41799490688206
20
-2.81312330189186
30
0
41
1
10
9
20
-2.76123868687859
30
0
0
SPLINE
5
116
100
AcDbEntity
8
1
62
256
6
ByLayer
370
18
48
1
60
0
100
AcDbSpline
70
4
71
3
72
8
73
4
40
0
40
0
40
0
40
0
40
1
40
1
40
1
40
1
41
1
10
9
20
-2.89113358050469
30
0
41
1
10
8.91840467287858
20
-2.88527859290431
30
0
41
1
10
8.83729409653114
20
-2.87769852469532
30
0
41
1
10
8.75681204447901
20
-2.86821954758989
30
0
0
SPLINE
5
117
100
AcDbEntity
8
1
62
256
6
ByLayer
370
18
48
1
60
0
100
AcDbSpline
70
4
71
3
72
8
73
4
40
0
40
0
40
0
40
0
40
1
40
1
40
1
40
1
41
1
10
20.5639144863179
20
2.41738109752171
30
0
41
1
10
20.538738724237
20
2.42668459294072
30
0
41
1
10
20.513562962156
20
2.43584897086652
30
0
41
1
10
20.488387200075
20
2.44487141115317
30
0
0
SPLINE
5
118
100
AcDbEntity
8
1
62
256
6
ByLayer
370
18
48
1
60
0
100
AcDbSpline
70
4
71
3
72
8
73
4
40
0
40
0
40
0
40
0
40
1
40
1
40
1
40
1
41
1
10
20.3521579071266
20
2.50299716151085
30
0
41
1
10
20.351974693916
20
2.5025050483664
30
0
41
1
10
20.351790991469
20
2.5020276947285
30
0
41
1
10
20.351606808606
20
2.50156483450564
30
0
0
SPLINE
5
119
100
AcDbEntity
8
1
62
256
6
ByLayer
370
18
48
1
60
0
100
AcDbSpline
70
4
71
3
72
8
73
4
40
0
40
0
40
0
40
0
40
1
40
1
40
1
40
1
41
1
10
8.52502631651856
20
2.48997338967561
30
0
41
1
10
8.60437234806048
20
2.46971504135797
30
0
41
1
10
8.6813609188778
20
2.45561397619321
30
0
41
1
10
8.75472416536701
20
2.44458143286255
30
0
0
SPLINE
5
11A
100
AcDbEntity
8
1
62
256
6
ByLayer
370
13
48
1
60
0
100
AcDbSpline
70
4
71
3
72
8
73
4
40
0
40
0
40
0
40
0
40
1
40
1
40
1
40
1
41
1
10
9
20
-1.7871356561856
30
0
41
1
10
9.12264548850084
20
-1.8107249549906
30
0
41
1
10
9.24529097700164
20
-1.83182670561135
30
0
41
1
10
9.36793646550248
20
-1.85039156530209
30
0
0
SPLINE
5
11B
100
AcDbEntity
8
1
62
256
6
ByLayer
370
18
48
1
60
0
100
AcDbSpline
70
4
71
3
72
10
73
6
40
0
40
0
40
0
40
0
40
0.634877453051173
40
0.634877453051173
40
1
40
1
40
1
40
1
41
1
10
20.4355434084129
20
2.46080473363781
30
0
41
1
10
20.4209860984311
20
2.46643240961885
30
0
41
1
10
20.4064235708208
20
2.4720405604331
30
0
41
1
10
20.3834711699343
20
2.4808573477514
30
0
41
1
10
20.3750867668915
20
2.48407425226861
30
0
41
1
10
20.3666990001724
20
2.48728919907109
30
0
0
SPLINE
5
11C
100
AcDbEntity
8
1
62
256
6
ByLayer
370
13
48
1
60
0
100
AcDbSpline
70
4
71
3
72
12
73
8
40
0
40
0
40
0
40
0
40
0.0762689184409342
40
0.0762689184409342
40
0.724839816857756
40
0.724839816857756
40
1
40
1
40
1
40
1
41
1
10
20.3666990001723
20
2.48728919907109
30
0
41
1
10
20.3681576615322
20
2.48232727210635
30
0
41
1
10
20.3696163239079
20
2.47736535828886
30
0
41
1
10
20.3834790785628
20
2.43020875420123
30
0
41
1
10
20.3958832431462
20
2.38801499969003
30
0
41
1
10
20.4135500533716
20
2.32792161574071
30
0
41
1
10
20.4188058755573
20
2.31002048426254
30
0
41
1
10
20.4240647689822
20
2.29211822880316
30
0
0
SPLINE
5
11D
100
AcDbEntity
8
1
62
256
6
ByLayer
370
18
48
1
60
0
100
AcDbSpline
70
4
71
3
72
14
73
10
40
0
40
0
40
0
40
0
40
0.0162253544882594
40
0.0162253544882594
40
0.344150236325506
40
0.344150236325506
40
0.672075118162753
40
0.672075118162753
40
1
40
1
40
1
40
1
41
1
10
20.3515115608386
20
2.49861476674681
30
0
41
1
10
20.3515282711838
20
2.49855679594529
30
0
41
1
10
20.3515460439035
20
2.49849843283511
30
0
41
1
10
20.3519459011499
20
2.49725206252987
30
0
41
1
10
20.3528108205378
20
2.49588429780286
30
0
41
1
10
20.355727825731
20
2.49305281853168
30
0
41
1
10
20.3578353679578
20
2.49157948869725
30
0
41
1
10
20.3622877202303
20
2.48911084458274
30
0
41
1
10
20.3645654259699
20
2.48810697664993
30
0
41
1
10
20.3666990001735
20
2.48728919907066
30
0
0
SPLINE
5
11E
100
AcDbEntity
8
1
62
256
6
ByLayer
370
18
48
1
60
0
100
AcDbSpline
70
4
71
3
72
16
73
12
40
0
40
0
40
0
40
0
40
0.181775132857148
40
0.181775132857148
40
0.386331349642861
40
0.386331349642861
40
0.590887566428574
40
0.590887566428574
40
0.795443783214287
40
0.795443783214287
40
1
40
1
40
1
40
1
41
1
10
20.7038938874775
20
2.32725497934712
30
0
41
1
10
20.7010812573651
20
2.3322100491491
30
0
41
1
10
20.6977675049686
20
2.33731645370173
30
0
41
1
10
20.689637547916
20
2.3485167168769
30
0
41
1
10
20.6846260804157
20
2.35471412609522
30
0
41
1
10
20.6735000058547
20
2.36721539699582
30
0
41
1
10
20.6673880413879
20
2.37353029927851
30
0
41
1
10
20.6540320699825
20
2.38631456151808
30
0
41
1
10
20.6467790719594
20
2.39278509880313
30
0
41
1
10
20.6310787069225
20
2.4059073443141
30
0
41
1
10
20.6226745221021
20
2.41252130780435
30
0
41
1
10
20.6138954547461
20
2.41905979008979
30
0
0
SPLINE
5
11F
100
AcDbEntity
8
1
62
256
6
ByLayer
370
18
48
1
60
0
100
AcDbSpline
70
4
71
3
72
16
73
12
40
0
40
0
40
0
40
0
40
0.250000000000017
40
0.250000000000017
40
0.500000000000035
40
0.500000000000035
40
0.750000000000052
40
0.750000000000052
40
0.875000000000026
40
0.875000000000026
40
1
40
1
40
1
40
1
41
1
10
20.6138954547459
20
2.41905979008988
30
0
41
1
10
20.6085709222193
20
2.42125974212135
30
0
41
1
10
20.6032742834815
20
2.42299469029422
30
0
41
1
10
20.5929780136518
20
2.42537627551596
30
0
41
1
10
20.5879936081606
20
2.4260157813442
30
0
41
1
10
20.578853911114
20
2.4259636155694
30
0
41
1
10
20.5747337297644
20
2.42526239231401
30
0
41
1
10
20.5697317529969
20
2.42312761380657
30
0
41
1
10
20.5682540084705
20
2.42223565743225
30
0
41
1
10
20.5657371854148
20
2.42008058392207
30
0
41
1
10
20.5646974996438
20
2.41881112827687
30
0
41
1
10
20.5639144863181
20
2.41738109752166
30
0
0
SPLINE
5
120
100
AcDbEntity
8
1
62
256
6
ByLayer
370
18
48
1
60
0
100
AcDbSpline
70
4
71
3
72
24
73
20
40
0
40
0
40
0
40
0
40
0.0624999999999776
40
0.0624999999999776
40
0.124999999999955
40
0.124999999999955
40
0.187499999999933
40
0.187499999999933
40
0.249999999999911
40
0.249999999999911
40
0.312499999999888
40
0.312499999999888
40
0.374999999999866
40
0.374999999999866
40
0.499999999999942
40
0.499999999999942
40
0.749999999999971
40
0.749999999999971
40
1
40
1
40
1
40
1
41
1
10
20.563914486318
20
2.41738109752168
30
0
41
1
10
20.5633568562684
20
2.41636415232043
30
0
41
1
10
20.5624651317168
20
2.41555791465629
30
0
41
1
10
20.5597434671353
20
2.41450453302778
30
0
41
1
10
20.557973006507
20
2.41428935110042
30
0
41
1
10
20.5535680162275
20
2.41450463550439
30
0
41
1
10
20.5510240086138
20
2.41493112762478
30
0
41
1
10
20.5454888382543
20
2.41624570008622
30
0
41
1
10
20.5426009625923
20
2.41710368851639
30
0
41
1
10
20.5366723207832
20
2.41905537557594
30
0
41
1
10
20.5336197882087
20
2.42015602491847
30
0
41
1
10
20.5275805368482
20
2.42243850615307
30
0
41
1
10
20.524564674858
20
2.42363061395193
30
0
41
1
10
20.5155156789943
20
2.42729437097674
30
0
41
1
10
20.5094658640313
20
2.42985743300937
30
0
41
1
10
20.4917357369489
20
2.43743650275317
30
0
41
1
10
20.4802550292881
20
2.44242741992866
30
0
41
1
10
20.4575434286186
20
2.45200428153484
30
0
41
1
10
20.4464384246607
20
2.45655085296463
30
0
41
1
10
20.435543408412
20
2.46080473363813
30
0
0
SPLINE
5
121
100
AcDbEntity
8
1
62
256
6
ByLayer
370
13
48
1
60
0
100
AcDbSpline
70
4
71
3
72
8
73
4
40
0
40
0
40
0
40
0
40
1
40
1
40
1
40
1
41
1
10
20.4865779188622
20
-2.52185272328205
30
0
41
1
10
20.4804433616137
20
-2.48744311545477
30
0
41
1
10
20.4743088043652
20
-2.45303350762751
30
0
41
1
10
20.4681742471167
20
-2.41862389980025
30
0
0
SPLINE
5
122
100
AcDbEntity
8
1
62
256
6
ByLayer
370
18
48
1
60
0
100
AcDbSpline
70
4
71
3
72
28
73
24
40
0
40
0
40
0
40
0
40
0.124999999999996
40
0.124999999999996
40
0.249999999999991
40
0.249999999999991
40
0.31249999999999
40
0.31249999999999
40
0.374999999999989
40
0.374999999999989
40
0.5
40
0.5
40
0.625000000000011
40
0.625000000000011
40
0.687500000000017
40
0.687500000000017
40
0.750000000000024
40
0.750000000000024
40
0.875000000000012
40
0.875000000000012
40
0.937500000000006
40
0.937500000000006
40
1
40
1
40
1
40
1
41
1
10
20.9864515721372
20
-2.19035218483666
30
0
41
1
10
20.9870881557868
20
-2.21109248998963
30
0
41
1
10
20.9860684038544
20
-2.23154878481154
30
0
41
1
10
20.9809730317849
20
-2.27193738749139
30
0
41
1
10
20.9769036183074
20
-2.29187075961721
30
0
41
1
10
20.9685530671755
20
-2.3213856243496
30
0
41
1
10
20.9653932659532
20
-2.33115939148954
30
0
41
1
10
20.9583109774706
20
-2.35057614869135
30
0
41
1
10
20.9543982882094
20
-2.36018514293136
30
0
41
1
10
20.941685831738
20
-2.38843167540932
30
0
41
1
10
20.9318755876378
20
-2.40660762649216
30
0
41
1
10
20.9096669394165
20
-2.44168980530804
30
0
41
1
10
20.8972631423157
20
-2.45859338730352
30
0
41
1
10
20.876626379029
20
-2.48295234045361
30
0
41
1
10
20.8693972522628
20
-2.49091201260825
30
0
41
1
10
20.8544588665829
20
-2.50626731647475
30
0
41
1
10
20.8467262534859
20
-2.51369244976451
30
0
41
1
10
20.8227454804692
20
-2.53521731752022
30
0
41
1
10
20.8057233216775
20
-2.54857508495834
30
0
41
1
10
20.7785861772775
20
-2.56707420735651
30
0
41
1
10
20.7692717818156
20
-2.57298302014209
30
0
41
1
10
20.7500845897585
20
-2.58426535393954
30
0
41
1
10
20.7401808959206
20
-2.58965397431959
30
0
41
1
10
20.7300605720867
20
-2.59472247432416
30
0
0
SPLINE
5
123
100
AcDbEntity
8
1
62
256
6
ByLayer
370
13
48
1
60
0
100
AcDbSpline
70
4
71
3
72
8
73
4
40
0
40
0
40
0
40
0
40
1
40
1
40
1
40
1
41
1
10
20.9864515721292
20
-2.19035218482901
30
0
41
1
10
20.969657385459
20
-2.09615119302347
30
0
41
1
10
20.9528631987888
20
-2.00195020121794
30
0
41
1
10
20.9360690121186
20
-1.9077492094124
30
0
0
SPLINE
5
124
100
AcDbEntity
8
1
62
256
6
ByLayer
370
18
48
1
60
0
100
AcDbSpline
70
4
71
3
72
10
73
6
40
0
40
0
40
0
40
0
40
0.5
40
0.5
40
1
40
1
40
1
40
1
41
1
10
20.9335441912158
20
-1.94599715279006
30
0
41
1
10
20.9345940769817
20
-1.94090331217927
30
0
41
1
10
20.9353533731496
20
-1.93510976171442
30
0
41
1
10
20.9362065793228
20
-1.92220611187543
30
0
41
1
10
20.9362963488718
20
-1.91522622715792
30
0
41
1
10
20.9360690121178
20
-1.90774920937105
30
0
0
SPLINE
5
125
100
AcDbEntity
8
1
62
256
6
ByLayer
370
18
48
1
60
0
100
AcDbSpline
70
4
71
3
72
15
73
11
40
0
40
0
40
0
40
0
40
0.0699903938562817
40
0.0699903938562817
40
0.25599231508501
40
0.441994236313738
40
0.441994236313738
40
0.627996157542466
40
0.627996157542466
40
1
40
1
40
1
40
1
41
1
10
19.6842680127516
20
1.17364405428631
30
0
41
1
10
19.6854499588957
20
1.17388365595926
30
0
41
1
10
19.6866438393159
20
1.17419006304044
30
0
41
1
10
19.6910515253583
20
1.17555471374655
30
0
41
1
10
19.697578868102
20
1.17845481494393
30
0
41
1
10
19.704545659042
20
1.18312264445925
30
0
41
1
10
19.711830929805
20
1.18868292619598
30
0
41
1
10
19.7156639862689
20
1.19194058519094
30
0
41
1
10
19.7274474328228
20
1.2027853705319
30
0
41
1
10
19.7357393890122
20
1.2114512502435
30
0
41
1
10
19.7447044421946
20
1.22149519114706
30
0
0
SPLINE
5
126
100
AcDbEntity
8
1
62
256
6
ByLayer
370
18
48
1
60
0
100
AcDbSpline
70
4
71
3
72
16
73
12
40
0
40
0
40
0
40
0
40
0.249999999999972
40
0.249999999999972
40
0.499999999999944
40
0.499999999999944
40
0.624999999999958
40
0.624999999999958
40
0.749999999999972
40
0.749999999999972
40
1
40
1
40
1
40
1
41
1
10
19.7386029921547
20
-0.489846138983097
30
0
41
1
10
19.7430404507633
20
-0.481134820203721
30
0
41
1
10
19.747492562223
20
-0.471638248065915
30
0
41
1
10
19.756941320045
20
-0.451236877418381
30
0
41
1
10
19.7618428536403
20
-0.440542608477387
30
0
41
1
10
19.7696941649031
20
-0.42409554394186
30
0
41
1
10
19.7723984809821
20
-0.418534656062121
30
0
41
1
10
19.7780351398147
20
-0.407269186489714
30
0
41
1
10
19.7809646356682
20
-0.401573420961654
30
0
41
1
10
19.7899336553103
20
-0.384730547910863
30
0
41
1
10
19.7962241131696
20
-0.373684221950896
30
0
41
1
10
19.8029403939347
20
-0.36288465816142
30
0
0
SPLINE
5
127
100
AcDbEntity
8
1
62
256
6
ByLayer
370
18
48
1
60
0
100
AcDbSpline
70
4
71
3
72
22
73
18
40
0
40
0
40
0
40
0
40
0.24416577000275
40
0.24416577000275
40
0.370138141668963
40
0.370138141668963
40
0.496110513335176
40
0.496110513335176
40
0.62208288500139
40
0.62208288500139
40
0.685069070834495
40
0.685069070834495
40
0.7480552566676
40
0.7480552566676
40
0.8740276283338
40
0.8740276283338
40
1
40
1
40
1
40
1
41
1
10
20.5932993983735
20
-0.314930761637697
30
0
41
1
10
20.5815249910612
20
-0.33797080634335
30
0
41
1
10
20.5721775942194
20
-0.360653652684391
30
0
41
1
10
20.561307039419
20
-0.394850986903947
30
0
41
1
10
20.5581997642751
20
-0.406459799730556
30
0
41
1
10
20.5532742422892
20
-0.429724574524528
30
0
41
1
10
20.5514666470156
20
-0.441357878869667
30
0
41
1
10
20.549400891338
20
-0.464390477075597
30
0
41
1
10
20.5491270378726
20
-0.475837567776438
30
0
41
1
10
20.5501380635005
20
-0.493012165070638
30
0
41
1
10
20.5507139894708
20
-0.498737938264782
30
0
41
1
10
20.552428160145
20
-0.510215521598155
30
0
41
1
10
20.5535695446993
20
-0.515970470724454
30
0
41
1
10
20.5579446757695
20
-0.533064178284519
30
0
41
1
10
20.5620994175206
20
-0.544307311485568
30
0
41
1
10
20.5741899580462
20
-0.566605053854204
30
0
41
1
10
20.5819110740651
20
-0.57726279645766
30
0
41
1
10
20.5920944530624
20
-0.58730111509513
30
0
0
SPLINE
5
128
100
AcDbEntity
8
1
62
256
6
ByLayer
370
18
48
1
60
0
100
AcDbSpline
70
4
71
3
72
16
73
12
40
0
40
0
40
0
40
0
40
0.249999999999999
40
0.249999999999999
40
0.499999999999998
40
0.499999999999998
40
0.749999999999997
40
0.749999999999997
40
0.874999999999998
40
0.874999999999998
40
1
40
1
40
1
40
1
41
1
10
20.5249170490451
20
2.24751701486522
30
0
41
1
10
20.5199944260055
20
2.25190623402739
30
0
41
1
10
20.5149174006406
20
2.25623496249239
30
0
41
1
10
20.5042486006163
20
2.26471352318868
30
0
41
1
10
20.4986510988572
20
2.26887553008879
30
0
41
1
10
20.4866249402757
20
2.27679538700363
30
0
41
1
10
20.4802018933283
20
2.28059806398096
30
0
41
1
10
20.4691167563594
20
2.28557389290404
30
0
41
1
10
20.4652302120042
20
2.2870805452705
30
0
41
1
10
20.4567987309124
20
2.28954090858821
30
0
41
1
10
20.4524483981521
20
2.29043393240266
30
0
41
1
10
20.4478901634875
20
2.29081244220507
30
0
0
SPLINE
5
129
100
AcDbEntity
8
1
62
256
6
ByLayer
370
18
48
1
60
0
100
AcDbSpline
70
4
71
3
72
8
73
4
40
0
40
0
40
0
40
0
40
1
40
1
40
1
40
1
41
1
10
20.4478901634877
20
2.29081244220512
30
0
41
1
10
20.4399115958917
20
2.29141881714446
30
0
41
1
10
20.4319666208933
20
2.2918682458419
30
0
41
1
10
20.4240647689822
20
2.29211822880313
30
0
0
SPLINE
5
12A
100
AcDbEntity
8
1
62
256
6
ByLayer
370
18
48
1
60
0
100
AcDbSpline
70
4
71
3
72
24
73
20
40
0
40
0
40
0
40
0
40
0.500000000000001
40
0.500000000000001
40
0.749999999999998
40
0.749999999999998
40
0.874999999999991
40
0.874999999999991
40
0.937499999999986
40
0.937499999999986
40
0.968749999999974
40
0.968749999999974
40
0.984374999999969
40
0.984374999999969
40
0.992187499999967
40
0.992187499999967
40
0.996093749999983
40
0.996093749999983
40
1
40
1
40
1
40
1
41
1
10
20.3626275119062
20
2.46407421269726
30
0
41
1
10
20.3701702710385
20
2.43587031849285
30
0
41
1
10
20.3780495559794
20
2.40742106533571
30
0
41
1
10
20.3913384886102
20
2.36430653641244
30
0
41
1
10
20.3959954248804
20
2.34986214922895
30
0
41
1
10
20.4039195417545
20
2.32807104303865
30
0
41
1
10
20.4067048816247
20
2.32078541683404
30
0
41
1
10
20.4114999004568
20
2.30983091714441
30
0
41
1
10
20.4131920556871
20
2.30617354179273
30
0
41
1
10
20.416151445022
20
2.30069440782469
30
0
41
1
10
20.4172012102831
20
2.29886799279276
30
0
41
1
10
20.4190728695976
20
2.29614806736782
30
0
41
1
10
20.4197410783546
20
2.29524369720909
30
0
41
1
10
20.4209554719095
20
2.29391543627654
30
0
41
1
10
20.4213937935088
20
2.29347524606911
30
0
41
1
10
20.4221939105814
20
2.29285296490733
30
0
41
1
10
20.4224861317276
20
2.29264948222854
30
0
41
1
10
20.4231800033348
20
2.29229370312922
30
0
41
1
10
20.4236121734904
20
2.29213254711266
30
0
41
1
10
20.4240647689823
20
2.29211822880313
30
0
0
SPLINE
5
12B
100
AcDbEntity
8
1
62
256
6
ByLayer
370
18
48
1
60
0
100
AcDbSpline
70
4
71
3
72
8
73
4
40
0
40
0
40
0
40
0
40
1
40
1
40
1
40
1
41
1
10
20.3521579071263
20
2.50299716150698
30
0
41
1
10
20.3556528019707
20
2.49007915899844
30
0
41
1
10
20.3591426631527
20
2.47710476343306
30
0
41
1
10
20.3626275119062
20
2.46407421269728
30
0
0
SPLINE
5
12C
100
AcDbEntity
8
1
62
256
6
ByLayer
370
18
48
1
60
0
100
AcDbSpline
70
4
71
3
72
18
73
14
40
0
40
0
40
0
40
0
40
0.173310253446505
40
0.173310253446505
40
0.346620506893011
40
0.346620506893011
40
0.519930760339517
40
0.519930760339517
40
0.693241013786022
40
0.693241013786022
40
0.866551267232528
40
0.866551267232528
40
1
40
1
40
1
40
1
41
1
10
20.3521579071355
20
2.50299716150514
30
0
41
1
10
20.234035161128
20
2.54615746321855
30
0
41
1
10
20.1156825581835
20
2.58605689524796
30
0
41
1
10
19.8789387695615
20
2.65906892861568
30
0
41
1
10
19.7604854750801
20
2.69222796525344
30
0
41
1
10
19.5238041176683
20
2.75170858784486
30
0
41
1
10
19.4055290309978
20
2.77805594287199
30
0
41
1
10
19.1694554697355
20
2.82358097118305
30
0
41
1
10
19.0515799427236
20
2.84276300399483
30
0
41
1
10
18.815572471162
20
2.8737796028673
30
0
41
1
10
18.6973737103942
20
2.88560920767998
30
0
41
1
10
18.4880283039995
20
2.89996231424757
30
0
41
1
10
18.3968786912405
20
2.90400991999854
30
0
41
1
10
18.3057046246573
20
2.9058661832851
30
0
0
SPLINE
5
12D
100
AcDbEntity
8
1
62
256
6
ByLayer
370
18
48
1
60
0
100
AcDbSpline
70
4
71
3
72
38
73
34
40
0
40
0
40
0
40
0
40
0.0328672829310949
40
0.0661338934248391
40
0.0997023458277907
40
0.13347428962379
40
0.167444709190381
40
0.201666221014817
40
0.236217357336845
40
0.271179599314223
40
0.306582380195702
40
0.342333201586319
40
0.378238390148527
40
0.414201928556972
40
0.450258396979874
40
0.48649178788316
40
0.522992173710226
40
0.593311802628778
40
0.667048056568356
40
0.743473659090567
40
0.82318914985207
40
0.83526170584475
40
0.847849423123991
40
0.860945992267618
40
0.874540425219691
40
0.888618377970758
40
0.903165641833174
40
0.918171405772601
40
0.933629298540602
40
0.949537498109321
40
0.965898218390544
40
0.982716605982935
40
1
40
1
40
1
40
1
41
1
10
20.933534515365
20
-1.94596160234667
30
0
41
1
10
20.9328914264503
20
-1.95222486490186
30
0
41
1
10
20.9315974352848
20
-1.96482748676104
30
0
41
1
10
20.9284616170868
20
-1.98359309102435
30
0
41
1
10
20.9244308456763
20
-2.00231198511767
30
0
41
1
10
20.9194169601073
20
-2.02089529796879
30
0
41
1
10
20.9134412086006
20
-2.03929924124199
30
0
41
1
10
20.9064868884637
20
-2.05750557457571
30
0
41
1
10
20.8985342213635
20
-2.07550808036689
30
0
41
1
10
20.8895551826057
20
-2.09328934287291
30
0
41
1
10
20.8795374121875
20
-2.11080202922884
30
0
41
1
10
20.8685023364309
20
-2.12796104955757
30
0
41
1
10
20.8564959976141
20
-2.14467527878205
30
0
41
1
10
20.8435572958175
20
-2.16087175692078
30
0
41
1
10
20.8297013299226
20
-2.17651762971241
30
0
41
1
10
20.8149154077694
20
-2.19159971039366
30
0
41
1
10
20.7943710847771
20
-2.21053761215774
30
0
41
1
10
20.7664488002428
20
-2.23267422281253
30
0
41
1
10
20.729356240027
20
-2.25658659274546
30
0
41
1
10
20.6877067009532
20
-2.27793585110686
30
0
41
1
10
20.6552068538372
20
-2.29056067028571
30
0
41
1
10
20.6344404677058
20
-2.29721297976513
30
0
41
1
10
20.6268701654559
20
-2.2995049671124
30
0
41
1
10
20.6189342731877
20
-2.30176404288943
30
0
41
1
10
20.6106343413118
20
-2.3039734875903
30
0
41
1
10
20.6019740807107
20
-2.30611596863193
30
0
41
1
10
20.5929575815709
20
-2.30817375963321
30
0
41
1
10
20.5835879522064
20
-2.31012893360941
30
0
41
1
10
20.5738663306997
20
-2.31196300316066
30
0
41
1
10
20.5637923206217
20
-2.31365902122752
30
0
41
1
10
20.5533622446863
20
-2.31519302345581
30
0
41
1
10
20.5425776081747
20
-2.31656645881361
30
0
41
1
10
20.5352368630286
20
-2.31729788436499
30
0
41
1
10
20.5315164418438
20
-2.31766858394144
30
0
0
SPLINE
5
12E
100
AcDbEntity
8
1
62
256
6
ByLayer
370
18
48
1
60
0
100
AcDbSpline
70
4
71
3
72
8
73
4
40
0
40
0
40
0
40
0
40
1
40
1
40
1
40
1
41
1
10
20.7138161465967
20
-1.65029838032439
30
0
41
1
10
20.7870563540608
20
-1.7492842118933
30
0
41
1
10
20.8602850077038
20
-1.84774702557081
30
0
41
1
10
20.9335074674147
20
-1.94594790141017
30
0
0
SPLINE
5
12F
100
AcDbEntity
8
1
62
256
6
ByLayer
370
18
48
1
60
0
100
AcDbSpline
70
4
71
3
72
24
73
20
40
0
40
0
40
0
40
0
40
0.007812500000024
40
0.007812500000024
40
0.0117187499999748
40
0.0117187499999748
40
0.0156249999999256
40
0.0156249999999256
40
0.0312499999999175
40
0.0312499999999175
40
0.0624999999999253
40
0.0624999999999253
40
0.124999999999932
40
0.124999999999932
40
0.249999999999939
40
0.249999999999939
40
0.499999999999956
40
0.499999999999956
40
1
40
1
40
1
40
1
41
1
10
20.4442326691526
20
2.21352815674595
30
0
41
1
10
20.4439863304585
20
2.2137320935941
30
0
41
1
10
20.4437047000348
20
2.21394831670273
30
0
41
1
10
20.4431100615935
20
2.21412263458518
30
0
41
1
10
20.4428797659878
20
2.21413263449637
30
0
41
1
10
20.4425371561113
20
2.21405252460707
30
0
41
1
10
20.4424109162659
20
2.21397977878183
30
0
41
1
10
20.4418844930035
20
2.21358814347732
30
0
41
1
10
20.4417194370224
20
2.21318744686892
30
0
41
1
10
20.4412510830089
20
2.2120017781518
30
0
41
1
10
20.4411130806791
20
2.21118222844481
30
0
41
1
10
20.4407920999229
20
2.20870796831915
30
0
41
1
10
20.4407565673592
20
2.2070283835458
30
0
41
1
10
20.4407908197798
20
2.20198256762521
30
0
41
1
10
20.441036630043
20
2.19859267490458
30
0
41
1
10
20.4419782974434
20
2.18839410123928
30
0
41
1
10
20.4429141763132
20
2.18155437811979
30
0
41
1
10
20.4460297750672
20
2.16098642719194
30
0
41
1
10
20.4485603854438
20
2.14719471642863
30
0
41
1
10
20.4512484491553
20
2.13334043558831
30
0
0
SPLINE
5
130
100
AcDbEntity
8
1
62
256
6
ByLayer
370
18
48
1
60
0
100
AcDbSpline
70
4
71
3
72
8
73
4
40
0
40
0
40
0
40
0
40
1
40
1
40
1
40
1
41
1
10
20.4442326691526
20
2.21352815674598
30
0
41
1
10
20.451908760821
20
2.20717333722976
30
0
41
1
10
20.4591020558834
20
2.20068057202073
30
0
41
1
10
20.465809764792
20
2.19405031245665
30
0
0
SPLINE
5
131
100
AcDbEntity
8
1
62
256
6
ByLayer
370
13
48
1
60
0
100
AcDbSpline
70
4
71
3
72
12
73
8
40
0
40
0
40
0
40
0
40
0.089172359792379
40
0.089172359792379
40
0.763201383176554
40
0.763201383176554
40
1
40
1
40
1
40
1
41
1
10
20.3665576706203
20
-1.9396944282968
30
0
41
1
10
20.3682035024798
20
-1.94918140066781
30
0
41
1
10
20.3698493360351
20
-1.95866838757598
30
0
41
1
10
20.3839355813654
20
-2.03986498946364
30
0
41
1
10
20.3963760880911
20
-2.11157541843727
30
0
41
1
10
20.4131872985328
20
-2.20848012004285
30
0
41
1
10
20.4175514683729
20
-2.23367425906122
30
0
41
1
10
20.4219186369643
20
-2.25886733520937
30
0
0
SPLINE
5
132
100
AcDbEntity
8
1
62
256
6
ByLayer
370
13
48
1
60
0
100
AcDbSpline
70
4
71
3
72
9
73
5
40
0
40
0
40
0
40
0
40
0.284807434131092
40
1
40
1
40
1
40
1
41
1
10
19.402552616417
20
1.34549394001735
30
0
41
1
10
19.4350350776114
20
1.3341780467114
30
0
41
1
10
19.5490856862038
20
1.29397718716535
30
0
41
1
10
19.6631362947964
20
1.25216170641971
30
0
41
1
10
19.7447044421946
20
1.22149519114709
30
0
0
SPLINE
5
133
100
AcDbEntity
8
1
62
256
6
ByLayer
370
18
48
1
60
0
100
AcDbSpline
70
4
71
3
72
19
73
15
40
0
40
0
40
0
40
0
40
0.249999999999999
40
0.249999999999999
40
0.374999999999999
40
0.374999999999999
40
0.499999999999999
40
0.624999999999999
40
0.624999999999999
40
0.75
40
0.75
40
0.875
40
0.875
40
1
40
1
40
1
40
1
41
1
10
19.7447044421946
20
1.22149519114706
30
0
41
1
10
19.7584111524611
20
1.23684956819923
30
0
41
1
10
19.7740833352882
20
1.25157742063519
30
0
41
1
10
19.8005885588719
20
1.27250083566304
30
0
41
1
10
19.8099990059445
20
1.27931511769458
30
0
41
1
10
19.8293822306454
20
1.29209211504303
30
0
41
1
10
19.8494001022263
20
1.30409043249108
30
0
41
1
10
19.8707403471764
20
1.31437649979452
30
0
41
1
10
19.892806861467
20
1.32367147458882
30
0
41
1
10
19.9040333024476
20
1.32774610328556
30
0
41
1
10
19.9266596976985
20
1.33460312582926
30
0
41
1
10
19.9380974365165
20
1.33740164970931
30
0
41
1
10
19.9612568273544
20
1.34164144749988
30
0
41
1
10
19.973031640111
20
1.34308330111335
30
0
41
1
10
19.9847976428524
20
1.34376511144512
30
0
0
SPLINE
5
134
100
AcDbEntity
8
1
62
256
6
ByLayer
370
13
48
1
60
0
100
AcDbSpline
70
4
71
3
72
8
73
4
40
0
40
0
40
0
40
0
40
1
40
1
40
1
40
1
41
1
10
20.4866077988186
20
2.1031684016296
30
0
41
1
10
20.4796751208097
20
2.13346237190527
30
0
41
1
10
20.4727424428008
20
2.16375634218096
30
0
41
1
10
20.4658097647919
20
2.19405031245662
30
0
0
SPLINE
5
135
100
AcDbEntity
8
1
62
256
6
ByLayer
370
18
48
1
60
0
100
AcDbSpline
70
4
71
3
72
35
73
31
40
0
40
0
40
0
40
0
40
0.0266929972078918
40
0.0664366797042729
40
0.106541826682771
40
0.147100571419572
40
0.188162912667356
40
0.229659778433005
40
0.27137403263341
40
0.31316559289122
40
0.355057711308055
40
0.397143696301832
40
0.439530587849709
40
0.520436290332184
40
0.605396259403814
40
0.693526480248952
40
0.785494669041231
40
0.798896360406214
40
0.812848276147727
40
0.827344591792358
40
0.842374752933337
40
0.857924407245113
40
0.873978631268964
40
0.890525412407909
40
0.907556966791494
40
0.925069989326436
40
0.943065377790905
40
0.961547360954246
40
0.980522611308536
40
1
40
1
40
1
40
1
41
1
10
20.9180579905824
20
1.93374255821959
30
0
41
1
10
20.91675645371
20
1.93732726444782
30
0
41
1
10
20.9133376381469
20
1.94624011016916
30
0
41
1
10
20.9071428220532
20
1.96048271840706
30
0
41
1
10
20.8991921619682
20
1.97648342997795
30
0
41
1
10
20.8902040868256
20
1.9925357308056
30
0
41
1
10
20.8801610612338
20
2.00861761012752
30
0
41
1
10
20.8690773450331
20
2.02466104643409
30
0
41
1
10
20.8569974153562
20
2.04056395886249
30
0
41
1
10
20.8439630760573
20
2.05623985987904
30
0
41
1
10
20.8299944644885
20
2.07165071016033
30
0
41
1
10
20.815081733879
20
2.08679165140163
30
0
41
1
10
20.7944473053811
20
2.10611424709842
30
0
41
1
10
20.7664615103206
20
2.12949993310329
30
0
41
1
10
20.7293261163873
20
2.15620811922579
30
0
41
1
10
20.6875891303004
20
2.18174958560931
30
0
41
1
10
20.6550973406339
20
2.19846538873074
30
0
41
1
10
20.6344668420894
20
2.20799494213108
30
0
41
1
10
20.6271769837655
20
2.21126634636289
30
0
41
1
10
20.6195474292567
20
2.21458733300986
30
0
41
1
10
20.6115792294547
20
2.2179453703678
30
0
41
1
10
20.6032755293156
20
2.22132649158223
30
0
41
1
10
20.5946400827075
20
2.22471614011863
30
0
41
1
10
20.5856759857275
20
2.22809998819921
30
0
41
1
10
20.5763848577499
20
2.23146445599988
30
0
41
1
10
20.5667665220309
20
2.23479637191724
30
0
41
1
10
20.5568196558107
20
2.23808434854789
30
0
41
1
10
20.5465402652658
20
2.24131245900256
30
0
41
1
10
20.53592928162
20
2.24448300708704
30
0
41
1
10
20.5287151176871
20
2.24648537546381
30
0
41
1
10
20.5250609322141
20
2.24749963373441
30
0
0
SPLINE
5
136
100
AcDbEntity
8
1
62
256
6
ByLayer
370
18
48
1
60
0
100
AcDbSpline
70
4
71
3
72
30
73
26
40
0
40
0
40
0
40
0
40
0.125000000000221
40
0.125000000000221
40
0.187500000000304
40
0.187500000000304
40
0.218750000000309
40
0.218750000000309
40
0.234375000000271
40
0.234375000000271
40
0.250000000000233
40
0.250000000000233
40
0.265625000000195
40
0.265625000000195
40
0.281250000000157
40
0.281250000000157
40
0.312500000000149
40
0.312500000000149
40
0.375000000000141
40
0.375000000000141
40
0.500000000000118
40
0.500000000000118
40
0.750000000000059
40
0.750000000000059
40
1
40
1
40
1
40
1
41
1
10
20.4658097647918
20
2.19405031245697
30
0
41
1
10
20.4704040387051
20
2.18950908549448
30
0
41
1
10
20.4752055779558
20
2.18497900401923
30
0
41
1
10
20.4834250268418
20
2.17841301834582
30
0
41
1
10
20.486326872282
20
2.17625558326787
30
0
41
1
10
20.4913225677013
20
2.17327530220646
30
0
41
1
10
20.4931063240906
20
2.17231835250459
30
0
41
1
10
20.4960756537767
20
2.17109488614398
30
0
41
1
10
20.4971050470512
20
2.1707286312722
30
0
41
1
10
20.4992518790137
20
2.17014194678674
30
0
41
1
10
20.5003952313618
20
2.16992029636234
30
0
41
1
10
20.5026260982633
20
2.1697330191376
30
0
41
1
10
20.503723340879
20
2.16976869284736
30
0
41
1
10
20.5057006067213
20
2.17007173024879
30
0
41
1
10
20.5065797662093
20
2.17033117404802
30
0
41
1
10
20.5089194584108
20
2.1712881091533
30
0
41
1
10
20.5101005789757
20
2.17214578121323
30
0
41
1
10
20.5131039143297
20
2.17489690705088
30
0
41
1
10
20.5144073075487
20
2.17697394556589
30
0
41
1
10
20.5176895832144
20
2.18330300434926
30
0
41
1
10
20.5189814798165
20
2.18777761114694
30
0
41
1
10
20.5221256616723
20
2.2012654796612
30
0
41
1
10
20.5231196077983
20
2.21044478198996
30
0
41
1
10
20.5245833276713
20
2.22888680471371
30
0
41
1
10
20.5249690476435
20
2.23816540422607
30
0
41
1
10
20.5251980077035
20
2.24746223612243
30
0
0
SPLINE
5
137
100
AcDbEntity
8
1
62
256
6
ByLayer
370
18
48
1
60
0
100
AcDbSpline
70
4
71
3
72
24
73
20
40
0
40
0
40
0
40
0
40
0.124999999999996
40
0.124999999999996
40
0.249999999999993
40
0.249999999999993
40
0.374999999999989
40
0.374999999999989
40
0.499999999999986
40
0.499999999999986
40
0.624999999999982
40
0.624999999999982
40
0.749999999999978
40
0.749999999999978
40
0.874999999999975
40
0.874999999999975
40
0.937499999999987
40
0.937499999999987
40
1
40
1
40
1
40
1
41
1
10
20.9864515721359
20
1.60694519873945
30
0
41
1
10
20.9871026209808
20
1.62353334985602
30
0
41
1
10
20.9860158084257
20
1.64006049181839
30
0
41
1
10
20.9806275183006
20
1.67300192209217
30
0
41
1
10
20.9763323873935
20
1.68941643321034
30
0
41
1
10
20.9645808591188
20
1.72213447640209
30
0
41
1
10
20.9570515001372
20
1.73853166235639
30
0
41
1
10
20.9392095982795
20
1.77035017915435
30
0
41
1
10
20.9288858350001
20
1.78585797958303
30
0
41
1
10
20.9055000648546
20
1.8160899476816
30
0
41
1
10
20.8924323859537
20
1.83081249212395
30
0
41
1
10
20.863409841781
20
1.85943132368362
30
0
41
1
10
20.84772297479
20
1.87305609742742
30
0
41
1
10
20.8142109061177
20
1.8988274759617
30
0
41
1
10
20.7963666912725
20
1.91100211618891
30
0
41
1
10
20.7678903691374
20
1.92814671249545
30
0
41
1
10
20.7581124260139
20
1.93367480447699
30
0
41
1
10
20.7379595737469
20
1.94434091334529
30
0
41
1
10
20.7275908003416
20
1.94947252418149
30
0
41
1
10
20.7170620291361
20
1.95433151108708
30
0
0
SPLINE
5
138
100
AcDbEntity
8
1
62
256
6
ByLayer
370
18
48
1
60
0
100
AcDbSpline
70
4
71
3
72
35
73
31
40
0
40
0
40
0
40
0
40
0.0625000000000097
40
0.0625000000000097
40
0.12500000000002
40
0.12500000000002
40
0.250000000000038
40
0.250000000000038
40
0.312500000000048
40
0.312500000000048
40
0.343750000000048
40
0.343750000000048
40
0.375000000000049
40
0.375000000000049
40
0.43750000000005
40
0.43750000000005
40
0.500000000000052
40
0.500000000000052
40
0.531250000000052
40
0.531250000000052
40
0.562500000000053
40
0.625000000000053
40
0.625000000000053
40
0.750000000000041
40
0.750000000000041
40
0.812500000000034
40
0.812500000000034
40
0.875000000000028
40
0.875000000000028
40
1
40
1
40
1
40
1
41
1
10
20.7782049630216
20
1.82817570776771
30
0
41
1
10
20.7875744126077
20
1.81014802481673
30
0
41
1
10
20.7952317972127
20
1.79198604045857
30
0
41
1
10
20.8065909306705
20
1.75535180604427
30
0
41
1
10
20.8102981152457
20
1.73687682830735
30
0
41
1
10
20.8142301834151
20
1.6809068720847
30
0
41
1
10
20.8071330978182
20
1.64516310038223
30
0
41
1
10
20.7800369164468
20
1.59420420789436
30
0
41
1
10
20.7685426657532
20
1.5782365757297
30
0
41
1
10
20.7480969979543
20
1.55574661498019
30
0
41
1
10
20.7407427228526
20
1.54848756171791
30
0
41
1
10
20.7250121440796
20
1.53441993879539
30
0
41
1
10
20.7165999911496
20
1.52758789093707
30
0
41
1
10
20.6903365095414
20
1.50803871716954
30
0
41
1
10
20.671389998806
20
1.49617318759408
30
0
41
1
10
20.631204234843
20
1.47430381025777
30
0
41
1
10
20.6099616620529
20
1.46430265794538
30
0
41
1
10
20.5766711952808
20
1.4504593192184
30
0
41
1
10
20.5653165031393
20
1.44603298807007
30
0
41
1
10
20.5423909922109
20
1.43761462300571
30
0
41
1
10
20.5076042965693
20
1.42560687242505
30
0
41
1
10
20.4717621365408
20
1.41524100350529
30
0
41
1
10
20.398935332441
20
1.39628651520769
30
0
41
1
10
20.3488746619569
20
1.38599831951237
30
0
41
1
10
20.2721559779698
20
1.37309804421659
30
0
41
1
10
20.2462522951448
20
1.36922003344921
30
0
41
1
10
20.1943233511434
20
1.36226236640155
30
0
41
1
10
20.1682823692241
20
1.35917807730002
30
0
41
1
10
20.0899609743197
20
1.35094856755521
30
0
41
1
10
20.0374837729186
20
1.34681814046195
30
0
41
1
10
19.9847976428533
20
1.34376511144194
30
0
0
SPLINE
5
139
100
AcDbEntity
8
1
62
256
6
ByLayer
370
13
48
1
60
0
100
AcDbSpline
70
4
71
3
72
10
73
6
40
0
40
0
40
0
40
0
40
0.0117856613198048
40
0.341190440879869
40
1
40
1
40
1
40
1
41
1
10
11.2768339943387
20
-1.66087713652288
30
0
41
1
10
11.2678893295591
20
-1.65837811924237
30
0
41
1
10
11.0089446647796
20
-1.58570001500803
30
0
41
1
10
10.25
20
-1.34456999386615
30
0
41
1
10
9.5
20
-1.04016765831375
30
0
41
1
10
9
20
-0.818551618166026
30
0
0
SPLINE
5
13A
100
AcDbEntity
8
1
62
256
6
ByLayer
370
18
48
1
60
0
100
AcDbSpline
70
4
71
3
72
12
73
8
40
0
40
0
40
0
40
0
40
0.116079362433559
40
0.276792205627457
40
0.517861470418305
40
0.678574313612203
40
1
40
1
40
1
40
1
41
1
10
13.6667085535605
20
-2.75818004253969
30
0
41
1
10
13.486139035707
20
-2.77711472576138
30
0
41
1
10
13.0555695178536
20
-2.80291876683154
30
0
41
1
10
12.25
20
-2.76310560208313
30
0
41
1
10
11.375
20
-2.57994879315692
30
0
41
1
10
10.25
20
-2.18257990357307
30
0
41
1
10
9.5
20
-1.80237769574648
30
0
41
1
10
9
20
-1.51152397808809
30
0
0
SPLINE
5
13B
100
AcDbEntity
8
1
62
256
6
ByLayer
370
18
48
1
60
0
100
AcDbSpline
70
4
71
3
72
12
73
8
40
0
40
0
40
0
40
0
40
0.129967970745723
40
0.288155612428319
40
0.525437074952212
40
0.683624716634809
40
1
40
1
40
1
40
1
41
1
10
13.7412047617782
20
-2.77671341352746
30
0
41
1
10
13.5358031745188
20
-2.80751564546318
30
0
41
1
10
13.0804015872594
20
-2.85225814658736
30
0
41
1
10
12.25
20
-2.8345059128209
30
0
41
1
10
11.375
20
-2.67520428709841
30
0
41
1
10
10.25
20
-2.30069401094008
30
0
41
1
10
9.49999999999994
20
-1.92776379599354
30
0
41
1
10
8.99999999999994
20
-1.64181812922885
30
0
0
SPLINE
5
13C
100
AcDbEntity
8
1
62
256
6
ByLayer
370
18
48
1
60
0
100
AcDbSpline
70
4
71
3
72
40
73
36
40
0
40
0
40
0
40
0
40
0.0532028126675663
40
0.0532028126675663
40
0.126033365539296
40
0.126033365539296
40
0.16244864197516
40
0.16244864197516
40
0.198863918411023
40
0.198863918411023
40
0.271694471282751
40
0.271694471282751
40
0.308109747718614
40
0.308109747718614
40
0.344525024154478
40
0.344525024154478
40
0.380940300590342
40
0.380940300590342
40
0.417355577026205
40
0.417355577026205
40
0.490186129897929
40
0.490186129897929
40
0.563016682769654
40
0.563016682769654
40
0.635847235641378
40
0.635847235641378
40
0.708677788513103
40
0.708677788513103
40
0.781508341384827
40
0.781508341384827
40
0.854338894256551
40
0.854338894256551
40
0.927169447128276
40
0.927169447128276
40
1
40
1
40
1
40
1
41
1
10
13.8700733161849
20
-2.79444901287789
30
0
41
1
10
13.7836699661665
20
-2.81156794990687
30
0
41
1
10
13.6972872816066
20
-2.82680580924509
30
0
41
1
10
13.4926713303816
20
-2.8582701595648
30
0
41
1
10
13.3744949436032
20
-2.87276648508936
30
0
41
1
10
13.1972575131039
20
-2.88879475518718
30
0
41
1
10
13.1381936454547
20
-2.89320104878567
30
0
41
1
10
13.0200238396442
20
-2.90023536684316
30
0
41
1
10
12.9609024047527
20
-2.90286085582545
30
0
41
1
10
12.7836242629701
20
-2.90798754670959
30
0
41
1
10
12.6655360564104
20
-2.90773290619848
30
0
41
1
10
12.4883293053834
20
-2.90171776370121
30
0
41
1
10
12.4292475138436
20
-2.89877348213102
30
0
41
1
10
12.3110167759566
20
-2.89097869559438
30
0
41
1
10
12.2518576757284
20
-2.88612033338208
30
0
41
1
10
12.1335625339269
20
-2.87459684615723
30
0
41
1
10
12.0744075382759
20
-2.86794095342515
30
0
41
1
10
11.9560481387677
20
-2.85287567142996
30
0
41
1
10
11.8968409216761
20
-2.84445543435967
30
0
41
1
10
11.7193463897297
20
-2.81650566814776
30
0
41
1
10
11.6011136398961
20
-2.79429085582873
30
0
41
1
10
11.3646250904767
20
-2.74262276498001
30
0
41
1
10
11.2463171048256
20
-2.71306362566187
30
0
41
1
10
11.009776727544
20
-2.64728862536296
30
0
41
1
10
10.8914438098203
20
-2.61109874987417
30
0
41
1
10
10.6550763183915
20
-2.53211936176015
30
0
41
1
10
10.53700062717
20
-2.48935329746962
30
0
41
1
10
10.3007574794233
20
-2.39733427381103
30
0
41
1
10
10.1825408328414
20
-2.34802280609529
30
0
41
1
10
9.94612533428443
20
-2.24386102232256
30
0
41
1
10
9.82786284449733
20
-2.1888827627491
30
0
41
1
10
9.59145667345229
20
-2.07347851349672
30
0
41
1
10
9.47319577020622
20
-2.01302414174987
30
0
41
1
10
9.23666696421714
20
-1.88717251618434
30
0
41
1
10
9.11842319259691
20
-1.82180724460272
30
0
41
1
10
8.99999999999997
20
-1.75427784777889
30
0
0
SPLINE
5
13D
100
AcDbEntity
8
1
62
256
6
ByLayer
370
13
48
1
60
0
100
AcDbSpline
70
4
71
3
72
14
73
10
40
0
40
0
40
0
40
0
40
0.118244213757851
40
0.286139568250149
40
0.454034922742446
40
0.621930277234743
40
0.78982563172704
40
0.957720986219337
40
1
40
1
40
1
40
1
41
1
10
20.7782049678299
20
1.82817571286418
30
0
41
1
10
20.6021366452199
20
1.91968613594869
30
0
41
1
10
20.1760683226099
20
2.12818320594059
30
0
41
1
10
19.5
20
2.40446529372372
30
0
41
1
10
18.75
20
2.6310051808986
30
0
41
1
10
17.9999999999999
20
2.76841500380561
30
0
41
1
10
17.25
20
2.80718501506092
30
0
41
1
10
16.687045587252
20
2.76513794374347
30
0
41
1
10
16.3740911745041
20
2.71795994017049
30
0
41
1
10
16.3111367617562
20
2.70751505116218
30
0
0
SPLINE
5
13E
100
AcDbEntity
8
1
62
256
6
ByLayer
370
18
48
1
60
0
100
AcDbSpline
70
4
71
3
72
8
73
4
40
0
40
0
40
0
40
0
40
1
40
1
40
1
40
1
41
1
10
20.7170620291457
20
1.95433151108742
30
0
41
1
10
20.7361589917533
20
1.91206989414908
30
0
41
1
10
20.7564643626042
20
1.87000561014162
30
0
41
1
10
20.7782049927626
20
1.82817570504741
30
0
0
SPLINE
5
13F
100
AcDbEntity
8
1
62
256
6
ByLayer
370
18
48
1
60
0
100
AcDbSpline
70
4
71
3
72
8
73
4
40
0
40
0
40
0
40
0
40
1
40
1
40
1
40
1
41
1
10
20.4866077988187
20
2.1031684016296
30
0
41
1
10
20.4805310501812
20
2.10481245486071
30
0
41
1
10
20.474450166279
20
2.10644868048331
30
0
41
1
10
20.4683649141081
20
2.10807662554447
30
0
0
SPLINE
5
140
100
AcDbEntity
8
1
62
256
6
ByLayer
370
18
48
1
60
0
100
AcDbSpline
70
4
71
3
72
8
73
4
40
0
40
0
40
0
40
0
40
1
40
1
40
1
40
1
41
1
10
20.7186757646627
20
0.585980180864169
30
0
41
1
10
20.7239813583088
20
0.570379944218502
30
0
41
1
10
20.7296302416771
20
0.553900583332933
30
0
41
1
10
20.7356059908817
20
0.536592295211847
30
0
0
SPLINE
5
141
100
AcDbEntity
8
1
62
256
6
ByLayer
370
18
48
1
60
0
100
AcDbSpline
70
4
71
3
72
15
73
11
40
0
40
0
40
0
40
0
40
0.249999999999993
40
0.249999999999993
40
0.37499999999999
40
0.37499999999999
40
0.499999999999986
40
0.499999999999986
40
0.749999999999993
40
1
40
1
40
1
40
1
41
1
10
19.6674226664609
20
1.18766345356391
30
0
41
1
10
19.7535202121512
20
1.14501597477175
30
0
41
1
10
19.8404971843241
20
1.09970353272777
30
0
41
1
10
19.9719910868743
20
1.02861833144578
30
0
41
1
10
20.0159750426246
20
1.00440762727015
30
0
41
1
10
20.1038263429589
20
0.955272767432234
30
0
41
1
10
20.1477503170518
20
0.93031797578027
30
0
41
1
10
20.2795176410894
20
0.854390889771395
30
0
41
1
10
20.4551951210351
20
0.750315456758756
30
0
41
1
10
20.6308519062327
20
0.641457208227848
30
0
41
1
10
20.7186757646627
20
0.585980180864169
30
0
0
SPLINE
5
142
100
AcDbEntity
8
1
62
256
6
ByLayer
370
13
48
1
60
0
100
AcDbSpline
70
4
71
3
72
9
73
5
40
0
40
0
40
0
40
0
40
0.908583688547406
40
1
40
1
40
1
40
1
41
1
10
9
20
-0.619667734794405
30
0
41
1
10
9.5
20
-0.839150042920437
30
0
41
1
10
10.0503070397394
20
-1.06570006719801
30
0
41
1
10
10.6006140794788
20
-1.26156170683811
30
0
41
1
10
10.6509211192182
20
-1.27919664465463
30
0
0
SPLINE
5
143
100
AcDbEntity
8
1
62
256
6
ByLayer
370
13
48
1
60
0
100
AcDbSpline
70
4
71
3
72
13
73
9
40
0
40
0
40
0
40
0
40
0.267568842760761
40
0.401353264141142
40
0.602029896211713
40
0.735814317592093
40
0.936490949662664
40
1
40
1
40
1
40
1
41
1
10
9
20
1.20277093717507
30
0
41
1
10
9.50000000000003
20
1.01392425122944
30
0
41
1
10
10.25
20
0.689643482897282
30
0
41
1
10
11.375
20
0.155373707224413
30
0
41
1
10
12.25
20
-0.269421309153103
30
0
41
1
10
13.25
20
-0.733746209072166
30
0
41
1
10
13.993677962804
20
-1.05384761134445
30
0
41
1
10
14.4873559256079
20
-1.23987245107878
30
0
41
1
10
14.6060338884119
20
-1.28290978499152
30
0
0
SPLINE
5
144
100
AcDbEntity
8
1
62
256
6
ByLayer
370
18
48
1
60
0
100
AcDbSpline
70
4
71
3
72
20
73
16
40
0
40
0
40
0
40
0
40
0.0253092545276686
40
0.0253092545276686
40
0.0902886375591727
40
0.0902886375591727
40
0.220247403622153
40
0.220247403622153
40
0.480164935748113
40
0.480164935748113
40
0.610123701811093
40
0.610123701811093
40
0.740082467874073
40
0.740082467874073
40
1
40
1
40
1
40
1
41
1
10
20.5980888310628
20
-0.31480202022334
30
0
41
1
10
20.5940053458405
20
-0.31411180344287
30
0
41
1
10
20.5898884255035
20
-0.313422918914597
30
0
41
1
10
20.5750863754749
20
-0.310969974830556
30
0
41
1
10
20.5641965713081
20
-0.309209436101611
30
0
41
1
10
20.5312135214027
20
-0.303994509560738
30
0
41
1
10
20.5087547360521
20
-0.300596690707778
30
0
41
1
10
20.4402420562377
20
-0.290593712289052
30
0
41
1
10
20.3930661313347
20
-0.284176634921721
30
0
41
1
10
20.3207034934513
20
-0.274819012058685
30
0
41
1
10
20.2963116196452
20
-0.271745230338553
30
0
41
1
10
20.2470545997164
20
-0.265676999949051
30
0
41
1
10
20.2221594049306
20
-0.262679255954367
30
0
41
1
10
20.1474105673333
20
-0.25385790565474
30
0
41
1
10
20.0973152684231
20
-0.24818189883851
30
0
41
1
10
20.0470140229816
20
-0.242666495658682
30
0
0
SPLINE
5
145
100
AcDbEntity
8
1
62
256
6
ByLayer
370
18
48
1
60
0
100
AcDbSpline
70
4
71
3
72
8
73
4
40
0
40
0
40
0
40
0
40
1
40
1
40
1
40
1
41
1
10
12.772926761655
20
1.94994116731346
30
0
41
1
10
12.7973460056003
20
1.95003086368175
30
0
41
1
10
12.8217652495456
20
1.95001129188216
30
0
41
1
10
12.8461844934909
20
1.94988239746158
30
0
0
SPLINE
5
146
100
AcDbEntity
8
1
62
256
6
ByLayer
370
13
48
1
60
0
100
AcDbSpline
70
4
71
3
72
14
73
10
40
0
40
0
40
0
40
0
40
0.0208830493157821
40
0.202069457611381
40
0.38325586590698
40
0.564442274202578
40
0.745628682498177
40
0.926815090793776
40
1
40
1
40
1
40
1
41
1
10
15.6635570535662
20
1.46801269082204
30
0
41
1
10
15.6923713690442
20
1.45876016238762
30
0
41
1
10
15.9711856845221
20
1.36810535889086
30
0
41
1
10
16.5
20
1.17575207338501
30
0
41
1
10
17.25
20
0.859550461775143
30
0
41
1
10
18
20
0.513221159193677
30
0
41
1
10
18.75
20
0.151724065721822
30
0
41
1
10
19.3509801313115
20
-0.143571730883736
30
0
41
1
10
19.7019602626231
20
-0.314134866900361
30
0
41
1
10
19.8029403939346
20
-0.36288465816142
30
0
0
SPLINE
5
147
100
AcDbEntity
8
1
62
256
6
ByLayer
370
18
48
1
60
0
100
AcDbSpline
70
4
71
3
72
21
73
17
40
0
40
0
40
0
40
0
40
0.249999999999915
40
0.249999999999915
40
0.374999999999898
40
0.374999999999898
40
0.49999999999988
40
0.49999999999988
40
0.562499999999872
40
0.562499999999872
40
0.624999999999863
40
0.624999999999863
40
0.749999999999909
40
0.874999999999954
40
0.874999999999954
40
1
40
1
40
1
40
1
41
1
10
19.8029403939346
20
-0.36288465816142
30
0
41
1
10
19.8160045547684
20
-0.341879415938166
30
0
41
1
10
19.8313449468899
20
-0.323231026656941
30
0
41
1
10
19.8578014710035
20
-0.298738584898189
30
0
41
1
10
19.867247516945
20
-0.29114971858067
30
0
41
1
10
19.8867789511621
20
-0.277633074194171
30
0
41
1
10
19.8969275565108
20
-0.271637856748612
30
0
41
1
10
19.9127543410217
20
-0.263778557213499
30
0
41
1
10
19.9181309796693
20
-0.261348344764826
30
0
41
1
10
19.9290963506955
20
-0.256872859372606
30
0
41
1
10
19.9347082163708
20
-0.25482070018316
30
0
41
1
10
19.9516742330146
20
-0.249322335698878
30
0
41
1
10
19.9746381711377
20
-0.243721690053746
30
0
41
1
10
19.998359574897
20
-0.241429238787532
30
0
41
1
10
20.0225158493149
20
-0.24079817616024
30
0
41
1
10
20.0347760282976
20
-0.241324630776234
30
0
41
1
10
20.0470140229816
20
-0.24266649565854
30
0
0
SPLINE
5
148
100
AcDbEntity
8
1
62
256
6
ByLayer
370
18
48
1
60
0
100
AcDbSpline
70
4
71
3
72
20
73
16
40
0
40
0
40
0
40
0
40
0.125000000000004
40
0.125000000000004
40
0.250000000000008
40
0.250000000000008
40
0.500000000000004
40
0.500000000000004
40
0.625000000000003
40
0.625000000000003
40
0.750000000000002
40
0.750000000000002
40
0.875000000000001
40
0.875000000000001
40
1
40
1
40
1
40
1
41
1
10
20.7138161465969
20
-1.65029838032444
30
0
41
1
10
20.7143032513906
20
-1.66120462452139
30
0
41
1
10
20.7142553349858
20
-1.67208406870006
30
0
41
1
10
20.7130371134227
20
-1.69378254534189
30
0
41
1
10
20.7118520372809
20
-1.70466618230577
30
0
41
1
10
20.7065374519356
20
-1.73642956253923
30
0
41
1
10
20.7006288983397
20
-1.75656723587198
30
0
41
1
10
20.688003749933
20
-1.78505996210524
30
0
41
1
10
20.6831257679142
20
-1.79431366288389
30
0
41
1
10
20.6723662330559
20
-1.81157455664155
30
0
41
1
10
20.6664590926903
20
-1.81965873468241
30
0
41
1
10
20.6535522329504
20
-1.83467958866467
30
0
41
1
10
20.6465448167723
20
-1.84160824947438
30
0
41
1
10
20.6313622959352
20
-1.85422605690817
30
0
41
1
10
20.6232885536028
20
-1.85983537121291
30
0
41
1
10
20.6148366868284
20
-1.8647010373403
30
0
0
SPLINE
5
149
100
AcDbEntity
8
1
62
256
6
ByLayer
370
18
48
1
60
0
100
AcDbSpline
70
4
71
3
72
10
73
6
40
0
40
0
40
0
40
0
40
0.5
40
0.5
40
1
40
1
40
1
40
1
41
1
10
20.6562332750312
20
-1.29524031395016
30
0
41
1
10
20.6645897658723
20
-1.35387780272714
30
0
41
1
10
20.6735617053771
20
-1.41280417376473
30
0
41
1
10
20.6927630291914
20
-1.53124714134384
30
0
41
1
10
20.7030004466161
20
-1.59079780924125
30
0
41
1
10
20.7138161465968
20
-1.65029838032453
30
0
0
SPLINE
5
14A
100
AcDbEntity
8
1
62
256
6
ByLayer
370
18
48
1
60
0
100
AcDbSpline
70
4
71
3
72
12
73
8
40
0
40
0
40
0
40
0
40
0.250000000000004
40
0.250000000000004
40
0.500000000000008
40
0.500000000000008
40
1
40
1
40
1
40
1
41
1
10
19.7829487320832
20
-0.722105361876885
30
0
41
1
10
19.8554321003237
20
-0.773027462070132
30
0
41
1
10
19.928001819153
20
-0.823009498308778
30
0
41
1
10
20.0732886181395
20
-0.921369307578061
30
0
41
1
10
20.1460058567557
20
-0.969745355530563
30
0
41
1
10
20.3643557215644
20
-1.11271633175829
30
0
41
1
10
20.5101859262381
20
-1.20516030297947
30
0
41
1
10
20.6562332750312
20
-1.29524031395016
30
0
0
SPLINE
5
14B
100
AcDbEntity
8
1
62
256
6
ByLayer
370
18
48
1
60
0
100
AcDbSpline
70
4
71
3
72
25
73
21
40
0
40
0
40
0
40
0
40
0.124999999999958
40
0.124999999999958
40
0.18749999999996
40
0.18749999999996
40
0.249999999999962
40
0.312499999999965
40
0.312499999999965
40
0.374999999999967
40
0.374999999999967
40
0.499999999999974
40
0.499999999999974
40
0.62499999999998
40
0.62499999999998
40
0.749999999999987
40
0.749999999999987
40
0.874999999999993
40
0.874999999999993
40
1
40
1
40
1
40
1
41
1
10
19.7829487320833
20
-0.722105361876487
30
0
41
1
10
19.7725921753925
20
-0.714829518737986
30
0
41
1
10
19.7630520582442
20
-0.70672876324798
30
0
41
1
10
19.7501676465975
20
-0.693140514149121
30
0
41
1
10
19.7460801499059
20
-0.688323334875577
30
0
41
1
10
19.7386580685129
20
-0.678469532909133
30
0
41
1
10
19.7319519940213
20
-0.668378210598945
30
0
41
1
10
19.7266162449504
20
-0.657835370735455
30
0
41
1
10
19.7219455288553
20
-0.647074491241938
30
0
41
1
10
19.7199614165325
20
-0.641615190302815
30
0
41
1
10
19.7150845410104
20
-0.625425014765568
30
0
41
1
10
19.7131829753977
20
-0.614718341757055
30
0
41
1
10
19.711488191868
20
-0.593441184232205
30
0
41
1
10
19.7117172058746
20
-0.58312106512858
30
0
41
1
10
19.7137310341198
20
-0.563106608845743
30
0
41
1
10
19.7155203139321
20
-0.553379926761096
30
0
41
1
10
19.7203271068254
20
-0.534359089207612
30
0
41
1
10
19.7233484195914
20
-0.525079035663964
30
0
41
1
10
19.730310063107
20
-0.507101971108568
30
0
41
1
10
19.7342604117994
20
-0.498369691706074
30
0
41
1
10
19.7386029921547
20
-0.489846138983097
30
0
0
SPLINE
5
14C
100
AcDbEntity
8
1
62
256
6
ByLayer
370
13
48
1
60
0
100
AcDbSpline
70
4
71
3
72
13
73
9
40
0
40
0
40
0
40
0
40
0.0656098439470145
40
0.271841050504362
40
0.47807225706171
40
0.684303463619058
40
0.890534670176406
40
1
40
1
40
1
40
1
41
1
10
19.7386029921547
20
-0.489846138983097
30
0
41
1
10
19.6590686614365
20
-0.450715986671412
30
0
41
1
10
19.3295343307183
20
-0.287474982978836
30
0
41
1
10
18.75
20
0.0049249567338734
30
0
41
1
10
18
20
0.382376039584443
30
0
41
1
10
17.25
20
0.750137628894777
30
0
41
1
10
16.6173026603843
20
1.03864963788874
30
0
41
1
10
16.2346053207686
20
1.19753005619768
30
0
41
1
10
16.1019079811529
20
1.25050931701082
30
0
0
SPLINE
5
14D
100
AcDbEntity
8
1
62
256
6
ByLayer
370
18
48
1
60
0
100
AcDbSpline
70
4
71
3
72
21
73
17
40
0
40
0
40
0
40
0
40
0.124999999999992
40
0.124999999999992
40
0.249999999999985
40
0.249999999999985
40
0.499999999999987
40
0.499999999999987
40
0.562499999999974
40
0.562499999999974
40
0.624999999999961
40
0.749999999999974
40
0.749999999999974
40
0.874999999999987
40
0.874999999999987
40
1
40
1
40
1
40
1
41
1
10
20.7274084141996
20
-2.56853691186689
30
0
41
1
10
20.7277136790679
20
-2.57823015699785
30
0
41
1
10
20.7273631583723
20
-2.58809794659632
30
0
41
1
10
20.7252955017484
20
-2.60821256942683
30
0
41
1
10
20.7235555583021
20
-2.61853050388618
30
0
41
1
10
20.7162546697149
20
-2.64925720267456
30
0
41
1
10
20.7085924435132
20
-2.66962920734594
30
0
41
1
10
20.6954189812223
20
-2.6950288311254
30
0
41
1
10
20.6925913512762
20
-2.70012043159946
30
0
41
1
10
20.6866616265859
20
-2.71012246621271
30
0
41
1
10
20.6773268779033
20
-2.72491147766692
30
0
41
1
10
20.6666956656305
20
-2.73907469126678
30
0
41
1
10
20.6513231269454
20
-2.75738806895788
30
0
41
1
10
20.642964228202
20
-2.76631607286214
30
0
41
1
10
20.6254273066318
20
-2.78321476192764
30
0
41
1
10
20.61625179741
20
-2.79120027107655
30
0
41
1
10
20.6066862289539
20
-2.7987411643073
30
0
0
SPLINE
5
14E
100
AcDbEntity
8
1
62
256
6
ByLayer
370
13
48
1
60
0
100
AcDbSpline
70
4
71
3
72
16
73
12
40
0
40
0
40
0
40
0
40
0.0050452829033985
40
0.172664332065652
40
0.284410364840488
40
0.452029414002742
40
0.563775446777578
40
0.675521479552415
40
0.78726751232725
40
0.899013545102086
40
1
40
1
40
1
40
1
41
1
10
18.7838621612203
20
-1.61301063060981
30
0
41
1
10
18.7725747741469
20
-1.60945259809464
30
0
41
1
10
18.3862873870735
20
-1.48700932662368
30
0
41
1
10
17.75
20
-1.24736528053342
30
0
41
1
10
16.75
20
-0.792263753528261
30
0
41
1
10
15.875
20
-0.352025397736895
30
0
41
1
10
15
20
0.0991831563686105
30
0
41
1
10
14.25
20
0.485443505174544
30
0
41
1
10
13.5
20
0.853504102988864
30
0
41
1
10
12.7740714985797
20
1.17628293399986
30
0
41
1
10
12.2981429971594
20
1.36032040055997
30
0
41
1
10
12.0722144957392
20
1.44061075720447
30
0
0
SPLINE
5
14F
100
AcDbEntity
8
1
62
256
6
ByLayer
370
13
48
1
60
0
100
AcDbSpline
70
4
71
3
72
16
73
12
40
0
40
0
40
0
40
0
40
0.050283857659885
40
0.163521264066158
40
0.276758670472431
40
0.389996076878704
40
0.503233483284977
40
0.61647088969125
40
0.786326999300659
40
0.899564405706932
40
1
40
1
40
1
40
1
41
1
10
11.6669572852136
20
1.61213302839309
30
0
41
1
10
11.7779715234757
20
1.58096277420967
30
0
41
0.999999999999999
10
12.1389857617379
20
1.47339294247419
30
0
41
1
10
12.75
20
1.25979692696436
30
0
41
1
10
13.5
20
0.950291873336368
30
0
41
1
10
14.25
20
0.603914516175649
30
0
41
1
10
15
20
0.236019304315505
30
0
41
1
10
15.875
20
-0.199346352328178
30
0
41
1
10
16.75
20
-0.630407781651542
30
0
41
1
10
17.5967367861922
20
-1.01396777790114
30
0
41
1
10
18.0684735723844
20
-1.20332994994726
30
0
41
1
10
18.2902103585766
20
-1.2861161505846
30
0
0
SPLINE
5
150
100
AcDbEntity
8
1
62
256
6
ByLayer
370
18
48
1
60
0
100
AcDbSpline
70
4
71
3
72
13
73
9
40
0
40
0
40
0
40
0
40
0.102388357419543
40
0.319793433370888
40
0.537198509322234
40
0.75460358527358
40
0.972008661224926
40
1
40
1
40
1
40
1
41
1
10
20.6032174569918
20
0.526257102136555
30
0
41
1
10
20.4854783046612
20
0.607889017608329
30
0
41
1
10
20.1177391523306
20
0.860797921464865
30
0
41
1
10
19.5
20
1.26661221331372
30
0
41
1
10
18.75
20
1.71896695072232
30
0
41
1
10
18
20
2.10681746515252
30
0
41
1
10
17.4678119994984
20
2.32945939822591
30
0
41
1
10
17.1856239989968
20
2.42951673187758
30
0
41
1
10
17.1534359984953
20
2.44069274418231
30
0
0
SPLINE
5
151
100
AcDbEntity
8
1
62
256
6
ByLayer
370
13
48
1
60
0
100
AcDbSpline
70
4
71
3
72
13
73
9
40
0
40
0
40
0
40
0
40
0.143123726388875
40
0.326740070734116
40
0.449150966964277
40
0.632767311309518
40
0.755178207539678
40
1
40
1
40
1
40
1
41
1
10
15.1269055541414
20
-1.59983091506751
30
0
41
1
10
14.834603702761
20
-1.51074254628403
30
0
41
1
10
14.1673018513805
20
-1.2782961401563
30
0
41
1
10
13.25
20
-0.884092363657572
30
0
41
1
10
12.25
20
-0.413420094192816
30
0
41
1
10
11.375
20
0.0239608191793934
30
0
41
1
10
10.25
20
0.581330080808073
30
0
41
1
10
9.5
20
0.925339778481117
30
0
41
1
10
9
20
1.12865767155989
30
0
0
SPLINE
5
152
100
AcDbEntity
8
1
62
256
6
ByLayer
370
18
48
1
60
0
100
AcDbSpline
70
4
71
3
72
14
73
10
40
0
40
0
40
0
40
0
40
0.25
40
0.25
40
0.5
40
0.5
40
0.75
40
0.75
40
1
40
1
40
1
40
1
41
1
10
20.6066862289537
20
-2.79874116430733
30
0
41
1
10
20.6019944026358
20
-2.80315693155282
30
0
41
1
10
20.5973741669722
20
-2.80727262529462
30
0
41
1
10
20.5884841057613
20
-2.81486527183114
30
0
41
1
10
20.5842285293293
20
-2.81832830445833
30
0
41
1
10
20.5764965968462
20
-2.82446897769711
30
0
41
1
10
20.5730409134163
20
-2.82713245193372
30
0
41
1
10
20.5674569306393
20
-2.8315158219097
30
0
41
1
10
20.5653034015518
20
-2.83325808911587
30
0
41
1
10
20.5639144093537
20
-2.83457086634903
30
0
0
SPLINE
5
153
100
AcDbEntity
8
1
62
256
6
ByLayer
370
18
48
1
60
0
100
AcDbSpline
70
4
71
3
72
21
73
17
40
0
40
0
40
0
40
0
40
0.0328268913543907
40
0.10185161537589
40
0.17087633939739
40
0.27441342542964
40
0.343438149451139
40
0.446975235483389
40
0.515999959504889
40
0.585024683526388
40
0.654049407547888
40
0.723074131569388
40
0.792098855590887
40
0.861123579612387
40
0.930148303633887
40
1
40
1
40
1
40
1
41
1
10
20.6066862289536
20
-2.79874116430733
30
0
41
1
10
20.4877908193024
20
-2.80265869706892
30
0
41
1
10
20.1188954096512
20
-2.80367223669393
30
0
41
1
10
19.5
20
-2.74555827568577
30
0
41
1
10
18.625
20
-2.55709759350404
30
0
41
1
10
17.75
20
-2.23679259035515
30
0
41
1
10
16.75
20
-1.74733883924301
30
0
41
1
10
15.875
20
-1.23059933463395
30
0
41
1
10
15
20
-0.656537320344995
30
0
41
1
10
14.25
20
-0.141005427932868
30
0
41
1
10
13.5
20
0.380037296365458
30
0
41
1
10
12.75
20
0.887885772913109
30
0
41
0.999999999999999
10
12
20
1.36415576313232
30
0
41
1
10
11.25
20
1.79384231843522
30
0
41
1
10
10.4970047966278
20
2.16475542631983
30
0
41
1
10
9.99400959325561
20
2.36281262893004
30
0
41
1
10
9.74101438988345
20
2.44805522726313
30
0
0
SPLINE
5
154
100
AcDbEntity
8
1
62
256
6
ByLayer
370
18
48
1
60
0
100
AcDbSpline
70
4
71
3
72
16
73
12
40
0
40
0
40
0
40
0
40
0.249999999999982
40
0.249999999999982
40
0.499999999999965
40
0.499999999999965
40
0.749999999999947
40
0.749999999999947
40
0.874999999999974
40
0.874999999999974
40
1
40
1
40
1
40
1
41
1
10
20.6148366868284
20
-1.8647010373403
30
0
41
1
10
20.6096856970397
20
-1.8722832389987
30
0
41
1
10
20.6045734397476
20
-1.87989319806601
30
0
41
1
10
20.5946746936999
20
-1.89533319919579
30
0
41
1
10
20.5899172736082
20
-1.90312366038378
30
0
41
1
10
20.5813302172497
20
-1.91873920950926
30
0
41
1
10
20.577475884963
20
-1.92660170586481
30
0
41
1
10
20.5727318184757
20
-1.93862638043223
30
0
41
1
10
20.5713275246829
20
-1.94267530256309
30
0
41
1
10
20.5689859281636
20
-1.95067368729946
30
0
41
1
10
20.568038367613
20
-1.95464734274128
30
0
41
1
10
20.5673228840825
20
-1.95860166181239
30
0
0
SPLINE
5
155
100
AcDbEntity
8
1
62
256
6
ByLayer
370
18
48
1
60
0
100
AcDbSpline
70
4
71
3
72
17
73
13
40
0
40
0
40
0
40
0
40
0.052442243170642
40
0.160248513203138
40
0.268054783235634
40
0.37586105326813
40
0.483667323300626
40
0.591473593333122
40
0.699279863365618
40
0.807086133398114
40
0.91489240343061
40
1
40
1
40
1
40
1
41
1
10
20.6148366868284
20
-1.8647010373403
30
0
41
1
10
20.4932244578856
20
-1.79991084736565
30
0
41
1
10
20.1216122289428
20
-1.59362143646939
30
0
41
1
10
19.5
20
-1.21164511460174
30
0
41
1
10
18.75
20
-0.704869328395404
30
0
41
1
10
18
20
-0.17333247849902
30
0
41
1
10
17.25
20
0.364810826328068
30
0
41
1
10
16.5
20
0.889996222318501
30
0
41
1
10
15.7500000000001
20
1.38212451384911
30
0
41
1
10
15
20
1.82331648744054
30
0
41
1
10
14.3026376468091
20
2.17091050783407
30
0
41
1
10
13.8552752936181
20
2.35137246922099
30
0
41
1
10
13.6579129404272
20
2.42180463166557
30
0
0
SPLINE
5
156
100
AcDbEntity
8
1
62
256
6
ByLayer
370
18
48
1
60
0
100
AcDbSpline
70
4
71
3
72
16
73
12
40
0
40
0
40
0
40
0
40
0.0339997927631854
40
0.165727093750024
40
0.253545294407916
40
0.385272595394754
40
0.516999896381593
40
0.604818097039485
40
0.736545398026323
40
0.824363598684216
40
1
40
1
40
1
40
1
41
1
10
17.5403708386343
20
-2.74450235986549
30
0
41
1
10
17.4435805590895
20
-2.75740912173501
30
0
41
1
10
16.9717902795448
20
-2.80965292174997
30
0
41
1
10
16.25
20
-2.80976848406249
30
0
41
1
10
15.25
20
-2.66273923044744
30
0
41
1
10
14.25
20
-2.37171669449921
30
0
41
1
10
13.25
20
-1.93138849590753
30
0
41
1
10
12.25
20
-1.39406894457321
30
0
41
1
10
11.375
20
-0.855037405771498
30
0
41
1
10
10.25
20
-0.114744859961775
30
0
41
1
10
9.5
20
0.391077041990741
30
0
41
1
10
9
20
0.71279472013353
30
0
0
SPLINE
5
157
100
AcDbEntity
8
1
62
256
6
ByLayer
370
18
48
1
60
0
100
AcDbSpline
70
4
71
3
72
20
73
16
40
0
40
0
40
0
40
0
40
0.250000000000013
40
0.250000000000013
40
0.375000000000011
40
0.375000000000011
40
0.500000000000009
40
0.500000000000009
40
0.625000000000006
40
0.625000000000006
40
0.750000000000004
40
0.750000000000004
40
0.875000000000002
40
0.875000000000002
40
1
40
1
40
1
40
1
41
1
10
6.82570623418536
20
2.5556489283363
30
0
41
1
10
6.82157083184725
20
2.56061729097991
30
0
41
1
10
6.81841671219487
20
2.56564531966276
30
0
41
1
10
6.81595925627448
20
2.57335378241368
30
0
41
1
10
6.81553567430737
20
2.57594856335783
30
0
41
1
10
6.81567473757823
20
2.58104879590425
30
0
41
1
10
6.81622876886397
20
2.58357241638629
30
0
41
1
10
6.81852034438674
20
2.58856262861491
30
0
41
1
10
6.82024410590125
20
2.59097210883297
30
0
41
1
10
6.82480675411892
20
2.59550885740896
30
0
41
1
10
6.8276633576902
20
2.59766028419972
30
0
41
1
10
6.83450466722735
20
2.60169267655201
30
0
41
1
10
6.83837231740196
20
2.60350909300757
30
0
41
1
10
6.84686732787472
20
2.60680888649242
30
0
41
1
10
6.85151638843752
20
2.6082957995736
30
0
41
1
10
6.85640425608818
20
2.60961505029295
30
0
0
SPLINE
5
158
100
AcDbEntity
8
1
62
256
6
ByLayer
370
18
48
1
60
0
100
AcDbSpline
70
4
71
3
72
28
73
24
40
0
40
0
40
0
40
0
40
0.0312500000000049
40
0.0312500000000049
40
0.0625000000000097
40
0.0625000000000097
40
0.125000000000008
40
0.125000000000008
40
0.187500000000007
40
0.187500000000007
40
0.250000000000006
40
0.250000000000006
40
0.375000000000003
40
0.375000000000003
40
0.437500000000002
40
0.437500000000002
40
0.5
40
0.5
40
0.624999999999997
40
0.624999999999997
40
0.749999999999995
40
0.749999999999995
40
1
40
1
40
1
40
1
41
1
10
6.85640425608818
20
2.60961505029295
30
0
41
1
10
6.87194189242118
20
2.61380870678576
30
0
41
1
10
6.88791999138056
20
2.61746072061803
30
0
41
1
10
6.92055325266494
20
2.62396110545006
30
0
41
1
10
6.93721005408906
20
2.62680715692255
30
0
41
1
10
6.98800970441476
20
2.63439148069145
30
0
41
1
10
7.02297180859568
20
2.63818981734073
30
0
41
1
10
7.09450883317498
20
2.64403274293704
30
0
41
1
10
7.13059984740116
20
2.64602973158819
30
0
41
1
10
7.20306396905983
20
2.64867180171348
30
0
41
1
10
7.23955501713911
20
2.64931337552994
30
0
41
1
10
7.34886987118176
20
2.64960565490546
30
0
41
1
10
7.42137729540826
20
2.64766772899532
30
0
41
1
10
7.52974348479256
20
2.64239844542314
30
0
41
1
10
7.56582814255501
20
2.64023537948918
30
0
41
1
10
7.63755426893755
20
2.63518521772929
30
0
41
1
10
7.67323289417061
20
2.63229654924686
30
0
41
1
10
7.77977480546389
20
2.62260218947907
30
0
41
1
10
7.85023377003557
20
2.61476071875867
30
0
41
1
10
7.98945063687486
20
2.59655026751719
30
0
41
1
10
8.05825944510553
20
2.586175719106
30
0
41
1
10
8.26253814429575
20
2.55128463784783
30
0
41
1
10
8.39511554166228
20
2.5231417495304
30
0
41
1
10
8.52502631651865
20
2.48997338967536
30
0
0
SPLINE
5
159
100
AcDbEntity
8
1
62
256
6
ByLayer
370
18
48
1
60
0
100
AcDbSpline
70
4
71
3
72
16
73
12
40
0
40
0
40
0
40
0
40
0.125
40
0.125
40
0.249999999999999
40
0.249999999999999
40
0.499999999999999
40
0.499999999999999
40
0.75
40
0.75
40
1
40
1
40
1
40
1
41
1
10
8.34193870307828
20
-2.7511880951422
30
0
41
1
10
8.33866556133077
20
-2.74817366595028
30
0
41
1
10
8.33422080603603
20
-2.74530704848004
30
0
41
1
10
8.32456850677048
20
-2.73962396564281
30
0
41
1
10
8.31929245311181
20
-2.73681831003808
30
0
41
1
10
8.30274677980697
20
-2.72841318507793
30
0
41
1
10
8.29075124090195
20
-2.72281773492873
30
0
41
1
10
8.26599379034954
20
-2.71153723376227
30
0
41
1
10
8.25320866700372
20
-2.70586109591619
30
0
41
1
10
8.22715599186651
20
-2.69437452768835
30
0
41
1
10
8.21388209697071
20
-2.68856540794278
30
0
41
1
10
8.20043484230365
20
-2.68267767646435
30
0
0
SPLINE
5
15A
100
AcDbEntity
8
1
62
256
6
ByLayer
370
18
48
1
60
0
100
AcDbSpline
70
4
71
3
72
18
73
14
40
0
40
0
40
0
40
0
40
0.250000000000002
40
0.250000000000002
40
0.500000000000004
40
0.500000000000004
40
0.625000000000005
40
0.625000000000005
40
0.687500000000002
40
0.687500000000002
40
0.749999999999999
40
0.749999999999999
40
1
40
1
40
1
40
1
41
1
10
8.20043484230365
20
-2.68267767646438
30
0
41
1
10
8.05671371900547
20
-2.63952615988737
30
0
41
1
10
7.91655569079632
20
-2.58865540405529
30
0
41
1
10
7.64358798712448
20
-2.46942060645677
30
0
41
1
10
7.51078100739898
20
-2.40106456892241
30
0
41
1
10
7.31713121636932
20
-2.28329966862441
30
0
41
1
10
7.2535065598895
20
-2.24149956948284
30
0
41
1
10
7.15944657481018
20
-2.1746417294537
30
0
41
1
10
7.12829376484794
20
-2.15163825253157
30
0
41
1
10
7.06674935362847
20
-2.1044215529179
30
0
41
1
10
7.03632555541816
20
-2.08018706400702
30
0
41
1
10
6.88592306174581
20
-1.95580926927423
30
0
41
1
10
6.77110246690089
20
-1.84608309023741
30
0
41
1
10
6.66138595333689
20
-1.72494242625319
30
0
0
SPLINE
5
15B
100
AcDbEntity
8
1
62
256
6
ByLayer
370
18
48
1
60
0
100
AcDbSpline
70
4
71
3
72
24
73
20
40
0
40
0
40
0
40
0
40
0.250000000000015
40
0.250000000000015
40
0.375000000000006
40
0.375000000000006
40
0.499999999999996
40
0.499999999999996
40
0.624999999999986
40
0.624999999999986
40
0.687499999999988
40
0.687499999999988
40
0.74999999999999
40
0.74999999999999
40
0.812499999999992
40
0.812499999999992
40
0.874999999999994
40
0.874999999999994
40
1
40
1
40
1
40
1
41
1
10
6.66138595333692
20
-1.72494242625319
30
0
41
1
10
6.64945539814977
20
-1.71176961087539
30
0
41
1
10
6.6386691548104
20
-1.69800843915962
30
0
41
1
10
6.62544677945075
20
-1.6758896997016
30
0
41
1
10
6.62152027893674
20
-1.66821749663259
30
0
41
1
10
6.61527345510547
20
-1.65237128969051
30
0
41
1
10
6.6129565277019
20
-1.64424942414371
30
0
41
1
10
6.61082293234713
20
-1.62749936801924
30
0
41
1
10
6.6110428478278
20
-1.61916627580797
30
0
41
1
10
6.61413227408195
20
-1.6067792039226
30
0
41
1
10
6.61564937754486
20
-1.60265989783528
30
0
41
1
10
6.61960087742241
20
-1.5948745530817
30
0
41
1
10
6.62204283943746
20
-1.59115841068947
30
0
41
1
10
6.62790044478962
20
-1.58409886227625
30
0
41
1
10
6.63122636880092
20
-1.58086485216344
30
0
41
1
10
6.63854175076338
20
-1.57495335404261
30
0
41
1
10
6.64257557636651
20
-1.57224998442544
30
0
41
1
10
6.65525705880776
20
-1.56505519197046
30
0
41
1
10
6.66444231930799
20
-1.56143211104776
30
0
41
1
10
6.67412125171344
20
-1.55860720818174
30
0
0
SPLINE
5
15C
100
AcDbEntity
8
1
62
256
6
ByLayer
370
18
48
1
60
0
100
AcDbSpline
70
4
71
3
72
36
73
32
40
0
40
0
40
0
40
0
40
0.0312500000000033
40
0.0312500000000033
40
0.0625000000000067
40
0.0625000000000067
40
0.125000000000013
40
0.125000000000013
40
0.156250000000017
40
0.156250000000017
40
0.18750000000002
40
0.18750000000002
40
0.250000000000016
40
0.250000000000016
40
0.312500000000012
40
0.312500000000012
40
0.375000000000008
40
0.375000000000008
40
0.437500000000005
40
0.437500000000005
40
0.500000000000001
40
0.500000000000001
40
0.624999999999993
40
0.624999999999993
40
0.687499999999994
40
0.687499999999994
40
0.749999999999995
40
0.749999999999995
40
0.874999999999998
40
0.874999999999998
40
1
40
1
40
1
40
1
41
1
10
6.67412125171342
20
-1.55860720818174
30
0
41
1
10
6.69383653974683
20
-1.55285308455149
30
0
41
1
10
6.71372623289307
20
-1.54809362874465
30
0
41
1
10
6.75377255377592
20
-1.54011067112782
30
0
41
1
10
6.77392987618737
20
-1.53689094396753
30
0
41
1
10
6.83472842729597
20
-1.52912268674783
30
0
41
1
10
6.87569234334413
20
-1.52644374839534
30
0
41
1
10
6.93761443667273
20
-1.52520181253709
30
0
41
1
10
6.95835694846758
20
-1.52525965408904
30
0
41
1
10
6.99967737937959
20
-1.52620039349409
30
0
41
1
10
7.02029382690318
20
-1.52708185002206
30
0
41
1
10
7.08202749348743
20
-1.53081040914557
30
0
41
1
10
7.12302978500222
20
-1.53473494337086
30
0
41
1
10
7.20478378656523
20
-1.54490982219411
30
0
41
1
10
7.24552664514971
20
-1.55116647167122
30
0
41
1
10
7.32635697108972
20
-1.56554887889143
30
0
41
1
10
7.36650658828117
20
-1.57368363603774
30
0
41
1
10
7.44634680471995
20
-1.59154427418085
30
0
41
1
10
7.4860529696403
20
-1.60127710303866
30
0
41
1
10
7.56473989006204
20
-1.62201831823401
30
0
41
1
10
7.60376296958421
20
-1.63303606829558
30
0
41
1
10
7.71998109886962
20
-1.66773627212399
30
0
41
1
10
7.79632902724461
20
-1.69305628637588
30
0
41
1
10
7.90947912026363
20
-1.73340228627311
30
0
41
1
10
7.9469858905735
20
-1.74725590432186
30
0
41
1
10
8.02144911021912
20
-1.7755791832096
30
0
41
1
10
8.05841229386078
20
-1.79005077695373
30
0
41
1
10
8.16857540059621
20
-1.83422084065782
30
0
41
1
10
8.24108853365706
20
-1.864687757491
30
0
41
1
10
8.38430977236044
20
-1.92670711655893
30
0
41
1
10
8.45502451059565
20
-1.95826212635566
30
0
41
1
10
8.52502631651845
20
-1.99001279913111
30
0
0
SPLINE
5
15D
100
AcDbEntity
8
1
62
256
6
ByLayer
370
18
48
1
60
0
100
AcDbSpline
70
4
71
3
72
18
73
14
40
0
40
0
40
0
40
0
40
0.062499999999979
40
0.062499999999979
40
0.124999999999958
40
0.124999999999958
40
0.249999999999949
40
0.249999999999949
40
0.499999999999966
40
0.499999999999966
40
0.749999999999983
40
0.749999999999983
40
1
40
1
40
1
40
1
41
1
10
8.3302006902554
20
-1.25876570878194
30
0
41
1
10
8.32806836032714
20
-1.25290784985532
30
0
41
1
10
8.32542647407445
20
-1.24730766709956
30
0
41
1
10
8.31966887805106
20
-1.2363402640307
30
0
41
1
10
8.31653750682526
20
-1.2309811708628
30
0
41
1
10
8.30668672255899
20
-1.21512213133536
30
0
41
1
10
8.29951937043325
20
-1.20483592483416
30
0
41
1
10
8.27712564853189
20
-1.17436844427374
30
0
41
1
10
8.26100100116531
20
-1.15457403221632
30
0
41
1
10
8.22796013860892
20
-1.11556817230476
30
0
41
1
10
8.21096122662945
20
-1.09633539061329
30
0
41
1
10
8.17639407377931
20
-1.05813354979767
30
0
41
1
10
8.15881778178561
20
-1.03917032042926
30
0
41
1
10
8.14103108238407
20
-1.02028709833192
30
0
0
SPLINE
5
15E
100
AcDbEntity
8
1
62
256
6
ByLayer
370
18
48
1
60
0
100
AcDbSpline
70
4
71
3
72
22
73
18
40
0
40
0
40
0
40
0
40
0.25
40
0.25
40
0.374999999999999
40
0.374999999999999
40
0.499999999999999
40
0.499999999999999
40
0.624999999999999
40
0.624999999999999
40
0.687499999999999
40
0.687499999999999
40
0.749999999999999
40
0.749999999999999
40
0.874999999999999
40
0.874999999999999
40
1
40
1
40
1
40
1
41
1
10
6.65188959981191
20
0.52431236987178
30
0
41
1
10
6.64063705860033
20
0.539921699204967
30
0
41
1
10
6.63052077848127
20
0.556100460409027
30
0
41
1
10
6.61828294933335
20
0.581853777258686
30
0
41
1
10
6.61468386204825
20
0.590743046084015
30
0
41
1
10
6.60906182476594
20
0.609036087359186
30
0
41
1
10
6.60705329247702
20
0.618338763134716
30
0
41
1
10
6.60546929057242
20
0.637424590041661
30
0
41
1
10
6.60593090162268
20
0.646847769176247
30
0
41
1
10
6.60921516568561
20
0.660708140046609
30
0
41
1
10
6.6107681369057
20
0.665300592956953
30
0
41
1
10
6.61470862350876
20
0.673954961429075
30
0
41
1
10
6.61710366114133
20
0.678070512789759
30
0
41
1
10
6.62558891556085
20
0.689771601118025
30
0
41
1
10
6.63275299697671
20
0.696359158983284
30
0
41
1
10
6.64889599275892
20
0.707188617543409
30
0
41
1
10
6.65764535623089
20
0.71134084396337
30
0
41
1
10
6.66685533806537
20
0.71463747723638
30
0
0
SPLINE
5
15F
100
AcDbEntity
8
1
62
256
6
ByLayer
370
18
48
1
60
0
100
AcDbSpline
70
4
71
3
72
18
73
14
40
0
40
0
40
0
40
0
40
0.0625000000000007
40
0.0625000000000007
40
0.125000000000001
40
0.125000000000001
40
0.250000000000001
40
0.250000000000001
40
0.500000000000001
40
0.500000000000001
40
0.75
40
0.75
40
1
40
1
40
1
40
1
41
1
10
8.30316942211454
20
1.0768504030236
30
0
41
1
10
8.30134881167669
20
1.08180917229225
30
0
41
1
10
8.29917065116331
20
1.08656061761954
30
0
41
1
10
8.29444369506172
20
1.09584494114532
30
0
41
1
10
8.29188670859588
20
1.10037316472622
30
0
41
1
10
8.28384834937367
20
1.11373751398358
30
0
41
1
10
8.27800709328406
20
1.12235760792996
30
0
41
1
10
8.25973061145439
20
1.14774609113596
30
0
41
1
10
8.24652988588562
20
1.16406641342502
30
0
41
1
10
8.2193502807537
20
1.195992085466
30
0
41
1
10
8.205342800235
20
1.21157170370856
30
0
41
1
10
8.17683439631782
20
1.24223470999024
30
0
41
1
10
8.16232677307298
20
1.25731286068444
30
0
41
1
10
8.1476417015806
20
1.2721983566654
30
0
0
SPLINE
5
160
100
AcDbEntity
8
1
62
256
6
ByLayer
370
18
48
1
60
0
100
AcDbSpline
70
4
71
3
72
21
73
17
40
0
40
0
40
0
40
0
40
0.249999999999998
40
0.249999999999998
40
0.374999999999997
40
0.374999999999997
40
0.499999999999997
40
0.499999999999997
40
0.562499999999999
40
0.562499999999999
40
0.625000000000001
40
0.75
40
0.75
40
0.875
40
0.875
40
1
40
1
40
1
40
1
41
1
10
8.1476417015806
20
1.2721983566654
30
0
41
1
10
8.00398558189363
20
1.38535318228014
30
0
41
1
10
7.86705523171426
20
1.4993722436692
30
0
41
1
10
7.67295573333871
20
1.67058870306346
30
0
41
1
10
7.61013793381596
20
1.72768312046506
30
0
41
1
10
7.48845694153505
20
1.8415932700243
30
0
41
1
10
7.42959363245819
20
1.89841013331693
30
0
41
1
10
7.34440208879286
20
1.98309013351951
30
0
41
1
10
7.31646683795472
20
2.01128313774166
30
0
41
1
10
7.26221999999896
20
2.06682674982767
30
0
41
1
10
7.18310084826962
20
2.14905514465164
30
0
41
1
10
7.11061919833944
20
2.22771459548403
30
0
41
1
10
7.01966892051152
20
2.32879147304021
30
0
41
1
10
6.9770386570984
20
2.37742988785004
30
0
41
1
10
6.89728033188146
20
2.47016628552487
30
0
41
1
10
6.86015082038261
20
2.5142664505637
30
0
41
1
10
6.82570623418533
20
2.5556489283363
30
0
0
SPLINE
5
161
100
AcDbEntity
8
1
62
256
6
ByLayer
370
18
48
1
60
0
100
AcDbSpline
70
4
71
3
72
18
73
14
40
0
40
0
40
0
40
0
40
0.250000000000002
40
0.250000000000002
40
0.500000000000003
40
0.500000000000003
40
0.625000000000007
40
0.625000000000007
40
0.687500000000006
40
0.687500000000006
40
0.750000000000005
40
0.750000000000005
40
1
40
1
40
1
40
1
41
1
10
8.14103108238373
20
-1.02028709833223
30
0
41
1
10
8.0012213641709
20
-0.91193444008502
30
0
41
1
10
7.86503675020711
20
-0.798683047537082
30
0
41
1
10
7.60017164288854
20
-0.561708313051355
30
0
41
1
10
7.47149342529815
20
-0.437984624793671
30
0
41
1
10
7.28418904489251
20
-0.244017159423265
30
0
41
1
10
7.2227050643645
20
-0.177964184820525
30
0
41
1
10
7.13190103916011
20
-0.0767205973128853
30
0
41
1
10
7.10183463725284
20
-0.0425709584316962
30
0
41
1
10
7.04235017862135
20
0.0262559689447244
30
0
41
1
10
7.01296207488633
20
0.0608968697217165
30
0
41
1
10
6.86776852970991
20
0.235208915314445
30
0
41
1
10
6.75721081048209
20
0.378212619405844
30
0
41
1
10
6.65188959981191
20
0.52431236987178
30
0
0
SPLINE
5
162
100
AcDbEntity
8
1
62
256
6
ByLayer
370
13
48
1
60
0
100
AcDbSpline
70
4
71
3
72
13
73
9
40
0
40
0
40
0
40
0
40
0.0830607057580175
40
0.280417766034531
40
0.477774826311044
40
0.675131886587558
40
0.872488946864071
40
1
40
1
40
1
40
1
41
1
10
20.5656488510278
20
0.461935252466105
30
0
41
1
10
20.4604325673519
20
0.536250885189673
30
0
41
1
10
20.1052162836759
20
0.785571257452858
30
0
41
1
10
19.5
20
1.19227759591854
30
0
41
1
10
18.75
20
1.66214568973027
30
0
41
1
10
17.9999999999999
20
2.06637180044663
30
0
41
1
10
17.3384767018756
20
2.35988003983084
30
0
41
1
10
16.9269534037513
20
2.50473739263961
30
0
41
1
10
16.765430105627
20
2.55531451656989
30
0
0
SPLINE
5
163
100
AcDbEntity
8
1
62
256
6
ByLayer
370
18
48
1
60
0
100
AcDbSpline
70
4
71
3
72
8
73
4
40
0
40
0
40
0
40
0
40
1
40
1
40
1
40
1
41
1
10
20.3517523794028
20
0.534683520695978
30
0
41
1
10
20.3516655851934
20
0.534950549593248
30
0
41
1
10
20.3515786873609
20
0.535220293156556
30
0
41
1
10
20.351491686811
20
0.535492727660852
30
0
0
SPLINE
5
164
100
AcDbEntity
8
1
62
256
6
ByLayer
370
18
48
1
60
0
100
AcDbSpline
70
4
71
3
72
24
73
20
40
0
40
0
40
0
40
0
40
0.0625000000000243
40
0.0625000000000243
40
0.125000000000049
40
0.125000000000049
40
0.187500000000073
40
0.187500000000073
40
0.250000000000097
40
0.250000000000097
40
0.312500000000122
40
0.312500000000122
40
0.375000000000146
40
0.375000000000146
40
0.500000000000068
40
0.500000000000068
40
0.750000000000034
40
0.750000000000034
40
1
40
1
40
1
40
1
41
1
10
20.5639144093537
20
-2.83457086634903
30
0
41
1
10
20.5633567867674
20
-2.83509760426284
30
0
41
1
10
20.562465071524
20
-2.83578772792777
30
0
41
1
10
20.5597433392364
20
-2.83759403469304
30
0
41
1
10
20.5579728356971
20
-2.83866829466783
30
0
41
1
10
20.5535676207263
20
-2.84112505183956
30
0
41
1
10
20.5510235424915
20
-2.84245520168403
30
0
41
1
10
20.5454881489214
20
-2.84517962328303
30
0
41
1
10
20.5426002848663
20
-2.84652464539107
30
0
41
1
10
20.5366715635927
20
-2.84915448793362
30
0
41
1
10
20.5336190465407
20
-2.85044309552401
30
0
41
1
10
20.5275798438
20
-2.85288047792227
30
0
41
1
10
20.5245640068775
20
-2.85404241791196
30
0
41
1
10
20.5155150939192
20
-2.85738122689386
30
0
41
1
10
20.5094653785245
20
-2.85941437777882
30
0
41
1
10
20.4917354775216
20
-2.86487842689488
30
0
41
1
10
20.4802548466934
20
-2.86776503640877
30
0
41
1
10
20.4575434017398
20
-2.87236860000547
30
0
41
1
10
20.4464383225707
20
-2.87404998364153
30
0
41
1
10
20.4355434032279
20
-2.87516450320595
30
0
0
SPLINE
5
165
100
AcDbEntity
8
1
62
256
6
ByLayer
370
13
48
1
60
0
100
AcDbSpline
70
4
71
3
72
21
73
17
40
0
40
0
40
0
40
0
40
0.0271460336216017
40
0.0920029647134949
40
0.156859895805388
40
0.254145292443228
40
0.319002223535121
40
0.416287620172961
40
0.481144551264854
40
0.546001482356747
40
0.610858413448641
40
0.675715344540534
40
0.740572275632427
40
0.80542920672432
40
0.870286137816214
40
1
40
1
40
1
40
1
41
1
10
20.5639144093536
20
-2.83457086634903
30
0
41
1
10
20.4592762729024
20
-2.83998269408354
30
0
41
1
10
20.1046381364512
20
-2.84874624917251
30
0
41
1
10
19.5
20
-2.80836794947678
30
0
41
1
10
18.625
20
-2.63611602326128
30
0
41
1
10
17.7499999999999
20
-2.33377775141602
30
0
41
1
10
16.75
20
-1.85797952106623
30
0
41
1
10
15.875
20
-1.34361398475048
30
0
41
1
10
15
20
-0.768264257541517
30
0
41
1
10
14.25
20
-0.250590406148376
30
0
41
1
10
13.5
20
0.27788306873461
30
0
41
1
10
12.75
20
0.798295474349772
30
0
41
0.999999999999999
10
12
20
1.28937805921132
30
0
41
1
10
11.25
20
1.73554109582233
30
0
41
1
10
10.25
20
2.25393158789524
30
0
41
1
10
9.49999999999997
20
2.53373423240325
30
0
41
1
10
8.99999999999997
20
2.65737974355378
30
0
0
SPLINE
5
166
100
AcDbEntity
8
1
62
256
6
ByLayer
370
18
48
1
60
0
100
AcDbSpline
70
4
71
3
72
8
73
4
40
0
40
0
40
0
40
0
40
1
40
1
40
1
40
1
41
1
10
20.3521578915203
20
-2.90301285648735
30
0
41
1
10
20.3519746759468
20
-2.90202883811566
30
0
41
1
10
20.3517909731385
20
-2.90105625919387
30
0
41
1
10
20.3516067919107
20
-2.90009491275211
30
0
0
SPLINE
5
167
100
AcDbEntity
8
1
62
256
6
ByLayer
370
18
48
1
60
0
100
AcDbSpline
70
4
71
3
72
14
73
10
40
0
40
0
40
0
40
0
40
0.25
40
0.25
40
0.5
40
0.5
40
0.75
40
0.75
40
1
40
1
40
1
40
1
41
1
10
20.3516067919117
20
-2.90009491275544
30
0
41
1
10
20.3512436092263
20
-2.89819925603703
30
0
41
1
10
20.3511838729896
20
-2.89623228952192
30
0
41
1
10
20.3519458824579
20
-2.89209142853053
30
0
41
1
10
20.3528108002748
20
-2.88990113432061
30
0
41
1
10
20.3557278025116
20
-2.8859848176325
30
0
41
1
10
20.3578353438941
20
-2.88428282595103
30
0
41
1
10
20.3622876973639
20
-2.88210972017126
30
0
41
1
10
20.3645654042949
20
-2.88157938920719
30
0
41
1
10
20.3666989792776
20
-2.88138741109069
30
0
0
SPLINE
5
168
100
AcDbEntity
8
1
62
256
6
ByLayer
370
18
48
1
60
0
100
AcDbSpline
70
4
71
3
72
10
73
6
40
0
40
0
40
0
40
0
40
0.634879546531832
40
0.634879546531832
40
1
40
1
40
1
40
1
41
1
10
20.4355434032276
20
-2.87516450320598
30
0
41
1
10
20.4209860441752
20
-2.87649907141079
30
0
41
1
10
20.406423466125
20
-2.87781433691057
30
0
41
1
10
20.3834710589301
20
-2.87987845916371
30
0
41
1
10
20.3750867011847
20
-2.88063268764864
30
0
41
1
10
20.3666989792831
20
-2.88138741109017
30
0
0
SPLINE
5
169
100
AcDbEntity
8
1
62
256
6
ByLayer
370
18
48
1
60
0
100
AcDbSpline
70
4
71
3
72
34
73
30
40
0
40
0
40
0
40
0
40
0.0312499999999908
40
0.0312499999999908
40
0.0624999999999817
40
0.0624999999999817
40
0.124999999999974
40
0.124999999999974
40
0.15624999999997
40
0.15624999999997
40
0.187499999999966
40
0.187499999999966
40
0.249999999999968
40
0.249999999999968
40
0.312499999999971
40
0.312499999999971
40
0.374999999999974
40
0.374999999999974
40
0.437499999999976
40
0.437499999999976
40
0.499999999999979
40
0.499999999999979
40
0.624999999999984
40
0.624999999999984
40
0.74999999999999
40
0.74999999999999
40
0.874999999999995
40
0.874999999999995
40
1
40
1
40
1
40
1
41
1
10
6.66685533806535
20
0.71463747723638
30
0
41
1
10
6.68643262264789
20
0.721644996785301
30
0
41
1
10
6.70620620225617
20
0.72747157613847
30
0
41
1
10
6.74605253318339
20
0.737331678897419
30
0
41
1
10
6.76612609031409
20
0.741360261877077
30
0
41
1
10
6.82671173406666
20
0.751264639174337
30
0
41
1
10
6.86758436832375
20
0.754986111192125
30
0
41
1
10
6.92942321117997
20
0.757412021616943
30
0
41
1
10
6.95015603435408
20
0.757683911206044
30
0
41
1
10
6.99148238649934
20
0.757283066911384
30
0
41
1
10
7.01210842461862
20
0.756612714913871
30
0
41
1
10
7.07388852630754
20
0.753360713767933
30
0
41
1
10
7.1149452231044
20
0.749546436799676
30
0
41
1
10
7.19684669044696
20
0.739225398048205
30
0
41
1
10
7.23769574549093
20
0.732708854916069
30
0
41
1
10
7.31877107397958
20
0.717449737986243
30
0
41
1
10
7.35905929663863
20
0.708698080589215
30
0
41
1
10
7.43920444228823
20
0.689237903530994
30
0
41
1
10
7.4790849273312
20
0.678519278418804
30
0
41
1
10
7.55814925463892
20
0.655426382238034
30
0
41
1
10
7.59737209627321
20
0.643043060621352
30
0
41
1
10
7.71421765119737
20
0.603642146743709
30
0
41
1
10
7.79102127152441
20
0.574383689118235
30
0
41
1
10
7.9428513671044
20
0.510874977694357
30
0
41
1
10
8.01786962981819
20
0.476613225245387
30
0
41
1
10
8.1658212835369
20
0.404141326034107
30
0
41
1
10
8.23888114904426
20
0.365870222167615
30
0
41
1
10
8.38320691205232
20
0.286068255995019
30
0
41
1
10
8.45447601729211
20
0.244537240606235
30
0
41
1
10
8.52502631651848
20
0.201661625443506
30
0
0
SPLINE
5
16A
100
AcDbEntity
8
1
62
256
6
ByLayer
370
18
48
1
60
0
100
AcDbSpline
70
4
71
3
72
24
73
20
40
0
40
0
40
0
40
0
40
0.062500000000015
40
0.062500000000015
40
0.12500000000003
40
0.12500000000003
40
0.187500000000045
40
0.187500000000045
40
0.25000000000006
40
0.25000000000006
40
0.312500000000075
40
0.312500000000075
40
0.37500000000009
40
0.37500000000009
40
0.50000000000012
40
0.50000000000012
40
0.75000000000006
40
0.75000000000006
40
1
40
1
40
1
40
1
41
1
10
20.5673228840825
20
-1.95860166181242
30
0
41
1
10
20.5667905758007
20
-1.96154000697482
30
0
41
1
10
20.5659169613145
20
-1.96448155174173
30
0
41
1
10
20.5631807928215
20
-1.97035732757473
30
0
41
1
10
20.5613881947649
20
-1.97312543098241
30
0
41
1
10
20.5568443195966
20
-1.97824612430122
30
0
41
1
10
20.5542134891711
20
-1.98045326055021
30
0
41
1
10
20.5484917277792
20
-1.98417589793934
30
0
41
1
10
20.5455058957629
20
-1.98563771767516
30
0
41
1
10
20.5393536587673
20
-1.9880117491638
30
0
41
1
10
20.5362100953971
20
-1.98890780097483
30
0
41
1
10
20.529982831595
20
-1.99025267224505
30
0
41
1
10
20.5268697071681
20
-1.99071037965106
30
0
41
1
10
20.5175206888648
20
-1.99160359236109
30
0
41
1
10
20.5113133129862
20
-1.99155838226557
30
0
41
1
10
20.493097766727
20
-1.9902333035636
30
0
41
1
10
20.481234283882
20
-1.98778896308048
30
0
41
1
10
20.4578790982256
20
-1.98106362582055
30
0
41
1
10
20.4464839161592
20
-1.97677575932536
30
0
41
1
10
20.4352710616606
20
-1.97174157621754
30
0
0
SPLINE
5
16B
100
AcDbEntity
8
1
62
256
6
ByLayer
370
13
48
1
60
0
100
AcDbSpline
70
4
71
3
72
17
73
13
40
0
40
0
40
0
40
0
40
0.0475758815560732
40
0.160022581611208
40
0.272469281666342
40
0.384915981721477
40
0.497362681776611
40
0.609809381831746
40
0.72225608188688
40
0.834702781942015
40
0.947149481997149
40
1
40
1
40
1
40
1
41
1
10
20.5673228840824
20
-1.95860166181239
30
0
41
1
10
20.4615485893883
20
-1.9027031154215
30
0
41
1
10
20.1057742946941
20
-1.70741976280485
30
0
41
1
10
19.5
20
-1.34109238084582
30
0
41
1
10
18.75
20
-0.829689169463904
30
0
41
1
10
17.9999999999999
20
-0.295382273187386
30
0
41
1
10
17.2499999999999
20
0.25060470428528
30
0
41
1
10
16.4999999999999
20
0.789984154245019
30
0
41
1
10
15.75
20
1.30090935041039
30
0
41
1
10
15
20
1.76223201872577
30
0
41
1
10
14.3824987350075
20
2.08796345447308
30
0
41
1
10
14.014997470015
20
2.254085639062
30
0
41
1
10
13.8974962050224
20
2.30412933202814
30
0
0
SPLINE
5
16C
100
AcDbEntity
8
1
62
256
6
ByLayer
370
18
48
1
60
0
100
AcDbSpline
70
4
71
3
72
14
73
10
40
0
40
0
40
0
40
0
40
0.25
40
0.25
40
0.5
40
0.5
40
0.75
40
0.75
40
1
40
1
40
1
40
1
41
1
10
20.3513377428883
20
-1.95409227544599
30
0
41
1
10
20.3509945087554
20
-1.95165131332016
30
0
41
1
10
20.3509642940852
20
-1.94921732023167
30
0
41
1
10
20.3518515439145
20
-1.94456132964757
30
0
41
1
10
20.3527920022644
20
-1.942379924541
30
0
41
1
10
20.3558554240093
20
-1.93919466851878
30
0
41
1
10
20.3579455143618
20
-1.93831649404058
30
0
41
1
10
20.362291769758
20
-1.93812689198941
30
0
41
1
10
20.3644830551593
20
-1.93872905162399
30
0
41
1
10
20.3665576706294
20
-1.93969442830098
30
0
0
SPLINE
5
16D
100
AcDbEntity
8
1
62
256
6
ByLayer
370
18
48
1
60
0
100
AcDbSpline
70
4
71
3
72
10
73
6
40
0
40
0
40
0
40
0
40
0.616057929356493
40
0.616057929356493
40
1
40
1
40
1
40
1
41
1
10
20.4352710616607
20
-1.9717415762176
30
0
41
1
10
20.4211689134127
20
-1.96516621580017
30
0
41
1
10
20.4070639145266
20
-1.95857864789619
30
0
41
1
10
20.3841576144446
20
-1.94788938373068
30
0
41
1
10
20.3753591592686
20
-1.94379000745468
30
0
41
1
10
20.3665576706121
20
-1.93969442830604
30
0
0
SPLINE
5
16E
100
AcDbEntity
8
1
62
256
6
ByLayer
370
18
48
1
60
0
100
AcDbSpline
70
4
71
3
72
8
73
4
40
0
40
0
40
0
40
0
40
1
40
1
40
1
40
1
41
1
10
17.567579990958
20
-2.75636558606092
30
0
41
1
10
17.5176071894262
20
-2.76458982119215
30
0
41
1
10
17.4676343878944
20
-2.77222913575147
30
0
41
1
10
17.4176615863625
20
-2.77928131820676
30
0
0
SPLINE
5
16F
100
AcDbEntity
8
1
62
256
6
ByLayer
370
13
48
1
60
0
100
AcDbSpline
70
4
71
3
72
16
73
12
40
0
40
0
40
0
40
0
40
0.0199178340256412
40
0.153565402113054
40
0.242663780837996
40
0.376311348925408
40
0.509958917012821
40
0.599057295737762
40
0.732704863825175
40
0.821803242550117
40
1
40
1
40
1
40
1
41
1
10
17.4176615863611
20
-2.77928131820696
30
0
41
1
10
17.3617743909074
20
-2.78716814238274
30
0
41
1
10
16.9308871954537
20
-2.84231345470281
30
0
41
1
10
16.25
20
-2.86018595758597
30
0
41
1
10
15.25
20
-2.73449131732994
30
0
41
1
10
14.2499999999999
20
-2.46420587319076
30
0
41
1
10
13.2499999999999
20
-2.03737077722988
30
0
41
1
10
12.25
20
-1.50548405694701
30
0
41
1
10
11.375
20
-0.969755852842525
30
0
41
1
10
10.25
20
-0.224512219854546
30
0
41
1
10
9.49999999999997
20
0.291369251701184
30
0
41
1
10
8.99999999999997
20
0.619519771012875
30
0
0
SPLINE
5
170
100
AcDbEntity
8
1
62
256
6
ByLayer
370
18
48
1
60
0
100
AcDbSpline
70
4
71
3
72
10
73
6
40
0
40
0
40
0
40
0
40
0.625576121784148
40
0.625576121784148
40
1
40
1
40
1
40
1
41
1
10
20.4354028610797
20
0.48886165844624
30
0
41
1
10
20.4210725591787
20
0.498550785693226
30
0
41
1
10
20.4067382585484
20
0.50823220135004
30
0
41
1
10
20.3838116996358
20
0.523688710412245
30
0
41
1
10
20.3752235727405
20
0.529470442377544
30
0
41
1
10
20.3666322324604
20
0.535247550188359
30
0
0
SPLINE
5
171
100
AcDbEntity
8
1
62
256
6
ByLayer
370
13
48
1
60
0
100
AcDbSpline
70
4
71
3
72
12
73
8
40
0
40
0
40
0
40
0
40
0.0823565031228436
40
0.0823565031228436
40
0.742961013864881
40
0.742961013864881
40
1
40
1
40
1
40
1
41
1
10
20.3666322324715
20
0.535247550197028
30
0
41
1
10
20.3681809188735
20
0.524050353898787
30
0
41
1
10
20.3697296065897
20
0.512853162203044
30
0
41
1
10
20.3837007627992
20
0.411840210380802
30
0
41
1
10
20.3961233143538
20
0.322024741135209
30
0
41
1
10
20.4133795539447
20
0.197262779452927
30
0
41
1
10
20.4182065128619
20
0.162315110884151
30
0
41
1
10
20.4230365291123
20
0.127367520314834
30
0
0
SPLINE
5
172
100
AcDbEntity
8
1
62
256
6
ByLayer
370
18
48
1
60
0
100
AcDbSpline
70
4
71
3
72
14
73
10
40
0
40
0
40
0
40
0
40
0.25
40
0.25
40
0.5
40
0.5
40
0.75
40
0.75
40
1
40
1
40
1
40
1
41
1
10
20.3514916868135
20
0.535492727647522
30
0
41
1
10
20.3511272745666
20
0.536633852269972
30
0
41
1
10
20.351070191717
20
0.537655308110317
30
0
41
1
10
20.3518850754491
20
0.539307743856057
30
0
41
1
10
20.3527773956369
20
0.539907310198487
30
0
41
1
10
20.3557626706036
20
0.54014141443173
30
0
41
1
10
20.357867918358
20
0.539712272336828
30
0
41
1
10
20.3622769207788
20
0.53793963495076
30
0
41
1
10
20.3645220732816
20
0.536666492614245
30
0
41
1
10
20.3666322324814
20
0.535247550190434
30
0
0
SPLINE
5
173
100
AcDbEntity
8
1
62
256
6
ByLayer
370
18
48
1
60
0
100
AcDbSpline
70
4
71
3
72
8
73
4
40
0
40
0
40
0
40
0
40
1
40
1
40
1
40
1
41
1
10
20.7356059908813
20
0.536592295213012
30
0
41
1
10
20.8016326102259
20
0.365644647057081
30
0
41
1
10
20.8676503340846
20
0.194740704376102
30
0
41
1
10
20.9336630731322
20
0.0238608269782503
30
0
0
SPLINE
5
174
100
AcDbEntity
8
1
62
256
6
ByLayer
370
18
48
1
60
0
100
AcDbSpline
70
4
71
3
72
19
73
15
40
0
40
0
40
0
40
0
40
0.125000000000024
40
0.125000000000024
40
0.250000000000049
40
0.250000000000049
40
0.500000000000081
40
0.500000000000081
40
0.750000000000113
40
0.750000000000113
40
0.812500000000098
40
0.812500000000098
40
0.875000000000083
40
1
40
1
40
1
40
1
41
1
10
20.7356059908814
20
0.536592295211904
30
0
41
1
10
20.7355986438166
20
0.532501519713747
30
0
41
1
10
20.7348812392754
20
0.528734310754032
30
0
41
1
10
20.7319680974651
20
0.521907360716568
30
0
41
1
10
20.7297501691063
20
0.51884535736491
30
0
41
1
10
20.720933600237
20
0.511152687620921
30
0
41
1
10
20.7120967347172
20
0.507919261462462
30
0
41
1
10
20.6885389573429
20
0.505659824986765
30
0
41
1
10
20.6744169838199
20
0.506669899269838
30
0
41
1
10
20.6538329560652
20
0.510783860560309
30
0
41
1
10
20.6495491514058
20
0.511757300669984
30
0
41
1
10
20.6407936242431
20
0.5139677944737
30
0
41
1
10
20.627363319182
20
0.517680686201828
30
0
41
1
10
20.6130909817044
20
0.522532553467755
30
0
41
1
10
20.6032174569919
20
0.526257102136526
30
0
0
SPLINE
5
175
100
AcDbEntity
8
1
62
256
6
ByLayer
370
18
48
1
60
0
100
AcDbSpline
70
4
71
3
72
12
73
8
40
0
40
0
40
0
40
0
40
0.500000000000004
40
0.500000000000004
40
0.750000000000002
40
0.750000000000002
40
1
40
1
40
1
40
1
41
1
10
20.603217456992
20
0.526257102136498
30
0
41
1
10
20.5947793150954
20
0.518581452033914
30
0
41
1
10
20.5866364270138
20
0.509589298240456
30
0
41
1
10
20.5765412756644
20
0.493458362936082
30
0
41
1
10
20.5735552547117
20
0.48764552348959
30
0
41
1
10
20.5687325808831
20
0.475352151089084
30
0
41
1
10
20.5668738124751
20
0.468835798024372
30
0
41
1
10
20.5656488510278
20
0.461935252466134
30
0
0
SPLINE
5
176
100
AcDbEntity
8
1
62
256
6
ByLayer
370
18
48
1
60
0
100
AcDbSpline
70
4
71
3
72
24
73
20
40
0
40
0
40
0
40
0
40
0.0624999999999999
40
0.0624999999999999
40
0.125
40
0.125
40
0.1875
40
0.1875
40
0.25
40
0.25
40
0.3125
40
0.3125
40
0.375
40
0.375
40
0.5
40
0.5
40
0.75
40
0.75
40
1
40
1
40
1
40
1
41
1
10
20.5656488510276
20
0.461935252466333
30
0
41
1
10
20.5651038349936
20
0.458869609362381
30
0
41
1
10
20.5642207207294
20
0.455981336771856
30
0
41
1
10
20.5614908324293
20
0.45069451404899
30
0
41
1
10
20.5597089501514
20
0.44844218252274
30
0
41
1
10
20.5552336655142
20
0.444815942197778
30
0
41
1
10
20.5526473786948
20
0.443534618665808
30
0
41
1
10
20.5470145216358
20
0.441872110383827
30
0
41
1
10
20.5440794976584
20
0.441508328065936
30
0
41
1
10
20.5380385284148
20
0.441393265590136
30
0
41
1
10
20.5349384842235
20
0.441651220960978
30
0
41
1
10
20.5288045776513
20
0.442572387183588
30
0
41
1
10
20.5257396921749
20
0.443237123682849
30
0
41
1
10
20.5165393760537
20
0.445665335653246
30
0
41
1
10
20.5104064702213
20
0.447858212532623
30
0
41
1
10
20.4924309484282
20
0.455242137565733
30
0
41
1
10
20.4807637849933
20
0.461289881234023
30
0
41
1
10
20.4577034453099
20
0.474434845698965
30
0
41
1
10
20.4464596248955
20
0.48148892392399
30
0
41
1
10
20.4354028610794
20
0.488861658446439
30
0
0
SPLINE
5
177
100
AcDbEntity
8
1
62
256
6
ByLayer
370
18
48
1
60
0
100
AcDbSpline
70
4
71
3
72
16
73
12
40
0
40
0
40
0
40
0
40
0.250000000000039
40
0.250000000000039
40
0.500000000000079
40
0.500000000000079
40
0.750000000000118
40
0.750000000000118
40
0.875000000000059
40
0.875000000000059
40
1
40
1
40
1
40
1
41
1
10
20.5249028467249
20
-2.86910418176927
30
0
41
1
10
20.5199806968925
20
-2.87015642455086
30
0
41
1
10
20.514904246311
20
-2.87119743998701
30
0
41
1
10
20.5042369484077
20
-2.87326977034175
30
0
41
1
10
20.4986403741069
20
-2.874302852292
30
0
41
1
10
20.486616564202
20
-2.8763651739292
30
0
41
1
10
20.4801951039627
20
-2.87739811527109
30
0
41
1
10
20.469112672803
20
-2.87898696803262
30
0
41
1
10
20.465227246266
20
-2.87951511698651
30
0
41
1
10
20.4567974559831
20
-2.88057710344623
30
0
41
1
10
20.4524478861644
20
-2.88108587873626
30
0
41
1
10
20.4478901634877
20
-2.88157066882513
30
0
0
SPLINE
5
178
100
AcDbEntity
8
1
62
256
6
ByLayer
370
18
48
1
60
0
100
AcDbSpline
70
4
71
3
72
8
73
4
40
0
40
0
40
0
40
0
40
1
40
1
40
1
40
1
41
1
10
20.4478901634877
20
-2.88157066882516
30
0
41
1
10
20.4399115958936
20
-2.88241388865362
30
0
41
1
10
20.4319666208954
20
-2.88325540831414
30
0
41
1
10
20.424064768982
20
-2.88409621943825
30
0
0
SPLINE
5
179
100
AcDbEntity
8
1
62
256
6
ByLayer
370
18
48
1
60
0
100
AcDbSpline
70
4
71
3
72
24
73
20
40
0
40
0
40
0
40
0
40
0.499999999999991
40
0.499999999999991
40
0.749999999999986
40
0.749999999999986
40
0.874999999999983
40
0.874999999999983
40
0.937499999999988
40
0.937499999999988
40
0.96874999999999
40
0.96874999999999
40
0.984374999999991
40
0.984374999999991
40
0.992187499999978
40
0.992187499999978
40
0.996093749999989
40
0.996093749999989
40
1
40
1
40
1
40
1
41
1
10
20.362627511906
20
-2.90061461524729
30
0
41
1
10
20.3701702710383
20
-2.89874506162343
30
0
41
1
10
20.3780495559792
20
-2.8965698012592
30
0
41
1
10
20.3913384886101
20
-2.89268628399489
30
0
41
1
10
20.3959954248802
20
-2.89129002107168
30
0
41
1
10
20.4039195417544
20
-2.88896106675372
30
0
41
1
10
20.4067048816246
20
-2.88814683366641
30
0
41
1
10
20.4114999004567
20
-2.88682168578663
30
0
41
1
10
20.413192055687
20
-2.88636347777964
30
0
41
1
10
20.4161514450219
20
-2.88562173414607
30
0
41
1
10
20.4172012102829
20
-2.8853660282808
30
0
41
1
10
20.4190728695975
20
-2.88494983861702
30
0
41
1
10
20.4197410783544
20
-2.88480611993572
30
0
41
1
10
20.4209554719093
20
-2.88456983875273
30
0
41
1
10
20.4213937935086
20
-2.88448763334128
30
0
41
1
10
20.4221939105811
20
-2.88435240053835
30
0
41
1
10
20.4224861317275
20
-2.88430495154006
30
0
41
1
10
20.4231800033347
20
-2.88420291059216
30
0
41
1
10
20.4236121734903
20
-2.88414437869616
30
0
41
1
10
20.4240647689821
20
-2.88409621943825
30
0
0
SPLINE
5
17A
100
AcDbEntity
8
1
62
256
6
ByLayer
370
18
48
1
60
0
100
AcDbSpline
70
4
71
3
72
8
73
4
40
0
40
0
40
0
40
0
40
1
40
1
40
1
40
1
41
1
10
20.3521578915194
20
-2.90301285647695
30
0
41
1
10
20.355652791581
20
-2.90227787808954
30
0
41
1
10
20.3591426579652
20
-2.90147837361468
30
0
41
1
10
20.362627511906
20
-2.90061461524732
30
0
0
SPLINE
5
17B
100
AcDbEntity
8
1
62
256
6
ByLayer
370
18
48
1
60
0
100
AcDbSpline
70
4
71
3
72
76
73
72
40
0
40
0
40
0
40
0
40
0.0312500000000001
40
0.0312500000000001
40
0.0625000000000001
40
0.0625000000000001
40
0.0937500000000002
40
0.0937500000000002
40
0.125
40
0.125
40
0.15625
40
0.15625
40
0.1875
40
0.1875
40
0.21875
40
0.21875
40
0.250000000000001
40
0.250000000000001
40
0.281250000000001
40
0.281250000000001
40
0.296875000000001
40
0.296875000000001
40
0.312500000000001
40
0.312500000000001
40
0.343750000000001
40
0.343750000000001
40
0.375000000000001
40
0.375000000000001
40
0.406250000000001
40
0.406250000000001
40
0.437500000000001
40
0.437500000000001
40
0.468750000000001
40
0.468750000000001
40
0.500000000000001
40
0.500000000000001
40
0.531250000000001
40
0.531250000000001
40
0.5625
40
0.5625
40
0.59375
40
0.59375
40
0.625
40
0.625
40
0.65625
40
0.65625
40
0.671875
40
0.671875
40
0.6875
40
0.6875
40
0.703125
40
0.703125
40
0.71875
40
0.71875
40
0.75
40
0.75
40
0.78125
40
0.78125
40
0.8125
40
0.8125
40
0.84375
40
0.84375
40
0.875
40
0.875
40
0.90625
40
0.90625
40
0.9375
40
0.9375
40
0.96875
40
0.96875
40
1
40
1
40
1
40
1
41
1
10
20.3521578915418
20
-2.90301285647627
30
0
41
1
10
20.2340246440822
20
-2.90757727354725
30
0
41
1
10
20.1156613518667
20
-2.90838309422756
30
0
41
1
10
19.878896261731
20
-2.90259675262135
30
0
41
1
10
19.7604323656338
20
-2.8960185086157
30
0
41
1
10
19.5237304513666
20
-2.87552600149138
30
0
41
1
10
19.4054455726521
20
-2.86158090667732
30
0
41
1
10
19.1693523326023
20
-2.82634819053567
30
0
41
1
10
19.0514667623294
20
-2.80506227964489
30
0
41
1
10
18.8154372734131
20
-2.75534846091486
30
0
41
1
10
18.6972262257508
20
-2.72692156979437
30
0
41
1
10
18.460652725654
20
-2.66334208780489
30
0
41
1
10
18.3422339168312
20
-2.62815797417087
30
0
41
1
10
18.1053732112938
20
-2.55127903910287
30
0
41
1
10
17.9868765506591
20
-2.50956628854792
30
0
41
1
10
17.7499714054896
20
-2.41987769194952
30
0
41
1
10
17.6315241572988
20
-2.3718814254126
30
0
41
1
10
17.3950010837079
20
-2.26996624054951
30
0
41
1
10
17.2768408390217
20
-2.21602700240007
30
0
41
1
10
17.0994874075153
20
-2.13084373120645
30
0
41
1
10
17.0403364320802
20
-2.10173030157037
30
0
41
1
10
16.9220890565773
20
-2.04219050780784
30
0
41
1
10
16.8629782981692
20
-2.0117583304515
30
0
41
1
10
16.6856209275906
20
-1.91853940029597
30
0
41
1
10
16.5674166996012
20
-1.85385731408744
30
0
41
1
10
16.3312135153169
20
-1.72000222980955
30
0
41
1
10
16.2131502502746
20
-1.65079371929446
30
0
41
1
10
15.9767556189367
20
-1.50819562691473
30
0
41
1
10
15.8585334277704
20
-1.43487366310211
30
0
41
1
10
15.6219932095452
20
-1.28484719782531
30
0
41
1
10
15.5037649594116
20
-1.20819631222327
30
0
41
1
10
15.2673574378979
20
-1.05214208623818
30
0
41
1
10
15.1491394819538
20
-0.972714153361608
30
0
41
1
10
14.9123709399
20
-0.81144096827623
30
0
41
1
10
14.7940100796066
20
-0.729730594480685
30
0
41
1
10
14.5571937336951
20
-0.564547268935883
30
0
41
1
10
14.4389417311246
20
-0.481219908901181
30
0
41
1
10
14.2025023301797
20
-0.313435811292635
30
0
41
1
10
14.0842833933484
20
-0.228962459022227
30
0
41
1
10
13.8476607732703
20
-0.0595394967227776
30
0
41
1
10
13.7293996527602
20
0.025358663620267
30
0
41
1
10
13.4929060978378
20
0.195038743698916
30
0
41
1
10
13.3747103497968
20
0.279799579338175
30
0
41
1
10
13.1384465930884
20
0.448437929565188
30
0
41
1
10
13.0204329231327
20
0.53219649598222
30
0
41
1
10
12.8432792447679
20
0.656601141439893
30
0
41
1
10
12.7842116291311
20
0.69786793663252
30
0
41
1
10
12.6660036610324
20
0.779939394094043
30
0
41
1
10
12.6068474100164
20
0.820756205605903
30
0
41
1
10
12.4885690572219
20
0.901793335106021
30
0
41
1
10
12.4294361990504
20
0.942021309320666
30
0
41
1
10
12.3111537020363
20
1.02184769283923
30
0
41
1
10
12.2519932525957
20
1.06145357552143
30
0
41
1
10
12.0746063917882
20
1.17910492463284
30
0
41
1
10
11.9563841944715
20
1.25602902879561
30
0
41
1
10
11.7198170462492
20
1.406536016633
30
0
41
1
10
11.6014053904158
20
1.48016713823185
30
0
41
1
10
11.3647128063856
20
1.62346230500762
30
0
41
1
10
11.246404946947
20
1.69313708198283
30
0
41
1
10
11.0098536585307
20
1.8280814922613
30
0
41
1
10
10.8915164411969
20
1.89341261622661
30
0
41
1
10
10.6551390501609
20
2.01897981292439
30
0
41
1
10
10.5370593271508
20
2.07924067312737
30
0
41
1
10
10.3008088812974
20
2.19428767821853
30
0
41
1
10
10.1825881496148
20
2.24908342535122
30
0
41
1
10
9.94616337964695
20
2.35287519670621
30
0
41
1
10
9.82789597876479
20
2.40187454386987
30
0
41
1
10
9.59147969671636
20
2.49349104565542
30
0
41
1
10
9.47321462988293
20
2.53616255178002
30
0
41
1
10
9.23667594497917
20
2.61479433153733
30
0
41
1
10
9.11842753566529
20
2.65075472507303
30
0
41
1
10
8.99999999999994
20
2.6833248298243
30
0
0
SPLINE
5
17C
100
AcDbEntity
8
1
62
256
6
ByLayer
370
18
48
1
60
0
100
AcDbSpline
70
4
71
3
72
24
73
20
40
0
40
0
40
0
40
0
40
0.0078125000000456
40
0.0078125000000456
40
0.0117187500000685
40
0.0117187500000685
40
0.0156250000000914
40
0.0156250000000914
40
0.0312500000001016
40
0.0312500000001016
40
0.0625000000000923
40
0.0625000000000923
40
0.125000000000086
40
0.125000000000086
40
0.250000000000071
40
0.250000000000071
40
0.500000000000047
40
0.500000000000047
40
1
40
1
40
1
40
1
41
1
10
20.4455320790332
20
-0.0400519294057347
30
0
41
1
10
20.4453025114023
20
-0.0397289754236851
30
0
41
1
10
20.445050136457
20
-0.0394074186867215
30
0
41
1
10
20.4445207233039
20
-0.0391257242612539
30
0
41
1
10
20.4443119209741
20
-0.0390861891954444
30
0
41
1
10
20.4439397774131
20
-0.039206470279737
30
0
41
1
10
20.4437910054013
20
-0.0393450719513169
30
0
41
1
10
20.4431961368673
20
-0.0401031716781688
30
0
41
1
10
20.4430256263227
20
-0.0408826479024071
30
0
41
1
10
20.4425231571134
20
-0.043120217001416
30
0
41
1
10
20.4423704450047
20
-0.044657880547561
30
0
41
1
10
20.4420085355464
20
-0.0492453028607258
30
0
41
1
10
20.4419494219855
20
-0.0523180682886561
30
0
41
1
10
20.4419106504506
20
-0.0615475610986209
30
0
41
1
10
20.4421081277113
20
-0.067697859390961
30
0
41
1
10
20.4429008437654
20
-0.0861448245405541
30
0
41
1
10
20.443733885007
20
-0.0984402425542896
30
0
41
1
10
20.446536641107
20
-0.135318080249903
30
0
41
1
10
20.4488511792425
20
-0.159884053147863
30
0
41
1
10
20.4513206268037
20
-0.184449605695363
30
0
0
SPLINE
5
17D
100
AcDbEntity
8
1
62
256
6
ByLayer
370
18
48
1
60
0
100
AcDbSpline
70
4
71
3
72
8
73
4
40
0
40
0
40
0
40
0
40
1
40
1
40
1
40
1
41
1
10
20.4455320790331
20
-0.0400519294055925
30
0
41
1
10
20.4531707793722
20
-0.0507979944400461
30
0
41
1
10
20.4603443426287
20
-0.0618389441285103
30
0
41
1
10
20.4670488032315
20
-0.0731771511117643
30
0
0
SPLINE
5
17E
100
AcDbEntity
8
1
62
256
6
ByLayer
370
18
48
1
60
0
100
AcDbSpline
70
4
71
3
72
20
73
16
40
0
40
0
40
0
40
0
40
0.249999999999982
40
0.249999999999982
40
0.499999999999965
40
0.499999999999965
40
0.625000000000013
40
0.625000000000013
40
0.750000000000061
40
0.750000000000061
40
0.875000000000109
40
0.875000000000109
40
0.937500000000055
40
0.937500000000055
40
1
40
1
40
1
40
1
41
1
10
20.5282051523851
20
0.0471478751831
30
0
41
1
10
20.5230661148995
20
0.0554349606235007
30
0
41
1
10
20.5177773685333
20
0.0636221270830504
30
0
41
1
10
20.5066955874059
20
0.0796631598101101
30
0
41
1
10
20.5008986005185
20
0.0875398697737069
30
0
41
1
10
20.4915667751207
20
0.098770568322351
30
0
41
1
10
20.4883469142858
20
0.102417502640407
30
0
41
1
10
20.4815707314084
20
0.109414421087962
30
0
41
1
10
20.4780036469476
20
0.112780904575203
30
0
41
1
10
20.4703573908971
20
0.118946488076887
30
0
41
1
10
20.4663136669749
20
0.12173298373429
30
0
41
1
10
20.4596798031212
20
0.125001163628525
30
0
41
1
10
20.4574105801629
20
0.12591446855393
30
0
41
1
10
20.4527171513623
20
0.12726963214152
30
0
41
1
10
20.4502699857184
20
0.127710319893566
30
0
41
1
10
20.447805437462
20
0.127823325010837
30
0
0
SPLINE
5
17F
100
AcDbEntity
8
1
62
256
6
ByLayer
370
18
48
1
60
0
100
AcDbSpline
70
4
71
3
72
8
73
4
40
0
40
0
40
0
40
0
40
1
40
1
40
1
40
1
41
1
10
20.4478054374621
20
0.127823325010752
30
0
41
1
10
20.4395258636945
20
0.128058298368359
30
0
41
1
10
20.4312671921025
20
0.127944582666743
30
0
41
1
10
20.4230365291123
20
0.127367520314749
30
0
0
SPLINE
5
180
100
AcDbEntity
8
1
62
256
6
ByLayer
370
18
48
1
60
0
100
AcDbSpline
70
4
71
3
72
24
73
20
40
0
40
0
40
0
40
0
40
0.500000000000039
40
0.500000000000039
40
0.750000000000063
40
0.750000000000063
40
0.875000000000074
40
0.875000000000074
40
0.93750000000008
40
0.93750000000008
40
0.968750000000077
40
0.968750000000077
40
0.984375000000066
40
0.984375000000066
40
0.992187500000048
40
0.992187500000048
40
0.996093750000024
40
0.996093750000024
40
1
40
1
40
1
40
1
41
1
10
20.3573505245474
20
0.493130273354353
30
0
41
1
10
20.3656132945372
20
0.431732229925501
30
0
41
1
10
20.3741602190292
20
0.370294182223489
30
0
41
1
10
20.3884458785419
20
0.278205607063768
30
0
41
1
10
20.3934338132843
20
0.247518002718721
30
0
41
1
10
20.4018728837032
20
0.201599334726495
30
0
41
1
10
20.404832480845
20
0.186308858447688
30
0
41
1
10
20.4099018305512
20
0.16348312886231
30
0
41
1
10
20.4116874992303
20
0.155888693273823
30
0
41
1
10
20.4147942554118
20
0.14459768609612
30
0
41
1
10
20.415894606093
20
0.140846649139746
30
0
41
1
10
20.4178451268991
20
0.135312554389742
30
0
41
1
10
20.4185402128469
20
0.133480275048811
30
0
41
1
10
20.419797090733
20
0.130819037274421
30
0
41
1
10
20.4202486493454
20
0.129943794694697
30
0
41
1
10
20.4210738680088
20
0.12871983907587
30
0
41
1
10
20.4213719273689
20
0.128325979033519
30
0
41
1
10
20.4220878262349
20
0.127646317872433
30
0
41
1
10
20.4225403633017
20
0.127332733494086
30
0
41
1
10
20.4230365291123
20
0.127367520314777
30
0
0
SPLINE
5
181
100
AcDbEntity
8
1
62
256
6
ByLayer
370
18
48
1
60
0
100
AcDbSpline
70
4
71
3
72
8
73
4
40
0
40
0
40
0
40
0
40
1
40
1
40
1
40
1
41
1
10
20.3517523794023
20
0.534683520694699
30
0
41
1
10
20.3536199155225
20
0.520836330886965
30
0
41
1
10
20.3554859627358
20
0.506985245382964
30
0
41
1
10
20.3573505245474
20
0.493130273354382
30
0
0
SPLINE
5
182
100
AcDbEntity
8
1
62
256
6
ByLayer
370
18
48
1
60
0
100
AcDbSpline
70
4
71
3
72
46
73
42
40
0
40
0
40
0
40
0
40
0.0656641906778184
40
0.0656641906778184
40
0.131328381355637
40
0.131328381355637
40
0.196992572033455
40
0.196992572033455
40
0.262656762711274
40
0.262656762711274
40
0.295488858050183
40
0.295488858050183
40
0.328320953389092
40
0.328320953389092
40
0.393985144066908
40
0.393985144066908
40
0.426817239405816
40
0.426817239405816
40
0.459649334744724
40
0.459649334744724
40
0.52531352542254
40
0.52531352542254
40
0.590977716100356
40
0.590977716100356
40
0.656641906778172
40
0.656641906778172
40
0.722306097455988
40
0.722306097455988
40
0.787970288133804
40
0.787970288133804
40
0.85363447881162
40
0.85363447881162
40
0.886466574150529
40
0.886466574150529
40
0.919298669489437
40
0.919298669489437
40
0.952130764828345
40
0.952130764828345
40
0.984962860167253
40
0.984962860167253
40
1
40
1
40
1
40
1
41
1
10
20.3517523794151
20
0.534683520689754
30
0
41
1
10
20.233618561386
20
0.619611941137094
30
0
41
1
10
20.1152418910658
20
0.703775949795585
30
0
41
1
10
19.8784569950782
20
0.869772383102628
30
0
41
1
10
19.7599788074641
20
0.951688591565954
30
0
41
1
10
19.523264933174
20
1.11298506029354
30
0
41
1
10
19.4049930212483
20
1.19247044599214
30
0
41
1
10
19.1689551811838
20
1.34817289977508
30
0
41
1
10
19.0510937852812
20
1.42440549399245
30
0
41
1
10
18.8740663751514
20
1.53575542677703
30
0
41
1
10
18.8149979000802
20
1.57238370282147
30
0
41
1
10
18.6968138875446
20
1.64447209982126
30
0
41
1
10
18.6376968953942
20
1.67993189072612
30
0
41
1
10
18.4602389471343
20
1.78453227774671
30
0
41
1
10
18.3418091898913
20
1.851882477906
30
0
41
1
10
18.1641346434209
20
1.9490667257044
30
0
41
1
10
18.1048812790427
20
1.98083380533251
30
0
41
1
10
17.9864683045877
20
2.0430028673081
30
0
41
1
10
17.9272931541164
20
2.07341543230544
30
0
41
1
10
17.7498089383605
20
2.16258880756976
30
0
41
1
10
17.6315390912139
20
2.21928571647081
30
0
41
1
10
17.3947988269582
20
2.32686116819056
30
0
41
1
10
17.2764576805903
20
2.37767801034411
30
0
41
1
10
17.039818263136
20
2.47294772910618
30
0
41
1
10
16.9215880282145
20
2.51737438038884
30
0
41
1
10
16.6850670736163
20
2.59950661753197
30
0
41
1
10
16.5669754223545
20
2.63714316991209
30
0
41
1
10
16.3307998762502
20
2.70534388061896
30
0
41
1
10
16.2126652243962
20
2.73592223359825
30
0
41
1
10
15.976244788569
20
2.78976318052369
30
0
41
1
10
15.8581655355506
20
2.81298158972211
30
0
41
1
10
15.6809520474451
20
2.84218979788937
30
0
41
1
10
15.6218654227238
20
2.85098943585919
30
0
41
1
10
15.5036245020686
20
2.86670310422076
30
0
41
1
10
15.4444513041036
20
2.8736187479532
30
0
41
1
10
15.3261253940386
20
2.8855369026891
30
0
41
1
10
15.2669672611948
20
2.8905408243262
30
0
41
1
10
15.1486206855174
20
2.89863118265248
30
0
41
1
10
15.0894171456616
20
2.90171768998337
30
0
41
1
10
15.003151561536
20
2.90481075048041
30
0
41
1
10
14.9760575862712
20
2.90558025304836
30
0
41
1
10
14.948966680103
20
2.90614760188026
30
0
0
SPLINE
5
183
100
AcDbEntity
8
1
62
256
6
ByLayer
370
13
48
1
60
0
100
AcDbSpline
70
4
71
3
72
8
73
4
40
0
40
0
40
0
40
0
40
1
40
1
40
1
40
1
41
1
10
20.4865936991903
20
-0.227496584948113
30
0
41
1
10
20.4800787338707
20
-0.17605677366933
30
0
41
1
10
20.4735637685511
20
-0.124616962390547
30
0
41
1
10
20.4670488032315
20
-0.0731771511117643
30
0
0
SPLINE
5
184
100
AcDbEntity
8
1
62
256
6
ByLayer
370
18
48
1
60
0
100
AcDbSpline
70
4
71
3
72
26
73
22
40
0
40
0
40
0
40
0
40
0.125
40
0.125
40
0.25
40
0.25
40
0.375
40
0.375
40
0.5
40
0.5
40
0.625
40
0.625
40
0.6875
40
0.6875
40
0.750000000000001
40
0.750000000000001
40
0.875000000000001
40
0.875000000000001
40
0.937500000000001
40
0.937500000000001
40
1
40
1
40
1
40
1
41
1
10
20.9864515721372
20
-0.377975961135064
30
0
41
1
10
20.9870953038331
20
-0.380766620127361
30
0
41
1
10
20.9860426446404
20
-0.383381693196469
30
0
41
1
10
20.9808034374862
20
-0.388287464357148
30
0
41
1
10
20.9766233948833
20
-0.390578835790223
30
0
41
1
10
20.9651853390797
20
-0.394842991522722
30
0
41
1
10
20.9578567501786
20
-0.396825762317121
30
0
41
1
10
20.9404690181198
20
-0.400372053046851
30
0
41
1
10
20.9304064534789
20
-0.401946440047908
30
0
41
1
10
20.9076198733943
20
-0.404708726037029
30
0
41
1
10
20.8948901667573
20
-0.405895798566803
30
0
41
1
10
20.8736991995382
20
-0.407371973299746
30
0
41
1
10
20.8663003034869
20
-0.407811433014103
30
0
41
1
10
20.8510096424518
20
-0.408575618407895
30
0
41
1
10
20.8430945423587
20
-0.40890205513648
30
0
41
1
10
20.8185466480643
20
-0.409715782724788
30
0
41
1
10
20.8011206582919
20
-0.410039429973239
30
0
41
1
10
20.7733261534677
20
-0.410183351664074
30
0
41
1
10
20.763784324176
20
-0.410174179054593
30
0
41
1
10
20.7441232857687
20
-0.410036715016986
30
0
41
1
10
20.7339728537829
20
-0.40990761537239
30
0
41
1
10
20.723649895354
20
-0.409718464081976
30
0
0
SPLINE
5
185
100
AcDbEntity
8
1
62
256
6
ByLayer
370
18
48
1
60
0
100
AcDbSpline
70
4
71
3
72
10
73
6
40
0
40
0
40
0
40
0
40
0.5
40
0.5
40
1
40
1
40
1
40
1
41
1
10
20.9337035908727
20
0.0237559431857335
30
0
41
1
10
20.9346971019659
20
0.0215276052193474
30
0
41
1
10
20.9354118036373
20
0.0200364272625677
30
0
41
1
10
20.9362107421667
20
0.0187084518319978
30
0
41
1
10
20.9362902397191
20
0.0188764949638767
30
0
41
1
10
20.9360690121179
20
0.0198265216106677
30
0
0
SPLINE
5
186
100
AcDbEntity
8
1
62
256
6
ByLayer
370
18
48
1
60
0
100
AcDbSpline
70
4
71
3
72
39
73
35
40
0
40
0
40
0
40
0
40
0.0327746868868223
40
0.0659516115462877
40
0.0994419452187132
40
0.133139616303484
40
0.167028746585064
40
0.201158056540722
40
0.235604589136827
40
0.270451718501121
40
0.305737663887858
40
0.341384515391216
40
0.377200791870613
40
0.413078838693468
40
0.449046187947223
40
0.485184862209204
40
0.5215857948497
40
0.591387551300532
40
0.664637134109591
40
0.74059089546978
40
0.819832745573578
40
0.831129836578259
40
0.842881716526201
40
0.85508362253973
40
0.867727078211276
40
0.88080054959072
40
0.894291833081438
40
0.908190853926348
40
0.922490858305485
40
0.937188660462943
40
0.952284488566192
40
0.967781361790249
40
0.983684291891822
40
1
40
1
40
1
40
1
41
1
10
20.9336938497134
20
0.0238228572956984
30
0
41
1
10
20.9330673999972
20
0.0231361531386369
30
0
41
1
10
20.9318068122612
20
0.0217543170292913
30
0
41
1
10
20.928710822835
20
0.019907607703999
30
0
41
1
10
20.9247116666579
20
0.018224796809136
30
0
41
1
10
20.9197205111
20
0.0167300136819222
30
0
41
1
10
20.9137594422935
20
0.0154254945094863
30
0
41
1
10
20.9068129276423
20
0.0143187120046093
30
0
41
1
10
20.8988622609047
20
0.013418186862026
30
0
41
1
10
20.8898791971798
20
0.0127378964894547
30
0
41
1
10
20.8798488085916
20
0.0122914051450209
30
0
41
1
10
20.868789260235
20
0.0120831498964549
30
0
41
1
10
20.8567459177443
20
0.0120993505447018
30
0
41
1
10
20.8437594123573
20
0.0123309929103357
30
0
41
1
10
20.8298472943413
20
0.0127783401748047
30
0
41
1
10
20.8149982387444
20
0.0134497816838177
30
0
41
1
10
20.7944093979858
20
0.014625584947197
30
0
41
1
10
20.7664559193023
20
0.0167026113820725
30
0
41
1
10
20.7293419134463
20
0.0201648850539868
30
0
41
1
10
20.6876479849326
20
0.0246433870414364
30
0
41
1
10
20.6552433950709
20
0.0286389069557629
30
0
41
1
10
20.6347461770372
20
0.0313566430983485
30
0
41
1
10
20.6276308817964
20
0.0323158700934982
30
0
41
1
10
20.6201903483765
20
0.0333362585653276
30
0
41
1
10
20.612425513619
20
0.0344189737108991
30
0
41
1
10
20.6043392902934
20
0.0355644998616924
30
0
41
1
10
20.595935230986
20
0.0367730482602155
30
0
41
1
10
20.5872163633724
20
0.038045194214277
30
0
41
1
10
20.5781843959062
20
0.0393820706709107
30
0
41
1
10
20.5688393661404
20
0.0407855124255434
30
0
41
1
10
20.5591802309274
20
0.0422576950828102
30
0
41
1
10
20.5492033585762
20
0.0438023184013048
30
0
41
1
10
20.5389099266485
20
0.0454194037438072
30
0
41
1
10
20.531913332639
20
0.0465417769049168
30
0
41
1
10
20.5283702162332
20
0.0471101532827731
30
0
0
SPLINE
5
187
100
AcDbEntity
8
1
62
256
6
ByLayer
370
18
48
1
60
0
100
AcDbSpline
70
4
71
3
72
30
73
26
40
0
40
0
40
0
40
0
40
0.124999999999809
40
0.124999999999809
40
0.187499999999713
40
0.187499999999713
40
0.218749999999699
40
0.218749999999699
40
0.234374999999732
40
0.234374999999732
40
0.249999999999766
40
0.249999999999766
40
0.265624999999799
40
0.265624999999799
40
0.281249999999832
40
0.281249999999832
40
0.31249999999984
40
0.31249999999984
40
0.374999999999855
40
0.374999999999855
40
0.499999999999884
40
0.499999999999884
40
0.749999999999942
40
0.749999999999942
40
1
40
1
40
1
40
1
41
1
10
20.4670488032316
20
-0.0731771511119064
30
0
41
1
10
20.4718688240596
20
-0.081328499452809
30
0
41
1
10
20.4769048435303
20
-0.0893775075115286
30
0
41
1
10
20.4855425604769
20
-0.10068411478278
30
0
41
1
10
20.4885918872009
20
-0.104341688903418
30
0
41
1
10
20.4938693963367
20
-0.109119723196557
30
0
41
1
10
20.4957570339117
20
-0.110603665116571
30
0
41
1
10
20.498910855786
20
-0.112289005800193
30
0
41
1
10
20.4999963972988
20
-0.11274627564103
30
0
41
1
10
20.5022777061766
20
-0.113324949018164
30
0
41
1
10
20.5034794324312
20
-0.113433905210769
30
0
41
1
10
20.5058107436913
20
-0.113132444433262
30
0
41
1
10
20.5069241760224
20
-0.112724869515859
30
0
41
1
10
20.5089345751503
20
-0.111520391964717
30
0
41
1
10
20.5098019591982
20
-0.110758820710288
30
0
41
1
10
20.5121539101868
20
-0.108184624572431
30
0
41
1
10
20.5133259806172
20
-0.106182531146373
30
0
41
1
10
20.5163489817748
20
-0.0999199462265778
30
0
41
1
10
20.5176606790202
20
-0.0954887052731408
30
0
41
1
10
20.5209821673387
20
-0.0820997394116034
30
0
41
1
10
20.5222935878748
20
-0.0728986312339543
30
0
41
1
10
20.525475708291
20
-0.045364509217336
30
0
41
1
10
20.526475093017
20
-0.0269079162492574
30
0
41
1
10
20.5279349159616
20
0.0100521864000598
30
0
41
1
10
20.5283107095048
20
0.0285669415513325
30
0
41
1
10
20.5285260335741
20
0.0470850398306766
30
0
0
SPLINE
5
188
100
AcDbEntity
8
1
62
256
6
ByLayer
370
18
48
1
60
0
100
AcDbSpline
70
4
71
3
72
26
73
22
40
0
40
0
40
0
40
0
40
0.0078124999999898
40
0.0078124999999898
40
0.0117187500000432
40
0.0117187500000432
40
0.0156250000000966
40
0.0156250000000966
40
0.0234375000001019
40
0.0234375000001019
40
0.0312500000001072
40
0.0312500000001072
40
0.0625000000001119
40
0.0625000000001119
40
0.125000000000104
40
0.125000000000104
40
0.250000000000093
40
0.250000000000093
40
0.500000000000065
40
0.500000000000065
40
1
40
1
40
1
40
1
41
1
10
20.4467303308105
20
-2.39641485794019
30
0
41
1
10
20.4465171736893
20
-2.39621371458784
30
0
41
1
10
20.4462904924013
20
-2.39602438795251
30
0
41
1
10
20.4458234873525
20
-2.39584360494047
30
0
41
1
10
20.4456459707783
20
-2.39580679527569
30
0
41
1
10
20.445273224875
20
-2.39585606214033
30
0
41
1
10
20.44510220167
20
-2.39594346802366
30
0
41
1
10
20.4446939567668
20
-2.3962693566744
30
0
41
1
10
20.4445321723974
20
-2.39654355897378
30
0
41
1
10
20.4442586993158
20
-2.39707981612
30
0
41
1
10
20.4441533080076
20
-2.39735532212398
30
0
41
1
10
20.4436983766071
20
-2.39873362522024
30
0
41
1
10
20.4435364767832
20
-2.39983541165123
30
0
41
1
10
20.4431342118395
20
-2.40314042295597
30
0
41
1
10
20.4430529153854
20
-2.40533906528665
30
0
41
1
10
20.4429464455542
20
-2.41190086653967
30
0
41
1
10
20.4430991146302
20
-2.41625014935033
30
0
41
1
10
20.4437554079818
20
-2.42927262116558
30
0
41
1
10
20.4444948425145
20
-2.43790621632738
30
0
41
1
10
20.4470099417755
20
-2.46373059764093
30
0
41
1
10
20.4491259602114
20
-2.48084918575694
30
0
41
1
10
20.4513946968748
20
-2.49791203226158
30
0
0
SPLINE
5
189
100
AcDbEntity
8
1
62
256
6
ByLayer
370
18
48
1
60
0
100
AcDbSpline
70
4
71
3
72
8
73
4
40
0
40
0
40
0
40
0
40
1
40
1
40
1
40
1
41
1
10
20.4467303308103
20
-2.39641485794007
30
0
41
1
10
20.4543267501244
20
-2.40358313474042
30
0
41
1
10
20.4614765172938
20
-2.41098479908848
30
0
41
1
10
20.4681742471167
20
-2.41862389980025
30
0
0
SPLINE
5
18A
100
AcDbEntity
8
1
62
256
6
ByLayer
370
18
48
1
60
0
100
AcDbSpline
70
4
71
3
72
30
73
26
40
0
40
0
40
0
40
0
40
0.125000000000014
40
0.125000000000014
40
0.187500000000047
40
0.187500000000047
40
0.218750000000031
40
0.218750000000031
40
0.234375000000062
40
0.234375000000062
40
0.250000000000093
40
0.250000000000093
40
0.281250000000071
40
0.281250000000071
40
0.312500000000049
40
0.312500000000049
40
0.375000000000037
40
0.375000000000037
40
0.50000000000003
40
0.50000000000003
40
0.625000000000023
40
0.625000000000023
40
0.750000000000016
40
0.750000000000016
40
1
40
1
40
1
40
1
41
1
10
20.4681742471166
20
-2.41862389980014
30
0
41
1
10
20.4731966470354
20
-2.42435220174849
30
0
41
1
10
20.478443287603
20
-2.42995085773956
30
0
41
1
10
20.4874552479093
20
-2.4375577612183
30
0
41
1
10
20.4906366934491
20
-2.43997660901783
30
0
41
1
10
20.4961627590545
20
-2.4429272304034
30
0
41
1
10
20.4981481341684
20
-2.44380492278091
30
0
41
1
10
20.5014517266896
20
-2.44462381146374
30
0
41
1
10
20.5025898571348
20
-2.44480690845177
30
0
41
1
10
20.5049869023137
20
-2.44488042689062
30
0
41
1
10
20.5062319289804
20
-2.44476033228276
30
0
41
1
10
20.5098579740611
20
-2.44380127145837
30
0
41
1
10
20.5118886874019
20
-2.44241719696146
30
0
41
1
10
20.5150585209323
20
-2.4392784838636
30
0
41
1
10
20.5162355559902
20
-2.43757426295483
30
0
41
1
10
20.5193003070912
20
-2.43230841544269
30
0
41
1
10
20.5206314273931
20
-2.42872527540911
30
0
41
1
10
20.5240137389087
20
-2.41796078530365
30
0
41
1
10
20.5253526122448
20
-2.41070649165016
30
0
41
1
10
20.5275149998481
20
-2.39630751523899
30
0
41
1
10
20.5282821554785
20
-2.38913078851391
30
0
41
1
10
20.5295193111497
20
-2.37479810272359
30
0
41
1
10
20.5299808295592
20
-2.36764275095615
30
0
41
1
10
20.5310882225379
20
-2.3461946529182
30
0
41
1
10
20.5314633345089
20
-2.33191650950445
30
0
41
1
10
20.5316738045681
20
-2.31765387799044
30
0
0
SPLINE
5
18B
100
AcDbEntity
8
1
62
256
6
ByLayer
370
18
48
1
60
0
100
AcDbSpline
70
4
71
3
72
20
73
16
40
0
40
0
40
0
40
0
40
0.250000000000032
40
0.250000000000032
40
0.500000000000064
40
0.500000000000064
40
0.625000000000084
40
0.625000000000084
40
0.750000000000104
40
0.750000000000104
40
0.875000000000124
40
0.875000000000124
40
0.937500000000062
40
0.937500000000062
40
1
40
1
40
1
40
1
41
1
10
20.531356196833
20
-2.31764919498562
30
0
41
1
10
20.5259892220083
20
-2.31142941022458
30
0
41
1
10
20.5204783230912
20
-2.30526703059121
30
0
41
1
10
20.5089657221601
20
-2.29316731261349
30
0
41
1
10
20.5029615664862
20
-2.28721320233188
30
0
41
1
10
20.493313770042
20
-2.27870369065366
30
0
41
1
10
20.4899882843259
20
-2.2759376910646
30
0
41
1
10
20.4829966138898
20
-2.27063167575554
30
0
41
1
10
20.4793227958757
20
-2.2680806310612
30
0
41
1
10
20.471435548465
20
-2.26341658621757
30
0
41
1
10
20.4672574715861
20
-2.2613075483641
30
0
41
1
10
20.4603353658299
20
-2.25888319690873
30
0
41
1
10
20.4579535171145
20
-2.2582157931457
30
0
41
1
10
20.452977655569
20
-2.25728496710971
30
0
41
1
10
20.4503593225598
20
-2.25702423354355
30
0
41
1
10
20.4476995556738
20
-2.25706403133049
30
0
0
SPLINE
5
18C
100
AcDbEntity
8
1
62
256
6
ByLayer
370
18
48
1
60
0
100
AcDbSpline
70
4
71
3
72
8
73
4
40
0
40
0
40
0
40
0
40
1
40
1
40
1
40
1
41
1
10
20.4476995556737
20
-2.25706403133066
30
0
41
1
10
20.4391010534211
20
-2.2573367115946
30
0
41
1
10
20.4305067692541
20
-2.2578993068519
30
0
41
1
10
20.4219186369643
20
-2.25886733520966
30
0
0
SPLINE
5
18D
100
AcDbEntity
8
1
62
256
6
ByLayer
370
18
48
1
60
0
100
AcDbSpline
70
4
71
3
72
24
73
20
40
0
40
0
40
0
40
0
40
0.500000000000003
40
0.500000000000003
40
0.750000000000006
40
0.750000000000006
40
0.875000000000008
40
0.875000000000008
40
0.937500000000014
40
0.937500000000014
40
0.968750000000012
40
0.968750000000012
40
0.984375000000009
40
0.984375000000009
40
0.992187500000006
40
0.992187500000006
40
0.996093750000003
40
0.996093750000003
40
1
40
1
40
1
40
1
41
1
10
20.3513377428884
20
-1.95409227544661
30
0
41
1
10
20.3604503228944
20
-2.00615919265528
30
0
41
1
10
20.3697773970284
20
-2.05791677950793
30
0
41
1
10
20.3852147390871
20
-2.13483686162437
30
0
41
1
10
20.3905831213354
20
-2.16036234499646
30
0
41
1
10
20.3996101182493
20
-2.1983214986966
30
0
41
1
10
20.4027684146587
20
-2.21092311798836
30
0
41
1
10
20.4081495490489
20
-2.22964030098518
30
0
41
1
10
20.410041168722
20
-2.23585171223851
30
0
41
1
10
20.413314950695
20
-2.24504135894193
30
0
41
1
10
20.4144723493058
20
-2.2480869936752
30
0
41
1
10
20.4165122948683
20
-2.2525552783367
30
0
41
1
10
20.417238170067
20
-2.25403119479796
30
0
41
1
10
20.4185425701804
20
-2.25616020283513
30
0
41
1
10
20.4190101231259
20
-2.25685808472608
30
0
41
1
10
20.4198617322766
20
-2.25782811492334
30
0
41
1
10
20.4201680977278
20
-2.25813896933809
30
0
41
1
10
20.4209096242724
20
-2.25867366518025
30
0
41
1
10
20.4213733226889
20
-2.25892880138932
30
0
41
1
10
20.4219186369644
20
-2.25886733520963
30
0
0
SPLINE
5
18E
100
AcDbEntity
8
1
62
256
6
ByLayer
370
18
48
1
60
0
100
AcDbSpline
70
4
71
3
72
78
73
74
40
0
40
0
40
0
40
0
40
0.0398081245043204
40
0.0398081245043204
40
0.0796162490086407
40
0.0796162490086407
40
0.0995203112608016
40
0.0995203112608016
40
0.119424373512963
40
0.119424373512963
40
0.139328435765123
40
0.139328435765123
40
0.159232498017284
40
0.159232498017284
40
0.199040622521608
40
0.199040622521608
40
0.218944684773769
40
0.218944684773769
40
0.23884874702593
40
0.23884874702593
40
0.278656871530251
40
0.278656871530251
40
0.318464996034574
40
0.318464996034574
40
0.358273120538895
40
0.358273120538895
40
0.378177182791056
40
0.378177182791056
40
0.398081245043216
40
0.398081245043216
40
0.437889369547536
40
0.437889369547536
40
0.457793431799695
40
0.457793431799695
40
0.477697494051855
40
0.477697494051855
40
0.517505618556172
40
0.517505618556172
40
0.557313743060489
40
0.557313743060489
40
0.597121867564807
40
0.597121867564807
40
0.636929992069124
40
0.636929992069124
40
0.676738116573441
40
0.676738116573441
40
0.6966421788256
40
0.6966421788256
40
0.716546241077759
40
0.716546241077759
40
0.756354365582076
40
0.756354365582076
40
0.776258427834235
40
0.776258427834235
40
0.796162490086394
40
0.796162490086394
40
0.816066552338552
40
0.816066552338552
40
0.835970614590711
40
0.835970614590711
40
0.87577873909503
40
0.87577873909503
40
0.89568280134719
40
0.89568280134719
40
0.91558686359935
40
0.91558686359935
40
0.955394988103669
40
0.955394988103669
40
0.975299050355829
40
0.975299050355829
40
0.99520311260799
40
0.99520311260799
40
1
40
1
40
1
40
1
41
1
10
20.3513377428881
20
-1.95409227544698
30
0
41
1
10
20.233198564713
20
-1.88896210494457
30
0
41
1
10
20.1147854616837
20
-1.8211260072442
30
0
41
1
10
19.8781316516542
20
-1.68098863399453
30
0
41
1
10
19.759824376521
20
-1.60863763445283
30
0
41
1
10
19.5823597120169
20
-1.4967335010881
30
0
41
1
10
19.5231871583615
20
-1.45885165984427
30
0
41
1
10
19.4049421869142
20
-1.38201378376871
30
0
41
1
10
19.3458745015226
20
-1.34306900306095
30
0
41
1
10
19.2277739903737
20
-1.26421041011466
30
0
41
1
10
19.1687216959179
20
-1.2242830607745
30
0
41
1
10
19.0507080666037
20
-1.14364861946027
30
0
41
1
10
18.9917389365822
20
-1.10293676046419
30
0
41
1
10
18.8148143237106
20
-0.979782030802738
30
0
41
1
10
18.6968083660306
20
-0.896361810493659
30
0
41
1
10
18.5193650112806
20
-0.769718839102637
30
0
41
1
10
18.4601549549484
20
-0.727241692254637
30
0
41
1
10
18.3418016470552
20
-0.64194513751346
30
0
41
1
10
18.2826314691855
20
-0.599106559452451
30
0
41
1
10
18.1051089448708
20
-0.470063717046429
30
0
41
1
10
17.9867517802235
20
-0.383323131128009
30
0
41
1
10
17.7498063017849
20
-0.208697479386814
30
0
41
1
10
17.6314010707921
20
-0.120972155402711
30
0
41
1
10
17.3945921259601
20
0.0547223295333481
30
0
41
1
10
17.2763790062502
20
0.142551195801502
30
0
41
1
10
17.0990985332627
20
0.273931891866425
30
0
41
1
10
17.0400111471234
20
0.317664452079356
30
0
41
1
10
16.9218020048553
20
0.404944777039645
30
0
41
1
10
16.862653294956
20
0.448512242823853
30
0
41
1
10
16.6853348549604
20
0.578654271499005
30
0
41
1
10
16.5672803940213
20
0.664677644145513
30
0
41
1
10
16.3901389710975
20
0.792219278135747
30
0
41
1
10
16.3310825007517
20
0.834485038219839
30
0
41
1
10
16.2129047150432
20
0.91845959949444
30
0
41
1
10
16.1537783410346
20
0.9601716606644
30
0
41
1
10
15.9764708055156
20
1.08420810956781
30
0
41
1
10
15.8582031207022
20
1.16554260030341
30
0
41
1
10
15.6218173573
20
1.32453522176647
30
0
41
1
10
15.5036800066966
20
1.40221418104005
30
0
41
1
10
15.2671965367748
20
1.55355965250021
30
0
41
1
10
15.1487741645295
20
1.62726831755344
30
0
41
1
10
14.9121926835854
20
1.76976038184057
30
0
41
1
10
14.7939446514007
20
1.83859765106675
30
0
41
1
10
14.5572649042476
20
1.97115774807131
30
0
41
1
10
14.4388236555551
20
2.03488176639198
30
0
41
1
10
14.2612975842752
20
2.12615612215308
30
0
41
1
10
14.2021083635423
20
2.15588120428095
30
0
41
1
10
14.0838214785528
20
2.21383265382013
30
0
41
1
10
14.0247105342976
20
2.24206827666347
30
0
41
1
10
13.8474125356818
20
2.32450548704057
30
0
41
1
10
13.7292751856168
20
2.37641992966908
30
0
41
1
10
13.551940419139
20
2.44935836243093
30
0
41
1
10
13.4928115602516
20
2.47284670922664
30
0
41
1
10
13.3746326492191
20
2.51805333655821
30
0
41
1
10
13.315564369562
20
2.53977522160935
30
0
41
1
10
13.1974116763568
20
2.58142671553145
30
0
41
1
10
13.1383426999896
20
2.60135688734206
30
0
41
1
10
13.0201954974432
20
2.63946244687244
30
0
41
1
10
12.9611081259585
20
2.65764216157001
30
0
41
1
10
12.7837527597263
20
2.70946404157448
30
0
41
1
10
12.6656186534464
20
2.740305127954
30
0
41
1
10
12.4883644985199
20
2.78079502769148
30
0
41
1
10
12.4292718791375
20
2.79332982013148
30
0
41
1
10
12.3110384003726
20
2.81642634800363
30
0
41
1
10
12.2518740660788
20
2.82698403289129
30
0
41
1
10
12.074409487052
20
2.85574210155079
30
0
41
1
10
11.9561570099797
20
2.87111716901868
30
0
41
1
10
11.7786988022737
20
2.88832226625081
30
0
41
1
10
11.7195358813813
20
2.89307313426929
30
0
41
1
10
11.6011589400891
20
2.90058121897579
30
0
41
1
10
11.541931197361
20
2.90333826712478
30
0
41
1
10
11.4684762660034
20
2.90549838721398
30
0
41
1
10
11.4542127032057
20
2.90585870722029
30
0
41
1
10
11.439950152072
20
2.90615978992793
30
0
0
SPLINE
5
18F
100
AcDbEntity
8
1
62
256
6
ByLayer
370
18
48
1
60
0
100
AcDbSpline
70
4
71
3
72
54
73
50
40
0
40
0
40
0
40
0
40
0.0157883431437799
40
0.0157883431437799
40
0.0567971621794563
40
0.0567971621794563
40
0.0978059812151327
40
0.0978059812151327
40
0.138814800250809
40
0.138814800250809
40
0.179823619286485
40
0.179823619286485
40
0.220832438322162
40
0.220832438322162
40
0.261841257357838
40
0.261841257357838
40
0.343858895429191
40
0.343858895429191
40
0.384867714464867
40
0.384867714464867
40
0.425876533500542
40
0.425876533500542
40
0.466885352536218
40
0.466885352536218
40
0.507894171571893
40
0.507894171571893
40
0.548902990607569
40
0.548902990607569
40
0.589911809643244
40
0.589911809643244
40
0.63092062867892
40
0.63092062867892
40
0.671929447714596
40
0.671929447714596
40
0.712938266750271
40
0.712938266750271
40
0.753947085785947
40
0.753947085785947
40
0.794955904821622
40
0.794955904821622
40
0.835964723857298
40
0.835964723857298
40
0.876973542892973
40
0.876973542892973
40
0.917982361928649
40
0.917982361928649
40
0.958991180964324
40
0.958991180964324
40
1
40
1
40
1
40
1
41
1
10
17.6517333348076
20
-2.77816200938685
30
0
41
1
10
17.606208646825
20
-2.78740473947525
30
0
41
1
10
17.5606794535995
20
-2.79616030047524
30
0
41
1
10
17.3968594559648
20
-2.82589934348331
30
0
41
1
10
17.2784527666523
20
-2.84407943797649
30
0
41
1
10
17.0417801044402
20
-2.87365936751667
30
0
41
1
10
16.9234489201752
20
-2.88506772989501
30
0
41
1
10
16.6868954066309
20
-2.90101834594242
30
0
41
1
10
16.5686177931052
20
-2.90556503607175
30
0
41
1
10
16.3321543686498
20
-2.90773470851201
30
0
41
1
10
16.2138913153509
20
-2.90535189324669
30
0
41
1
10
15.9775788595943
20
-2.89368457008595
30
0
41
1
10
15.8595107502594
20
-2.88440906687359
30
0
41
1
10
15.6232462091379
20
-2.8590718451419
30
0
41
1
10
15.5049850484548
20
-2.84299497314942
30
0
41
1
10
15.1502097001752
20
-2.78476420604304
30
0
41
1
10
14.9134989985084
20
-2.73257789792569
30
0
41
1
10
14.5585882448099
20
-2.63512554691175
30
0
41
1
10
14.4402626927973
20
-2.59944138928995
30
0
41
1
10
14.2037190163753
20
-2.5219175192039
30
0
41
1
10
14.085433585094
20
-2.48008632829155
30
0
41
1
10
13.8488835425507
20
-2.39090928473323
30
0
41
1
10
13.7305783304335
20
-2.34347412803933
30
0
41
1
10
13.4940806429059
20
-2.24307097091227
30
0
41
1
10
13.3758293702254
20
-2.19005785448442
30
0
41
1
10
13.1394409711073
20
-2.07878633804756
30
0
41
1
10
13.0211974422829
20
-2.02064302229002
30
0
41
1
10
12.7846922595648
20
-1.89995303773972
30
0
41
1
10
12.6663885566894
20
-1.83731007118541
30
0
41
1
10
12.4298366782759
20
-1.70779346647095
30
0
41
1
10
12.3115302221153
20
-1.6408488962592
30
0
41
1
10
12.074927008786
20
-1.50333212583035
30
0
41
1
10
11.9565392187073
20
-1.43282298299241
30
0
41
1
10
11.7198264674832
20
-1.28863435839457
30
0
41
1
10
11.6014393069138
20
-1.21490776454471
30
0
41
1
10
11.3648180181298
20
-1.06462457646504
30
0
41
1
10
11.2465375709086
20
-0.987976635854324
30
0
41
1
10
11.0100489228652
20
-0.832616320091432
30
0
41
1
10
10.8917498981139
20
-0.753862261384143
30
0
41
1
10
10.6554361378226
20
-0.594809529874624
30
0
41
1
10
10.5373723794233
20
-0.514502330864758
30
0
41
1
10
10.3011519501982
20
-0.352692352449594
30
0
41
1
10
10.1829437679537
20
-0.271141994942155
30
0
41
1
10
9.94652692067984
20
-0.107817633324686
30
0
41
1
10
9.82826362701906
20
-0.0259310415009395
30
0
41
1
10
9.5918054641171
20
0.137583446405301
30
0
41
1
10
9.47351496287823
20
0.219253195773376
30
0
41
1
10
9.23684211561744
20
0.381685421160341
30
0
41
1
10
9.11850888676773
20
0.462435820849748
30
0
41
1
10
8.99999999999997
20
0.542471487325798
30
0
0
SPLINE
5
190
100
AcDbEntity
8
1
62
256
6
ByLayer
370
18
48
1
60
0
100
AcDbSpline
70
4
71
3
72
8
73
4
40
0
40
0
40
0
40
0
40
1
40
1
40
1
40
1
41
1
10
9
20
0.54247148732577
30
0
41
1
10
8.91798169002575
20
0.595478442843529
30
0
41
1
10
8.83639621708284
20
0.648871742381147
30
0
41
1
10
8.75535938348318
20
0.702581090373513
30
0
0
SPLINE
5
191
100
AcDbEntity
8
1
62
256
6
ByLayer
370
18
48
1
60
0
100
AcDbSpline
70
4
71
3
72
8
73
4
40
0
40
0
40
0
40
0
40
1
40
1
40
1
40
1
41
1
10
20.4865779188622
20
-2.52185272328205
30
0
41
1
10
20.4805239847731
20
-2.52055521949143
30
0
41
1
10
20.4744656322631
20
-2.51926331451759
30
0
41
1
10
20.4684025884231
20
-2.51797764641444
30
0
0
SPLINE
5
192
100
AcDbEntity
8
1
62
256
6
ByLayer
370
18
48
1
60
0
100
AcDbSpline
70
4
71
1
72
4
73
2
40
0
40
0
40
1
40
1
41
1
10
8.9999747141056
20
2.80337081399151
30
0
41
1
10
9.00000000000011
20
2.80337620320012
30
0
0
SPLINE
5
193
100
AcDbEntity
8
1
62
256
6
ByLayer
370
13
48
1
60
0
100
AcDbSpline
70
4
71
3
72
16
73
12
40
0
40
0
40
0
40
0
40
0.0199181311657508
40
0.131776633145212
40
0.243635135124674
40
0.355493637104135
40
0.467352139083597
40
0.579210641063058
40
0.69106914304252
40
0.802927645021981
40
1
40
1
40
1
40
1
41
1
10
15.8835490652025
20
0.520406130799017
30
0
41
1
10
15.839032710135
20
0.551665429710653
30
0
41
1
10
15.5445163550675
20
0.757792526575656
30
0
41
1
10
15
20
1.12904455917825
30
0
41
1
10
14.25
20
1.5968867600001
30
0
41
1
10
13.5
20
2.00721328533362
30
0
41
1
10
12.75
20
2.34617649441705
30
0
41
0.999999999999999
10
12
20
2.59969529940068
30
0
41
1
10
11.25
20
2.75325981899599
30
0
41
1
10
10.3095498967655
20
2.82056889316812
30
0
41
1
10
9.61909979353109
20
2.74294422980185
30
0
41
1
10
9.17864969029665
20
2.64125692771955
30
0
0
SPLINE
5
194
100
AcDbEntity
8
1
62
256
6
ByLayer
370
18
48
1
60
0
100
AcDbSpline
70
4
71
3
72
8
73
4
40
0
40
0
40
0
40
0
40
1
40
1
40
1
40
1
41
1
10
20.4865936991903
20
-0.227496584948113
30
0
41
1
10
20.4805282163776
20
-0.2251477635985
30
0
41
1
10
20.474458456187
20
-0.222809865317373
30
0
41
1
10
20.4683841660861
20
-0.220483748712013
30
0
0
SPLINE
5
195
100
AcDbEntity
8
1
62
256
6
ByLayer
370
13
48
1
60
0
100
AcDbSpline
70
4
71
3
72
16
73
12
40
0
40
0
40
0
40
0
40
0.110130960433621
40
0.224222241372501
40
0.338313522311382
40
0.452404803250262
40
0.566496084189143
40
0.680587365128023
40
0.794678646066903
40
0.908769927005784
40
1
40
1
40
1
40
1
41
1
10
19.4739661054333
20
0.519327258673599
30
0
41
1
10
19.2326440702888
20
0.685762717856278
30
0
41
1
10
18.7413220351443
20
1.01883411272959
30
0
41
1
10
17.9999999999999
20
1.48632795201348
30
0
41
1
10
17.25
20
1.9044428927242
30
0
41
1
10
16.5
20
2.2563575387797
30
0
41
1
10
15.75
20
2.53081953269091
30
0
41
1
10
15
20
2.71630378689966
30
0
41
1
10
14.25
20
2.80089750651754
30
0
41
1
10
13.5500941170888
20
2.78821740779892
30
0
41
1
10
13.1001882341776
20
2.72843731633657
30
0
41
1
10
12.9002823512664
20
2.69186456210454
30
0
0
SPLINE
5
196
100
AcDbEntity
8
1
62
256
6
ByLayer
370
18
48
1
60
0
100
AcDbSpline
70
4
71
3
72
10
73
6
40
0
40
0
40
0
40
0
40
0.27883205063963
40
0.519221367093087
40
1
40
1
40
1
40
1
41
1
10
12.1199389850805
20
0.520567902644643
30
0
41
1
10
11.829959323387
20
0.716441738562423
30
0
41
1
10
11.2899796616935
20
1.07344403020201
30
0
41
1
10
10.25
20
1.70597539125331
30
0
41
1
10
9.5
20
2.08512045398274
30
0
41
1
10
8.99999999999997
20
2.2836066478437
30
0
0
SPLINE
5
197
100
AcDbEntity
8
1
62
256
6
ByLayer
370
18
48
1
60
0
100
AcDbSpline
70
4
71
3
72
10
73
6
40
0
40
0
40
0
40
0
40
0.5
40
0.5
40
1
40
1
40
1
40
1
41
1
10
8.75472416536607
20
2.44458143286272
30
0
41
1
10
8.79705715059742
20
2.43821529564508
30
0
41
1
10
8.83867561600698
20
2.43375572352753
30
0
41
1
10
8.92045311078476
20
2.42873081670504
30
0
41
1
10
8.96061262488234
20
2.42816418858868
30
0
41
1
10
8.99997963034201
20
2.42971222442495
30
0
0
SPLINE
5
198
100
AcDbEntity
8
1
62
256
6
ByLayer
370
18
48
1
60
0
100
AcDbSpline
70
4
71
3
72
17
73
13
40
0
40
0
40
0
40
0
40
0.260061128481905
40
0.260061128481905
40
0.325076410602382
40
0.325076410602382
40
0.39009169272286
40
0.52012225696381
40
0.52012225696381
40
0.780183385445705
40
0.780183385445705
40
1
40
1
40
1
40
1
41
1
10
9.00000000000011
20
-2.31197759557341
30
0
41
1
10
9.2440843565343
20
-2.42708995348599
30
0
41
1
10
9.487328061006
20
-2.52928786913896
30
0
41
1
10
9.79202943102797
20
-2.63957697971804
30
0
41
1
10
9.85306500113046
20
-2.66078251107959
30
0
41
1
10
9.97484936122882
20
-2.70128125954733
30
0
41
1
10
10.1571315374305
20
-2.75918134923808
30
0
41
1
10
10.3384474785584
20
-2.80849152127829
30
0
41
1
10
10.7003612858373
20
-2.89553358768825
30
0
41
1
10
10.9406889571976
20
-2.93821283307386
30
0
41
1
10
11.3850048610362
20
-2.98811896634979
30
0
41
1
10
11.5888721768727
20
-2.99976655639682
30
0
41
1
10
11.7938093258742
20
-2.99999500286609
30
0
0
SPLINE
5
199
100
AcDbEntity
8
1
62
256
6
ByLayer
370
18
48
1
60
0
100
AcDbSpline
70
4
71
3
72
20
73
16
40
0
40
0
40
0
40
0
40
0.104440902491638
40
0.231780499632064
40
0.295450298202276
40
0.359120096772489
40
0.486459693912915
40
0.550129492483127
40
0.61379929105334
40
0.741138888193766
40
0.804808686763978
40
0.868478485334191
40
0.932148283904404
40
0.995818082474617
40
1
40
1
40
1
40
1
41
1
10
8.99933709214028
20
-2.29218874488166
30
0
41
1
10
9.1327238501475
20
-2.35585579432041
30
0
41
1
10
9.42898723353687
20
-2.48902182169078
30
0
41
1
10
9.80740713566377
20
-2.63369508389729
30
0
41
1
10
10.1342349173507
20
-2.73922831418207
30
0
41
1
10
10.4615138220612
20
-2.83154955373129
30
0
41
1
10
10.7894882675044
20
-2.90335085960098
30
0
41
1
10
11.1179098090759
20
-2.95379033862741
30
0
41
1
10
11.446551044317
20
-2.98973517542109
30
0
41
1
10
11.7754109643463
20
-3.00354777373718
30
0
41
1
10
12.1042482019343
20
-2.99520524628116
30
0
41
1
10
12.3508082941329
20
-2.97787949159309
30
0
41
1
10
12.5972315818319
20
-2.94950328060742
30
0
41
1
10
12.766758787162
20
-2.92250756601743
30
0
41
1
10
12.8541587487282
20
-2.90656981317809
30
0
41
1
10
12.8595452594166
20
-2.90557989047156
30
0
0
SPLINE
5
19A
100
AcDbEntity
8
1
62
256
6
ByLayer
370
18
48
1
60
0
100
AcDbSpline
70
4
71
3
72
8
73
4
40
0
40
0
40
0
40
0
40
1
40
1
40
1
40
1
41
1
10
20.6153117048783
20
2.02419340938022
30
0
41
1
10
20.6495717318317
20
2.00278345809088
30
0
41
1
10
20.6834720428299
20
1.97959247687723
30
0
41
1
10
20.7170620291357
20
1.954331511091
30
0
0
SPLINE
5
19B
100
AcDbEntity
8
1
62
256
6
ByLayer
370
18
48
1
60
0
100
AcDbSpline
70
4
71
3
72
30
73
26
40
0
40
0
40
0
40
0
40
0.0916317086201541
40
0.0916317086201541
40
0.167329066235148
40
0.167329066235148
40
0.186253405638896
40
0.186253405638896
40
0.205177745042644
40
0.205177745042644
40
0.243026423850137
40
0.243026423850137
40
0.394421139080106
40
0.394421139080106
40
0.545815854310074
40
0.545815854310074
40
0.621513211925058
40
0.621513211925058
40
0.659361890732552
40
0.659361890732552
40
0.697210569540045
40
0.697210569540045
40
0.848605284770023
40
0.848605284770023
40
1
40
1
40
1
40
1
41
1
10
15.8204100492014
20
2.8153968357683
30
0
41
1
10
15.9660616700396
20
2.85265840416037
30
0
41
1
10
16.111815660449
20
2.88450867457965
30
0
41
1
10
16.3787545419457
20
2.93242191993187
30
0
41
1
10
16.4998070259147
20
2.95026491802773
30
0
41
1
10
16.6517310783237
20
2.96762458525555
30
0
41
1
10
16.6821463412166
20
2.97084925655608
30
0
41
1
10
16.7430439345927
20
2.97680001156886
30
0
41
1
10
16.7735484955397
20
2.97952780609927
30
0
41
1
10
16.8649926996653
20
2.98694314833122
30
0
41
1
10
16.9258260411439
20
2.99086153771177
30
0
41
1
10
17.2294658508388
20
3.00538171195072
30
0
41
1
10
17.4707192949071
20
3.00078877719398
30
0
41
1
10
17.9525623933194
20
2.96029959155339
30
0
41
1
10
18.1931027003483
20
2.92440244850897
30
0
41
1
10
18.5550960372222
20
2.84735886516646
30
0
41
1
10
18.675964090988
20
2.81780650339505
30
0
41
1
10
18.8578385663431
20
2.76768395682097
30
0
41
1
10
18.9185590384027
20
2.75001091773532
30
0
41
1
10
19.0402387349604
20
2.71273639796959
30
0
41
1
10
19.1012804787184
20
2.693106040175
30
0
41
1
10
19.4058420193505
20
2.59060899309921
30
0
41
1
10
19.647771747979
20
2.49467217501439
30
0
41
1
10
20.1311947654015
20
2.27768532364112
30
0
41
1
10
20.3726981968342
20
2.15662726723491
30
0
41
1
10
20.6153117048783
20
2.02419340938033
30
0
0
SPLINE
5
19C
100
AcDbEntity
8
1
62
256
6
ByLayer
370
18
48
1
60
0
100
AcDbSpline
70
4
71
3
72
16
73
12
40
0
40
0
40
0
40
0
40
0.250000000000002
40
0.250000000000002
40
0.500000000000003
40
0.500000000000003
40
0.750000000000005
40
0.750000000000005
40
0.875000000000002
40
0.875000000000002
40
1
40
1
40
1
40
1
41
1
10
20.6153117048779
20
2.02419340937991
30
0
41
1
10
20.6063046573869
20
2.0322646865053
30
0
41
1
10
20.5970308512672
20
2.04012652464726
30
0
41
1
10
20.5777510538694
20
2.05530596468677
30
0
41
1
10
20.5677187856023
20
2.06264676656488
30
0
41
1
10
20.5467099513729
20
2.07645785511951
30
0
41
1
10
20.5357796686051
20
2.08291442465122
30
0
41
1
10
20.518328566057
20
2.09153738459875
30
0
41
1
10
20.5123331034548
20
2.0942324193268
30
0
41
1
10
20.4998468621738
20
2.09913539493732
30
0
41
1
10
20.4933309896173
20
2.10134945465416
30
0
41
1
10
20.4866077988188
20
2.10316840162986
30
0
0
SPLINE
5
19D
100
AcDbEntity
8
1
62
256
6
ByLayer
370
18
48
1
60
0
100
AcDbSpline
70
4
71
3
72
14
73
10
40
0
40
0
40
0
40
0
40
0.499999999999917
40
0.499999999999917
40
0.749999999999958
40
0.749999999999958
40
0.874999999999979
40
0.874999999999979
40
1
40
1
40
1
40
1
41
1
10
20.4512484491602
20
2.13334043558549
30
0
41
1
10
20.4529852957616
20
2.12876495340757
30
0
41
1
10
20.4549322516851
20
2.12423568210028
30
0
41
1
10
20.4586254562509
20
2.11761889738324
30
0
41
1
10
20.4599847000496
20
2.11542959495188
30
0
41
1
10
20.4624862498648
20
2.11229989471514
30
0
41
1
10
20.4633979041423
20
2.11127985985343
30
0
41
1
10
20.4655349477812
20
2.10941250188859
30
0
41
1
10
20.4667455524867
20
2.10850984206198
30
0
41
1
10
20.4683649141081
20
2.10807662554444
30
0
0
SPLINE
5
19E
100
AcDbEntity
8
1
62
256
6
ByLayer
370
18
48
1
60
0
100
AcDbSpline
70
4
71
3
72
14
73
10
40
0
40
0
40
0
40
0
40
0.142140202421258
40
0.311597140212783
40
0.481054078004309
40
0.650511015795835
40
0.81996795358736
40
0.989424891378886
40
1
40
1
40
1
40
1
41
1
10
17.315697177354
20
2.99961587349415
30
0
41
1
10
17.4553179136844
20
2.99896385242005
30
0
41
1
10
17.7632270326988
20
2.98583016478435
30
0
41
1
10
18.2460818392449
20
2.9245570015737
30
0
41
1
10
18.7668203508867
20
2.81083306432564
30
0
41
1
10
19.2999143896039
20
2.6464018283842
30
0
41
1
10
19.8474686844953
20
2.42996617925883
30
0
41
1
10
20.2356341681978
20
2.24494846256763
30
0
41
1
10
20.4392738121724
20
2.13956544521585
30
0
41
1
10
20.4512484491603
20
2.13334043558567
30
0
0
SPLINE
5
19F
100
AcDbEntity
8
1
62
256
6
ByLayer
370
18
48
1
60
0
100
AcDbSpline
70
4
71
3
72
40
73
36
40
0
40
0
40
0
40
0
40
0.111847434699136
40
0.111847434699136
40
0.139809293373921
40
0.139809293373921
40
0.167771152048705
40
0.223694869398274
40
0.223694869398274
40
0.279618586747844
40
0.279618586747844
40
0.307580445422627
40
0.307580445422627
40
0.33554230409741
40
0.33554230409741
40
0.447389738796544
40
0.447389738796544
40
0.503313456146111
40
0.503313456146111
40
0.559237173495678
40
0.559237173495678
40
0.671084608194812
40
0.671084608194812
40
0.699046466869597
40
0.699046466869597
40
0.727008325544381
40
0.782932042893951
40
0.782932042893951
40
0.83885576024352
40
0.83885576024352
40
0.866817618918304
40
0.866817618918304
40
0.894779477593089
40
0.894779477593089
40
1
40
1
40
1
40
1
41
1
10
9.00000000000011
20
-0.132179504977358
30
0
41
1
10
9.24257299156898
20
-0.30505956199832
30
0
41
1
10
9.48441431609015
20
-0.476769271090433
30
0
41
1
10
9.7872594831436
20
-0.687949291372263
30
0
41
1
10
9.84789216021193
20
-0.730035111105764
30
0
41
1
10
9.9690585587758
20
-0.813664019545342
30
0
41
1
10
10.1506283920687
20
-0.938272399429678
30
0
41
1
10
10.3318430413466
20
-1.06014278853525
30
0
41
1
10
10.5734786106427
20
-1.21976676173369
30
0
41
1
10
10.694304338413
20
-1.29814721311738
30
0
41
1
10
10.875795856832
20
-1.41326728882964
30
0
41
1
10
10.9363351183803
20
-1.45123204481033
30
0
41
1
10
11.0575374347192
20
-1.52629169278813
30
0
41
1
10
11.1182074881021
20
-1.56338985612825
30
0
41
1
10
11.4211221680242
20
-1.74607078627892
30
0
41
1
10
11.6627431243094
20
-1.88362219632012
30
0
41
1
10
12.0257865351278
20
-2.07537400502483
30
0
41
1
10
12.1469006666617
20
-2.13685917186331
30
0
41
1
10
12.3895873782232
20
-2.25463921242206
30
0
41
1
10
12.5106599621047
20
-2.31069538469981
30
0
41
1
10
12.8734483940617
20
-2.47004395750051
30
0
41
1
10
13.1147528599248
20
-2.56455126392379
30
0
41
1
10
13.4174424350413
20
-2.66644121666758
30
0
41
1
10
13.478075333127
20
-2.68602033098924
30
0
41
1
10
13.5992271855453
20
-2.72344825356174
30
0
41
1
10
13.7807960039141
20
-2.77700203144167
30
0
41
1
10
13.9620736536217
20
-2.82275113238865
30
0
41
1
10
14.2038295467773
20
-2.87667289879667
30
0
41
1
10
14.3247331550809
20
-2.90009217129219
30
0
41
1
10
14.5063480941848
20
-2.92980213424136
30
0
41
1
10
14.5669296180344
20
-2.93880299183922
30
0
41
1
10
14.688215032416
20
-2.95498421314755
30
0
41
1
10
14.7489071240728
20
-2.96216143416766
30
0
41
1
10
15.0375607002368
20
-2.99190534082263
30
0
41
1
10
15.2649473054823
20
-3.00231152466603
30
0
41
1
10
15.4925167429165
20
-2.99958998371361
30
0
0
SPLINE
5
1A0
100
AcDbEntity
8
1
62
256
6
ByLayer
370
18
48
1
60
0
100
AcDbSpline
70
4
71
3
72
29
73
25
40
0
40
0
40
0
40
0
40
0.0217702153396504
40
0.0543695293583482
40
0.119568157395744
40
0.152167471414442
40
0.18476678543314
40
0.249965413470535
40
0.282564727489233
40
0.315164041507931
40
0.380362669545326
40
0.412961983564024
40
0.445561297582722
40
0.47816061160142
40
0.510759925620118
40
0.543359239638816
40
0.575958553657513
40
0.641157181694909
40
0.673756495713607
40
0.706355809732305
40
0.7715544377697
40
0.901951693844492
40
0.967150321881887
40
1
40
1
40
1
40
1
41
1
10
8.99933537345004
20
-0.101749309265926
30
0
41
1
10
9.05375579962407
20
-0.140545043333361
30
0
41
1
10
9.18970723468027
20
-0.237398923605809
30
0
41
1
10
9.48891009147303
20
-0.449737630692027
30
0
41
1
10
9.81570074004875
20
-0.679066344270524
30
0
41
1
10
10.1430183674694
20
-0.903727463256217
30
0
41
1
10
10.4707108541265
20
-1.12454010297756
30
0
41
1
10
10.798970068835
20
-1.33840175103234
30
0
41
1
10
11.1275934142102
20
-1.54297314422251
30
0
41
1
10
11.4563957398379
20
-1.74059512953619
30
0
41
1
10
11.785375395288
20
-1.92664955892431
30
0
41
1
10
12.1143307291222
20
-2.09915889514053
30
0
41
1
10
12.3609877167628
20
-2.22128923145132
30
0
41
1
10
12.6075278925756
20
-2.33569531243276
30
0
41
1
10
12.8538880272378
20
-2.44202095604456
30
0
41
1
10
13.0999946239151
20
-2.53989743853788
30
0
41
1
10
13.4277096488076
20
-2.65865337326738
30
0
41
1
10
13.7546589433242
20
-2.7591446979651
30
0
41
1
10
14.0805992272899
20
-2.84061690118185
30
0
41
1
10
14.4057544641789
20
-2.90916260583364
30
0
41
1
10
14.9729052233478
20
-2.99471067820394
30
0
41
1
10
15.6196037730288
20
-3.01321246800058
30
0
41
1
10
16.1895177080927
20
-2.95897467450115
30
0
41
1
10
16.4353790081502
20
-2.92046201710829
30
0
41
1
10
16.5179224839789
20
-2.90584916211853
30
0
0
SPLINE
5
1A1
100
AcDbEntity
8
1
62
256
6
ByLayer
370
18
48
1
60
0
100
AcDbSpline
70
4
71
3
72
10
73
6
40
0
40
0
40
0
40
0
40
0.5
40
0.5
40
1
40
1
40
1
40
1
41
1
10
20.6144636794628
20
-2.58088832421575
30
0
41
1
10
20.6338456921319
20
-2.58581708123455
30
0
41
1
10
20.6531584170155
20
-2.58954818854289
30
0
41
1
10
20.6916800956013
20
-2.59430766184872
30
0
41
1
10
20.7108887997666
20
-2.59533788683305
30
0
41
1
10
20.7300605720867
20
-2.59472247432447
30
0
0
SPLINE
5
1A2
100
AcDbEntity
8
1
62
256
6
ByLayer
370
18
48
1
60
0
100
AcDbSpline
70
4
71
3
72
16
73
12
40
0
40
0
40
0
40
0
40
0.250000000000024
40
0.250000000000024
40
0.500000000000048
40
0.500000000000048
40
0.750000000000072
40
0.750000000000072
40
0.875000000000036
40
0.875000000000036
40
1
40
1
40
1
40
1
41
1
10
20.6144636794624
20
-2.5808883242164
30
0
41
1
10
20.6055098408687
20
-2.57512968937934
30
0
41
1
10
20.5962944148321
20
-2.56945041798863
30
0
41
1
10
20.5771448724644
20
-2.55834925634596
30
0
41
1
10
20.5671877175709
20
-2.55291102770707
30
0
41
1
10
20.546328313644
20
-2.54254072538575
30
0
41
1
10
20.5354763260257
20
-2.53762048519803
30
0
41
1
10
20.5181438323798
20
-2.53096634372051
30
0
41
1
10
20.512188073395
20
-2.52887130478186
30
0
41
1
10
20.4997788888579
20
-2.52503810154019
30
0
41
1
10
20.4932918648608
20
-2.52329168351093
30
0
41
1
10
20.4865779188623
20
-2.52185272328197
30
0
0
SPLINE
5
1A3
100
AcDbEntity
8
1
62
256
6
ByLayer
370
18
48
1
60
0
100
AcDbSpline
70
4
71
3
72
16
73
12
40
0
40
0
40
0
40
0
40
0.500000000000222
40
0.500000000000222
40
0.750000000000234
40
0.750000000000234
40
0.875000000000117
40
0.875000000000117
40
0.937500000000059
40
0.937500000000059
40
1
40
1
40
1
40
1
41
1
10
20.4513946968953
20
-2.49791203225848
30
0
41
1
10
20.4531287553647
20
-2.50156862755495
30
0
41
1
10
20.4550672406706
20
-2.50517288368556
30
0
41
1
10
20.4587126963817
20
-2.51039895340631
30
0
41
1
10
20.4600429278205
20
-2.51211271951456
30
0
41
1
10
20.4624948655529
20
-2.51457523267345
30
0
41
1
10
20.4633861561734
20
-2.51538071007619
30
0
41
1
10
20.4650020831368
20
-2.51651732852278
30
0
41
1
10
20.4655775510335
20
-2.51687626823264
30
0
41
1
10
20.4668690751263
20
-2.51751844275091
30
0
41
1
10
20.4675814909317
20
-2.51780353273787
30
0
41
1
10
20.4684025884232
20
-2.51797764641447
30
0
0
SPLINE
5
1A4
100
AcDbEntity
8
1
62
256
6
ByLayer
370
18
48
1
60
0
100
AcDbSpline
70
4
71
3
72
16
73
12
40
0
40
0
40
0
40
0
40
0.249999999999975
40
0.249999999999975
40
0.49999999999995
40
0.49999999999995
40
0.749999999999925
40
0.749999999999925
40
0.874999999999962
40
0.874999999999962
40
1
40
1
40
1
40
1
41
1
10
20.6148854061786
20
-0.337520611964948
30
0
41
1
10
20.6059051126292
20
-0.326493092079232
30
0
41
1
10
20.5966607112196
20
-0.315697655025758
30
0
41
1
10
20.5774466922149
20
-0.294748572726945
30
0
41
1
10
20.567452797675
20
-0.284563933386266
30
0
41
1
10
20.5465179629281
20
-0.26528951282242
30
0
41
1
10
20.5356267432704
20
-0.256221955845206
30
0
41
1
10
20.5182358099381
20
-0.244043936324402
30
0
41
1
10
20.5122606560959
20
-0.240225205155838
30
0
41
1
10
20.4998144555684
20
-0.233258734609791
30
0
41
1
10
20.493312599217
20
-0.230098438141738
30
0
41
1
10
20.4865936991904
20
-0.227496584947886
30
0
0
SPLINE
5
1A5
100
AcDbEntity
8
1
62
256
6
ByLayer
370
18
48
1
60
0
100
AcDbSpline
70
4
71
3
72
14
73
10
40
0
40
0
40
0
40
0
40
0.500000000000001
40
0.500000000000001
40
0.75
40
0.75
40
0.875
40
0.875
40
1
40
1
40
1
40
1
41
1
10
20.4513206268043
20
-0.184449605695875
30
0
41
1
10
20.4530574645277
20
-0.190995272076265
30
0
41
1
10
20.4550022669015
20
-0.197466386416352
30
0
41
1
10
20.4586839532875
20
-0.206899613463605
30
0
41
1
10
20.460035965585
20
-0.210013657316523
30
0
41
1
10
20.4625287212411
20
-0.214471852811329
30
0
41
1
10
20.4634349141058
20
-0.215921165765394
30
0
41
1
10
20.4655637685205
20
-0.218580143030664
30
0
41
1
10
20.4667708578578
20
-0.219865941034584
30
0
41
1
10
20.4683841660861
20
-0.220483748712041
30
0
0
SPLINE
5
1A6
100
AcDbEntity
8
1
62
256
6
ByLayer
370
18
48
1
60
0
100
AcDbSpline
70
4
71
3
72
18
73
14
40
0
40
0
40
0
40
0
40
0.124999999999998
40
0.124999999999998
40
0.249999999999996
40
0.249999999999996
40
0.374999999999995
40
0.374999999999995
40
0.499999999999993
40
0.499999999999993
40
0.749999999999996
40
0.749999999999996
40
1
40
1
40
1
40
1
41
1
10
8.75681204450848
20
-2.86821954758659
30
0
41
1
10
8.76098109616231
20
-2.87509115439116
30
0
41
1
10
8.76712040077678
20
-2.88172466935475
30
0
41
1
10
8.78171489102206
20
-2.89442658048796
30
0
41
1
10
8.79018149584437
20
-2.90049732892638
30
0
41
1
10
8.80851375718157
20
-2.91205505124856
30
0
41
1
10
8.81839264713113
20
-2.91754536800437
30
0
41
1
10
8.83898416306747
20
-2.92792613722884
30
0
41
1
10
8.84970147603133
20
-2.93281799298143
30
0
41
1
10
8.88262880491772
20
-2.94661959453407
30
0
41
1
10
8.90559443091021
20
-2.95465738699968
30
0
41
1
10
8.95214103802783
20
-2.9685019327388
30
0
41
1
10
8.97574506227008
20
-2.97430931054876
30
0
41
1
10
8.99934245059544
20
-2.97905908367184
30
0
0
SPLINE
5
1A7
100
AcDbEntity
8
1
62
256
6
ByLayer
370
18
48
1
60
0
100
AcDbSpline
70
4
71
3
72
12
73
8
40
0
40
0
40
0
40
0
40
0.500000000000025
40
0.500000000000025
40
0.750000000000012
40
0.750000000000012
40
1
40
1
40
1
40
1
41
1
10
8.75681204448492
20
-2.86821954758162
30
0
41
1
10
8.71866118370841
20
-2.85369572112796
30
0
41
1
10
8.68059138440918
20
-2.84083367448633
30
0
41
1
10
8.62293709851912
20
-2.82388278527878
30
0
41
1
10
8.60361950992959
20
-2.81862693825013
30
0
41
1
10
8.56465457474326
20
-2.80898842720504
30
0
41
1
10
8.54500376716479
20
-2.80460196215682
30
0
41
1
10
8.52502631651845
20
-2.80073742709621
30
0
0
SPLINE
5
1A8
100
AcDbEntity
8
1
62
256
6
ByLayer
370
18
48
1
60
0
100
AcDbSpline
70
4
71
3
72
12
73
8
40
0
40
0
40
0
40
0
40
0.499999999999974
40
0.499999999999974
40
0.749999999999987
40
0.749999999999987
40
1
40
1
40
1
40
1
41
1
10
8.75630630511816
20
2.74423678559935
30
0
41
1
10
8.71829468470071
20
2.74671932063592
30
0
41
1
10
8.6803458492773
20
2.75100624563879
30
0
41
1
10
8.62282546375948
20
2.75961278670044
30
0
41
1
10
8.60354277664743
20
2.76285006771292
30
0
41
1
10
8.56462839453002
20
2.77000834839109
30
0
41
1
10
8.544993860441
20
2.7739288100486
30
0
41
1
10
8.52502631652166
20
2.77819118559228
30
0
0
SPLINE
5
1A9
100
AcDbEntity
8
1
62
256
6
ByLayer
370
18
48
1
60
0
100
AcDbSpline
70
4
71
1
72
4
73
2
40
0
40
0
40
1
40
1
41
1
10
8.99997957404122
20
-2.3119688607967
30
0
41
1
10
9.00000044692558
20
-2.31197778669207
30
0
0
SPLINE
5
1AA
100
AcDbEntity
8
1
62
256
6
ByLayer
370
18
48
1
60
0
100
AcDbSpline
70
4
71
3
72
18
73
14
40
0
40
0
40
0
40
0
40
0.125
40
0.125
40
0.25
40
0.25
40
0.375
40
0.375
40
0.5
40
0.5
40
0.75
40
0.75
40
1
40
1
40
1
40
1
41
1
10
8.75630646419125
20
-1.61595448883955
30
0
41
1
10
8.76049632968059
20
-1.64641805556906
30
0
41
1
10
8.7666542980846
20
-1.67643539300812
30
0
41
1
10
8.78128816534166
20
-1.73578939274816
30
0
41
1
10
8.7897751816212
20
-1.76512554319135
30
0
41
1
10
8.80814986304426
20
-1.82325446330884
30
0
41
1
10
8.81805069760392
20
-1.85206102665597
30
0
41
1
10
8.83868660654284
20
-1.90912635622124
30
0
41
1
10
8.84942633932556
20
-1.93738852824515
30
0
41
1
10
8.88242044469879
20
-2.02149080349332
30
0
41
1
10
8.90542967346806
20
-2.0766664987716
30
0
41
1
10
8.95205916343627
20
-2.18550589139699
30
0
41
1
10
8.97570264717058
20
-2.2391666891788
30
0
41
1
10
8.99933709214153
20
-2.29218874488211
30
0
0
SPLINE
5
1AB
100
AcDbEntity
8
1
62
256
6
ByLayer
370
18
48
1
60
0
100
AcDbSpline
70
4
71
3
72
8
73
4
40
0
40
0
40
0
40
0
40
1
40
1
40
1
40
1
41
1
10
8.52502631651842
20
-1.99001279913099
30
0
41
1
10
8.59531273665493
20
-2.02189256418691
30
0
41
1
10
8.66385605598055
20
-2.05945660252502
30
0
41
1
10
8.72979468870042
20
-2.10282020176408
30
0
0
SPLINE
5
1AC
100
AcDbEntity
8
1
62
256
6
ByLayer
370
18
48
1
60
0
100
AcDbSpline
70
4
71
3
72
10
73
6
40
0
40
0
40
0
40
0
40
0.5
40
0.5
40
1
40
1
40
1
40
1
41
1
10
8.72979468869988
20
-2.10282020176365
30
0
41
1
10
8.77650100436489
20
-2.13353594261065
30
0
41
1
10
8.82238807945259
20
-2.16627710503019
30
0
41
1
10
8.91248521060777
20
-2.23590555079531
30
0
41
1
10
8.95669596377573
20
-2.27279111068822
30
0
41
1
10
8.99997957404122
20
-2.3119688607967
30
0
0
SPLINE
5
1AD
100
AcDbEntity
8
1
62
256
6
ByLayer
370
18
48
1
60
0
100
AcDbSpline
70
4
71
3
72
8
73
4
40
0
40
0
40
0
40
0
40
1
40
1
40
1
40
1
41
1
10
8.99933709214056
20
-2.29218874488166
30
0
41
1
10
8.99945950895278
20
-2.29878485341183
30
0
41
1
10
8.99967510206255
20
-2.30537870847965
30
0
41
1
10
8.99997957404122
20
-2.3119688607967
30
0
0
SPLINE
5
1AE
100
AcDbEntity
8
1
62
256
6
ByLayer
370
18
48
1
60
0
100
AcDbSpline
70
4
71
3
72
8
73
4
40
0
40
0
40
0
40
0
40
1
40
1
40
1
40
1
41
1
10
9
20
-1.75427784777892
30
0
41
1
10
8.91825573167995
20
-1.70972632319712
30
0
41
1
10
8.83697994207827
20
-1.66364176065321
30
0
41
1
10
8.75630646416442
20
-1.61595448884594
30
0
0
SPLINE
5
1AF
100
AcDbEntity
8
1
62
256
6
ByLayer
370
18
48
1
60
0
100
AcDbSpline
70
4
71
3
72
12
73
8
40
0
40
0
40
0
40
0
40
0.500000000000025
40
0.500000000000025
40
0.750000000000013
40
0.750000000000013
40
1
40
1
40
1
40
1
41
1
10
8.7563064641692
20
-1.61595448883938
30
0
41
1
10
8.7182949820631
20
-1.58319299867813
30
0
41
1
10
8.68034622264372
20
-1.55104723887737
30
0
41
1
10
8.62282580826468
20
-1.50430219129808
30
0
41
1
10
8.60354308352123
20
-1.48896504549521
30
0
41
1
10
8.56462857315228
20
-1.45904332679686
30
0
41
1
10
8.5449939509528
20
-1.44445277257287
30
0
41
1
10
8.52502631652283
20
-1.43041531522655
30
0
0
SPLINE
5
1B0
100
AcDbEntity
8
1
62
256
6
ByLayer
370
18
48
1
60
0
100
AcDbSpline
70
4
71
3
72
20
73
16
40
0
40
0
40
0
40
0
40
0.250000000000001
40
0.250000000000001
40
0.500000000000002
40
0.500000000000002
40
0.750000000000003
40
0.750000000000003
40
0.875000000000003
40
0.875000000000003
40
0.937499999999981
40
0.937499999999981
40
0.96874999999999
40
0.96874999999999
40
1
40
1
40
1
40
1
41
1
10
8.52502631651873
20
2.77819118559287
30
0
41
1
10
8.50710724277499
20
2.78201628406256
30
0
41
1
10
8.48934011870654
20
2.78578023478124
30
0
41
1
10
8.45424775961089
20
2.79320699986857
30
0
41
1
10
8.43691613283127
20
2.79686855772877
30
0
41
1
10
8.40299110477872
20
2.80414140303745
30
0
41
1
10
8.38633406393879
20
2.80774884929755
30
0
41
1
10
8.36270396346177
20
2.81324641581085
30
0
41
1
10
8.35506986734958
20
2.81508668596371
30
0
41
1
10
8.34447601600883
20
2.81793145073797
30
0
41
1
10
8.34108450885466
20
2.81889425401749
30
0
41
1
10
8.3364440753536
20
2.82039182649214
30
0
41
1
10
8.33498370104326
20
2.82089678501785
30
0
41
1
10
8.33234387983947
20
2.82192832070697
30
0
41
1
10
8.33115592612791
20
2.82245408647179
30
0
41
1
10
8.33024676251921
20
2.82300370633982
30
0
0
SPLINE
5
1B1
100
AcDbEntity
8
1
62
256
6
ByLayer
370
18
48
1
60
0
100
AcDbSpline
70
4
71
3
72
18
73
14
40
0
40
0
40
0
40
0
40
0.0625000000000081
40
0.0625000000000081
40
0.125000000000016
40
0.125000000000016
40
0.250000000000032
40
0.250000000000032
40
0.500000000000022
40
0.500000000000022
40
0.750000000000011
40
0.750000000000011
40
1
40
1
40
1
40
1
41
1
10
8.33024676252001
20
2.82300370633965
30
0
41
1
10
8.32851481292445
20
2.82405072790891
30
0
41
1
10
8.3264412263722
20
2.82504422033028
30
0
41
1
10
8.32193328563153
20
2.82696561719217
30
0
41
1
10
8.31949154672478
20
2.82789258996263
30
0
41
1
10
8.31180671634891
20
2.83059893132224
30
0
41
1
10
8.30621142272204
20
2.8323047014012
30
0
41
1
10
8.28868227774865
20
2.83721643094131
30
0
41
1
10
8.27599334161755
20
2.84022139798589
30
0
41
1
10
8.24984548962649
20
2.84581895221029
30
0
41
1
10
8.236355324442
20
2.84840740685951
30
0
41
1
10
8.20888176397932
20
2.85323265756347
30
0
41
1
10
8.19489176799453
20
2.85546823999661
30
0
41
1
10
8.18072414922449
20
2.85754363488027
30
0
0
SPLINE
5
1B2
100
AcDbEntity
8
1
62
256
6
ByLayer
370
18
48
1
60
0
100
AcDbSpline
70
4
71
3
72
8
73
4
40
0
40
0
40
0
40
0
40
1
40
1
40
1
40
1
41
1
10
8.18072414922446
20
2.8575436348803
30
0
41
1
10
8.0551264870673
20
2.87186387281071
30
0
41
1
10
7.93513431005431
20
2.87992141335189
30
0
41
1
10
7.82129407173105
20
2.88000124616732
30
0
0
SPLINE
5
1B3
100
AcDbEntity
8
1
62
256
6
ByLayer
370
18
48
1
60
0
100
AcDbSpline
70
4
71
3
72
8
73
4
40
0
40
0
40
0
40
0
40
1
40
1
40
1
40
1
41
1
10
6.9246559654899
20
-2.88000519925024
30
0
41
1
10
6.91485846021359
20
-2.88001257916991
30
0
41
1
10
6.90525047373188
20
-2.87972362044121
30
0
41
1
10
6.89583015096059
20
-2.87912938280172
30
0
0
SPLINE
5
1B4
100
AcDbEntity
8
1
62
256
6
ByLayer
370
18
48
1
60
0
100
AcDbSpline
70
4
71
3
72
20
73
16
40
0
40
0
40
0
40
0
40
0.249999999999983
40
0.249999999999983
40
0.374999999999986
40
0.374999999999986
40
0.499999999999989
40
0.499999999999989
40
0.624999999999992
40
0.624999999999992
40
0.749999999999994
40
0.749999999999994
40
0.874999999999997
40
0.874999999999997
40
1
40
1
40
1
40
1
41
1
10
6.89583015096059
20
-2.87912938280172
30
0
41
1
10
6.89153249583072
20
-2.87885828503769
30
0
41
1
10
6.88820031241352
20
-2.87851847930304
30
0
41
1
10
6.88542187490401
20
-2.87788350514663
30
0
41
1
10
6.88487731392183
20
-2.87764936238807
30
0
41
1
10
6.88477097205634
20
-2.87714959059048
30
0
41
1
10
6.8851987288983
20
-2.876882790824
30
0
41
1
10
6.88723068020536
20
-2.87631693546757
30
0
41
1
10
6.88884566098116
20
-2.87601947656981
30
0
41
1
10
6.89325496477653
20
-2.87542640480865
30
0
41
1
10
6.89609785540432
20
-2.87512452322804
30
0
41
1
10
6.9028630773357
20
-2.87454308821265
30
0
41
1
10
6.90673720635149
20
-2.87426625106735
30
0
41
1
10
6.91535538302008
20
-2.87374544971783
30
0
41
1
10
6.9200996022642
20
-2.87350214381587
30
0
41
1
10
6.92510100380301
20
-2.87328226330942
30
0
0
SPLINE
5
1B5
100
AcDbEntity
8
1
62
256
6
ByLayer
370
18
48
1
60
0
100
AcDbSpline
70
4
71
3
72
26
73
22
40
0
40
0
40
0
40
0
40
0.0690714964804609
40
0.0690714964804609
40
0.138142992960922
40
0.138142992960922
40
0.207214489441383
40
0.207214489441383
40
0.276285985921844
40
0.276285985921844
40
0.414428978882766
40
0.414428978882766
40
0.48350047536322
40
0.48350047536322
40
0.552571971843674
40
0.552571971843674
40
0.690714964804583
40
0.690714964804583
40
0.828857957765491
40
0.828857957765491
40
1
40
1
40
1
40
1
41
1
10
6.92510100380301
20
-2.87328226330939
30
0
41
1
10
6.95490297808237
20
-2.8719720559312
30
0
41
1
10
6.9863694572712
20
-2.87078536506868
30
0
41
1
10
7.05141818405659
20
-2.86875806920347
30
0
41
1
10
7.08502384283807
20
-2.86791434399723
30
0
41
1
10
7.15384742024949
20
-2.86658366394744
30
0
41
1
10
7.18855330207697
20
-2.86610552715541
30
0
41
1
10
7.25828037439288
20
-2.86548006534309
30
0
41
1
10
7.29341040138564
20
-2.86533239315003
30
0
41
1
10
7.39852695976401
20
-2.86531083200452
30
0
41
1
10
7.46824719019213
20
-2.86585233731472
30
0
41
1
10
7.57244429652565
20
-2.86716743578953
30
0
41
1
10
7.60709614826749
20
-2.86769001525866
30
0
41
1
10
7.67594453767597
20
-2.86884482184226
30
0
41
1
10
7.71018712323379
20
-2.86947762485056
30
0
41
1
10
7.81242876616136
20
-2.87146432248795
30
0
41
1
10
7.87998940108375
20
-2.87290686003311
30
0
41
1
10
8.01333192777884
20
-2.87561470697702
30
0
41
1
10
8.07928017593241
20
-2.87688312824531
30
0
41
1
10
8.22498201445282
20
-2.87910901776098
30
0
41
1
10
8.30422971872406
20
-2.87991461475113
30
0
41
1
10
8.38232904490809
20
-2.87999127288552
30
0
0
SPLINE
5
1B6
100
AcDbEntity
8
1
62
256
6
ByLayer
370
18
48
1
60
0
100
AcDbSpline
70
4
71
3
72
18
73
14
40
0
40
0
40
0
40
0
40
0.249999999999999
40
0.249999999999999
40
0.499999999999999
40
0.499999999999999
40
0.749999999999998
40
0.749999999999998
40
0.874999999999998
40
0.874999999999998
40
0.937499999999999
40
0.937499999999999
40
1
40
1
40
1
40
1
41
1
10
8.52502631651848
20
-2.80073742709675
30
0
41
1
10
8.50812641079477
20
-2.79746822727009
30
0
41
1
10
8.49137649943424
20
-2.79406225985411
30
0
41
1
10
8.45831276233685
20
-2.78692422947123
30
0
41
1
10
8.4419926912102
20
-2.78319432714318
30
0
41
1
10
8.41007995328636
20
-2.77530085208508
30
0
41
1
10
8.39444591387007
20
-2.77115129944076
30
0
41
1
10
8.37225788754725
20
-2.76434916096881
30
0
41
1
10
8.36509562906897
20
-2.76199499662263
30
0
41
1
10
8.35520051187618
20
-2.75822491434113
30
0
41
1
10
8.35204190900077
20
-2.75692819988905
30
0
41
1
10
8.34628919087791
20
-2.75418752754828
30
0
41
1
10
8.34363917642955
20
-2.75275416129691
30
0
41
1
10
8.3419387030782
20
-2.7511880951422
30
0
0
SPLINE
5
1B7
100
AcDbEntity
8
1
62
256
6
ByLayer
370
18
48
1
60
0
100
AcDbSpline
70
4
71
3
72
20
73
16
40
0
40
0
40
0
40
0
40
0.249999999999999
40
0.249999999999999
40
0.499999999999998
40
0.499999999999998
40
0.749999999999997
40
0.749999999999997
40
0.874999999999996
40
0.874999999999996
40
0.937500000000019
40
0.937500000000019
40
0.968750000000009
40
0.968750000000009
40
1
40
1
40
1
40
1
41
1
10
8.52502631651876
20
-1.43041531524267
30
0
41
1
10
8.50710306499855
20
-1.41781508061859
30
0
41
1
10
8.48933178111179
20
-1.40501463374952
30
0
41
1
10
8.45423115504991
20
-1.37886915054131
30
0
41
1
10
8.43689541995519
20
-1.36553065667155
30
0
41
1
10
8.40296227019809
20
-1.33800213913335
30
0
41
1
10
8.38630108103817
20
-1.3238354381688
30
0
41
1
10
8.362665404799
20
-1.30125736062666
30
0
41
1
10
8.35502945833602
20
-1.29353745618172
30
0
41
1
10
8.34443295827259
20
-1.28129859105991
30
0
41
1
10
8.34104043952891
20
-1.27710671952161
30
0
41
1
10
8.33639907067885
20
-1.27049549969024
30
0
41
1
10
8.33493840111694
20
-1.2682514303597
30
0
41
1
10
8.33229807996901
20
-1.26363349034946
30
0
41
1
10
8.33110990993256
20
-1.26126348388542
30
0
41
1
10
8.3302006902546
20
-1.25876570878242
30
0
0
SPLINE
5
1B8
100
AcDbEntity
8
1
62
256
6
ByLayer
370
18
48
1
60
0
100
AcDbSpline
70
4
71
3
72
20
73
16
40
0
40
0
40
0
40
0
40
0.249999999999988
40
0.249999999999988
40
0.499999999999975
40
0.499999999999975
40
0.749999999999963
40
0.749999999999963
40
0.874999999999981
40
0.874999999999981
40
0.93749999999999
40
0.93749999999999
40
0.968749999999995
40
0.968749999999995
40
1
40
1
40
1
40
1
41
1
10
8.52502631651853
20
0.880338441206874
30
0
41
1
10
8.50475591232163
20
0.895166964495786
30
0
41
1
10
8.48464147702751
20
0.910132545767112
30
0
41
1
10
8.44486619685674
20
0.940491915203012
30
0
41
1
10
8.42519866824091
20
0.955878320151157
30
0
41
1
10
8.38662347927536
20
0.987414726956331
30
0
41
1
10
8.36763131693755
20
1.0035531477651
30
0
41
1
10
8.3406442848954
20
1.02902271720078
30
0
41
1
10
8.33189267800185
20
1.0377109219545
30
0
41
1
10
8.31965877688023
20
1.05149458127724
30
0
41
1
10
8.31571819899264
20
1.05623036357488
30
0
41
1
10
8.31036896376668
20
1.0636138649725
30
0
41
1
10
8.30867811658243
20
1.06612471025971
30
0
41
1
10
8.30561011274256
20
1.07131672916009
30
0
41
1
10
8.30421944516908
20
1.07399047050981
30
0
41
1
10
8.30316942193423
20
1.07685040292051
30
0
0
SPLINE
5
1B9
100
AcDbEntity
8
1
62
256
6
ByLayer
370
18
48
1
60
0
100
AcDbSpline
70
4
71
3
72
10
73
6
40
0
40
0
40
0
40
0
40
0.5
40
0.5
40
1
40
1
40
1
40
1
41
1
10
8.75535938348145
20
0.702581090373343
30
0
41
1
10
8.7176131932043
20
0.731486538575211
30
0
41
1
10
8.6798922581215
20
0.761205096734159
30
0
41
1
10
8.60353014474288
20
0.821018669179125
30
0
41
1
10
8.56491925702107
20
0.85115533309019
30
0
41
1
10
8.52502631651871
20
0.880338441209886
30
0
0
SPLINE
5
1BA
100
AcDbEntity
8
1
62
256
6
ByLayer
370
18
48
1
60
0
100
AcDbSpline
70
4
71
3
72
8
73
4
40
0
40
0
40
0
40
0
40
1
40
1
40
1
40
1
41
1
10
8.52502631651845
20
0.201661625443506
30
0
41
1
10
8.59568480665044
20
0.158720259296274
30
0
41
1
10
8.66458923093768
20
0.114460110528483
30
0
41
1
10
8.73086233542529
20
0.0672801823035343
30
0
0
SPLINE
5
1BB
100
AcDbEntity
8
1
62
256
6
ByLayer
370
18
48
1
60
0
100
AcDbSpline
70
4
71
3
72
10
73
6
40
0
40
0
40
0
40
0
40
0.5
40
0.5
40
1
40
1
40
1
40
1
41
1
10
8.73086233543719
20
0.0672801822951783
30
0
41
1
10
8.77723831291618
20
0.0342650503537527
30
0
41
1
10
8.82290463554816
20
0.0011181318926106
30
0
41
1
10
8.91276680909581
20
-0.065448779117304
30
0
41
1
10
8.95704352992294
20
-0.0989346559984483
30
0
41
1
10
8.99999536874265
20
-0.132176471949492
30
0
0
SPLINE
5
1BC
100
AcDbEntity
8
1
62
256
6
ByLayer
370
18
48
1
60
0
100
AcDbSpline
70
4
71
3
72
8
73
4
40
0
40
0
40
0
40
0
40
1
40
1
40
1
40
1
41
1
10
9.00000000000003
20
2.68332482982427
30
0
41
1
10
8.91825567273315
20
2.70489968373087
30
0
41
1
10
8.83697981418911
20
2.72526059428424
30
0
41
1
10
8.75630630511338
20
2.74423678560475
30
0
0
SPLINE
5
1BD
100
AcDbEntity
8
1
62
256
6
ByLayer
370
18
48
1
60
0
100
AcDbSpline
70
4
71
3
72
18
73
14
40
0
40
0
40
0
40
0
40
0.125
40
0.125
40
0.249999999999999
40
0.249999999999999
40
0.374999999999999
40
0.374999999999999
40
0.499999999999999
40
0.499999999999999
40
0.749999999999999
40
0.749999999999999
40
1
40
1
40
1
40
1
41
1
10
8.75630630514021
20
2.74423678560538
30
0
41
1
10
8.7604961265256
20
2.73330253867127
30
0
41
1
10
8.76665406988718
20
2.72234853884797
30
0
41
1
10
8.78128790746155
20
2.70014791172613
30
0
41
1
10
8.78977491919642
20
2.68890466091719
30
0
41
1
10
8.80814960232658
20
2.66601200847063
30
0
41
1
10
8.8180504432658
20
2.65435795138549
30
0
41
1
10
8.83868637127955
20
2.63062589317403
30
0
41
1
10
8.84942611652824
20
2.6185474838837
30
0
41
1
10
8.88242026404657
20
2.58162050026857
30
0
41
1
10
8.90542952705681
20
2.55606977404082
30
0
41
1
10
8.95205908858401
20
2.50305035772982
30
0
41
1
10
8.97570260978762
20
2.47558437149337
30
0
41
1
10
8.99933709214153
20
2.44715907891506
30
0
0
SPLINE
5
1BE
100
AcDbEntity
8
1
62
256
6
ByLayer
370
18
48
1
60
0
100
AcDbSpline
70
4
71
3
72
18
73
14
40
0
40
0
40
0
40
0
40
0.125
40
0.125
40
0.25
40
0.25
40
0.375
40
0.375
40
0.5
40
0.5
40
0.75
40
0.75
40
1
40
1
40
1
40
1
41
1
10
8.75535938346241
20
0.702581090369506
30
0
41
1
10
8.75964439199029
20
0.668179571193718
30
0
41
1
10
8.76587242354447
20
0.634148811226368
30
0
41
1
10
8.78062764602049
20
0.566456944945571
30
0
41
1
10
8.78916528712645
20
0.532798703793389
30
0
41
1
10
8.80763225464185
20
0.465646898762287
30
0
41
1
10
8.817574492147
20
0.432138085281849
30
0
41
1
10
8.83828709079609
20
0.365275675749416
30
0
41
1
10
8.8490623714795
20
0.331917752773791
30
0
41
1
10
8.88215729528264
20
0.231911467943348
30
0
41
1
10
8.90522577895049
20
0.165306424767039
30
0
41
1
10
8.95196404007325
20
0.0319417122569803
30
0
41
1
10
8.9756569082968
20
-0.0348136127116732
30
0
41
1
10
8.99933537345248
20
-0.101749309267575
30
0
0
SPLINE
5
1BF
100
AcDbEntity
8
1
62
256
6
ByLayer
370
18
48
1
60
0
100
AcDbSpline
70
4
71
3
72
8
73
4
40
0
40
0
40
0
40
0
40
1
40
1
40
1
40
1
41
1
10
8.99933537345203
20
-0.101749309267319
30
0
41
1
10
8.99946363266295
20
-0.111893741899166
30
0
41
1
10
8.99968502536166
20
-0.122036116605159
30
0
41
1
10
8.99999536872565
20
-0.132176471950487
30
0
0
SPLINE
5
1C0
100
AcDbEntity
8
1
62
256
6
ByLayer
370
18
48
1
60
0
100
AcDbSpline
70
4
71
3
72
38
73
34
40
0
40
0
40
0
40
0
40
0.0134149431690109
40
0.0352641915323728
40
0.0571134398957347
40
0.0789626882590966
40
0.100811936622459
40
0.12266118498582
40
0.166359681712544
40
0.188208930075906
40
0.210058178439268
40
0.253756675165992
40
0.275605923529354
40
0.297455171892716
40
0.319304420256077
40
0.341153668619439
40
0.363002916982801
40
0.384852165346163
40
0.428550662072887
40
0.450399910436249
40
0.472249158799611
40
0.515947655526335
40
0.603344648979782
40
0.647043145706506
40
0.69074164243323
40
0.734440139159954
40
0.778138635886677
40
0.821837132613401
40
0.865535629340125
40
0.909234126066849
40
0.952932622793572
40
0.996631119520296
40
1
40
1
40
1
40
1
41
1
10
8.99935006427222
20
2.79207550748336
30
0
41
1
10
9.04920760143739
20
2.80606509127978
30
0
41
1
10
9.1803147622054
20
2.84106619635602
30
0
41
1
10
9.39285255129974
20
2.89001078979825
30
0
41
1
10
9.63708045062793
20
2.93499254924723
30
0
41
1
10
9.88163358591709
20
2.96855647948655
30
0
41
1
10
10.1265317375659
20
2.99057007186104
30
0
41
1
10
10.453555307412
20
3.00428426119976
30
0
41
1
10
10.7813432497855
20
2.99424339892812
30
0
41
1
10
11.1096171189497
20
2.96059224415262
30
0
41
1
10
11.4381264781264
20
2.91127656945059
30
0
41
1
10
11.7668657556663
20
2.83855757979129
30
0
41
1
10
12.0955678065561
20
2.74353148296524
30
0
41
1
10
12.3420136083125
20
2.66139649358499
30
0
41
1
10
12.5883012926247
20
2.56868782490855
30
0
41
1
10
12.834331929818
20
2.46592619284951
30
0
41
1
10
13.079993658487
20
2.35361571526155
30
0
41
1
10
13.4069113783577
20
2.19180963239697
30
0
41
1
10
13.7327061675115
20
2.0129590934628
30
0
41
1
10
14.0571017541515
20
1.81972152932488
30
0
41
1
10
14.3804389241058
20
1.61780025438315
30
0
41
1
10
14.9436350415401
20
1.24369454476675
30
0
41
1
10
15.584762612632
20
0.776809376349291
30
0
41
1
10
16.2300968201669
20
0.28690725492919
30
0
41
1
10
16.7179180028545
20
-0.0879030427119574
30
0
41
1
10
17.2113368669206
20
-0.465615198877089
30
0
41
1
10
17.7122232192943
20
-0.841577758018673
30
0
41
1
10
18.2225762272986
20
-1.2104327332971
30
0
41
1
10
18.7445148548063
20
-1.56643869502256
30
0
41
1
10
19.2801468006172
20
-1.90301938548888
30
0
41
1
10
19.8318712606541
20
-2.21262266678801
30
0
41
1
10
20.2271430792302
20
-2.4020301515921
30
0
41
1
10
20.4363951734961
20
-2.49154984887892
30
0
41
1
10
20.4513946968953
20
-2.49791203225851
30
0
0
SPLINE
5
1C1
100
AcDbEntity
8
1
62
256
6
ByLayer
370
18
48
1
60
0
100
AcDbSpline
70
4
71
3
72
68
73
64
40
0
40
0
40
0
40
0
40
0.0625000000000009
40
0.0625000000000009
40
0.0781250000000011
40
0.0781250000000011
40
0.0937500000000014
40
0.0937500000000014
40
0.125000000000003
40
0.125000000000003
40
0.156250000000004
40
0.156250000000004
40
0.171875000000005
40
0.171875000000005
40
0.187500000000005
40
0.187500000000005
40
0.250000000000004
40
0.250000000000004
40
0.265625000000003
40
0.265625000000003
40
0.281250000000002
40
0.281250000000002
40
0.3125
40
0.3125
40
0.343749999999998
40
0.343749999999998
40
0.351562499999998
40
0.351562499999998
40
0.359374999999998
40
0.374999999999998
40
0.374999999999998
40
0.437499999999996
40
0.437499999999996
40
0.499999999999995
40
0.499999999999995
40
0.531249999999994
40
0.531249999999994
40
0.539062499999994
40
0.539062499999994
40
0.546874999999995
40
0.562499999999995
40
0.624999999999995
40
0.624999999999995
40
0.687499999999994
40
0.687499999999994
40
0.718749999999994
40
0.718749999999994
40
0.734374999999993
40
0.734374999999993
40
0.749999999999993
40
0.749999999999993
40
0.812499999999994
40
0.812499999999994
40
0.828124999999994
40
0.828124999999994
40
0.843749999999995
40
0.874999999999996
40
0.874999999999996
40
0.906249999999997
40
0.906249999999997
40
0.937499999999998
40
0.937499999999998
40
1
40
1
40
1
40
1
41
1
10
9.00000000000011
20
2.80337620320012
30
0
41
1
10
9.24322978334919
20
2.86986729681254
30
0
41
1
10
9.4855339971638
20
2.91981930265959
30
0
41
1
10
9.78912962462039
20
2.96103273258939
30
0
41
1
10
9.84992675607552
20
2.96821632169377
30
0
41
1
10
9.97135968808129
20
2.98041238572074
30
0
41
1
10
10.0320108304116
20
2.98542816804144
30
0
41
1
10
10.2138480651451
20
2.99722058916288
30
0
41
1
10
10.3349182142312
20
3.00073844324464
30
0
41
1
10
10.5771792032115
20
2.99907482361033
30
0
41
1
10
10.6983694410681
20
2.99390665257215
30
0
41
1
10
10.8805556614299
20
2.97966950100096
30
0
41
1
10
10.9413843289531
20
2.97383684129977
30
0
41
1
10
11.0628634845028
20
2.96004674371909
30
0
41
1
10
11.1235523130623
20
2.95208719587836
30
0
41
1
10
11.4268672212615
20
2.90700978451559
30
0
41
1
10
11.669139497905
20
2.8540543087511
30
0
41
1
10
11.973206175661
20
2.76749901345272
30
0
41
1
10
12.0340866716411
20
2.74916067416163
30
0
41
1
10
12.1556257309322
20
2.71056495739378
30
0
41
1
10
12.2163319325588
20
2.69029488085673
30
0
41
1
10
12.3983297802357
20
2.62660816145655
30
0
41
1
10
12.5195010408998
20
2.58030652502896
30
0
41
1
10
12.7619072844122
20
2.48033761352806
30
0
41
1
10
12.8831413814572
20
2.4266698741072
30
0
41
1
10
13.0349881306699
20
2.35511210872309
30
0
41
1
10
13.0653854906661
20
2.34057035778548
30
0
41
1
10
13.126080733431
20
2.31110931864461
30
0
41
1
10
13.2170174864913
20
2.26633197282578
30
0
41
1
10
13.3076677389785
20
2.21983304288483
30
0
41
1
10
13.6093380434919
20
2.06116770063454
30
0
41
1
10
13.8491033329247
20
1.92257093857114
30
0
41
1
10
14.3287600212245
20
1.62587787334169
30
0
41
1
10
14.5686601597137
20
1.46775146759464
30
0
41
1
10
14.9307062523551
20
1.21806648910115
30
0
41
1
10
15.0517446893993
20
1.13274366589292
30
0
41
1
10
15.2036909404039
20
1.02365217646837
30
0
41
1
10
15.2341282723316
20
1.00170098173044
30
0
41
1
10
15.2948889114584
20
0.95769548554469
30
0
41
1
10
15.385919849314
20
0.891489104021559
30
0
41
1
10
15.7185910430496
20
0.646687419003143
30
0
41
1
10
16.0182693416064
20
0.418754518998156
30
0
41
1
10
16.4974917061477
20
0.0514645988566258
30
0
41
1
10
16.7369753681116
20
-0.133473953820385
30
0
41
1
10
17.0985329457155
20
-0.409507179538281
30
0
41
1
10
17.2194432516813
20
-0.50128599453987
30
0
41
1
10
17.4016943924888
20
-0.638214553229261
30
0
41
1
10
17.4625705658951
20
-0.683717655815968
30
0
41
1
10
17.5840858042447
20
-0.773993944939718
30
0
41
1
10
17.6447955244983
20
-0.818820765177122
30
0
41
1
10
17.948203052328
20
-1.04128260723181
30
0
41
1
10
18.1904611530347
20
-1.21393210520114
30
0
41
1
10
18.4944697046226
20
-1.42087199606252
30
0
41
1
10
18.5552806733448
20
-1.46177873541504
30
0
41
1
10
18.6767067461873
20
-1.5424019279555
30
0
41
1
10
18.8586676798243
20
-1.66163056018112
30
0
41
1
10
19.0403112787535
20
-1.77551595188686
30
0
41
1
10
19.2826415394384
20
-1.92216069438129
30
0
41
1
10
19.4038760918953
20
-1.99288263625058
30
0
41
1
10
19.6469216809252
20
-2.12863974351967
30
0
41
1
10
19.7681322767696
20
-2.19333477476434
30
0
41
1
10
20.1311092209251
20
-2.37723348622563
30
0
41
1
10
20.3723973631367
20
-2.48631025707877
30
0
41
1
10
20.6144636794627
20
-2.58088832421606
30
0
0
SPLINE
5
1C2
100
AcDbEntity
8
1
62
256
6
ByLayer
370
18
48
1
60
0
100
AcDbSpline
70
4
71
3
72
21
73
17
40
0
40
0
40
0
40
0
40
0.0135719743475994
40
0.0528100893164112
40
0.131286319254035
40
0.288238779129282
40
0.366715009066906
40
0.445191239004529
40
0.523667468942153
40
0.602143698879777
40
0.6806199288174
40
0.759096158755024
40
0.837572388692648
40
0.916048618630271
40
0.994524848567895
40
1
40
1
40
1
40
1
41
1
10
13.9781790907458
20
2.99956271154389
30
0
41
1
10
14.0062505427509
20
2.99942905566542
30
0
41
1
10
14.1154247018129
20
2.99804182604765
30
0
41
1
10
14.3862762819078
20
2.98622536849396
30
0
41
1
10
14.9504864025728
20
2.92276410870846
30
0
41
1
10
15.5930509341446
20
2.76409116492053
30
0
41
1
10
16.2397650883779
20
2.52433394017157
30
0
41
1
10
16.7285065666246
20
2.30530304229325
30
0
41
1
10
17.2226416966859
20
2.04862498014165
30
0
41
1
10
17.7239406332625
20
1.75599809014511
30
0
41
1
10
18.2342813434751
20
1.42960653648825
30
0
41
1
10
18.7556454255168
20
1.07193870184119
30
0
41
1
10
19.2900308507451
20
0.686103323226462
30
0
41
1
10
19.8396871362148
20
0.276255087723683
30
0
41
1
10
20.2314044041543
20
-0.0191682261053927
30
0
41
1
10
20.4378402078234
20
-0.174320693598901
30
0
41
1
10
20.4513206268043
20
-0.184449605695761
30
0
0
SPLINE
5
1C3
100
AcDbEntity
8
1
62
256
6
ByLayer
370
18
48
1
60
0
100
AcDbSpline
70
4
71
3
72
10
73
6
40
0
40
0
40
0
40
0
40
0.5
40
0.5
40
1
40
1
40
1
40
1
41
1
10
20.6148854061789
20
-0.337520611964436
30
0
41
1
10
20.6331859413663
20
-0.350453548674068
30
0
41
1
10
20.6513926536229
20
-0.362983972751437
30
0
41
1
10
20.6876416102818
20
-0.387107510073832
30
0
41
1
10
20.7056837660972
20
-0.398701496692468
30
0
41
1
10
20.723649895354
20
-0.409718464081863
30
0
0
SPLINE
5
1C4
100
AcDbEntity
8
1
62
256
6
ByLayer
370
18
48
1
60
0
100
AcDbSpline
70
4
71
3
72
44
73
40
40
0
40
0
40
0
40
0
40
0.0218091690041166
40
0.0218091690041166
40
0.110735608185558
40
0.110735608185558
40
0.199662047366999
40
0.199662047366999
40
0.22189365716236
40
0.22189365716236
40
0.23300946206004
40
0.23300946206004
40
0.244125266957719
40
0.288588486548441
40
0.288588486548441
40
0.377514925729882
40
0.377514925729882
40
0.466441364911324
40
0.466441364911324
40
0.488672974706684
40
0.499788779604365
40
0.499788779604365
40
0.510904584502045
40
0.510904584502045
40
0.555367804092767
40
0.555367804092767
40
0.644294243274213
40
0.644294243274213
40
0.733220682455659
40
0.733220682455659
40
0.777683902046383
40
0.777683902046383
40
0.799915511841745
40
0.799915511841745
40
0.822147121637107
40
0.822147121637107
40
0.911073560818554
40
0.911073560818554
40
1
40
1
40
1
40
1
41
1
10
12.4589706245764
20
2.80217926452349
30
0
41
1
10
12.5183836475702
20
2.81815300480244
30
0
41
1
10
12.577699833975
20
2.83317040916938
30
0
41
1
10
12.8784975367599
20
2.90457350328145
30
0
41
1
10
13.1188017691931
20
2.94606542172539
30
0
41
1
10
13.6000624772568
20
2.99627818025255
30
0
41
1
10
13.8410246699612
20
3.00508037055346
30
0
41
1
10
14.144585642693
20
2.99521086225951
30
0
41
1
10
14.2054159622099
20
2.99218939578884
30
0
41
1
10
14.2968753533443
20
2.98606808767047
30
0
41
1
10
14.3274209432211
20
2.98376052739457
30
0
41
1
10
14.3884368025931
20
2.9786261656044
30
0
41
1
10
14.5408128605416
20
2.96449246262773
30
0
41
1
10
14.6924502304975
20
2.94393740295138
30
0
41
1
10
15.0554545669924
20
2.88267021723311
30
0
41
1
10
15.2961797309835
20
2.82592546874494
30
0
41
1
10
15.7776600829252
20
2.68204803804912
30
0
41
1
10
16.0184262923213
20
2.59489524018881
30
0
41
1
10
16.3213772591871
20
2.4676935954524
30
0
41
1
10
16.412413536976
20
2.42816375221119
30
0
41
1
10
16.5037353947978
20
2.38660194944148
30
0
41
1
10
16.5646868076703
20
2.35844491376034
30
0
41
1
10
16.5952046224838
20
2.344138115102
30
0
41
1
10
16.7475143042526
20
2.27171498460695
30
0
41
1
10
16.8688393957404
20
2.21076437705426
30
0
41
1
10
17.23185885873
20
2.01961717296345
30
0
41
1
10
17.4726199781445
20
1.88115993600491
30
0
41
1
10
17.954405241483
20
1.58546072619663
30
0
41
1
10
18.1953749535356
20
1.42816409522692
30
0
41
1
10
18.558823803041
20
1.17993939202137
30
0
41
1
10
18.6803136012053
20
1.09515561474515
30
0
41
1
10
18.8633524964599
20
0.965196476449108
30
0
41
1
10
18.9242895706309
20
0.921562322220211
30
0
41
1
10
19.0458553762091
20
0.833882231187829
30
0
41
1
10
19.106517553763
20
0.789812566512893
30
0
41
1
10
19.4093520508404
20
0.56848776903891
30
0
41
1
10
19.6501035035502
20
0.388315826361577
30
0
41
1
10
20.1317074494393
20
0.0259569191392188
30
0
41
1
10
20.3725721802755
20
-0.156215161857091
30
0
41
1
10
20.6148854061789
20
-0.337520611964436
30
0
0
SPLINE
5
1C5
100
AcDbEntity
8
1
62
256
6
ByLayer
370
18
48
1
60
0
100
AcDbSpline
70
4
71
3
72
35
73
31
40
0
40
0
40
0
40
0
40
0.0364760160536555
40
0.0809494079791204
40
0.103186103941853
40
0.125422799904585
40
0.16989619183005
40
0.192132887792783
40
0.214369583755515
40
0.25884297568098
40
0.281079671643713
40
0.303316367606445
40
0.325553063569178
40
0.34778975953191
40
0.370026455494642
40
0.392263151457375
40
0.43673654338284
40
0.458973239345572
40
0.481209935308305
40
0.52568332723377
40
0.614630111084699
40
0.659103503010165
40
0.703576894935629
40
0.748050286861094
40
0.792523678786559
40
0.836997070712024
40
0.881470462637489
40
0.925943854562954
40
0.970417246488419
40
1
40
1
40
1
40
1
41
1
10
8.99933709214031
20
2.44715907891566
30
0
41
1
10
9.1327238501475
20
2.39009186845198
30
0
41
1
10
9.42898723353682
20
2.2545437224797
30
0
41
1
10
9.80740713566377
20
2.05810656930771
30
0
41
1
10
10.1342349173507
20
1.87377835444275
30
0
41
1
10
10.4615138220612
20
1.6800596399072
30
0
41
1
10
10.7894882675043
20
1.47316412448242
30
0
41
1
10
11.1179098090758
20
1.25555973938074
30
0
41
1
10
11.446551044317
20
1.03163614917284
30
0
41
1
10
11.7754109643462
20
0.799464168827228
30
0
41
1
10
12.1042482019343
20
0.561857301310482
30
0
41
1
10
12.350808294133
20
0.381627123294351
30
0
41
1
10
12.597231581832
20
0.200083932762965
30
0
41
1
10
12.8434368443618
20
0.0179521225154531
30
0
41
1
10
13.0893313340109
20
-0.164009953151975
30
0
41
1
10
13.4166615646602
20
-0.405423667994853
30
0
41
1
10
13.7430486198609
20
-0.643604145863833
30
0
41
1
10
14.0682333167882
20
-0.875854615212972
30
0
41
1
10
14.3924972073104
20
-1.10324719894163
30
0
41
1
10
14.9577072362026
20
-1.4864522838277
30
0
41
1
10
15.6016762347927
20
-1.88392629838484
30
0
41
1
10
16.249723803266
20
-2.22740372317236
30
0
41
1
10
16.739344218144
20
-2.45463863304613
30
0
41
1
10
17.2341485573355
20
-2.64799243851502
30
0
41
1
10
17.7358080426605
20
-2.80389171966539
30
0
41
1
10
18.2460818392448
20
-2.91853680300122
30
0
41
1
10
18.7668203508867
20
-2.9880061840621
30
0
41
1
10
19.2999143896038
20
-3.00818771935693
30
0
41
1
10
19.7863577395444
20
-2.97863639643265
30
0
41
1
10
20.0981743506412
20
-2.93354117757818
30
0
41
1
10
20.2241161113342
20
-2.91106732727403
30
0
0
SPLINE
5
1C6
100
AcDbEntity
8
1
62
256
6
ByLayer
370
18
48
1
60
0
100
AcDbSpline
70
4
71
3
72
8
73
4
40
0
40
0
40
0
40
0
40
1
40
1
40
1
40
1
41
1
10
8.99933709214056
20
2.44715907891546
30
0
41
1
10
8.99945951646126
20
2.44134392138807
30
0
41
1
10
8.99967512851092
20
2.43552886299207
30
0
41
1
10
8.99997963006706
20
2.42971222429989
30
0
0
SPLINE
5
1C7
100
AcDbEntity
8
1
62
256
6
ByLayer
370
18
48
1
60
0
100
AcDbSpline
70
4
71
1
72
4
73
2
40
0
40
0
40
1
40
1
41
1
10
8.99997963035341
20
2.42971222431342
30
0
41
1
10
9.00000000000009
20
2.42970522193011
30
0
0
SPLINE
5
1C8
100
AcDbEntity
8
1
62
256
6
ByLayer
370
18
48
1
60
0
100
AcDbSpline
70
4
71
3
72
62
73
58
40
0
40
0
40
0
40
0
40
0.070771409878731
40
0.070771409878731
40
0.0884642623484138
40
0.0884642623484138
40
0.106157114818097
40
0.141542819757462
40
0.141542819757462
40
0.176928524696828
40
0.176928524696828
40
0.194621377166511
40
0.194621377166511
40
0.212314229636194
40
0.212314229636194
40
0.283085639514923
40
0.283085639514923
40
0.353857049393653
40
0.353857049393653
40
0.389242754333018
40
0.389242754333018
40
0.406935606802701
40
0.406935606802701
40
0.424628459272383
40
0.424628459272383
40
0.495399869151109
40
0.495399869151109
40
0.513092721620789
40
0.513092721620789
40
0.53078557409047
40
0.53078557409047
40
0.566171279029831
40
0.566171279029831
40
0.636942688908553
40
0.636942688908553
40
0.707714098787275
40
0.707714098787275
40
0.743099803726636
40
0.743099803726636
40
0.760792656196316
40
0.760792656196316
40
0.778485508665996
40
0.778485508665996
40
0.849256918544715
40
0.849256918544715
40
0.866949771014395
40
0.866949771014395
40
0.884642623484075
40
0.920028328423433
40
0.920028328423433
40
0.955414033362792
40
0.955414033362792
40
0.973106885832471
40
0.973106885832471
40
0.99079973830215
40
0.99079973830215
40
1
40
1
40
1
40
1
41
1
10
9.00000000000011
20
2.42970522193011
30
0
41
1
10
9.2434008930976
20
2.32406600199172
30
0
41
1
10
9.48597292108809
20
2.20564077393496
30
0
41
1
10
9.78982492010681
20
2.04310125645395
30
0
41
1
10
9.85066742459739
20
2.00984774491715
30
0
41
1
10
9.97221731889493
20
1.94207152975485
30
0
41
1
10
10.1543540786157
20
1.83849948374404
30
0
41
1
10
10.3361376164776
20
1.72943749447711
30
0
41
1
10
10.57858253773
20
1.57955941181791
30
0
41
1
10
10.699838156286
20
1.50239560060942
30
0
41
1
10
10.882047840379
20
1.38363724111434
30
0
41
1
10
10.9428779486139
20
1.34352228365188
30
0
41
1
10
11.0645188493808
20
1.26245123384481
30
0
41
1
10
11.1252121823196
20
1.22157407471931
30
0
41
1
10
11.4281550036584
20
1.01563345897375
30
0
41
1
10
11.6688526318086
20
0.845929837135685
30
0
41
1
10
12.14945784547
20
0.500147160608662
30
0
41
1
10
12.3893366463566
20
0.324018938084066
30
0
41
1
10
12.7502215951708
20
0.0572435893227805
30
0
41
1
10
12.8707011691857
20
-0.0321008877099871
30
0
41
1
10
13.0519886483551
20
-0.166363843979269
30
0
41
1
10
13.1125133304763
20
-0.211158320739486
30
0
41
1
10
13.2338077690671
20
-0.300756785871073
30
0
41
1
10
13.2946450113512
20
-0.345610873553994
30
0
41
1
10
13.5984714137675
20
-0.568927604103607
30
0
41
1
10
13.8406235414696
20
-0.744697285345012
30
0
41
1
10
14.1440097928748
20
-0.958452483043459
30
0
41
1
10
14.2047210229647
20
-1.00090579225278
30
0
41
1
10
14.3262537877588
20
-1.08516015377177
30
0
41
1
10
14.3871135572885
20
-1.12698685614402
30
0
41
1
10
14.5696697270925
20
-1.25123282286111
30
0
41
1
10
14.6908602754143
20
-1.33209002850987
30
0
41
1
10
15.0533844635534
20
-1.56830929030292
30
0
41
1
10
15.2936779026907
20
-1.71733194399982
30
0
41
1
10
15.7737104354501
20
-1.99623419492176
30
0
41
1
10
16.0134464484827
20
-2.12609086537219
30
0
41
1
10
16.3749201758839
20
-2.30389713722212
30
0
41
1
10
16.4957249619813
20
-2.36033443540467
30
0
41
1
10
16.6776915430286
20
-2.44041576219379
30
0
41
1
10
16.7385416447203
20
-2.46637418558646
30
0
41
1
10
16.8601134870368
20
-2.51653478178957
30
0
41
1
10
16.9208454205864
20
-2.54074377158628
30
0
41
1
10
17.2243495888697
20
-2.65737592115579
30
0
41
1
10
17.4666705845138
20
-2.73656901311421
30
0
41
1
10
17.7706238509222
20
-2.81698371824538
30
0
41
1
10
17.8314891429613
20
-2.83214243702633
30
0
41
1
10
17.9532586334542
20
-2.86055066141421
30
0
41
1
10
18.1357154916766
20
-2.90024179064525
30
0
41
1
10
18.3177396787876
20
-2.93115214045025
30
0
41
1
10
18.560379061555
20
-2.96447636035063
30
0
41
1
10
18.6816691764971
20
-2.97719241521065
30
0
41
1
10
18.8638259431459
20
-2.99025651235962
30
0
41
1
10
18.924581999525
20
-2.99360956333791
30
0
41
1
10
19.0462149918753
20
-2.99829608424986
30
0
41
1
10
19.1069964724337
20
-2.99962438923723
30
0
41
1
10
19.1991689381652
20
-3.00010718045493
30
0
41
1
10
19.2306742910975
20
-2.99999985602165
30
0
41
1
10
19.2621556109612
20
-2.99962111705324
30
0
0
SPLINE
5
1C9
100
AcDbEntity
8
1
62
256
6
ByLayer
370
18
48
1
60
0
100
AcDbSpline
70
4
71
2
72
6
73
3
40
0
40
0
40
0
40
1
40
1
40
1
41
1
10
20.7292504579282
20
-2.7662650305524
30
0
41
1
10
20.7581796503912
20
-2.74314346045441
30
0
41
1
10
20.7871088428542
20
-2.72002189035641
30
0
0
SPLINE
5
1CA
100
AcDbEntity
8
1
62
256
6
ByLayer
370
18
48
1
60
0
100
AcDbSpline
70
4
71
2
72
6
73
3
40
0
40
0
40
0
40
1
40
1
40
1
41
1
10
11.0237460751831
20
-2.65041938844749
30
0
41
1
10
11.1191564369344
20
-2.63164956522229
30
0
41
1
10
11.2145899611278
20
-2.607838879745
30
0
0
SPLINE
5
1CB
100
AcDbEntity
8
1
62
256
6
ByLayer
370
18
48
1
60
0
100
AcDbSpline
70
4
71
1
72
4
73
2
40
0
40
0
40
1
40
1
41
1
10
20.5942294418255
20
2.42094457968798
30
0
41
1
10
20.433749543683
20
2.47048299108275
30
0
0
SPLINE
5
1CC
100
AcDbEntity
8
1
62
256
6
ByLayer
370
18
48
1
60
0
100
AcDbSpline
70
4
71
2
72
6
73
3
40
0
40
0
40
0
40
1
40
1
40
1
41
1
10
20.433749543683
20
2.47048299108275
30
0
41
1
10
20.3941774768393
20
2.48509905277655
30
0
41
1
10
20.3546092151624
20
2.4989634115916
30
0
0
SPLINE
5
1CD
100
AcDbEntity
8
1
62
256
6
ByLayer
370
18
48
1
60
0
100
AcDbSpline
70
4
71
1
72
4
73
2
40
0
40
0
40
1
40
1
41
1
10
20.8929855847316
20
1.98750223043427
30
0
41
1
10
20.7023698501049
20
2.3299827434401
30
0
0
SPLINE
5
1CE
100
AcDbEntity
8
1
62
256
6
ByLayer
370
18
48
1
60
0
100
AcDbSpline
70
4
71
2
72
6
73
3
40
0
40
0
40
0
40
1
40
1
40
1
41
1
10
20.9696571623625
20
1.70822437790758
30
0
41
1
10
20.9433772091202
20
1.8230608265853
30
0
41
1
10
20.9170972558778
20
1.93789727526303
30
0
0
SPLINE
5
1CF
100
AcDbEntity
8
1
62
256
6
ByLayer
370
18
48
1
60
0
100
AcDbSpline
70
4
71
2
72
6
73
3
40
0
40
0
40
0
40
1
40
1
40
1
41
1
10
17.3156098176198
20
2.99961628076298
30
0
41
1
10
17.3156549377805
20
2.99961900224312
30
0
41
1
10
17.3157000581748
20
2.99962136250687
30
0
0
SPLINE
5
1D0
100
AcDbEntity
8
1
62
256
6
ByLayer
370
18
48
1
60
0
100
AcDbSpline
70
4
71
2
72
6
73
3
40
0
40
0
40
0
40
1
40
1
40
1
41
1
10
19.6792184231128
20
1.18360638797591
30
0
41
1
10
19.4329105410289
20
1.29684763129288
30
0
41
1
10
19.1934517445782
20
1.44937955278434
30
0
0
SPLINE
5
1D1
100
AcDbEntity
8
1
62
256
6
ByLayer
370
18
48
1
60
0
100
AcDbSpline
70
4
71
2
72
6
73
3
40
0
40
0
40
0
40
1
40
1
40
1
41
1
10
16.1076558139795
20
1.24821318162068
30
0
41
1
10
15.7039148900419
20
1.41001161583876
30
0
41
1
10
15.2985248960872
20
1.64472316253634
30
0
0
SPLINE
5
1D2
100
AcDbEntity
8
1
62
256
6
ByLayer
370
18
48
1
60
0
100
AcDbSpline
70
4
71
2
72
6
73
3
40
0
40
0
40
0
40
1
40
1
40
1
41
1
10
12.086673063544
20
1.43546282945053
30
0
41
1
10
11.56914424019
20
1.62138581876664
30
0
41
1
10
11.0521393317951
20
1.88707332337887
30
0
0
SPLINE
5
1D3
100
AcDbEntity
8
1
62
256
6
ByLayer
370
18
48
1
60
0
100
AcDbSpline
70
4
71
2
72
6
73
3
40
0
40
0
40
0
40
1
40
1
40
1
41
1
10
13.8159324100048
20
2.36346782746296
30
0
41
1
10
13.6744598027847
20
2.4186305641644
30
0
41
1
10
13.5329370906068
20
2.46739762814241
30
0
0
SPLINE
5
1D4
100
AcDbEntity
8
1
62
256
6
ByLayer
370
18
48
1
60
0
100
AcDbSpline
70
4
71
2
72
6
73
3
40
0
40
0
40
0
40
1
40
1
40
1
41
1
10
17.4186138723522
20
-2.77914686014466
30
0
41
1
10
17.502631950907
20
-2.76760450555889
30
0
41
1
10
17.5866391904736
20
-2.75397854457034
30
0
0
SPLINE
5
1D5
100
AcDbEntity
8
1
62
256
6
ByLayer
370
18
48
1
60
0
100
AcDbSpline
70
4
71
2
72
6
73
3
40
0
40
0
40
0
40
1
40
1
40
1
41
1
10
20.9865475356702
20
-0.378436525843881
30
0
41
1
10
20.9613305700536
20
-0.179332497212158
30
0
41
1
10
20.93611154371
20
0.019787840434816
30
0
0
SPLINE
5
1D6
100
AcDbEntity
8
1
62
256
6
ByLayer
370
18
48
1
60
0
100
AcDbSpline
70
4
71
2
72
6
73
3
40
0
40
0
40
0
40
1
40
1
40
1
41
1
10
10.4635115765915
20
2.99967154870691
30
0
41
1
10
10.4635617662356
20
2.99976235873061
30
0
41
1
10
10.4636119558179
20
2.99985278256977
30
0
0
SPLINE
5
1D7
100
AcDbEntity
8
1
62
256
6
ByLayer
370
18
48
1
60
0
100
AcDbSpline
70
4
71
1
72
4
73
2
40
0
40
0
40
1
40
1
41
1
10
12.119456753895
20
0.520893633629555
30
0
41
1
10
12.1194631939883
20
0.520884948628861
30
0
0
LINE
5
79
100
AcDbEntity
8
80
62
256
6
ByLayer
370
18
48
1
60
0
100
AcDbLine
10
0
20
0
30
0
11
-5
21
0
31
0
39
0
210
0
220
0
230
1
0
LINE
5
7A
100
AcDbEntity
8
4
62
256
6
ByLayer
370
18
48
0.05
60
0
100
AcDbLine
10
0
20
0
30
0
11
21
21
0
31
0
39
0
210
0
220
0
230
1
0
LINE
5
7C
100
AcDbEntity
8
81
62
256
6
ByLayer
370
18
48
1
60
0
100
AcDbLine
10
21
20
0
30
0
11
26
21
0
31
0
39
0
210
0
220
0
230
1
0
LINE
5
7D
100
AcDbEntity
8
SK4
62
256
6
ByLayer
370
18
48
0.05
60
0
100
AcDbLine
10
-36
20
0
30
0
11
21
21
0
31
0
39
0
210
0
220
0
230
1
0
LINE
5
7F
100
AcDbEntity
8
1
62
256
6
ByLayer
370
18
48
1
60
0
100
AcDbLine
10
0
20
3
30
0
11
0
21
0
31
0
39
0
210
0
220
0
230
1
0
LINE
5
80
100
AcDbEntity
8
1
62
256
6
ByLayer
370
18
48
1
60
0
100
AcDbLine
10
0
20
0
30
0
11
0
21
-3
31
0
39
0
210
0
220
0
230
1
0
LINE
5
81
100
AcDbEntity
8
1
62
256
6
ByLayer
370
18
48
1
60
0
100
AcDbLine
10
20.956857
20
0.852907
30
0
11
20.986452
21
1.487597
31
0
39
0
210
0
220
0
230
1
0
LINE
5
82
100
AcDbEntity
8
1
62
256
6
ByLayer
370
18
48
1
60
0
100
AcDbLine
10
20.921576
20
-0.886388
30
0
11
20.905393
21
-0.679653
31
0
39
0
210
0
220
0
230
1
0
LINE
5
83
100
AcDbEntity
8
1
62
256
6
ByLayer
370
18
48
1
60
0
100
AcDbLine
10
20.959254
20
-0.396229
30
0
11
20.986452
21
-0.737703
31
0
39
0
210
0
220
0
230
1
0
LINE
5
84
100
AcDbEntity
8
1
62
256
6
ByLayer
370
18
48
1
60
0
100
AcDbLine
10
20.862418
20
-0.832825
30
0
11
20.905393
21
-0.679653
31
0
39
0
210
0
220
0
230
1
0
LINE
5
85
100
AcDbEntity
8
1
62
256
6
ByLayer
370
18
48
1
60
0
100
AcDbLine
10
20.905393
20
-0.679653
30
0
11
20.923218
21
-0.400968
31
0
39
0
210
0
220
0
230
1
0
LINE
5
86
100
AcDbEntity
8
1
62
256
6
ByLayer
370
13
48
1
60
0
100
AcDbLine
10
20.783772
20
-0.409046
30
0
11
20.714528
21
-0.557858
31
0
39
0
210
0
220
0
230
1
0
LINE
5
87
100
AcDbEntity
8
1
62
256
6
ByLayer
370
18
48
1
60
0
100
AcDbLine
10
20.983758
20
-2.206073
30
0
11
20.986452
21
-2.301647
31
0
39
0
210
0
220
0
230
1
0
LINE
5
88
100
AcDbEntity
8
1
62
256
6
ByLayer
370
18
48
1
60
0
100
AcDbLine
10
20.44789
20
-2.881571
30
0
11
20.435543
21
-2.875165
31
0
39
0
210
0
220
0
230
1
0
LINE
5
89
100
AcDbEntity
8
1
62
256
6
ByLayer
370
18
48
1
60
0
100
AcDbLine
10
20.922516
20
0.078066
30
0
11
20.938114
21
0.664708
31
0
39
0
210
0
220
0
230
1
0
LINE
5
8A
100
AcDbEntity
8
1
62
256
6
ByLayer
370
18
48
1
60
0
100
AcDbLine
10
20.966254
20
1.723056
30
0
11
20.986452
21
2.48267
31
0
39
0
210
0
220
0
230
1
0
LINE
5
8B
100
AcDbEntity
8
1
62
256
6
ByLayer
370
13
48
1
60
0
100
AcDbLine
10
6.89583
20
-2.879129
30
0
11
6.904707
21
-2.874499
31
0
39
0
210
0
220
0
230
1
0
LINE
5
8C
100
AcDbEntity
8
1
62
256
6
ByLayer
370
18
48
1
60
0
100
AcDbLine
10
9
20
-2.815846
30
0
11
9
21
-2.891134
31
0
39
0
210
0
220
0
230
1
0
LINE
5
8D
100
AcDbEntity
8
1
62
256
6
ByLayer
370
13
48
1
60
0
100
AcDbLine
10
20.663535
20
-0.369843
30
0
11
20.567221
21
-0.55258
31
0
39
0
210
0
220
0
230
1
0
LINE
5
8E
100
AcDbEntity
8
1
62
256
6
ByLayer
370
13
48
1
60
0
100
AcDbLine
10
8.341939
20
-2.751188
30
0
11
9
21
-2.815846
31
0
39
0
210
0
220
0
230
1
0
LINE
5
8F
100
AcDbEntity
8
1
62
256
6
ByLayer
370
18
48
1
60
0
100
AcDbLine
10
9
20
-2.815846
30
0
11
9
21
-2.761239
31
0
39
0
210
0
220
0
230
1
0
LINE
5
90
100
AcDbEntity
8
1
62
256
6
ByLayer
370
18
48
1
60
0
100
AcDbLine
10
20.94714
20
-0.909542
30
0
11
20.986452
21
-2.190352
31
0
39
0
210
0
220
0
230
1
0
LINE
5
91
100
AcDbEntity
8
1
62
256
6
ByLayer
370
13
48
1
60
0
100
AcDbLine
10
6.856404
20
2.609615
30
0
11
9
21
1.202771
31
0
39
0
210
0
220
0
230
1
0
LINE
5
92
100
AcDbEntity
8
1
62
256
6
ByLayer
370
13
48
1
60
0
100
AcDbLine
10
20.44673
20
-2.396415
30
0
11
20.468403
21
-2.517978
31
0
39
0
210
0
220
0
230
1
0
LINE
5
93
100
AcDbEntity
8
1
62
256
6
ByLayer
370
13
48
1
60
0
100
AcDbLine
10
8.754724
20
2.444581
30
0
11
9
21
2.283607
31
0
39
0
210
0
220
0
230
1
0
LINE
5
94
100
AcDbEntity
8
1
62
256
6
ByLayer
370
18
48
1
60
0
100
AcDbLine
10
20.44789
20
2.290812
30
0
11
20.435543
21
2.460805
31
0
39
0
210
0
220
0
230
1
0
LINE
5
95
100
AcDbEntity
8
1
62
256
6
ByLayer
370
18
48
1
60
0
100
AcDbLine
10
20.936069
20
-1.907749
30
0
11
20.911811
21
-1.109901
31
0
39
0
210
0
220
0
230
1
0
LINE
5
96
100
AcDbEntity
8
1
62
256
6
ByLayer
370
18
48
1
60
0
100
AcDbLine
10
9
20
1.128658
30
0
11
9
21
1.202771
31
0
39
0
210
0
220
0
230
1
0
LINE
5
97
100
AcDbEntity
8
1
62
256
6
ByLayer
370
13
48
1
60
0
100
AcDbLine
10
20.444233
20
2.213528
30
0
11
20.468365
21
2.108077
31
0
39
0
210
0
220
0
230
1
0
LINE
5
98
100
AcDbEntity
8
1
62
256
6
ByLayer
370
18
48
1
60
0
100
AcDbLine
10
20.4477
20
-2.257064
30
0
11
20.435271
21
-1.971742
31
0
39
0
210
0
220
0
230
1
0
LINE
5
99
100
AcDbEntity
8
1
62
256
6
ByLayer
370
18
48
1
60
0
100
AcDbLine
10
20.656233
20
-1.29524
30
0
11
20.911811
21
-1.109901
31
0
39
0
210
0
220
0
230
1
0
LINE
5
9A
100
AcDbEntity
8
1
62
256
6
ByLayer
370
18
48
1
60
0
100
AcDbLine
10
20.911811
20
-1.109901
30
0
11
20.94714
21
-0.909542
31
0
39
0
210
0
220
0
230
1
0
LINE
5
9B
100
AcDbEntity
8
1
62
256
6
ByLayer
370
18
48
1
60
0
100
AcDbLine
10
20.610582
20
-0.604767
30
0
11
20.94714
21
-0.909542
31
0
39
0
210
0
220
0
230
1
0
LINE
5
9C
100
AcDbEntity
8
1
62
256
6
ByLayer
370
13
48
1
60
0
100
AcDbLine
10
20.592094
20
-0.587301
30
0
11
19.782949
21
-0.722105
31
0
39
0
210
0
220
0
230
1
0
LINE
5
9D
100
AcDbEntity
8
1
62
256
6
ByLayer
370
18
48
1
60
0
100
AcDbLine
10
20.94975
20
0.671818
30
0
11
20.986452
21
1.606945
31
0
39
0
210
0
220
0
230
1
0
LINE
5
9E
100
AcDbEntity
8
1
62
256
6
ByLayer
370
13
48
1
60
0
100
AcDbLine
10
19.984798
20
1.343765
30
0
11
20.309042
21
0.82857
31
0
39
0
210
0
220
0
230
1
0
LINE
5
9F
100
AcDbEntity
8
1
62
256
6
ByLayer
370
18
48
1
60
0
100
AcDbLine
10
20.94975
20
0.671818
30
0
11
20.736778
21
0.541569
31
0
39
0
210
0
220
0
230
1
0
LINE
5
A0
100
AcDbEntity
8
1
62
256
6
ByLayer
370
18
48
1
60
0
100
AcDbLine
10
8.200435
20
-2.682678
30
0
11
9
21
-2.761239
31
0
39
0
210
0
220
0
230
1
0
LINE
5
A1
100
AcDbEntity
8
1
62
256
6
ByLayer
370
18
48
1
60
0
100
AcDbLine
10
9
20
-2.761239
30
0
11
9
21
-2.315824
31
0
39
0
210
0
220
0
230
1
0
LINE
5
A2
100
AcDbEntity
8
1
62
256
6
ByLayer
370
13
48
1
60
0
100
AcDbLine
10
6.661386
20
-1.724942
30
0
11
8.285188
21
-1.884489
31
0
39
0
210
0
220
0
230
1
0
LINE
5
A3
100
AcDbEntity
8
1
62
256
6
ByLayer
370
13
48
1
60
0
100
AcDbLine
10
6.674121
20
-1.558607
30
0
11
7.649718
21
-1.654464
31
0
39
0
210
0
220
0
230
1
0
LINE
5
A4
100
AcDbEntity
8
1
62
256
6
ByLayer
370
18
48
1
60
0
100
AcDbLine
10
20.936069
20
0.019827
30
0
11
20.918334
21
0.095985
31
0
39
0
210
0
220
0
230
1
0
LINE
5
A5
100
AcDbEntity
8
1
62
256
6
ByLayer
370
18
48
1
60
0
100
AcDbLine
10
20.718676
20
0.58598
30
0
11
20.918334
21
0.095985
31
0
39
0
210
0
220
0
230
1
0
LINE
5
A6
100
AcDbEntity
8
1
62
256
6
ByLayer
370
18
48
1
60
0
100
AcDbLine
10
9
20
-1.641818
30
0
11
9
21
-1.754278
31
0
39
0
210
0
220
0
230
1
0
LINE
5
A7
100
AcDbEntity
8
1
62
256
6
ByLayer
370
13
48
1
60
0
100
AcDbLine
10
6.825706
20
2.555649
30
0
11
9
21
1.128658
31
0
39
0
210
0
220
0
230
1
0
LINE
5
A8
100
AcDbEntity
8
1
62
256
6
ByLayer
370
13
48
1
60
0
100
AcDbLine
10
8.330201
20
-1.258766
30
0
11
9
21
-1.641818
31
0
39
0
210
0
220
0
230
1
0
LINE
5
A9
100
AcDbEntity
8
1
62
256
6
ByLayer
370
18
48
1
60
0
100
AcDbLine
10
9
20
-1.641818
30
0
11
9
21
-1.511524
31
0
39
0
210
0
220
0
230
1
0
LINE
5
AA
100
AcDbEntity
8
1
62
256
6
ByLayer
370
18
48
1
60
0
100
AcDbLine
10
8.147642
20
1.272198
30
0
11
9
21
0.712795
31
0
39
0
210
0
220
0
230
1
0
LINE
5
AB
100
AcDbEntity
8
1
62
256
6
ByLayer
370
18
48
1
60
0
100
AcDbLine
10
9
20
1.202771
30
0
11
9
21
2.283607
31
0
39
0
210
0
220
0
230
1
0
LINE
5
AC
100
AcDbEntity
8
1
62
256
6
ByLayer
370
18
48
1
60
0
100
AcDbLine
10
9
20
0.712795
30
0
11
9
21
1.128658
31
0
39
0
210
0
220
0
230
1
0
LINE
5
AD
100
AcDbEntity
8
1
62
256
6
ByLayer
370
18
48
1
60
0
100
AcDbLine
10
9
20
-0.818552
30
0
11
9
21
-0.619668
31
0
39
0
210
0
220
0
230
1
0
LINE
5
AE
100
AcDbEntity
8
1
62
256
6
ByLayer
370
13
48
1
60
0
100
AcDbLine
10
8.303169
20
1.07685
30
0
11
9
21
0.61952
31
0
39
0
210
0
220
0
230
1
0
LINE
5
AF
100
AcDbEntity
8
1
62
256
6
ByLayer
370
18
48
1
60
0
100
AcDbLine
10
9
20
0.61952
30
0
11
9
21
0.712795
31
0
39
0
210
0
220
0
230
1
0
LINE
5
B0
100
AcDbEntity
8
1
62
256
6
ByLayer
370
13
48
1
60
0
100
AcDbLine
10
8.525026
20
2.489973
30
0
11
8.525026
21
2.778191
31
0
39
0
210
0
220
0
230
1
0
LINE
5
B1
100
AcDbEntity
8
1
62
256
6
ByLayer
370
18
48
1
60
0
100
AcDbLine
10
8.141031
20
-1.020287
30
0
11
9
21
-1.511524
31
0
39
0
210
0
220
0
230
1
0
LINE
5
B2
100
AcDbEntity
8
1
62
256
6
ByLayer
370
18
48
1
60
0
100
AcDbLine
10
9
20
-1.511524
30
0
11
9
21
-0.818552
31
0
39
0
210
0
220
0
230
1
0
LINE
5
B3
100
AcDbEntity
8
1
62
256
6
ByLayer
370
13
48
1
60
0
100
AcDbLine
10
6.65189
20
0.524312
30
0
11
9
21
-0.818552
31
0
39
0
210
0
220
0
230
1
0
LINE
5
B4
100
AcDbEntity
8
1
62
256
6
ByLayer
370
13
48
1
60
0
100
AcDbLine
10
6.666855
20
0.714637
30
0
11
9
21
-0.619668
31
0
39
0
210
0
220
0
230
1
0
LINE
5
B5
100
AcDbEntity
8
1
62
256
6
ByLayer
370
18
48
1
60
0
100
AcDbLine
10
9
20
-0.117417
30
0
11
9
21
-0.619668
31
0
39
0
210
0
220
0
230
1
0
LINE
5
B6
100
AcDbEntity
8
1
62
256
6
ByLayer
370
18
48
1
60
0
100
AcDbLine
10
9
20
0.61952
30
0
11
9
21
0.542471
31
0
39
0
210
0
220
0
230
1
0
LINE
5
B7
100
AcDbEntity
8
1
62
256
6
ByLayer
370
18
48
1
60
0
100
AcDbLine
10
20.447805
20
0.127823
30
0
11
20.435403
21
0.488862
31
0
39
0
210
0
220
0
230
1
0
LINE
5
B8
100
AcDbEntity
8
1
62
256
6
ByLayer
370
13
48
1
60
0
100
AcDbLine
10
20.445532
20
-0.040052
30
0
11
20.468384
21
-0.220484
31
0
39
0
210
0
220
0
230
1
0
LINE
5
B9
100
AcDbEntity
8
1
62
256
6
ByLayer
370
18
48
1
60
0
100
AcDbLine
10
9
20
2.803376
30
0
11
9
21
2.683327
31
0
39
0
210
0
220
0
230
1
0
LINE
5
BA
100
AcDbEntity
8
1
62
256
6
ByLayer
370
18
48
1
60
0
100
AcDbLine
10
9
20
2.429709
30
0
11
9
21
2.283607
31
0
39
0
210
0
220
0
230
1
0
LINE
5
BB
100
AcDbEntity
8
1
62
256
6
ByLayer
370
13
48
1
60
0
100
AcDbLine
10
8.330247
20
2.823004
30
0
11
8.422118
21
2.800285
31
0
39
0
210
0
220
0
230
1
0
LINE
5
BC
100
AcDbEntity
8
1
62
256
6
ByLayer
370
13
48
1
60
0
100
AcDbLine
10
8.525026
20
-2.88
30
0
11
8.525026
21
-2.800737
31
0
39
0
210
0
220
0
230
1
0
LINE
5
BD
100
AcDbEntity
8
1
62
256
6
ByLayer
370
13
48
1
60
0
100
AcDbLine
10
8.525026
20
-1.990013
30
0
11
8.525026
21
-1.430415
31
0
39
0
210
0
220
0
230
1
0
LINE
5
BE
100
AcDbEntity
8
1
62
256
6
ByLayer
370
13
48
1
60
0
100
AcDbLine
10
2.996857
20
-2.88
30
0
11
2.996857
21
0
31
0
39
0
210
0
220
0
230
1
0
LINE
5
BF
100
AcDbEntity
8
1
62
256
6
ByLayer
370
13
48
1
60
0
100
AcDbLine
10
2.996857
20
0
30
0
11
2.996857
21
2.88
31
0
39
0
210
0
220
0
230
1
0
LINE
5
C0
100
AcDbEntity
8
1
62
256
6
ByLayer
370
13
48
1
60
0
100
AcDbLine
10
8.525026
20
0.201662
30
0
11
8.525026
21
0.880338
31
0
39
0
210
0
220
0
230
1
0
LINE
5
C1
100
AcDbEntity
8
1
62
256
6
ByLayer
370
18
48
1
60
0
100
AcDbLine
10
2.521884
20
3
30
0
11
2.521884
21
0
31
0
39
0
210
0
220
0
230
1
0
LINE
5
C2
100
AcDbEntity
8
1
62
256
6
ByLayer
370
18
48
1
60
0
100
AcDbLine
10
2.521884
20
0
30
0
11
2.521884
21
-3
31
0
39
0
210
0
220
0
230
1
0
LINE
5
C3
100
AcDbEntity
8
SK1
62
256
6
ByLayer
370
18
48
1
60
0
100
AcDbLine
10
0
20
3
30
0
11
0
21
0
31
0
39
0
210
0
220
0
230
1
0
LINE
5
C5
100
AcDbEntity
8
SK1
62
256
6
ByLayer
370
18
48
1
60
0
100
AcDbLine
10
0
20
0
30
0
11
0
21
-3
31
0
39
0
210
0
220
0
230
1
0
LINE
5
C6
100
AcDbEntity
8
SK1
62
256
6
ByLayer
370
18
48
1
60
0
100
AcDbLine
10
-21
20
3
30
0
11
-20.1
21
2.1
31
0
39
0
210
0
220
0
230
1
0
LINE
5
C7
100
AcDbEntity
8
SK1
62
256
6
ByLayer
370
18
48
1
60
0
100
AcDbLine
10
-15
20
3
30
0
11
-15.9
21
2.1
31
0
39
0
210
0
220
0
230
1
0
LINE
5
C8
100
AcDbEntity
8
SK1
62
256
6
ByLayer
370
18
48
1
60
0
100
AcDbLine
10
-20.1
20
2.1
30
0
11
-15.9
21
2.1
31
0
39
0
210
0
220
0
230
1
0
LINE
5
C9
100
AcDbEntity
8
SK1
62
256
6
ByLayer
370
18
48
1
60
0
100
AcDbLine
10
-35.6
20
3
30
0
11
-35.6
21
-3
31
0
39
0
210
0
220
0
230
1
0
LINE
5
CA
100
AcDbEntity
8
SK1
62
256
6
ByLayer
370
18
48
1
60
0
100
AcDbLine
10
-36
20
-2.6
30
0
11
-36
21
2.6
31
0
39
0
210
0
220
0
230
1
0
LINE
5
CB
100
AcDbEntity
8
1
62
256
6
ByLayer
370
18
48
1
60
0
100
AcDbLine
10
2.521884
20
3
30
0
11
0
21
3
31
0
39
0
210
0
220
0
230
1
0
LINE
5
CC
100
AcDbEntity
8
1
62
256
6
ByLayer
370
18
48
1
60
0
100
AcDbLine
10
0
20
-3
30
0
11
2.521884
21
-3
31
0
39
0
210
0
220
0
230
1
0
LINE
5
CD
100
AcDbEntity
8
1
62
256
6
ByLayer
370
18
48
1
60
0
100
AcDbLine
10
8.532599
20
2.776736
30
0
11
8.28241
21
2.838606
31
0
39
0
210
0
220
0
230
1
0
LINE
5
CE
100
AcDbEntity
8
1
62
256
6
ByLayer
370
18
48
1
60
0
100
AcDbLine
10
7.823805
20
2.88
30
0
11
2.996857
21
2.88
31
0
39
0
210
0
220
0
230
1
0
LINE
5
CF
100
AcDbEntity
8
1
62
256
6
ByLayer
370
18
48
1
60
0
100
AcDbLine
10
2.996857
20
-2.88
30
0
11
6.928307
21
-2.88
31
0
39
0
210
0
220
0
230
1
0
LINE
5
D0
100
AcDbEntity
8
1
62
256
6
ByLayer
370
18
48
1
60
0
100
AcDbLine
10
8.379555
20
-2.88
30
0
11
8.525026
21
-2.88
31
0
39
0
210
0
220
0
230
1
0
LINE
5
D1
100
AcDbEntity
8
SK1
62
256
6
ByLayer
370
18
48
1
60
0
100
AcDbLine
10
0
20
3
30
0
11
-15
21
3
31
0
39
0
210
0
220
0
230
1
0
LINE
5
D2
100
AcDbEntity
8
SK1
62
256
6
ByLayer
370
18
48
1
60
0
100
AcDbLine
10
-21
20
3
30
0
11
-35.6
21
3
31
0
39
0
210
0
220
0
230
1
0
LINE
5
D3
100
AcDbEntity
8
SK1
62
256
6
ByLayer
370
18
48
1
60
0
100
AcDbLine
10
-35.6
20
-3
30
0
11
0
21
-3
31
0
39
0
210
0
220
0
230
1
0
LINE
5
D4
100
AcDbEntity
8
SK1
62
256
6
ByLayer
370
18
48
1
60
0
100
AcDbLine
10
-36
20
-2.6
30
0
11
-35.6
21
-3
31
0
39
0
210
0
220
0
230
1
0
LINE
5
D5
100
AcDbEntity
8
SK1
62
256
6
ByLayer
370
18
48
1
60
0
100
AcDbLine
10
-35.6
20
3
30
0
11
-36
21
2.6
31
0
39
0
210
0
220
0
230
1
0
LINE
5
D6
100
AcDbEntity
8
SK2
62
256
6
ByLayer
370
18
48
1
60
0
100
AcDbLine
10
-43.85
20
11.75
30
0
11
-43.85
21
-19.315466
31
0
39
0
210
0
220
0
230
1
0
LINE
5
D8
100
AcDbEntity
8
SK2
62
256
6
ByLayer
370
18
48
1
60
0
100
AcDbLine
10
-37.1875
20
3
30
0
11
-45.85
21
3
31
0
39
0
210
0
220
0
230
1
0
LINE
5
D9
100
AcDbEntity
8
SK2
62
256
6
ByLayer
370
18
48
1
60
0
100
AcDbLine
10
-37.1875
20
-3
30
0
11
-45.85
21
-3
31
0
39
0
210
0
220
0
230
1
0
LINE
5
DA
100
AcDbEntity
8
1
62
256
6
ByLayer
370
18
48
1
60
1
100
AcDbLine
10
-43.85
20
3
30
0
11
-44.310784
21
6.499998
31
0
39
0
210
0
220
0
230
1
0
LINE
5
DB
100
AcDbEntity
8
1
62
256
6
ByLayer
370
18
48
1
60
1
100
AcDbLine
10
-44.310784
20
6.499998
30
0
11
-43.389216
21
6.500002
31
0
39
0
210
0
220
0
230
1
0
LINE
5
DC
100
AcDbEntity
8
1
62
256
6
ByLayer
370
18
48
1
60
1
100
AcDbLine
10
-43.389216
20
6.500002
30
0
11
-43.85
21
3
31
0
39
0
210
0
220
0
230
1
0
LINE
5
DD
100
AcDbEntity
8
1
62
256
6
ByLayer
370
18
48
1
60
1
100
AcDbLine
10
-43.85
20
-3
30
0
11
-43.389216
21
-6.499998
31
0
39
0
210
0
220
0
230
1
0
LINE
5
DE
100
AcDbEntity
8
1
62
256
6
ByLayer
370
18
48
1
60
1
100
AcDbLine
10
-43.389216
20
-6.499998
30
0
11
-44.310784
21
-6.500002
31
0
39
0
210
0
220
0
230
1
0
LINE
5
DF
100
AcDbEntity
8
1
62
256
6
ByLayer
370
18
48
1
60
1
100
AcDbLine
10
-44.310784
20
-6.500002
30
0
11
-43.85
21
-3
31
0
39
0
210
0
220
0
230
1
0
LINE
5
E0
100
AcDbEntity
8
SK2
62
256
6
ByLayer
370
13
48
1
60
0
100
AcDbLine
10
7.210942
20
29.844398
30
0
11
7.210942
21
-11.63
31
0
39
0
210
0
220
0
230
1
0
LINE
5
E1
100
AcDbEntity
8
SK2
62
256
6
ByLayer
370
13
48
1
60
0
100
AcDbLine
10
6.937526
20
2.88
30
0
11
5.210942
21
2.88
31
0
39
0
210
0
220
0
230
1
0
LINE
5
E2
100
AcDbEntity
8
SK2
62
256
6
ByLayer
370
13
48
1
60
0
100
AcDbLine
10
6.937526
20
-2.88
30
0
11
5.210942
21
-2.88
31
0
39
0
210
0
220
0
230
1
0
LINE
5
E3
100
AcDbEntity
8
1
62
256
6
ByLayer
370
18
48
1
60
1
100
AcDbLine
10
7.210942
20
2.88
30
0
11
6.750158
21
6.379998
31
0
39
0
210
0
220
0
230
1
0
LINE
5
E4
100
AcDbEntity
8
1
62
256
6
ByLayer
370
18
48
1
60
1
100
AcDbLine
10
6.750158
20
6.379998
30
0
11
7.671726
21
6.380002
31
0
39
0
210
0
220
0
230
1
0
LINE
5
E5
100
AcDbEntity
8
1
62
256
6
ByLayer
370
18
48
1
60
1
100
AcDbLine
10
7.671726
20
6.380002
30
0
11
7.210942
21
2.88
31
0
39
0
210
0
220
0
230
1
0
LINE
5
E6
100
AcDbEntity
8
1
62
256
6
ByLayer
370
18
48
1
60
1
100
AcDbLine
10
7.210942
20
-2.88
30
0
11
7.671726
21
-6.379998
31
0
39
0
210
0
220
0
230
1
0
LINE
5
E7
100
AcDbEntity
8
1
62
256
6
ByLayer
370
18
48
1
60
1
100
AcDbLine
10
7.671726
20
-6.379998
30
0
11
6.750158
21
-6.380002
31
0
39
0
210
0
220
0
230
1
0
LINE
5
E8
100
AcDbEntity
8
1
62
256
6
ByLayer
370
18
48
1
60
1
100
AcDbLine
10
6.750158
20
-6.380002
30
0
11
7.210942
21
-2.88
31
0
39
0
210
0
220
0
230
1
0
LINE
5
E9
100
AcDbEntity
8
2
62
256
6
ByLayer
370
18
48
1
60
0
100
AcDbLine
10
33
20
19.315466
30
0
11
33
21
-11.75
31
0
39
0
210
0
220
0
230
1
0
LINE
5
EB
100
AcDbEntity
8
2
62
256
6
ByLayer
370
18
48
1
60
0
100
AcDbLine
10
22.5875
20
3
30
0
11
35
21
3
31
0
39
0
210
0
220
0
230
1
0
LINE
5
EC
100
AcDbEntity
8
2
62
256
6
ByLayer
370
18
48
1
60
0
100
AcDbLine
10
22.5875
20
-3
30
0
11
35
21
-3
31
0
39
0
210
0
220
0
230
1
0
LINE
5
ED
100
AcDbEntity
8
1
62
256
6
ByLayer
370
18
48
1
60
1
100
AcDbLine
10
33
20
3
30
0
11
32.539216
21
6.499998
31
0
39
0
210
0
220
0
230
1
0
LINE
5
EE
100
AcDbEntity
8
1
62
256
6
ByLayer
370
18
48
1
60
1
100
AcDbLine
10
32.539216
20
6.499998
30
0
11
33.460784
21
6.500002
31
0
39
0
210
0
220
0
230
1
0
LINE
5
EF
100
AcDbEntity
8
1
62
256
6
ByLayer
370
18
48
1
60
1
100
AcDbLine
10
33.460784
20
6.500002
30
0
11
33
21
3
31
0
39
0
210
0
220
0
230
1
0
LINE
5
F0
100
AcDbEntity
8
1
62
256
6
ByLayer
370
18
48
1
60
1
100
AcDbLine
10
33
20
-3
30
0
11
33.460784
21
-6.499998
31
0
39
0
210
0
220
0
230
1
0
LINE
5
F1
100
AcDbEntity
8
1
62
256
6
ByLayer
370
18
48
1
60
1
100
AcDbLine
10
33.460784
20
-6.499998
30
0
11
32.539216
21
-6.500002
31
0
39
0
210
0
220
0
230
1
0
LINE
5
F2
100
AcDbEntity
8
1
62
256
6
ByLayer
370
18
48
1
60
1
100
AcDbLine
10
32.539216
20
-6.500002
30
0
11
33
21
-3
31
0
39
0
210
0
220
0
230
1
0
LINE
5
F3
100
AcDbEntity
8
SK2
62
256
6
ByLayer
370
18
48
1
60
0
100
AcDbLine
10
21
20
-49.575009
30
0
11
-36
21
-49.575009
31
0
39
0
210
0
220
0
230
1
0
LINE
5
F4
100
AcDbEntity
8
SK2
62
256
6
ByLayer
370
18
48
1
60
0
100
AcDbLine
10
-36
20
-4.1875
30
0
11
-36
21
-51.575009
31
0
39
0
210
0
220
0
230
1
0
LINE
5
F5
100
AcDbEntity
8
SK2
62
256
6
ByLayer
370
18
48
1
60
0
100
AcDbLine
10
21
20
-4.5875
30
0
11
21
21
-51.575009
31
0
39
0
210
0
220
0
230
1
0
LINE
5
F6
100
AcDbEntity
8
1
62
256
6
ByLayer
370
18
48
1
60
1
100
AcDbLine
10
-36
20
-49.575009
30
0
11
-32.500002
21
-49.114225
31
0
39
0
210
0
220
0
230
1
0
LINE
5
F7
100
AcDbEntity
8
1
62
256
6
ByLayer
370
18
48
1
60
1
100
AcDbLine
10
-32.500002
20
-49.114225
30
0
11
-32.499998
21
-50.035792
31
0
39
0
210
0
220
0
230
1
0
LINE
5
F8
100
AcDbEntity
8
1
62
256
6
ByLayer
370
18
48
1
60
1
100
AcDbLine
10
-32.499998
20
-50.035792
30
0
11
-36
21
-49.575009
31
0
39
0
210
0
220
0
230
1
0
LINE
5
F9
100
AcDbEntity
8
1
62
256
6
ByLayer
370
18
48
1
60
1
100
AcDbLine
10
21
20
-49.575009
30
0
11
17.500002
21
-50.035792
31
0
39
0
210
0
220
0
230
1
0
LINE
5
FA
100
AcDbEntity
8
1
62
256
6
ByLayer
370
18
48
1
60
1
100
AcDbLine
10
17.500002
20
-50.035792
30
0
11
17.499998
21
-49.114225
31
0
39
0
210
0
220
0
230
1
0
LINE
5
FB
100
AcDbEntity
8
1
62
256
6
ByLayer
370
18
48
1
60
1
100
AcDbLine
10
17.499998
20
-49.114225
30
0
11
21
21
-49.575009
31
0
39
0
210
0
220
0
230
1
0
LINE
5
1DC
100
AcDbEntity
8
1
62
256
6
ByLayer
370
18
48
1
60
1
100
AcDbLine
10
-43.85
20
3
30
0
11
-44.310784
21
6.499998
31
0
39
0
210
0
220
0
230
1
0
LINE
5
1DD
100
AcDbEntity
8
1
62
256
6
ByLayer
370
18
48
1
60
1
100
AcDbLine
10
-44.310784
20
6.499998
30
0
11
-43.389216
21
6.500002
31
0
39
0
210
0
220
0
230
1
0
LINE
5
1DE
100
AcDbEntity
8
1
62
256
6
ByLayer
370
18
48
1
60
1
100
AcDbLine
10
-43.389216
20
6.500002
30
0
11
-43.85
21
3
31
0
39
0
210
0
220
0
230
1
0
LINE
5
1E0
100
AcDbEntity
8
1
62
256
6
ByLayer
370
18
48
1
60
1
100
AcDbLine
10
-43.85
20
-3
30
0
11
-43.389216
21
-6.499998
31
0
39
0
210
0
220
0
230
1
0
LINE
5
1E1
100
AcDbEntity
8
1
62
256
6
ByLayer
370
18
48
1
60
1
100
AcDbLine
10
-43.389216
20
-6.499998
30
0
11
-44.310784
21
-6.500002
31
0
39
0
210
0
220
0
230
1
0
LINE
5
1E2
100
AcDbEntity
8
1
62
256
6
ByLayer
370
18
48
1
60
1
100
AcDbLine
10
-44.310784
20
-6.500002
30
0
11
-43.85
21
-3
31
0
39
0
210
0
220
0
230
1
0
LINE
5
1E6
100
AcDbEntity
8
1
62
256
6
ByLayer
370
18
48
1
60
1
100
AcDbLine
10
7.210942
20
2.88
30
0
11
6.750158
21
6.379998
31
0
39
0
210
0
220
0
230
1
0
LINE
5
1E7
100
AcDbEntity
8
1
62
256
6
ByLayer
370
18
48
1
60
1
100
AcDbLine
10
6.750158
20
6.379998
30
0
11
7.671726
21
6.380002
31
0
39
0
210
0
220
0
230
1
0
LINE
5
1E8
100
AcDbEntity
8
1
62
256
6
ByLayer
370
18
48
1
60
1
100
AcDbLine
10
7.671726
20
6.380002
30
0
11
7.210942
21
2.88
31
0
39
0
210
0
220
0
230
1
0
LINE
5
1EA
100
AcDbEntity
8
1
62
256
6
ByLayer
370
18
48
1
60
1
100
AcDbLine
10
7.210942
20
-2.88
30
0
11
7.671726
21
-6.379998
31
0
39
0
210
0
220
0
230
1
0
LINE
5
1EB
100
AcDbEntity
8
1
62
256
6
ByLayer
370
18
48
1
60
1
100
AcDbLine
10
7.671726
20
-6.379998
30
0
11
6.750158
21
-6.380002
31
0
39
0
210
0
220
0
230
1
0
LINE
5
1EC
100
AcDbEntity
8
1
62
256
6
ByLayer
370
18
48
1
60
1
100
AcDbLine
10
6.750158
20
-6.380002
30
0
11
7.210942
21
-2.88
31
0
39
0
210
0
220
0
230
1
0
LINE
5
1F0
100
AcDbEntity
8
1
62
256
6
ByLayer
370
18
48
1
60
1
100
AcDbLine
10
33
20
3
30
0
11
32.539216
21
6.499998
31
0
39
0
210
0
220
0
230
1
0
LINE
5
1F1
100
AcDbEntity
8
1
62
256
6
ByLayer
370
18
48
1
60
1
100
AcDbLine
10
32.539216
20
6.499998
30
0
11
33.460784
21
6.500002
31
0
39
0
210
0
220
0
230
1
0
LINE
5
1F2
100
AcDbEntity
8
1
62
256
6
ByLayer
370
18
48
1
60
1
100
AcDbLine
10
33.460784
20
6.500002
30
0
11
33
21
3
31
0
39
0
210
0
220
0
230
1
0
LINE
5
1F4
100
AcDbEntity
8
1
62
256
6
ByLayer
370
18
48
1
60
1
100
AcDbLine
10
33
20
-3
30
0
11
33.460784
21
-6.499998
31
0
39
0
210
0
220
0
230
1
0
LINE
5
1F5
100
AcDbEntity
8
1
62
256
6
ByLayer
370
18
48
1
60
1
100
AcDbLine
10
33.460784
20
-6.499998
30
0
11
32.539216
21
-6.500002
31
0
39
0
210
0
220
0
230
1
0
LINE
5
1F6
100
AcDbEntity
8
1
62
256
6
ByLayer
370
18
48
1
60
1
100
AcDbLine
10
32.539216
20
-6.500002
30
0
11
33
21
-3
31
0
39
0
210
0
220
0
230
1
0
LINE
5
1F9
100
AcDbEntity
8
1
62
256
6
ByLayer
370
18
48
1
60
1
100
AcDbLine
10
-36
20
-49.575009
30
0
11
-32.500002
21
-49.114225
31
0
39
0
210
0
220
0
230
1
0
LINE
5
1FA
100
AcDbEntity
8
1
62
256
6
ByLayer
370
18
48
1
60
1
100
AcDbLine
10
-32.500002
20
-49.114225
30
0
11
-32.499998
21
-50.035792
31
0
39
0
210
0
220
0
230
1
0
LINE
5
1FB
100
AcDbEntity
8
1
62
256
6
ByLayer
370
18
48
1
60
1
100
AcDbLine
10
-32.499998
20
-50.035792
30
0
11
-36
21
-49.575009
31
0
39
0
210
0
220
0
230
1
0
LINE
5
1FD
100
AcDbEntity
8
1
62
256
6
ByLayer
370
18
48
1
60
1
100
AcDbLine
10
21
20
-49.575009
30
0
11
17.500002
21
-50.035792
31
0
39
0
210
0
220
0
230
1
0
LINE
5
1FE
100
AcDbEntity
8
1
62
256
6
ByLayer
370
18
48
1
60
1
100
AcDbLine
10
17.500002
20
-50.035792
30
0
11
17.499998
21
-49.114225
31
0
39
0
210
0
220
0
230
1
0
LINE
5
1FF
100
AcDbEntity
8
1
62
256
6
ByLayer
370
18
48
1
60
1
100
AcDbLine
10
17.499998
20
-49.114225
30
0
11
21
21
-49.575009
31
0
39
0
210
0
220
0
230
1
0
MTEXT
5
1D8
100
AcDbEntity
8
SK2
62
256
6
ByLayer
370
18
48
1
60
0
100
AcDbMText
10
-45.414634
20
-17.380622
30
0
210
0
220
0
230
1
1
%%c
40
3.5
41
0
44
1.084337
50
90
71
7
72
5
7
iso_b_vert
0
MTEXT
5
1DB
100
AcDbEntity
8
SK2
62
256
6
ByLayer
370
18
48
1
60
0
100
AcDbMText
10
-45.414634
20
-10.407966
30
0
210
0
220
0
230
1
1
\W0.5404;6
40
3.5
41
0
44
1.084337
50
90
71
7
72
5
7
iso_b_vert
0
MTEXT
5
1E4
100
AcDbEntity
8
SK2
62
256
6
ByLayer
370
18
48
1
60
0
100
AcDbMText
10
5.646308
20
14.814844
30
0
210
0
220
0
230
1
1
%%c
40
3.5
41
0
44
1.084337
50
90
71
7
72
5
7
iso_b_vert
0
MTEXT
5
1E5
100
AcDbEntity
8
SK2
62
256
6
ByLayer
370
18
48
1
60
0
100
AcDbMText
10
5.646308
20
21.7875
30
0
210
0
220
0
230
1
1
\W0.7346;5.76
40
3.5
41
0
44
1.084337
50
90
71
7
72
5
7
iso_b_vert
0
MTEXT
5
1EE
100
AcDbEntity
8
2
62
256
6
ByLayer
370
18
48
1
60
0
100
AcDbMText
10
31.435366
20
10.934844
30
0
210
0
220
0
230
1
1
%%c
40
3.5
41
0
44
1.084337
50
90
71
7
72
5
7
iso_b_vert
0
MTEXT
5
1EF
100
AcDbEntity
8
2
62
256
6
ByLayer
370
18
48
1
60
0
100
AcDbMText
10
31.435366
20
17.9075
30
0
210
0
220
0
230
1
1
\W0.5404;6
40
3.5
41
0
44
1.084337
50
90
71
7
72
5
7
iso_b_vert
0
MTEXT
5
1F8
100
AcDbEntity
8
SK2
62
256
6
ByLayer
370
18
48
1
60
0
100
AcDbMText
10
-9.404966
20
-48.542375
30
0
210
0
220
0
230
1
1
\W0.6740;57
40
3.5
41
0
44
1.084337
50
0
71
7
72
5
7
iso_b_vert
0
MTEXT
5
201
100
AcDbEntity
8
SK6
62
256
6
ByLayer
370
18
48
1
60
0
100
AcDbMText
10
-33.043339
20
-62.121777
30
0
210
0
220
0
230
1
1
\W0.7193;1K337-0600-050-XD   1730
40
3
41
0
44
1.084337
50
0
71
7
72
5
7
iso_b_vert
0
HATCH
5
1DF
100
AcDbEntity
8
SK2
62
256
6
ByLayer
370
13
48
1
60
0
100
AcDbHatch
10
0
20
0
30
0
210
0
220
0
230
1
2
ANSI31
70
0
71
0
91
1
92
5
93
3
72
1
10
-43.85
20
3
11
-44.3107837415528
21
6.49999830744682
72
1
10
-44.3107837415528
20
6.49999830744682
11
-43.3892162584472
21
6.50000169255318
72
1
10
-43.3892162584472
20
6.50000169255318
11
-43.85
21
3
97
0
75
0
76
1
52
0
41
0.0062
77
0
78
1
53
45
43
0
44
0
45
-0.0139193969876572
46
0.0139193969876572
79
0
47
0
98
1
10
0
20
0
0
HATCH
5
1E3
100
AcDbEntity
8
SK2
62
256
6
ByLayer
370
13
48
1
60
0
100
AcDbHatch
10
0
20
0
30
0
210
0
220
0
230
1
2
ANSI31
70
0
71
0
91
1
92
5
93
3
72
1
10
-43.85
20
-3.00000000000003
11
-43.3892162584472
21
-6.49999830744684
72
1
10
-43.3892162584472
20
-6.49999830744684
11
-44.3107837415528
21
-6.50000169255321
72
1
10
-44.3107837415528
20
-6.50000169255321
11
-43.85
21
-3.00000000000003
97
0
75
0
76
1
52
0
41
0.0062
77
0
78
1
53
45
43
0
44
0
45
-0.0139193969876572
46
0.0139193969876572
79
0
47
0
98
1
10
0
20
0
0
HATCH
5
1E9
100
AcDbEntity
8
SK2
62
256
6
ByLayer
370
13
48
1
60
0
100
AcDbHatch
10
0
20
0
30
0
210
0
220
0
230
1
2
ANSI31
70
0
71
0
91
1
92
5
93
3
72
1
10
7.2109418164107
20
2.87999999999997
11
6.75015807485792
21
6.37999830744678
72
1
10
6.75015807485792
20
6.37999830744678
11
7.67172555796347
21
6.38000169255315
72
1
10
7.67172555796347
20
6.38000169255315
11
7.2109418164107
21
2.87999999999997
97
0
75
0
76
1
52
0
41
0.0062
77
0
78
1
53
45
43
0
44
0
45
-0.0139193969876572
46
0.0139193969876572
79
0
47
0
98
1
10
0
20
0
0
HATCH
5
1ED
100
AcDbEntity
8
SK2
62
256
6
ByLayer
370
13
48
1
60
0
100
AcDbHatch
10
0
20
0
30
0
210
0
220
0
230
1
2
ANSI31
70
0
71
0
91
1
92
5
93
3
72
1
10
7.2109418164107
20
-2.88000000000002
11
7.67172555796347
21
-6.37999830744684
72
1
10
7.67172555796347
20
-6.37999830744684
11
6.75015807485792
21
-6.38000169255321
72
1
10
6.75015807485792
20
-6.38000169255321
11
7.2109418164107
21
-2.88000000000002
97
0
75
0
76
1
52
0
41
0.0062
77
0
78
1
53
45
43
0
44
0
45
-0.0139193969876572
46
0.0139193969876572
79
0
47
0
98
1
10
0
20
0
0
HATCH
5
1F3
100
AcDbEntity
8
2
62
256
6
ByLayer
370
13
48
1
60
0
100
AcDbHatch
10
0
20
0
30
0
210
0
220
0
230
1
2
ANSI31
70
0
71
0
91
1
92
5
93
3
72
1
10
33
20
2.99999999999992
11
32.5392162584472
21
6.49999830744673
72
1
10
32.5392162584472
20
6.49999830744673
11
33.4607837415528
21
6.5000016925531
72
1
10
33.4607837415528
20
6.5000016925531
11
33
21
2.99999999999992
97
0
75
0
76
1
52
0
41
0.0062
77
0
78
1
53
45
43
0
44
0
45
-0.0139193969876572
46
0.0139193969876572
79
0
47
0
98
1
10
0
20
0
0
HATCH
5
1F7
100
AcDbEntity
8
2
62
256
6
ByLayer
370
13
48
1
60
0
100
AcDbHatch
10
0
20
0
30
0
210
0
220
0
230
1
2
ANSI31
70
0
71
0
91
1
92
5
93
3
72
1
10
33
20
-3.00000000000008
11
33.4607837415528
21
-6.4999983074469
72
1
10
33.4607837415528
20
-6.4999983074469
11
32.5392162584472
21
-6.50000169255327
72
1
10
32.5392162584472
20
-6.50000169255327
11
33
21
-3.00000000000008
97
0
75
0
76
1
52
0
41
0.0062
77
0
78
1
53
45
43
0
44
0
45
-0.0139193969876572
46
0.0139193969876572
79
0
47
0
98
1
10
0
20
0
0
HATCH
5
1FC
100
AcDbEntity
8
SK2
62
256
6
ByLayer
370
13
48
1
60
0
100
AcDbHatch
10
0
20
0
30
0
210
0
220
0
230
1
2
ANSI31
70
0
71
0
91
1
92
5
93
3
72
1
10
-36
20
-49.5750085855234
11
-32.5000016925532
21
-49.1142248439707
72
1
10
-32.5000016925532
20
-49.1142248439707
11
-32.4999983074468
21
-50.0357923270762
72
1
10
-32.4999983074468
20
-50.0357923270762
11
-36
21
-49.5750085855234
97
0
75
0
76
1
52
0
41
0.0062
77
0
78
1
53
45
43
0
44
0
45
-0.0139193969876572
46
0.0139193969876572
79
0
47
0
98
1
10
0
20
0
0
HATCH
5
200
100
AcDbEntity
8
SK2
62
256
6
ByLayer
370
13
48
1
60
0
100
AcDbHatch
10
0
20
0
30
0
210
0
220
0
230
1
2
ANSI31
70
0
71
0
91
1
92
5
93
3
72
1
10
21
20
-49.5750085855234
11
17.5000016925532
21
-50.0357923270762
72
1
10
17.5000016925532
20
-50.0357923270762
11
17.4999983074468
21
-49.1142248439707
72
1
10
17.4999983074468
20
-49.1142248439707
11
21
21
-49.5750085855234
97
0
75
0
76
1
52
0
41
0.0062
77
0
78
1
53
45
43
0
44
0
45
-0.0139193969876572
46
0.0139193969876572
79
0
47
0
98
1
10
0
20
0
0
DIMENSION
5
204
100
AcDbEntity
8
2
62
256
6
ByLayer
370
18
48
1
60
0
100
AcDbDimension
2
_U0
10
9
20
-17.575009
30
0
11
15
21
-17.575009
31
0
70
32
71
1
72
1
41
1
210
0
220
0
230
1
3
Standard
100
AcDbAlignedDimension
13
21
23
-3
33
0
14
9
24
-3
34
0
50
0
100
AcDbRotatedDimension
1001
ACAD
1000
DSTYLE
1002
{
1070
   371
1070
    13
1070
   372
1070
    13
1070
   170
1070
     0
1070
   144
1040
1.0
1070
   277
1070
     2
1070
   284
1070
     8
1070
   278
1070
    46
1070
   146
1040
1.0
1070
   345
1005
16
1070
   347
1005
16
1070
   346
1005
16
1070
   344
1005
0
1070
   343
1005
0
1070
   172
1070
     1
1070
    76
1070
     0
1070
    75
1070
     0
1070
   282
1070
     0
1070
   281
1070
     0
1070
    71
1070
     0
1070
    74
1070
     0
1070
   279
1070
     0
1070
   173
1070
     1
1070
   340
1005
1D9
1070
   271
1070
     2
1070
   272
1070
     2
1070
    77
1070
     1
1070
    73
1070
     1
1070
   171
1070
     3
1070
   274
1070
     4
1070
   177
1070
     2
1070
   176
1070
     2
1070
   178
1070
     2
1070
    78
1070
     8
1070
    48
1040
-0.1
1070
    41
1040
3.5
1070
   147
1040
1.75
1070
    42
1040
1.5875
1070
    44
1040
2.0
1070
   140
1040
3.5
1002
}
1001
ACAD_DSTYLE_DIM_LINETYPE
1070
   380
1005
16
1001
ACAD_DSTYLE_DIM_EXT1_LINETYPE
1070
   381
1005
16
1001
ACAD_DSTYLE_DIM_EXT2_LINETYPE
1070
   382
1005
16
0
DIMENSION
5
21E
100
AcDbEntity
8
SK2
62
256
6
ByLayer
370
18
48
1
60
0
100
AcDbDimension
2
_U1
10
2.996857
20
-32.575009
30
0
11
11.998429
21
-32.575009
31
0
70
32
71
1
72
1
41
1
210
0
220
0
230
1
3
Standard
100
AcDbAlignedDimension
13
21
23
-3
33
0
14
2.996857
24
-2.88
34
0
50
0
100
AcDbRotatedDimension
1001
ACAD
1000
DSTYLE
1002
{
1070
   371
1070
    13
1070
   372
1070
    13
1070
   170
1070
     0
1070
   144
1040
1.0
1070
   277
1070
     2
1070
   284
1070
     8
1070
   278
1070
    46
1070
   146
1040
1.0
1070
   345
1005
16
1070
   347
1005
16
1070
   346
1005
16
1070
   344
1005
0
1070
   343
1005
0
1070
   172
1070
     1
1070
    76
1070
     0
1070
    75
1070
     0
1070
   282
1070
     0
1070
   281
1070
     0
1070
    71
1070
     0
1070
    74
1070
     0
1070
   279
1070
     0
1070
   173
1070
     1
1070
   340
1005
1D9
1070
   271
1070
     2
1070
   272
1070
     2
1070
    77
1070
     1
1070
    73
1070
     1
1070
   171
1070
     3
1070
   274
1070
     4
1070
   177
1070
     2
1070
   176
1070
     2
1070
   178
1070
     2
1070
    78
1070
     8
1070
    48
1040
-0.1
1070
    41
1040
3.5
1070
   147
1040
1.75
1070
    42
1040
1.5875
1070
    44
1040
2.0
1070
   140
1040
3.5
1002
}
1001
ACAD_DSTYLE_DIM_LINETYPE
1070
   380
1005
16
1001
ACAD_DSTYLE_DIM_EXT1_LINETYPE
1070
   381
1005
16
1001
ACAD_DSTYLE_DIM_EXT2_LINETYPE
1070
   382
1005
16
0
ENDSEC
0
SECTION
2
OBJECTS
0
DICTIONARY
5
2a6
330
0
100
AcDbDictionary
280
0
281
1
3
ACAD_GROUP
350
2a7
3
ACAD_MLINESTYLE
350
2a8
0
DICTIONARY
5
2a7
330
0
100
AcDbDictionary
280
0
281
1
0
DICTIONARY
5
2a8
330
0
100
AcDbDictionary
280
0
281
1
3
Standard
350
18
0
MLINESTYLE
5
18
330
2a8
100
AcDbMlineStyle
2
Standard
70
0
3

62
256
51
90
52
90
71
2
49
-0.5
62
256
6
ByLayer
49
0.5
62
256
6
ByLayer
0
RASTERVARIABLES
5
294
330

100
AcDbRasterVariables
90
0
70
1
71
1
72
1
0
ENDSEC
0
EOF
