0
SECTION
2
HEADER
9
$ACADVER
1
AC1015
9
$DWGCODEPAGE
3
ANSI_1252
9
$HANDSEED
5
27f
9
$ANGBASE
50
0
9
$ANGDIR
70
0
9
$ATTMODE
70
1
9
$AUNITS
70
0
9
$AUPREC
70
0
9
$CECOLOR
62
256
9
$CELTSCALE
40
1
9
$CELTYPE
6
ByLayer
9
$CELWEIGHT
370
18
9
$CLAYER
8
0
9
$CMLJUST
70
0
9
$CMLSCALE
40
1
9
$CMLSTYLE
2
Standard
9
$DIMSTYLE
2
Standard
9
$TEXTSIZE
40
0.2
9
$TEXTSTYLE
7
Standard
9
$LUNITS
70
2
9
$LUPREC
70
4
9
$EXTNAMES
290
1
9
$INSUNITS
70
4
9
$LTSCALE
40
1
9
$LWDISPLAY
290
1
9
$PDMODE
70
0
9
$PDSIZE
40
0
9
$PLINEGEN
70
0
0
ENDSEC
0
SECTION
2
CLASSES
0
CLASS
1
RASTERVARIABLES
2
AcDbRasterVariables
3
ISM
90
0
280
0
281
0
0
ENDSEC
0
SECTION
2
TABLES
0
TABLE
2
VPORT
5
275
100
AcDbSymbolTable
0
VPORT
5
1
100
AcDbSymbolTableRecord
100
AcDbViewportTableRecord
2
*Active
70
0
10
0
20
0
11
1
21
1
12
-1
22
1
13
0
23
0
14
0.5
24
0.5
15
10
25
10
16
0
26
0
36
1
17
0
27
0
37
0
0
ENDTAB
0
TABLE
2
LTYPE
5
276
100
AcDbSymbolTable
0
LTYPE
5
14
100
AcDbSymbolTableRecord
100
AcDbLinetypeTableRecord
70
0
2
ByBlock
3

72
65
73
0
40
0
0
LTYPE
5
15
100
AcDbSymbolTableRecord
100
AcDbLinetypeTableRecord
70
0
2
ByLayer
3

72
65
73
0
40
0
0
LTYPE
5
16
100
AcDbSymbolTableRecord
100
AcDbLinetypeTableRecord
70
0
2
Continuous
3
Solid line
72
65
73
0
40
0
0
LTYPE
5
6E
100
AcDbSymbolTableRecord
100
AcDbLinetypeTableRecord
70
0
2
CENTER
3
____ _ ____ _ ____ _ ____
72
65
73
4
40
47.5
49
22
74
0
49
-8.5
74
0
49
8.5
74
0
49
-8.5
74
0
0
LTYPE
5
6F
100
AcDbSymbolTableRecord
100
AcDbLinetypeTableRecord
70
0
2
DASHED
3
__ __ __ __ __ __ __ __ __
72
65
73
2
40
25.72
49
12.86
74
0
49
-12.86
74
0
0
ENDTAB
0
TABLE
2
LAYER
5
277
100
AcDbSymbolTable
0
LAYER
5
10
100
AcDbSymbolTableRecord
100
AcDbLayerTableRecord
2
0
70
0
62
7
6
Continuous
290
1
370
-3
390
0
0
LAYER
5
71
100
AcDbSymbolTableRecord
100
AcDbLayerTableRecord
2
80
70
0
62
-6
6
Continuous
290
1
370
-3
390
0
0
LAYER
5
73
100
AcDbSymbolTableRecord
100
AcDbLayerTableRecord
2
81
70
0
62
-3
6
Continuous
290
1
370
-3
390
0
0
LAYER
5
75
100
AcDbSymbolTableRecord
100
AcDbLayerTableRecord
2
1
70
0
62
4
6
Continuous
290
1
370
-3
390
0
0
LAYER
5
7B
100
AcDbSymbolTableRecord
100
AcDbLayerTableRecord
2
4
70
0
62
-2
6
CENTER
290
1
370
-3
390
0
0
LAYER
5
D9
100
AcDbSymbolTableRecord
100
AcDbLayerTableRecord
2
2
70
0
62
7
6
Continuous
290
1
370
-3
390
0
0
LAYER
5
1D3
100
AcDbSymbolTableRecord
100
AcDbLayerTableRecord
2
Defpoints
70
0
62
7
6
Continuous
290
0
370
-3
390
0
0
LAYER
5
261
100
AcDbSymbolTableRecord
100
AcDbLayerTableRecord
2
SK4
70
0
62
2
6
CENTER
290
1
370
-3
390
0
0
LAYER
5
262
100
AcDbSymbolTableRecord
100
AcDbLayerTableRecord
2
SK1
70
0
62
4
6
Continuous
290
1
370
-3
390
0
0
LAYER
5
263
100
AcDbSymbolTableRecord
100
AcDbLayerTableRecord
2
SK2
70
0
62
7
6
Continuous
290
1
370
-3
390
0
0
LAYER
5
264
100
AcDbSymbolTableRecord
100
AcDbLayerTableRecord
2
SK6
70
0
62
5
6
Continuous
290
1
370
-3
390
0
0
ENDTAB
0
TABLE
2
STYLE
5
278
100
AcDbSymbolTable
0
STYLE
5
11
100
AcDbSymbolTableRecord
100
AcDbTextStyleTableRecord
2
Standard
3
txt
70
0
71
0
40
0
41
1
42
0
50
0
0
STYLE
5
1A5
100
AcDbSymbolTableRecord
100
AcDbTextStyleTableRecord
2
iso_b_vert
3
simplex.shx
70
0
71
0
40
0
41
1
42
0
50
0
0
STYLE
5
1A6
100
AcDbSymbolTableRecord
100
AcDbTextStyleTableRecord
2
DWGDirectTextStyle
3
simplex
70
0
71
0
40
0
41
1
42
0
50
0
0
ENDTAB
0
TABLE
2
DIMSTYLE
5
279
100
AcDbSymbolTable
100
AcDbDimStyleTable
0
DIMSTYLE
105
27
100
AcDbSymbolTableRecord
100
AcDbDimStyleTableRecord
2
Standard
70
0
3
<>
41
0.18
42
0.0625
44
0.18
140
0.18
147
0.09
73
0
74
0
77
1
271
2
275
0
278
52
280
0
340
11
0
ENDTAB
0
TABLE
2
VIEW
5
27a
100
AcDbSymbolTable
0
ENDTAB
0
TABLE
2
UCS
5
27b
100
AcDbSymbolTable
0
ENDTAB
0
TABLE
2
APPID
5
27c
100
AcDbSymbolTable
0
APPID
5
12
100
AcDbSymbolTableRecord
100
AcDbRegAppTableRecord
2
ACAD
70
0
0
APPID
5
1CF
100
AcDbSymbolTableRecord
100
AcDbRegAppTableRecord
2
ACAD_DSTYLE_DIMBREAK
70
0
0
APPID
5
220
100
AcDbSymbolTableRecord
100
AcDbRegAppTableRecord
2
ACAD_DSTYLE_DIM_LINETYPE
70
0
0
APPID
5
221
100
AcDbSymbolTableRecord
100
AcDbRegAppTableRecord
2
ACAD_DSTYLE_DIM_EXT1_LINETYPE
70
0
0
APPID
5
222
100
AcDbSymbolTableRecord
100
AcDbRegAppTableRecord
2
ACAD_DSTYLE_DIM_EXT2_LINETYPE
70
0
0
APPID
5
25D
100
AcDbSymbolTableRecord
100
AcDbRegAppTableRecord
2
ACAD_MLEADERVER
70
0
0
ENDTAB
0
TABLE
2
BLOCK_RECORD
5
27d
100
AcDbSymbolTable
0
BLOCK_RECORD
5
1F
100
AcDbSymbolTableRecord
100
AcDbBlockTableRecord
2
*Model_Space
340
0
70
0
0
BLOCK_RECORD
5
1B
100
AcDbSymbolTableRecord
100
AcDbBlockTableRecord
2
*Paper_Space
340
0
70
0
0
BLOCK_RECORD
5
23
100
AcDbSymbolTableRecord
100
AcDbBlockTableRecord
2
*Paper_Space0
340
0
70
0
0
BLOCK_RECORD
5
1D4
100
AcDbSymbolTableRecord
100
AcDbBlockTableRecord
2
*D1
340
0
70
0
0
BLOCK_RECORD
5
1E1
100
AcDbSymbolTableRecord
100
AcDbBlockTableRecord
2
_U0
340
0
70
0
0
BLOCK_RECORD
5
1ED
100
AcDbSymbolTableRecord
100
AcDbBlockTableRecord
2
*D3
340
0
70
0
0
BLOCK_RECORD
5
1F9
100
AcDbSymbolTableRecord
100
AcDbBlockTableRecord
2
_U1
340
0
70
0
0
ENDTAB
0
ENDSEC
0
SECTION
2
BLOCKS
0
BLOCK
5
20
100
AcDbEntity
8
0
100
AcDbBlockBegin
2
*Model_Space
70
0
10
0
20
0
30
0
3
*Model_Space
0
ENDBLK
5
21
100
AcDbEntity
8
0
100
AcDbBlockEnd
0
BLOCK
5
1C
100
AcDbEntity
8
0
100
AcDbBlockBegin
2
*Paper_Space
70
0
10
0
20
0
30
0
3
*Paper_Space
0
ENDBLK
5
1D
100
AcDbEntity
8
0
100
AcDbBlockEnd
0
BLOCK
5
24
100
AcDbEntity
8
0
100
AcDbBlockBegin
2
*Paper_Space0
70
0
10
0
20
0
30
0
3
*Paper_Space0
0
ENDBLK
5
25
100
AcDbEntity
8
0
100
AcDbBlockEnd
0
BLOCK
5
1D5
100
AcDbEntity
8
0
100
AcDbBlockBegin
2
*D1
70
1
10
0
20
0
30
0
3
*D1
0
LINE
5
1D7
100
AcDbEntity
8
0
62
256
6
ByLayer
370
-2
48
1
60
0
100
AcDbLine
10
27
20
-3.5875
30
0
11
27
21
-19.1
31
0
39
0
210
0
220
0
230
1
0
LINE
5
1D8
100
AcDbEntity
8
0
62
256
6
ByLayer
370
-2
48
1
60
0
100
AcDbLine
10
13
20
-3.5875
30
0
11
13
21
-19.1
31
0
39
0
210
0
220
0
230
1
0
LINE
5
1D9
100
AcDbEntity
8
0
62
256
6
ByLayer
370
-2
48
1
60
0
100
AcDbLine
10
30.5
20
-17.1
30
0
11
34
21
-17.1
31
0
39
0
210
0
220
0
230
1
0
LINE
5
1DA
100
AcDbEntity
8
0
62
256
6
ByLayer
370
-2
48
1
60
0
100
AcDbLine
10
9.5
20
-17.1
30
0
11
6
21
-17.1
31
0
39
0
210
0
220
0
230
1
0
SOLID
5
1DB
100
AcDbEntity
8
0
62
256
6
ByLayer
370
-1
48
1
60
0
100
AcDbTrace
10
30.5
20
-16.516667
30
0
11
30.5
21
-17.683333
31
0
12
27
22
-17.1
32
0
13
27
23
-17.1
33
0
39
0
210
0
220
0
230
1
0
SOLID
5
1DC
100
AcDbEntity
8
0
62
256
6
ByLayer
370
-1
48
1
60
0
100
AcDbTrace
10
9.5
20
-17.683333
30
0
11
9.5
21
-16.516667
31
0
12
13
22
-17.1
32
0
13
13
23
-17.1
33
0
39
0
210
0
220
0
230
1
0
MTEXT
5
1DD
100
AcDbEntity
8
0
62
256
6
ByLayer
370
18
48
1
60
0
100
AcDbMText
10
20
20
-10.1
30
0
210
0
220
0
230
1
1
\A1;14
40
3.5
41
0
44
1
50
0
71
5
72
5
7
iso_b_vert
0
POINT
5
1DE
100
AcDbEntity
8
Defpoints
62
0
6
ByLayer
370
-1
48
1
60
0
100
AcDbPoint
10
27
20
-2
30
0
39
0
210
0
220
0
230
1
50
360
0
POINT
5
1DF
100
AcDbEntity
8
Defpoints
62
0
6
ByLayer
370
-1
48
1
60
0
100
AcDbPoint
10
13
20
-2
30
0
39
0
210
0
220
0
230
1
50
360
0
POINT
5
1E0
100
AcDbEntity
8
Defpoints
62
0
6
ByLayer
370
-1
48
1
60
0
100
AcDbPoint
10
13
20
-17.1
30
0
39
0
210
0
220
0
230
1
50
360
0
ENDBLK
5
1D6
100
AcDbEntity
8
0
100
AcDbBlockEnd
0
BLOCK
5
1E8
100
AcDbEntity
8
0
100
AcDbBlockBegin
2
_U0
70
0
10
0
20
0
30
0
3
_U0
0
MTEXT
5
1E2
100
AcDbEntity
8
2
62
256
6
ByLayer
370
18
48
1
60
0
100
AcDbMText
10
18.3482
20
-16.067366
30
0
210
0
220
0
230
1
1
\W0.5785;14
40
3.5
41
0
44
1.084337
50
0
71
7
72
5
7
iso_b_vert
0
LINE
5
1E3
100
AcDbEntity
8
2
62
256
6
ByLayer
370
13
48
1
60
0
100
AcDbLine
10
27
20
-3.5875
30
0
11
27
21
-19.1
31
0
39
0
210
0
220
0
230
1
0
LINE
5
1E4
100
AcDbEntity
8
2
62
256
6
ByLayer
370
13
48
1
60
0
100
AcDbLine
10
13
20
-3.5875
30
0
11
13
21
-19.1
31
0
39
0
210
0
220
0
230
1
0
LINE
5
1E5
100
AcDbEntity
8
2
62
256
6
ByLayer
370
13
48
1
60
0
100
AcDbLine
10
27
20
-17.1
30
0
11
13
21
-17.1
31
0
39
0
210
0
220
0
230
1
0
SOLID
5
1E6
100
AcDbEntity
8
2
62
256
6
ByLayer
370
18
48
1
60
0
100
AcDbTrace
10
27
20
-17.1
30
0
11
23.500002
21
-17.560784
31
0
12
23.499998
22
-16.639216
32
0
13
23.499998
23
-16.639216
33
0
39
0
210
0
220
0
230
1
0
SOLID
5
1E7
100
AcDbEntity
8
2
62
256
6
ByLayer
370
18
48
1
60
0
100
AcDbTrace
10
13
20
-17.1
30
0
11
16.499998
21
-16.639216
31
0
12
16.500002
22
-17.560784
32
0
13
16.500002
23
-17.560784
33
0
39
0
210
0
220
0
230
1
0
ENDBLK
5
1E9
100
AcDbEntity
8
0
100
AcDbBlockEnd
0
BLOCK
5
1EE
100
AcDbEntity
8
0
100
AcDbBlockBegin
2
*D3
70
1
10
0
20
0
30
0
3
*D3
0
LINE
5
1F0
100
AcDbEntity
8
0
62
256
6
ByLayer
370
-2
48
1
60
0
100
AcDbLine
10
27
20
-3.5875
30
0
11
27
21
-34.1
31
0
39
0
210
0
220
0
230
1
0
LINE
5
1F1
100
AcDbEntity
8
0
62
256
6
ByLayer
370
-2
48
1
60
0
100
AcDbLine
10
7.397679
20
-3.5075
30
0
11
7.397679
21
-34.1
31
0
39
0
210
0
220
0
230
1
0
LINE
5
1F2
100
AcDbEntity
8
0
62
256
6
ByLayer
370
-2
48
1
60
0
100
AcDbLine
10
23.5
20
-32.1
30
0
11
10.897679
21
-32.1
31
0
39
0
210
0
220
0
230
1
0
SOLID
5
1F3
100
AcDbEntity
8
0
62
256
6
ByLayer
370
-1
48
1
60
0
100
AcDbTrace
10
23.5
20
-32.683333
30
0
11
23.5
21
-31.516667
31
0
12
27
22
-32.1
32
0
13
27
23
-32.1
33
0
39
0
210
0
220
0
230
1
0
SOLID
5
1F4
100
AcDbEntity
8
0
62
256
6
ByLayer
370
-1
48
1
60
0
100
AcDbTrace
10
10.897679
20
-31.516667
30
0
11
10.897679
21
-32.683333
31
0
12
7.397679
22
-32.1
32
0
13
7.397679
23
-32.1
33
0
39
0
210
0
220
0
230
1
0
MTEXT
5
1F5
100
AcDbEntity
8
0
62
256
6
ByLayer
370
18
48
1
60
0
100
AcDbMText
10
17.198839
20
-25.1
30
0
210
0
220
0
230
1
1
\A1;19.6
40
3.5
41
0
44
1
50
0
71
5
72
5
7
iso_b_vert
0
POINT
5
1F6
100
AcDbEntity
8
Defpoints
62
0
6
ByLayer
370
-1
48
1
60
0
100
AcDbPoint
10
27
20
-2
30
0
39
0
210
0
220
0
230
1
50
360
0
POINT
5
1F7
100
AcDbEntity
8
Defpoints
62
0
6
ByLayer
370
-1
48
1
60
0
100
AcDbPoint
10
7.397679
20
-1.92
30
0
39
0
210
0
220
0
230
1
50
360
0
POINT
5
1F8
100
AcDbEntity
8
Defpoints
62
0
6
ByLayer
370
-1
48
1
60
0
100
AcDbPoint
10
7.397679
20
-32.1
30
0
39
0
210
0
220
0
230
1
50
360
0
ENDBLK
5
1EF
100
AcDbEntity
8
0
100
AcDbBlockEnd
0
BLOCK
5
200
100
AcDbEntity
8
0
100
AcDbBlockBegin
2
_U1
70
0
10
0
20
0
30
0
3
_U1
0
MTEXT
5
1FA
100
AcDbEntity
8
SK2
62
256
6
ByLayer
370
18
48
1
60
0
100
AcDbMText
10
13.714574
20
-31.067366
30
0
210
0
220
0
230
1
1
\W0.6563;19.6
40
3.5
41
0
44
1.084337
50
0
71
7
72
5
7
iso_b_vert
0
LINE
5
1FB
100
AcDbEntity
8
SK2
62
256
6
ByLayer
370
13
48
1
60
0
100
AcDbLine
10
27
20
-3.5875
30
0
11
27
21
-34.1
31
0
39
0
210
0
220
0
230
1
0
LINE
5
1FC
100
AcDbEntity
8
SK2
62
256
6
ByLayer
370
13
48
1
60
0
100
AcDbLine
10
7.397679
20
-3.5075
30
0
11
7.397679
21
-34.1
31
0
39
0
210
0
220
0
230
1
0
LINE
5
1FD
100
AcDbEntity
8
SK2
62
256
6
ByLayer
370
13
48
1
60
0
100
AcDbLine
10
27
20
-32.1
30
0
11
7.397679
21
-32.1
31
0
39
0
210
0
220
0
230
1
0
SOLID
5
1FE
100
AcDbEntity
8
SK2
62
256
6
ByLayer
370
18
48
1
60
0
100
AcDbTrace
10
27
20
-32.1
30
0
11
23.500002
21
-32.560784
31
0
12
23.499998
22
-31.639216
32
0
13
23.499998
23
-31.639216
33
0
39
0
210
0
220
0
230
1
0
SOLID
5
1FF
100
AcDbEntity
8
SK2
62
256
6
ByLayer
370
18
48
1
60
0
100
AcDbTrace
10
7.397679
20
-32.1
30
0
11
10.897677
21
-31.639216
31
0
12
10.897681
22
-32.560784
32
0
13
10.897681
23
-32.560784
33
0
39
0
210
0
220
0
230
1
0
ENDBLK
5
201
100
AcDbEntity
8
0
100
AcDbBlockEnd
0
ENDSEC
0
SECTION
2
ENTITIES
0
ARC
5
EB
100
AcDbEntity
8
1
62
256
6
ByLayer
370
18
48
1
60
0
100
AcDbCircle
39
0
10
12.608082
20
2.92
30
0
40
1
210
0
220
0
230
1
100
AcDbArc
50
289.971309
51
291.621656
0
ARC
5
EC
100
AcDbEntity
8
1
62
256
6
ByLayer
370
18
48
1
60
0
100
AcDbCircle
39
0
10
7.397679
20
2.92
30
0
40
1
210
0
220
0
230
1
100
AcDbArc
50
240
51
270
0
ARC
5
ED
100
AcDbEntity
8
1
62
256
6
ByLayer
370
18
48
1
60
0
100
AcDbCircle
39
0
10
7.397679
20
-2.92
30
0
40
1
210
0
220
0
230
1
100
AcDbArc
50
90
51
120
0
ELLIPSE
5
EE
100
AcDbEntity
8
1
62
256
6
ByLayer
370
18
48
1
60
0
100
AcDbEllipse
10
26.975956
20
-0.013518
30
0
11
0.0104480570624793
21
0.561357839692954
31
0
210
0
220
0
230
1
40
0.051623
41
1.41790716443854
42
1.60451871757904
0
ELLIPSE
5
EF
100
AcDbEntity
8
1
62
256
6
ByLayer
370
18
48
1
60
0
100
AcDbEllipse
10
26.936141
20
0.075582
30
0
11
0.275430356361122
21
-0.0454124401604237
31
0
210
0
220
0
230
1
40
0.37568
41
-1.68128535150209
42
-1.47087325625503
0
ELLIPSE
5
F0
100
AcDbEntity
8
1
62
256
6
ByLayer
370
18
48
1
60
0
100
AcDbEllipse
10
26.875963
20
-0.247093
30
0
11
0.274869053801548
21
0.0145892180325458
31
0
210
0
220
0
230
1
40
0.664598
41
1.33357576769282
42
2.17783024716336
0
ELLIPSE
5
F1
100
AcDbEntity
8
1
62
256
6
ByLayer
370
18
48
1
60
0
100
AcDbEllipse
10
26.936141
20
0.075582
30
0
11
0.275430353579433
21
-0.0454124390540456
31
0
210
0
220
0
230
1
40
0.37568
41
2.42456295144216
42
2.61630343107081
0
ELLIPSE
5
F2
100
AcDbEntity
8
1
62
256
6
ByLayer
370
18
48
1
60
0
100
AcDbEllipse
10
14.940363
20
0
30
0
11
3.69605289623681
21
1.5764850091544
31
0
210
0
220
0
230
1
40
0.296518
41
-2.68930612974339
42
-2.37305728344045
0
ELLIPSE
5
F3
100
AcDbEntity
8
1
62
256
6
ByLayer
370
18
48
1
60
0
100
AcDbEllipse
10
15.053108
20
0
30
0
11
3.93734019169289
21
-0.400389789647235
31
0
210
0
220
0
230
1
40
0.476918
41
-2.51471078764685
42
-2.19140449655339
0
ELLIPSE
5
F4
100
AcDbEntity
8
1
62
256
6
ByLayer
370
18
48
1
60
0
100
AcDbEllipse
10
14.90306
20
0
30
0
11
3.65110946181666
21
-1.90047741030391
31
0
210
0
220
0
230
1
40
0.0748
41
2.28881346809785
42
2.60233122808802
0
POINT
5
70
100
AcDbEntity
8
80
62
256
6
ByLayer
370
18
48
1
60
0
100
AcDbPoint
10
0
20
0
30
0
39
0
210
0
220
0
230
1
50
360
0
POINT
5
72
100
AcDbEntity
8
81
62
256
6
ByLayer
370
18
48
1
60
0
100
AcDbPoint
10
27
20
0
30
0
39
0
210
0
220
0
230
1
50
360
0
POINT
5
74
100
AcDbEntity
8
1
62
256
6
ByLayer
370
18
48
1
60
1
100
AcDbPoint
10
27
20
-2
30
0
39
0
210
0
220
0
230
1
50
360
0
POINT
5
76
100
AcDbEntity
8
1
62
256
6
ByLayer
370
18
48
1
60
1
100
AcDbPoint
10
13
20
-2
30
0
39
0
210
0
220
0
230
1
50
360
0
POINT
5
77
100
AcDbEntity
8
1
62
256
6
ByLayer
370
18
48
1
60
1
100
AcDbPoint
10
27
20
-2
30
0
39
0
210
0
220
0
230
1
50
360
0
POINT
5
78
100
AcDbEntity
8
1
62
256
6
ByLayer
370
18
48
1
60
1
100
AcDbPoint
10
7.397679
20
-1.92
30
0
39
0
210
0
220
0
230
1
50
360
0
SPLINE
5
F5
100
AcDbEntity
8
1
62
256
6
ByLayer
370
18
48
1
60
0
100
AcDbSpline
70
4
71
3
72
12
73
8
40
0
40
0
40
0
40
0
40
0.418083495673316
40
0.418083495673316
40
0.836166991346632
40
0.836166991346632
40
1
40
1
40
1
40
1
41
1
10
26.9945915163558
20
0.427869276905881
30
0
41
1
10
26.9949035044207
20
0.430323254141371
30
0
41
1
10
26.9941845490999
20
0.432658191645288
30
0
41
1
10
26.9908194589906
20
0.437105541410688
30
0
41
1
10
26.9881685854724
20
0.439220656609649
30
0
41
1
10
26.9830932366449
20
0.441995397868993
30
0
41
1
10
26.9815260984562
20
0.442749929793507
30
0
41
1
10
26.9798234355088
20
0.443478312373799
30
0
0
SPLINE
5
F6
100
AcDbEntity
8
1
62
256
6
ByLayer
370
18
48
1
60
0
100
AcDbSpline
70
4
71
3
72
8
73
4
40
0
40
0
40
0
40
0
40
1
40
1
40
1
40
1
41
1
10
26.9945915163535
20
0.427869276900225
30
0
41
1
10
26.9833828101386
20
0.338627898150491
30
0
41
1
10
26.9721741039236
20
0.249386519400758
30
0
41
1
10
26.9609653977087
20
0.160145140651025
30
0
0
SPLINE
5
F7
100
AcDbEntity
8
1
62
256
6
ByLayer
370
18
48
1
60
0
100
AcDbSpline
70
4
71
3
72
10
73
6
40
0
40
0
40
0
40
0
40
0.923249612600218
40
0.923249612600218
40
1
40
1
40
1
40
1
41
1
10
26.9945915163548
20
-1.45575057269926
30
0
41
1
10
26.9951971980913
20
-1.4747164055905
30
0
41
1
10
26.992039051978
20
-1.49341067321649
30
0
41
1
10
26.9847243961192
20
-1.51337805315416
30
0
41
1
10
26.9841391379246
20
-1.51490349341762
30
0
41
1
10
26.9835304105962
20
-1.51642150661291
30
0
0
SPLINE
5
F8
100
AcDbEntity
8
1
62
256
6
ByLayer
370
13
48
1
60
0
100
AcDbSpline
70
4
71
3
72
8
73
4
40
0
40
0
40
0
40
0
40
1
40
1
40
1
40
1
41
1
10
26.9945915163498
20
-1.45575057269534
30
0
41
1
10
26.9833828101342
20
-1.48583525222187
30
0
41
1
10
26.9721741039186
20
-1.51591993174844
30
0
41
1
10
26.960965397703
20
-1.54600461127498
30
0
0
SPLINE
5
F9
100
AcDbEntity
8
1
62
256
6
ByLayer
370
18
48
1
60
0
100
AcDbSpline
70
4
71
3
72
19
73
15
40
0
40
0
40
0
40
0
40
0.125000000000039
40
0.250000000000078
40
0.250000000000078
40
0.500000000000111
40
0.500000000000111
40
0.625000000000082
40
0.625000000000082
40
0.750000000000055
40
0.750000000000055
40
0.875000000000027
40
0.875000000000027
40
1
40
1
40
1
40
1
41
1
10
26.9945915163556
20
1.79188631107132
30
0
41
1
10
26.9948986267411
20
1.80344453873823
30
0
41
1
10
26.9935207751283
20
1.82625713504225
30
0
41
1
10
26.9884341015777
20
1.84850400940289
30
0
41
1
10
26.9779190042064
20
1.88143424669249
30
0
41
1
10
26.9674987346999
20
1.90165835337956
30
0
41
1
10
26.946895980428
20
1.92932531924308
30
0
41
1
10
26.9393273298523
20
1.93787999686327
30
0
41
1
10
26.9229434356819
20
1.95358167815999
30
0
41
1
10
26.9141164946269
20
1.96075499581033
30
0
41
1
10
26.8951243639052
20
1.97367375265205
30
0
41
1
10
26.8851276402809
20
1.97928705934083
30
0
41
1
10
26.864458486992
20
1.9886935082948
30
0
41
1
10
26.8537416319028
20
1.99252264664227
30
0
41
1
10
26.8426213252863
20
1.99542928624879
30
0
0
SPLINE
5
FA
100
AcDbEntity
8
1
62
256
6
ByLayer
370
18
48
1
60
0
100
AcDbSpline
70
4
71
3
72
24
73
20
40
0
40
0
40
0
40
0
40
0.249999999999979
40
0.249999999999979
40
0.499999999999958
40
0.499999999999958
40
0.624999999999947
40
0.624999999999947
40
0.749999999999936
40
0.749999999999936
40
0.812499999999953
40
0.812499999999953
40
0.874999999999969
40
0.874999999999969
40
0.937499999999986
40
0.937499999999986
40
0.968749999999993
40
0.968749999999993
40
1
40
1
40
1
40
1
41
1
10
26.8709893433995
20
-1.75667488933038
30
0
41
1
10
26.8797249044245
20
-1.7436398934249
30
0
41
1
10
26.8884453787065
20
-1.73003025925644
30
0
41
1
10
26.9057700925221
20
-1.70117445489575
30
0
41
1
10
26.9143902876225
20
-1.68594055558859
30
0
41
1
10
26.9270682264338
20
-1.66104733187956
30
0
41
1
10
26.9312498058386
20
-1.65240492153777
30
0
41
1
10
26.9393889513211
20
-1.63420269666483
30
0
41
1
10
26.9433767529658
20
-1.62460481824073
30
0
41
1
10
26.9490104190277
20
-1.60900496854785
30
0
41
1
10
26.9508128475819
20
-1.60364540239388
30
0
41
1
10
26.9541916203812
20
-1.59244804761897
30
0
41
1
10
26.9557475073434
20
-1.58667270515417
30
0
41
1
10
26.9583875475829
20
-1.57486722771341
30
0
41
1
10
26.9594866733276
20
-1.56870454607014
30
0
41
1
10
26.9605123815439
20
-1.55984107431058
30
0
41
1
10
26.9607573768855
20
-1.55690392049604
30
0
41
1
10
26.9610237784114
20
-1.55126186244331
30
0
41
1
10
26.9610463772167
20
-1.54857187628497
30
0
41
1
10
26.9609653977096
20
-1.54600461127458
30
0
0
SPLINE
5
FB
100
AcDbEntity
8
1
62
256
6
ByLayer
370
18
48
1
60
0
100
AcDbSpline
70
4
71
3
72
10
73
6
40
0
40
0
40
0
40
0
40
0.5
40
0.5
40
1
40
1
40
1
40
1
41
1
10
12.8061199614788
20
-1.886662967078
30
0
41
1
10
12.7742336039652
20
-1.88606593634975
30
0
41
1
10
12.7418313668391
20
-1.88639572891239
30
0
41
1
10
12.6758738953331
20
-1.88912677544741
30
0
41
1
10
12.6423199860521
20
-1.89152564876247
30
0
41
1
10
12.6080816411574
20
-1.89515417111309
30
0
0
SPLINE
5
FC
100
AcDbEntity
8
1
62
256
6
ByLayer
370
18
48
1
60
0
100
AcDbSpline
70
4
71
3
72
8
73
4
40
0
40
0
40
0
40
0
40
1
40
1
40
1
40
1
41
1
10
12.6080816411547
20
1.91026526718221
30
0
41
1
10
12.6820171678461
20
1.91384332340519
30
0
41
1
10
12.7538324566965
20
1.92489125599846
30
0
41
1
10
12.8224637898185
20
1.94165727048355
30
0
0
SPLINE
5
FD
100
AcDbEntity
8
1
62
256
6
ByLayer
370
18
48
1
60
0
100
AcDbSpline
70
4
71
3
72
12
73
8
40
0
40
0
40
0
40
0
40
0.249999999999986
40
0.249999999999986
40
0.499999999999971
40
0.499999999999971
40
1
40
1
40
1
40
1
41
1
10
26.1177668277337
20
0.268409112450911
30
0
41
1
10
26.1187363186442
20
0.271912541987604
30
0
41
1
10
26.11971187102
20
0.275682186010641
30
0
41
1
10
26.1217235498476
20
0.283740606892081
30
0
41
1
10
26.1227648559839
20
0.28805235753731
30
0
41
1
10
26.1259807845856
20
0.301589747115656
30
0
41
1
10
26.1282652920409
20
0.311450925416892
30
0
41
1
10
26.1306203584651
20
0.321810447287589
30
0
0
SPLINE
5
FE
100
AcDbEntity
8
1
62
256
6
ByLayer
370
18
48
1
60
0
100
AcDbSpline
70
4
71
3
72
12
73
8
40
0
40
0
40
0
40
0
40
0.566032713694854
40
0.566032713694854
40
0.849049070542175
40
0.849049070542175
40
1
40
1
40
1
40
1
41
1
10
26.7112042438007
20
-0.105374586703334
30
0
41
1
10
26.69288931418
20
-0.115037061174434
30
0
41
1
10
26.6764653988885
20
-0.126594786836137
30
0
41
1
10
26.6548209982521
20
-0.146038090095971
30
0
41
1
10
26.6480809987328
20
-0.152905581945163
30
0
41
1
10
26.6386505713944
20
-0.163855034520765
30
0
41
1
10
26.6355576627319
20
-0.167716011838621
30
0
41
1
10
26.6326511848883
20
-0.171626549590371
30
0
0
SPLINE
5
FF
100
AcDbEntity
8
1
62
256
6
ByLayer
370
18
48
1
60
0
100
AcDbSpline
70
4
71
3
72
32
73
28
40
0
40
0
40
0
40
0
40
0.0624999999999999
40
0.0624999999999999
40
0.125
40
0.125
40
0.1875
40
0.1875
40
0.25
40
0.25
40
0.375
40
0.375
40
0.4375
40
0.4375
40
0.5
40
0.5625
40
0.5625
40
0.625
40
0.625
40
0.75
40
0.75
40
0.8125
40
0.8125
40
0.875
40
0.9375
40
0.9375
40
1
40
1
40
1
40
1
41
1
10
26.7063994550294
20
0.166760110018686
30
0
41
1
10
26.6993882852765
20
0.163698855827789
30
0
41
1
10
26.6934882223083
20
0.15973808169565
30
0
41
1
10
26.6835798578859
20
0.150553342180984
30
0
41
1
10
26.6795611188701
20
0.145271960706396
30
0
41
1
10
26.6734554635053
20
0.134237758669883
30
0
41
1
10
26.671312466104
20
0.128450406727495
30
0
41
1
10
26.6685448176802
20
0.116602405944548
30
0
41
1
10
26.6679290612999
20
0.110503765265605
30
0
41
1
10
26.6681268585743
20
0.0925139286195531
30
0
41
1
10
26.6708762384359
20
0.0808274793100168
30
0
41
1
10
26.6783211853891
20
0.0643311906102326
30
0
41
1
10
26.6813855656411
20
0.058991371915738
30
0
41
1
10
26.6884954271669
20
0.0489448662263783
30
0
41
1
10
26.6966081317539
20
0.0394688247955344
30
0
41
1
10
26.7067126913477
20
0.0311583454044637
30
0
41
1
10
26.7178630304513
20
0.0234259394496235
30
0
41
1
10
26.7239730511832
20
0.0198517482889145
30
0
41
1
10
26.7434780442944
20
0.0101672789904796
30
0
41
1
10
26.7581698801322
20
0.0050070773700952
30
0
41
1
10
26.7829119138653
20
-0.0015977556328437
30
0
41
1
10
26.7916510025429
20
-0.0036192146084488
30
0
41
1
10
26.8096197005776
20
-0.0073892763143988
30
0
41
1
10
26.8281670869952
20
-0.0109146055382041
30
0
41
1
10
26.847813978693
20
-0.0144018840103683
30
0
41
1
10
26.867981803478
20
-0.0181085459421411
30
0
41
1
10
26.8783547390268
20
-0.0200781743967866
30
0
41
1
10
26.8888140653579
20
-0.0222535644343225
30
0
0
SPLINE
5
100
100
AcDbEntity
8
1
62
256
6
ByLayer
370
18
48
1
60
0
100
AcDbSpline
70
4
71
3
72
18
73
14
40
0
40
0
40
0
40
0
40
0.250000000000008
40
0.250000000000008
40
0.375000000000011
40
0.375000000000011
40
0.500000000000015
40
0.500000000000015
40
0.625000000000018
40
0.625000000000018
40
0.750000000000022
40
0.750000000000022
40
1
40
1
40
1
40
1
41
1
10
26.6939725316198
20
1.381996868084
30
0
41
1
10
26.7018159727517
20
1.37963317158932
30
0
41
1
10
26.7107579500187
20
1.37332790534359
30
0
41
1
10
26.7255393230967
20
1.35896015837432
30
0
41
1
10
26.7306973896239
20
1.35334228614766
30
0
41
1
10
26.7414556841578
20
1.34052006105401
30
0
41
1
10
26.7470646692925
20
1.33329973643382
30
0
41
1
10
26.7585449841385
20
1.31754925654005
30
0
41
1
10
26.7644353672238
20
1.30899797035437
30
0
41
1
10
26.776501224021
20
1.29061243179012
30
0
41
1
10
26.7826914596622
20
1.28075295266021
30
0
41
1
10
26.8015455144426
20
1.24952363047956
30
0
41
1
10
26.8144906471851
20
1.2265257200159
30
0
41
1
10
26.8277899430291
20
1.20147466522087
30
0
0
SPLINE
5
101
100
AcDbEntity
8
1
62
256
6
ByLayer
370
13
48
1
60
0
100
AcDbSpline
70
4
71
3
72
11
73
7
40
0
40
0
40
0
40
0
40
0.162453006807967
40
0.371839755105975
40
0.581226503403983
40
1
40
1
40
1
40
1
41
1
10
17.1788699958923
20
-1.18741669573328
30
0
41
1
10
16.9525799972616
20
-1.18348752859802
30
0
41
1
10
16.4346233319641
20
-1.14488337777297
30
0
41
1
10
15.625
20
-0.982229488013047
30
0
41
0.999999999999999
10
14.4583333333334
20
-0.611544685406188
30
0
41
1
10
13.5833333333334
20
-0.219750193098264
30
0
41
1
10
13
20
0.036662777685649
30
0
0
SPLINE
5
102
100
AcDbEntity
8
1
62
256
6
ByLayer
370
18
48
1
60
0
100
AcDbSpline
70
4
71
3
72
8
73
4
40
0
40
0
40
0
40
0
40
1
40
1
40
1
40
1
41
1
10
26.6939725325132
20
1.3819968692944
30
0
41
1
10
26.6230062331645
20
1.40373680820193
30
0
41
1
10
26.5520399338159
20
1.42423105394437
30
0
41
1
10
26.4810736344672
20
1.44344032904982
30
0
0
SPLINE
5
103
100
AcDbEntity
8
1
62
256
6
ByLayer
370
18
48
1
60
0
100
AcDbSpline
70
4
71
3
72
12
73
8
40
0
40
0
40
0
40
0
40
0.02008290298894
40
0.216066322391152
40
0.412049741793364
40
0.608033161195576
40
1
40
1
40
1
40
1
41
1
10
17.4646634019803
20
-1.40801618151789
30
0
41
1
10
17.4347756013202
20
-1.41678114647445
30
0
41
1
10
17.1132211339934
20
-1.50864002151408
30
0
41
1
10
16.5
20
-1.63234416480577
30
0
41
1
10
15.625
20
-1.66361997209884
30
0
41
0.999999999999999
10
14.4583333333333
20
-1.50563992488293
30
0
41
1
10
13.5833333333334
20
-1.17917827500989
30
0
41
1
10
13
20
-0.901752705009955
30
0
0
SPLINE
5
104
100
AcDbEntity
8
1
62
256
6
ByLayer
370
18
48
1
60
0
100
AcDbSpline
70
4
71
3
72
8
73
4
40
0
40
0
40
0
40
0
40
1
40
1
40
1
40
1
41
1
10
26.82778994916
20
1.20147466795791
30
0
41
1
10
26.8085606077463
20
1.20995837093281
30
0
41
1
10
26.7893312663325
20
1.21836120060465
30
0
41
1
10
26.7701019249187
20
1.2266819518625
30
0
0
SPLINE
5
105
100
AcDbEntity
8
1
62
256
6
ByLayer
370
18
48
1
60
0
100
AcDbSpline
70
4
71
3
72
9
73
5
40
0
40
0
40
0
40
0
40
0.307546341056043
40
1
40
1
40
1
40
1
41
1
10
15.5272449316953
20
-1.75312491150243
30
0
41
1
10
15.2681632877969
20
-1.76520343561836
30
0
41
0.999999999999999
10
14.4257483105651
20
-1.7363270670443
30
0
41
1
10
13.5833333333333
20
-1.48810008578417
30
0
41
1
10
12.9999999999999
20
-1.23571901435204
30
0
0
SPLINE
5
106
100
AcDbEntity
8
1
62
256
6
ByLayer
370
13
48
1
60
0
100
AcDbSpline
70
4
71
3
72
8
73
4
40
0
40
0
40
0
40
0
40
1
40
1
40
1
40
1
41
1
10
26.9945915163553
20
-1.37063263366881
30
0
41
1
10
26.9833828101384
20
-1.29631382717105
30
0
41
1
10
26.9721741039215
20
-1.22199502067326
30
0
41
1
10
26.9609653977045
20
-1.14767621417548
30
0
0
SPLINE
5
107
100
AcDbEntity
8
1
62
256
6
ByLayer
370
18
48
1
60
0
100
AcDbSpline
70
4
71
3
72
22
73
18
40
0
40
0
40
0
40
0
40
0.25
40
0.25
40
0.499999999999999
40
0.499999999999999
40
0.624999999999999
40
0.624999999999999
40
0.75
40
0.75
40
0.8125
40
0.8125
40
0.875
40
0.875
40
0.9375
40
0.9375
40
1
40
1
40
1
40
1
41
1
10
26.8727247981461
20
-1.05694431762012
30
0
41
1
10
26.8813010755578
20
-1.07162976138261
30
0
41
1
10
26.8898661023549
20
-1.08582493331053
30
0
41
1
10
26.9068813208522
20
-1.11258928045154
30
0
41
1
10
26.9153548567541
20
-1.12522375699248
30
0
41
1
10
26.9277765972724
20
-1.14178128313779
30
0
41
1
10
26.9318665224899
20
-1.14689459597801
30
0
41
1
10
26.9398829060109
20
-1.15581147625886
30
0
41
1
10
26.9438090813945
20
-1.15962866123854
30
0
41
1
10
26.9493051499022
20
-1.16336592578145
30
0
41
1
10
26.9510860690502
20
-1.1642800034515
30
0
41
1
10
26.9543733893692
20
-1.16505998658991
30
0
41
1
10
26.9558907021512
20
-1.16494036902202
30
0
41
1
10
26.9584963443703
20
-1.16309597336061
30
0
41
1
10
26.9595401878121
20
-1.16138338281021
30
0
41
1
10
26.9608727564542
20
-1.15587896528092
30
0
41
1
10
26.9611242837511
20
-1.152177135767
30
0
41
1
10
26.9609653977106
20
-1.14767621417576
30
0
0
SPLINE
5
108
100
AcDbEntity
8
1
62
256
6
ByLayer
370
18
48
1
60
0
100
AcDbSpline
70
4
71
3
72
17
73
13
40
0
40
0
40
0
40
0
40
0.124999999999998
40
0.249999999999996
40
0.249999999999996
40
0.500000000000038
40
0.500000000000038
40
0.75000000000008
40
0.75000000000008
40
0.87500000000004
40
0.87500000000004
40
1
40
1
40
1
40
1
41
1
10
26.9945915163557
20
-1.37063263363137
30
0
41
1
10
26.9949009744571
20
-1.37932291278528
30
0
41
1
10
26.9934938989942
20
-1.39636722608128
30
0
41
1
10
26.9883088995087
20
-1.41278090571564
30
0
41
1
10
26.9775823181515
20
-1.43691313060253
30
0
41
1
10
26.9669782585995
20
-1.45146659495887
30
0
41
1
10
26.9389666978208
20
-1.47753501953773
30
0
41
1
10
26.9223069786403
20
-1.48831941474714
30
0
41
1
10
26.893306945996
20
-1.50109623524912
30
0
41
1
10
26.8832068961874
20
-1.50465598210127
30
0
41
1
10
26.8622523107064
20
-1.51039400945473
30
0
41
1
10
26.8513860151324
20
-1.51258127389647
30
0
41
1
10
26.8401060046736
20
-1.51404347985053
30
0
0
SPLINE
5
109
100
AcDbEntity
8
1
62
256
6
ByLayer
370
13
48
1
60
0
100
AcDbSpline
70
4
71
3
72
8
73
4
40
0
40
0
40
0
40
0
40
1
40
1
40
1
40
1
41
1
10
26.794653664506
20
-1.49750441663173
30
0
41
1
10
26.7716366047389
20
-1.34489086981577
30
0
41
1
10
26.7486195449717
20
-1.19227732299981
30
0
41
1
10
26.7256024852046
20
-1.03966377618386
30
0
0
SPLINE
5
10A
100
AcDbEntity
8
1
62
256
6
ByLayer
370
18
48
1
60
0
100
AcDbSpline
70
4
71
3
72
8
73
4
40
0
40
0
40
0
40
0
40
1
40
1
40
1
40
1
41
1
10
26.7800003696198
20
-1.49608349366576
30
0
41
1
10
26.7566361009942
20
-1.34116779462388
30
0
41
1
10
26.7332718323686
20
-1.18625209558201
30
0
41
1
10
26.709907563743
20
-1.0313363965401
30
0
0
SPLINE
5
10B
100
AcDbEntity
8
1
62
256
6
ByLayer
370
13
48
1
60
0
100
AcDbSpline
70
4
71
3
72
18
73
14
40
0
40
0
40
0
40
0
40
0.0309891623585881
40
0.182244430037535
40
0.333499697716483
40
0.446941148475693
40
0.560382599234904
40
0.636010233074378
40
0.711637866913852
40
0.787265500753325
40
0.862893134592799
40
0.976334585352009
40
1
40
1
40
1
40
1
41
1
10
22.8042699023305
20
-1.2072524793075
30
0
41
1
10
22.7445132682203
20
-1.19568385127687
30
0
41
1
10
22.3930899674435
20
-1.12204272514947
30
0
41
1
10
21.75
20
-0.931294362826406
30
0
41
1
10
20.9479166666667
20
-0.596004745797217
30
0
41
1
10
20.21875
20
-0.251236268799886
30
0
41
1
10
19.6354166666666
20
0.0360353542342296
30
0
41
1
10
19.125
20
0.282155331322372
30
0
41
1
10
18.6875
20
0.483200375045186
30
0
41
1
10
18.25
20
0.667494627757748
30
0
41
1
10
17.7395833333333
20
0.858726631835708
30
0
41
1
10
17.3293658035083
20
0.982556394537539
30
0
41
1
10
17.0649816070167
20
1.04499135862378
30
0
41
1
10
17.019347410525
20
1.05524158755645
30
0
0
SPLINE
5
10C
100
AcDbEntity
8
1
62
256
6
ByLayer
370
13
48
1
60
0
100
AcDbSpline
70
4
71
3
72
8
73
4
40
0
40
0
40
0
40
0
40
1
40
1
40
1
40
1
41
1
10
23.5668668687561
20
1.064297104574
30
0
41
1
10
23.602018566817
20
1.05873157393711
30
0
41
1
10
23.6371702648781
20
1.05293361984192
30
0
41
1
10
23.672321962939
20
1.04690737962045
30
0
0
SPLINE
5
10D
100
AcDbEntity
8
1
62
256
6
ByLayer
370
13
48
1
60
0
100
AcDbSpline
70
4
71
3
72
10
73
6
40
0
40
0
40
0
40
0
40
0.200945547781395
40
0.599193746670228
40
1
40
1
40
1
40
1
41
1
10
23.9334980552347
20
0.997994637565967
30
0
41
1
10
24.0806653701565
20
0.968137086233384
30
0
41
1
10
24.5194993517449
20
0.86770967411843
30
0
41
1
10
25.2518734528217
20
0.647898684008538
30
0
41
1
10
25.8370802389767
20
0.434078273089085
30
0
41
1
10
26.1306203584651
20
0.321810447287589
30
0
0
SPLINE
5
10E
100
AcDbEntity
8
1
62
256
6
ByLayer
370
18
48
1
60
0
100
AcDbSpline
70
4
71
3
72
28
73
24
40
0
40
0
40
0
40
0
40
0.124999999999981
40
0.124999999999981
40
0.249999999999963
40
0.249999999999963
40
0.374999999999944
40
0.374999999999944
40
0.437499999999934
40
0.437499999999934
40
0.499999999999925
40
0.499999999999925
40
0.624999999999906
40
0.624999999999906
40
0.687499999999922
40
0.687499999999922
40
0.749999999999937
40
0.749999999999937
40
0.874999999999969
40
0.874999999999969
40
0.937499999999984
40
0.937499999999984
40
1
40
1
40
1
40
1
41
1
10
26.1306203584651
20
0.321810447287589
30
0
41
1
10
26.1336240379847
20
0.335023093922189
30
0
41
1
10
26.1376606871385
20
0.347959323767782
30
0
41
1
10
26.1476535854958
20
0.373347936899535
30
0
41
1
10
26.1536282691085
20
0.385832205378478
30
0
41
1
10
26.1674920709835
20
0.410175007360237
30
0
41
1
10
26.1752096497151
20
0.421743307359804
30
0
41
1
10
26.1879394645684
20
0.438210908462196
30
0
41
1
10
26.1923764353413
20
0.443551524175803
30
0
41
1
10
26.2016514586963
20
0.453925298996296
30
0
41
1
10
26.2065102763622
20
0.458978202449146
30
0
41
1
10
26.2215788634298
20
0.473502998636377
30
0
41
1
10
26.2321662569519
20
0.482254433422895
30
0
41
1
10
26.2489206220888
20
0.493954089724213
30
0
41
1
10
26.2546520162044
20
0.497614474988694
30
0
41
1
10
26.2664322089938
20
0.5044310199726
30
0
41
1
10
26.2725149014617
20
0.507602104466514
30
0
41
1
10
26.2910149032115
20
0.516174334948175
30
0
41
1
10
26.3036299146813
20
0.520634905219538
30
0
41
1
10
26.3230602396737
20
0.52539454905596
30
0
41
1
10
26.3296220686204
20
0.526657503146737
30
0
41
1
10
26.3429357648558
20
0.528506764304638
30
0
41
1
10
26.349709339461
20
0.529092232342663
30
0
41
1
10
26.3565004118884
20
0.529317164590992
30
0
0
SPLINE
5
10F
100
AcDbEntity
8
1
62
256
6
ByLayer
370
18
48
1
60
0
100
AcDbSpline
70
4
71
3
72
14
73
10
40
0
40
0
40
0
40
0
40
0.091873552770294
40
0.091873552770294
40
0.243227960641909
40
0.243227960641909
40
0.394582368513524
40
0.394582368513524
40
1
40
1
40
1
40
1
41
1
10
26.7014437055599
20
-1.45710853547209
30
0
41
1
10
26.7038358427668
20
-1.46637606951009
30
0
41
1
10
26.7062859320196
20
-1.47550259995208
30
0
41
1
10
26.7129266914639
20
-1.49928883621973
30
0
41
1
10
26.7172173816782
20
-1.51370518251153
30
0
41
1
10
26.7261197307873
20
-1.54175692357975
30
0
41
1
10
26.7307364171776
20
-1.55540548034753
30
0
41
1
10
26.7545516482693
20
-1.62143990486825
30
0
41
1
10
26.775953279237
20
-1.66730631606686
30
0
41
1
10
26.7997397947562
20
-1.70610659892765
30
0
0
SPLINE
5
110
100
AcDbEntity
8
1
62
256
6
ByLayer
370
18
48
1
60
0
100
AcDbSpline
70
4
71
3
72
10
73
6
40
0
40
0
40
0
40
0
40
0.742579380406364
40
0.742579380406364
40
1
40
1
40
1
40
1
41
1
10
26.0278562235654
20
-1.20631563152597
30
0
41
1
10
26.138047147729
20
-1.24937651296611
30
0
41
1
10
26.2479531185806
20
-1.28570619838069
30
0
41
1
10
26.3956307364409
20
-1.3268801705598
30
0
41
1
10
26.4336167034648
20
-1.3367871464562
30
0
41
1
10
26.471574007024
20
-1.34601703108464
30
0
0
SPLINE
5
111
100
AcDbEntity
8
1
62
256
6
ByLayer
370
18
48
1
60
0
100
AcDbSpline
70
4
71
3
72
22
73
18
40
0
40
0
40
0
40
0
40
0.15847540062891
40
0.15847540062891
40
0.31695080125782
40
0.31695080125782
40
0.475426201886731
40
0.475426201886731
40
0.554663902201203
40
0.554663902201203
40
0.633901602515675
40
0.633901602515675
40
0.792377003144617
40
0.792377003144617
40
0.95085240377356
40
0.95085240377356
40
1
40
1
40
1
40
1
41
1
10
26.0278562235654
20
-1.20631563152588
30
0
41
1
10
26.0169399041243
20
-1.20204970544546
30
0
41
1
10
26.0067119777171
20
-1.19688788535277
30
0
41
1
10
25.9878111437754
20
-1.18449166521714
30
0
41
1
10
25.9790585262074
20
-1.17714536929364
30
0
41
1
10
25.9641143060101
20
-1.16069234232717
30
0
41
1
10
25.9578391865904
20
-1.15157059768123
30
0
41
1
10
25.9503425070545
20
-1.13644875618095
30
0
41
1
10
25.9481759877333
20
-1.13117474858797
30
0
41
1
10
25.9445992150142
20
-1.12044499786552
30
0
41
1
10
25.9431699744939
20
-1.11495387327736
30
0
41
1
10
25.9399102350911
20
-1.09812177369165
30
0
41
1
10
25.9391205870298
20
-1.08630216986629
30
0
41
1
10
25.9400792783162
20
-1.06265046463639
30
0
41
1
10
25.9417890003238
20
-1.0507632606126
30
0
41
1
10
25.9454293276576
20
-1.03513604775711
30
0
41
1
10
25.9463891824539
20
-1.03145433571663
30
0
41
1
10
25.9474413368502
20
-1.0277918089846
30
0
0
SPLINE
5
112
100
AcDbEntity
8
1
62
256
6
ByLayer
370
13
48
1
60
0
100
AcDbSpline
70
4
71
3
72
18
73
14
40
0
40
0
40
0
40
0
40
0.0120885879885534
40
0.101164401468425
40
0.190240214948297
40
0.279316028428169
40
0.36839184190804
40
0.457467655387912
40
0.546543468867784
40
0.680157189087592
40
0.813770909307399
40
0.991922536267143
40
1
40
1
40
1
40
1
41
1
10
25.7468736620344
20
-0.912810504164895
30
0
41
1
10
25.7270824413563
20
-0.907540759325684
30
0
41
1
10
25.5614578873448
20
-0.862870558785403
30
0
41
1
10
25.25
20
-0.770089007662165
30
0
41
1
10
24.8125000000001
20
-0.619714012565055
30
0
41
1
10
24.375
20
-0.452781207357248
30
0
41
1
10
23.9375
20
-0.275881410275218
30
0
41
1
10
23.5
20
-0.0923135947874982
30
0
41
0.999999999999999
10
22.9895833333334
20
0.126345596263491
30
0
41
1
10
22.40625
20
0.372991121196605
30
0
41
1
10
21.6770833333333
20
0.656946470381172
30
0
41
1
10
21.1534423870893
20
0.830266791456779
30
0
41
1
10
20.8485514408452
20
0.914375873155421
30
0
41
1
10
20.8353271612678
20
0.917992146667728
30
0
0
SPLINE
5
113
100
AcDbEntity
8
1
62
256
6
ByLayer
370
18
48
1
60
0
100
AcDbSpline
70
4
71
3
72
13
73
9
40
0
40
0
40
0
40
0
40
0.119743239860772
40
0.307711708032397
40
0.495680176204021
40
0.683648644375646
40
0.871617112547271
40
1
40
1
40
1
40
1
41
1
10
18.8074091010973
20
-0.985447073752965
30
0
41
1
10
18.6216060673982
20
-0.940973133958238
30
0
41
1
10
18.1441363670324
20
-0.810248234011226
30
0
41
1
10
17.375
20
-0.539036716225325
30
0
41
1
10
16.5
20
-0.180650820012232
30
0
41
1
10
15.625
20
0.199304485098736
30
0
41
1
10
14.8424576759002
20
0.521291906584167
30
0
41
1
10
14.3515820184672
20
0.699551403243305
30
0
41
1
10
14.1523730277007
20
0.766368487565188
30
0
0
SPLINE
5
114
100
AcDbEntity
8
1
62
256
6
ByLayer
370
18
48
1
60
0
100
AcDbSpline
70
4
71
3
72
21
73
17
40
0
40
0
40
0
40
0
40
0.050169783746111
40
0.130117821225897
40
0.236715204532279
40
0.343312587838661
40
0.423260625318447
40
0.503208662798233
40
0.556507354451424
40
0.609806046104615
40
0.663104737757806
40
0.716403429410997
40
0.796351466890783
40
0.87629950437057
40
0.982896887676951
40
1
40
1
40
1
40
1
41
1
10
23.6930664950793
20
-1.66702721920967
30
0
41
1
10
23.5557943300529
20
-1.68514175754288
30
0
41
0.999999999999999
10
23.1997721650265
20
-1.71570300204331
30
0
41
1
10
22.5520833333334
20
-1.69334965497043
30
0
41
1
10
21.75
20
-1.53544736831154
30
0
41
1
10
20.9479166666667
20
-1.24374803162632
30
0
41
1
10
20.21875
20
-0.896475546589641
30
0
41
1
10
19.6354166666666
20
-0.567113479506077
30
0
41
1
10
19.125
20
-0.260497441480936
30
0
41
1
10
18.6875
20
0.0020404829588188
30
0
41
1
10
18.25
20
0.265761894496819
30
0
41
1
10
17.7395833333333
20
0.571502678121306
30
0
41
1
10
17.15625
20
0.896212077979669
30
0
41
0.999999999999999
10
16.4270833333334
20
1.24599492033656
30
0
41
1
10
15.8698699479654
20
1.44993136458143
30
0
41
1
10
15.5314065625973
20
1.53997652764471
30
0
41
1
10
15.484609843896
20
1.55177009204851
30
0
0
SPLINE
5
115
100
AcDbEntity
8
1
62
256
6
ByLayer
370
18
48
1
60
0
100
AcDbSpline
70
4
71
3
72
8
73
4
40
0
40
0
40
0
40
0
40
1
40
1
40
1
40
1
41
1
10
24.5662458594458
20
0.52585643824699
30
0
41
1
10
24.55071323555
20
0.51626508555529
30
0
41
1
10
24.5351806116542
20
0.506647874602521
30
0
41
1
10
24.5196479877584
20
0.497006228217913
30
0
0
SPLINE
5
116
100
AcDbEntity
8
1
62
256
6
ByLayer
370
18
48
1
60
0
100
AcDbSpline
70
4
71
3
72
8
73
4
40
0
40
0
40
0
40
0
40
1
40
1
40
1
40
1
41
1
10
21.0711749236156
20
-1.46072544339683
30
0
41
1
10
21.0156599918917
20
-1.48051619599696
30
0
41
1
10
20.9601450601677
20
-1.49938075455333
30
0
41
1
10
20.9046301284437
20
-1.51728638987564
30
0
0
SPLINE
5
117
100
AcDbEntity
8
1
62
256
6
ByLayer
370
18
48
1
60
0
100
AcDbSpline
70
4
71
3
72
15
73
11
40
0
40
0
40
0
40
0
40
0.056044911605219
40
0.147395404030521
40
0.269196060597589
40
0.390996717164658
40
0.512797373731726
40
0.634598030298794
40
0.756398686865863
40
1
40
1
40
1
40
1
41
1
10
20.1838693210835
20
-1.693296920899
30
0
41
1
10
20.0496628807223
20
-1.71514919618841
30
0
41
1
10
19.6967064403612
20
-1.75617362168853
30
0
41
1
10
19.0520833333333
20
-1.7498453535207
30
0
41
1
10
18.25
20
-1.59475809351758
30
0
41
1
10
17.375
20
-1.26016994196038
30
0
41
1
10
16.5
20
-0.794460154687698
30
0
41
1
10
15.625
20
-0.246289096746949
30
0
41
1
10
14.4583333333333
20
0.51873501933926
30
0
41
1
10
13.5833333333333
20
1.04096770199334
30
0
41
1
10
13
20
1.2943101856556
30
0
0
SPLINE
5
118
100
AcDbEntity
8
1
62
256
6
ByLayer
370
18
48
1
60
0
100
AcDbSpline
70
4
71
3
72
8
73
4
40
0
40
0
40
0
40
0
40
1
40
1
40
1
40
1
41
1
10
26.7997397982986
20
-1.70610659580114
30
0
41
1
10
26.8070479205749
20
-1.70338240325668
30
0
41
1
10
26.8144682155793
20
-1.69979685424278
30
0
41
1
10
26.8219764610444
20
-1.69538841320659
30
0
0
SPLINE
5
119
100
AcDbEntity
8
1
62
256
6
ByLayer
370
18
48
1
60
0
100
AcDbSpline
70
4
71
3
72
20
73
16
40
0
40
0
40
0
40
0
40
0.0960611189936422
40
0.158346965477138
40
0.220632811960635
40
0.282918658444131
40
0.345204504927627
40
0.407490351411124
40
0.46977619789462
40
0.532062044378116
40
0.62549081410336
40
0.718919583828605
40
0.843491276795597
40
0.936920046520842
40
1
40
1
40
1
40
1
41
1
10
26.7997397993676
20
-1.70610659640596
30
0
41
1
10
26.5748265329117
20
-1.74109488915093
30
0
41
1
10
26.2040799331226
20
-1.76708973899633
30
0
41
1
10
25.6875
20
-1.72931123199584
30
0
41
1
10
25.25
20
-1.64835267419633
30
0
41
1
10
24.8125000000001
20
-1.52033816075274
30
0
41
1
10
24.375
20
-1.3536768148079
30
0
41
1
10
23.9375
20
-1.14410118396745
30
0
41
1
10
23.5
20
-0.902175357677521
30
0
41
0.999999999999999
10
22.9895833333334
20
-0.592853255953344
30
0
41
1
10
22.40625
20
-0.209875571311329
30
0
41
1
10
21.6770833333333
20
0.284287544079092
30
0
41
1
10
20.9479166666667
20
0.760049012363964
30
0
41
1
10
20.2898073795776
20
1.12806747977751
30
0
41
1
10
19.9233647591551
20
1.30025420347661
30
0
41
1
10
19.7756721387327
20
1.36309148013399
30
0
0
SPLINE
5
11A
100
AcDbEntity
8
1
62
256
6
ByLayer
370
18
48
1
60
0
100
AcDbSpline
70
4
71
3
72
8
73
4
40
0
40
0
40
0
40
0
40
1
40
1
40
1
40
1
41
1
10
12.8488390284854
20
0.926014379285959
30
0
41
1
10
12.9001634040237
20
0.91629617322485
30
0
41
1
10
12.9505302784354
20
0.907950952155716
30
0
41
1
10
12.9998984094771
20
0.901037854370742
30
0
0
SPLINE
5
11B
100
AcDbEntity
8
1
62
256
6
ByLayer
370
18
48
1
60
0
100
AcDbSpline
70
4
71
3
72
8
73
4
40
0
40
0
40
0
40
0
40
1
40
1
40
1
40
1
41
1
10
12.6080816411547
20
0.961864545900767
30
0
41
1
10
12.690985004514
20
0.950619321310825
30
0
41
1
10
12.771607627658
20
0.940638048054552
30
0
41
1
10
12.8488390284854
20
0.926014379285903
30
0
0
SPLINE
5
11C
100
AcDbEntity
8
1
62
256
6
ByLayer
370
18
48
1
60
0
100
AcDbSpline
70
4
71
3
72
20
73
16
40
0
40
0
40
0
40
0
40
0.0422166223813977
40
0.157144574814934
40
0.27207252724847
40
0.358268491573622
40
0.444464455898775
40
0.501928432115543
40
0.559392408332311
40
0.616856384549079
40
0.674320360765847
40
0.760516325090999
40
0.846712289416151
40
0.961640241849688
40
1
40
1
40
1
40
1
41
1
10
22.9464147977193
20
-1.75322347472769
30
0
41
1
10
22.8392765318128
20
-1.75832031769451
30
0
41
1
10
22.4404715992398
20
-1.76313867911301
30
0
41
1
10
21.7499999999999
20
-1.68095382179655
30
0
41
1
10
20.9479166666666
20
-1.43318571957065
30
0
41
1
10
20.21875
20
-1.10982072905685
30
0
41
1
10
19.6354166666666
20
-0.798523464781283
30
0
41
1
10
19.1249999999999
20
-0.496339822783682
30
0
41
1
10
18.6875
20
-0.2284421405746
30
0
41
1
10
18.2499999999999
20
0.0442550722201815
30
0
41
1
10
17.7395833333333
20
0.365938470914102
30
0
41
1
10
17.15625
20
0.718482983066081
30
0
41
0.999999999999999
10
16.4270833333333
20
1.11275355747807
30
0
41
1
10
15.8193164350047
20
1.38104403738623
30
0
41
1
10
15.4302995366761
20
1.51004098113935
30
0
41
1
10
15.3329493050141
20
1.53951882772935
30
0
0
SPLINE
5
11D
100
AcDbEntity
8
1
62
256
6
ByLayer
370
18
48
1
60
0
100
AcDbSpline
70
4
71
3
72
16
73
12
40
0
40
0
40
0
40
0
40
0.125000000000001
40
0.125000000000001
40
0.250000000000003
40
0.500000000000006
40
0.500000000000006
40
0.625000000000008
40
0.625000000000008
40
0.750000000000009
40
1
40
1
40
1
40
1
41
1
10
26.6934825595798
20
-0.211837451551588
30
0
41
1
10
26.6968181561837
20
-0.236099983345639
30
0
41
1
10
26.7003390192439
20
-0.260623010132861
30
0
41
1
10
26.707731127407
20
-0.310011677043889
30
0
41
1
10
26.7193419174977
20
-0.384594833479554
30
0
41
1
10
26.7325322582774
20
-0.460689623613604
30
0
41
1
10
26.7468027695622
20
-0.53781813944363
30
0
41
1
10
26.7517394590563
20
-0.563696350430945
30
0
41
1
10
26.7619370343282
20
-0.615596558006729
30
0
41
1
10
26.7777336260564
20
-0.693737951842621
30
0
41
1
10
26.7950324949112
20
-0.772753518102945
30
0
41
1
10
26.8072417782853
20
-0.825824335551829
30
0
0
SPLINE
5
11E
100
AcDbEntity
8
1
62
256
6
ByLayer
370
18
48
1
60
0
100
AcDbSpline
70
4
71
3
72
12
73
8
40
0
40
0
40
0
40
0
40
0.499999999999986
40
0.499999999999986
40
0.749999999999993
40
0.749999999999993
40
1
40
1
40
1
40
1
41
1
10
26.2014235087224
20
0.116423219860906
30
0
41
1
10
26.2827632026589
20
0.0635040933244966
30
0
41
1
10
26.3645943048187
20
0.0095484866253912
30
0
41
1
10
26.4880186018971
20
-0.0728142124802673
30
0
41
1
10
26.5292289329585
20
-0.100478433150528
30
0
41
1
10
26.6114377886167
20
-0.155979574396952
30
0
41
1
10
26.652486968172
20
-0.18385026007752
30
0
41
1
10
26.6934825595765
20
-0.211837451548831
30
0
0
SPLINE
5
11F
100
AcDbEntity
8
1
62
256
6
ByLayer
370
18
48
1
60
0
100
AcDbSpline
70
4
71
3
72
20
73
16
40
0
40
0
40
0
40
0
40
0.249999999999955
40
0.249999999999955
40
0.374999999999963
40
0.374999999999963
40
0.49999999999997
40
0.49999999999997
40
0.624999999999978
40
0.624999999999978
40
0.749999999999985
40
0.749999999999985
40
0.874999999999993
40
0.874999999999993
40
1
40
1
40
1
40
1
41
1
10
26.2014235087224
20
0.116423219860906
30
0
41
1
10
26.1857070478325
20
0.126648256891258
30
0
41
1
10
26.1714557965481
20
0.137876413429609
30
0
41
1
10
26.1527492516553
20
0.156484183691646
30
0
41
1
10
26.1470442440414
20
0.162918361809034
30
0
41
1
10
26.1369886100485
20
0.175961240165492
30
0
41
1
10
26.1325941830532
20
0.182612186824798
30
0
41
1
10
26.1251252634748
20
0.19618149714077
30
0
41
1
10
26.1220665791209
20
0.203107577815075
30
0
41
1
10
26.1174953714405
20
0.216686911988376
30
0
41
1
10
26.1159395405164
20
0.223409920815726
30
0
41
1
10
26.1142045693261
20
0.236738836296155
30
0
41
1
10
26.1140371193258
20
0.243348398253147
30
0
41
1
10
26.1149832991314
20
0.256125998817339
30
0
41
1
10
26.1160879745204
20
0.262342001252279
30
0
41
1
10
26.1177668277299
20
0.26840911245236
30
0
0
SPLINE
5
120
100
AcDbEntity
8
1
62
256
6
ByLayer
370
13
48
1
60
0
100
AcDbSpline
70
4
71
3
72
10
73
6
40
0
40
0
40
0
40
0
40
0.431089483302861
40
0.865772264246615
40
1
40
1
40
1
40
1
41
1
10
26.1177668277337
20
0.268409112450882
30
0
41
1
10
25.8285112184891
20
0.381841469717528
30
0
41
1
10
25.2475889425779
20
0.601843814123441
30
0
41
1
10
24.5766015479693
20
0.817212555073155
30
0
41
1
10
24.1948697626053
20
0.917339365183693
30
0
41
1
10
24.1048046439079
20
0.939638130176377
30
0
0
SPLINE
5
121
100
AcDbEntity
8
1
62
256
6
ByLayer
370
13
48
1
60
0
100
AcDbSpline
70
4
71
3
72
8
73
4
40
0
40
0
40
0
40
0
40
1
40
1
40
1
40
1
41
1
10
23.6649494518649
20
1.03766866825975
30
0
41
1
10
23.6326332499889
20
1.04404753179418
30
0
41
1
10
23.600317048113
20
1.05023944178518
30
0
41
1
10
23.568000846237
20
1.05624078998105
30
0
0
SPLINE
5
122
100
AcDbEntity
8
1
62
256
6
ByLayer
370
18
48
1
60
0
100
AcDbSpline
70
4
71
3
72
16
73
12
40
0
40
0
40
0
40
0
40
0.250000000000023
40
0.250000000000023
40
0.500000000000046
40
0.500000000000046
40
0.75000000000007
40
0.75000000000007
40
0.875000000000035
40
0.875000000000035
40
1
40
1
40
1
40
1
41
1
10
26.8219764646183
20
-1.69538841273595
30
0
41
1
10
26.8251859968826
20
-1.69350405363798
30
0
41
1
10
26.8283148711295
20
-1.6922289524812
30
0
41
1
10
26.8343938722916
20
-1.69102904750147
30
0
41
1
10
26.8373177692882
20
-1.69111555020314
30
0
41
1
10
26.8428000781022
20
-1.69285426532727
30
0
41
1
10
26.8453750471645
20
-1.69449449790656
30
0
41
1
10
26.848909196238
20
-1.69847773530259
30
0
41
1
10
26.8500303364062
20
-1.70006695419161
30
0
41
1
10
26.8520844667026
20
-1.70376729681658
30
0
41
1
10
26.8530249561573
20
-1.70588472718669
30
0
41
1
10
26.8538633328078
20
-1.70831737896305
30
0
0
SPLINE
5
123
100
AcDbEntity
8
1
62
256
6
ByLayer
370
18
48
1
60
0
100
AcDbSpline
70
4
71
3
72
20
73
16
40
0
40
0
40
0
40
0
40
0.027572170511694
40
0.0962559562193952
40
0.164939741927096
40
0.233623527634798
40
0.302307313342499
40
0.3709910990502
40
0.439674884757901
40
0.508358670465602
40
0.611384349027154
40
0.714410027588706
40
0.851777599004108
40
0.95480327756566
40
1
40
1
40
1
40
1
41
1
10
26.3006284176036
20
-1.75417011295769
30
0
41
1
10
26.2420856117357
20
-1.75687578943152
30
0
41
1
10
26.0377094725344
20
-1.76170923640564
30
0
41
1
10
25.6875
20
-1.74221016987855
30
0
41
1
10
25.2499999999999
20
-1.66868530995424
30
0
41
1
10
24.8125
20
-1.54694244791173
30
0
41
1
10
24.3749999999999
20
-1.38797546499413
30
0
41
1
10
23.9375
20
-1.18284388128498
30
0
41
1
10
23.5
20
-0.942944535943809
30
0
41
0.999999999999999
10
22.9895833333334
20
-0.63749638081643
30
0
41
1
10
22.40625
20
-0.257639572169665
30
0
41
1
10
21.6770833333333
20
0.236846961766304
30
0
41
1
10
20.9479166666666
20
0.719770462395274
30
0
41
1
10
20.3415357397247
20
1.06673721268209
30
0
41
1
10
20.0268214794495
20
1.22218779000056
30
0
41
1
10
19.9308572191743
20
1.26704178214629
30
0
0
SPLINE
5
124
100
AcDbEntity
8
1
62
256
6
ByLayer
370
18
48
1
60
0
100
AcDbSpline
70
4
71
3
72
12
73
8
40
0
40
0
40
0
40
0
40
0.377633878623693
40
0.377633878623693
40
0.688755992787848
40
0.688755992787848
40
1
40
1
40
1
40
1
41
1
10
26.8072417805806
20
-0.825824335824137
30
0
41
1
10
26.8094364605239
20
-0.83146067008434
30
0
41
1
10
26.8116409911387
20
-0.837063688694229
30
0
41
1
10
26.8156778323018
20
-0.84721834372084
30
0
41
1
10
26.8175075225888
20
-0.851781872179004
30
0
41
1
10
26.8211787707721
20
-0.860861283953398
30
0
41
1
10
26.8230205126723
20
-0.865377592142863
30
0
41
1
10
26.8248674367624
20
-0.869868475332169
30
0
0
SPLINE
5
125
100
AcDbEntity
8
1
62
256
6
ByLayer
370
18
48
1
60
0
100
AcDbSpline
70
4
71
3
72
11
73
7
40
0
40
0
40
0
40
0
40
0.422586667684588
40
0.660034274522922
40
0.897481881361255
40
1
40
1
40
1
40
1
41
1
10
26.8072417812397
20
-0.825824334988766
30
0
41
1
10
26.2881611874931
20
-0.534017646739585
30
0
41
1
10
25.4774139270799
20
-0.0078786662886614
30
0
41
1
10
24.375
20
0.68458450042408
30
0
41
1
10
23.665739442828
20
1.0740963265213
30
0
41
1
10
23.2481455523226
20
1.26370826800036
30
0
41
1
10
23.1222183284838
20
1.31677464318682
30
0
0
SPLINE
5
126
100
AcDbEntity
8
1
62
256
6
ByLayer
370
18
48
1
60
0
100
AcDbSpline
70
4
71
3
72
8
73
4
40
0
40
0
40
0
40
0
40
1
40
1
40
1
40
1
41
1
10
13.8497929563282
20
-1.54387993406289
30
0
41
1
10
13.8077241283786
20
-1.5566677964558
30
0
41
1
10
13.7656553004289
20
-1.56891905354607
30
0
41
1
10
13.7235864724793
20
-1.58061792760233
30
0
0
SPLINE
5
127
100
AcDbEntity
8
1
62
256
6
ByLayer
370
18
48
1
60
0
100
AcDbSpline
70
4
71
3
72
8
73
4
40
0
40
0
40
0
40
0
40
1
40
1
40
1
40
1
41
1
10
24.5324007964636
20
0.546472140500953
30
0
41
1
10
24.5169907013302
20
0.536948784597229
30
0
41
1
10
24.5015806061968
20
0.527399005601296
30
0
41
1
10
24.4861705110634
20
0.517824190386932
30
0
0
SPLINE
5
128
100
AcDbEntity
8
1
62
256
6
ByLayer
370
18
48
1
60
0
100
AcDbSpline
70
4
71
3
72
15
73
11
40
0
40
0
40
0
40
0
40
0.0259635275855989
40
0.122397084937786
40
0.250975161407368
40
0.37955323787695
40
0.508131314346532
40
0.636709390816115
40
0.765287467285697
40
1
40
1
40
1
40
1
41
1
10
19.9579370936413
20
-1.7241536820878
30
0
41
1
10
19.8990413957608
20
-1.73154742488495
30
0
41
1
10
19.6213956978804
20
-1.76063326043754
30
0
41
1
10
19.0520833333333
20
-1.76374711705154
30
0
41
1
10
18.25
20
-1.61996604291789
30
0
41
1
10
17.375
20
-1.2949783816008
30
0
41
1
10
16.5
20
-0.835310175105178
30
0
41
1
10
15.625
20
-0.288889516329334
30
0
41
1
10
14.5092444690312
20
0.445916110977777
30
0
41
1
10
13.6851556047291
20
0.948976404233605
30
0
41
1
10
13.1527334070937
20
1.20142317714436
30
0
0
SPLINE
5
129
100
AcDbEntity
8
1
62
256
6
ByLayer
370
18
48
1
60
0
100
AcDbSpline
70
4
71
3
72
33
73
29
40
0
40
0
40
0
40
0
40
0.124999999999977
40
0.124999999999977
40
0.156249999999969
40
0.156249999999969
40
0.187499999999962
40
0.249999999999948
40
0.249999999999948
40
0.281249999999946
40
0.281249999999946
40
0.312499999999943
40
0.312499999999943
40
0.374999999999938
40
0.374999999999938
40
0.437499999999932
40
0.437499999999932
40
0.499999999999927
40
0.499999999999927
40
0.562499999999921
40
0.562499999999921
40
0.624999999999916
40
0.624999999999916
40
0.749999999999944
40
0.749999999999944
40
0.874999999999972
40
0.874999999999972
40
1
40
1
40
1
40
1
41
1
10
26.8520625611717
20
0.747318068915177
30
0
41
1
10
26.8659296689267
20
0.731111515437078
30
0
41
1
10
26.8760416831197
20
0.71480968342496
30
0
41
1
10
26.8820793827442
20
0.694264870868778
30
0
41
1
10
26.8829497467779
20
0.69013374554757
30
0
41
1
10
26.8839321611484
20
0.681988155020264
30
0
41
1
10
26.8842851994993
20
0.669905512213006
30
0
41
1
10
26.8811557764762
20
0.658244720896647
30
0
41
1
10
26.8754873409014
20
0.646891495441935
30
0
41
1
10
26.8731740563897
20
0.643158425125165
30
0
41
1
10
26.8676552915734
20
0.635800361534223
30
0
41
1
10
26.864483674973
20
0.632223470978232
30
0
41
1
10
26.8538458309627
20
0.621856383203379
30
0
41
1
10
26.8452346060595
20
0.615397363910091
30
0
41
1
10
26.825237202389
20
0.603305553915078
30
0
41
1
10
26.8137577601347
20
0.597645433075201
30
0
41
1
10
26.7890731970251
20
0.587388377383235
30
0
41
1
10
26.7758135729013
20
0.58274354952772
30
0
41
1
10
26.7478012581335
20
0.574241163791982
30
0
41
1
10
26.7330471011248
20
0.570384379102251
30
0
41
1
10
26.7022895865617
20
0.56332949308981
30
0
41
1
10
26.6864095589268
20
0.56016144031409
30
0
41
1
10
26.6379621587272
20
0.551593487594488
30
0
41
1
10
26.6044186260836
20
0.54707461491364
30
0
41
1
10
26.5356453140911
20
0.539652471449415
30
0
41
1
10
26.5003595982014
20
0.536755311251397
30
0
41
1
10
26.4287269159058
20
0.532177283829355
30
0
41
1
10
26.3926936085217
20
0.530515946842144
30
0
41
1
10
26.3565004118884
20
0.529317164590964
30
0
0
SPLINE
5
12A
100
AcDbEntity
8
1
62
256
6
ByLayer
370
18
48
1
60
0
100
AcDbSpline
70
4
71
3
72
8
73
4
40
0
40
0
40
0
40
0
40
1
40
1
40
1
40
1
41
1
10
26.9945915163353
20
0.707220679803783
30
0
41
1
10
26.9833828101204
20
0.776320373141374
30
0
41
1
10
26.9721741039055
20
0.845420066478994
30
0
41
1
10
26.9609653976906
20
0.914519759816585
30
0
0
SPLINE
5
12B
100
AcDbEntity
8
1
62
256
6
ByLayer
370
18
48
1
60
0
100
AcDbSpline
70
4
71
3
72
26
73
22
40
0
40
0
40
0
40
0
40
0.250000000000043
40
0.250000000000043
40
0.500000000000086
40
0.500000000000086
40
0.625000000000081
40
0.625000000000081
40
0.687500000000079
40
0.687500000000079
40
0.750000000000077
40
0.750000000000077
40
0.875000000000069
40
0.875000000000069
40
0.906250000000052
40
0.906250000000052
40
0.937500000000035
40
0.937500000000035
40
0.968750000000017
40
0.968750000000017
40
1
40
1
40
1
40
1
41
1
10
26.8746247694367
20
1.16184502644538
30
0
41
1
10
26.8829742518328
20
1.14194132354157
30
0
41
1
10
26.891318854254
20
1.12173179138048
30
0
41
1
10
26.9079929083715
20
1.08036322727915
30
0
41
1
10
26.9163032974075
20
1.05927122368357
30
0
41
1
10
26.9285200407033
20
1.02690044505377
30
0
41
1
10
26.9325318824692
20
1.01603446752986
30
0
41
1
10
26.9384060868862
20
0.999555552917315
30
0
41
1
10
26.9403399157916
20
0.994032197763062
30
0
41
1
10
26.944141940149
20
0.982903217016514
30
0
41
1
10
26.9460153956965
20
0.977281445853748
30
0
41
1
10
26.951407343486
20
0.960507980904339
30
0
41
1
10
26.9547824684058
20
0.949230648199006
30
0
41
1
10
26.9579278280627
20
0.936361098774881
30
0
41
1
10
26.9585071241929
20
0.933822186395076
30
0
41
1
10
26.959496947738
20
0.929039298722131
30
0
41
1
10
26.9599100553945
20
0.926788313870844
30
0
41
1
10
26.9605524670161
20
0.922601938067743
30
0
41
1
10
26.9607807422268
20
0.920658904253685
30
0
41
1
10
26.9610242318266
20
0.917260595568507
30
0
41
1
10
26.9610434233119
20
0.915784467155959
30
0
41
1
10
26.9609653977104
20
0.914519759810986
30
0
0
SPLINE
5
12C
100
AcDbEntity
8
1
62
256
6
ByLayer
370
13
48
1
60
0
100
AcDbSpline
70
4
71
3
72
8
73
4
40
0
40
0
40
0
40
0
40
1
40
1
40
1
40
1
41
1
10
26.7946574906943
20
0.822385526532543
30
0
41
1
10
26.7717095425746
20
0.963855571994799
30
0
41
1
10
26.748761594455
20
1.10532561745705
30
0
41
1
10
26.7258136463353
20
1.24679566291931
30
0
0
SPLINE
5
12D
100
AcDbEntity
8
1
62
256
6
ByLayer
370
18
48
1
60
0
100
AcDbSpline
70
4
71
3
72
28
73
24
40
0
40
0
40
0
40
0
40
0.125000000000041
40
0.125000000000041
40
0.250000000000083
40
0.250000000000083
40
0.375000000000124
40
0.375000000000124
40
0.437500000000144
40
0.437500000000144
40
0.500000000000164
40
0.500000000000164
40
0.625000000000204
40
0.625000000000204
40
0.68750000000017
40
0.68750000000017
40
0.750000000000136
40
0.750000000000136
40
0.875000000000068
40
0.875000000000068
40
0.937500000000034
40
0.937500000000034
40
1
40
1
40
1
40
1
41
1
10
26.9945915163554
20
0.707220679796905
30
0
41
1
10
26.9949093647505
20
0.712292103593427
30
0
41
1
10
26.994154211558
20
0.717382663953686
30
0
41
1
10
26.9906298516499
20
0.727599704518383
30
0
41
1
10
26.9878455502006
20
0.732746682260483
30
0
41
1
10
26.9802265514961
20
0.742991136056588
30
0
41
1
10
26.975478435757
20
0.747980025569376
30
0
41
1
10
26.9670114781688
20
0.755272323349061
30
0
41
1
10
26.963964225684
20
0.757671135841832
30
0
41
1
10
26.9574126891289
20
0.762403836117528
30
0
41
1
10
26.9538893782263
20
0.764748836443829
30
0
41
1
10
26.9427607918932
20
0.771586907482146
30
0
41
1
10
26.934622953054
20
0.775877745614991
30
0
41
1
10
26.9213734143494
20
0.781925378695775
30
0
41
1
10
26.9167826012276
20
0.783876298065934
30
0
41
1
10
26.9072438305311
20
0.787645035971167
30
0
41
1
10
26.9022706148005
20
0.789470584507001
30
0
41
1
10
26.8870581545948
20
0.794647845537867
30
0
41
1
10
26.8764907775084
20
0.797722536073934
30
0
41
1
10
26.8600160939865
20
0.801782612011493
30
0
41
1
10
26.8544201352838
20
0.803043569129528
30
0
41
1
10
26.8430130112893
20
0.805375005507813
30
0
41
1
10
26.8371855425514
20
0.806447233397307
30
0
41
1
10
26.8313436097045
20
0.807404136513043
30
0
0
SPLINE
5
12E
100
AcDbEntity
8
1
62
256
6
ByLayer
370
18
48
1
60
0
100
AcDbSpline
70
4
71
3
72
8
73
4
40
0
40
0
40
0
40
0
40
1
40
1
40
1
40
1
41
1
10
26.8026556429735
20
0.80979584675859
30
0
41
1
10
26.8122180349294
20
0.808988420153668
30
0
41
1
10
26.8217807506449
20
0.808191182939566
30
0
41
1
10
26.8313436097045
20
0.807404136513014
30
0
0
SPLINE
5
12F
100
AcDbEntity
8
1
62
256
6
ByLayer
370
18
48
1
60
0
100
AcDbSpline
70
4
71
3
72
12
73
8
40
0
40
0
40
0
40
0
40
0.252091372246302
40
0.252091372246302
40
0.504182754003058
40
0.504182754003058
40
1
40
1
40
1
40
1
41
1
10
26.7946574906942
20
0.822385526532514
30
0
41
1
10
26.7934270349838
20
0.822525224847396
30
0
41
1
10
26.7921964110288
20
0.822663794203947
30
0
41
1
10
26.7897348317554
20
0.822938638235769
30
0
41
1
10
26.7885038746737
20
0.823074913113771
30
0
41
1
10
26.7848513687997
20
0.823475755942781
30
0
41
1
10
26.7824293369064
20
0.823736981206224
30
0
41
1
10
26.7800066801917
20
0.823993550628842
30
0
0
SPLINE
5
130
100
AcDbEntity
8
1
62
256
6
ByLayer
370
18
48
1
60
0
100
AcDbSpline
70
4
71
3
72
8
73
4
40
0
40
0
40
0
40
0
40
1
40
1
40
1
40
1
41
1
10
26.7109790909446
20
1.2557562683335
30
0
41
1
10
26.7329053910515
20
1.12407465879372
30
0
41
1
10
26.7546948177173
20
0.989975530205669
30
0
41
1
10
26.7763349830945
20
0.853587966897237
30
0
0
SPLINE
5
131
100
AcDbEntity
8
1
62
256
6
ByLayer
370
18
48
1
60
0
100
AcDbSpline
70
4
71
3
72
8
73
4
40
0
40
0
40
0
40
0
40
1
40
1
40
1
40
1
41
1
10
13.0000000000001
20
-1.47916446548635
30
0
41
1
10
12.9349033754473
20
-1.45534505926466
30
0
41
1
10
12.8701285727331
20
-1.43044833066639
30
0
41
1
10
12.8057164549381
20
-1.40433748751082
30
0
0
SPLINE
5
132
100
AcDbEntity
8
1
62
256
6
ByLayer
370
18
48
1
60
0
100
AcDbSpline
70
4
71
3
72
26
73
22
40
0
40
0
40
0
40
0
40
0.171203547422202
40
0.171203547422202
40
0.256805321133303
40
0.256805321133303
40
0.342407094844404
40
0.342407094844404
40
0.513610642266605
40
0.513610642266605
40
0.556411529122155
40
0.556411529122155
40
0.599212415977704
40
0.599212415977704
40
0.684814189688802
40
0.684814189688802
40
0.856017737110992
40
0.856017737110992
40
0.94161951082209
40
0.94161951082209
40
1
40
1
40
1
40
1
41
1
10
26.7109790909443
20
1.25575626833347
30
0
41
1
10
26.567569039245
20
1.32851807584129
30
0
41
1
10
26.4242282243534
20
1.39652589098427
30
0
41
1
10
26.2087653281069
20
1.4909383542402
30
0
41
1
10
26.1368477429517
20
1.52114927877642
30
0
41
1
10
25.9933797331569
20
1.57868743169561
30
0
41
1
10
25.9217526164909
20
1.60604287338006
30
0
41
1
10
25.7069598766593
20
1.6836620898583
30
0
41
1
10
25.5638916354729
20
1.72947965441691
30
0
41
1
10
25.384361074985
20
1.77849987474258
30
0
41
1
10
25.3484297325068
20
1.78789177992209
30
0
41
1
10
25.2766903590837
20
1.8058065931389
30
0
41
1
10
25.2408534891274
20
1.81433712524012
30
0
41
1
10
25.133407960714
20
1.83867348933251
30
0
41
1
10
25.0618724154274
20
1.85322327264521
30
0
41
1
10
24.8475360351629
20
1.89183672541961
30
0
41
1
10
24.7050148516813
20
1.91086429685566
30
0
41
1
10
24.4915896458661
20
1.92915815947097
30
0
41
1
10
24.4205050204734
20
1.93355093694879
30
0
41
1
10
24.3009866240471
20
1.93804073445369
30
0
41
1
10
24.2525356109567
20
1.93905813960581
30
0
41
1
10
24.2040643477955
20
1.93926244394674
30
0
0
SPLINE
5
133
100
AcDbEntity
8
1
62
256
6
ByLayer
370
18
48
1
60
0
100
AcDbSpline
70
4
71
3
72
36
73
32
40
0
40
0
40
0
40
0
40
0.109329684319022
40
0.109329684319022
40
0.22066347377916
40
0.22066347377916
40
0.248496921144192
40
0.248496921144192
40
0.276330368509225
40
0.276330368509225
40
0.331997263239287
40
0.331997263239287
40
0.443331052699409
40
0.443331052699409
40
0.554664842159532
40
0.554664842159532
40
0.610331736889594
40
0.610331736889594
40
0.665998631619655
40
0.665998631619655
40
0.721665526349716
40
0.721665526349716
40
0.749498973714745
40
0.749498973714745
40
0.777332421079774
40
0.777332421079774
40
0.832999315809831
40
0.832999315809831
40
0.888666210539889
40
0.888666210539889
40
1
40
1
40
1
40
1
41
1
10
16.8443993220815
20
-1.58083437962622
30
0
41
1
10
16.7050006963785
20
-1.63455998388304
30
0
41
1
10
16.5657260299046
20
-1.68291571808081
30
0
41
1
10
16.2842989049662
20
-1.76864192437299
30
0
41
1
10
16.1421517853896
20
-1.80567906526099
30
0
41
1
10
15.9635119663683
20
-1.84397178293395
30
0
41
1
10
15.9277372973851
20
-1.85122647818414
30
0
41
1
10
15.8560790051507
20
-1.86490081913442
30
0
41
1
10
15.8201694262935
20
-1.8713241445588
30
0
41
1
10
15.7124258526716
20
-1.88927190398394
30
0
41
1
10
15.6408440702251
20
-1.89943973822605
30
0
41
1
10
15.4265318600626
20
-1.92483265154644
30
0
41
1
10
15.2842407592041
20
-1.93501054647831
30
0
41
1
10
15.0001928345533
20
-1.9415650121673
30
0
41
1
10
14.8584366486996
20
-1.93794008008933
30
0
41
1
10
14.6456097319212
20
-1.92162637239423
30
0
41
1
10
14.5746268276972
20
-1.91439892332963
30
0
41
1
10
14.4324113322231
20
-1.8966632008073
30
0
41
1
10
14.361178363154
20
-1.88617022802825
30
0
41
1
10
14.2183806082691
20
-1.86180804664681
30
0
41
1
10
14.1468169845187
20
-1.84792907876081
30
0
41
1
10
14.0391373497752
20
-1.82450495227664
30
0
41
1
10
14.0031671080319
20
-1.81625760150936
30
0
41
1
10
13.9313515174389
20
-1.79894991431161
30
0
41
1
10
13.8954786722186
20
-1.78988409319166
30
0
41
1
10
13.7879437276871
20
-1.76145566346648
30
0
41
1
10
13.7163675676196
20
-1.74085468016739
30
0
41
1
10
13.5733125938856
20
-1.69641805612255
30
0
41
1
10
13.5018246036569
20
-1.67260925743759
30
0
41
1
10
13.2871847382675
20
-1.59698341336423
30
0
41
1
10
13.1438773448643
20
-1.54093794367466
30
0
41
1
10
13.0000000000001
20
-1.47916446548641
30
0
0
SPLINE
5
134
100
AcDbEntity
8
1
62
256
6
ByLayer
370
18
48
1
60
0
100
AcDbSpline
70
4
71
3
72
12
73
8
40
0
40
0
40
0
40
0
40
0.399649986574432
40
0.399649986574432
40
0.699824978731273
40
0.699824978731273
40
1
40
1
40
1
40
1
41
1
10
26.7258136463353
20
1.24679566291931
30
0
41
1
10
26.7237228713912
20
1.24787228090727
30
0
41
1
10
26.7216318138392
20
1.2489485267995
30
0
41
1
10
26.7179696864837
20
1.25083249157677
30
0
41
1
10
26.7163987379794
20
1.25164037071104
30
0
41
1
10
26.7132565301481
20
1.25325571812738
30
0
41
1
10
26.7116852707832
20
1.25406318642885
30
0
41
1
10
26.7101138578101
20
1.25487045117856
30
0
0
SPLINE
5
135
100
AcDbEntity
8
1
62
256
6
ByLayer
370
18
48
1
60
0
100
AcDbSpline
70
4
71
3
72
18
73
14
40
0
40
0
40
0
40
0
40
0.125
40
0.125
40
0.25
40
0.25
40
0.375
40
0.375
40
0.5
40
0.5
40
0.75
40
0.75
40
1
40
1
40
1
40
1
41
1
10
26.8746247694367
20
1.16184502644549
30
0
41
1
10
26.8694325916622
20
1.16511845775716
30
0
41
1
10
26.8638622974993
20
1.16858051226112
30
0
41
1
10
26.8523667468497
20
1.17563241226509
30
0
41
1
10
26.8464435976727
20
1.17922196189826
30
0
41
1
10
26.8342735039848
20
1.18651107210272
30
0
41
1
10
26.8279858986545
20
1.19023421982666
30
0
41
1
10
26.8153079769204
20
1.19765524265455
30
0
41
1
10
26.8089446624046
20
1.20133796771421
30
0
41
1
10
26.7897845898556
20
1.21230163836373
30
0
41
1
10
26.7768599131556
20
1.21953103361062
30
0
41
1
10
26.7510738142618
20
1.23358758340575
30
0
41
1
10
26.7383726761879
20
1.24032855009648
30
0
41
1
10
26.7258136463349
20
1.24679566291968
30
0
0
SPLINE
5
136
100
AcDbEntity
8
1
62
256
6
ByLayer
370
18
48
1
60
0
100
AcDbSpline
70
4
71
3
72
10
73
6
40
0
40
0
40
0
40
0
40
0.112639153925044
40
0.408426102616696
40
1
40
1
40
1
40
1
41
1
10
15.9582103060003
20
-1.73712196869107
30
0
41
1
10
15.8471402040002
20
-1.7552476863105
30
0
41
1
10
15.4444034353335
20
-1.80728166028882
30
0
41
1
10
14.4583333333334
20
-1.80817337852261
30
0
41
1
10
13.5833333333335
20
-1.56492917026742
30
0
41
1
10
13.0000000000001
20
-1.31707326446693
30
0
0
SPLINE
5
137
100
AcDbEntity
8
1
62
256
6
ByLayer
370
18
48
1
60
0
100
AcDbSpline
70
4
71
3
72
14
73
10
40
0
40
0
40
0
40
0
40
0.25
40
0.25
40
0.5
40
0.5
40
0.75
40
0.75
40
1
40
1
40
1
40
1
41
1
10
26.82486744005
20
-0.869868473962242
30
0
41
1
10
26.8280425091278
20
-0.877589254632511
30
0
41
1
10
26.8311368398357
20
-0.885569086490307
30
0
41
1
10
26.8371471818847
20
-0.902100931753665
30
0
41
1
10
26.8400315044594
20
-0.910570029550655
30
0
41
1
10
26.8454405659113
20
-0.927717304594665
30
0
41
1
10
26.8479798513663
20
-0.936428884809601
30
0
41
1
10
26.8526256753323
20
-0.95421329175926
30
0
41
1
10
26.8546838745101
20
-0.963112444535057
30
0
41
1
10
26.8563344454953
20
-0.971782287723215
30
0
0
SPLINE
5
138
100
AcDbEntity
8
1
62
256
6
ByLayer
370
18
48
1
60
0
100
AcDbSpline
70
4
71
3
72
11
73
7
40
0
40
0
40
0
40
0
40
0.443682806724882
40
0.690194002303233
40
0.936705197881585
40
1
40
1
40
1
40
1
41
1
10
26.8248674415109
20
-0.86986847213285
30
0
41
1
10
26.2999116276739
20
-0.578645388399792
30
0
41
1
10
25.4832891471703
20
-0.0500384567289132
30
0
41
1
10
24.375
20
0.650944975450187
30
0
41
1
10
23.7167776381668
20
1.01772297742946
30
0
41
1
10
23.3502219430003
20
1.19210440899715
30
0
41
1
10
23.2753329145004
20
1.22637587550489
30
0
0
SPLINE
5
139
100
AcDbEntity
8
1
62
256
6
ByLayer
370
13
48
1
60
0
100
AcDbSpline
70
4
71
3
72
8
73
4
40
0
40
0
40
0
40
0
40
1
40
1
40
1
40
1
41
1
10
20.2993501607224
20
1.05506731541445
30
0
41
1
10
20.3167527425099
20
1.05202567310096
30
0
41
1
10
20.3341553242974
20
1.04892115840281
30
0
41
1
10
20.351557906085
20
1.04575426302787
30
0
0
SPLINE
5
13A
100
AcDbEntity
8
1
62
256
6
ByLayer
370
13
48
1
60
0
100
AcDbSpline
70
4
71
3
72
17
73
13
40
0
40
0
40
0
40
0
40
0.0150511678314568
40
0.197819481258111
40
0.334895716328102
40
0.471971951398092
40
0.563356108111419
40
0.654740264824747
40
0.746124421538074
40
0.837508578251401
40
0.928892734964728
40
1
40
1
40
1
40
1
41
1
10
20.8029428058091
20
0.949940432798684
30
0
41
1
10
20.8269618705394
20
0.944131417081649
30
0
41
1
10
21.1426476019364
20
0.866327367923617
30
0
41
1
10
21.6770833333333
20
0.70260502748252
30
0
41
1
10
22.40625
20
0.431403701976961
30
0
41
0.999999999999999
10
22.9895833333334
20
0.191444818664906
30
0
41
1
10
23.5
20
-0.0242494208848427
30
0
41
1
10
23.9375
20
-0.207658070312874
30
0
41
1
10
24.375
20
-0.386328739195477
30
0
41
1
10
24.8125000000001
20
-0.555749727055172
30
0
41
1
10
25.2176415824208
20
-0.699474526992532
30
0
41
1
10
25.4769498315083
20
-0.781687857079191
30
0
41
1
10
25.5904247472625
20
-0.815607486719784
30
0
0
SPLINE
5
13B
100
AcDbEntity
8
1
62
256
6
ByLayer
370
13
48
1
60
0
100
AcDbSpline
70
4
71
3
72
17
73
13
40
0
40
0
40
0
40
0
40
0.0406188511342239
40
0.164410551572122
40
0.246938351864054
40
0.329466152155986
40
0.411993952447918
40
0.49452175273985
40
0.618313453177749
40
0.742105153615647
40
0.907160754199511
40
1
40
1
40
1
40
1
41
1
10
16.9409195621553
20
1.0976090059543
30
0
41
1
10
17.0126963747702
20
1.08729026079641
30
0
41
1
10
17.3032231873851
20
1.04045056117366
30
0
41
1
10
17.7395833333333
20
0.939884091846864
30
0
41
1
10
18.25
20
0.784435900909898
30
0
41
1
10
18.6875
20
0.629984139301996
30
0
41
1
10
19.125
20
0.457436331038479
30
0
41
1
10
19.6354166666666
20
0.240340939111235
30
0
41
1
10
20.21875
20
-0.0198798046412776
30
0
41
1
10
20.9479166666667
20
-0.342503374427366
30
0
41
1
10
21.6223878292891
20
-0.61963101303553
30
0
41
1
10
22.0781089919117
20
-0.775228131039256
30
0
41
1
10
22.2421634878676
20
-0.826365419239437
30
0
0
SPLINE
5
13C
100
AcDbEntity
8
1
62
256
6
ByLayer
370
13
48
1
60
0
100
AcDbSpline
70
4
71
3
72
13
73
9
40
0
40
0
40
0
40
0
40
0.19171222658104
40
0.378045986486839
40
0.564379746392638
40
0.750713506298437
40
0.937047266204236
40
1
40
1
40
1
40
1
41
1
10
13.8497433940945
20
0.897645959988097
30
0
41
1
10
14.1498289293963
20
0.818721474669843
30
0
41
1
10
14.7415811313648
20
0.632733156525404
30
0
41
1
10
15.625
20
0.294075029558769
30
0
41
1
10
16.5
20
-0.071828557702446
30
0
41
1
10
17.375
20
-0.428484180018699
30
0
41
1
10
18.0568727178928
20
-0.675907961480902
30
0
41
1
10
18.4470787691189
20
-0.795434315327924
30
0
41
1
10
18.5456181536783
20
-0.824083897162524
30
0
0
SPLINE
5
13D
100
AcDbEntity
8
1
62
256
6
ByLayer
370
18
48
1
60
0
100
AcDbSpline
70
4
71
3
72
24
73
20
40
0
40
0
40
0
40
0
40
0.250000000000001
40
0.250000000000001
40
0.500000000000001
40
0.500000000000001
40
0.625000000000002
40
0.625000000000002
40
0.687500000000001
40
0.687500000000001
40
0.750000000000001
40
0.750000000000001
40
0.812500000000001
40
0.812500000000001
40
0.875000000000001
40
0.875000000000001
40
0.9375
40
0.9375
40
1
40
1
40
1
40
1
41
1
10
11.8202360847506
20
-1.896923144856
30
0
41
1
10
11.8115127254658
20
-1.89565136491024
30
0
41
1
10
11.8030071619413
20
-1.89429612609482
30
0
41
1
10
11.7867429540868
20
-1.89134904257386
30
0
41
1
10
11.7789212547125
20
-1.88975802566444
30
0
41
1
10
11.7685993647481
20
-1.8870777190709
30
0
41
1
10
11.7653877647168
20
-1.8861324186274
30
0
41
1
10
11.7613916971214
20
-1.8846122368785
30
0
41
1
10
11.7601950205482
20
-1.88408758289754
30
0
41
1
10
11.7582584796084
20
-1.88298275876508
30
0
41
1
10
11.7575219010753
20
-1.88240528638522
30
0
41
1
10
11.7569777260851
20
-1.88121598076736
30
0
41
1
10
11.7571922592787
20
-1.88059411381354
30
0
41
1
10
11.7592641369681
20
-1.87943946281572
30
0
41
1
10
11.7611370260843
20
-1.87892960554544
30
0
41
1
10
11.7658739368704
20
-1.87815662679762
30
0
41
1
10
11.7686497781518
20
-1.87788841613272
30
0
41
1
10
11.7743910311217
20
-1.87750443768419
30
0
41
1
10
11.7773769806161
20
-1.87738655228179
30
0
41
1
10
11.7803823745335
20
-1.87731290527719
30
0
0
SPLINE
5
13E
100
AcDbEntity
8
1
62
256
6
ByLayer
370
18
48
1
60
0
100
AcDbSpline
70
4
71
3
72
8
73
4
40
0
40
0
40
0
40
0
40
1
40
1
40
1
40
1
41
1
10
11.7803823745601
20
-1.87731290523206
30
0
41
1
10
11.7956139496864
20
-1.87693965635705
30
0
41
1
10
11.8106374196604
20
-1.87635112128464
30
0
41
1
10
11.8253118143202
20
-1.87538083298685
30
0
0
SPLINE
5
13F
100
AcDbEntity
8
1
62
256
6
ByLayer
370
18
48
1
60
0
100
AcDbSpline
70
4
71
3
72
16
73
12
40
0
40
0
40
0
40
0
40
0.25
40
0.25
40
0.5
40
0.5
40
0.75
40
0.75
40
0.875
40
0.875
40
1
40
1
40
1
40
1
41
1
10
11.8253118143202
20
-1.87538083298685
30
0
41
1
10
11.7496837422686
20
-1.86082059770604
30
0
41
1
10
11.6763892381292
20
-1.84242586436471
30
0
41
1
10
11.5345183993164
20
-1.79693804105875
30
0
41
1
10
11.465942257137
20
-1.76984817738966
30
0
41
1
10
11.3334985336304
20
-1.70565999813883
30
0
41
1
10
11.2696307776329
20
-1.66856828658874
30
0
41
1
10
11.1773066374286
20
-1.6041245877496
30
0
41
1
10
11.1470671392693
20
-1.58112650552624
30
0
41
1
10
11.08828884793
20
-1.53240392012302
30
0
41
1
10
11.0596847361142
20
-1.50664001580418
30
0
41
1
10
11.0318408308842
20
-1.47939525035079
30
0
0
SPLINE
5
140
100
AcDbEntity
8
1
62
256
6
ByLayer
370
18
48
1
60
0
100
AcDbSpline
70
4
71
3
72
26
73
22
40
0
40
0
40
0
40
0
40
0.250000000000062
40
0.250000000000062
40
0.375000000000068
40
0.375000000000068
40
0.437500000000061
40
0.437500000000061
40
0.500000000000055
40
0.500000000000055
40
0.562500000000049
40
0.562500000000049
40
0.625000000000042
40
0.625000000000042
40
0.687500000000036
40
0.687500000000036
40
0.750000000000029
40
0.750000000000029
40
0.875000000000015
40
0.875000000000015
40
1
40
1
40
1
40
1
41
1
10
11.0318408308842
20
-1.47939525035079
30
0
41
1
10
11.025350659618
20
-1.47304473333679
30
0
41
1
10
11.0198305906443
20
-1.46636405016932
30
0
41
1
10
11.014256413823
20
-1.45545824411491
30
0
41
1
10
11.0128539257008
20
-1.45161443428697
30
0
41
1
10
11.0119051566001
20
-1.44577768675168
30
0
41
1
10
11.0117781721841
20
-1.44381899887998
30
0
41
1
10
11.0119763956877
20
-1.43987203326054
30
0
41
1
10
11.0123081309259
20
-1.43788059390417
30
0
41
1
10
11.0134623996607
20
-1.43401428954417
30
0
41
1
10
11.0142841338959
20
-1.43212175330612
30
0
41
1
10
11.0164511411178
20
-1.42842573893677
30
0
41
1
10
11.0178145946633
20
-1.42660804506508
30
0
41
1
10
11.020963405506
20
-1.42321215055586
30
0
41
1
10
11.0227532919279
20
-1.42161739633244
30
0
41
1
10
11.0267271855478
20
-1.41861848492505
30
0
41
1
10
11.0289229612289
20
-1.41721098432873
30
0
41
1
10
11.0358205931017
20
-1.41337470382317
30
0
41
1
10
11.0408919725924
20
-1.41127095283952
30
0
41
1
10
11.0516976336799
20
-1.40773010936118
30
0
41
1
10
11.0573103347718
20
-1.40633321405016
30
0
41
1
10
11.0630716899418
20
-1.40520307426854
30
0
0
SPLINE
5
141
100
AcDbEntity
8
1
62
256
6
ByLayer
370
18
48
1
60
0
100
AcDbSpline
70
4
71
3
72
24
73
20
40
0
40
0
40
0
40
0
40
0.250000000000002
40
0.250000000000002
40
0.500000000000004
40
0.500000000000004
40
0.625000000000005
40
0.625000000000005
40
0.687500000000004
40
0.687500000000004
40
0.750000000000003
40
0.750000000000003
40
0.812500000000002
40
0.812500000000002
40
0.875000000000002
40
0.875000000000002
40
0.937500000000001
40
0.937500000000001
40
1
40
1
40
1
40
1
41
1
10
11.7523942128779
20
-0.77729254684624
30
0
41
1
10
11.7432178459404
20
-0.769817091783921
30
0
41
1
10
11.7342564312182
20
-0.762124974652892
30
0
41
1
10
11.7170764813446
20
-0.746011575051
30
0
41
1
10
11.7087798815133
20
-0.737579485822238
30
0
41
1
10
11.6977972016331
20
-0.723913505649932
30
0
41
1
10
11.6943686042459
20
-0.719180385117227
30
0
41
1
10
11.6900403637942
20
-0.71158463131539
30
0
41
1
10
11.6887442393516
20
-0.708981623208587
30
0
41
1
10
11.6866683139706
20
-0.703572871987319
30
0
41
1
10
11.685892311813
20
-0.70080982618731
30
0
41
1
10
11.6853691801914
20
-0.695056874127857
30
0
41
1
10
11.6856848478218
20
-0.692094855193773
30
0
41
1
10
11.6880605671597
20
-0.686830497933244
30
0
41
1
10
11.6901643056924
20
-0.684550430125057
30
0
41
1
10
11.6952190839576
20
-0.681208338335949
30
0
41
1
10
11.6980859322225
20
-0.680085120376077
30
0
41
1
10
11.7039987497848
20
-0.678456042402473
30
0
41
1
10
11.707027860654
20
-0.677957720169758
30
0
41
1
10
11.7100981770591
20
-0.677638778724543
30
0
0
SPLINE
5
142
100
AcDbEntity
8
1
62
256
6
ByLayer
370
18
48
1
60
0
100
AcDbSpline
70
4
71
3
72
30
73
26
40
0
40
0
40
0
40
0
40
0.125000000000018
40
0.125000000000018
40
0.187500000000027
40
0.187500000000027
40
0.250000000000036
40
0.250000000000036
40
0.312500000000046
40
0.312500000000046
40
0.375000000000055
40
0.375000000000055
40
0.406250000000059
40
0.406250000000059
40
0.437500000000064
40
0.437500000000064
40
0.500000000000056
40
0.500000000000056
40
0.625000000000042
40
0.625000000000042
40
0.750000000000028
40
0.750000000000028
40
0.875000000000014
40
0.875000000000014
40
1
40
1
40
1
40
1
41
1
10
11.7100981770591
20
-0.677638778724543
30
0
41
1
10
11.7266515962044
20
-0.675919225841739
30
0
41
1
10
11.7429469100734
20
-0.673188305316643
30
0
41
1
10
11.7667381134892
20
-0.666525814675765
30
0
41
1
10
11.774608458269
20
-0.66384829685515
30
0
41
1
10
11.7897943110816
20
-0.657385111916085
30
0
41
1
10
11.7970578875201
20
-0.653628289937558
30
0
41
1
10
11.8107454524091
20
-0.644768838345669
30
0
41
1
10
11.8172019143414
20
-0.639602634061305
30
0
41
1
10
11.8284485013288
20
-0.628187284807581
30
0
41
1
10
11.833324140867
20
-0.621897868450446
30
0
41
1
10
11.839472263828
20
-0.611548018259185
30
0
41
1
10
11.8413155036137
20
-0.607958617868036
30
0
41
1
10
11.8445383418696
20
-0.60067666499404
30
0
41
1
10
11.8459319361906
20
-0.59696168017436
30
0
41
1
10
11.8495210430194
20
-0.58561349676998
30
0
41
1
10
11.8511274479075
20
-0.577715922401751
30
0
41
1
10
11.8539326898167
20
-0.554081319763412
30
0
41
1
10
11.8532743425708
20
-0.538184084234842
30
0
41
1
10
11.8490200026063
20
-0.506373804304644
30
0
41
1
10
11.8454577118034
20
-0.490810150449704
30
0
41
1
10
11.8366055825567
20
-0.460063859929363
30
0
41
1
10
11.8312950468142
20
-0.444886739697694
30
0
41
1
10
11.8194394865653
20
-0.414784269231518
30
0
41
1
10
11.8128873306004
20
-0.399863821462333
30
0
41
1
10
11.8059059759889
20
-0.38512402643147
30
0
0
SPLINE
5
143
100
AcDbEntity
8
1
62
256
6
ByLayer
370
18
48
1
60
0
100
AcDbSpline
70
4
71
3
72
20
73
16
40
0
40
0
40
0
40
0
40
0.250000000000014
40
0.250000000000014
40
0.375000000000021
40
0.375000000000021
40
0.437500000000021
40
0.437500000000021
40
0.500000000000022
40
0.500000000000022
40
0.750000000000011
40
0.750000000000011
40
0.875000000000005
40
0.875000000000005
40
1
40
1
40
1
40
1
41
1
10
11.8059059759886
20
-0.385124026431669
30
0
41
1
10
11.7594084881184
20
-0.304444243780381
30
0
41
1
10
11.7192079332178
20
-0.220807386631378
30
0
41
1
10
11.6675481720072
20
-0.0911466496974924
30
0
41
1
10
11.6517693390068
20
-0.0472249265388882
30
0
41
1
10
11.6301816744026
20
0.0196917584719927
30
0
41
1
10
11.6233327465518
20
0.042169774007192
30
0
41
1
10
11.6103181949599
20
0.0874692193263229
30
0
41
1
10
11.6041460513347
20
0.110323910267312
30
0
41
1
10
11.5752605074094
20
0.224245860141281
30
0
41
1
10
11.5581494373001
20
0.315136665908511
30
0
41
1
10
11.540011658851
20
0.450804780428569
30
0
41
1
10
11.5352305048808
20
0.495916839272638
30
0
41
1
10
11.5280676266023
20
0.585875392050355
30
0
41
1
10
11.5256903096489
20
0.63078988953086
30
0
41
1
10
11.5244860431037
20
0.675048709150502
30
0
0
SPLINE
5
144
100
AcDbEntity
8
1
62
256
6
ByLayer
370
18
48
1
60
0
100
AcDbSpline
70
4
71
3
72
12
73
8
40
0
40
0
40
0
40
0
40
0.500000000000036
40
0.500000000000036
40
0.750000000000018
40
0.750000000000018
40
1
40
1
40
1
40
1
41
1
10
11.5244860431037
20
0.675048709150474
30
0
41
1
10
11.5241451761406
20
0.687576142961007
30
0
41
1
10
11.5256570537832
20
0.699807269968431
30
0
41
1
10
11.5309617428141
20
0.717684651109153
30
0
41
1
10
11.5332429492375
20
0.723547864155478
30
0
41
1
10
11.538673905178
20
0.734770424304344
30
0
41
1
10
11.5418355060783
20
0.740176055725357
30
0
41
1
10
11.54541930538
20
0.745388603135495
30
0
0
SPLINE
5
145
100
AcDbEntity
8
1
62
256
6
ByLayer
370
18
48
1
60
0
100
AcDbSpline
70
4
71
3
72
32
73
28
40
0
40
0
40
0
40
0
40
0.0624999999999878
40
0.0624999999999878
40
0.0937499999999882
40
0.0937499999999882
40
0.124999999999989
40
0.124999999999989
40
0.187499999999989
40
0.187499999999989
40
0.24999999999999
40
0.24999999999999
40
0.312499999999991
40
0.312499999999991
40
0.374999999999992
40
0.374999999999992
40
0.437499999999993
40
0.437499999999993
40
0.499999999999993
40
0.499999999999993
40
0.624999999999995
40
0.624999999999995
40
0.749999999999997
40
0.749999999999997
40
0.874999999999998
40
0.874999999999998
40
1
40
1
40
1
40
1
41
1
10
11.5454193053799
20
0.745388603135495
30
0
41
1
10
11.5582875025035
20
0.764105077452911
30
0
41
1
10
11.5732510258003
20
0.780876179889788
30
0
41
1
10
11.5980228627441
20
0.803909652614777
30
0
41
1
10
11.6066733747434
20
0.811228315446868
30
0
41
1
10
11.6246735245908
20
0.825232685565481
30
0
41
1
10
11.6340615120995
20
0.831942500517016
30
0
41
1
10
11.6628627067291
20
0.851020185628215
30
0
41
1
10
11.6828497728913
20
0.862334547031281
30
0
41
1
10
11.7240099373245
20
0.882878971064741
30
0
41
1
10
11.7451868134875
20
0.89210195186962
30
0
41
1
10
11.7885081218196
20
0.908873286451097
30
0
41
1
10
11.8107156045683
20
0.916436237106097
30
0
41
1
10
11.8556318870529
20
0.930053579462509
30
0
41
1
10
11.8783147458055
20
0.936105204413082
30
0
41
1
10
11.9240622599924
20
0.946939530184835
30
0
41
1
10
11.9471272882975
20
0.951720875661607
30
0
41
1
10
11.9935948890873
20
0.960174778289286
30
0
41
1
10
12.0170145331388
20
0.963847730929217
30
0
41
1
10
12.0873993098636
20
0.973329294429135
30
0
41
1
10
12.1345946147543
20
0.977636261890098
30
0
41
1
10
12.2294487836888
20
0.982864179355687
30
0
41
1
10
12.2769489797128
20
0.983767958782778
30
0
41
1
10
12.3718808969444
20
0.982527404456874
30
0
41
1
10
12.4193958629344
20
0.980375195218727
30
0
41
1
10
12.5139960463219
20
0.973228342468474
30
0
41
1
10
12.5611218694086
20
0.968234289643107
30
0
41
1
10
12.6080816411547
20
0.961864545900767
30
0
0
SPLINE
5
146
100
AcDbEntity
8
1
62
256
6
ByLayer
370
18
48
1
60
0
100
AcDbSpline
70
4
71
3
72
12
73
8
40
0
40
0
40
0
40
0
40
0.499999999999999
40
0.499999999999999
40
0.749999999999999
40
0.749999999999999
40
1
40
1
40
1
40
1
41
1
10
11.7977402650165
20
1.80935619851533
30
0
41
1
10
11.804451133291
20
1.80993952311474
30
0
41
1
10
11.8109400679598
20
1.81070450019908
30
0
41
1
10
11.8201612832851
20
1.81226067595699
30
0
41
1
10
11.8231634435518
20
1.81285299937974
30
0
41
1
10
11.8287876215585
20
1.81417373850684
30
0
41
1
10
11.831426074524
20
1.81490399729765
30
0
41
1
10
11.83386156595
20
1.81571398710074
30
0
0
SPLINE
5
147
100
AcDbEntity
8
1
62
256
6
ByLayer
370
18
48
1
60
0
100
AcDbSpline
70
4
71
3
72
16
73
12
40
0
40
0
40
0
40
0
40
0.358013745920862
40
0.358013745920862
40
0.716027491841724
40
0.716027491841724
40
0.895034364802147
40
0.895034364802147
40
0.984537801282352
40
0.984537801282352
40
1
40
1
40
1
40
1
41
1
10
11.8338615659387
20
1.81571398711546
30
0
41
1
10
11.7662753402417
20
1.83826680134928
30
0
41
1
10
11.7017081320343
20
1.85787557109006
30
0
41
1
10
11.5787378263434
20
1.88988269656488
30
0
41
1
10
11.5203338790107
20
1.90228656746206
30
0
41
1
10
11.4374007039354
20
1.91416791240167
30
0
41
1
10
11.4105347068895
20
1.91700372845807
30
0
41
1
10
11.3714080861875
20
1.91936010704617
30
0
41
1
10
11.3585441211355
20
1.91982847572211
30
0
41
1
10
11.343773220972
20
1.91998367186642
30
0
41
1
10
11.3416049875592
20
1.91999655464477
30
0
41
1
10
11.3394443583043
20
1.91999940013835
30
0
0
SPLINE
5
148
100
AcDbEntity
8
1
62
256
6
ByLayer
370
18
48
1
60
0
100
AcDbSpline
70
4
71
3
72
18
73
14
40
0
40
0
40
0
40
0
40
0.079592049750805
40
0.079592049750805
40
0.263673639800644
40
0.263673639800644
40
0.447755229850483
40
0.447755229850483
40
0.631836819900322
40
0.631836819900322
40
0.815918409950161
40
0.815918409950161
40
1
40
1
40
1
40
1
41
1
10
11.6699786886535
20
1.86252982458924
30
0
41
1
10
11.6960114219444
20
1.86299596656738
30
0
41
1
10
11.722036084667
20
1.86360838370186
30
0
41
1
10
11.8078881164027
20
1.86604432690473
30
0
41
1
10
11.8673769107182
20
1.86840169756064
30
0
41
1
10
11.9856160573724
20
1.8739569428439
30
0
41
1
10
12.0441640575156
20
1.87714638427559
30
0
41
1
10
12.1601492121486
20
1.88389901944819
30
0
41
1
10
12.2176203331201
20
1.88746474532436
30
0
41
1
10
12.3312361037258
20
1.89453116787468
30
0
41
1
10
12.3874726104406
20
1.89803728365425
30
0
41
1
10
12.4986819736059
20
1.90458734728537
30
0
41
1
10
12.5536529468702
20
1.90763122997495
30
0
41
1
10
12.608081641155
20
1.91026526718289
30
0
0
SPLINE
5
149
100
AcDbEntity
8
1
62
256
6
ByLayer
370
18
48
1
60
0
100
AcDbSpline
70
4
71
3
72
25
73
21
40
0
40
0
40
0
40
0
40
0.203962133451621
40
0.203962133451621
40
0.305943200177426
40
0.305943200177426
40
0.407924266903232
40
0.407924266903232
40
0.458914800266128
40
0.458914800266128
40
0.509905333629024
40
0.509905333629024
40
0.611886400354816
40
0.713867467080608
40
0.713867467080608
40
0.8158485338064
40
0.8158485338064
40
0.917829600532193
40
0.917829600532193
40
1
40
1
40
1
40
1
41
1
10
26.8641409053831
20
1.85845020895985
30
0
41
1
10
26.8763550450435
20
1.82460760838654
30
0
41
1
10
26.8853271114594
20
1.79005244635942
30
0
41
1
10
26.892322854174
20
1.73679936578691
30
0
41
1
10
26.8935574225952
20
1.7186789517506
30
0
41
1
10
26.8934308054343
20
1.68278667845743
30
0
41
1
10
26.8920929144307
20
1.66496887809865
30
0
41
1
10
26.8880135243365
20
1.63845086067795
30
0
41
1
10
26.8863078416998
20
1.62964634840844
30
0
41
1
10
26.8821720026594
20
1.612110270328
30
0
41
1
10
26.8797274514953
20
1.60333988630833
30
0
41
1
10
26.8713981090444
20
1.57756280308601
30
0
41
1
10
26.8576358086007
20
1.54447438396514
30
0
41
1
10
26.8388927598787
20
1.51378778630863
30
0
41
1
10
26.8177978383668
20
1.48423531111939
30
0
41
1
10
26.8063273235867
20
1.47037283402781
30
0
41
1
10
26.781883252867
20
1.44419461685388
30
0
41
1
10
26.7689038787098
20
1.4318736339589
30
0
41
1
10
26.7443088551758
20
1.41079923564266
30
0
41
1
10
26.7328808167677
20
1.40179285134369
30
0
41
1
10
26.7211469221647
20
1.39320643936975
30
0
0
SPLINE
5
14A
100
AcDbEntity
8
1
62
256
6
ByLayer
370
13
48
1
60
0
100
AcDbSpline
70
4
71
3
72
11
73
7
40
0
40
0
40
0
40
0
40
0.424958790171274
40
0.637438185256911
40
0.849917580342547
40
1
40
1
40
1
40
1
41
1
10
13
20
0.116059515948109
30
0
41
1
10
13.5833333333334
20
-0.132360985070306
30
0
41
0.999999999999999
10
14.4583333333334
20
-0.518617917574261
30
0
41
1
10
15.625
20
-0.902407538239686
30
0
41
1
10
16.4143487874394
20
-1.07893907869581
30
0
41
1
10
16.9120309082123
20
-1.13443696038385
30
0
41
1
10
17.1180463623184
20
-1.14741307487176
30
0
0
SPLINE
5
14B
100
AcDbEntity
8
1
62
256
6
ByLayer
370
18
48
1
60
0
100
AcDbSpline
70
4
71
3
72
8
73
4
40
0
40
0
40
0
40
0
40
1
40
1
40
1
40
1
41
1
10
26.776334978184
20
0.85358796989027
30
0
41
1
10
26.7775594490736
20
0.843731412595247
30
0
41
1
10
26.7787830367912
20
0.833869148989663
30
0
41
1
10
26.7800057285888
20
0.824001230685866
30
0
0
SPLINE
5
14C
100
AcDbEntity
8
1
62
256
6
ByLayer
370
18
48
1
60
0
100
AcDbSpline
70
4
71
3
72
8
73
4
40
0
40
0
40
0
40
0
40
1
40
1
40
1
40
1
41
1
10
26.802655642956
20
0.80979584675768
30
0
41
1
10
26.817948430936
20
0.788883143591107
30
0
41
1
10
26.8343393912077
20
0.768051462110066
30
0
41
1
10
26.852062560006
20
0.747318069163413
30
0
0
SPLINE
5
14D
100
AcDbEntity
8
1
62
256
6
ByLayer
370
13
48
1
60
0
100
AcDbSpline
70
4
71
3
72
12
73
8
40
0
40
0
40
0
40
0
40
0.348572180592438
40
0.538952172886696
40
0.729332165180954
40
0.919712157475212
40
1
40
1
40
1
40
1
41
1
10
26.8520625610015
20
0.747318068675042
30
0
41
1
10
26.3180417073343
20
1.06006808431425
30
0
41
1
10
25.4923541870005
20
1.48432502862795
30
0
41
1
10
24.375
20
1.80095864790204
30
0
41
1
10
23.5
20
1.89123580074644
30
0
41
1
10
22.7936637863699
20
1.82373364198722
30
0
41
1
10
22.3789942394065
20
1.73078136434748
30
0
41
1
10
22.2559913591098
20
1.69869729389282
30
0
0
SPLINE
5
14E
100
AcDbEntity
8
1
62
256
6
ByLayer
370
18
48
1
60
0
100
AcDbSpline
70
4
71
3
72
8
73
4
40
0
40
0
40
0
40
0
40
1
40
1
40
1
40
1
41
1
10
25.8095916826394
20
-0.261729095743931
30
0
41
1
10
25.7852675058915
20
-0.277724530187385
30
0
41
1
10
25.7609433291437
20
-0.293689880752765
30
0
41
1
10
25.7366191523958
20
-0.309619639942895
30
0
0
SPLINE
5
14F
100
AcDbEntity
8
1
62
256
6
ByLayer
370
18
48
1
60
0
100
AcDbSpline
70
4
71
3
72
11
73
7
40
0
40
0
40
0
40
0
40
0.112960744936531
40
0.334720558702398
40
0.556480372468266
40
1
40
1
40
1
40
1
41
1
10
16.9457103843162
20
0.297867748981901
30
0
41
1
10
16.7971402562107
20
0.395285019067529
30
0
41
1
10
16.3569034614387
20
0.680147961045379
30
0
41
1
10
15.625
20
1.1165570669796
30
0
41
1
10
14.4583333333333
20
1.67202147977315
30
0
41
1
10
13.5833333333333
20
1.86088689476293
30
0
41
1
10
13
20
1.86227728249787
30
0
0
SPLINE
5
150
100
AcDbEntity
8
1
62
256
6
ByLayer
370
18
48
1
60
0
100
AcDbSpline
70
4
71
3
72
8
73
4
40
0
40
0
40
0
40
0
40
1
40
1
40
1
40
1
41
1
10
26.8185836889456
20
1.99549602191223
30
0
41
1
10
26.8265959990508
20
1.99545387040013
30
0
41
1
10
26.8346085940521
20
1.99543163604881
30
0
41
1
10
26.8426213252875
20
1.99542928625163
30
0
0
SPLINE
5
151
100
AcDbEntity
8
1
62
256
6
ByLayer
370
18
48
1
60
0
100
AcDbSpline
70
4
71
3
72
8
73
4
40
0
40
0
40
0
40
0
40
1
40
1
40
1
40
1
41
1
10
26.8185836889361
20
1.99549602190891
30
0
41
1
10
26.8326797990159
20
1.94944485127962
30
0
41
1
10
26.8477914817465
20
1.90373781843721
30
0
41
1
10
26.8641409351097
20
1.85845021937169
30
0
0
SPLINE
5
152
100
AcDbEntity
8
1
62
256
6
ByLayer
370
18
48
1
60
0
100
AcDbSpline
70
4
71
3
72
9
73
5
40
0
40
0
40
0
40
0
40
0.675651887342106
40
1
40
1
40
1
40
1
41
1
10
26.864140910174
20
1.85845020827401
30
0
41
1
10
26.6177606067827
20
1.84741171558719
30
0
41
1
10
26.2531049194278
20
1.79607853551499
30
0
41
1
10
25.888449232073
20
1.69775523628178
30
0
41
1
10
25.7701738481094
20
1.66114889171772
30
0
0
SPLINE
5
153
100
AcDbEntity
8
1
62
256
6
ByLayer
370
18
48
1
60
0
100
AcDbSpline
70
4
71
3
72
8
73
4
40
0
40
0
40
0
40
0
40
1
40
1
40
1
40
1
41
1
10
24.0427880639759
20
0.832266013828842
30
0
41
1
10
24.0300793447895
20
0.824443507256433
30
0
41
1
10
24.0173706256032
20
0.816593918638233
30
0
41
1
10
24.0046619064169
20
0.808717979860461
30
0
0
SPLINE
5
154
100
AcDbEntity
8
1
62
256
6
ByLayer
370
18
48
1
60
0
100
AcDbSpline
70
4
71
3
72
8
73
4
40
0
40
0
40
0
40
0
40
1
40
1
40
1
40
1
41
1
10
22.411801688955
20
-0.259450330951097
30
0
41
1
10
22.3917275265428
20
-0.273152577194566
30
0
41
1
10
22.3716533641307
20
-0.286833261696813
30
0
41
1
10
22.3515792017185
20
-0.300488877379536
30
0
0
SPLINE
5
155
100
AcDbEntity
8
1
62
256
6
ByLayer
370
18
48
1
60
0
100
AcDbSpline
70
4
71
3
72
8
73
4
40
0
40
0
40
0
40
0
40
1
40
1
40
1
40
1
41
1
10
13.7930725702999
20
0.345808380063687
30
0
41
1
10
13.5287150468665
20
0.524868296838093
30
0
41
1
10
13.2643575234333
20
0.699078886564422
30
0
41
1
10
13
20
0.860614091372355
30
0
0
SPLINE
5
156
100
AcDbEntity
8
1
62
256
6
ByLayer
370
18
48
1
60
0
100
AcDbSpline
70
4
71
3
72
62
73
58
40
0
40
0
40
0
40
0
40
0.0131769402803484
40
0.0131769402803484
40
0.0712253555579776
40
0.0712253555579776
40
0.129273770835607
40
0.129273770835607
40
0.158297978474421
40
0.158297978474421
40
0.172810082293826
40
0.172810082293826
40
0.187322186113232
40
0.187322186113232
40
0.216346393752044
40
0.216346393752044
40
0.245370601390856
40
0.245370601390856
40
0.303419016668478
40
0.303419016668478
40
0.3614674319461
40
0.3614674319461
40
0.375979535765506
40
0.375979535765506
40
0.390491639584912
40
0.390491639584912
40
0.419515847223725
40
0.419515847223725
40
0.477564262501355
40
0.477564262501355
40
0.506588470140169
40
0.506588470140169
40
0.535612677778982
40
0.535612677778982
40
0.593661093056608
40
0.593661093056608
40
0.62268530069542
40
0.62268530069542
40
0.651709508334232
40
0.651709508334232
40
0.709757923611857
40
0.709757923611857
40
0.767806338889483
40
0.767806338889483
40
0.796830546528296
40
0.796830546528296
40
0.811342650347702
40
0.811342650347702
40
0.825854754167108
40
0.825854754167108
40
0.883903169444738
40
0.883903169444738
40
0.912927377083553
40
0.912927377083553
40
0.941951584722369
40
0.941951584722369
40
1
40
1
40
1
40
1
41
1
10
20.3736380162869
20
-1.75968207482174
30
0
41
1
10
20.3412552894817
20
-1.7694417937015
30
0
41
1
10
20.3089033794679
20
-1.77880963017409
30
0
41
1
10
20.1341559846486
20
-1.82734480663203
30
0
41
1
10
19.9922200659552
20
-1.85933726044283
30
0
41
1
10
19.7082073829792
20
-1.90769435045141
30
0
41
1
10
19.5660898847337
20
-1.92412223430719
30
0
41
1
10
19.3517725597119
20
-1.93693531011027
30
0
41
1
10
19.2801463664693
20
-1.9392262743643
30
0
41
1
10
19.1723174890164
20
-1.93957735109382
30
0
41
1
10
19.1362635885915
20
-1.93917633208733
30
0
41
1
10
19.0643342357762
20
-1.93731844018825
30
0
41
1
10
19.0284413825672
20
-1.93586307734407
30
0
41
1
10
18.9209610945271
20
-1.92990252580887
30
0
41
1
10
18.8495584053995
20
-1.92383407034578
30
0
41
1
10
18.7070103453549
20
-1.90785907973893
30
0
41
1
10
18.6358919431552
20
-1.89787684674232
30
0
41
1
10
18.4227434023428
20
-1.86214556222569
30
0
41
1
10
18.280898854741
20
-1.83068586599151
30
0
41
1
10
17.9965582438623
20
-1.75274633657085
30
0
41
1
10
17.8541130607876
20
-1.70609037338488
30
0
41
1
10
17.674887828997
20
-1.6387997711139
30
0
41
1
10
17.6389858213503
20
-1.62488328325847
30
0
41
1
10
17.5670475330274
20
-1.59613705279207
30
0
41
1
10
17.5310219710982
20
-1.58131104403648
30
0
41
1
10
17.4232751617712
20
-1.5357207895982
30
0
41
1
10
17.3516990688871
20
-1.50376566222613
30
0
41
1
10
17.1374831890513
20
-1.40355102814672
30
0
41
1
10
16.9953367855523
20
-1.33103348592184
30
0
41
1
10
16.7823631270872
20
-1.21427578936323
30
0
41
1
10
16.7114061055689
20
-1.17403796135201
30
0
41
1
10
16.5693633799458
20
-1.0912312766456
30
0
41
1
10
16.4982765902396
20
-1.04866723991867
30
0
41
1
10
16.2846209220728
20
-0.917650371558267
30
0
41
1
10
16.1416525942396
20
-0.825826841573246
30
0
41
1
10
15.925616678688
20
-0.682309087833175
30
0
41
1
10
15.8539044778069
20
-0.633852403118908
30
0
41
1
10
15.7109449977556
20
-0.535885000682413
30
0
41
1
10
15.6396822366042
20
-0.48639870851278
30
0
41
1
10
15.4261678271136
20
-0.337000341897436
30
0
41
1
10
15.284212269217
20
-0.236120441534609
30
0
41
1
10
15.0001495503782
20
-0.0330646816307762
30
0
41
1
10
14.8580543811754
20
0.0691315973836879
30
0
41
1
10
14.6439436775155
20
0.222273731515145
30
0
41
1
10
14.5724007923758
20
0.273275564244813
30
0
41
1
10
14.4646850078159
20
0.3494864023844
30
0
41
1
10
14.4286710525263
20
0.374872195758172
30
0
41
1
10
14.35673020937
20
0.42536620063359
30
0
41
1
10
14.320816390161
20
0.450465518184757
30
0
41
1
10
14.1415015710834
20
0.575174292609404
30
0
41
1
10
13.9988758748809
20
0.67243627792854
30
0
41
1
10
13.7853645386681
20
0.813365830137542
30
0
41
1
10
13.7142688001485
20
0.859510496990453
30
0
41
1
10
13.5720535716374
20
0.949905701068673
30
0
41
1
10
13.5009224449855
20
0.994156463780769
30
0
41
1
10
13.2871129636337
20
1.12384981110122
30
0
41
1
10
13.1440546266011
20
1.20624928597928
30
0
41
1
10
13.0000000000001
20
1.28374207326269
30
0
0
SPLINE
5
157
100
AcDbEntity
8
1
62
256
6
ByLayer
370
18
48
1
60
0
100
AcDbSpline
70
4
71
3
72
15
73
11
40
0
40
0
40
0
40
0
40
0.0639133999184295
40
0.161332015411721
40
0.29122350273611
40
0.421114990060499
40
0.551006477384888
40
0.680897964709276
40
0.810789452033665
40
1
40
1
40
1
40
1
41
1
10
20.2117957276732
20
-1.70406875895847
30
0
41
1
10
20.0682804851156
20
-1.73468441885743
30
0
41
1
10
19.7060152425578
20
-1.79377438552237
30
0
41
1
10
19.0520833333334
20
-1.81414039994749
30
0
41
1
10
18.2500000000001
20
-1.68693735783376
30
0
41
1
10
17.3750000000001
20
-1.37304602395906
30
0
41
1
10
16.5000000000001
20
-0.916376128381643
30
0
41
1
10
15.6250000000001
20
-0.364525579379631
30
0
41
1
10
14.6168011811735
20
0.31474729918051
30
0
41
1
10
13.9002690290137
20
0.774060495186319
30
0
41
1
10
13.4754035435204
20
1.0086045160536
30
0
0
SPLINE
5
158
100
AcDbEntity
8
1
62
256
6
ByLayer
370
18
48
1
60
0
100
AcDbSpline
70
4
71
3
72
89
73
85
40
0
40
0
40
0
40
0
40
0.0026103106845032
40
0.0026103106845032
40
0.0131357399907855
40
0.0552374572159162
40
0.0552374572159162
40
0.0973391744410468
40
0.0973391744410468
40
0.118390033053612
40
0.118390033053612
40
0.139440891666178
40
0.139440891666178
40
0.160491750278743
40
0.160491750278743
40
0.171017179585026
40
0.171017179585026
40
0.181542608891309
40
0.181542608891309
40
0.223644326116442
40
0.223644326116442
40
0.244695184729007
40
0.244695184729007
40
0.265746043341572
40
0.265746043341572
40
0.307847760566701
40
0.307847760566701
40
0.328898619179266
40
0.328898619179266
40
0.339424048485549
40
0.339424048485549
40
0.349949477791832
40
0.349949477791832
40
0.392051195016964
40
0.392051195016964
40
0.434152912242096
40
0.434152912242096
40
0.476254629467227
40
0.476254629467227
40
0.497305488079794
40
0.497305488079794
40
0.507830917386076
40
0.507830917386076
40
0.518356346692359
40
0.518356346692359
40
0.560458063917494
40
0.560458063917494
40
0.602559781142629
40
0.602559781142629
40
0.644661498367763
40
0.644661498367763
40
0.665712356980331
40
0.665712356980331
40
0.676237786286615
40
0.676237786286615
40
0.686763215592898
40
0.686763215592898
40
0.728864932818032
40
0.728864932818032
40
0.749915791430599
40
0.749915791430599
40
0.770966650043167
40
0.770966650043167
40
0.792017508655734
40
0.792017508655734
40
0.813068367268302
40
0.813068367268302
40
0.823593796574586
40
0.823593796574586
40
0.834119225880869
40
0.834119225880869
40
0.855170084493437
40
0.855170084493437
40
0.897271801718571
40
0.897271801718571
40
0.91832266033114
40
0.91832266033114
40
0.939373518943708
40
0.939373518943708
40
0.981475236168844
40
0.981475236168844
40
0.992000665475129
40
0.992000665475129
40
1
40
1
40
1
40
1
41
1
10
23.8394465416048
20
-1.71611718796652
30
0
41
1
10
23.8306011466555
20
-1.71902422251313
30
0
41
1
10
23.8217509204615
20
-1.72190486455554
30
0
41
1
10
23.7771877888606
20
-1.73626639630442
30
0
41
1
10
23.5980076190392
20
-1.79170197964015
30
0
41
1
10
23.4198592080984
20
-1.83516636169213
30
0
41
1
10
23.1349112631404
20
-1.88990195986429
30
0
41
1
10
22.9924924776941
20
-1.90990503323582
30
0
41
1
10
22.7787191638904
20
-1.92911813840209
30
0
41
1
10
22.7074372102611
20
-1.93371913133058
30
0
41
1
10
22.5647968089073
20
-1.93914661919766
30
0
41
1
10
22.4934448790122
20
-1.93993579179147
30
0
41
1
10
22.3504870898515
20
-1.93787567018967
30
0
41
1
10
22.2788904393687
20
-1.93499005111076
30
0
41
1
10
22.1712174288476
20
-1.9278016428087
30
0
41
1
10
22.1352791583063
20
-1.92493351771435
30
0
41
1
10
22.0632880518874
20
-1.91825726192317
30
0
41
1
10
22.0272777980404
20
-1.91445346565379
30
0
41
1
10
21.8477160070984
20
-1.89318189372409
30
0
41
1
10
21.7050544453974
20
-1.86895593395459
30
0
41
1
10
21.4919319886892
20
-1.82145767451936
30
0
41
1
10
21.4210331849735
20
-1.80376226395865
30
0
41
1
10
21.2792728139591
20
-1.76506165563322
30
0
41
1
10
21.2084354747681
20
-1.7439731277137
30
0
41
1
10
20.9957890070306
20
-1.67576325099407
30
0
41
1
10
20.8538109601187
20
-1.62385833451384
30
0
41
1
10
20.6397081447139
20
-1.53660613579152
30
0
41
1
10
20.5681539635878
20
-1.5059428918963
30
0
41
1
10
20.46044818465
20
-1.45756219935353
30
0
41
1
10
20.4244497104831
20
-1.44102440936081
30
0
41
1
10
20.3524661150191
20
-1.40725479763606
30
0
41
1
10
20.31653604436
20
-1.39004961799122
30
0
41
1
10
20.1371473604389
20
-1.30250004213804
30
0
41
1
10
19.9944960739807
20
-1.22754737725884
30
0
41
1
10
19.7102099802566
20
-1.06871736970305
30
0
41
1
10
19.5685340286887
20
-0.984953762852882
30
0
41
1
10
19.2848562363533
20
-0.810392730451298
30
0
41
1
10
19.1428191387979
20
-0.71961396786088
30
0
41
1
10
18.928251386692
20
-0.579560514764495
30
0
41
1
10
18.8564967922133
20
-0.532196345055013
30
0
41
1
10
18.7484502241639
20
-0.460264064470266
30
0
41
1
10
18.712341108216
20
-0.436122411873612
30
0
41
1
10
18.640318124696
20
-0.387776327159486
30
0
41
1
10
18.6043664311299
20
-0.363545405272106
30
0
41
1
10
18.4249012847371
20
-0.242111097741088
30
0
41
1
10
18.2823404009903
20
-0.143969863124397
30
0
41
1
10
17.9983398287096
20
0.0530267659393644
30
0
41
1
10
17.8568173903529
20
0.151758817846542
30
0
41
1
10
17.5729814785022
20
0.347109365944931
30
0
41
1
10
17.4307493910325
20
0.443847791310844
30
0
41
1
10
17.2162179886125
20
0.58645691161513
30
0
41
1
10
17.1445005764887
20
0.633562723389758
30
0
41
1
10
17.0364619902183
20
0.703379491766611
30
0
41
1
10
17.000451200734
20
0.726466101586567
30
0
41
1
10
16.9285722980527
20
0.772164010663772
30
0
41
1
10
16.8926811705785
20
0.794790207879288
30
0
41
1
10
16.713446381763
20
0.906781433919036
30
0
41
1
10
16.5707634023462
20
0.99275974441764
30
0
41
1
10
16.3574321934935
20
1.11550818416441
30
0
41
1
10
16.2864448327858
20
1.15536296992343
30
0
41
1
10
16.1444918966834
20
1.23281721662667
30
0
41
1
10
16.0735258804366
20
1.27042184741256
30
0
41
1
10
15.9314776201061
20
1.34317214002255
30
0
41
1
10
15.8603941884893
20
1.37831859602454
30
0
41
1
10
15.717947094235
20
1.44593288973365
30
0
41
1
10
15.6465778302801
20
1.47840286201503
30
0
41
1
10
15.5391628263942
20
1.52502466038149
30
0
41
1
10
15.5032987688625
20
1.54022019744539
30
0
41
1
10
15.4314406437781
20
1.56990340566998
30
0
41
1
10
15.3954054070389
20
1.5844069051511
30
0
41
1
10
15.287412263919
20
1.62669624441136
30
0
41
1
10
15.2156504355767
20
1.65323412080335
30
0
41
1
10
15.0009295492486
20
1.72776551735242
30
0
41
1
10
14.8585465075263
20
1.77068301444916
30
0
41
1
10
14.6455003549394
20
1.82407797627758
30
0
41
1
10
14.5745582586084
20
1.84007079042254
30
0
41
1
10
14.4326094054138
20
1.86865296397414
30
0
41
1
10
14.3616037932616
20
1.88125013054639
30
0
41
1
10
14.1483672487793
20
1.91370993667897
30
0
41
1
10
14.0059311117093
20
1.92821969563946
30
0
41
1
10
13.8268644403744
20
1.93672811372156
30
0
41
1
10
13.7909994389481
20
1.93794716801699
30
0
41
1
10
13.7277691437402
20
1.93922238091125
30
0
41
1
10
13.7004168520324
20
1.93948502830398
30
0
41
1
10
13.6730756244023
20
1.93946098317781
30
0
0
SPLINE
5
159
100
AcDbEntity
8
1
62
256
6
ByLayer
370
18
48
1
60
0
100
AcDbSpline
70
4
71
3
72
20
73
16
40
0
40
0
40
0
40
0
40
0.0585640660667852
40
0.149142783668706
40
0.269914407137934
40
0.390686030607162
40
0.481264748209082
40
0.571843465811003
40
0.632229277545617
40
0.692615089280231
40
0.753000901014845
40
0.813386712749459
40
0.90396543035138
40
0.9945441479533
40
1
40
1
40
1
40
1
41
1
10
23.7055513080098
20
-1.6661950866486
30
0
41
1
10
23.5641175386732
20
-1.70114943990305
30
0
41
1
10
23.2039337693367
20
-1.77264915731195
30
0
41
1
10
22.5520833333335
20
-1.82236090821448
30
0
41
1
10
21.7500000000001
20
-1.74569825702102
30
0
41
1
10
20.9479166666668
20
-1.51093104182638
30
0
41
1
10
20.2187500000001
20
-1.19383976873075
30
0
41
1
10
19.6354166666668
20
-0.883552098564337
30
0
41
1
10
19.1250000000001
20
-0.579149055062885
30
0
41
1
10
18.6875000000001
20
-0.307409769717509
30
0
41
1
10
18.2500000000001
20
-0.0289993305733844
30
0
41
1
10
17.7395833333334
20
0.301585294231302
30
0
41
1
10
17.1562500000001
20
0.666906573383841
30
0
41
1
10
16.7055739729287
20
0.922314777583722
30
0
41
1
10
16.4736479458573
20
1.04366675655046
30
0
41
1
10
16.4604719187859
20
1.05052764000285
30
0
0
SPLINE
5
15A
100
AcDbEntity
8
1
62
256
6
ByLayer
370
18
48
1
60
0
100
AcDbSpline
70
4
71
3
72
84
73
80
40
0
40
0
40
0
40
0
40
0.0476394641893959
40
0.0476394641893959
40
0.0595493302367449
40
0.0595493302367449
40
0.0714591962840939
40
0.0714591962840939
40
0.0952789283787934
40
0.0952789283787934
40
0.119098660473493
40
0.119098660473493
40
0.142918392568192
40
0.142918392568192
40
0.190557856757593
40
0.190557856757593
40
0.214377588852293
40
0.214377588852293
40
0.226287454899642
40
0.226287454899642
40
0.238197320946992
40
0.238197320946992
40
0.262017053041689
40
0.262017053041689
40
0.285836785136386
40
0.285836785136386
40
0.309656517231083
40
0.309656517231083
40
0.333476249325781
40
0.333476249325781
40
0.357295981420478
40
0.357295981420478
40
0.381115713515175
40
0.381115713515175
40
0.393025579562524
40
0.393025579562524
40
0.404935445609874
40
0.404935445609874
40
0.428755177704571
40
0.428755177704571
40
0.452574909799268
40
0.452574909799268
40
0.476394641893965
40
0.476394641893965
40
0.52403410608336
40
0.52403410608336
40
0.547853838178057
40
0.547853838178057
40
0.559763704225406
40
0.559763704225406
40
0.571673570272754
40
0.571673570272754
40
0.619313034462147
40
0.619313034462147
40
0.66695249865154
40
0.66695249865154
40
0.690772230746236
40
0.690772230746236
40
0.714591962840932
40
0.714591962840932
40
0.72650182888828
40
0.72650182888828
40
0.738411694935627
40
0.738411694935627
40
0.762231427030325
40
0.762231427030325
40
0.809870891219719
40
0.809870891219719
40
0.857510355409114
40
0.857510355409114
40
0.869420221456461
40
0.869420221456461
40
0.881330087503808
40
0.881330087503808
40
0.905149819598503
40
0.905149819598503
40
0.952789283787893
40
0.952789283787893
40
1
40
1
40
1
40
1
41
1
10
26.7101385404664
20
-1.84482185144125
30
0
41
1
10
26.5665576640446
20
-1.87786987507423
30
0
41
1
10
26.4233243894535
20
-1.90238173608623
30
0
41
1
10
26.2434574859288
20
-1.92213874636943
30
0
41
1
10
26.2074050035874
20
-1.92554709859377
30
0
41
1
10
26.1354332580987
20
-1.93124547399322
30
0
41
1
10
26.0995025406448
20
-1.93353780772952
30
0
41
1
10
25.9918492107821
20
-1.93876438574338
30
0
41
1
10
25.9202701312336
20
-1.94005122273222
30
0
41
1
10
25.7774485490574
20
-1.93830184523662
30
0
41
1
10
25.7062112150936
20
-1.93526439493476
30
0
41
1
10
25.5640246025002
20
-1.92487518125685
30
0
41
1
10
25.4930620182977
20
-1.91752319254655
30
0
41
1
10
25.2802072168651
20
-1.88902562639319
30
0
41
1
10
25.1384031716271
20
-1.86138532951287
30
0
41
1
10
24.9239623872749
20
-1.80749087219195
30
0
41
1
10
24.8521751726065
20
-1.78746883255309
30
0
41
1
10
24.7437717597858
20
-1.75450668740379
30
0
41
1
10
24.7075044145753
20
-1.74301905664254
30
0
41
1
10
24.6351703949622
20
-1.71916721293516
30
0
41
1
10
24.5990571142382
20
-1.70678955320054
30
0
41
1
10
24.4909332496891
20
-1.66827860476079
30
0
41
1
10
24.4191444673039
20
-1.64076807877746
30
0
41
1
10
24.2764217541065
20
-1.58184345020052
30
0
41
1
10
24.2054525829106
20
-1.55044694818713
30
0
41
1
10
24.0638604650977
20
-1.48408314750819
30
0
41
1
10
23.9932370190056
20
-1.44911580228356
30
0
41
1
10
23.851900003882
20
-1.37597120812839
30
0
41
1
10
23.7811926227694
20
-1.33779056739994
30
0
41
1
10
23.639437208865
20
-1.25845333365601
30
0
41
1
10
23.5683896924412
20
-1.21729258308162
30
0
41
1
10
23.425674009642
20
-1.1322983383242
30
0
41
1
10
23.354007365124
20
-1.08846788386097
30
0
41
1
10
23.2459867896623
20
-1.02078349660428
30
0
41
1
10
23.2099008387909
20
-0.997902562706997
30
0
41
1
10
23.13794169116
20
-0.951759842891676
30
0
41
1
10
23.1020190891431
20
-0.928466896461941
30
0
41
1
10
22.9944030988561
20
-0.85795383263843
30
0
41
1
10
22.9228606235905
20
-0.810101750026945
30
0
41
1
10
22.7800300191095
20
-0.712921059093986
30
0
41
1
10
22.7087457089918
20
-0.663585885001879
30
0
41
1
10
22.5663439928697
20
-0.56350077533358
30
0
41
1
10
22.4952288704456
20
-0.512742185995421
30
0
41
1
10
22.2817524888076
20
-0.358957881979961
30
0
41
1
10
22.139372296084
20
-0.254167377267095
30
0
41
1
10
21.9246166011575
20
-0.0951770856601399
30
0
41
1
10
21.8528402880328
20
-0.0418649903779169
30
0
41
1
10
21.7447750011418
20
0.0384640743287719
30
0
41
1
10
21.708761199773
20
0.0652456167329376
30
0
41
1
10
21.6369584644775
20
0.118632647823546
30
0
41
1
10
21.6011358812668
20
0.14526333692217
30
0
41
1
10
21.4223786127592
20
0.278035233147932
30
0
41
1
10
21.2803809397405
20
0.382951034076171
30
0
41
1
10
20.9966697527686
20
0.588081663433201
30
0
41
1
10
20.8548699426722
20
0.688270477160074
30
0
41
1
10
20.6413227204349
20
0.83364548758874
30
0
41
1
10
20.570005667011
20
0.88128844538528
30
0
41
1
10
20.426949940309
20
0.974704133458943
30
0
41
1
10
20.3552059922203
20
1.02047591432793
30
0
41
1
10
20.2471274961346
20
1.08756914165434
30
0
41
1
10
20.2111184352178
20
1.10961399285114
30
0
41
1
10
20.1392825540316
20
1.15295128698952
30
0
41
1
10
20.1034303368865
20
1.17426016210493
30
0
41
1
10
19.9960498932607
20
1.23708738359477
30
0
41
1
10
19.9247017146415
20
1.27750366881415
30
0
41
1
10
19.7111007968596
20
1.39419835154754
30
0
41
1
10
19.5692835881881
20
1.46594777536887
30
0
41
1
10
19.2852649341623
20
1.5961534511091
30
0
41
1
10
19.143085935412
20
1.65463142966641
30
0
41
1
10
18.9641863039028
20
1.71803119790215
30
0
41
1
10
18.9283459665618
20
1.73022370597093
30
0
41
1
10
18.8565035843362
20
1.7536522920739
30
0
41
1
10
18.8204690869294
20
1.76490239227965
30
0
41
1
10
18.7123265463227
20
1.79711889736146
30
0
41
1
10
18.6404888628613
20
1.81644769653275
30
0
41
1
10
18.425532558394
20
1.86815461559323
30
0
41
1
10
18.2829653707186
20
1.89433442419602
30
0
41
1
10
17.9999070104397
20
1.92966755095728
30
0
41
1
10
17.8594194229667
20
1.93876356704081
30
0
41
1
10
17.718424420835
20
1.93937933816625
30
0
0
SPLINE
5
15B
100
AcDbEntity
8
1
62
256
6
ByLayer
370
18
48
1
60
0
100
AcDbSpline
70
4
71
3
72
8
73
4
40
0
40
0
40
0
40
0
40
1
40
1
40
1
40
1
41
1
10
26.7101385404428
20
-1.84482185145461
30
0
41
1
10
26.7100326806806
20
-1.84429239388135
30
0
41
1
10
26.7099268287014
20
-1.84376284689765
30
0
41
1
10
26.7098209845086
20
-1.84323321054458
30
0
0
SPLINE
5
15C
100
AcDbEntity
8
1
62
256
6
ByLayer
370
18
48
1
60
0
100
AcDbSpline
70
4
71
3
72
12
73
8
40
0
40
0
40
0
40
0
40
0.393562505027098
40
0.393562505027098
40
0.69678124328879
40
0.69678124328879
40
1
40
1
40
1
40
1
41
1
10
26.7255097586019
20
-1.83873461302372
30
0
41
1
10
26.7234521664343
20
-1.83932534291657
30
0
41
1
10
26.7213943429176
20
-1.8399158471407
30
0
41
1
10
26.7177506748887
20
-1.8409609062557
30
0
41
1
10
26.7161649226704
20
-1.84141555225315
30
0
41
1
10
26.7129931521905
20
-1.84232457956423
30
0
41
1
10
26.7114071339047
20
-1.84277896088494
30
0
41
1
10
26.7098209845082
20
-1.84323321054487
30
0
0
SPLINE
5
15D
100
AcDbEntity
8
1
62
256
6
ByLayer
370
18
48
1
60
0
100
AcDbSpline
70
4
71
3
72
19
73
15
40
0
40
0
40
0
40
0
40
0.125
40
0.125
40
0.25
40
0.25
40
0.375
40
0.375
40
0.5
40
0.624999999999999
40
0.624999999999999
40
0.749999999999999
40
0.749999999999999
40
1
40
1
40
1
40
1
41
1
10
26.8709893433984
20
-1.75667488933138
30
0
41
1
10
26.8657297002103
20
-1.76172472539869
30
0
41
1
10
26.8601427265368
20
-1.76668374324177
30
0
41
1
10
26.8487364724122
20
-1.77610076343026
30
0
41
1
10
26.8428730346747
20
-1.78060289351237
30
0
41
1
10
26.8308485175897
20
-1.78922400270238
30
0
41
1
10
26.8246631692972
20
-1.79335472265396
30
0
41
1
10
26.8123235261102
20
-1.80106504585638
30
0
41
1
10
26.7999419214726
20
-1.80828116648067
30
0
41
1
10
26.7874773694983
20
-1.81462622431741
30
0
41
1
10
26.7749696546075
20
-1.82056847373011
30
0
41
1
10
26.7686748162113
20
-1.82334486780562
30
0
41
1
10
26.7499701506037
20
-1.83099854432905
30
0
41
1
10
26.7376758364374
20
-1.83524176056875
30
0
41
1
10
26.7255097586016
20
-1.83873461302494
30
0
0
SPLINE
5
15E
100
AcDbEntity
8
1
62
256
6
ByLayer
370
18
48
1
60
0
100
AcDbSpline
70
4
71
3
72
8
73
4
40
0
40
0
40
0
40
0
40
1
40
1
40
1
40
1
41
1
10
26.8538633346173
20
-1.70831737662621
30
0
41
1
10
26.8594929350416
20
-1.7246528162278
30
0
41
1
10
26.8652006456364
20
-1.74077460803295
30
0
41
1
10
26.8709893433999
20
-1.75667488933033
30
0
0
SPLINE
5
15F
100
AcDbEntity
8
1
62
256
6
ByLayer
370
18
48
1
60
0
100
AcDbSpline
70
4
71
3
72
19
73
15
40
0
40
0
40
0
40
0
40
0.112721152068246
40
0.180381990048296
40
0.248042828028347
40
0.315703666008397
40
0.383364503988448
40
0.451025341968498
40
0.518686179948549
40
0.586347017928599
40
0.687838274898675
40
0.789329531868751
40
0.924651207828852
40
1
40
1
40
1
40
1
41
1
10
26.8538633351601
20
-1.70831737695445
30
0
41
1
10
26.6109088901067
20
-1.76138574933631
30
0
41
1
10
26.2221211117201
20
-1.81037058736464
30
0
41
1
10
25.6875000000001
20
-1.79499178398439
30
0
41
1
10
25.2500000000001
20
-1.73189796510925
30
0
41
1
10
24.8125000000001
20
-1.61875552772028
30
0
41
1
10
24.3750000000001
20
-1.46624526716428
30
0
41
1
10
23.9375000000001
20
-1.2655720475525
30
0
41
1
10
23.5000000000001
20
-1.0277179398297
30
0
41
1
10
22.9895833333335
20
-0.721859998066208
30
0
41
1
10
22.4062500000001
20
-0.337599229725271
30
0
41
1
10
21.6770833333334
20
0.167992879236579
30
0
41
1
10
21.0042630392065
20
0.629183339975555
30
0
41
1
10
20.5501927450797
20
0.906193230817934
30
0
41
1
10
20.3877891176195
20
0.999425848645501
30
0
0
SPLINE
5
160
100
AcDbEntity
8
1
62
256
6
ByLayer
370
18
48
1
60
0
100
AcDbSpline
70
4
71
3
72
8
73
4
40
0
40
0
40
0
40
0
40
1
40
1
40
1
40
1
41
1
10
26.7105285519455
20
-1.03651077622658
30
0
41
1
10
26.7326742327647
20
-1.18447365245754
30
0
41
1
10
26.7546362317267
20
-1.33031731665326
30
0
41
1
10
26.7764025823701
20
-1.47398448783952
30
0
0
SPLINE
5
161
100
AcDbEntity
8
1
62
256
6
ByLayer
370
18
48
1
60
0
100
AcDbSpline
70
4
71
3
72
8
73
4
40
0
40
0
40
0
40
0
40
1
40
1
40
1
40
1
41
1
10
13.0000000000001
20
-1.85522324008656
30
0
41
1
10
12.9349854386052
20
-1.86671104310679
30
0
41
1
10
12.8703427554223
20
-1.87723253695131
30
0
41
1
10
12.8061199614778
20
-1.8866629670797
30
0
0
SPLINE
5
162
100
AcDbEntity
8
1
62
256
6
ByLayer
370
18
48
1
60
0
100
AcDbSpline
70
4
71
3
72
46
73
42
40
0
40
0
40
0
40
0
40
0.0730967491772965
40
0.0730967491772965
40
0.0913709364716206
40
0.0913709364716206
40
0.109645123765945
40
0.146193498354591
40
0.146193498354591
40
0.219290247531882
40
0.219290247531882
40
0.292386996709174
40
0.292386996709174
40
0.438580495063758
40
0.438580495063758
40
0.475128869652404
40
0.493403056946728
40
0.493403056946728
40
0.511677244241051
40
0.511677244241051
40
0.584773993418349
40
0.584773993418349
40
0.657870742595646
40
0.657870742595646
40
0.694419117184294
40
0.694419117184294
40
0.730967491772942
40
0.730967491772942
40
0.76751586636159
40
0.76751586636159
40
0.785790053655915
40
0.785790053655915
40
0.80406424095024
40
0.80406424095024
40
0.87716099012754
40
0.87716099012754
40
0.91370936471619
40
0.91370936471619
40
0.95025773930484
40
0.95025773930484
40
1
40
1
40
1
40
1
41
1
10
26.7105285519447
20
-1.03651077622723
30
0
41
1
10
26.566967907193
20
-0.95108011733879
30
0
41
1
10
26.4234953834342
20
-0.861514918382255
30
0
41
1
10
26.2436147492467
20
-0.745305790395719
30
0
41
1
10
26.207589312232
20
-0.721835536134336
30
0
41
1
10
26.1355978532969
20
-0.674573111094247
30
0
41
1
10
26.0277053664555
20
-0.603201700186759
30
0
41
1
10
25.9200209665325
20
-0.530502712000953
30
0
41
1
10
25.7047155232382
20
-0.383628043744693
30
0
41
1
10
25.5612662792296
20
-0.283737743723663
30
0
41
1
10
25.2733047392332
20
-0.0817020797756527
30
0
41
1
10
25.1303263838177
20
0.0193280452295994
30
0
41
1
10
24.7030244649072
20
0.319857309938811
30
0
41
1
10
24.4202082576167
20
0.516938819271985
30
0
41
1
10
24.0634414330403
20
0.751033617806826
30
0
41
1
10
23.9561764170479
20
0.820353529539886
30
0
41
1
10
23.8484020798121
20
0.888079190704502
30
0
41
1
10
23.7764200523348
20
0.932846731299776
30
0
41
1
10
23.7404511534235
20
0.95498390845006
30
0
41
1
10
23.5610270071108
20
1.06416764778405
30
0
41
1
10
23.4184712073984
20
1.14690235501797
30
0
41
1
10
23.1340219983374
20
1.30226241327864
30
0
41
1
10
22.9921734559247
20
1.37488527600422
30
0
41
1
10
22.7791398161968
20
1.47533950453905
30
0
41
1
10
22.7080832156671
20
1.50741260594865
30
0
41
1
10
22.5657508090125
20
1.56850952926987
30
0
41
1
10
22.4944791576745
20
1.59751297884475
30
0
41
1
10
22.3515304517993
20
1.65243526286281
30
0
41
1
10
22.2798641660936
20
1.67832880036002
30
0
41
1
10
22.1719685157142
20
1.71468526000351
30
0
41
1
10
22.1359595037473
20
1.72638392977757
30
0
41
1
10
22.0641389491894
20
1.74884442325649
30
0
41
1
10
22.0282842245773
20
1.75962199742315
30
0
41
1
10
21.8492473050433
20
1.81123486258358
30
0
41
1
10
21.7067541702027
20
1.84529648038023
30
0
41
1
10
21.4935871894933
20
1.8846326375787
30
0
41
1
10
21.4226238726422
20
1.89578736023651
30
0
41
1
10
21.280663084334
20
1.91440516656354
30
0
41
1
10
21.209690297966
20
1.92179250639475
30
0
41
1
10
21.041946004658
20
1.93475211659282
30
0
41
1
10
20.9450990341403
20
1.93878148353838
30
0
41
1
10
20.8479230962693
20
1.93922962021864
30
0
0
SPLINE
5
163
100
AcDbEntity
8
1
62
256
6
ByLayer
370
18
48
1
60
0
100
AcDbSpline
70
4
71
3
72
10
73
6
40
0
40
0
40
0
40
0
40
0.58486427566556
40
0.58486427566556
40
1
40
1
40
1
40
1
41
1
10
13.9216555955856
20
-1.56628263882172
30
0
41
1
10
13.9011194522406
20
-1.57483239155184
30
0
41
1
10
13.8805956476285
20
-1.58324520548698
30
0
41
1
10
13.8455245110138
20
-1.59739125474175
30
0
41
1
10
13.8309707428071
20
-1.60319355645743
30
0
41
1
10
13.8164218120069
20
-1.60892504693217
30
0
0
SPLINE
5
164
100
AcDbEntity
8
1
62
256
6
ByLayer
370
18
48
1
60
0
100
AcDbSpline
70
4
71
3
72
8
73
4
40
0
40
0
40
0
40
0
40
1
40
1
40
1
40
1
41
1
10
13.1040744437473
20
-1.83243825073538
30
0
41
1
10
13.0694197087136
20
-1.84046226268575
30
0
41
1
10
13.0347302412211
20
-1.8480605915444
30
0
41
1
10
13.0000000000001
20
-1.85522324008542
30
0
0
SPLINE
5
165
100
AcDbEntity
8
1
62
256
6
ByLayer
370
18
48
1
60
0
100
AcDbSpline
70
4
71
3
72
8
73
4
40
0
40
0
40
0
40
0
40
1
40
1
40
1
40
1
41
1
10
26.7105285519454
20
-1.03651077622658
30
0
41
1
10
26.7103215227186
20
-1.03478581791066
30
0
41
1
10
26.7101145266449
20
-1.03306102461374
30
0
41
1
10
26.7099075637429
20
-1.0313363965401
30
0
0
SPLINE
5
166
100
AcDbEntity
8
1
62
256
6
ByLayer
370
18
48
1
60
0
100
AcDbSpline
70
4
71
3
72
12
73
8
40
0
40
0
40
0
40
0
40
0.396427614926963
40
0.396427614926963
40
0.698213793554735
40
0.698213793554735
40
1
40
1
40
1
40
1
41
1
10
26.7256024852046
20
-1.03966377618389
30
0
41
1
10
26.7235292226684
20
-1.03856262161543
30
0
41
1
10
26.7214556769943
20
-1.03746177055885
30
0
41
1
10
26.7178031247874
20
-1.03552340544132
30
0
41
1
10
26.7162242352596
20
-1.03468576613608
30
0
41
1
10
26.7130661375045
20
-1.03301082756605
30
0
41
1
10
26.7114869292408
20
-1.03217352828222
30
0
41
1
10
26.7099075637427
20
-1.03133639654021
30
0
0
SPLINE
5
167
100
AcDbEntity
8
1
62
256
6
ByLayer
370
18
48
1
60
0
100
AcDbSpline
70
4
71
3
72
19
73
15
40
0
40
0
40
0
40
0
40
0.125000000000025
40
0.125000000000025
40
0.25000000000005
40
0.25000000000005
40
0.375000000000075
40
0.375000000000075
40
0.5000000000001
40
0.625000000000124
40
0.625000000000124
40
0.750000000000149
40
0.750000000000149
40
1
40
1
40
1
40
1
41
1
10
26.8727247981466
20
-1.05694431761964
30
0
41
1
10
26.8674972489997
20
-1.05968472631091
30
0
41
1
10
26.8619089097622
20
-1.06193730151279
30
0
41
1
10
26.850456520321
20
-1.06536367108941
30
0
41
1
10
26.8445634883622
20
-1.06656073278774
30
0
41
1
10
26.8324685597848
20
-1.06801350537012
30
0
41
1
10
26.8262254506892
20
-1.06826475795407
30
0
41
1
10
26.8137212045853
20
-1.06790367142568
30
0
41
1
10
26.8011724578714
20
-1.06669644683475
30
0
41
1
10
26.7885368266626
20
-1.06403303395507
30
0
41
1
10
26.7758565053554
20
-1.0607127206481
30
0
41
1
10
26.7694703085842
20
-1.05871445756188
30
0
41
1
10
26.7504550838933
20
-1.05188131000364
30
0
41
1
10
26.7379613953142
20
-1.04622786061259
30
0
41
1
10
26.7256024852042
20
-1.03966377618482
30
0
0
SPLINE
5
168
100
AcDbEntity
8
1
62
256
6
ByLayer
370
18
48
1
60
0
100
AcDbSpline
70
4
71
3
72
8
73
4
40
0
40
0
40
0
40
0
40
1
40
1
40
1
40
1
41
1
10
26.8563344454938
20
-0.971782287723357
30
0
41
1
10
26.861729082672
20
-1.00011966400004
30
0
41
1
10
26.8671917498067
20
-1.02850643820184
30
0
41
1
10
26.8727247981466
20
-1.05694431761981
30
0
0
SPLINE
5
169
100
AcDbEntity
8
1
62
256
6
ByLayer
370
18
48
1
60
0
100
AcDbSpline
70
4
71
3
72
10
73
6
40
0
40
0
40
0
40
0
40
0.528408255186656
40
0.816241977849124
40
1
40
1
40
1
40
1
41
1
10
26.856334445497
20
-0.971782287725887
30
0
41
1
10
26.3208896303314
20
-0.677181831235259
30
0
41
1
10
25.4937781484991
20
-0.134538531891707
30
0
41
1
10
24.4804616268326
20
0.527126159866299
30
0
41
1
10
24.0025899203316
20
0.81214598173176
30
0
41
1
10
23.8163848804974
20
0.916939322117599
30
0
0
SPLINE
5
16A
100
AcDbEntity
8
1
62
256
6
ByLayer
370
18
48
1
60
0
100
AcDbSpline
70
4
71
3
72
17
73
13
40
0
40
0
40
0
40
0
40
0.0967221258303202
40
0.222975728784366
40
0.307144797420396
40
0.391313866056426
40
0.475482934692456
40
0.559652003328486
40
0.685905606282532
40
0.812159209236577
40
0.980497346508638
40
1
40
1
40
1
40
1
41
1
10
20.7214991777739
20
0.315836534249684
30
0
41
1
10
20.5539161185159
20
0.433956339743844
30
0
41
1
10
20.167583059258
20
0.701755113742819
30
0
41
1
10
19.6354166666666
20
1.03904292885352
30
0
41
1
10
19.1249999999999
20
1.31867478447702
30
0
41
1
10
18.6875
20
1.52218661052297
30
0
41
1
10
18.25
20
1.68312803611042
30
0
41
1
10
17.7395833333333
20
1.81365358226995
30
0
41
1
10
17.15625
20
1.87951103689713
30
0
41
0.999999999999999
10
16.4270833333333
20
1.83306101653497
30
0
41
1
10
15.8828759046494
20
1.68228390232534
30
0
41
1
10
15.5574184759656
20
1.55593635047109
30
0
41
1
10
15.5236277139484
20
1.54243795065679
30
0
0
SPLINE
5
16B
100
AcDbEntity
8
1
62
256
6
ByLayer
370
18
48
1
60
0
100
AcDbSpline
70
4
71
3
72
8
73
4
40
0
40
0
40
0
40
0
40
1
40
1
40
1
40
1
41
1
10
26.8147765552328
20
-1.51275219956884
30
0
41
1
10
26.8232194594135
20
-1.51316682622365
30
0
41
1
10
26.8316626625464
20
-1.51359726421188
30
0
41
1
10
26.8401060046736
20
-1.51404347985059
30
0
0
SPLINE
5
16C
100
AcDbEntity
8
1
62
256
6
ByLayer
370
18
48
1
60
0
100
AcDbSpline
70
4
71
3
72
16
73
12
40
0
40
0
40
0
40
0
40
0.0149075334371137
40
0.102312616067708
40
0.189717698698302
40
0.320825322644194
40
0.451932946590085
40
0.626743111851273
40
0.757850735797165
40
0.888958359743056
40
1
40
1
40
1
40
1
41
1
10
24.0121186112117
20
0.321455718788002
30
0
41
1
10
23.9872457408078
20
0.338033806694853
30
0
41
1
10
23.8165395370706
20
0.451538556622978
30
0
41
1
10
23.5
20
0.657986916463472
30
0
41
0.999999999999999
10
22.9895833333334
20
0.970870549286048
30
0
41
1
10
22.40625
20
1.29001752410741
30
0
41
1
10
21.6770833333333
20
1.60937712727392
30
0
41
1
10
20.9479166666667
20
1.80931054936576
30
0
41
1
10
20.21875
20
1.88017095321362
30
0
41
1
10
19.5959796238377
20
1.83686889920304
30
0
41
1
10
19.1919592476753
20
1.74995712413744
30
0
41
1
10
19.0066888715129
20
1.69878263733577
30
0
0
SPLINE
5
16D
100
AcDbEntity
8
1
62
256
6
ByLayer
370
18
48
1
60
0
100
AcDbSpline
70
4
71
3
72
10
73
6
40
0
40
0
40
0
40
0
40
0.5
40
0.5
40
1
40
1
40
1
40
1
41
1
10
26.8313436097307
20
0.807404136543113
30
0
41
1
10
26.8259255431988
20
0.811051635837885
30
0
41
1
10
26.8201711816294
20
0.814364108760913
30
0
41
1
10
26.8078713959233
20
0.819666606515341
30
0
41
1
10
26.8014728077591
20
0.821611757675072
30
0
41
1
10
26.7946574906942
20
0.822385526532514
30
0
0
SPLINE
5
16E
100
AcDbEntity
8
1
62
256
6
ByLayer
370
18
48
1
60
0
100
AcDbSpline
70
4
71
3
72
14
73
10
40
0
40
0
40
0
40
0
40
0.0816579523127977
40
0.209551508335219
40
0.337445064357641
40
0.593232176402483
40
0.721125732424905
40
0.849019288447326
40
1
40
1
40
1
40
1
41
1
10
12.9992958375386
20
-1.7892738128746
30
0
41
1
10
13.0553754162976
20
-1.80647259957775
30
0
41
1
10
13.1993225138868
20
-1.8480711243447
30
0
41
1
10
13.4312509410577
20
-1.90427415246685
30
0
41
1
10
13.7830548742398
20
-1.96869707892148
30
0
41
1
10
14.1351322475287
20
-2.00080861972154
30
0
41
1
10
14.4874076925709
20
-2.00013388403642
30
0
41
1
10
14.7674842907699
20
-1.98211592564473
30
0
41
1
10
14.9594544658827
20
-1.9567157119416
30
0
41
1
10
15.0633755095827
20
-1.93926981174332
30
0
0
SPLINE
5
16F
100
AcDbEntity
8
1
62
256
6
ByLayer
370
18
48
1
60
0
100
AcDbSpline
70
4
71
3
72
17
73
13
40
0
40
0
40
0
40
0
40
0.0365461091498435
40
0.207330758155916
40
0.292723082658952
40
0.378115407161988
40
0.463507731665024
40
0.548900056168061
40
0.634292380671097
40
0.719684705174133
40
0.890469354180206
40
1
40
1
40
1
40
1
41
1
10
23.4933541636728
20
1.99971870279839
30
0
41
1
10
23.5307865959092
20
1.99967271514524
30
0
41
1
10
23.7433945320441
20
1.99659816649
30
0
41
1
10
24.0457013439374
20
1.96955988382066
30
0
41
1
10
24.4032769421352
20
1.90444320713803
30
0
41
1
10
24.6741674622534
20
1.83864098535284
30
0
41
1
10
24.9482664582803
20
1.75588475962067
30
0
41
1
10
25.2261463980747
20
1.65620587258937
30
0
41
1
10
25.5081831276731
20
1.53961452569052
30
0
41
1
10
25.8904011615474
20
1.36153663153726
30
0
41
1
10
26.310668454266
20
1.13592519480619
30
0
41
1
10
26.6441175775631
20
0.93575817473419
30
0
41
1
10
26.7763349836495
20
0.853587963341084
30
0
0
SPLINE
5
170
100
AcDbEntity
8
1
62
256
6
ByLayer
370
18
48
1
60
0
100
AcDbSpline
70
4
71
3
72
8
73
4
40
0
40
0
40
0
40
0
40
1
40
1
40
1
40
1
41
1
10
26.7764025806943
20
-1.47398448616127
30
0
41
1
10
26.7776028866858
20
-1.4813607163849
30
0
41
1
10
26.7788021515828
20
-1.48872705543866
30
0
41
1
10
26.7800003696202
20
-1.49608349366605
30
0
0
SPLINE
5
171
100
AcDbEntity
8
1
62
256
6
ByLayer
370
18
48
1
60
0
100
AcDbSpline
70
4
71
3
72
12
73
8
40
0
40
0
40
0
40
0
40
0.500000000000341
40
0.500000000000341
40
0.75000000000017
40
0.75000000000017
40
1
40
1
40
1
40
1
41
1
10
26.8401060046741
20
-1.51404347985016
30
0
41
1
10
26.8335886160396
20
-1.51020976624477
30
0
41
1
10
26.8267065712745
20
-1.50666785069225
30
0
41
1
10
26.8153563595259
20
-1.50222163981198
30
0
41
1
10
26.8113945474115
20
-1.50089262146977
30
0
41
1
10
26.8032550255645
20
-1.49876334525845
30
0
41
1
10
26.799051709752
20
-1.49794858415552
30
0
41
1
10
26.7946536645057
20
-1.4975044166317
30
0
0
SPLINE
5
172
100
AcDbEntity
8
1
62
256
6
ByLayer
370
18
48
1
60
0
100
AcDbSpline
70
4
71
3
72
12
73
8
40
0
40
0
40
0
40
0
40
0.252378581832223
40
0.252378581832223
40
0.504757174110496
40
0.504757174110496
40
1
40
1
40
1
40
1
41
1
10
26.7946536645059
20
-1.49750441663173
30
0
41
1
10
26.7934218278417
20
-1.4973800109446
30
0
41
1
10
26.7921897661168
20
-1.49725680507967
30
0
41
1
10
26.789725195294
20
-1.49701283650955
30
0
41
1
10
26.7884926844206
20
-1.49689207362246
30
0
41
1
10
26.784840958005
20
-1.49653802216423
30
0
41
1
10
26.7824210934462
20
-1.49630827726071
30
0
41
1
10
26.7800003696198
20
-1.49608349366579
30
0
0
SPLINE
5
173
100
AcDbEntity
8
1
62
256
6
ByLayer
370
18
48
1
60
0
100
AcDbSpline
70
4
71
3
72
8
73
4
40
0
40
0
40
0
40
0
40
1
40
1
40
1
40
1
41
1
10
12.8224637898181
20
1.94165727048346
30
0
41
1
10
12.8458439410705
20
1.94736883015642
30
0
41
1
10
12.8690489151828
20
1.95375403362343
30
0
41
1
10
12.8920733032773
20
1.96083368072627
30
0
0
SPLINE
5
174
100
AcDbEntity
8
1
62
256
6
ByLayer
370
18
48
1
60
0
100
AcDbSpline
70
4
71
3
72
8
73
4
40
0
40
0
40
0
40
0
40
1
40
1
40
1
40
1
41
1
10
12.949907073819
20
1.98022866028853
30
0
41
1
10
12.9666966855888
20
1.9863374597403
30
0
41
1
10
12.9833851567229
20
1.99283519556567
30
0
41
1
10
12.9999703033496
20
1.99973026584377
30
0
0
SPLINE
5
175
100
AcDbEntity
8
1
62
256
6
ByLayer
370
18
48
1
60
0
100
AcDbSpline
70
4
71
3
72
8
73
4
40
0
40
0
40
0
40
0
40
1
40
1
40
1
40
1
41
1
10
12.8082753954537
20
-1.69277121048958
30
0
41
1
10
12.8737723451283
20
-1.72478180461093
30
0
41
1
10
12.9376992265468
20
-1.7613999618851
30
0
41
1
10
12.9999586305967
20
-1.80291154162825
30
0
0
SPLINE
5
176
100
AcDbEntity
8
1
62
256
6
ByLayer
370
18
48
1
60
0
100
AcDbSpline
70
4
71
3
72
8
73
4
40
0
40
0
40
0
40
0
40
1
40
1
40
1
40
1
41
1
10
12.6080816411547
20
-1.61625593228905
30
0
41
1
10
12.6767863702615
20
-1.63564089520648
30
0
41
1
10
12.743796010895
20
-1.66125793516068
30
0
41
1
10
12.8082753954537
20
-1.69277121048958
30
0
0
SPLINE
5
177
100
AcDbEntity
8
1
62
256
6
ByLayer
370
18
48
1
60
0
100
AcDbSpline
70
4
71
3
72
10
73
6
40
0
40
0
40
0
40
0
40
0.5
40
0.5
40
1
40
1
40
1
40
1
41
1
10
12.8057164549365
20
-1.40433748751408
30
0
41
1
10
12.7739260261388
20
-1.38373694384762
30
0
41
1
10
12.7416069419163
20
-1.3642144228051
30
0
41
1
10
12.675785364429
20
-1.32758256265461
30
0
41
1
10
12.6422841683386
20
-1.31047057837714
30
0
41
1
10
12.6080816411582
20
-1.29478873317763
30
0
0
SPLINE
5
178
100
AcDbEntity
8
1
62
256
6
ByLayer
370
18
48
1
60
0
100
AcDbSpline
70
4
71
3
72
10
73
6
40
0
40
0
40
0
40
0
40
0.5
40
0.5
40
1
40
1
40
1
40
1
41
1
10
12.8062669334565
20
1.37208281202584
30
0
41
1
10
12.7743446552426
20
1.38507322297585
30
0
41
1
10
12.7419115430755
20
1.39852153783548
30
0
41
1
10
12.6759044613602
20
1.42644081503511
30
0
41
1
10
12.642331824392
20
1.4409105828704
30
0
41
1
10
12.6080816411572
20
1.45598769303774
30
0
0
SPLINE
5
179
100
AcDbEntity
8
1
62
256
6
ByLayer
370
18
48
1
60
0
100
AcDbSpline
70
4
71
3
72
18
73
14
40
0
40
0
40
0
40
0
40
0.125
40
0.125
40
0.25
40
0.25
40
0.375
40
0.375
40
0.5
40
0.5
40
0.75
40
0.75
40
1
40
1
40
1
40
1
41
1
10
12.8057164549258
20
-1.40433748751235
30
0
41
1
10
12.8074418433202
20
-1.42250876932437
30
0
41
1
10
12.81132917668
20
-1.44031350932079
30
0
41
1
10
12.8215630992435
20
-1.47531659320896
30
0
41
1
10
12.8279244200018
20
-1.49251564622787
30
0
41
1
10
12.8421022794683
20
-1.52640330260917
30
0
41
1
10
12.8499335608557
20
-1.54310144354901
30
0
41
1
10
12.8664723315973
20
-1.57600431351139
30
0
41
1
10
12.8751694395469
20
-1.59218091150177
30
0
41
1
10
12.9020540674981
20
-1.64000450343664
30
0
41
1
10
12.9210160159744
20
-1.67096188208228
30
0
41
1
10
12.9596966100435
20
-1.73127882001464
30
0
41
1
10
12.9794376083061
20
-1.76063161021631
30
0
41
1
10
12.9992958375378
20
-1.7892738128746
30
0
0
SPLINE
5
17A
100
AcDbEntity
8
1
62
256
6
ByLayer
370
18
48
1
60
0
100
AcDbSpline
70
4
71
3
72
28
73
24
40
0
40
0
40
0
40
0
40
0.0625000000000033
40
0.0625000000000033
40
0.125000000000007
40
0.125000000000007
40
0.18750000000001
40
0.18750000000001
40
0.218750000000011
40
0.218750000000011
40
0.250000000000013
40
0.250000000000013
40
0.375000000000007
40
0.375000000000007
40
0.500000000000001
40
0.500000000000001
40
0.562499999999998
40
0.562499999999998
40
0.624999999999994
40
0.624999999999994
40
0.75
40
0.75
40
1
40
1
40
1
40
1
41
1
10
11.0630716899531
20
-1.40520307425823
30
0
41
1
10
11.0958956303522
20
-1.39876437368241
30
0
41
1
10
11.1289840840788
20
-1.39402829813241
30
0
41
1
10
11.195523161584
20
-1.3869573223009
30
0
41
1
10
11.2289764226758
20
-1.38463761136026
30
0
41
1
10
11.2961671608798
20
-1.38190898844982
30
0
41
1
10
11.3299055156547
20
-1.38150518078734
30
0
41
1
10
11.380691635335
20
-1.38210297299324
30
0
41
1
10
11.3976645259036
20
-1.38250499208715
30
0
41
1
10
11.4314553575859
20
-1.3836737090877
30
0
41
1
10
11.4482990880725
20
-1.38444039469454
30
0
41
1
10
11.5322812722567
20
-1.38910308374486
30
0
41
1
10
11.5987204832304
20
-1.39545463278543
30
0
41
1
10
11.7304568689938
20
-1.41196342514215
30
0
41
1
10
11.7957490291817
20
-1.42213680252633
30
0
41
1
10
11.8929700874655
20
-1.43956303728811
30
0
41
1
10
11.9252568283694
20
-1.4457351212144
30
0
41
1
10
11.9896078786341
20
-1.45870669853164
30
0
41
1
10
12.021709112065
20
-1.46551465620908
30
0
41
1
10
12.1173903468635
20
-1.48667120512036
30
0
41
1
10
12.1803232209951
20
-1.50173951208808
30
0
41
1
10
12.3669614501131
20
-1.54876488166232
30
0
41
1
10
12.4885098707424
20
-1.58251889023174
30
0
41
1
10
12.6080816411547
20
-1.61625593228905
30
0
0
SPLINE
5
17B
100
AcDbEntity
8
1
62
256
6
ByLayer
370
18
48
1
60
0
100
AcDbSpline
70
4
71
3
72
22
73
18
40
0
40
0
40
0
40
0
40
0.249999999999982
40
0.249999999999982
40
0.499999999999964
40
0.499999999999964
40
0.624999999999955
40
0.624999999999955
40
0.749999999999945
40
0.749999999999945
40
0.812499999999959
40
0.812499999999959
40
0.874999999999972
40
0.874999999999972
40
0.937499999999986
40
0.937499999999986
40
1
40
1
40
1
40
1
41
1
10
11.8430839518551
20
1.77101657162143
30
0
41
1
10
11.834918340828
20
1.77404898437283
30
0
41
1
10
11.8269508957898
20
1.7771104258801
30
0
41
1
10
11.8116744999555
20
1.78336893612439
30
0
41
1
10
11.8043329310012
20
1.78656443687237
30
0
41
1
10
11.7945201034653
20
1.79154366558191
30
0
41
1
10
11.7914445923038
20
1.79323640491538
30
0
41
1
10
11.7860318225402
20
1.7967644549459
30
0
41
1
10
11.7836293394403
20
1.79861427474867
30
0
41
1
10
11.7816336476615
20
1.80151765146786
30
0
41
1
10
11.7812534172149
20
1.80248943851291
30
0
41
1
10
11.7815519844296
20
1.8044564877483
30
0
41
1
10
11.78229475431
20
1.80543370164884
30
0
41
1
10
11.7852016817283
20
1.80709369682901
30
0
41
1
10
11.7873538550269
20
1.80777280670293
30
0
41
1
10
11.7922715908813
20
1.80877932069859
30
0
41
1
10
11.7949579039087
20
1.80911434932051
30
0
41
1
10
11.7977402648763
20
1.80935619873586
30
0
0
SPLINE
5
17C
100
AcDbEntity
8
1
62
256
6
ByLayer
370
18
48
1
60
0
100
AcDbSpline
70
4
71
3
72
8
73
4
40
0
40
0
40
0
40
0
40
1
40
1
40
1
40
1
41
1
10
12.9992958375386
20
-1.7892738128746
30
0
41
1
10
12.9993410501031
20
-1.79382365404024
30
0
41
1
10
12.9995666009516
20
-1.7983710818512
30
0
41
1
10
12.9999586305962
20
-1.80291154162981
30
0
0
SPLINE
5
17D
100
AcDbEntity
8
1
62
256
6
ByLayer
370
18
48
1
60
0
100
AcDbSpline
70
4
71
3
72
8
73
4
40
0
40
0
40
0
40
0
40
1
40
1
40
1
40
1
41
1
10
12.9999586305962
20
-1.80291154162981
30
0
41
1
10
12.9999724203935
20
-1.80291496542597
30
0
41
1
10
12.9999862101948
20
-1.8029183891783
30
0
41
1
10
13.0000000000001
20
-1.80292181288684
30
0
0
SPLINE
5
17E
100
AcDbEntity
8
1
62
256
6
ByLayer
370
18
48
1
60
0
100
AcDbSpline
70
4
71
3
72
8
73
4
40
0
40
0
40
0
40
0
40
1
40
1
40
1
40
1
41
1
10
26.7800103373672
20
0.823998345223316
30
0
41
1
10
26.7875571759754
20
0.819273421022586
30
0
41
1
10
26.795105589301
20
0.814539228072647
30
0
41
1
10
26.8026556429726
20
0.809795846748756
30
0
0
SPLINE
5
17F
100
AcDbEntity
8
1
62
256
6
ByLayer
370
18
48
1
60
0
100
AcDbSpline
70
4
71
3
72
16
73
12
40
0
40
0
40
0
40
0
40
0.318572720096868
40
0.318572720096868
40
0.477859080145303
40
0.477859080145303
40
0.637145440193737
40
0.637145440193737
40
0.955718160290605
40
0.955718160290605
40
1
40
1
40
1
40
1
41
1
10
13.0000000000001
20
-1.80292181288684
30
0
41
1
10
13.1440524045197
20
-1.84575227535217
30
0
41
1
10
13.2877463062376
20
-1.88191275661671
30
0
41
1
10
13.5034996425986
20
-1.92570333170104
30
0
41
1
10
13.575523016178
20
-1.93856380840205
30
0
41
1
10
13.7194119838286
20
-1.96065285447645
30
0
41
1
10
13.791248294293
20
-1.96987639311095
30
0
41
1
10
14.0066350787282
20
-1.99210746604311
30
0
41
1
10
14.1500646308764
20
-1.99969324194322
30
0
41
1
10
14.3138291906138
20
-2.0000417483935
30
0
41
1
10
14.3338213195076
20
-1.99994331020423
30
0
41
1
10
14.3538215273728
20
-1.99970338443382
30
0
0
SPLINE
5
180
100
AcDbEntity
8
1
62
256
6
ByLayer
370
18
48
1
60
0
100
AcDbSpline
70
4
71
3
72
8
73
4
40
0
40
0
40
0
40
0
40
1
40
1
40
1
40
1
41
1
10
20.3852361783813
20
0.992710605036649
30
0
41
1
10
20.3944472189313
20
0.998208482414498
30
0
41
1
10
20.4036594726536
20
1.00369235321793
30
0
41
1
10
20.4128723601725
20
1.00916159924674
30
0
0
SPLINE
5
181
100
AcDbEntity
8
1
62
256
6
ByLayer
370
18
48
1
60
0
100
AcDbSpline
70
4
71
3
72
38
73
34
40
0
40
0
40
0
40
0
40
0.0062784274924995
40
0.0062784274924995
40
0.0514475898792041
40
0.0514475898792041
40
0.0966167522659087
40
0.0966167522659087
40
0.186955077039318
40
0.186955077039318
40
0.232124239426022
40
0.232124239426022
40
0.277293401812725
40
0.277293401812725
40
0.367631726586132
40
0.367631726586132
40
0.412800888972836
40
0.412800888972836
40
0.457970051359541
40
0.457970051359541
40
0.548308376132947
40
0.548308376132947
40
0.593477538519652
40
0.593477538519652
40
0.638646700906357
40
0.638646700906357
40
0.728985025679769
40
0.728985025679769
40
0.774154188066474
40
0.774154188066474
40
0.819323350453179
40
0.819323350453179
40
1
40
1
40
1
40
1
41
1
10
22.0125432636752
20
1.76265588510469
30
0
41
1
10
22.0225344413525
20
1.76589904818391
30
0
41
1
10
22.0325270316936
20
1.7691115147538
30
0
41
1
10
22.1144226442147
20
1.7951828964477
30
0
41
1
10
22.186485233231
20
1.81649684785484
30
0
41
1
10
22.3303296554201
20
1.85568717498333
30
0
41
1
10
22.4021492271635
20
1.8735793423387
30
0
41
1
10
22.6174996566013
20
1.92207524996829
30
0
41
1
10
22.7609217628706
20
1.94750279284509
30
0
41
1
10
22.9766433637916
20
1.97486134853116
30
0
41
1
10
23.0487215725407
20
1.98218872066772
30
0
41
1
10
23.1925993370976
20
1.9931534852096
30
0
41
1
10
23.2644487923979
20
1.99680313382203
30
0
41
1
10
23.4799047337637
20
2.00228889749977
30
0
41
1
10
23.6234088230445
20
1.99866804029071
30
0
41
1
10
23.839162463196
20
1.98228126079215
30
0
41
1
10
23.9112308633154
20
1.97498098523147
30
0
41
1
10
24.0550481610188
20
1.9568004497419
30
0
41
1
10
24.1268569910374
20
1.94591870048507
30
0
41
1
10
24.3421869492306
20
1.90798099291905
30
0
41
1
10
24.4856139699226
20
1.87562512530465
30
0
41
1
10
24.701366818954
20
1.81687316680646
30
0
41
1
10
24.7734422413222
20
1.79556739452545
30
0
41
1
10
24.9172868210321
20
1.74981687108126
30
0
41
1
10
24.989124209107
20
1.72535573675753
30
0
41
1
10
25.20456098579
20
1.64736338214567
30
0
41
1
10
25.3480775715499
20
1.58922488964882
30
0
41
1
10
25.5638887960754
20
1.49330681433011
30
0
41
1
10
25.6359775468086
20
1.4598500855289
30
0
41
1
10
25.7796048752604
20
1.39057417021726
30
0
41
1
10
25.8512429620856
20
1.35471308886619
30
0
41
1
10
26.2088857158053
20
1.16970907546138
30
0
41
1
10
26.4932823623029
20
1.00351297627961
30
0
41
1
10
26.7800103373672
20
0.823998345223316
30
0
0
SPLINE
5
182
100
AcDbEntity
8
1
62
256
6
ByLayer
370
18
48
1
60
0
100
AcDbSpline
70
4
71
3
72
8
73
4
40
0
40
0
40
0
40
0
40
1
40
1
40
1
40
1
41
1
10
12.9993171732967
20
1.99970877876044
30
0
41
1
10
12.9993590895202
20
1.99971848477244
30
0
41
1
10
12.999581564321
20
1.99972746231683
30
0
41
1
10
12.9999703033605
20
1.9997302658484
30
0
0
SPLINE
5
183
100
AcDbEntity
8
1
62
256
6
ByLayer
370
18
48
1
60
0
100
AcDbSpline
70
4
71
1
72
4
73
2
40
0
40
0
40
1
40
1
41
1
10
12.9999703033484
20
1.99973026584854
30
0
41
1
10
13.0000000000001
20
1.99972991627567
30
0
0
SPLINE
5
184
100
AcDbEntity
8
1
62
256
6
ByLayer
370
18
48
1
60
0
100
AcDbSpline
70
4
71
3
72
82
73
78
40
0
40
0
40
0
40
0
40
0.0497030249483692
40
0.0497030249483692
40
0.0621287811854615
40
0.0621287811854615
40
0.0745545374225538
40
0.0745545374225538
40
0.0994060498967368
40
0.0994060498967368
40
0.149109074845103
40
0.149109074845103
40
0.173960587319287
40
0.173960587319287
40
0.198812099793471
40
0.198812099793471
40
0.248515124741838
40
0.248515124741838
40
0.26094088097893
40
0.26094088097893
40
0.273366637216021
40
0.298218149690203
40
0.298218149690203
40
0.323069662164384
40
0.335495418401475
40
0.335495418401475
40
0.347921174638565
40
0.347921174638565
40
0.397624199586925
40
0.397624199586925
40
0.422475712061104
40
0.422475712061104
40
0.447327224535283
40
0.447327224535283
40
0.497030249483639
40
0.497030249483639
40
0.521881761957818
40
0.521881761957818
40
0.534307518194907
40
0.534307518194907
40
0.546733274431996
40
0.546733274431996
40
0.596436299380349
40
0.596436299380349
40
0.621287811854525
40
0.621287811854525
40
0.6461393243287
40
0.6461393243287
40
0.695842349277052
40
0.695842349277052
40
0.708268105514139
40
0.708268105514139
40
0.720693861751226
40
0.720693861751226
40
0.745545374225402
40
0.745545374225402
40
0.795248399173754
40
0.795248399173754
40
0.820099911647929
40
0.820099911647929
40
0.844951424122104
40
0.844951424122104
40
0.894654449070454
40
0.894654449070454
40
0.907080205307541
40
0.907080205307541
40
0.919505961544628
40
0.919505961544628
40
0.944357474018801
40
0.944357474018801
40
0.969208986492974
40
0.969208986492974
40
0.98163474273006
40
0.98163474273006
40
0.994060498967146
40
0.994060498967146
40
1
40
1
40
1
40
1
41
1
10
13.0000000000001
20
1.99972991627567
30
0
41
1
10
13.1442542433432
20
1.9980478702455
30
0
41
1
10
13.2881055618309
20
1.98849331408221
30
0
41
1
10
13.4681236598519
20
1.96676218659479
30
0
41
1
10
13.5041379991962
20
1.96192514408932
30
0
41
1
10
13.5762073110328
20
1.95127057684968
30
0
41
1
10
13.6122695722042
20
1.94545121870144
30
0
41
1
10
13.7203161003744
20
1.92656577084762
30
0
41
1
10
13.7922348715762
20
1.91205844846908
30
0
41
1
10
14.0078852973573
20
1.8629557074936
30
0
41
1
10
14.1515124114425
20
1.82280077542146
30
0
41
1
10
14.3676172808317
20
1.75192052694587
30
0
41
1
10
14.4398067965891
20
1.72649442464771
30
0
41
1
10
14.5838469332564
20
1.67239268202295
30
0
41
1
10
14.6557797843818
20
1.64369409691335
30
0
41
1
10
14.8715065717033
20
1.55282575620524
30
0
41
1
10
15.0152194638414
20
1.48587249666804
30
0
41
1
10
15.1954211713643
20
1.39488387409833
30
0
41
1
10
15.2314854476686
20
1.37632244069386
30
0
41
1
10
15.3035126706156
20
1.33857843391297
30
0
41
1
10
15.4114674681285
20
1.28099794703786
30
0
41
1
10
15.5192493636768
20
1.22061663742531
30
0
41
1
10
15.6629609094752
20
1.13777757203042
30
0
41
1
10
15.7707463144644
20
1.07390306191232
30
0
41
1
10
15.8787072967173
20
1.0076047709359
30
0
41
1
10
15.9507395033714
20
0.962887292257761
30
0
41
1
10
15.986806041356
20
0.940255764606832
30
0
41
1
10
16.1670531794159
20
0.826028098896018
30
0
41
1
10
16.3107978721497
20
0.731368500377556
30
0
41
1
10
16.5265259684331
20
0.585575870314642
30
0
41
1
10
16.598450048815
20
0.536337976447271
30
0
41
1
10
16.7424558554401
20
0.436755561008766
30
0
41
1
10
16.8146223671733
20
0.386350953100134
30
0
41
1
10
17.0306771947145
20
0.234388500150885
30
0
41
1
10
17.1742550179088
20
0.131986890583448
30
0
41
1
10
17.3898810991202
20
-0.0219370799939327
30
0
41
1
10
17.4617995488746
20
-0.0732980674094961
30
0
41
1
10
17.5698542124835
20
-0.150259644611452
30
0
41
1
10
17.6059234438089
20
-0.175915495396964
30
0
41
1
10
17.6779925183669
20
-0.227070598932528
30
0
41
1
10
17.7139992734141
20
-0.252574830422759
30
0
41
1
10
17.8939395259066
20
-0.379668995704605
30
0
41
1
10
18.0375971737961
20
-0.479976407651208
30
0
41
1
10
18.2534463716774
20
-0.627258761237783
30
0
41
1
10
18.3254544985364
20
-0.675824348872737
30
0
41
1
10
18.4697191671936
20
-0.771716420911901
30
0
41
1
10
18.5417244601155
20
-0.818873258838067
30
0
41
1
10
18.7575043751328
20
-0.957667876660508
30
0
41
1
10
18.9010750371864
20
-1.0466461548437
30
0
41
1
10
19.0809499426701
20
-1.15250868281507
30
0
41
1
10
19.1169455466678
20
-1.17341326211897
30
0
41
1
10
19.1889972633593
20
-1.21466355628436
30
0
41
1
10
19.2250664049983
20
-1.23501610760746
30
0
41
1
10
19.3331361709355
20
-1.29505872201432
30
0
41
1
10
19.4050769914466
20
-1.33377913940547
30
0
41
1
10
19.6208021227398
20
-1.44581143244702
30
0
41
1
10
19.7644922599238
20
-1.51499066203303
30
0
41
1
10
19.9806281038413
20
-1.60963586662058
30
0
41
1
10
20.0528200612511
20
-1.63968025227356
30
0
41
1
10
20.1968445128186
20
-1.69632271975868
30
0
41
1
10
20.2687580732926
20
-1.72295841855342
30
0
41
1
10
20.4844148806761
20
-1.79767902238712
30
0
41
1
10
20.6280674410241
20
-1.84058943348123
30
0
41
1
10
20.8082308828406
20
-1.88513294361047
30
0
41
1
10
20.8442881813177
20
-1.89358441924631
30
0
41
1
10
20.9163058419812
20
-1.90952703091352
30
0
41
1
10
20.9522880579153
20
-1.91702371716005
30
0
41
1
10
21.0601838151154
20
-1.93808185627808
30
0
41
1
10
21.1320463355384
20
-1.95021500700963
30
0
41
1
10
21.2757907740826
20
-1.9705726967731
30
0
41
1
10
21.3476754799463
20
-1.97877460329545
30
0
41
1
10
21.4556215844396
20
-1.98816237083949
30
0
41
1
10
21.4916227358457
20
-1.99080948333358
30
0
41
1
10
21.5636820036991
20
-1.99511660423005
30
0
41
1
10
21.5997622997353
20
-1.99677550814815
30
0
41
1
10
21.6530543269794
20
-1.9984915408192
30
0
41
1
10
21.6702823803572
20
-1.99893349047764
30
0
41
1
10
21.6875042404336
20
-1.99926262827384
30
0
0
SPLINE
5
185
100
AcDbEntity
8
1
62
256
6
ByLayer
370
18
48
1
60
0
100
AcDbSpline
70
4
71
3
72
8
73
4
40
0
40
0
40
0
40
0
40
1
40
1
40
1
40
1
41
1
10
25.7478080414606
20
-0.298834806354932
30
0
41
1
10
25.767065988254
20
-0.285248177730722
30
0
41
1
10
25.7863102977324
20
-0.271649126790209
30
0
41
1
10
25.805542431351
20
-0.258039713135815
30
0
0
SPLINE
5
186
100
AcDbEntity
8
1
62
256
6
ByLayer
370
18
48
1
60
0
100
AcDbSpline
70
4
71
3
72
8
73
4
40
0
40
0
40
0
40
0
40
1
40
1
40
1
40
1
41
1
10
12.9992451888103
20
0.928030483619921
30
0
41
1
10
12.9992869279827
20
0.919030597483811
30
0
41
1
10
12.9995095980734
20
0.910034030020512
30
0
41
1
10
12.9998984094771
20
0.901037854370742
30
0
0
SPLINE
5
187
100
AcDbEntity
8
1
62
256
6
ByLayer
370
18
48
1
60
0
100
AcDbSpline
70
4
71
3
72
8
73
4
40
0
40
0
40
0
40
0
40
1
40
1
40
1
40
1
41
1
10
12.9998984094771
20
0.901037854370742
30
0
41
1
10
12.9999322729889
20
0.901028810017152
30
0
41
1
10
12.9999661364971
20
0.901019765692354
30
0
41
1
10
13.0000000000019
20
0.901010721396375
30
0
0
SPLINE
5
188
100
AcDbEntity
8
1
62
256
6
ByLayer
370
18
48
1
60
0
100
AcDbSpline
70
4
71
3
72
14
73
10
40
0
40
0
40
0
40
0
40
0.547494936119068
40
0.547494936119068
40
0.684368670148835
40
0.684368670148835
40
0.821242404178602
40
0.821242404178602
40
1
40
1
40
1
40
1
41
1
10
13.0000000000001
20
0.90101072139683
30
0
41
1
10
13.1443383794846
20
0.805649962641752
30
0
41
1
10
13.288224302508
20
0.706732208851207
30
0
41
1
10
13.4683151546416
20
0.579617515566667
30
0
41
1
10
13.5043456679632
20
0.554021373161675
30
0
41
1
10
13.5764532090589
20
0.502509478756281
30
0
41
1
10
13.6125326114232
20
0.476591830866653
30
0
41
1
10
13.6956159499607
20
0.416630394617698
30
0
41
1
10
13.7426206633046
20
0.382501258634505
30
0
41
1
10
13.7896002640196
20
0.348235629738099
30
0
0
SPLINE
5
189
100
AcDbEntity
8
1
62
256
6
ByLayer
370
18
48
1
60
0
100
AcDbSpline
70
4
71
3
72
8
73
4
40
0
40
0
40
0
40
0
40
1
40
1
40
1
40
1
41
1
10
22.3071526904081
20
-0.329385703434099
30
0
41
1
10
22.3405135547525
20
-0.305016695704126
30
0
41
1
10
22.3738768187485
20
-0.280568360277187
30
0
41
1
10
22.4072505854937
20
-0.256052644107939
30
0
0
SPLINE
5
18A
100
AcDbEntity
8
1
62
256
6
ByLayer
370
18
48
1
60
0
100
AcDbSpline
70
4
71
3
72
8
73
4
40
0
40
0
40
0
40
0
40
1
40
1
40
1
40
1
41
1
10
23.9349263911455
20
0.845951887809235
30
0
41
1
10
23.9465101103774
20
0.853722305112228
30
0
41
1
10
23.9580950824156
20
0.861470671000973
30
0
41
1
10
23.9696816614133
20
0.869196530493838
30
0
0
SPLINE
5
18B
100
AcDbEntity
8
1
62
256
6
ByLayer
370
18
48
1
60
0
100
AcDbSpline
70
4
71
3
72
16
73
12
40
0
40
0
40
0
40
0
40
0.0577348584733424
40
0.0577348584733424
40
0.143395325884855
40
0.143395325884855
40
0.31471626070788
40
0.31471626070788
40
0.657358130353939
40
0.657358130353939
40
1
40
1
40
1
40
1
41
1
10
25.5640691477956
20
1.7242395130111
30
0
41
1
10
25.5883505395613
20
1.73334120095276
30
0
41
1
10
25.6126423959545
20
1.74223929523836
30
0
41
1
10
25.6730097049113
20
1.76382650020389
30
0
41
1
10
25.7090983194441
20
1.77626523888716
30
0
41
1
10
25.8170948916101
20
1.81206539151427
30
0
41
1
10
25.8888642686092
20
1.83395862902782
30
0
41
1
10
26.1037479293537
20
1.89366484183097
30
0
41
1
10
26.2464398529509
20
1.92551291745639
30
0
41
1
10
26.5320384118577
20
1.972877147275
30
0
41
1
10
26.6749490269072
20
1.98838431712517
30
0
41
1
10
26.8185836889449
20
1.99549602191283
30
0
0
SPLINE
5
18C
100
AcDbEntity
8
1
62
256
6
ByLayer
370
18
48
1
60
0
100
AcDbSpline
70
4
71
3
72
8
73
4
40
0
40
0
40
0
40
0
40
1
40
1
40
1
40
1
41
1
10
13.0000000000001
20
1.28374207326269
30
0
41
1
10
12.9350164960098
20
1.31363943065122
30
0
41
1
10
12.8704218765695
20
1.34310513609844
30
0
41
1
10
12.8062669334556
20
1.37208281202661
30
0
0
SPLINE
5
18D
100
AcDbEntity
8
1
62
256
6
ByLayer
370
18
48
1
60
0
100
AcDbSpline
70
4
71
3
72
18
73
14
40
0
40
0
40
0
40
0
40
0.125
40
0.125
40
0.25
40
0.25
40
0.375000000000001
40
0.375000000000001
40
0.500000000000001
40
0.500000000000001
40
0.75
40
0.75
40
1
40
1
40
1
40
1
41
1
10
12.8062669334692
20
1.37208281202805
30
0
41
1
10
12.8079944390043
20
1.35371892983096
30
0
41
1
10
12.8119089149688
20
1.33560493121604
30
0
41
1
10
12.8221759857268
20
1.29945430522756
30
0
41
1
10
12.8285463660134
20
1.28142332246262
30
0
41
1
10
12.8427199233851
20
1.24524726074068
30
0
41
1
10
12.8505399347027
20
1.22709078507543
30
0
41
1
10
12.8670327142527
20
1.1906313898746
30
0
41
1
10
12.8756995152242
20
1.1723514794746
30
0
41
1
10
12.9024793173446
20
1.11723202291444
30
0
41
1
10
12.9213540541935
20
1.08009123161625
30
0
41
1
10
12.9598468052491
20
1.00482122217616
30
0
41
1
10
12.9794872173561
20
0.966701140292145
30
0
41
1
10
12.9992451888041
20
0.928030483631858
30
0
0
SPLINE
5
18E
100
AcDbEntity
8
1
62
256
6
ByLayer
370
18
48
1
60
0
100
AcDbSpline
70
4
71
3
72
31
73
27
40
0
40
0
40
0
40
0
40
0.0284326622484831
40
0.0709069342768258
40
0.113381206305169
40
0.198329750361854
40
0.240804022390197
40
0.28327829441854
40
0.368226838475225
40
0.410701110503568
40
0.453175382531911
40
0.495649654560253
40
0.538123926588596
40
0.580598198616939
40
0.623072470645282
40
0.665546742673624
40
0.708021014701967
40
0.75049528673031
40
0.771732422744481
40
0.792969558758653
40
0.835443830786995
40
0.877918102815338
40
0.920392374843681
40
0.941629510857852
40
0.962866646872024
40
1
40
1
40
1
40
1
41
1
10
12.9992451888103
20
0.928030483619921
30
0
41
1
10
13.0585870299073
20
0.889133014744033
30
0
41
1
10
13.2065747640793
20
0.790465375366182
30
0
41
1
10
13.4431927885575
20
0.626934004671853
30
0
41
1
10
13.7976969578398
20
0.37384824517207
30
0
41
1
10
14.1521640178099
20
0.112198499901666
30
0
41
1
10
14.5066119733148
20
-0.150280697915349
30
0
41
1
10
14.8608252082406
20
-0.410620555813296
30
0
41
1
10
15.2146375185804
20
-0.66396261243824
30
0
41
1
10
15.5681439896046
20
-0.903238062834475
30
0
41
1
10
15.8331542035384
20
-1.07391693200739
30
0
41
1
10
16.0980360341225
20
-1.23415394845142
30
0
41
1
10
16.3627533609809
20
-1.38247971513189
30
0
41
1
10
16.6272760627252
20
-1.51748663414904
30
0
41
1
10
16.8915678855881
20
-1.63786099606003
30
0
41
1
10
17.1555575942573
20
-1.74246079827938
30
0
41
1
10
17.4191587109584
20
-1.83033696196733
30
0
41
1
10
17.6384508492539
20
-1.88902046126518
30
0
41
1
10
17.8136436109617
20
-1.92682982370059
30
0
41
1
10
17.9886481707468
20
-1.9586323886214
30
0
41
1
10
18.2070704623618
20
-1.98680396147787
30
0
41
1
10
18.4685267387284
20
-2.0019244413825
30
0
41
1
10
18.6857336833789
20
-1.99904509495676
30
0
41
1
10
18.8590025061611
20
-1.98737811010412
30
0
41
1
10
19.0210602870208
20
-1.97081625983586
30
0
41
1
10
19.1396135037081
20
-1.95294340145384
30
0
41
1
10
19.2149397939986
20
-1.93934129706742
30
0
0
SPLINE
5
18F
100
AcDbEntity
8
1
62
256
6
ByLayer
370
18
48
1
60
0
100
AcDbSpline
70
4
71
3
72
8
73
4
40
0
40
0
40
0
40
0
40
1
40
1
40
1
40
1
41
1
10
12.9836114655722
20
1.99286092260036
30
0
41
1
10
12.9888349752311
20
1.99520670556143
30
0
41
1
10
12.9940719431513
20
1.99748899709434
30
0
41
1
10
12.9993171733073
20
1.99970877876254
30
0
0
SPLINE
5
190
100
AcDbEntity
8
1
62
256
6
ByLayer
370
18
48
1
60
0
100
AcDbSpline
70
4
71
3
72
43
73
39
40
0
40
0
40
0
40
0
40
0.0178760096798094
40
0.0453955625954267
40
0.0729151155110441
40
0.127954221342279
40
0.155473774257896
40
0.182993327173514
40
0.238032433004748
40
0.265551985920366
40
0.293071538835983
40
0.320591091751601
40
0.334350868209409
40
0.348110644667218
40
0.375630197582835
40
0.403149750498453
40
0.43066930341407
40
0.444429079871879
40
0.458188856329687
40
0.513227962160922
40
0.54074751507654
40
0.568267067992157
40
0.595786620907774
40
0.623306173823392
40
0.678345279654626
40
0.705864832570244
40
0.733384385485861
40
0.760903938401478
40
0.788423491317096
40
0.843462597148331
40
0.870982150063948
40
0.884741926521757
40
0.898501702979565
40
0.926021255895183
40
0.9535408088108
40
0.981060361726417
40
0.994820138184226
40
1
40
1
40
1
40
1
41
1
10
12.9993171732964
20
1.99970877876254
30
0
41
1
10
13.0566891003388
20
1.99966075371526
30
0
41
1
10
13.2024035966411
20
1.99636112232713
30
0
41
1
10
13.4365229292739
20
1.97813553107332
30
0
41
1
10
13.7900649585229
20
1.9270916966571
30
0
41
1
10
14.1437858623932
20
1.84106006729453
30
0
41
1
10
14.4977132268066
20
1.72268063226997
30
0
41
1
10
14.8515909825673
20
1.58372632118082
30
0
41
1
10
15.2053271489099
20
1.41560514325096
30
0
41
1
10
15.5588955674546
20
1.22332724914605
30
0
41
1
10
15.8239901955958
20
1.0682297582774
30
0
41
1
10
16.0448150879635
20
0.931037297455703
30
0
41
1
10
16.2214138717918
20
0.817274260953951
30
0
41
1
10
16.3979553027649
20
0.701108920028133
30
0
41
1
10
16.6185147520737
20
0.551907822432781
30
0
41
1
10
16.8829385740296
20
0.368153505504068
30
0
41
1
10
17.1030132756648
20
0.212542872540496
30
0
41
1
10
17.2788790154626
20
0.0873976137818602
30
0
41
1
10
17.5424644128611
20
-0.100562147650123
30
0
41
1
10
17.8492986147646
20
-0.319309621008216
30
0
41
1
10
18.1987022623202
20
-0.561826144343996
30
0
41
1
10
18.4600471338657
20
-0.738325840116772
30
0
41
1
10
18.7205438504709
20
-0.907828559186072
30
0
41
1
10
19.0664830736467
20
-1.12248471613907
30
0
41
1
10
19.4106146968831
20
-1.317800833364
30
0
41
1
10
19.7535339654023
20
-1.48968863893043
30
0
41
1
10
20.0102771517118
20
-1.6058530437665
30
0
41
1
10
20.2666973789175
20
-1.70838095071701
30
0
41
1
10
20.6083121439862
20
-1.82592070548827
30
0
41
1
10
20.9497176469469
20
-1.91341900196485
30
0
41
1
10
21.2486097906189
20
-1.96204827530409
30
0
41
1
10
21.4194997121063
20
-1.98148416570021
30
0
41
1
10
21.5904723044163
20
-1.99548752899122
30
0
41
1
10
21.8043554551918
20
-2.00246936313639
30
0
41
1
10
22.0613935902078
20
-1.99415428195772
30
0
41
1
10
22.2759707620134
20
-1.9733116466511
30
0
41
1
10
22.4210992337702
20
-1.95210739603516
30
0
41
1
10
22.4803118161453
20
-1.94216677718842
30
0
41
1
10
22.4965097755103
20
-1.93935072062857
30
0
0
SPLINE
5
191
100
AcDbEntity
8
1
62
256
6
ByLayer
370
18
48
1
60
0
100
AcDbSpline
70
4
71
3
72
47
73
43
40
0
40
0
40
0
40
0
40
0.0168166538777747
40
0.0416298386419016
40
0.0664430234060285
40
0.0912562081701554
40
0.116069392934282
40
0.140882577698409
40
0.165695762462536
40
0.190508947226663
40
0.21532213199079
40
0.227728724372853
40
0.240135316754917
40
0.264948501519044
40
0.289761686283171
40
0.314574871047298
40
0.326981463429361
40
0.339388055811425
40
0.364201240575551
40
0.389014425339678
40
0.413827610103805
40
0.438640794867932
40
0.463453979632059
40
0.488267164396186
40
0.53789353392444
40
0.562706718688567
40
0.57511331107063
40
0.587519903452694
40
0.612333088216821
40
0.637146272980948
40
0.661959457745074
40
0.674366050127138
40
0.686772642509201
40
0.711585827273328
40
0.736399012037455
40
0.786025381565709
40
0.835651751093963
40
0.885278120622217
40
0.934904490150471
40
0.959717674914598
40
0.984530859678724
40
1
40
1
40
1
40
1
41
1
10
15.4008631471819
20
1.60048841869175
30
0
41
1
10
15.4607352176126
20
1.62804283400376
30
0
41
1
10
15.6089128276578
20
1.69311060480908
30
0
41
1
10
15.8453068629076
20
1.78386707602289
30
0
41
1
10
16.11003674602
20
1.86701210693735
30
0
41
1
10
16.3746609608418
20
1.93093975102494
30
0
41
1
10
16.6391533946232
20
1.97502407432557
30
0
41
1
10
16.9034718250153
20
1.99874946448978
30
0
41
1
10
17.1675317483677
20
2.00192195235633
30
0
41
1
10
17.4312351872045
20
1.98460075256159
30
0
41
1
10
17.6506336535678
20
1.95335727210195
30
0
41
1
10
17.8259217610722
20
1.9184170348118
30
0
41
1
10
18.0010264390438
20
1.87709730701772
30
0
41
1
10
18.2195834944427
20
1.81351913362377
30
0
41
1
10
18.4811989579301
20
1.71914645337637
30
0
41
1
10
18.6984951080913
20
1.62645753796724
30
0
41
1
10
18.8717854726148
20
1.54447838605969
30
0
41
1
10
19.0447110223268
20
1.45760135673015
30
0
41
1
10
19.2602836675558
20
1.3401227705983
30
0
41
1
10
19.5182115735636
20
1.18648528971522
30
0
41
1
10
19.7755628719972
20
1.02166118907502
30
0
41
1
10
20.0325070123503
20
0.847172340376432
30
0
41
1
10
20.2892104146019
20
0.664575191368527
30
0
41
1
10
20.6312707275082
20
0.41268504641971
30
0
41
1
10
20.973256008634
20
0.151648431578849
30
0
41
1
10
21.2727403157147
20
-0.078382141846248
30
0
41
1
10
21.4439894385287
20
-0.209328496980476
30
0
41
1
10
21.6153292315573
20
-0.339738754870467
30
0
41
1
10
21.82966279224
20
-0.500955208805692
30
0
41
1
10
22.0871874904442
20
-0.689852165484496
30
0
41
1
10
22.3020740904625
20
-0.841879758652908
30
0
41
1
10
22.4741708832761
20
-0.959260748011616
30
0
41
1
10
22.6464058417362
20
-1.07368617729878
30
0
41
1
10
22.8619395200828
20
-1.21035629480025
30
0
41
1
10
23.2073724572868
20
-1.41359574708196
30
0
41
1
10
23.6398324820921
20
-1.63432219848266
30
0
41
1
10
24.1618508722751
20
-1.83572335126539
30
0
41
1
10
24.6917897683414
20
-1.96539021159046
30
0
41
1
10
25.1438705305306
20
-2.00633995210663
30
0
41
1
10
25.51449680934
20
-1.99441329703728
30
0
41
1
10
25.762119339293
20
-1.96610434194287
30
0
41
1
10
25.917960077802
20
-1.93780734637051
30
0
41
1
10
25.9782221010052
20
-1.92531051851657
30
0
0
SPLINE
5
192
100
AcDbEntity
8
1
62
256
6
ByLayer
370
18
48
1
60
0
100
AcDbSpline
70
4
71
3
72
89
73
85
40
0
40
0
40
0
40
0
40
0.0223837992676579
40
0.0223837992676579
40
0.0442216745664022
40
0.0442216745664022
40
0.0660595498651465
40
0.0878974251638909
40
0.0878974251638909
40
0.098816362813263
40
0.098816362813263
40
0.109735300462635
40
0.109735300462635
40
0.153411051060125
40
0.153411051060125
40
0.17524892635887
40
0.17524892635887
40
0.186167864008243
40
0.186167864008243
40
0.197086801657615
40
0.197086801657615
40
0.240762552255103
40
0.240762552255103
40
0.262600427553847
40
0.262600427553847
40
0.284438302852591
40
0.284438302852591
40
0.306276178151336
40
0.306276178151336
40
0.317195115800708
40
0.317195115800708
40
0.32811405345008
40
0.32811405345008
40
0.371789804047567
40
0.371789804047567
40
0.393627679346311
40
0.393627679346311
40
0.415465554645054
40
0.45914130524254
40
0.45914130524254
40
0.470060242891912
40
0.470060242891912
40
0.480979180541283
40
0.502817055840025
40
0.502817055840025
40
0.546492806437511
40
0.546492806437511
40
0.590168557034997
40
0.590168557034997
40
0.612006432333739
40
0.612006432333739
40
0.633844307632481
40
0.633844307632481
40
0.677520058229967
40
0.677520058229967
40
0.688438995879339
40
0.688438995879339
40
0.699357933528711
40
0.699357933528711
40
0.721195808827455
40
0.721195808827455
40
0.743033684126198
40
0.743033684126198
40
0.764871559424942
40
0.764871559424942
40
0.808547310022431
40
0.808547310022431
40
0.819466247671803
40
0.819466247671803
40
0.830385185321175
40
0.830385185321175
40
0.852223060619919
40
0.852223060619919
40
0.895898811217408
40
0.895898811217408
40
0.906817748866781
40
0.906817748866781
40
0.917736686516153
40
0.939574561814898
40
0.961412437113643
40
0.961412437113643
40
0.983250312412388
40
0.983250312412388
40
1
40
1
40
1
40
1
41
1
10
15.3741873050928
20
1.60645632176104
30
0
41
1
10
15.4479762607123
20
1.64023714504742
30
0
41
1
10
15.5217682332776
20
1.67209478235873
30
0
41
1
10
15.6677716215444
20
1.73103181717826
30
0
41
1
10
15.7400646125415
20
1.75823177625864
30
0
41
1
10
15.8843235334967
20
1.80836412722994
30
0
41
1
10
16.0283882968549
20
1.85428761950826
30
0
41
1
10
16.1724417542221
20
1.89169566091579
30
0
41
1
10
16.2806069141662
20
1.91650703477072
30
0
41
1
10
16.3166826750144
20
1.92423662695845
30
0
41
1
10
16.3888959017144
20
1.93860211479364
30
0
41
1
10
16.425058487515
20
1.94524183984387
30
0
41
1
10
16.605681277295
20
1.97560811489384
30
0
41
1
10
16.7496044229735
20
1.9908561610942
30
0
41
1
10
16.9656986935981
20
2.00001125072552
30
0
41
1
10
17.0377667241465
20
2.00077682618757
30
0
41
1
10
17.1460709854201
20
1.99846356221789
30
0
41
1
10
17.1821878777129
20
1.99711426416144
30
0
41
1
10
17.2543168846651
20
1.99327011982257
30
0
41
1
10
17.2903518558157
20
1.99077540317006
30
0
41
1
10
17.4704413696224
20
1.97546232955938
30
0
41
1
10
17.6142399300245
20
1.95414583477108
30
0
41
1
10
17.8307166480504
20
1.90868729042609
30
0
41
1
10
17.9030392017649
20
1.89131041525439
30
0
41
1
10
18.0473184441523
20
1.85235647639334
30
0
41
1
10
18.1193717552606
20
1.83075921858264
30
0
41
1
10
18.2634654388569
20
1.78343949300773
30
0
41
1
10
18.3355032548339
20
1.75771380508658
30
0
41
1
10
18.4436690853196
20
1.71610060531893
30
0
41
1
10
18.4797427859758
20
1.7017253256206
30
0
41
1
10
18.5519500986055
20
1.67197443928782
30
0
41
1
10
18.588092250967
20
1.65659410405561
30
0
41
1
10
18.7685124895309
20
1.57742649568766
30
0
41
1
10
18.9123134942644
20
1.50665753296892
30
0
41
1
10
19.1283922723014
20
1.39052309384391
30
0
41
1
10
19.2004924672957
20
1.35013215160856
30
0
41
1
10
19.3449763373881
20
1.26621615996973
30
0
41
1
10
19.5612833108313
20
1.13613145596924
30
0
41
1
10
19.7771819847698
20
0.99438039128728
30
0
41
1
10
19.9577489316442
20
0.870677425954483
30
0
41
1
10
19.9939273120056
20
0.845634760539156
30
0
41
1
10
20.0660933698534
20
0.795206666403601
30
0
41
1
10
20.1741282913146
20
0.719004746151256
30
0
41
1
10
20.2816049695275
20
0.641238667210217
30
0
41
1
10
20.4960705385445
20
0.483960392642985
30
0
41
1
10
20.6383985660054
20
0.37678419538787
30
0
41
1
10
20.923292519496
20
0.159810138944607
30
0
41
1
10
21.0658627034143
20
0.0500227903486063
30
0
41
1
10
21.2810880043747
20
-0.115113499537159
30
0
41
1
10
21.3530792404236
20
-0.170241799516759
30
0
41
1
10
21.4976518419882
20
-0.280364689212689
30
0
41
1
10
21.5698007486308
20
-0.335041046362221
30
0
41
1
10
21.7860839950447
20
-0.497572760550952
30
0
41
1
10
21.9300304796016
20
-0.603989816449143
30
0
41
1
10
22.1104851708819
20
-0.73354851069206
30
0
41
1
10
22.146626944492
20
-0.759301631246757
30
0
41
1
10
22.2188154167331
20
-0.810298485987801
30
0
41
1
10
22.2548734736772
20
-0.835550633985918
30
0
41
1
10
22.3629777598143
20
-0.910516558710356
30
0
41
1
10
22.4349563002549
20
-0.95942697793339
30
0
41
1
10
22.5789233845685
20
-1.05498194109319
30
0
41
1
10
22.6509131685197
20
-1.10161047687271
30
0
41
1
10
22.7951135418193
20
-1.19231338008734
30
0
41
1
10
22.8674157430798
20
-1.23644938135339
30
0
41
1
10
23.0838854644892
20
-1.36413426487295
30
0
41
1
10
23.2278212052834
20
-1.44306680357957
30
0
41
1
10
23.4080977570148
20
-1.53324526597868
30
0
41
1
10
23.4441704692464
20
-1.55085711187255
30
0
41
1
10
23.5163718170131
20
-1.58521170305852
30
0
41
1
10
23.5525251742656
20
-1.60196542861843
30
0
41
1
10
23.6608983170337
20
-1.65079599366632
30
0
41
1
10
23.7330003515824
20
-1.68143004106031
30
0
41
1
10
23.9491302587781
20
-1.76742357457246
30
0
41
1
10
24.0929724321335
20
-1.81688641507793
30
0
41
1
10
24.2734567779067
20
-1.86821514609687
30
0
41
1
10
24.3095795449261
20
-1.87795207312425
30
0
41
1
10
24.3817181989447
20
-1.89630973124309
30
0
41
1
10
24.4898397547342
20
-1.92219339120331
30
0
41
1
10
24.6697983967442
20
-1.95702602772451
30
0
41
1
10
24.8138953673169
20
-1.97592722864695
30
0
41
1
10
24.9582415296469
20
-1.99029298147971
30
0
41
1
10
25.0305869517565
20
-1.99520356797203
30
0
41
1
10
25.1580934796093
20
-1.99980489769695
30
0
41
1
10
25.2133838270374
20
-2.00045415745692
30
0
41
1
10
25.2686552649955
20
-1.99975743537104
30
0
0
SPLINE
5
193
100
AcDbEntity
8
1
62
256
6
ByLayer
370
18
48
1
60
0
100
AcDbSpline
70
4
71
3
72
29
73
25
40
0
40
0
40
0
40
0
40
0.015252303444479
40
0.0557981438284603
40
0.136889824596424
40
0.177435664980405
40
0.197708585172396
40
0.217981505364387
40
0.258527345748368
40
0.29907318613235
40
0.339619026516331
40
0.359891946708322
40
0.380164866900313
40
0.420710707284294
40
0.461256547668276
40
0.501802388052258
40
0.542348228436239
40
0.623439909204202
40
0.704531589972165
40
0.785623270740128
40
0.866714951508092
40
0.907260791892073
40
0.947806632276055
40
1
40
1
40
1
40
1
41
1
10
20.1752882459229
20
1.99978466236584
30
0
41
1
10
20.2074615814053
20
1.99974348251717
30
0
41
1
10
20.3251425276312
20
1.99808926696301
30
0
41
1
10
20.6137003365921
20
1.98055418712076
30
0
41
1
10
20.9553821579707
20
1.92538879787006
30
0
41
1
10
21.2544970004235
20
1.84840001338111
30
0
41
1
10
21.4255038467252
20
1.79627946460954
30
0
41
1
10
21.5965854116628
20
1.73898296449079
30
0
41
1
10
21.8105853371992
20
1.65769275667935
30
0
41
1
10
22.0677256555098
20
1.5456527223723
30
0
41
1
10
22.2823469191234
20
1.44096304943463
30
0
41
1
10
22.4542842241916
20
1.35080023651437
30
0
41
1
10
22.626408297358
20
1.2566028672731
30
0
41
1
10
22.8419308673576
20
1.13156194874654
30
0
41
1
10
23.1012733461698
20
0.971121431394181
30
0
41
1
10
23.3613661719355
20
0.801596154513675
30
0
41
1
10
23.7091238588408
20
0.565264359125365
30
0
41
1
10
24.1467334951368
20
0.253774329537237
30
0
41
1
10
24.6805637446903
20
-0.135617106092582
30
0
41
1
10
25.2272623601884
20
-0.529373424411574
30
0
41
1
10
25.6974626152808
20
-0.849938775623343
30
0
41
1
10
26.0849290264542
20
-1.09398107581689
30
0
41
1
10
26.4103440047458
20
-1.28522508565553
30
0
41
1
10
26.6430990303784
20
-1.40857081729092
30
0
41
1
10
26.7764025823558
20
-1.47398448783696
30
0
0
SPLINE
5
194
100
AcDbEntity
8
1
62
256
6
ByLayer
370
18
48
1
60
0
100
AcDbSpline
70
4
71
3
72
63
73
59
40
0
40
0
40
0
40
0
40
0.0024265050597601
40
0.0293879508689558
40
0.0293879508689558
40
0.0833108424873473
40
0.0833108424873473
40
0.137233734105739
40
0.137233734105739
40
0.164195179914935
40
0.164195179914935
40
0.191156625724132
40
0.191156625724132
40
0.245079517342523
40
0.245079517342523
40
0.272040963151719
40
0.272040963151719
40
0.299002408960914
40
0.299002408960914
40
0.352925300579306
40
0.352925300579306
40
0.366406023483905
40
0.379886746388503
40
0.379886746388503
40
0.406848192197699
40
0.406848192197699
40
0.46077108381609
40
0.46077108381609
40
0.474251806720689
40
0.474251806720689
40
0.487732529625288
40
0.514693975434485
40
0.541655421243682
40
0.555136144148281
40
0.555136144148281
40
0.56861686705288
40
0.56861686705288
40
0.622539758671273
40
0.622539758671273
40
0.649501204480468
40
0.649501204480468
40
0.676462650289664
40
0.676462650289664
40
0.730385541908055
40
0.730385541908055
40
0.757346987717252
40
0.757346987717252
40
0.784308433526448
40
0.784308433526448
40
0.838231325144841
40
0.838231325144841
40
0.851712048049438
40
0.851712048049438
40
0.865192770954035
40
0.865192770954035
40
0.892154216763227
40
0.892154216763227
40
1
40
1
40
1
40
1
41
1
10
18.8168178911036
20
1.77690759789442
30
0
41
1
10
18.8232773599236
20
1.77906183244093
30
0
41
1
10
18.9014881200083
20
1.80496720176364
30
0
41
1
10
18.9794495993912
20
1.8286301748453
30
0
41
1
10
19.1936400852819
20
1.88804924027923
30
0
41
1
10
19.335927936464
20
1.92006645740531
30
0
41
1
10
19.620712867333
20
1.96859145550587
30
0
41
1
10
19.7632057452917
20
1.98508821231303
30
0
41
1
10
19.9779624825493
20
1.99772319306908
30
0
41
1
10
20.0497170472949
20
1.99991984150702
30
0
41
1
10
20.1937022280783
20
2.00020744466931
30
0
41
1
10
20.2660077244841
20
1.99828688793483
30
0
41
1
10
20.4822189621027
20
1.98635977624295
30
0
41
1
10
20.6259196341536
20
1.97021615985372
30
0
41
1
10
20.8417949189868
20
1.93402036113415
30
0
41
1
10
20.9138088328918
20
1.91995837654523
30
0
41
1
10
21.0581165519024
20
1.88786849529839
30
0
41
1
10
21.130204178185
20
1.869887328809
30
0
41
1
10
21.3462006195684
20
1.81028769968844
30
0
41
1
10
21.4899898431035
20
1.76297924619504
30
0
41
1
10
21.6701767310147
20
1.69496540156806
30
0
41
1
10
21.7422958995187
20
1.66686530133987
30
0
41
1
10
21.814533689815
20
1.63700036058165
30
0
41
1
10
21.9227302555159
20
1.59101657261473
30
0
41
1
10
21.9947393589362
20
1.55874407050183
30
0
41
1
10
22.2106268782549
20
1.45728259691953
30
0
41
1
10
22.3543696816821
20
1.38339464361837
30
0
41
1
10
22.534637984967
20
1.28399488374316
30
0
41
1
10
22.5707403375629
20
1.26375298178272
30
0
41
1
10
22.6428574479149
20
1.22267572813865
30
0
41
1
10
22.7509457038151
20
1.16014843233046
30
0
41
1
10
22.9308121826775
20
1.05158838263372
30
0
41
1
10
23.1106994099078
20
0.937730404015952
30
0
41
1
10
23.2188098750248
20
0.867228887915047
30
0
41
1
10
23.2909409685896
20
0.819761792038918
30
0
41
1
10
23.3270574543868
20
0.795780368238439
30
0
41
1
10
23.507531954214
20
0.674953527210022
30
0
41
1
10
23.6513960080555
20
0.575450521663186
30
0
41
1
10
23.8672721526098
20
0.423081049220912
30
0
41
1
10
23.9392462687757
20
0.371774329002932
30
0
41
1
10
24.0833850891361
20
0.268336854006577
30
0
41
1
10
24.1556087569203
20
0.216163105161996
30
0
41
1
10
24.371752676149
20
0.0595086306347525
30
0
41
1
10
24.5154592671676
20
-0.0453236694130794
30
0
41
1
10
24.7314147486273
20
-0.201814374982888
30
0
41
1
10
24.8034654224908
20
-0.253852220937461
30
0
41
1
10
24.9478520585471
20
-0.357463528981384
30
0
41
1
10
25.0199804857938
20
-0.408887133786635
30
0
41
1
10
25.2360832727661
20
-0.56151701329415
30
0
41
1
10
25.3798944621051
20
-0.661192176596927
30
0
41
1
10
25.560034287608
20
-0.782262688904325
30
0
41
1
10
25.596081695727
20
-0.806299569192817
30
0
41
1
10
25.6682350706118
20
-0.853992175544562
30
0
41
1
10
25.7043402928128
20
-0.8776468740393
30
0
41
1
10
25.8124002228145
20
-0.947758249612946
30
0
41
1
10
25.8842241019987
20
-0.993445155850509
30
0
41
1
10
26.2426714254495
20
-1.21620090709729
30
0
41
1
10
26.5273354908564
20
-1.37621460333716
30
0
41
1
10
26.8147765552329
20
-1.5127521995671
30
0
0
SPLINE
5
195
100
AcDbEntity
8
1
62
256
6
ByLayer
370
18
48
1
60
0
100
AcDbSpline
70
4
71
2
72
6
73
3
40
0
40
0
40
0
40
1
40
1
40
1
41
1
10
26.943444162801
20
-1.62400890697043
30
0
41
1
10
26.9634612140895
20
-1.5702822268793
30
0
41
1
10
26.983478265378
20
-1.51655554678817
30
0
0
SPLINE
5
196
100
AcDbEntity
8
1
62
256
6
ByLayer
370
18
48
1
60
0
100
AcDbSpline
70
4
71
3
72
9
73
5
40
0
40
0
40
0
40
0
40
0.60575868059625
40
1
40
1
40
1
40
1
41
1
10
26.6001207371302
20
1.41001800177321
30
0
41
1
10
26.4733554036203
20
1.4478737970986
30
0
41
1
10
26.2642217345849
20
1.50563854102529
30
0
41
1
10
26.0551413807789
20
1.55585916587518
30
0
41
1
10
25.9727963853923
20
1.57436829710548
30
0
0
SPLINE
5
197
100
AcDbEntity
8
1
62
256
6
ByLayer
370
18
48
1
60
0
100
AcDbSpline
70
4
71
3
72
15
73
11
40
0
40
0
40
0
40
0
40
0.183924122693375
40
0.332472869966166
40
0.445638409100338
40
0.523433031630795
40
0.601916214510906
40
0.724717070768948
40
0.891965132381564
40
1
40
1
40
1
40
1
41
1
10
15.5017150352015
20
-1.75424729709215
30
0
41
1
10
15.6156476987808
20
-1.74947899938417
30
0
41
1
10
15.8216273042869
20
-1.73582955176136
30
0
41
1
10
16.0977583351271
20
-1.70515496993636
30
0
41
1
10
16.3082036360848
20
-1.67473423756195
30
0
41
1
10
16.4753432090921
20
-1.64656349439292
30
0
41
1
10
16.648529697012
20
-1.6140212489706
30
0
41
1
10
16.8771492610623
20
-1.56551557413991
30
0
41
1
10
17.1240831250347
20
-1.50475323120574
30
0
41
1
10
17.2947257109903
20
-1.45775608468443
30
0
41
1
10
17.3616789339414
20
-1.43853289547349
30
0
0
SPLINE
5
198
100
AcDbEntity
8
1
62
256
6
ByLayer
370
18
48
1
60
0
100
AcDbSpline
70
4
71
2
72
6
73
3
40
0
40
0
40
0
40
1
40
1
40
1
41
1
10
17.0784558506308
20
1.04167113855863
30
0
41
1
10
16.6650492521906
20
1.13926990023685
30
0
41
1
10
16.2579872863435
20
1.30017671845405
30
0
0
SPLINE
5
199
100
AcDbEntity
8
1
62
256
6
ByLayer
370
18
48
1
60
0
100
AcDbSpline
70
4
71
2
72
6
73
3
40
0
40
0
40
0
40
1
40
1
40
1
41
1
10
20.8549497826613
20
0.912602849215034
30
0
41
1
10
20.5209413371705
20
1.00492113969992
30
0
41
1
10
20.184335591717
20
1.17345258595728
30
0
0
SPLINE
5
19A
100
AcDbEntity
8
1
62
256
6
ByLayer
370
18
48
1
60
0
100
AcDbSpline
70
4
71
2
72
6
73
3
40
0
40
0
40
0
40
1
40
1
40
1
41
1
10
14.152889620486
20
0.766195203766898
30
0
41
1
10
13.855557925825
20
0.865953329754689
30
0
41
1
10
13.5474554971932
20
1.03091480929865
30
0
0
SPLINE
5
19B
100
AcDbEntity
8
1
62
256
6
ByLayer
370
18
48
1
60
0
100
AcDbSpline
70
4
71
2
72
6
73
3
40
0
40
0
40
0
40
1
40
1
40
1
41
1
10
22.9214166406806
20
-1.75434371267215
30
0
41
1
10
23.322467967711
20
-1.73755293865545
30
0
41
1
10
23.7241337449402
20
-1.6700857000221
30
0
0
SPLINE
5
19C
100
AcDbEntity
8
1
62
256
6
ByLayer
370
18
48
1
60
0
100
AcDbSpline
70
4
71
2
72
6
73
3
40
0
40
0
40
0
40
1
40
1
40
1
41
1
10
26.3006830248824
20
-1.75416758878654
30
0
41
1
10
26.4180213106508
20
-1.74873700564478
30
0
41
1
10
26.5353252504022
20
-1.73836619534279
30
0
0
SPLINE
5
19D
100
AcDbEntity
8
1
62
256
6
ByLayer
370
18
48
1
60
0
100
AcDbSpline
70
4
71
2
72
6
73
3
40
0
40
0
40
0
40
1
40
1
40
1
41
1
10
24.1197315798863
20
0.9359303276172
30
0
41
1
10
23.7559593939402
20
1.02690380819865
30
0
41
1
10
23.3887489900348
20
1.19849262662837
30
0
0
SPLINE
5
19E
100
AcDbEntity
8
1
62
256
6
ByLayer
370
18
48
1
60
0
100
AcDbSpline
70
4
71
2
72
6
73
3
40
0
40
0
40
0
40
1
40
1
40
1
41
1
10
23.4939939142885
20
1.99971786854792
30
0
41
1
10
23.4940300579678
20
1.99971849449267
30
0
41
1
10
23.4940662016452
20
1.99971873614524
30
0
0
SPLINE
5
19F
100
AcDbEntity
8
1
62
256
6
ByLayer
370
18
48
1
60
0
100
AcDbSpline
70
4
71
2
72
6
73
3
40
0
40
0
40
0
40
1
40
1
40
1
41
1
10
18.5553644152878
20
-1.9997395439888
30
0
41
1
10
18.5553433541944
20
-1.99973981381453
30
0
41
1
10
18.5553222933069
20
-1.99973984349583
30
0
0
SPLINE
5
1A0
100
AcDbEntity
8
1
62
256
6
ByLayer
370
18
48
1
60
0
100
AcDbSpline
70
4
71
2
72
6
73
3
40
0
40
0
40
0
40
1
40
1
40
1
41
1
10
13.4742135495247
20
1.00926134503837
30
0
41
1
10
13.474216361327
20
1.00974408287956
30
0
41
1
10
13.4742191731293
20
1.01022647196234
30
0
0
SPLINE
5
1A1
100
AcDbEntity
8
1
62
256
6
ByLayer
370
18
48
1
60
0
100
AcDbSpline
70
4
71
2
72
6
73
3
40
0
40
0
40
0
40
1
40
1
40
1
41
1
10
16.5566006715661
20
0.999891890733664
30
0
41
1
10
16.5566035935609
20
0.999881102040803
30
0
41
1
10
16.5566065155555
20
0.999869959677739
30
0
0
SPLINE
5
1A2
100
AcDbEntity
8
1
62
256
6
ByLayer
370
18
48
1
60
0
100
AcDbSpline
70
4
71
1
72
4
73
2
40
0
40
0
40
1
40
1
41
1
10
23.6664424027024
20
0.999928425690626
30
0
41
1
10
23.6664510907617
20
0.999920201492614
30
0
0
SPLINE
5
1A3
100
AcDbEntity
8
1
62
256
6
ByLayer
370
18
48
1
60
0
100
AcDbSpline
70
4
71
2
72
6
73
3
40
0
40
0
40
0
40
1
40
1
40
1
41
1
10
26.9899718538222
20
0.728571878844576
30
0
41
1
10
26.9717520353318
20
0.840893840560113
30
0
41
1
10
26.9535322168415
20
0.953215802275679
30
0
0
LINE
5
79
100
AcDbEntity
8
80
62
256
6
ByLayer
370
18
48
1
60
0
100
AcDbLine
10
0
20
0
30
0
11
-5
21
0
31
0
39
0
210
0
220
0
230
1
0
LINE
5
7A
100
AcDbEntity
8
4
62
256
6
ByLayer
370
18
48
0.05
60
0
100
AcDbLine
10
0
20
0
30
0
11
27
21
0
31
0
39
0
210
0
220
0
230
1
0
LINE
5
7C
100
AcDbEntity
8
81
62
256
6
ByLayer
370
18
48
1
60
0
100
AcDbLine
10
27
20
0
30
0
11
32
21
0
31
0
39
0
210
0
220
0
230
1
0
LINE
5
7D
100
AcDbEntity
8
SK4
62
256
6
ByLayer
370
18
48
0.05
60
0
100
AcDbLine
10
-36
20
0
30
0
11
27
21
0
31
0
39
0
210
0
220
0
230
1
0
LINE
5
7F
100
AcDbEntity
8
1
62
256
6
ByLayer
370
18
48
1
60
0
100
AcDbLine
10
0
20
3
30
0
11
0
21
0
31
0
39
0
210
0
220
0
230
1
0
LINE
5
80
100
AcDbEntity
8
1
62
256
6
ByLayer
370
18
48
1
60
0
100
AcDbLine
10
0
20
0
30
0
11
0
21
-3
31
0
39
0
210
0
220
0
230
1
0
LINE
5
81
100
AcDbEntity
8
1
62
256
6
ByLayer
370
18
48
1
60
0
100
AcDbLine
10
26.960965
20
0.160145
30
0
11
26.94867
21
0.063446
31
0
39
0
210
0
220
0
230
1
0
LINE
5
82
100
AcDbEntity
8
1
62
256
6
ByLayer
370
18
48
1
60
0
100
AcDbLine
10
26.972663
20
0.255392
30
0
11
26.994592
21
0.427869
31
0
39
0
210
0
220
0
230
1
0
LINE
5
83
100
AcDbEntity
8
1
62
256
6
ByLayer
370
18
48
1
60
0
100
AcDbLine
10
26.948709
20
0.064948
30
0
11
26.972663
21
0.255392
31
0
39
0
210
0
220
0
230
1
0
LINE
5
84
100
AcDbEntity
8
1
62
256
6
ByLayer
370
18
48
1
60
0
100
AcDbLine
10
26.966159
20
0.253574
30
0
11
26.972663
21
0.255392
31
0
39
0
210
0
220
0
230
1
0
LINE
5
85
100
AcDbEntity
8
1
62
256
6
ByLayer
370
18
48
1
60
0
100
AcDbLine
10
26.805912
20
-0.339246
30
0
11
26.92252
21
-0.065286
31
0
39
0
210
0
220
0
230
1
0
LINE
5
86
100
AcDbEntity
8
1
62
256
6
ByLayer
370
18
48
1
60
0
100
AcDbLine
10
26.992253
20
-1.382528
30
0
11
26.994592
21
-1.455751
31
0
39
0
210
0
220
0
230
1
0
LINE
5
87
100
AcDbEntity
8
1
62
256
6
ByLayer
370
18
48
1
60
0
100
AcDbLine
10
26.948906
20
0.072506
30
0
11
26.953113
21
0.230824
31
0
39
0
210
0
220
0
230
1
0
LINE
5
88
100
AcDbEntity
8
1
62
256
6
ByLayer
370
18
48
1
60
0
100
AcDbLine
10
26.969828
20
0.859902
30
0
11
26.994592
21
1.791886
31
0
39
0
210
0
220
0
230
1
0
LINE
5
89
100
AcDbEntity
8
1
62
256
6
ByLayer
370
18
48
1
60
0
100
AcDbLine
10
26.936204
20
-0.066644
30
0
11
26.931133
21
-0.066103
31
0
39
0
210
0
220
0
230
1
0
LINE
5
8A
100
AcDbEntity
8
1
62
256
6
ByLayer
370
18
48
1
60
0
100
AcDbLine
10
26.936204
20
-0.066644
30
0
11
26.946641
21
-0.031906
31
0
39
0
210
0
220
0
230
1
0
LINE
5
8B
100
AcDbEntity
8
1
62
256
6
ByLayer
370
18
48
1
60
0
100
AcDbLine
10
26.960965
20
-1.546005
30
0
11
26.958169
21
-1.457361
31
0
39
0
210
0
220
0
230
1
0
LINE
5
8C
100
AcDbEntity
8
1
62
256
6
ByLayer
370
13
48
1
60
0
100
AcDbLine
10
11.820236
20
-1.896923
30
0
11
12.917988
21
-1.755824
31
0
39
0
210
0
220
0
230
1
0
LINE
5
8D
100
AcDbEntity
8
1
62
256
6
ByLayer
370
13
48
1
60
0
100
AcDbLine
10
12.822464
20
1.941657
30
0
11
13
21
1.862277
31
0
39
0
210
0
220
0
230
1
0
LINE
5
8E
100
AcDbEntity
8
1
62
256
6
ByLayer
370
13
48
1
60
0
100
AcDbLine
10
26.885654
20
0.214054
30
0
11
26.948906
21
0.072506
31
0
39
0
210
0
220
0
230
1
0
LINE
5
8F
100
AcDbEntity
8
1
62
256
6
ByLayer
370
13
48
1
60
0
100
AcDbLine
10
26.394706
20
-0.614298
30
0
11
26.357365
21
-0.674558
31
0
39
0
210
0
220
0
230
1
0
LINE
5
90
100
AcDbEntity
8
1
62
256
6
ByLayer
370
13
48
1
60
0
100
AcDbLine
10
26.08567
20
-1.113016
30
0
11
26.027856
21
-1.206316
31
0
39
0
210
0
220
0
230
1
0
LINE
5
91
100
AcDbEntity
8
1
62
256
6
ByLayer
370
18
48
1
60
0
100
AcDbLine
10
11.833862
20
1.815714
30
0
11
13
21
1.29431
31
0
39
0
210
0
220
0
230
1
0
LINE
5
92
100
AcDbEntity
8
1
62
256
6
ByLayer
370
18
48
1
60
0
100
AcDbLine
10
11.825312
20
-1.875381
30
0
11
12.888294
21
-1.738751
31
0
39
0
210
0
220
0
230
1
0
LINE
5
93
100
AcDbEntity
8
1
62
256
6
ByLayer
370
13
48
1
60
0
100
AcDbLine
10
26.888814
20
-0.022254
30
0
11
26.931133
21
-0.066103
31
0
39
0
210
0
220
0
230
1
0
LINE
5
94
100
AcDbEntity
8
1
62
256
6
ByLayer
370
18
48
1
60
0
100
AcDbLine
10
26.9377
20
-0.488603
30
0
11
26.965619
21
-0.557031
31
0
39
0
210
0
220
0
230
1
0
LINE
5
95
100
AcDbEntity
8
1
62
256
6
ByLayer
370
18
48
1
60
0
100
AcDbLine
10
26.965619
20
-0.557031
30
0
11
26.994592
21
-1.370633
31
0
39
0
210
0
220
0
230
1
0
LINE
5
96
100
AcDbEntity
8
1
62
256
6
ByLayer
370
13
48
1
60
0
100
AcDbLine
10
11.031841
20
-1.479395
30
0
11
11.628716
21
-1.402676
31
0
39
0
210
0
220
0
230
1
0
LINE
5
97
100
AcDbEntity
8
1
62
256
6
ByLayer
370
18
48
1
60
0
100
AcDbLine
10
11.063072
20
-1.405203
30
0
11
11.263695
21
-1.379416
31
0
39
0
210
0
220
0
230
1
0
LINE
5
98
100
AcDbEntity
8
1
62
256
6
ByLayer
370
18
48
1
60
0
100
AcDbLine
10
26.960965
20
-1.147676
30
0
11
26.9377
21
-0.488603
31
0
39
0
210
0
220
0
230
1
0
LINE
5
99
100
AcDbEntity
8
1
62
256
6
ByLayer
370
18
48
1
60
0
100
AcDbLine
10
26.693483
20
-0.211837
30
0
11
26.9377
21
-0.488603
31
0
39
0
210
0
220
0
230
1
0
LINE
5
9A
100
AcDbEntity
8
1
62
256
6
ByLayer
370
13
48
1
60
0
100
AcDbLine
10
11.752394
20
-0.777293
30
0
11
13
21
-1.317073
31
0
39
0
210
0
220
0
230
1
0
LINE
5
9B
100
AcDbEntity
8
1
62
256
6
ByLayer
370
18
48
1
60
0
100
AcDbLine
10
13
20
-1.317073
30
0
11
13
21
-1.235719
31
0
39
0
210
0
220
0
230
1
0
LINE
5
9C
100
AcDbEntity
8
1
62
256
6
ByLayer
370
13
48
1
60
0
100
AcDbLine
10
12.848839
20
0.926014
30
0
11
13
21
0.860614
31
0
39
0
210
0
220
0
230
1
0
LINE
5
9D
100
AcDbEntity
8
1
62
256
6
ByLayer
370
18
48
1
60
0
100
AcDbLine
10
13
20
0.036663
30
0
11
13
21
0.11606
31
0
39
0
210
0
220
0
230
1
0
LINE
5
9E
100
AcDbEntity
8
1
62
256
6
ByLayer
370
13
48
1
60
0
100
AcDbLine
10
11.545419
20
0.745389
30
0
11
13
21
0.11606
31
0
39
0
210
0
220
0
230
1
0
LINE
5
9F
100
AcDbEntity
8
1
62
256
6
ByLayer
370
18
48
1
60
0
100
AcDbLine
10
26.964916
20
0.23374
30
0
11
26.994592
21
0.707221
31
0
39
0
210
0
220
0
230
1
0
LINE
5
A0
100
AcDbEntity
8
1
62
256
6
ByLayer
370
13
48
1
60
0
100
AcDbLine
10
26.3565
20
0.529317
30
0
11
26.706399
21
0.16676
31
0
39
0
210
0
220
0
230
1
0
LINE
5
A1
100
AcDbEntity
8
1
62
256
6
ByLayer
370
18
48
1
60
0
100
AcDbLine
10
26.964916
20
0.23374
30
0
11
26.739743
21
0.17781
31
0
39
0
210
0
220
0
230
1
0
LINE
5
A2
100
AcDbEntity
8
1
62
256
6
ByLayer
370
18
48
1
60
0
100
AcDbLine
10
13
20
-1.317073
30
0
11
13
21
-1.479164
31
0
39
0
210
0
220
0
230
1
0
LINE
5
A3
100
AcDbEntity
8
1
62
256
6
ByLayer
370
18
48
1
60
0
100
AcDbLine
10
13
20
1.294312
30
0
11
13
21
1.862277
31
0
39
0
210
0
220
0
230
1
0
LINE
5
A4
100
AcDbEntity
8
1
62
256
6
ByLayer
370
13
48
1
60
0
100
AcDbLine
10
11.710098
20
-0.677639
30
0
11
13
21
-1.235719
31
0
39
0
210
0
220
0
230
1
0
LINE
5
A5
100
AcDbEntity
8
1
62
256
6
ByLayer
370
18
48
1
60
0
100
AcDbLine
10
13
20
-1.235719
30
0
11
13
21
-0.901753
31
0
39
0
210
0
220
0
230
1
0
LINE
5
A6
100
AcDbEntity
8
1
62
256
6
ByLayer
370
18
48
1
60
0
100
AcDbLine
10
11.805906
20
-0.385124
30
0
11
13
21
-0.901753
31
0
39
0
210
0
220
0
230
1
0
LINE
5
A7
100
AcDbEntity
8
1
62
256
6
ByLayer
370
18
48
1
60
0
100
AcDbLine
10
13
20
-0.901753
30
0
11
13
21
0.036663
31
0
39
0
210
0
220
0
230
1
0
LINE
5
A8
100
AcDbEntity
8
1
62
256
6
ByLayer
370
13
48
1
60
0
100
AcDbLine
10
11.524486
20
0.675049
30
0
11
13
21
0.036663
31
0
39
0
210
0
220
0
230
1
0
LINE
5
A9
100
AcDbEntity
8
1
62
256
6
ByLayer
370
13
48
1
60
0
100
AcDbLine
10
12.608082
20
-1.616256
30
0
11
12.608082
21
-1.294789
31
0
39
0
210
0
220
0
230
1
0
LINE
5
AA
100
AcDbEntity
8
1
62
256
6
ByLayer
370
13
48
1
60
0
100
AcDbLine
10
12.608082
20
0.961865
30
0
11
12.608082
21
1.455988
31
0
39
0
210
0
220
0
230
1
0
LINE
5
AB
100
AcDbEntity
8
1
62
256
6
ByLayer
370
18
48
1
60
0
100
AcDbLine
10
13
20
0.11606
30
0
11
13
21
0.860614
31
0
39
0
210
0
220
0
230
1
0
LINE
5
AC
100
AcDbEntity
8
1
62
256
6
ByLayer
370
18
48
1
60
0
100
AcDbLine
10
13
20
1.99973
30
0
11
13
21
1.862277
31
0
39
0
210
0
220
0
230
1
0
LINE
5
AD
100
AcDbEntity
8
1
62
256
6
ByLayer
370
18
48
1
60
0
100
AcDbLine
10
13
20
0.901011
30
0
11
13
21
0.860614
31
0
39
0
210
0
220
0
230
1
0
LINE
5
AE
100
AcDbEntity
8
1
62
256
6
ByLayer
370
18
48
1
60
0
100
AcDbLine
10
13
20
-1.802921
30
0
11
13
21
-1.855223
31
0
39
0
210
0
220
0
230
1
0
LINE
5
AF
100
AcDbEntity
8
1
62
256
6
ByLayer
370
13
48
1
60
0
100
AcDbLine
10
11.79774
20
1.809356
30
0
11
12.1754
21
1.640497
31
0
39
0
210
0
220
0
230
1
0
LINE
5
B0
100
AcDbEntity
8
1
62
256
6
ByLayer
370
13
48
1
60
0
100
AcDbLine
10
7.397679
20
-1.92
30
0
11
7.397679
21
0
31
0
39
0
210
0
220
0
230
1
0
LINE
5
B1
100
AcDbEntity
8
1
62
256
6
ByLayer
370
13
48
1
60
0
100
AcDbLine
10
7.397679
20
0
30
0
11
7.397679
21
1.92
31
0
39
0
210
0
220
0
230
1
0
LINE
5
B2
100
AcDbEntity
8
1
62
256
6
ByLayer
370
13
48
1
60
0
100
AcDbLine
10
6.897679
20
2.053975
30
0
11
6.897679
21
0
31
0
39
0
210
0
220
0
230
1
0
LINE
5
B3
100
AcDbEntity
8
1
62
256
6
ByLayer
370
13
48
1
60
0
100
AcDbLine
10
6.897679
20
0
30
0
11
6.897679
21
-2.053975
31
0
39
0
210
0
220
0
230
1
0
LINE
5
B4
100
AcDbEntity
8
1
62
256
6
ByLayer
370
18
48
1
60
0
100
AcDbLine
10
5.259115
20
3
30
0
11
5.259115
21
0
31
0
39
0
210
0
220
0
230
1
0
LINE
5
B5
100
AcDbEntity
8
1
62
256
6
ByLayer
370
18
48
1
60
0
100
AcDbLine
10
5.259115
20
0
30
0
11
5.259115
21
-3
31
0
39
0
210
0
220
0
230
1
0
LINE
5
B6
100
AcDbEntity
8
SK1
62
256
6
ByLayer
370
18
48
1
60
0
100
AcDbLine
10
-36
20
-2.6
30
0
11
-36
21
2.6
31
0
39
0
210
0
220
0
230
1
0
LINE
5
B8
100
AcDbEntity
8
SK1
62
256
6
ByLayer
370
18
48
1
60
0
100
AcDbLine
10
0
20
3
30
0
11
0
21
0
31
0
39
0
210
0
220
0
230
1
0
LINE
5
B9
100
AcDbEntity
8
SK1
62
256
6
ByLayer
370
18
48
1
60
0
100
AcDbLine
10
0
20
0
30
0
11
0
21
-3
31
0
39
0
210
0
220
0
230
1
0
LINE
5
BA
100
AcDbEntity
8
SK1
62
256
6
ByLayer
370
18
48
1
60
0
100
AcDbLine
10
-35.6
20
3
30
0
11
-35.6
21
-3
31
0
39
0
210
0
220
0
230
1
0
LINE
5
BB
100
AcDbEntity
8
1
62
256
6
ByLayer
370
18
48
1
60
0
100
AcDbLine
10
5.259115
20
3
30
0
11
0
21
3
31
0
39
0
210
0
220
0
230
1
0
LINE
5
BC
100
AcDbEntity
8
1
62
256
6
ByLayer
370
18
48
1
60
0
100
AcDbLine
10
0
20
-3
30
0
11
5.259115
21
-3
31
0
39
0
210
0
220
0
230
1
0
LINE
5
BD
100
AcDbEntity
8
1
62
256
6
ByLayer
370
18
48
1
60
0
100
AcDbLine
10
11.341565
20
1.92
30
0
11
7.397679
21
1.92
31
0
39
0
210
0
220
0
230
1
0
LINE
5
BE
100
AcDbEntity
8
1
62
256
6
ByLayer
370
18
48
1
60
0
100
AcDbLine
10
7.397679
20
-1.92
30
0
11
12.172411
21
-1.92
31
0
39
0
210
0
220
0
230
1
0
LINE
5
BF
100
AcDbEntity
8
1
62
256
6
ByLayer
370
18
48
1
60
0
100
AcDbLine
10
6.897679
20
2.053975
30
0
11
5.259115
21
3
31
0
39
0
210
0
220
0
230
1
0
LINE
5
C0
100
AcDbEntity
8
1
62
256
6
ByLayer
370
18
48
1
60
0
100
AcDbLine
10
5.259115
20
-3
30
0
11
6.897679
21
-2.053975
31
0
39
0
210
0
220
0
230
1
0
LINE
5
C1
100
AcDbEntity
8
SK1
62
256
6
ByLayer
370
18
48
1
60
0
100
AcDbLine
10
-36
20
-2.6
30
0
11
-35.6
21
-3
31
0
39
0
210
0
220
0
230
1
0
LINE
5
C2
100
AcDbEntity
8
SK1
62
256
6
ByLayer
370
18
48
1
60
0
100
AcDbLine
10
-35.6
20
3
30
0
11
-36
21
2.6
31
0
39
0
210
0
220
0
230
1
0
LINE
5
C3
100
AcDbEntity
8
SK1
62
256
6
ByLayer
370
18
48
1
60
0
100
AcDbLine
10
0
20
3
30
0
11
-35.6
21
3
31
0
39
0
210
0
220
0
230
1
0
LINE
5
C4
100
AcDbEntity
8
SK1
62
256
6
ByLayer
370
18
48
1
60
0
100
AcDbLine
10
-35.6
20
-3
30
0
11
0
21
-3
31
0
39
0
210
0
220
0
230
1
0
LINE
5
C5
100
AcDbEntity
8
SK2
62
256
6
ByLayer
370
18
48
1
60
0
100
AcDbLine
10
-43.85
20
11.75
30
0
11
-43.85
21
-19.315466
31
0
39
0
210
0
220
0
230
1
0
LINE
5
C7
100
AcDbEntity
8
SK2
62
256
6
ByLayer
370
18
48
1
60
0
100
AcDbLine
10
-37.1875
20
3
30
0
11
-45.85
21
3
31
0
39
0
210
0
220
0
230
1
0
LINE
5
C8
100
AcDbEntity
8
SK2
62
256
6
ByLayer
370
18
48
1
60
0
100
AcDbLine
10
-37.1875
20
-3
30
0
11
-45.85
21
-3
31
0
39
0
210
0
220
0
230
1
0
LINE
5
C9
100
AcDbEntity
8
1
62
256
6
ByLayer
370
18
48
1
60
1
100
AcDbLine
10
-43.85
20
3
30
0
11
-44.310784
21
6.499998
31
0
39
0
210
0
220
0
230
1
0
LINE
5
CA
100
AcDbEntity
8
1
62
256
6
ByLayer
370
18
48
1
60
1
100
AcDbLine
10
-44.310784
20
6.499998
30
0
11
-43.389216
21
6.500002
31
0
39
0
210
0
220
0
230
1
0
LINE
5
CB
100
AcDbEntity
8
1
62
256
6
ByLayer
370
18
48
1
60
1
100
AcDbLine
10
-43.389216
20
6.500002
30
0
11
-43.85
21
3
31
0
39
0
210
0
220
0
230
1
0
LINE
5
CC
100
AcDbEntity
8
1
62
256
6
ByLayer
370
18
48
1
60
1
100
AcDbLine
10
-43.85
20
-3
30
0
11
-43.389216
21
-6.499998
31
0
39
0
210
0
220
0
230
1
0
LINE
5
CD
100
AcDbEntity
8
1
62
256
6
ByLayer
370
18
48
1
60
1
100
AcDbLine
10
-43.389216
20
-6.499998
30
0
11
-44.310784
21
-6.500002
31
0
39
0
210
0
220
0
230
1
0
LINE
5
CE
100
AcDbEntity
8
1
62
256
6
ByLayer
370
18
48
1
60
1
100
AcDbLine
10
-44.310784
20
-6.500002
30
0
11
-43.85
21
-3
31
0
39
0
210
0
220
0
230
1
0
LINE
5
CF
100
AcDbEntity
8
SK2
62
256
6
ByLayer
370
13
48
1
60
0
100
AcDbLine
10
11.45288
20
29.252931
30
0
11
11.45288
21
-10.67
31
0
39
0
210
0
220
0
230
1
0
LINE
5
D0
100
AcDbEntity
8
SK2
62
256
6
ByLayer
370
13
48
1
60
0
100
AcDbLine
10
11.020582
20
1.92
30
0
11
9.45288
21
1.92
31
0
39
0
210
0
220
0
230
1
0
LINE
5
D1
100
AcDbEntity
8
SK2
62
256
6
ByLayer
370
13
48
1
60
0
100
AcDbLine
10
11.020582
20
-1.92
30
0
11
9.45288
21
-1.92
31
0
39
0
210
0
220
0
230
1
0
LINE
5
D2
100
AcDbEntity
8
1
62
256
6
ByLayer
370
18
48
1
60
1
100
AcDbLine
10
11.45288
20
1.92
30
0
11
10.992097
21
5.419998
31
0
39
0
210
0
220
0
230
1
0
LINE
5
D3
100
AcDbEntity
8
1
62
256
6
ByLayer
370
18
48
1
60
1
100
AcDbLine
10
10.992097
20
5.419998
30
0
11
11.913664
21
5.420002
31
0
39
0
210
0
220
0
230
1
0
LINE
5
D4
100
AcDbEntity
8
1
62
256
6
ByLayer
370
18
48
1
60
1
100
AcDbLine
10
11.913664
20
5.420002
30
0
11
11.45288
21
1.92
31
0
39
0
210
0
220
0
230
1
0
LINE
5
D5
100
AcDbEntity
8
1
62
256
6
ByLayer
370
18
48
1
60
1
100
AcDbLine
10
11.45288
20
-1.92
30
0
11
11.913664
21
-5.419998
31
0
39
0
210
0
220
0
230
1
0
LINE
5
D6
100
AcDbEntity
8
1
62
256
6
ByLayer
370
18
48
1
60
1
100
AcDbLine
10
11.913664
20
-5.419998
30
0
11
10.992097
21
-5.420002
31
0
39
0
210
0
220
0
230
1
0
LINE
5
D7
100
AcDbEntity
8
1
62
256
6
ByLayer
370
18
48
1
60
1
100
AcDbLine
10
10.992097
20
-5.420002
30
0
11
11.45288
21
-1.92
31
0
39
0
210
0
220
0
230
1
0
LINE
5
D8
100
AcDbEntity
8
2
62
256
6
ByLayer
370
18
48
1
60
0
100
AcDbLine
10
39
20
18.684
30
0
11
39
21
-10.75
31
0
39
0
210
0
220
0
230
1
0
LINE
5
DA
100
AcDbEntity
8
2
62
256
6
ByLayer
370
18
48
1
60
0
100
AcDbLine
10
28.5875
20
2
30
0
11
41
21
2
31
0
39
0
210
0
220
0
230
1
0
LINE
5
DB
100
AcDbEntity
8
2
62
256
6
ByLayer
370
18
48
1
60
0
100
AcDbLine
10
28.5875
20
-2
30
0
11
41
21
-2
31
0
39
0
210
0
220
0
230
1
0
LINE
5
DC
100
AcDbEntity
8
1
62
256
6
ByLayer
370
18
48
1
60
1
100
AcDbLine
10
39
20
2
30
0
11
38.539216
21
5.499998
31
0
39
0
210
0
220
0
230
1
0
LINE
5
DD
100
AcDbEntity
8
1
62
256
6
ByLayer
370
18
48
1
60
1
100
AcDbLine
10
38.539216
20
5.499998
30
0
11
39.460784
21
5.500002
31
0
39
0
210
0
220
0
230
1
0
LINE
5
DE
100
AcDbEntity
8
1
62
256
6
ByLayer
370
18
48
1
60
1
100
AcDbLine
10
39.460784
20
5.500002
30
0
11
39
21
2
31
0
39
0
210
0
220
0
230
1
0
LINE
5
DF
100
AcDbEntity
8
1
62
256
6
ByLayer
370
18
48
1
60
1
100
AcDbLine
10
39
20
-2
30
0
11
39.460784
21
-5.499998
31
0
39
0
210
0
220
0
230
1
0
LINE
5
E0
100
AcDbEntity
8
1
62
256
6
ByLayer
370
18
48
1
60
1
100
AcDbLine
10
39.460784
20
-5.499998
30
0
11
38.539216
21
-5.500002
31
0
39
0
210
0
220
0
230
1
0
LINE
5
E1
100
AcDbEntity
8
1
62
256
6
ByLayer
370
18
48
1
60
1
100
AcDbLine
10
38.539216
20
-5.500002
30
0
11
39
21
-2
31
0
39
0
210
0
220
0
230
1
0
LINE
5
E2
100
AcDbEntity
8
SK2
62
256
6
ByLayer
370
18
48
1
60
0
100
AcDbLine
10
27
20
-49.1
30
0
11
-36
21
-49.1
31
0
39
0
210
0
220
0
230
1
0
LINE
5
E3
100
AcDbEntity
8
SK2
62
256
6
ByLayer
370
18
48
1
60
0
100
AcDbLine
10
-36
20
-4.1875
30
0
11
-36
21
-51.1
31
0
39
0
210
0
220
0
230
1
0
LINE
5
E4
100
AcDbEntity
8
SK2
62
256
6
ByLayer
370
18
48
1
60
0
100
AcDbLine
10
27
20
-3.5875
30
0
11
27
21
-51.1
31
0
39
0
210
0
220
0
230
1
0
LINE
5
E5
100
AcDbEntity
8
1
62
256
6
ByLayer
370
18
48
1
60
1
100
AcDbLine
10
-36
20
-49.1
30
0
11
-32.500002
21
-48.639216
31
0
39
0
210
0
220
0
230
1
0
LINE
5
E6
100
AcDbEntity
8
1
62
256
6
ByLayer
370
18
48
1
60
1
100
AcDbLine
10
-32.500002
20
-48.639216
30
0
11
-32.499998
21
-49.560784
31
0
39
0
210
0
220
0
230
1
0
LINE
5
E7
100
AcDbEntity
8
1
62
256
6
ByLayer
370
18
48
1
60
1
100
AcDbLine
10
-32.499998
20
-49.560784
30
0
11
-36
21
-49.1
31
0
39
0
210
0
220
0
230
1
0
LINE
5
E8
100
AcDbEntity
8
1
62
256
6
ByLayer
370
18
48
1
60
1
100
AcDbLine
10
27
20
-49.1
30
0
11
23.500002
21
-49.560784
31
0
39
0
210
0
220
0
230
1
0
LINE
5
E9
100
AcDbEntity
8
1
62
256
6
ByLayer
370
18
48
1
60
1
100
AcDbLine
10
23.500002
20
-49.560784
30
0
11
23.499998
21
-48.639216
31
0
39
0
210
0
220
0
230
1
0
LINE
5
EA
100
AcDbEntity
8
1
62
256
6
ByLayer
370
18
48
1
60
1
100
AcDbLine
10
23.499998
20
-48.639216
30
0
11
27
21
-49.1
31
0
39
0
210
0
220
0
230
1
0
LINE
5
1A8
100
AcDbEntity
8
1
62
256
6
ByLayer
370
18
48
1
60
1
100
AcDbLine
10
-43.85
20
3
30
0
11
-44.310784
21
6.499998
31
0
39
0
210
0
220
0
230
1
0
LINE
5
1A9
100
AcDbEntity
8
1
62
256
6
ByLayer
370
18
48
1
60
1
100
AcDbLine
10
-44.310784
20
6.499998
30
0
11
-43.389216
21
6.500002
31
0
39
0
210
0
220
0
230
1
0
LINE
5
1AA
100
AcDbEntity
8
1
62
256
6
ByLayer
370
18
48
1
60
1
100
AcDbLine
10
-43.389216
20
6.500002
30
0
11
-43.85
21
3
31
0
39
0
210
0
220
0
230
1
0
LINE
5
1AC
100
AcDbEntity
8
1
62
256
6
ByLayer
370
18
48
1
60
1
100
AcDbLine
10
-43.85
20
-3
30
0
11
-43.389216
21
-6.499998
31
0
39
0
210
0
220
0
230
1
0
LINE
5
1AD
100
AcDbEntity
8
1
62
256
6
ByLayer
370
18
48
1
60
1
100
AcDbLine
10
-43.389216
20
-6.499998
30
0
11
-44.310784
21
-6.500002
31
0
39
0
210
0
220
0
230
1
0
LINE
5
1AE
100
AcDbEntity
8
1
62
256
6
ByLayer
370
18
48
1
60
1
100
AcDbLine
10
-44.310784
20
-6.500002
30
0
11
-43.85
21
-3
31
0
39
0
210
0
220
0
230
1
0
LINE
5
1B2
100
AcDbEntity
8
1
62
256
6
ByLayer
370
18
48
1
60
1
100
AcDbLine
10
11.45288
20
1.92
30
0
11
10.992097
21
5.419998
31
0
39
0
210
0
220
0
230
1
0
LINE
5
1B3
100
AcDbEntity
8
1
62
256
6
ByLayer
370
18
48
1
60
1
100
AcDbLine
10
10.992097
20
5.419998
30
0
11
11.913664
21
5.420002
31
0
39
0
210
0
220
0
230
1
0
LINE
5
1B4
100
AcDbEntity
8
1
62
256
6
ByLayer
370
18
48
1
60
1
100
AcDbLine
10
11.913664
20
5.420002
30
0
11
11.45288
21
1.92
31
0
39
0
210
0
220
0
230
1
0
LINE
5
1B6
100
AcDbEntity
8
1
62
256
6
ByLayer
370
18
48
1
60
1
100
AcDbLine
10
11.45288
20
-1.92
30
0
11
11.913664
21
-5.419998
31
0
39
0
210
0
220
0
230
1
0
LINE
5
1B7
100
AcDbEntity
8
1
62
256
6
ByLayer
370
18
48
1
60
1
100
AcDbLine
10
11.913664
20
-5.419998
30
0
11
10.992097
21
-5.420002
31
0
39
0
210
0
220
0
230
1
0
LINE
5
1B8
100
AcDbEntity
8
1
62
256
6
ByLayer
370
18
48
1
60
1
100
AcDbLine
10
10.992097
20
-5.420002
30
0
11
11.45288
21
-1.92
31
0
39
0
210
0
220
0
230
1
0
LINE
5
1BC
100
AcDbEntity
8
1
62
256
6
ByLayer
370
18
48
1
60
1
100
AcDbLine
10
39
20
2
30
0
11
38.539216
21
5.499998
31
0
39
0
210
0
220
0
230
1
0
LINE
5
1BD
100
AcDbEntity
8
1
62
256
6
ByLayer
370
18
48
1
60
1
100
AcDbLine
10
38.539216
20
5.499998
30
0
11
39.460784
21
5.500002
31
0
39
0
210
0
220
0
230
1
0
LINE
5
1BE
100
AcDbEntity
8
1
62
256
6
ByLayer
370
18
48
1
60
1
100
AcDbLine
10
39.460784
20
5.500002
30
0
11
39
21
2
31
0
39
0
210
0
220
0
230
1
0
LINE
5
1C0
100
AcDbEntity
8
1
62
256
6
ByLayer
370
18
48
1
60
1
100
AcDbLine
10
39
20
-2
30
0
11
39.460784
21
-5.499998
31
0
39
0
210
0
220
0
230
1
0
LINE
5
1C1
100
AcDbEntity
8
1
62
256
6
ByLayer
370
18
48
1
60
1
100
AcDbLine
10
39.460784
20
-5.499998
30
0
11
38.539216
21
-5.500002
31
0
39
0
210
0
220
0
230
1
0
LINE
5
1C2
100
AcDbEntity
8
1
62
256
6
ByLayer
370
18
48
1
60
1
100
AcDbLine
10
38.539216
20
-5.500002
30
0
11
39
21
-2
31
0
39
0
210
0
220
0
230
1
0
LINE
5
1C5
100
AcDbEntity
8
1
62
256
6
ByLayer
370
18
48
1
60
1
100
AcDbLine
10
-36
20
-49.1
30
0
11
-32.500002
21
-48.639216
31
0
39
0
210
0
220
0
230
1
0
LINE
5
1C6
100
AcDbEntity
8
1
62
256
6
ByLayer
370
18
48
1
60
1
100
AcDbLine
10
-32.500002
20
-48.639216
30
0
11
-32.499998
21
-49.560784
31
0
39
0
210
0
220
0
230
1
0
LINE
5
1C7
100
AcDbEntity
8
1
62
256
6
ByLayer
370
18
48
1
60
1
100
AcDbLine
10
-32.499998
20
-49.560784
30
0
11
-36
21
-49.1
31
0
39
0
210
0
220
0
230
1
0
LINE
5
1C9
100
AcDbEntity
8
1
62
256
6
ByLayer
370
18
48
1
60
1
100
AcDbLine
10
27
20
-49.1
30
0
11
23.500002
21
-49.560784
31
0
39
0
210
0
220
0
230
1
0
LINE
5
1CA
100
AcDbEntity
8
1
62
256
6
ByLayer
370
18
48
1
60
1
100
AcDbLine
10
23.500002
20
-49.560784
30
0
11
23.499998
21
-48.639216
31
0
39
0
210
0
220
0
230
1
0
LINE
5
1CB
100
AcDbEntity
8
1
62
256
6
ByLayer
370
18
48
1
60
1
100
AcDbLine
10
23.499998
20
-48.639216
30
0
11
27
21
-49.1
31
0
39
0
210
0
220
0
230
1
0
MTEXT
5
1A4
100
AcDbEntity
8
SK2
62
256
6
ByLayer
370
18
48
1
60
0
100
AcDbMText
10
-45.414634
20
-17.380622
30
0
210
0
220
0
230
1
1
%%c
40
3.5
41
0
44
1.084337
50
90
71
7
72
5
7
iso_b_vert
0
MTEXT
5
1A7
100
AcDbEntity
8
SK2
62
256
6
ByLayer
370
18
48
1
60
0
100
AcDbMText
10
-45.414634
20
-10.407966
30
0
210
0
220
0
230
1
1
\W0.5404;6
40
3.5
41
0
44
1.084337
50
90
71
7
72
5
7
iso_b_vert
0
MTEXT
5
1B0
100
AcDbEntity
8
SK2
62
256
6
ByLayer
370
18
48
1
60
0
100
AcDbMText
10
9.888247
20
13.854844
30
0
210
0
220
0
230
1
1
%%c
40
3.5
41
0
44
1.084337
50
90
71
7
72
5
7
iso_b_vert
0
MTEXT
5
1B1
100
AcDbEntity
8
SK2
62
256
6
ByLayer
370
18
48
1
60
0
100
AcDbMText
10
9.888247
20
20.8275
30
0
210
0
220
0
230
1
1
\W0.7528;3.84
40
3.5
41
0
44
1.084337
50
90
71
7
72
5
7
iso_b_vert
0
MTEXT
5
1BA
100
AcDbEntity
8
2
62
256
6
ByLayer
370
18
48
1
60
0
100
AcDbMText
10
37.435366
20
9.934844
30
0
210
0
220
0
230
1
1
%%c
40
3.5
41
0
44
1.084337
50
90
71
7
72
5
7
iso_b_vert
0
MTEXT
5
1BB
100
AcDbEntity
8
2
62
256
6
ByLayer
370
18
48
1
60
0
100
AcDbMText
10
37.435366
20
16.9075
30
0
210
0
220
0
230
1
1
\W0.6380;4
40
3.5
41
0
44
1.084337
50
90
71
7
72
5
7
iso_b_vert
0
MTEXT
5
1C4
100
AcDbEntity
8
SK2
62
256
6
ByLayer
370
18
48
1
60
0
100
AcDbMText
10
-6.404966
20
-48.067366
30
0
210
0
220
0
230
1
1
\W0.6740;63
40
3.5
41
0
44
1.084337
50
0
71
7
72
5
7
iso_b_vert
0
MTEXT
5
1CD
100
AcDbEntity
8
SK6
62
256
6
ByLayer
370
18
48
1
60
0
100
AcDbMText
10
-29.979471
20
-62.114886
30
0
210
0
220
0
230
1
1
\W0.7193;1K365-0400-020-XC   1730
40
3
41
0
44
1.084337
50
0
71
7
72
5
7
iso_b_vert
0
HATCH
5
1AB
100
AcDbEntity
8
SK2
62
256
6
ByLayer
370
13
48
1
60
0
100
AcDbHatch
10
0
20
0
30
0
210
0
220
0
230
1
2
ANSI31
70
0
71
0
91
1
92
5
93
3
72
1
10
-43.85
20
3
11
-44.3107837415528
21
6.49999830744682
72
1
10
-44.3107837415528
20
6.49999830744682
11
-43.3892162584472
21
6.50000169255318
72
1
10
-43.3892162584472
20
6.50000169255318
11
-43.85
21
3
97
0
75
0
76
1
52
0
41
0.0062
77
0
78
1
53
45
43
0
44
0
45
-0.0139193969876572
46
0.0139193969876572
79
0
47
0
98
1
10
0
20
0
0
HATCH
5
1AF
100
AcDbEntity
8
SK2
62
256
6
ByLayer
370
13
48
1
60
0
100
AcDbHatch
10
0
20
0
30
0
210
0
220
0
230
1
2
ANSI31
70
0
71
0
91
1
92
5
93
3
72
1
10
-43.85
20
-3
11
-43.3892162584472
21
-6.49999830744682
72
1
10
-43.3892162584472
20
-6.49999830744682
11
-44.3107837415528
21
-6.50000169255318
72
1
10
-44.3107837415528
20
-6.50000169255318
11
-43.85
21
-3
97
0
75
0
76
1
52
0
41
0.0062
77
0
78
1
53
45
43
0
44
0
45
-0.0139193969876572
46
0.0139193969876572
79
0
47
0
98
1
10
0
20
0
0
HATCH
5
1B5
100
AcDbEntity
8
SK2
62
256
6
ByLayer
370
13
48
1
60
0
100
AcDbHatch
10
0
20
0
30
0
210
0
220
0
230
1
2
ANSI31
70
0
71
0
91
1
92
5
93
3
72
1
10
11.4528802816578
20
1.91999999999996
11
10.992096540105
21
5.41999830744678
72
1
10
10.992096540105
20
5.41999830744678
11
11.9136640232105
21
5.42000169255314
72
1
10
11.9136640232105
20
5.42000169255314
11
11.4528802816578
21
1.91999999999996
97
0
75
0
76
1
52
0
41
0.0062
77
0
78
1
53
45
43
0
44
0
45
-0.0139193969876572
46
0.0139193969876572
79
0
47
0
98
1
10
0
20
0
0
HATCH
5
1B9
100
AcDbEntity
8
SK2
62
256
6
ByLayer
370
13
48
1
60
0
100
AcDbHatch
10
0
20
0
30
0
210
0
220
0
230
1
2
ANSI31
70
0
71
0
91
1
92
5
93
3
72
1
10
11.4528802816578
20
-1.92000000000004
11
11.9136640232105
21
-5.41999830744686
72
1
10
11.9136640232105
20
-5.41999830744686
11
10.992096540105
21
-5.42000169255323
72
1
10
10.992096540105
20
-5.42000169255323
11
11.4528802816578
21
-1.92000000000004
97
0
75
0
76
1
52
0
41
0.0062
77
0
78
1
53
45
43
0
44
0
45
-0.0139193969876572
46
0.0139193969876572
79
0
47
0
98
1
10
0
20
0
0
HATCH
5
1BF
100
AcDbEntity
8
2
62
256
6
ByLayer
370
13
48
1
60
0
100
AcDbHatch
10
0
20
0
30
0
210
0
220
0
230
1
2
ANSI31
70
0
71
0
91
1
92
5
93
3
72
1
10
39
20
1.99999999999991
11
38.5392162584472
21
5.49999830744673
72
1
10
38.5392162584472
20
5.49999830744673
11
39.4607837415528
21
5.5000016925531
72
1
10
39.4607837415528
20
5.5000016925531
11
39
21
1.99999999999991
97
0
75
0
76
1
52
0
41
0.0062
77
0
78
1
53
45
43
0
44
0
45
-0.0139193969876572
46
0.0139193969876572
79
0
47
0
98
1
10
0
20
0
0
HATCH
5
1C3
100
AcDbEntity
8
2
62
256
6
ByLayer
370
13
48
1
60
0
100
AcDbHatch
10
0
20
0
30
0
210
0
220
0
230
1
2
ANSI31
70
0
71
0
91
1
92
5
93
3
72
1
10
39
20
-2.00000000000008
11
39.4607837415528
21
-5.4999983074469
72
1
10
39.4607837415528
20
-5.4999983074469
11
38.5392162584472
21
-5.50000169255327
72
1
10
38.5392162584472
20
-5.50000169255327
11
39
21
-2.00000000000008
97
0
75
0
76
1
52
0
41
0.0062
77
0
78
1
53
45
43
0
44
0
45
-0.0139193969876572
46
0.0139193969876572
79
0
47
0
98
1
10
0
20
0
0
HATCH
5
1C8
100
AcDbEntity
8
SK2
62
256
6
ByLayer
370
13
48
1
60
0
100
AcDbHatch
10
0
20
0
30
0
210
0
220
0
230
1
2
ANSI31
70
0
71
0
91
1
92
5
93
3
72
1
10
-36
20
-49.1000000000001
11
-32.5000016925532
21
-48.6392162584473
72
1
10
-32.5000016925532
20
-48.6392162584473
11
-32.4999983074468
21
-49.5607837415528
72
1
10
-32.4999983074468
20
-49.5607837415528
11
-36
21
-49.1000000000001
97
0
75
0
76
1
52
0
41
0.0062
77
0
78
1
53
45
43
0
44
0
45
-0.0139193969876572
46
0.0139193969876572
79
0
47
0
98
1
10
0
20
0
0
HATCH
5
1CC
100
AcDbEntity
8
SK2
62
256
6
ByLayer
370
13
48
1
60
0
100
AcDbHatch
10
0
20
0
30
0
210
0
220
0
230
1
2
ANSI31
70
0
71
0
91
1
92
5
93
3
72
1
10
27
20
-49.1000000000001
11
23.5000016925532
21
-49.5607837415528
72
1
10
23.5000016925532
20
-49.5607837415528
11
23.4999983074468
21
-48.6392162584473
72
1
10
23.4999983074468
20
-48.6392162584473
11
27
21
-49.1000000000001
97
0
75
0
76
1
52
0
41
0.0062
77
0
78
1
53
45
43
0
44
0
45
-0.0139193969876572
46
0.0139193969876572
79
0
47
0
98
1
10
0
20
0
0
DIMENSION
5
1D0
100
AcDbEntity
8
2
62
256
6
ByLayer
370
18
48
1
60
0
100
AcDbDimension
2
_U0
10
13
20
-17.1
30
0
11
20
21
-17.1
31
0
70
32
71
1
72
1
41
1
210
0
220
0
230
1
3
Standard
100
AcDbAlignedDimension
13
27
23
-2
33
0
14
13
24
-2
34
0
50
0
100
AcDbRotatedDimension
1001
ACAD
1000
DSTYLE
1002
{
1070
   371
1070
    13
1070
   372
1070
    13
1070
   170
1070
     0
1070
   144
1040
1.0
1070
   277
1070
     2
1070
   284
1070
     8
1070
   278
1070
    46
1070
   146
1040
1.0
1070
   345
1005
16
1070
   347
1005
16
1070
   346
1005
16
1070
   344
1005
0
1070
   343
1005
0
1070
   172
1070
     1
1070
    76
1070
     0
1070
    75
1070
     0
1070
   282
1070
     0
1070
   281
1070
     0
1070
    71
1070
     0
1070
    74
1070
     0
1070
   279
1070
     0
1070
   173
1070
     1
1070
   340
1005
1A5
1070
   271
1070
     2
1070
   272
1070
     2
1070
    77
1070
     1
1070
    73
1070
     1
1070
   171
1070
     3
1070
   274
1070
     4
1070
   177
1070
     2
1070
   176
1070
     2
1070
   178
1070
     2
1070
    78
1070
     8
1070
    48
1040
-0.1
1070
    41
1040
3.5
1070
   147
1040
1.75
1070
    42
1040
1.5875
1070
    44
1040
2.0
1070
   140
1040
3.5
1002
}
1001
ACAD_DSTYLE_DIM_LINETYPE
1070
   380
1005
16
1001
ACAD_DSTYLE_DIM_EXT1_LINETYPE
1070
   381
1005
16
1001
ACAD_DSTYLE_DIM_EXT2_LINETYPE
1070
   382
1005
16
0
DIMENSION
5
1EA
100
AcDbEntity
8
SK2
62
256
6
ByLayer
370
18
48
1
60
0
100
AcDbDimension
2
_U1
10
7.397679
20
-32.1
30
0
11
17.198839
21
-32.1
31
0
70
32
71
1
72
1
41
1
210
0
220
0
230
1
3
Standard
100
AcDbAlignedDimension
13
27
23
-2
33
0
14
7.397679
24
-1.92
34
0
50
0
100
AcDbRotatedDimension
1001
ACAD
1000
DSTYLE
1002
{
1070
   371
1070
    13
1070
   372
1070
    13
1070
   170
1070
     0
1070
   144
1040
1.0
1070
   277
1070
     2
1070
   284
1070
     8
1070
   278
1070
    46
1070
   146
1040
1.0
1070
   345
1005
16
1070
   347
1005
16
1070
   346
1005
16
1070
   344
1005
0
1070
   343
1005
0
1070
   172
1070
     1
1070
    76
1070
     0
1070
    75
1070
     0
1070
   282
1070
     0
1070
   281
1070
     0
1070
    71
1070
     0
1070
    74
1070
     0
1070
   279
1070
     0
1070
   173
1070
     1
1070
   340
1005
1A5
1070
   271
1070
     2
1070
   272
1070
     2
1070
    77
1070
     1
1070
    73
1070
     1
1070
   171
1070
     3
1070
   274
1070
     4
1070
   177
1070
     2
1070
   176
1070
     2
1070
   178
1070
     2
1070
    78
1070
     8
1070
    48
1040
-0.1
1070
    41
1040
3.5
1070
   147
1040
1.75
1070
    42
1040
1.5875
1070
    44
1040
2.0
1070
   140
1040
3.5
1002
}
1001
ACAD_DSTYLE_DIM_LINETYPE
1070
   380
1005
16
1001
ACAD_DSTYLE_DIM_EXT1_LINETYPE
1070
   381
1005
16
1001
ACAD_DSTYLE_DIM_EXT2_LINETYPE
1070
   382
1005
16
0
ENDSEC
0
SECTION
2
OBJECTS
0
DICTIONARY
5
272
330
0
100
AcDbDictionary
280
0
281
1
3
ACAD_GROUP
350
273
3
ACAD_MLINESTYLE
350
274
0
DICTIONARY
5
273
330
0
100
AcDbDictionary
280
0
281
1
0
DICTIONARY
5
274
330
0
100
AcDbDictionary
280
0
281
1
3
Standard
350
18
0
MLINESTYLE
5
18
330
274
100
AcDbMlineStyle
2
Standard
70
0
3

62
256
51
90
52
90
71
2
49
-0.5
62
256
6
ByLayer
49
0.5
62
256
6
ByLayer
0
RASTERVARIABLES
5
260
330

100
AcDbRasterVariables
90
0
70
1
71
1
72
1
0
ENDSEC
0
EOF
