0
SECTION
2
HEADER
9
$ACADVER
1
AC1015
9
$DWGCODEPAGE
3
ANSI_1252
9
$HANDSEED
5
28f
9
$ANGBASE
50
0
9
$ANGDIR
70
0
9
$ATTMODE
70
1
9
$AUNITS
70
0
9
$AUPREC
70
0
9
$CECOLOR
62
256
9
$CELTSCALE
40
1
9
$CELTYPE
6
ByLayer
9
$CELWEIGHT
370
18
9
$CLAYER
8
0
9
$CMLJUST
70
0
9
$CMLSCALE
40
1
9
$CMLSTYLE
2
Standard
9
$DIMSTYLE
2
Standard
9
$TEXTSIZE
40
0.2
9
$TEXTSTYLE
7
Standard
9
$LUNITS
70
2
9
$LUPREC
70
4
9
$EXTNAMES
290
1
9
$INSUNITS
70
4
9
$LTSCALE
40
1
9
$LWDISPLAY
290
1
9
$PDMODE
70
0
9
$PDSIZE
40
0
9
$PLINEGEN
70
0
0
ENDSEC
0
SECTION
2
CLASSES
0
CLASS
1
RASTERVARIABLES
2
AcDbRasterVariables
3
ISM
90
0
280
0
281
0
0
ENDSEC
0
SECTION
2
TABLES
0
TABLE
2
VPORT
5
285
100
AcDbSymbolTable
0
VPORT
5
1
100
AcDbSymbolTableRecord
100
AcDbViewportTableRecord
2
*Active
70
0
10
0
20
0
11
1
21
1
12
-1
22
1
13
0
23
0
14
0.5
24
0.5
15
10
25
10
16
0
26
0
36
1
17
0
27
0
37
0
0
ENDTAB
0
TABLE
2
LTYPE
5
286
100
AcDbSymbolTable
0
LTYPE
5
14
100
AcDbSymbolTableRecord
100
AcDbLinetypeTableRecord
70
0
2
ByBlock
3

72
65
73
0
40
0
0
LTYPE
5
15
100
AcDbSymbolTableRecord
100
AcDbLinetypeTableRecord
70
0
2
ByLayer
3

72
65
73
0
40
0
0
LTYPE
5
16
100
AcDbSymbolTableRecord
100
AcDbLinetypeTableRecord
70
0
2
Continuous
3
Solid line
72
65
73
0
40
0
0
LTYPE
5
6E
100
AcDbSymbolTableRecord
100
AcDbLinetypeTableRecord
70
0
2
CENTER
3
____ _ ____ _ ____ _ ____
72
65
73
4
40
47.5
49
22
74
0
49
-8.5
74
0
49
8.5
74
0
49
-8.5
74
0
0
LTYPE
5
6F
100
AcDbSymbolTableRecord
100
AcDbLinetypeTableRecord
70
0
2
DASHED
3
__ __ __ __ __ __ __ __ __
72
65
73
2
40
25.72
49
12.86
74
0
49
-12.86
74
0
0
ENDTAB
0
TABLE
2
LAYER
5
287
100
AcDbSymbolTable
0
LAYER
5
10
100
AcDbSymbolTableRecord
100
AcDbLayerTableRecord
2
0
70
0
62
7
6
Continuous
290
1
370
-3
390
0
0
LAYER
5
71
100
AcDbSymbolTableRecord
100
AcDbLayerTableRecord
2
81
70
0
62
-3
6
Continuous
290
1
370
-3
390
0
0
LAYER
5
73
100
AcDbSymbolTableRecord
100
AcDbLayerTableRecord
2
80
70
0
62
-6
6
Continuous
290
1
370
-3
390
0
0
LAYER
5
75
100
AcDbSymbolTableRecord
100
AcDbLayerTableRecord
2
1
70
0
62
4
6
Continuous
290
1
370
-3
390
0
0
LAYER
5
7B
100
AcDbSymbolTableRecord
100
AcDbLayerTableRecord
2
4
70
0
62
-2
6
CENTER
290
1
370
-3
390
0
0
LAYER
5
E7
100
AcDbSymbolTableRecord
100
AcDbLayerTableRecord
2
2
70
0
62
7
6
Continuous
290
1
370
-3
390
0
0
LAYER
5
1E4
100
AcDbSymbolTableRecord
100
AcDbLayerTableRecord
2
Defpoints
70
0
62
7
6
Continuous
290
0
370
-3
390
0
0
LAYER
5
271
100
AcDbSymbolTableRecord
100
AcDbLayerTableRecord
2
SK4
70
0
62
2
6
CENTER
290
1
370
-3
390
0
0
LAYER
5
272
100
AcDbSymbolTableRecord
100
AcDbLayerTableRecord
2
SK1
70
0
62
4
6
Continuous
290
1
370
-3
390
0
0
LAYER
5
273
100
AcDbSymbolTableRecord
100
AcDbLayerTableRecord
2
SK2
70
0
62
7
6
Continuous
290
1
370
-3
390
0
0
LAYER
5
274
100
AcDbSymbolTableRecord
100
AcDbLayerTableRecord
2
SK6
70
0
62
5
6
Continuous
290
1
370
-3
390
0
0
ENDTAB
0
TABLE
2
STYLE
5
288
100
AcDbSymbolTable
0
STYLE
5
11
100
AcDbSymbolTableRecord
100
AcDbTextStyleTableRecord
2
Standard
3
txt
70
0
71
0
40
0
41
1
42
0
50
0
0
STYLE
5
1B6
100
AcDbSymbolTableRecord
100
AcDbTextStyleTableRecord
2
iso_b_vert
3
simplex.shx
70
0
71
0
40
0
41
1
42
0
50
0
0
STYLE
5
1B7
100
AcDbSymbolTableRecord
100
AcDbTextStyleTableRecord
2
DWGDirectTextStyle
3
simplex
70
0
71
0
40
0
41
1
42
0
50
0
0
ENDTAB
0
TABLE
2
DIMSTYLE
5
289
100
AcDbSymbolTable
100
AcDbDimStyleTable
0
DIMSTYLE
105
27
100
AcDbSymbolTableRecord
100
AcDbDimStyleTableRecord
2
Standard
70
0
3
<>
41
0.18
42
0.0625
44
0.18
140
0.18
147
0.09
73
0
74
0
77
1
271
2
275
0
278
52
280
0
340
11
0
ENDTAB
0
TABLE
2
VIEW
5
28a
100
AcDbSymbolTable
0
ENDTAB
0
TABLE
2
UCS
5
28b
100
AcDbSymbolTable
0
ENDTAB
0
TABLE
2
APPID
5
28c
100
AcDbSymbolTable
0
APPID
5
12
100
AcDbSymbolTableRecord
100
AcDbRegAppTableRecord
2
ACAD
70
0
0
APPID
5
1E0
100
AcDbSymbolTableRecord
100
AcDbRegAppTableRecord
2
ACAD_DSTYLE_DIMBREAK
70
0
0
APPID
5
230
100
AcDbSymbolTableRecord
100
AcDbRegAppTableRecord
2
ACAD_DSTYLE_DIM_LINETYPE
70
0
0
APPID
5
231
100
AcDbSymbolTableRecord
100
AcDbRegAppTableRecord
2
ACAD_DSTYLE_DIM_EXT1_LINETYPE
70
0
0
APPID
5
232
100
AcDbSymbolTableRecord
100
AcDbRegAppTableRecord
2
ACAD_DSTYLE_DIM_EXT2_LINETYPE
70
0
0
APPID
5
26D
100
AcDbSymbolTableRecord
100
AcDbRegAppTableRecord
2
ACAD_MLEADERVER
70
0
0
ENDTAB
0
TABLE
2
BLOCK_RECORD
5
28d
100
AcDbSymbolTable
0
BLOCK_RECORD
5
1F
100
AcDbSymbolTableRecord
100
AcDbBlockTableRecord
2
*Model_Space
340
0
70
0
0
BLOCK_RECORD
5
1B
100
AcDbSymbolTableRecord
100
AcDbBlockTableRecord
2
*Paper_Space
340
0
70
0
0
BLOCK_RECORD
5
23
100
AcDbSymbolTableRecord
100
AcDbBlockTableRecord
2
*Paper_Space0
340
0
70
0
0
BLOCK_RECORD
5
1E5
100
AcDbSymbolTableRecord
100
AcDbBlockTableRecord
2
*D1
340
0
70
0
0
BLOCK_RECORD
5
1F1
100
AcDbSymbolTableRecord
100
AcDbBlockTableRecord
2
_U0
340
0
70
0
0
BLOCK_RECORD
5
1FD
100
AcDbSymbolTableRecord
100
AcDbBlockTableRecord
2
*D3
340
0
70
0
0
BLOCK_RECORD
5
209
100
AcDbSymbolTableRecord
100
AcDbBlockTableRecord
2
_U1
340
0
70
0
0
ENDTAB
0
ENDSEC
0
SECTION
2
BLOCKS
0
BLOCK
5
20
100
AcDbEntity
8
0
100
AcDbBlockBegin
2
*Model_Space
70
0
10
0
20
0
30
0
3
*Model_Space
0
ENDBLK
5
21
100
AcDbEntity
8
0
100
AcDbBlockEnd
0
BLOCK
5
1C
100
AcDbEntity
8
0
100
AcDbBlockBegin
2
*Paper_Space
70
0
10
0
20
0
30
0
3
*Paper_Space
0
ENDBLK
5
1D
100
AcDbEntity
8
0
100
AcDbBlockEnd
0
BLOCK
5
24
100
AcDbEntity
8
0
100
AcDbBlockBegin
2
*Paper_Space0
70
0
10
0
20
0
30
0
3
*Paper_Space0
0
ENDBLK
5
25
100
AcDbEntity
8
0
100
AcDbBlockEnd
0
BLOCK
5
1E6
100
AcDbEntity
8
0
100
AcDbBlockBegin
2
*D1
70
1
10
0
20
0
30
0
3
*D1
0
LINE
5
1E8
100
AcDbEntity
8
0
62
256
6
ByLayer
370
-2
48
1
60
0
100
AcDbLine
10
38
20
-7.5875
30
0
11
38
21
-22.970808
31
0
39
0
210
0
220
0
230
1
0
LINE
5
1E9
100
AcDbEntity
8
0
62
256
6
ByLayer
370
-2
48
1
60
0
100
AcDbLine
10
14
20
-7.5875
30
0
11
14
21
-22.970808
31
0
39
0
210
0
220
0
230
1
0
LINE
5
1EA
100
AcDbEntity
8
0
62
256
6
ByLayer
370
-2
48
1
60
0
100
AcDbLine
10
34.5
20
-20.970808
30
0
11
17.5
21
-20.970808
31
0
39
0
210
0
220
0
230
1
0
SOLID
5
1EB
100
AcDbEntity
8
0
62
256
6
ByLayer
370
-1
48
1
60
0
100
AcDbTrace
10
34.5
20
-21.554142
30
0
11
34.5
21
-20.387475
31
0
12
38
22
-20.970808
32
0
13
38
23
-20.970808
33
0
39
0
210
0
220
0
230
1
0
SOLID
5
1EC
100
AcDbEntity
8
0
62
256
6
ByLayer
370
-1
48
1
60
0
100
AcDbTrace
10
17.5
20
-20.387475
30
0
11
17.5
21
-21.554142
31
0
12
14
22
-20.970808
32
0
13
14
23
-20.970808
33
0
39
0
210
0
220
0
230
1
0
MTEXT
5
1ED
100
AcDbEntity
8
0
62
256
6
ByLayer
370
18
48
1
60
0
100
AcDbMText
10
26
20
-13.970808
30
0
210
0
220
0
230
1
1
\A1;24
40
3.5
41
0
44
1
50
0
71
5
72
5
7
iso_b_vert
0
POINT
5
1EE
100
AcDbEntity
8
Defpoints
62
0
6
ByLayer
370
-1
48
1
60
0
100
AcDbPoint
10
38
20
-6
30
0
39
0
210
0
220
0
230
1
50
360
0
POINT
5
1EF
100
AcDbEntity
8
Defpoints
62
0
6
ByLayer
370
-1
48
1
60
0
100
AcDbPoint
10
14
20
-6
30
0
39
0
210
0
220
0
230
1
50
360
0
POINT
5
1F0
100
AcDbEntity
8
Defpoints
62
0
6
ByLayer
370
-1
48
1
60
0
100
AcDbPoint
10
14
20
-20.970808
30
0
39
0
210
0
220
0
230
1
50
360
0
ENDBLK
5
1E7
100
AcDbEntity
8
0
100
AcDbBlockEnd
0
BLOCK
5
1F8
100
AcDbEntity
8
0
100
AcDbBlockBegin
2
_U0
70
0
10
0
20
0
30
0
3
_U0
0
MTEXT
5
1F2
100
AcDbEntity
8
2
62
256
6
ByLayer
370
18
48
1
60
0
100
AcDbMText
10
23.910767
20
-19.938175
30
0
210
0
220
0
230
1
1
\W0.7167;24
40
3.5
41
0
44
1.084337
50
0
71
7
72
5
7
iso_b_vert
0
LINE
5
1F3
100
AcDbEntity
8
2
62
256
6
ByLayer
370
13
48
1
60
0
100
AcDbLine
10
38
20
-7.5875
30
0
11
38
21
-22.970808
31
0
39
0
210
0
220
0
230
1
0
LINE
5
1F4
100
AcDbEntity
8
2
62
256
6
ByLayer
370
13
48
1
60
0
100
AcDbLine
10
14
20
-7.5875
30
0
11
14
21
-22.970808
31
0
39
0
210
0
220
0
230
1
0
LINE
5
1F5
100
AcDbEntity
8
2
62
256
6
ByLayer
370
13
48
1
60
0
100
AcDbLine
10
38
20
-20.970808
30
0
11
14
21
-20.970808
31
0
39
0
210
0
220
0
230
1
0
SOLID
5
1F6
100
AcDbEntity
8
2
62
256
6
ByLayer
370
18
48
1
60
0
100
AcDbTrace
10
38
20
-20.970808
30
0
11
34.500002
21
-21.431592
31
0
12
34.499998
22
-20.510025
32
0
13
34.499998
23
-20.510025
33
0
39
0
210
0
220
0
230
1
0
SOLID
5
1F7
100
AcDbEntity
8
2
62
256
6
ByLayer
370
18
48
1
60
0
100
AcDbTrace
10
14
20
-20.970808
30
0
11
17.499998
21
-20.510025
31
0
12
17.500002
22
-21.431592
32
0
13
17.500002
23
-21.431592
33
0
39
0
210
0
220
0
230
1
0
ENDBLK
5
1F9
100
AcDbEntity
8
0
100
AcDbBlockEnd
0
BLOCK
5
1FE
100
AcDbEntity
8
0
100
AcDbBlockBegin
2
*D3
70
1
10
0
20
0
30
0
3
*D3
0
LINE
5
200
100
AcDbEntity
8
0
62
256
6
ByLayer
370
-2
48
1
60
0
100
AcDbLine
10
38
20
-7.5875
30
0
11
38
21
-37.970808
31
0
39
0
210
0
220
0
230
1
0
LINE
5
201
100
AcDbEntity
8
0
62
256
6
ByLayer
370
-2
48
1
60
0
100
AcDbLine
10
1.997679
20
-7.3475
30
0
11
1.997679
21
-37.970808
31
0
39
0
210
0
220
0
230
1
0
LINE
5
202
100
AcDbEntity
8
0
62
256
6
ByLayer
370
-2
48
1
60
0
100
AcDbLine
10
34.5
20
-35.970808
30
0
11
5.497679
21
-35.970808
31
0
39
0
210
0
220
0
230
1
0
SOLID
5
203
100
AcDbEntity
8
0
62
256
6
ByLayer
370
-1
48
1
60
0
100
AcDbTrace
10
34.5
20
-36.554142
30
0
11
34.5
21
-35.387475
31
0
12
38
22
-35.970808
32
0
13
38
23
-35.970808
33
0
39
0
210
0
220
0
230
1
0
SOLID
5
204
100
AcDbEntity
8
0
62
256
6
ByLayer
370
-1
48
1
60
0
100
AcDbTrace
10
5.497679
20
-35.387475
30
0
11
5.497679
21
-36.554142
31
0
12
1.997679
22
-35.970808
32
0
13
1.997679
23
-35.970808
33
0
39
0
210
0
220
0
230
1
0
MTEXT
5
205
100
AcDbEntity
8
0
62
256
6
ByLayer
370
18
48
1
60
0
100
AcDbMText
10
19.998839
20
-28.970808
30
0
210
0
220
0
230
1
1
\A1;36
40
3.5
41
0
44
1
50
0
71
5
72
5
7
iso_b_vert
0
POINT
5
206
100
AcDbEntity
8
Defpoints
62
0
6
ByLayer
370
-1
48
1
60
0
100
AcDbPoint
10
38
20
-6
30
0
39
0
210
0
220
0
230
1
50
360
0
POINT
5
207
100
AcDbEntity
8
Defpoints
62
0
6
ByLayer
370
-1
48
1
60
0
100
AcDbPoint
10
1.997679
20
-5.76
30
0
39
0
210
0
220
0
230
1
50
360
0
POINT
5
208
100
AcDbEntity
8
Defpoints
62
0
6
ByLayer
370
-1
48
1
60
0
100
AcDbPoint
10
1.997679
20
-35.970808
30
0
39
0
210
0
220
0
230
1
50
360
0
ENDBLK
5
1FF
100
AcDbEntity
8
0
100
AcDbBlockEnd
0
BLOCK
5
210
100
AcDbEntity
8
0
100
AcDbBlockBegin
2
_U1
70
0
10
0
20
0
30
0
3
_U1
0
MTEXT
5
20A
100
AcDbEntity
8
SK2
62
256
6
ByLayer
370
18
48
1
60
0
100
AcDbMText
10
18.093873
20
-34.938175
30
0
210
0
220
0
230
1
1
\W0.6740;36
40
3.5
41
0
44
1.084337
50
0
71
7
72
5
7
iso_b_vert
0
LINE
5
20B
100
AcDbEntity
8
SK2
62
256
6
ByLayer
370
13
48
1
60
0
100
AcDbLine
10
38
20
-7.5875
30
0
11
38
21
-37.970808
31
0
39
0
210
0
220
0
230
1
0
LINE
5
20C
100
AcDbEntity
8
SK2
62
256
6
ByLayer
370
13
48
1
60
0
100
AcDbLine
10
1.997679
20
-7.3475
30
0
11
1.997679
21
-37.970808
31
0
39
0
210
0
220
0
230
1
0
LINE
5
20D
100
AcDbEntity
8
SK2
62
256
6
ByLayer
370
13
48
1
60
0
100
AcDbLine
10
38
20
-35.970808
30
0
11
1.997679
21
-35.970808
31
0
39
0
210
0
220
0
230
1
0
SOLID
5
20E
100
AcDbEntity
8
SK2
62
256
6
ByLayer
370
18
48
1
60
0
100
AcDbTrace
10
38
20
-35.970808
30
0
11
34.500002
21
-36.431592
31
0
12
34.499998
22
-35.510025
32
0
13
34.499998
23
-35.510025
33
0
39
0
210
0
220
0
230
1
0
SOLID
5
20F
100
AcDbEntity
8
SK2
62
256
6
ByLayer
370
18
48
1
60
0
100
AcDbTrace
10
1.997679
20
-35.970808
30
0
11
5.497677
21
-35.510025
31
0
12
5.497681
22
-36.431592
32
0
13
5.497681
23
-36.431592
33
0
39
0
210
0
220
0
230
1
0
ENDBLK
5
211
100
AcDbEntity
8
0
100
AcDbBlockEnd
0
ENDSEC
0
SECTION
2
ENTITIES
0
ARC
5
F9
100
AcDbEntity
8
1
62
256
6
ByLayer
370
18
48
1
60
0
100
AcDbCircle
39
0
10
13.316359
20
-6.76
30
0
40
1
210
0
220
0
230
1
100
AcDbArc
50
64.007758
51
90
0
ARC
5
FA
100
AcDbEntity
8
1
62
256
6
ByLayer
370
18
48
1
60
0
100
AcDbCircle
39
0
10
1.997679
20
6.76
30
0
40
1
210
0
220
0
230
1
100
AcDbArc
50
240
51
270
0
ARC
5
FB
100
AcDbEntity
8
1
62
256
6
ByLayer
370
18
48
1
60
0
100
AcDbCircle
39
0
10
1.997679
20
-6.76
30
0
40
1
210
0
220
0
230
1
100
AcDbArc
50
90
51
120
0
ELLIPSE
5
FC
100
AcDbEntity
8
1
62
256
6
ByLayer
370
18
48
1
60
0
100
AcDbEllipse
10
37.927962
20
0.081514
30
0
11
0.0358701423938791
21
1.64360241565824
31
0
210
0
220
0
230
1
40
0.051819
41
1.47049017225553
42
1.6850089652169
0
ELLIPSE
5
FD
100
AcDbEntity
8
1
62
256
6
ByLayer
370
18
48
1
60
0
100
AcDbEllipse
10
37.830854
20
0.293961
30
0
11
0.82449433116895
21
-0.160581244142723
31
0
210
0
220
0
230
1
40
0.465414
41
-1.71773150726732
42
-1.47024434649884
0
ELLIPSE
5
FE
100
AcDbEntity
8
1
62
256
6
ByLayer
370
18
48
1
60
0
100
AcDbEllipse
10
38.001825
20
0.426777
30
0
11
0.98968902292803
21
0.158354430707276
31
0
210
0
220
0
230
1
40
0.096273
41
1.67345007958625
42
1.70568452797222
0
ELLIPSE
5
FF
100
AcDbEntity
8
1
62
256
6
ByLayer
370
18
48
1
60
0
100
AcDbEllipse
10
37.795731
20
-0.952437
30
0
11
0.129169532987009
21
0.991273540485355
31
0
210
0
220
0
230
1
40
0.114883
41
0.825426266994622
42
0.852819210687776
0
ELLIPSE
5
100
100
AcDbEntity
8
1
62
256
6
ByLayer
370
18
48
1
60
0
100
AcDbEllipse
10
37.651631
20
-0.769842
30
0
11
0.825070026483361
21
0.0154158578619915
31
0
210
0
220
0
230
1
40
0.589291
41
1.38521933296969
42
2.18608174840227
0
ELLIPSE
5
101
100
AcDbEntity
8
1
62
256
6
ByLayer
370
18
48
1
60
0
100
AcDbEllipse
10
37.830854
20
0.293961
30
0
11
0.824494331333884
21
-0.160581244268006
31
0
210
0
220
0
230
1
40
0.465414
41
2.45309910592946
42
2.70982189042647
0
ELLIPSE
5
102
100
AcDbEntity
8
1
62
256
6
ByLayer
370
18
48
1
60
0
100
AcDbEllipse
10
19.702595
20
0
30
0
11
10.8563115013287
21
3.24096679598598
31
0
210
0
220
0
230
1
40
0.438611
41
-2.68860057699325
42
-2.32374659744218
0
ELLIPSE
5
103
100
AcDbEntity
8
1
62
256
6
ByLayer
370
18
48
1
60
0
100
AcDbEllipse
10
19.499492
20
0
30
0
11
10.4931138218578
21
-5.25857819919706
31
0
210
0
220
0
230
1
40
0.224006
41
2.30818101367055
42
2.67076435135384
0
ELLIPSE
5
104
100
AcDbEntity
8
1
62
256
6
ByLayer
370
18
48
1
60
0
100
AcDbEllipse
10
19.926039
20
0
30
0
11
11.2833375873765
21
-4.24676247645557
31
0
210
0
220
0
230
1
40
0.344876
41
-2.42967977098208
42
-2.06157139073964
0
POINT
5
70
100
AcDbEntity
8
81
62
256
6
ByLayer
370
18
48
1
60
0
100
AcDbPoint
10
38
20
0
30
0
39
0
210
0
220
0
230
1
50
360
0
POINT
5
72
100
AcDbEntity
8
80
62
256
6
ByLayer
370
18
48
1
60
0
100
AcDbPoint
10
0
20
0
30
0
39
0
210
0
220
0
230
1
50
360
0
POINT
5
74
100
AcDbEntity
8
1
62
256
6
ByLayer
370
18
48
1
60
1
100
AcDbPoint
10
38
20
-6
30
0
39
0
210
0
220
0
230
1
50
360
0
POINT
5
76
100
AcDbEntity
8
1
62
256
6
ByLayer
370
18
48
1
60
1
100
AcDbPoint
10
14
20
-6
30
0
39
0
210
0
220
0
230
1
50
360
0
POINT
5
77
100
AcDbEntity
8
1
62
256
6
ByLayer
370
18
48
1
60
1
100
AcDbPoint
10
38
20
-6
30
0
39
0
210
0
220
0
230
1
50
360
0
POINT
5
78
100
AcDbEntity
8
1
62
256
6
ByLayer
370
18
48
1
60
1
100
AcDbPoint
10
1.997679
20
-5.76
30
0
39
0
210
0
220
0
230
1
50
360
0
SPLINE
5
105
100
AcDbEntity
8
1
62
256
6
ByLayer
370
18
48
1
60
0
100
AcDbSpline
70
4
71
3
72
10
73
6
40
0
40
0
40
0
40
0
40
0.650247017255284
40
0.650247017255284
40
1
40
1
40
1
40
1
41
1
10
37.9192340551356
20
0.511113493292299
30
0
41
1
10
37.9173629992824
20
0.522220418071726
30
0
41
1
10
37.9078262747412
20
0.53254279853428
30
0
41
1
10
37.8819901178367
20
0.547274171041153
30
0
41
1
10
37.8708499687167
20
0.552211190908309
30
0
41
1
10
37.857602896613
20
0.556932577342792
30
0
0
SPLINE
5
106
100
AcDbEntity
8
1
62
256
6
ByLayer
370
13
48
1
60
0
100
AcDbSpline
70
4
71
3
72
8
73
4
40
0
40
0
40
0
40
0
40
1
40
1
40
1
40
1
41
1
10
37.8976906432599
20
0.33365958460476
30
0
41
1
10
37.8720817503158
20
0.129160413748309
30
0
41
1
10
37.8464728573717
20
-0.0753387571081419
30
0
41
1
10
37.8208639644276
20
-0.279837927964564
30
0
0
SPLINE
5
107
100
AcDbEntity
8
1
62
256
6
ByLayer
370
18
48
1
60
0
100
AcDbSpline
70
4
71
3
72
12
73
8
40
0
40
0
40
0
40
0
40
0.500000000000002
40
0.500000000000002
40
0.750000000000001
40
0.750000000000001
40
1
40
1
40
1
40
1
41
1
10
13.5853365864887
20
5.20451672030654
30
0
41
1
10
13.6252265248648
20
5.22535096305566
30
0
41
1
10
13.664484624002
20
5.24835006255125
30
0
41
1
10
13.7223921917794
20
5.28620502816509
30
0
41
1
10
13.7415657088241
20
5.29941041170062
30
0
41
1
10
13.7793757237601
20
5.32683846016545
30
0
41
1
10
13.7980064436879
20
5.34105371360644
30
0
41
1
10
13.8163586137524
20
5.35577798516562
30
0
0
SPLINE
5
108
100
AcDbEntity
8
1
62
256
6
ByLayer
370
18
48
1
60
0
100
AcDbSpline
70
4
71
3
72
8
73
4
40
0
40
0
40
0
40
0
40
1
40
1
40
1
40
1
41
1
10
13.8163586137524
20
5.35577798516564
30
0
41
1
10
13.8774092969557
20
5.40476003116896
30
0
41
1
10
13.9386261889927
20
5.45345963598479
30
0
41
1
10
14.0000013447763
20
5.50189030081995
30
0
0
SPLINE
5
109
100
AcDbEntity
8
1
62
256
6
ByLayer
370
18
48
1
60
0
100
AcDbSpline
70
4
71
3
72
8
73
4
40
0
40
0
40
0
40
0
40
1
40
1
40
1
40
1
41
1
10
37.8976906432618
20
0.333659584615532
30
0
41
1
10
37.9057080786235
20
0.392397769623472
30
0
41
1
10
37.9128704825135
20
0.451558326524406
30
0
41
1
10
37.9192340551354
20
0.511113493291703
30
0
0
SPLINE
5
10A
100
AcDbEntity
8
1
62
256
6
ByLayer
370
18
48
1
60
0
100
AcDbSpline
70
4
71
3
72
13
73
9
40
0
40
0
40
0
40
0
40
0.332101791479855
40
0.664203582959709
40
0.664203582959709
40
0.996305374439563
40
0.996305374439563
40
1
40
1
40
1
40
1
41
1
10
37.918469770141
20
-2.4807296414659
30
0
41
1
10
37.9218295599539
20
-2.59362703613931
30
0
41
1
10
37.9132825594526
20
-2.81783065580115
30
0
41
1
10
37.8762995419789
20
-3.03907051224175
30
0
41
1
10
37.8252915137721
20
-3.25884860239995
30
0
41
1
10
37.7927763048068
20
-3.36800690092605
30
0
41
1
10
37.7525391909713
20
-3.47761246414058
30
0
41
1
10
37.7520955398489
20
-3.47881839683865
30
0
41
1
10
37.7516509540879
20
-3.4800243055825
30
0
0
SPLINE
5
10B
100
AcDbEntity
8
1
62
256
6
ByLayer
370
13
48
1
60
0
100
AcDbSpline
70
4
71
3
72
8
73
4
40
0
40
0
40
0
40
0
40
1
40
1
40
1
40
1
41
1
10
37.9184697701494
20
-2.48072964145118
30
0
41
1
10
37.8859345015741
20
-2.56905770165514
30
0
41
1
10
37.8533992329987
20
-2.65738576185913
30
0
41
1
10
37.8208639644234
20
-2.74571382206312
30
0
0
SPLINE
5
10C
100
AcDbEntity
8
1
62
256
6
ByLayer
370
18
48
1
60
0
100
AcDbSpline
70
4
71
3
72
8
73
4
40
0
40
0
40
0
40
0
40
1
40
1
40
1
40
1
41
1
10
33.672289308932
20
5.1647708366242
30
0
41
1
10
34.0463811184655
20
5.30573906873079
30
0
41
1
10
34.4198562730268
20
5.43008201054764
30
0
41
1
10
34.7940739710314
20
5.53690569351843
30
0
0
SPLINE
5
10D
100
AcDbEntity
8
1
62
256
6
ByLayer
370
18
48
1
60
0
100
AcDbSpline
70
4
71
3
72
20
73
16
40
0
40
0
40
0
40
0
40
0.250000000000004
40
0.250000000000004
40
0.500000000000008
40
0.500000000000008
40
0.625000000000002
40
0.625000000000002
40
0.687500000000007
40
0.687500000000007
40
0.750000000000012
40
0.750000000000012
40
0.875000000000006
40
0.875000000000006
40
1
40
1
40
1
40
1
41
1
10
34.928118642133
20
5.57080343111386
30
0
41
1
10
35.0677748078145
20
5.60779422125202
30
0
41
1
10
35.2066692771341
20
5.6349754102518
30
0
41
1
10
35.4841367016321
20
5.6692004509282
30
0
41
1
10
35.622699758999
20
5.67626760743465
30
0
41
1
10
35.8312420644662
20
5.66969532829148
30
0
41
1
10
35.9008738185696
20
5.66462398992789
30
0
41
1
10
36.0056429102187
20
5.65220615515372
30
0
41
1
10
36.040619768499
20
5.64726315708134
30
0
41
1
10
36.1107092268908
20
5.63566003862186
30
0
41
1
10
36.1457196306237
20
5.62901424411695
30
0
41
1
10
36.2502376178481
20
5.60651234593252
30
0
41
1
10
36.3194067559898
20
5.58807264179563
30
0
41
1
10
36.4567799886694
20
5.54358994150601
30
0
41
1
10
36.5249843332041
20
5.51755100426499
30
0
41
1
10
36.5927167463629
20
5.48718281050245
30
0
0
SPLINE
5
10E
100
AcDbEntity
8
1
62
256
6
ByLayer
370
18
48
1
60
0
100
AcDbSpline
70
4
71
3
72
8
73
4
40
0
40
0
40
0
40
0
40
1
40
1
40
1
40
1
41
1
10
34.8159623266804
20
5.54093566158693
30
0
41
1
10
34.8533555087532
20
5.55094765392016
30
0
41
1
10
34.890741423869
20
5.56090331084343
30
0
41
1
10
34.9281186421338
20
5.57080343111406
30
0
0
SPLINE
5
10F
100
AcDbEntity
8
1
62
256
6
ByLayer
370
18
48
1
60
0
100
AcDbSpline
70
4
71
3
72
8
73
4
40
0
40
0
40
0
40
0
40
1
40
1
40
1
40
1
41
1
10
34.8159623268444
20
5.54093566163081
30
0
41
1
10
34.8086481800059
20
5.53897730509763
30
0
41
1
10
34.80135107591
20
5.53762841270009
30
0
41
1
10
34.7940739710314
20
5.53690569351841
30
0
0
SPLINE
5
110
100
AcDbEntity
8
1
62
256
6
ByLayer
370
18
48
1
60
0
100
AcDbSpline
70
4
71
3
72
8
73
4
40
0
40
0
40
0
40
0
40
1
40
1
40
1
40
1
41
1
10
37.8160220977725
20
-2.94419809736445
30
0
41
1
10
37.8210528018761
20
-2.8754587456927
30
0
41
1
10
37.8227321887136
20
-2.80924795287555
30
0
41
1
10
37.820863964429
20
-2.74571382204016
30
0
0
SPLINE
5
111
100
AcDbEntity
8
1
62
256
6
ByLayer
370
18
48
1
60
0
100
AcDbSpline
70
4
71
3
72
24
73
20
40
0
40
0
40
0
40
0
40
0.125
40
0.25
40
0.25
40
0.375
40
0.375
40
0.406250000000003
40
0.406250000000003
40
0.437500000000007
40
0.500000000000009
40
0.500000000000009
40
0.625000000000006
40
0.625000000000006
40
0.750000000000004
40
0.750000000000004
40
0.875000000000002
40
0.875000000000002
40
1
40
1
40
1
40
1
41
1
10
37.9184697701413
20
2.89773835704267
30
0
41
1
10
37.9219232401183
20
3.02544406204382
30
0
41
1
10
37.9126467770086
20
3.27791740991651
30
0
41
1
10
37.8732652454045
20
3.52492524711659
30
0
41
1
10
37.8190211792286
20
3.76923482301976
30
0
41
1
10
37.7844712967171
20
3.89004110082848
30
0
41
1
10
37.7316121844506
20
4.03929306094915
30
0
41
1
10
37.72053346232
20
4.06910800787608
30
0
41
1
10
37.6974989910809
20
4.12827099152773
30
0
41
1
10
37.6616596930066
20
4.21625895234297
30
0
41
1
10
37.6220024953198
20
4.30200373457731
30
0
41
1
10
37.5376488149805
20
4.47053250456625
30
0
41
1
10
37.4747168327345
20
4.57895071801175
30
0
41
1
10
37.3351777483474
20
4.78775242970545
30
0
41
1
10
37.258541274318
20
4.88817978009229
30
0
41
1
10
37.0906515985638
20
5.08020040860669
30
0
41
1
10
37.001292239624
20
5.16962868831467
30
0
41
1
10
36.8118089525416
20
5.33539955361672
30
0
41
1
10
36.7116868570732
20
5.41174436705774
30
0
41
1
10
36.6059105062171
20
5.48121571858408
30
0
0
SPLINE
5
112
100
AcDbEntity
8
1
62
256
6
ByLayer
370
18
48
1
60
0
100
AcDbSpline
70
4
71
3
72
32
73
28
40
0
40
0
40
0
40
0
40
0.0198685666387322
40
0.0397835501465136
40
0.059743575379927
40
0.0797472547573323
40
0.0997932021933144
40
0.119880041635904
40
0.140006409181856
40
0.160170952644147
40
0.180372328941338
40
0.200609199241536
40
0.220880221805837
40
0.241184043918722
40
0.261519301038502
40
0.281884625369527
40
0.302278659243273
40
0.322700072295518
40
0.343147567381092
40
0.363619852015363
40
0.470351481658052
40
0.57969308753848
40
0.691442713427208
40
0.80541061649544
40
0.885843621820885
40
0.97031079401133
40
1
40
1
40
1
40
1
41
1
10
37.8160410168784
20
-2.94413492537083
30
0
41
1
10
37.8151944693567
20
-2.96035517205172
30
0
41
1
10
37.8134993966121
20
-2.99283355909151
30
0
41
1
10
37.8097674205356
20
-3.0416786016622
30
0
41
1
10
37.8051589471097
20
-3.09066728091852
30
0
41
1
10
37.7995863737986
20
-3.1397872505442
30
0
41
1
10
37.7930708723874
20
-3.18901809263238
30
0
41
1
10
37.7856046205407
20
-3.23834142084871
30
0
41
1
10
37.7771879039931
20
-3.28773816401954
30
0
41
1
10
37.7678192197901
20
-3.33718928884622
30
0
41
1
10
37.7574980151872
20
-3.38667559649107
30
0
41
1
10
37.7462240332516
20
-3.43617776755875
30
0
41
1
10
37.7339975708649
20
-3.48567634167858
30
0
41
1
10
37.7208194968059
20
-3.53515172192468
30
0
41
1
10
37.7066912319523
20
-3.58458419726628
30
0
41
1
10
37.6916146472316
20
-3.63395394350888
30
0
41
1
10
37.6755919149311
20
-3.68324114928126
30
0
41
1
10
37.6586255630067
20
-3.73242568274196
30
0
41
1
10
37.6407177901228
20
-3.78148839326704
30
0
41
1
10
37.5954127677146
20
-3.89909345489693
30
0
41
1
10
37.51187616744
20
-4.08499874325329
30
0
41
1
10
37.3713092319624
20
-4.3341158358804
30
0
41
1
10
37.2027806417817
20
-4.57736975482999
30
0
41
1
10
37.0268202936109
20
-4.78658947442094
30
0
41
1
10
36.8505863503706
20
-4.96482130873687
30
0
41
1
10
36.7186935711341
20
-5.08113953092129
30
0
41
1
10
36.6379801083353
20
-5.14576268801227
30
0
41
1
10
36.6167704442996
20
-5.16231700829283
30
0
0
SPLINE
5
113
100
AcDbEntity
8
1
62
256
6
ByLayer
370
18
48
1
60
0
100
AcDbSpline
70
4
71
3
72
8
73
4
40
0
40
0
40
0
40
0
40
1
40
1
40
1
40
1
41
1
10
37.4645613115451
20
-3.35881064828945
30
0
41
1
10
37.5817345030329
20
-3.22067328740539
30
0
41
1
10
37.698905441513
20
-3.08244432648067
30
0
41
1
10
37.8160744357016
20
-2.94413631691648
30
0
0
SPLINE
5
114
100
AcDbEntity
8
1
62
256
6
ByLayer
370
18
48
1
60
0
100
AcDbSpline
70
4
71
3
72
8
73
4
40
0
40
0
40
0
40
0
40
1
40
1
40
1
40
1
41
1
10
37.2305320644076
20
-3.78917072031189
30
0
41
1
10
37.2280971817722
20
-3.91017240035515
30
0
41
1
10
37.2235031574333
20
-4.03265164863976
30
0
41
1
10
37.2171453725171
20
-4.15633789348703
30
0
0
SPLINE
5
115
100
AcDbEntity
8
1
62
256
6
ByLayer
370
18
48
1
60
0
100
AcDbSpline
70
4
71
3
72
8
73
4
40
0
40
0
40
0
40
0
40
1
40
1
40
1
40
1
41
1
10
36.592716746363
20
5.48718281050247
30
0
41
1
10
36.5971203436579
20
5.48520844167584
30
0
41
1
10
36.6015182744631
20
5.48321940731407
30
0
41
1
10
36.6059105062171
20
5.48121571858425
30
0
0
SPLINE
5
116
100
AcDbEntity
8
1
62
256
6
ByLayer
370
13
48
1
60
0
100
AcDbSpline
70
4
71
3
72
9
73
5
40
0
40
0
40
0
40
0
40
0.691781945706058
40
1
40
1
40
1
40
1
41
1
10
36.592716746363
20
5.48718281050248
30
0
41
1
10
36.061811164242
20
5.41792664953042
30
0
41
1
10
35.294364737783
20
5.2669215840713
30
0
41
1
10
34.526918311324
20
5.04817658658868
30
0
41
1
10
34.2903774669859
20
4.97455279449255
30
0
0
SPLINE
5
117
100
AcDbEntity
8
1
62
256
6
ByLayer
370
18
48
1
60
0
100
AcDbSpline
70
4
71
3
72
25
73
21
40
0
40
0
40
0
40
0
40
0.166295981435515
40
0.166295981435515
40
0.249443972153276
40
0.249443972153276
40
0.332591962871037
40
0.332591962871037
40
0.498887944306557
40
0.498887944306557
40
0.665183925742077
40
0.665183925742077
40
0.748331916459842
40
0.748331916459842
40
0.831479907177607
40
0.914627897895372
40
0.914627897895372
40
0.997775888613137
40
0.997775888613137
40
1
40
1
40
1
40
1
41
1
10
36.6059105062168
20
5.48121571858411
30
0
41
1
10
36.6288272375955
20
5.41732932978076
30
0
41
1
10
36.6476276201851
20
5.35253082396443
30
0
41
1
10
36.6685284361134
20
5.25371555570334
30
0
41
1
10
36.6742737896802
20
5.2205064492473
30
0
41
1
10
36.6830567380894
20
5.15348824033717
30
0
41
1
10
36.6860974110921
20
5.1196221668022
30
0
41
1
10
36.6906388763655
20
5.01737172437237
30
0
41
1
10
36.6875089169648
20
4.94997563360434
30
0
41
1
10
36.6679586590515
20
4.8168472707932
30
0
41
1
10
36.6515397126398
20
4.75111482948046
30
0
41
1
10
36.6159104871276
20
4.65389335937095
30
0
41
1
10
36.6024083528766
20
4.6223012988219
30
0
41
1
10
36.5724119467072
20
4.56082150609268
30
0
41
1
10
36.5394013711728
20
4.50098704898446
30
0
41
1
10
36.5007003429062
20
4.44425882229956
30
0
41
1
10
36.4593033847538
20
4.38900221480259
30
0
41
1
10
36.4371806270334
20
4.36204106029786
30
0
41
1
10
36.4135951656178
20
4.33554074219171
30
0
41
1
10
36.4129800571249
20
4.33485108877207
30
0
41
1
10
36.4123642897488
20
4.33416216531157
30
0
0
SPLINE
5
118
100
AcDbEntity
8
1
62
256
6
ByLayer
370
13
48
1
60
0
100
AcDbSpline
70
4
71
3
72
8
73
4
40
0
40
0
40
0
40
0
40
1
40
1
40
1
40
1
41
1
10
16.3826639818195
20
-5.22469825410664
30
0
41
1
10
15.5884426545464
20
-5.29376872891243
30
0
41
1
10
14.7942213272732
20
-5.28769560605517
30
0
41
1
10
13.9999999999999
20
-5.20462846609564
30
0
0
SPLINE
5
119
100
AcDbEntity
8
1
62
256
6
ByLayer
370
13
48
1
60
0
100
AcDbSpline
70
4
71
3
72
9
73
5
40
0
40
0
40
0
40
0
40
0.175417401231735
40
1
40
1
40
1
40
1
41
1
10
17.6382043527009
20
-5.11116627190702
30
0
41
1
10
17.4254695684673
20
-5.15670495984847
30
0
41
1
10
16.2127347842337
20
-5.38634162993134
30
0
41
1
10
15.0000000000001
20
-5.43930407783131
30
0
41
1
10
14.0000000000001
20
-5.3575154877264
30
0
0
SPLINE
5
11A
100
AcDbEntity
8
1
62
256
6
ByLayer
370
18
48
1
60
0
100
AcDbSpline
70
4
71
3
72
13
73
9
40
0
40
0
40
0
40
0
40
0.0383178080686534
40
0.275472870982485
40
0.512627933896317
40
0.749782996810148
40
0.98693805972398
40
1
40
1
40
1
40
1
41
1
10
13.921579312699
20
-5.93305421097534
30
0
41
1
10
13.9399234336144
20
-5.93190484798495
30
0
41
1
10
14.071796848549
20
-5.92331398319811
30
0
41
1
10
14.3171278737479
20
-5.90294445450724
30
0
41
1
10
14.6574454024083
20
-5.86435070293754
30
0
41
1
10
14.9975882135498
20
-5.81546060877369
30
0
41
1
10
15.230481099539
20
-5.77495132068083
30
0
41
1
10
15.3500172071409
20
-5.75228200252258
30
0
41
1
10
15.3562571998043
20
-5.75109351246243
30
0
0
SPLINE
5
11B
100
AcDbEntity
8
1
62
256
6
ByLayer
370
18
48
1
60
0
100
AcDbSpline
70
4
71
3
72
16
73
12
40
0
40
0
40
0
40
0
40
0.329871049586631
40
0.329871049586631
40
0.413637168388303
40
0.413637168388303
40
0.497403287189973
40
0.497403287189973
40
0.664935524793316
40
0.664935524793316
40
1
40
1
40
1
40
1
41
1
10
18.0646152581607
20
-5.26539868139434
30
0
41
1
10
17.6179534383198
20
-5.39585812153715
30
0
41
1
10
17.1718218939773
20
-5.50223461686818
30
0
41
1
10
16.6102094522549
20
-5.60407545525516
30
0
41
1
10
16.496348174653
20
-5.62307966758857
30
0
41
1
10
16.2690220703316
20
-5.65766504091286
30
0
41
1
10
16.1554739735421
20
-5.67326052679832
30
0
41
1
10
15.8150444187791
20
-5.71501454275065
30
0
41
1
10
15.5883763499907
20
-5.7361477955333
30
0
41
1
10
14.9084358456628
20
-5.77928512092254
30
0
41
1
10
14.4552376279311
20
-5.78093121532075
30
0
41
1
10
14.0000000000001
20
-5.7553159598379
30
0
0
SPLINE
5
11C
100
AcDbEntity
8
1
62
256
6
ByLayer
370
18
48
1
60
0
100
AcDbSpline
70
4
71
3
72
8
73
4
40
0
40
0
40
0
40
0
40
1
40
1
40
1
40
1
41
1
10
13.8163586137524
20
-5.89118398312567
30
0
41
1
10
13.8493095008881
20
-5.90685576658069
30
0
41
1
10
13.8845078143734
20
-5.9208383275483
30
0
41
1
10
13.9215793126991
20
-5.93305421097531
30
0
0
SPLINE
5
11D
100
AcDbEntity
8
1
62
256
6
ByLayer
370
18
48
1
60
0
100
AcDbSpline
70
4
71
3
72
8
73
4
40
0
40
0
40
0
40
0
40
1
40
1
40
1
40
1
41
1
10
37.2167995421207
20
-3.77653412208264
30
0
41
1
10
37.2213788901591
20
-3.78074356435331
30
0
41
1
10
37.2259563798533
20
-3.78495579032881
30
0
41
1
10
37.2305320644076
20
-3.78917072031186
30
0
0
SPLINE
5
11E
100
AcDbEntity
8
1
62
256
6
ByLayer
370
18
48
1
60
0
100
AcDbSpline
70
4
71
3
72
8
73
4
40
0
40
0
40
0
40
0
40
1
40
1
40
1
40
1
41
1
10
37.2167995421121
20
-3.77653412208011
30
0
41
1
10
37.3008302331188
20
-3.63853445123723
30
0
41
1
10
37.3833703234144
20
-3.49925272602624
30
0
41
1
10
37.4645613115464
20
-3.3588106482749
30
0
0
SPLINE
5
11F
100
AcDbEntity
8
1
62
256
6
ByLayer
370
18
48
1
60
0
100
AcDbSpline
70
4
71
3
72
9
73
5
40
0
40
0
40
0
40
0
40
0.157638830120647
40
1
40
1
40
1
40
1
41
1
10
17.5614177235041
20
-5.07799386267865
30
0
41
1
10
17.374278482336
20
-5.10868160862034
30
0
41
1
10
16.187139241168
20
-5.27775333087768
30
0
41
1
10
15
20
-5.28103362889198
30
0
41
1
10
14
20
-5.16099341983275
30
0
0
SPLINE
5
120
100
AcDbEntity
8
1
62
256
6
ByLayer
370
18
48
1
60
0
100
AcDbSpline
70
4
71
3
72
8
73
4
40
0
40
0
40
0
40
0
40
1
40
1
40
1
40
1
41
1
10
14.0000000000001
20
-5.75531595983901
30
0
41
1
10
13.8334235211079
20
-5.74880527070201
30
0
41
1
10
13.6677046283067
20
-5.73945416832305
30
0
41
1
10
13.5029316594251
20
-5.72697006873778
30
0
0
SPLINE
5
121
100
AcDbEntity
8
1
62
256
6
ByLayer
370
18
48
1
60
0
100
AcDbSpline
70
4
71
3
72
10
73
6
40
0
40
0
40
0
40
0
40
0.5
40
0.5
40
1
40
1
40
1
40
1
41
1
10
13.5029316594228
20
-5.72697006874176
30
0
41
1
10
13.4730499254969
20
-5.71831778315695
30
0
41
1
10
13.4424118535257
20
-5.71083131975303
30
0
41
1
10
13.3801528244038
20
-5.69861125207672
30
0
41
1
10
13.3485302770446
20
-5.69386671732195
30
0
41
1
10
13.3163586137524
20
-5.69064300898234
30
0
0
SPLINE
5
122
100
AcDbEntity
8
1
62
256
6
ByLayer
370
18
48
1
60
0
100
AcDbSpline
70
4
71
3
72
40
73
36
40
0
40
0
40
0
40
0
40
0.0625000000000103
40
0.0625000000000103
40
0.0937500000000098
40
0.0937500000000098
40
0.125000000000009
40
0.125000000000009
40
0.187500000000015
40
0.187500000000015
40
0.250000000000021
40
0.250000000000021
40
0.312500000000026
40
0.312500000000026
40
0.375000000000032
40
0.375000000000032
40
0.437500000000038
40
0.437500000000038
40
0.468750000000036
40
0.468750000000036
40
0.500000000000034
40
0.500000000000034
40
0.62500000000005
40
0.62500000000005
40
0.656250000000046
40
0.656250000000046
40
0.687500000000042
40
0.750000000000034
40
0.812500000000025
40
0.812500000000025
40
0.843750000000021
40
0.843750000000021
40
0.875000000000017
40
0.875000000000017
40
1
40
1
40
1
40
1
41
1
10
37.1133029747762
20
0.600388682031706
30
0
41
1
10
37.0955104101089
20
0.588266692424099
30
0
41
1
10
37.0807182344463
20
0.573955625138098
30
0
41
1
10
37.0623051148019
20
0.550202435007861
30
0
41
1
10
37.0568016297864
20
0.5418981029554
30
0
41
1
10
37.0469906607045
20
0.524632959592651
30
0
41
1
10
37.0426798685508
20
0.515648252464786
30
0
41
1
10
37.031640378177
20
0.488367542618732
30
0
41
1
10
37.0266850821693
20
0.469600387624666
30
0
41
1
10
37.0207712356367
20
0.431509987033536
30
0
41
1
10
37.0198199124412
20
0.412181935856893
30
0
41
1
10
37.0215401570885
20
0.37336856683811
30
0
41
1
10
37.0242006062769
20
0.354201439815739
30
0
41
1
10
37.0326572690796
20
0.316698039936398
30
0
41
1
10
37.0384582613462
20
0.298337080531184
30
0
41
1
10
37.0530159941679
20
0.262556056021879
30
0
41
1
10
37.0617740430471
20
0.245135758492893
30
0
41
1
10
37.0771348989422
20
0.219807130633029
30
0
41
1
10
37.0826342218342
20
0.211492130935994
30
0
41
1
10
37.0942554597017
20
0.195318867366097
30
0
41
1
10
37.1003905663753
20
0.187437073403316
30
0
41
1
10
37.1326662043251
20
0.149039720953169
30
0
41
1
10
37.1635422259167
20
0.121586024352411
30
0
41
1
10
37.2088117155208
20
0.0909260274256951
30
0
41
1
10
37.218228836196
20
0.0849601312691277
30
0
41
1
10
37.2376335666514
20
0.0734455000722676
30
0
41
1
10
37.2675287984065
20
0.0568319221007698
30
0
41
1
10
37.3212553321978
20
0.0321218337840037
30
0
41
1
10
37.3683918601434
20
0.0147982678518588
30
0
41
1
10
37.4053203582175
20
0.0024079060177371
30
0
41
1
10
37.417892707213
20
-0.0016222863738165
30
0
41
1
10
37.4435674637143
20
-0.009541747326665
30
0
41
1
10
37.4566797413913
20
-0.0134331620792807
30
0
41
1
10
37.5229015435346
20
-0.0325103160094784
30
0
41
1
10
37.5784940459115
20
-0.0467019032642497
30
0
41
1
10
37.6362111735992
20
-0.0621256853301588
30
0
0
SPLINE
5
123
100
AcDbEntity
8
1
62
256
6
ByLayer
370
18
48
1
60
0
100
AcDbSpline
70
4
71
3
72
14
73
10
40
0
40
0
40
0
40
0
40
0.25
40
0.25
40
0.5
40
0.5
40
0.75
40
0.75
40
1
40
1
40
1
40
1
41
1
10
35.5542293621356
20
0.726839191568644
30
0
41
1
10
35.5403034440169
20
0.742582226681975
30
0
41
1
10
35.5272954848507
20
0.759039129691189
30
0
41
1
10
35.5028790500575
20
0.793602749823322
30
0
41
1
10
35.4914447142954
20
0.811759802962428
30
0
41
1
10
35.4701172002449
20
0.849635757438705
30
0
41
1
10
35.4601989698135
20
0.869394662265819
30
0
41
1
10
35.441703153126
20
0.910382739150492
30
0
41
1
10
35.4331505677843
20
0.931546577017031
30
0
41
1
10
35.4251203616045
20
0.953394793399838
30
0
0
SPLINE
5
124
100
AcDbEntity
8
1
62
256
6
ByLayer
370
13
48
1
60
0
100
AcDbSpline
70
4
71
3
72
8
73
4
40
0
40
0
40
0
40
0
40
1
40
1
40
1
40
1
41
1
10
36.520547409458
20
4.00604453865398
30
0
41
1
10
36.4262426006954
20
4.0431137648435
30
0
41
1
10
36.3319377919328
20
4.07948426360531
30
0
41
1
10
36.2376329831702
20
4.11513666272967
30
0
0
SPLINE
5
125
100
AcDbEntity
8
1
62
256
6
ByLayer
370
18
48
1
60
0
100
AcDbSpline
70
4
71
3
72
8
73
4
40
0
40
0
40
0
40
0
40
1
40
1
40
1
40
1
41
1
10
37.2327695715579
20
-0.447283860707358
30
0
41
1
10
37.2320960870446
20
-0.517064103730064
30
0
41
1
10
37.2296577064309
20
-0.582889261509791
30
0
41
1
10
37.2256994222567
20
-0.645308355815729
30
0
0
SPLINE
5
126
100
AcDbEntity
8
1
62
256
6
ByLayer
370
18
48
1
60
0
100
AcDbSpline
70
4
71
3
72
16
73
12
40
0
40
0
40
0
40
0
40
0.250000000000011
40
0.250000000000011
40
0.500000000000022
40
0.500000000000022
40
0.750000000000032
40
0.750000000000032
40
0.875000000000016
40
0.875000000000016
40
1
40
1
40
1
40
1
41
1
10
36.3928043243429
20
4.00816395572676
30
0
41
1
10
36.3337060634482
20
4.04511333002574
30
0
41
1
10
36.2739544736399
20
4.0820160591997
30
0
41
1
10
36.1532099444853
20
4.15555795075735
30
0
41
1
10
36.0922165097966
20
4.19219714899003
30
0
41
1
10
35.9690117760523
20
4.26504443653164
30
0
41
1
10
35.9068044031544
20
4.3012559192791
30
0
41
1
10
35.8125553189503
20
4.35510888099407
30
0
41
1
10
35.780931019196
20
4.37301103448766
30
0
41
1
10
35.7176470333636
20
4.40847427797556
30
0
41
1
10
35.6859996057671
20
4.42602900455407
30
0
41
1
10
35.6543380817373
20
4.44339924972135
30
0
0
SPLINE
5
127
100
AcDbEntity
8
1
62
256
6
ByLayer
370
18
48
1
60
0
100
AcDbSpline
70
4
71
3
72
18
73
14
40
0
40
0
40
0
40
0
40
0.0796340549233722
40
0.0796340549233722
40
0.263707243938701
40
0.263707243938701
40
0.447780432954032
40
0.447780432954032
40
0.539817027461698
40
0.539817027461698
40
0.631853621969364
40
0.631853621969364
40
1
40
1
40
1
40
1
41
1
10
37.1150367073467
20
3.72654764435336
30
0
41
1
10
37.1078417971893
20
3.74052675558323
30
0
41
1
10
37.1003716675471
20
3.75451552882103
30
0
41
1
10
37.0747514260452
20
3.80082651257948
30
0
41
1
10
37.0554391342444
20
3.83312674112307
30
0
41
1
10
37.0139629493108
20
3.89777351174314
30
0
41
1
10
36.9917945469384
20
3.93012041902387
30
0
41
1
10
36.9563466871148
20
3.97875331660546
30
0
41
1
10
36.944152463861
20
3.99499862568163
30
0
41
1
10
36.9191085659285
20
4.02743114782146
30
0
41
1
10
36.9062556182257
20
4.04362390323982
30
0
41
1
10
36.8403472983712
20
4.12449843820593
30
0
41
1
10
36.7823882707915
20
4.18891626638734
30
0
41
1
10
36.719131918307
20
4.25337971263647
30
0
0
SPLINE
5
128
100
AcDbEntity
8
1
62
256
6
ByLayer
370
18
48
1
60
0
100
AcDbSpline
70
4
71
3
72
24
73
20
40
0
40
0
40
0
40
0
40
0.11638073102151
40
0.11638073102151
40
0.190015670103057
40
0.190015670103057
40
0.263650609184605
40
0.410920487347683
40
0.410920487347683
40
0.484555426429222
40
0.484555426429222
40
0.558190365510762
40
0.558190365510762
40
0.70546024367384
40
0.852730121836918
40
0.852730121836918
40
0.926365060918459
40
0.926365060918459
40
1
40
1
40
1
40
1
41
1
10
36.6589870981331
20
4.26954700721294
30
0
41
1
10
36.6463231581759
20
4.2710894823642
30
0
41
1
10
36.6340023225324
20
4.27130485442171
30
0
41
1
10
36.6146402114687
20
4.26937755559266
30
0
41
1
10
36.607321930249
20
4.26806118663222
30
0
41
1
10
36.5932854655433
20
4.26428761411194
30
0
41
1
10
36.5730792219109
20
4.25691310215666
30
0
41
1
10
36.5557380346775
20
4.24433947891944
30
0
41
1
10
36.5407970216475
20
4.22815678857509
30
0
41
1
10
36.5362054482614
20
4.22214021401126
30
0
41
1
10
36.5279701104937
20
4.20896377976945
30
0
41
1
10
36.5243426860655
20
4.20183816176137
30
0
41
1
10
36.5149692765701
20
4.1789169056342
30
0
41
1
10
36.5065027771846
20
4.14424060380469
30
0
41
1
10
36.5063568146975
20
4.10195881496068
30
0
41
1
10
36.5094039020074
20
4.06758407311287
30
0
41
1
10
36.5109441302832
20
4.05571415822089
30
0
41
1
10
36.5150133565027
20
4.03136191917594
30
0
41
1
10
36.5175441449776
20
4.01885635123739
30
0
41
1
10
36.5205474094581
20
4.00604453865395
30
0
0
SPLINE
5
129
100
AcDbEntity
8
1
62
256
6
ByLayer
370
18
48
1
60
0
100
AcDbSpline
70
4
71
3
72
25
73
21
40
0
40
0
40
0
40
0
40
0.125000000000001
40
0.125000000000001
40
0.187500000000001
40
0.187500000000001
40
0.250000000000001
40
0.312500000000001
40
0.312500000000001
40
0.375000000000001
40
0.375000000000001
40
0.5
40
0.5
40
0.625
40
0.625
40
0.75
40
0.75
40
0.875
40
0.875
40
1
40
1
40
1
40
1
41
1
10
36.520547409458
20
4.00604453865398
30
0
41
1
10
36.5221319914675
20
3.99928482597488
30
0
41
1
10
36.5230723925692
20
3.99296214540857
30
0
41
1
10
36.5231762240943
20
3.98435230910428
30
0
41
1
10
36.5229878419785
20
3.98161460696588
30
0
41
1
10
36.5220935593687
20
3.97657043218243
30
0
41
1
10
36.5206903511953
20
3.97196957941631
30
0
41
1
10
36.5181530118711
20
3.96834635024953
30
0
41
1
10
36.5149683801004
20
3.96527422754903
30
0
41
1
10
36.5130277983421
20
3.96400985117719
30
0
41
1
10
36.5063677667728
20
3.96125574422425
30
0
41
1
10
36.5007901746414
20
3.96073526670213
30
0
41
1
10
36.4873929322598
20
3.96220343790105
30
0
41
1
10
36.479923024074
20
3.96414420114488
30
0
41
1
10
36.4637838015813
20
3.96983480589609
30
0
41
1
10
36.4553319244856
20
3.97350893911769
30
0
41
1
10
36.4380323599017
20
3.98191719931611
30
0
41
1
10
36.4291232584426
20
3.98668537784499
30
0
41
1
10
36.4110603767338
20
3.99696249925006
30
0
41
1
10
36.4019610578067
20
4.00243909208567
30
0
41
1
10
36.3928043243429
20
4.0081639557267
30
0
0
SPLINE
5
12A
100
AcDbEntity
8
1
62
256
6
ByLayer
370
18
48
1
60
0
100
AcDbSpline
70
4
71
3
72
8
73
4
40
0
40
0
40
0
40
0
40
1
40
1
40
1
40
1
41
1
10
34.8910876482088
20
3.91904354691323
30
0
41
1
10
34.9017306332221
20
3.91384942626988
30
0
41
1
10
34.912352999043
20
3.90862739949347
30
0
41
1
10
34.9229531787934
20
3.90337614639995
30
0
0
SPLINE
5
12B
100
AcDbEntity
8
1
62
256
6
ByLayer
370
18
48
1
60
0
100
AcDbSpline
70
4
71
3
72
27
73
23
40
0
40
0
40
0
40
0
40
0.0640902390565898
40
0.0640902390565898
40
0.12818047811318
40
0.12818047811318
40
0.256360956226354
40
0.256360956226354
40
0.384541434339527
40
0.384541434339527
40
0.512721912452701
40
0.512721912452701
40
0.640902390565875
40
0.640902390565875
40
0.769082868679049
40
0.769082868679049
40
0.897263346792223
40
0.897263346792223
40
0.929308466320516
40
0.929308466320516
40
0.961353585848808
40
1
40
1
40
1
40
1
41
1
10
35.6543380817374
20
4.44339924972132
30
0
41
1
10
35.5409452563053
20
4.49128852524879
30
0
41
1
10
35.4276714108995
20
4.53799344721733
30
0
41
1
10
35.2014788443366
20
4.62893418738491
30
0
41
1
10
35.0885295111964
20
4.67318366573576
30
0
41
1
10
34.7500318927371
20
4.80222674591764
30
0
41
1
10
34.5248423656203
20
4.88331572174403
30
0
41
1
10
34.0751621715262
20
5.03541777989722
30
0
41
1
10
33.8506646843538
20
5.10644059111786
30
0
41
1
10
33.4020238321475
20
5.2382845023071
30
0
41
1
10
33.1778962694385
20
5.299105670329
30
0
41
1
10
32.7295085056558
20
5.41019807312986
30
0
41
1
10
32.5052446761079
20
5.460467960464
30
0
41
1
10
32.05603257614
20
5.55010647897805
30
0
41
1
10
31.8310650397121
20
5.58946970944828
30
0
41
1
10
31.3800509308991
20
5.65692881855497
30
0
41
1
10
31.1540128725242
20
5.68504547586375
30
0
41
1
10
30.8705762729432
20
5.71319355665389
30
0
41
1
10
30.8138292846362
20
5.71847335805126
30
0
41
1
10
30.7004207499647
20
5.72831076252726
30
0
41
1
10
30.5753825701916
20
5.73836945238267
30
0
41
1
10
30.4504483222856
20
5.74667868559001
30
0
41
1
10
30.382174102059
20
5.7506970455126
30
0
0
SPLINE
5
12C
100
AcDbEntity
8
1
62
256
6
ByLayer
370
18
48
1
60
0
100
AcDbSpline
70
4
71
3
72
20
73
16
40
0
40
0
40
0
40
0
40
0.0625000000000068
40
0.0625000000000068
40
0.125000000000014
40
0.125000000000014
40
0.250000000000013
40
0.250000000000013
40
0.375000000000012
40
0.375000000000012
40
0.500000000000012
40
0.500000000000012
40
0.750000000000006
40
0.750000000000006
40
1
40
1
40
1
40
1
41
1
10
35.4920659314105
20
3.96554169191509
30
0
41
1
10
35.5020666527486
20
3.97318353248184
30
0
41
1
10
35.5106368572196
20
3.98133274992205
30
0
41
1
10
35.5260643492277
20
3.99824767330006
30
0
41
1
10
35.5329029226298
20
4.0070197332108
30
0
41
1
10
35.5516444526467
20
4.03398066514714
30
0
41
1
10
35.5618111398677
20
4.05280091219524
30
0
41
1
10
35.5795936734561
20
4.09138261729598
30
0
41
1
10
35.5871683179566
20
4.1111583303589
30
0
41
1
10
35.6006372012917
20
4.15133221979812
30
0
41
1
10
35.6065148104881
20
4.17172633180289
30
0
41
1
10
35.622303870359
20
4.23326388462189
30
0
41
1
10
35.6304561193619
20
4.27487595971471
30
0
41
1
10
35.6441630801979
20
4.35872190091084
30
0
41
1
10
35.6496768001468
20
4.40096565861188
30
0
41
1
10
35.6543380817373
20
4.44339924972132
30
0
0
SPLINE
5
12D
100
AcDbEntity
8
1
62
256
6
ByLayer
370
18
48
1
60
0
100
AcDbSpline
70
4
71
3
72
16
73
12
40
0
40
0
40
0
40
0
40
0.0578822365118376
40
0.157971402926357
40
0.358149735755396
40
0.458238902169916
40
0.558328068584435
40
0.758506401413474
40
0.858595567827994
40
0.958684734242513
40
1
40
1
40
1
40
1
41
1
10
28.554491310926
20
5.94636880914737
30
0
41
1
10
28.6858758076567
20
5.94164347773221
30
0
41
1
10
29.0444327550119
20
5.92323752078852
30
0
41
1
10
29.85733578921
20
5.84722789440278
30
0
41
1
10
30.7670853173894
20
5.69059715436987
30
0
41
1
10
31.6799832534453
20
5.46442766596562
30
0
41
1
10
32.5955643437708
20
5.19232738624189
30
0
41
1
10
33.5162494095602
20
4.85329311240852
30
0
41
1
10
34.4443202765183
20
4.45121832431357
30
0
41
1
10
35.0074790248383
20
4.18423760632572
30
0
41
1
10
35.3388184360988
20
4.01826283154381
30
0
41
1
10
35.4357694039096
20
3.96896251068537
30
0
0
SPLINE
5
12E
100
AcDbEntity
8
1
62
256
6
ByLayer
370
18
48
1
60
0
100
AcDbSpline
70
4
71
3
72
9
73
5
40
0
40
0
40
0
40
0
40
0.961647422933984
40
1
40
1
40
1
40
1
41
1
10
24.1227002922557
20
3.47999244614764
30
0
41
1
10
24.2484668615038
20
3.48004655356226
30
0
41
1
10
24.3792492732784
20
3.47897071251217
30
0
41
1
10
24.510031685053
20
3.47671362753425
30
0
41
1
10
24.5150475275794
20
3.47662532568478
30
0
0
SPLINE
5
12F
100
AcDbEntity
8
1
62
256
6
ByLayer
370
13
48
1
60
0
100
AcDbSpline
70
4
71
3
72
13
73
9
40
0
40
0
40
0
40
0
40
0.0476462936277172
40
0.26998151525172
40
0.492316736875722
40
0.714651958499724
40
0.936987180123726
40
1
40
1
40
1
40
1
41
1
10
28.6785509739773
20
3.01919592302218
30
0
41
1
10
28.7857006493182
20
2.9979546088656
30
0
41
1
10
29.3928503246591
20
2.87367706781944
30
0
41
1
10
30.5000000000001
20
2.60721869834973
30
0
41
1
10
32
20
2.16937076525414
30
0
41
1
10
33.5
20
1.67062151998329
30
0
41
1
10
34.6417067872018
20
1.25252838538682
30
0
41
1
10
35.2834135744036
20
1.00782932846497
30
0
41
1
10
35.4251203616054
20
0.953394793399497
30
0
0
SPLINE
5
130
100
AcDbEntity
8
1
62
256
6
ByLayer
370
18
48
1
60
0
100
AcDbSpline
70
4
71
3
72
39
73
35
40
0
40
0
40
0
40
0
40
0.125000000000002
40
0.125000000000002
40
0.187500000000003
40
0.187500000000003
40
0.218750000000003
40
0.218750000000003
40
0.250000000000003
40
0.250000000000003
40
0.375000000000002
40
0.375000000000002
40
0.406250000000002
40
0.406250000000002
40
0.437500000000002
40
0.437500000000002
40
0.500000000000002
40
0.562500000000001
40
0.562500000000001
40
0.625000000000001
40
0.625000000000001
40
0.75
40
0.75
40
0.78125
40
0.78125
40
0.8125
40
0.8125
40
0.875
40
0.875
40
0.9375
40
0.9375
40
0.96875
40
0.96875
40
1
40
1
40
1
40
1
41
1
10
35.4251203616054
20
0.953394793399468
30
0
41
1
10
35.404665392371
20
1.00904715499934
30
0
41
1
10
35.3906150665813
20
1.06612080482702
30
0
41
1
10
35.3783071973836
20
1.15408747535179
30
0
41
1
10
35.3756751361246
20
1.18380414375767
30
0
41
1
10
35.3739125077665
20
1.229017947931
30
0
41
1
10
35.3736927430387
20
1.24419677619679
30
0
41
1
10
35.3739721027834
20
1.27440473013729
30
0
41
1
10
35.374468683855
20
1.28947999823623
30
0
41
1
10
35.3786642183771
20
1.36472481036813
30
0
41
1
10
35.3874408379037
20
1.4245064160292
30
0
41
1
10
35.4046559486276
20
1.49883686454797
30
0
41
1
10
35.4084275749418
20
1.51372634238066
30
0
41
1
10
35.4165311892742
20
1.5432058559162
30
0
41
1
10
35.4208605995109
20
1.55779585149466
30
0
41
1
10
35.4346491437172
20
1.60112997485794
30
0
41
1
10
35.4551615158791
20
1.65774933840942
30
0
41
1
10
35.4797512290433
20
1.71211977147627
30
0
41
1
10
35.5064045153845
20
1.76535057383208
30
0
41
1
10
35.5208409384525
20
1.79150689658769
30
0
41
1
10
35.5664270318979
20
1.86653886026164
30
0
41
1
10
35.5999712506639
20
1.9125210529148
30
0
41
1
10
35.6466122610118
20
1.96456739949235
30
0
41
1
10
35.6561819821669
20
1.97470008146667
30
0
41
1
10
35.6758522706593
20
1.99437924626633
30
0
41
1
10
35.6859826403833
20
2.00395002575061
30
0
41
1
10
35.7168908642724
20
2.03139289849426
30
0
41
1
10
35.7382534787958
20
2.04809061856125
30
0
41
1
10
35.7828599565652
20
2.07799316906613
30
0
41
1
10
35.8060992447454
20
2.09120309443688
30
0
41
1
10
35.8428334164987
20
2.10793241130219
30
0
41
1
10
35.855362038721
20
2.11297217143519
30
0
41
1
10
35.8808141675681
20
2.12180139247474
30
0
41
1
10
35.893771145548
20
2.12560686367519
30
0
41
1
10
35.9069955316947
20
2.1287564037392
30
0
0
SPLINE
5
131
100
AcDbEntity
8
1
62
256
6
ByLayer
370
18
48
1
60
0
100
AcDbSpline
70
4
71
3
72
35
73
31
40
0
40
0
40
0
40
0
40
0.124999999999984
40
0.124999999999984
40
0.187499999999977
40
0.187499999999977
40
0.218749999999973
40
0.218749999999973
40
0.24999999999997
40
0.24999999999997
40
0.374999999999955
40
0.374999999999955
40
0.437499999999945
40
0.437499999999945
40
0.468749999999943
40
0.468749999999943
40
0.499999999999941
40
0.499999999999941
40
0.624999999999942
40
0.624999999999942
40
0.656249999999942
40
0.656249999999942
40
0.687499999999942
40
0.749999999999957
40
0.749999999999957
40
0.874999999999969
40
0.874999999999969
40
0.937499999999985
40
0.937499999999985
40
1
40
1
40
1
40
1
41
1
10
36.4792644887773
20
2.85365926985497
30
0
41
1
10
36.5050673202418
20
2.81598091471184
30
0
41
1
10
36.5262332393719
20
2.77806258448572
30
0
41
1
10
36.5495392052827
20
2.72074814119694
30
0
41
1
10
36.555893840702
20
2.70157014669115
30
0
41
1
10
36.5630352153066
20
2.67267943480627
30
0
41
1
10
36.5650165446427
20
2.66302854130899
30
0
41
1
10
36.5681261768073
20
2.64368260744956
30
0
41
1
10
36.5692444417068
20
2.63404161936319
30
0
41
1
10
36.5725767533921
20
2.58619036452637
30
0
41
1
10
36.5680674043712
20
2.54884727707875
30
0
41
1
10
36.5494130253686
20
2.49438691090225
30
0
41
1
10
36.5412088083194
20
2.47649307022746
30
0
41
1
10
36.5257396969461
20
2.45006573733076
30
0
41
1
10
36.5200578839506
20
2.44133760254914
30
0
41
1
10
36.5078063241237
20
2.42426745958429
30
0
41
1
10
36.5012190630823
20
2.41589387123798
30
0
41
1
10
36.466047572409
20
2.37480807364631
30
0
41
1
10
36.4307740576023
20
2.34443660313187
30
0
41
1
10
36.37873468431
20
2.30925327570307
30
0
41
1
10
36.3679025878528
20
2.30234166572589
30
0
41
1
10
36.3456860400683
20
2.28891961606252
30
0
41
1
10
36.3114791433848
20
2.26934772515799
30
0
41
1
10
36.2748155639256
20
2.25133879664406
30
0
41
1
10
36.1986227901409
20
2.21714406806635
30
0
41
1
10
36.1440247235577
20
2.19676700939792
30
0
41
1
10
36.0576190233786
20
2.16906983109766
30
0
41
1
10
36.0280084754739
20
2.16030763524961
30
0
41
1
10
35.9681029798292
20
2.14382437997719
30
0
41
1
10
35.9377309866433
20
2.13607640677239
30
0
41
1
10
35.9069955316962
20
2.12875640373662
30
0
0
SPLINE
5
132
100
AcDbEntity
8
1
62
256
6
ByLayer
370
18
48
1
60
0
100
AcDbSpline
70
4
71
3
72
8
73
4
40
0
40
0
40
0
40
0
40
1
40
1
40
1
40
1
41
1
10
37.8634399216353
20
1.67374534909192
30
0
41
1
10
37.8492479358957
20
1.7617068141875
30
0
41
1
10
37.835055950156
20
1.84966827928309
30
0
41
1
10
37.8208639644163
20
1.93762974437871
30
0
0
SPLINE
5
133
100
AcDbEntity
8
1
62
256
6
ByLayer
370
18
48
1
60
0
100
AcDbSpline
70
4
71
3
72
8
73
4
40
0
40
0
40
0
40
0
40
1
40
1
40
1
40
1
41
1
10
37.8177468030635
20
2.05140597660187
30
0
41
1
10
37.8214117613748
20
2.0083312020769
30
0
41
1
10
37.8224832007206
20
1.97034228367483
30
0
41
1
10
37.820863964429
20
1.93762974433335
30
0
0
SPLINE
5
134
100
AcDbEntity
8
1
62
256
6
ByLayer
370
18
48
1
60
0
100
AcDbSpline
70
4
71
3
72
55
73
51
40
0
40
0
40
0
40
0
40
0.0138893023091198
40
0.0278088031905355
40
0.0417577276854927
40
0.0557352891342798
40
0.0697406983202465
40
0.0837731710956254
40
0.0978319307523864
40
0.111916207799462
40
0.126025237892931
40
0.140158257874658
40
0.154314499876132
40
0.168493184657945
40
0.182693521869706
40
0.196914720019123
40
0.211155999878005
40
0.225416598855286
40
0.239695762261187
40
0.253992734708569
40
0.3264277808137
40
0.400571926072764
40
0.476317432733102
40
0.553561954394415
40
0.622507651653131
40
0.69547511030913
40
0.772370197220695
40
0.853116142950699
40
0.859826150702298
40
0.866532763593441
40
0.873236010293247
40
0.879935919948235
40
0.886632522173259
40
0.893325847044393
40
0.900015925094091
40
0.906702787317865
40
0.913386465212317
40
0.920066990825092
40
0.92674439680113
40
0.933418716424014
40
0.940089983652498
40
0.94675823315199
40
0.953423500320945
40
0.96008582131223
40
0.966745233049108
40
0.973401773235988
40
0.980055480363815
40
0.986706393709951
40
0.993354553328817
40
1
40
1
40
1
40
1
41
1
10
37.817762127141
20
2.05130666379492
30
0
41
1
10
37.8170490820074
20
2.0613156255929
30
0
41
1
10
37.8156214414141
20
2.08135531099876
30
0
41
1
10
37.8122171042161
20
2.11162382772506
30
0
41
1
10
37.8078830150639
20
2.1420736963627
30
0
41
1
10
37.8025261120046
20
2.17270731720896
30
0
41
1
10
37.7961688468276
20
2.2035099212365
30
0
41
1
10
37.7888028439192
20
2.23447121800791
30
0
41
1
10
37.7804282972103
20
2.26557956447135
30
0
41
1
10
37.7710434776199
20
2.29682350647101
30
0
41
1
10
37.7606476512844
20
2.32819133661368
30
0
41
1
10
37.7492403974111
20
2.35967118404966
30
0
41
1
10
37.7368218932356
20
2.39125096223725
30
0
41
1
10
37.723392948052
20
2.42291835908901
30
0
41
1
10
37.7089549641019
20
2.45466086288531
30
0
41
1
10
37.6935097748851
20
2.48646580366352
30
0
41
1
10
37.6770594251948
20
2.51832046120862
30
0
41
1
10
37.6596063425667
20
2.55021185433523
30
0
41
1
10
37.641152820767
20
2.58212750684234
30
0
41
1
10
37.5953478682195
20
2.65731429273509
30
0
41
1
10
37.5113273909972
20
2.77666234845742
30
0
41
1
10
37.370375572518
20
2.93909385271562
30
0
41
1
10
37.2015249942984
20
3.10092268335382
30
0
41
1
10
37.0131106039049
20
3.25328216279152
30
0
41
1
10
36.8065490561591
20
3.39652023788048
30
0
41
1
10
36.5819257820813
20
3.53132866894822
30
0
41
1
10
36.3269012158047
20
3.66270456809653
30
0
41
1
10
36.1332351585972
20
3.74704917750168
30
0
41
1
10
36.0193635435722
20
3.79194069475562
30
0
41
1
10
35.9949353587998
20
3.80142482502649
30
0
41
1
10
35.9704255680865
20
3.81079352901014
30
0
41
1
10
35.9458360654374
20
3.82004616194837
30
0
41
1
10
35.9211690809927
20
3.82918155263394
30
0
41
1
10
35.8964267594339
20
3.83819868351307
30
0
41
1
10
35.8716112726145
20
3.84709650856703
30
0
41
1
10
35.8467247891114
20
3.85587400208658
30
0
41
1
10
35.8217694821421
20
3.86453014584856
30
0
41
1
10
35.7967475271978
20
3.87306393291419
30
0
41
1
10
35.7716611024125
20
3.88147436704114
30
0
41
1
10
35.7465123881316
20
3.8897604631106
30
0
41
1
10
35.7213035669177
20
3.89792124788951
30
0
41
1
10
35.6960368226054
20
3.9059557584421
30
0
41
1
10
35.6707143427211
20
3.91386304960511
30
0
41
1
10
35.6453383083973
20
3.92164216758286
30
0
41
1
10
35.6199109309154
20
3.92929224992255
30
0
41
1
10
35.5944343143444
20
3.93681215413866
30
0
41
1
10
35.5689109667755
20
3.94420184430808
30
0
41
1
10
35.5433418925118
20
3.95145722101429
30
0
41
1
10
35.5177337066457
20
3.95858940563008
30
0
41
1
10
35.5006225115416
20
3.96323261724334
30
0
41
1
10
35.4920686600084
20
3.96555374925865
30
0
0
SPLINE
5
135
100
AcDbEntity
8
1
62
256
6
ByLayer
370
18
48
1
60
0
100
AcDbSpline
70
4
71
3
72
8
73
4
40
0
40
0
40
0
40
0
40
1
40
1
40
1
40
1
41
1
10
35.4357694039096
20
3.96896251068534
30
0
41
1
10
35.454785058855
20
3.96720842494327
30
0
41
1
10
35.4735520794143
20
3.96605934087978
30
0
41
1
10
35.4920661359018
20
3.96554184817339
30
0
0
SPLINE
5
136
100
AcDbEntity
8
1
62
256
6
ByLayer
370
18
48
1
60
0
100
AcDbSpline
70
4
71
3
72
30
73
26
40
0
40
0
40
0
40
0
40
0.125000000000035
40
0.125000000000035
40
0.250000000000071
40
0.250000000000071
40
0.312500000000058
40
0.312500000000058
40
0.375000000000045
40
0.375000000000045
40
0.437500000000031
40
0.437500000000031
40
0.500000000000018
40
0.500000000000018
40
0.562500000000005
40
0.562500000000005
40
0.624999999999992
40
0.624999999999992
40
0.687499999999979
40
0.687499999999979
40
0.749999999999966
40
0.749999999999966
40
0.874999999999984
40
0.874999999999984
40
1
40
1
40
1
40
1
41
1
10
34.9229531787933
20
3.90337614640001
30
0
41
1
10
34.9451938491977
20
3.89235827764551
30
0
41
1
10
34.9678848596849
20
3.8818928122275
30
0
41
1
10
35.0145608970267
20
3.86261381574818
30
0
41
1
10
35.0385359149892
20
3.85378630210343
30
0
41
1
10
35.0760089833503
20
3.84253611211895
30
0
41
1
10
35.088750602363
20
3.83913058604085
30
0
41
1
10
35.114385017659
20
3.83331261601421
30
0
41
1
10
35.127329512131
20
3.83088269390626
30
0
41
1
10
35.1535359766231
20
3.8272263968112
30
0
41
1
10
35.1669064201852
20
3.82600076804178
30
0
41
1
10
35.1933007303793
20
3.82510048847379
30
0
41
1
10
35.2063555265121
20
3.82541066518564
30
0
41
1
10
35.2321519849176
20
3.82772933129249
30
0
41
1
10
35.2450023244514
20
3.82977657366047
30
0
41
1
10
35.2694101146865
20
3.83548801556086
30
0
41
1
10
35.2810627529059
20
3.83914392821023
30
0
41
1
10
35.3033680601927
20
3.84792063716463
30
0
41
1
10
35.3140675306761
20
3.85308030223962
30
0
41
1
10
35.3339597563736
20
3.86434699591939
30
0
41
1
10
35.343244712815
20
3.8704806260676
30
0
41
1
10
35.3695151826174
20
3.89009014681258
30
0
41
1
10
35.3850033398529
20
3.90485558429936
30
0
41
1
10
35.4125491919419
20
3.93584596583088
30
0
41
1
10
35.4247005239019
20
3.95213543750469
30
0
41
1
10
35.4357694039094
20
3.96896251068546
30
0
0
SPLINE
5
137
100
AcDbEntity
8
1
62
256
6
ByLayer
370
13
48
1
60
0
100
AcDbSpline
70
4
71
3
72
8
73
4
40
0
40
0
40
0
40
0
40
1
40
1
40
1
40
1
41
1
10
34.9285410791653
20
3.8687425220057
30
0
41
1
10
34.926678445708
20
3.88028706347043
30
0
41
1
10
34.9248158122507
20
3.89183160493519
30
0
41
1
10
34.9229531787934
20
3.90337614639995
30
0
0
SPLINE
5
138
100
AcDbEntity
8
1
62
256
6
ByLayer
370
18
48
1
60
0
100
AcDbSpline
70
4
71
3
72
34
73
30
40
0
40
0
40
0
40
0
40
0.125000000000014
40
0.125000000000014
40
0.250000000000029
40
0.250000000000029
40
0.312500000000036
40
0.312500000000036
40
0.34375000000004
40
0.34375000000004
40
0.375000000000043
40
0.375000000000043
40
0.500000000000045
40
0.500000000000045
40
0.625000000000046
40
0.625000000000046
40
0.656250000000045
40
0.656250000000045
40
0.687500000000043
40
0.687500000000043
40
0.75000000000004
40
0.75000000000004
40
0.875000000000025
40
0.875000000000025
40
0.937500000000013
40
0.937500000000013
40
0.968750000000006
40
0.968750000000006
40
1
40
1
40
1
40
1
41
1
10
37.9184697701409
20
1.33267214151792
30
0
41
1
10
37.922114394418
20
1.40524066169235
30
0
41
1
10
37.9166933529955
20
1.47778848677265
30
0
41
1
10
37.8888294025288
20
1.62284527941486
30
0
41
1
10
37.8663842175357
20
1.6953542417846
30
0
41
1
10
37.819925686379
20
1.80408848661261
30
0
41
1
10
37.8023007659491
20
1.84032835256622
30
0
41
1
10
37.7725826251366
20
1.89468066217879
30
0
41
1
10
37.7621108744612
20
1.91282481273373
30
0
41
1
10
37.7402030327243
20
1.94887257382544
30
0
41
1
10
37.7287573674275
20
1.96679688330943
30
0
41
1
10
37.6690986402943
20
2.05592631010836
30
0
41
1
10
37.613630471087
20
2.12566237418491
30
0
41
1
10
37.4873487131764
20
2.2620272791016
30
0
41
1
10
37.4165378607156
20
2.32865667399085
30
0
41
1
10
37.3179366069174
20
2.40990080812838
30
0
41
1
10
37.2977094937234
20
2.42604700271866
30
0
41
1
10
37.2562184707526
20
2.45812945573985
30
0
41
1
10
37.2350408327074
20
2.47399810033056
30
0
41
1
10
37.170383887103
20
2.52096674977827
30
0
41
1
10
37.125713347699
20
2.55148344090975
30
0
41
1
10
36.9870379339438
20
2.64066353161994
30
0
41
1
10
36.8883931209319
20
2.69696907177285
30
0
41
1
10
36.7308478047109
20
2.77656011817749
30
0
41
1
10
36.6767305658454
20
2.80227631710488
30
0
41
1
10
36.5930577042074
20
2.83958172310508
30
0
41
1
10
36.5647501469482
20
2.85180515473337
30
0
41
1
10
36.5072804710483
20
2.87581775888529
30
0
41
1
10
36.4780699804617
20
2.88762488533422
30
0
41
1
10
36.4486242047912
20
2.89913024442703
30
0
0
SPLINE
5
139
100
AcDbEntity
8
1
62
256
6
ByLayer
370
13
48
1
60
0
100
AcDbSpline
70
4
71
3
72
8
73
4
40
0
40
0
40
0
40
0
40
1
40
1
40
1
40
1
41
0.999984704557556
10
34.815809234026
20
-3.08025935795808
30
0
41
0.999984704557556
10
34.8146054491823
20
-3.07227138326309
30
0
41
0.999984704557557
10
34.8134016643386
20
-3.0642834085681
30
0
41
0.999984704557557
10
34.8121978794949
20
-3.05629543387308
30
0
0
SPLINE
5
13A
100
AcDbEntity
8
1
62
256
6
ByLayer
370
13
48
1
60
0
100
AcDbSpline
70
4
71
3
72
8
73
4
40
0
40
0
40
0
40
0
40
1
40
1
40
1
40
1
41
1
10
37.9184697701348
20
-2.09547123506505
30
0
41
1
10
37.8859345015641
20
-1.87957642346274
30
0
41
1
10
37.8533992329934
20
-1.66368161186045
30
0
41
1
10
37.8208639644227
20
-1.44778680025814
30
0
0
SPLINE
5
13B
100
AcDbEntity
8
1
62
256
6
ByLayer
370
18
48
1
60
0
100
AcDbSpline
70
4
71
3
72
8
73
4
40
0
40
0
40
0
40
0
40
1
40
1
40
1
40
1
41
1
10
37.8169099185002
20
-1.55857413373042
30
0
41
1
10
37.8212437927851
20
-1.52838053943933
30
0
41
1
10
37.8226088601083
20
-1.49155651264624
30
0
41
1
10
37.8208639644285
20
-1.44778680024973
30
0
0
SPLINE
5
13C
100
AcDbEntity
8
1
62
256
6
ByLayer
370
13
48
1
60
0
100
AcDbSpline
70
4
71
3
72
8
73
4
40
0
40
0
40
0
40
0
40
1
40
1
40
1
40
1
41
1
10
34.9282334238102
20
-3.14932778641901
30
0
41
1
10
34.926243320639
20
-3.13612202639021
30
0
41
1
10
34.9242532174678
20
-3.12291626636142
30
0
41
1
10
34.9222631142966
20
-3.10971050633262
30
0
0
SPLINE
5
13D
100
AcDbEntity
8
1
62
256
6
ByLayer
370
18
48
1
60
0
100
AcDbSpline
70
4
71
3
72
29
73
25
40
0
40
0
40
0
40
0
40
0.125000000000002
40
0.125000000000002
40
0.250000000000004
40
0.250000000000004
40
0.375000000000006
40
0.375000000000006
40
0.406250000000005
40
0.406250000000005
40
0.437500000000003
40
0.500000000000005
40
0.500000000000005
40
0.625000000000008
40
0.625000000000008
40
0.687500000000009
40
0.687500000000009
40
0.71875000000001
40
0.71875000000001
40
0.75000000000001
40
0.75000000000001
40
0.875000000000005
40
0.875000000000005
40
1
40
1
40
1
40
1
41
1
10
37.9184697701405
20
-2.09547123505558
30
0
41
1
10
37.921971622998
20
-2.18260028000645
30
0
41
1
10
37.9171390604169
20
-2.26825056064064
30
0
41
1
10
37.8919846308302
20
-2.43680287507348
30
0
41
1
10
37.8716609862212
20
-2.51970459347996
30
0
41
1
10
37.8157085038819
20
-2.68279245009407
30
0
41
1
10
37.7800851575958
20
-2.76297956264139
30
0
41
1
10
37.7255794119918
20
-2.86144332497545
30
0
41
1
10
37.7141542930247
20
-2.88108348021387
30
0
41
1
10
37.6904123627443
20
-2.91997248545985
30
0
41
1
10
37.6534764710975
20
-2.97770699688652
30
0
41
1
10
37.6126178231416
20
-3.03366545103739
30
0
41
1
10
37.5257227490181
20
-3.14323808150488
30
0
41
1
10
37.4609131410833
20
-3.21317173021222
30
0
41
1
10
37.3531522664485
20
-3.31329721334444
30
0
41
1
10
37.3154683117875
20
-3.34587386271394
30
0
41
1
10
37.2562104872837
20
-3.39350195198855
30
0
41
1
10
37.2360021341936
20
-3.40917163982257
30
0
41
1
10
37.1946539759722
20
-3.44008929360822
30
0
41
1
10
37.1734734825845
20
-3.45536514781892
30
0
41
1
10
37.0657136085432
20
-3.53029746617224
30
0
41
1
10
36.9739801622209
20
-3.58539942049708
30
0
41
1
10
36.7795088175268
20
-3.6859564166586
30
0
41
1
10
36.6767730948243
20
-3.73141336576785
30
0
41
1
10
36.5682399946344
20
-3.77178811786916
30
0
0
SPLINE
5
13E
100
AcDbEntity
8
1
62
256
6
ByLayer
370
18
48
1
60
0
100
AcDbSpline
70
4
71
3
72
25
73
21
40
0
40
0
40
0
40
0
40
0.124999999999996
40
0.124999999999996
40
0.187499999999996
40
0.187499999999996
40
0.249999999999996
40
0.374999999999996
40
0.374999999999996
40
0.499999999999996
40
0.499999999999996
40
0.562500000000001
40
0.562500000000001
40
0.625000000000006
40
0.625000000000006
40
0.750000000000004
40
0.750000000000004
40
0.875000000000002
40
0.875000000000002
40
1
40
1
40
1
40
1
41
1
10
37.1040720162756
20
-4.23009068184695
30
0
41
1
10
37.0968926072916
20
-4.27200255007295
30
0
41
1
10
37.0879212088385
20
-4.31393434661592
30
0
41
1
10
37.0715377502383
20
-4.37701862814635
30
0
41
1
10
37.0655821383188
20
-4.39811045832991
30
0
41
1
10
37.0527208267792
20
-4.44015928213369
30
0
41
1
10
37.0320002170868
20
-4.50305967921736
30
0
41
1
10
37.0068728597677
20
-4.56554744855791
30
0
41
1
10
36.9691746473684
20
-4.64870098560712
30
0
41
1
10
36.9482505796018
20
-4.69019413744411
30
0
41
1
10
36.9133610761315
20
-4.75248543020589
30
0
41
1
10
36.9011457252338
20
-4.77325813452342
30
0
41
1
10
36.8754870725442
20
-4.81485279068158
30
0
41
1
10
36.8620272786083
20
-4.83569922364845
30
0
41
1
10
36.8197926344807
20
-4.89820567068364
30
0
41
1
10
36.7894460587969
20
-4.93943552916542
30
0
41
1
10
36.7240024677369
20
-5.02116133351564
30
0
41
1
10
36.6888755720693
20
-5.06165263124171
30
0
41
1
10
36.6134056568435
20
-5.14203894838263
30
0
41
1
10
36.5730586232634
20
-5.18193303176213
30
0
41
1
10
36.5297374618877
20
-5.22157953498487
30
0
0
SPLINE
5
13F
100
AcDbEntity
8
1
62
256
6
ByLayer
370
18
48
1
60
0
100
AcDbSpline
70
4
71
3
72
8
73
4
40
0
40
0
40
0
40
0
40
1
40
1
40
1
40
1
41
1
10
37.1040720162756
20
-4.23009068184695
30
0
41
1
10
37.1420294853423
20
-4.20563761407837
30
0
41
1
10
37.179706191618
20
-4.18104174036603
30
0
41
1
10
37.2171453725177
20
-4.15633789348746
30
0
0
SPLINE
5
140
100
AcDbEntity
8
1
62
256
6
ByLayer
370
18
48
1
60
0
100
AcDbSpline
70
4
71
3
72
8
73
4
40
0
40
0
40
0
40
0
40
1
40
1
40
1
40
1
41
1
10
37.1530743762568
20
-3.93160888417361
30
0
41
1
10
37.1733197181126
20
-4.00912649990875
30
0
41
1
10
37.1947238499413
20
-4.08423184347851
30
0
41
1
10
37.217145372517
20
-4.15633789348749
30
0
0
SPLINE
5
141
100
AcDbEntity
8
1
62
256
6
ByLayer
370
18
48
1
60
0
100
AcDbSpline
70
4
71
3
72
10
73
6
40
0
40
0
40
0
40
0
40
0.194968254965588
40
0.194968254965588
40
1
40
1
40
1
40
1
41
1
10
36.5497879035724
20
-3.77216405030006
30
0
41
1
10
36.5891673099557
20
-3.78375571445878
30
0
41
1
10
36.6285142892942
20
-3.79510517109398
30
0
41
1
10
36.8301406729438
20
-3.85207930662276
30
0
41
1
10
36.991886831127
20
-3.89385178761265
30
0
41
1
10
37.1530743762568
20
-3.93160888417361
30
0
0
SPLINE
5
142
100
AcDbEntity
8
1
62
256
6
ByLayer
370
13
48
1
60
0
100
AcDbSpline
70
4
71
3
72
18
73
14
40
0
40
0
40
0
40
0
40
0.0523092202270446
40
0.154235825826177
40
0.256162431425309
40
0.358089037024442
40
0.460015642623574
40
0.561942248222706
40
0.663868853821838
40
0.765795459420971
40
0.867722065020103
40
0.969648670619235
40
1
40
1
40
1
40
1
41
1
10
34.2698071556426
20
-2.74504410016817
30
0
41
1
10
34.0132047704284
20
-2.67689500878009
30
0
41
1
10
33.2566023852142
20
-2.46464397428986
30
0
41
1
10
32
20
-2.06185516108573
30
0
41
1
10
30.5
20
-1.50873776484235
30
0
41
1
10
29
20
-0.904605236142856
30
0
41
1
10
27.5
20
-0.273405498678528
30
0
41
1
10
26.0000000000001
20
0.364791416792343
30
0
41
1
10
24.5
20
0.997371762024358
30
0
41
1
10
23
20
1.59960540748653
30
0
41
1
10
21.5
20
2.14819204583026
30
0
41
1
10
20.3511118407095
20
2.51450930431165
30
0
41
1
10
19.7022236814191
20
2.69875424196064
30
0
41
1
10
19.5533355221285
20
2.73976333795591
30
0
0
SPLINE
5
143
100
AcDbEntity
8
1
62
256
6
ByLayer
370
18
48
1
60
0
100
AcDbSpline
70
4
71
3
72
8
73
4
40
0
40
0
40
0
40
0
40
1
40
1
40
1
40
1
41
1
10
37.1577059267081
20
-0.68031442513896
30
0
41
1
10
37.1804926556137
20
-0.668868721592133
30
0
41
1
10
37.203153242485
20
-0.657194192730429
30
0
41
1
10
37.2256994222567
20
-0.645308355815729
30
0
0
SPLINE
5
144
100
AcDbEntity
8
1
62
256
6
ByLayer
370
18
48
1
60
0
100
AcDbSpline
70
4
71
3
72
8
73
4
40
0
40
0
40
0
40
0
40
1
40
1
40
1
40
1
41
1
10
37.1731080169803
20
-0.361952333236189
30
0
41
1
10
37.1897492169505
20
-0.455267332095929
30
0
41
1
10
37.2072738018369
20
-0.549711816995455
30
0
41
1
10
37.2256994222567
20
-0.645308355815729
30
0
0
SPLINE
5
145
100
AcDbEntity
8
1
62
256
6
ByLayer
370
18
48
1
60
0
100
AcDbSpline
70
4
71
3
72
10
73
6
40
0
40
0
40
0
40
0
40
0.5
40
0.5
40
1
40
1
40
1
40
1
41
1
10
35.7288013854185
20
0.582778875055226
30
0
41
1
10
35.9701045076042
20
0.431509308851304
30
0
41
1
10
36.2110958713562
20
0.276945263992474
30
0
41
1
10
36.6925169589538
20
-0.0381179039206927
30
0
41
1
10
36.9329462872483
20
-0.198621206925338
30
0
41
1
10
37.1731080169766
20
-0.361952333234313
30
0
0
SPLINE
5
146
100
AcDbEntity
8
1
62
256
6
ByLayer
370
18
48
1
60
0
100
AcDbSpline
70
4
71
3
72
10
73
6
40
0
40
0
40
0
40
0
40
0.5
40
0.5
40
1
40
1
40
1
40
1
41
1
10
35.7288013854186
20
0.582778875055254
30
0
41
1
10
35.6949006153244
20
0.604030795625818
30
0
41
1
10
35.6632486459085
20
0.626602821068218
30
0
41
1
10
35.6048437936789
20
0.674527233140935
30
0
41
1
10
35.5780817507937
20
0.699874423559294
30
0
41
1
10
35.5542293621362
20
0.726839191568416
30
0
0
SPLINE
5
147
100
AcDbEntity
8
1
62
256
6
ByLayer
370
13
48
1
60
0
100
AcDbSpline
70
4
71
3
72
12
73
8
40
0
40
0
40
0
40
0
40
0.0892772868821437
40
0.330902757259952
40
0.572528227637759
40
0.814153698015567
40
1
40
1
40
1
40
1
41
1
10
35.5542293621356
20
0.726839191568644
30
0
41
1
10
35.3694862414238
20
0.799909373921707
30
0
41
1
10
34.6847431207119
20
1.0689061392718
30
0
41
1
10
33.5
20
1.51852633887842
30
0
41
1
10
32
20
2.04300287800331
30
0
41
1
10
30.6154248521611
20
2.47643373459852
30
0
41
1
10
29.7308497043221
20
2.71566950180142
30
0
41
1
10
29.346274556483
20
2.81156152949299
30
0
0
SPLINE
5
148
100
AcDbEntity
8
1
62
256
6
ByLayer
370
18
48
1
60
0
100
AcDbSpline
70
4
71
3
72
14
73
10
40
0
40
0
40
0
40
0
40
0.145876658737897
40
0.289839680711957
40
0.433802702686017
40
0.577765724660078
40
0.721728746634138
40
0.865691768608198
40
1
40
1
40
1
40
1
41
1
10
36.5199388364206
20
-1.95635709573091
30
0
41
1
10
36.0132925576138
20
-1.65641467774216
30
0
41
1
10
35.0066462788069
20
-1.03854249328299
30
0
41
1
10
33.5
20
-0.0803480759828688
30
0
41
1
10
32
20
0.878299579312625
30
0
41
1
10
30.5
20
1.80600733930612
30
0
41
1
10
29
20
2.67538258675458
30
0
41
1
10
27.5335321892034
20
3.43863461984463
30
0
41
1
10
26.5670643784069
20
3.87160336398531
30
0
41
1
10
26.1005965676103
20
4.0609180031592
30
0
0
SPLINE
5
149
100
AcDbEntity
8
1
62
256
6
ByLayer
370
18
48
1
60
0
100
AcDbSpline
70
4
71
3
72
8
73
4
40
0
40
0
40
0
40
0
40
1
40
1
40
1
40
1
41
1
10
36.5297374618877
20
-5.22157953498487
30
0
41
1
10
36.5309705853307
20
-5.22195391000045
30
0
41
1
10
36.5348419990941
20
-5.21979153110402
30
0
41
1
10
36.5410771902858
20
-5.21550108873316
30
0
0
SPLINE
5
14A
100
AcDbEntity
8
1
62
256
6
ByLayer
370
18
48
1
60
0
100
AcDbSpline
70
4
71
3
72
22
73
18
40
0
40
0
40
0
40
0
40
0.001460972868295
40
0.0751545285157635
40
0.148848084163232
40
0.2225416398107
40
0.296235195458169
40
0.369928751105637
40
0.443622306753106
40
0.517315862400574
40
0.591009418048043
40
0.664702973695511
40
0.73839652934298
40
0.812090084990448
40
0.885783640637917
40
0.959477196285385
40
1
40
1
40
1
40
1
41
1
10
36.5297374618878
20
-5.22157953498487
30
0
41
1
10
36.5198249745919
20
-5.22239279832976
30
0
41
1
10
36.0099124872959
20
-5.26358116209232
30
0
41
1
10
35
20
-5.27919488688482
30
0
41
1
10
33.5
20
-5.10852950362368
30
0
41
1
10
32
20
-4.750171660934
30
0
41
1
10
30.5
20
-4.21790591375921
30
0
41
1
10
29
20
-3.53047234878241
30
0
41
1
10
27.5
20
-2.71369120919962
30
0
41
1
10
26.0000000000001
20
-1.79912764190479
30
0
41
1
10
24.5
20
-0.816018714043423
30
0
41
1
10
23
20
0.19813850485599
30
0
41
1
10
21.5
20
1.20118463151658
30
0
41
1
10
20
20
2.16177396221494
30
0
41
1
10
18.5
20
3.04448466125194
30
0
41
1
10
17.2250587018187
20
3.6981165023912
30
0
41
1
10
16.4501174036375
20
4.03955760411424
30
0
41
1
10
16.1751761054563
20
4.15306857812055
30
0
0
SPLINE
5
14B
100
AcDbEntity
8
1
62
256
6
ByLayer
370
13
48
1
60
0
100
AcDbSpline
70
4
71
3
72
14
73
10
40
0
40
0
40
0
40
0
40
0.155900718921635
40
0.308650683387759
40
0.461400647853883
40
0.614150612320007
40
0.766900576786131
40
0.919650541252255
40
1
40
1
40
1
40
1
41
1
10
36.5309403128163
20
-2.06982177798844
30
0
41
1
10
36.0206268752109
20
-1.76981327468224
30
0
41
1
10
35.0103134376054
20
-1.15237684194048
30
0
41
1
10
33.5
20
-0.193575329785489
30
0
41
1
10
32
20
0.770383234169287
30
0
41
1
10
30.5
20
1.70289647495227
30
0
41
1
10
29
20
2.58274190008333
30
0
41
1
10
27.7369902538812
20
3.25250936468092
30
0
41
1
10
26.9739805077626
20
3.61330338951086
30
0
41
1
10
26.7109707616439
20
3.73197267278644
30
0
0
SPLINE
5
14C
100
AcDbEntity
8
1
62
256
6
ByLayer
370
18
48
1
60
0
100
AcDbSpline
70
4
71
3
72
24
73
20
40
0
40
0
40
0
40
0
40
0.125000000000001
40
0.125000000000001
40
0.1875
40
0.1875
40
0.249999999999999
40
0.249999999999999
40
0.499999999999988
40
0.499999999999988
40
0.624999999999982
40
0.624999999999982
40
0.687499999999984
40
0.687499999999984
40
0.749999999999987
40
0.749999999999987
40
0.874999999999994
40
0.874999999999994
40
1
40
1
40
1
40
1
41
1
10
37.1577059267081
20
-0.68031442513896
30
0
41
1
10
37.1528090413383
20
-0.741470365769629
30
0
41
1
10
37.1455575560657
20
-0.802591711040776
30
0
41
1
10
37.1309736403204
20
-0.894086363964419
30
0
41
1
10
37.1254974267001
20
-0.924553833378894
30
0
41
1
10
37.1132483615113
20
-0.985396349253904
30
0
41
1
10
37.1064579735803
20
-1.01582517325653
30
0
41
1
10
37.0693150063024
20
-1.16696305746703
30
0
41
1
10
37.0295679080318
20
-1.28410485961348
30
0
41
1
10
36.9525637010842
20
-1.45166001115203
30
0
41
1
10
36.9239504839604
20
-1.50612584335698
30
0
41
1
10
36.8760508452987
20
-1.58526559898846
30
0
41
1
10
36.8592044323197
20
-1.61128849357081
30
0
41
1
10
36.8241022342128
20
-1.66185210508715
30
0
41
1
10
36.8058288125722
20
-1.68643260045297
30
0
41
1
10
36.748754416591
20
-1.75792105769702
30
0
41
1
10
36.7076789125236
20
-1.80255538998921
30
0
41
1
10
36.6189451201021
20
-1.88491617738327
30
0
41
1
10
36.571297220657
20
-1.92265332837545
30
0
41
1
10
36.5199388364206
20
-1.95635709573091
30
0
0
SPLINE
5
14D
100
AcDbEntity
8
1
62
256
6
ByLayer
370
18
48
1
60
0
100
AcDbSpline
70
4
71
3
72
8
73
4
40
0
40
0
40
0
40
0
40
1
40
1
40
1
40
1
41
1
10
36.5199388364206
20
-1.95635709573094
30
0
41
1
10
36.5219226414516
20
-1.99474822905975
30
0
41
1
10
36.5256442948344
20
-2.03261542159649
30
0
41
1
10
36.5309403128163
20
-2.06982177798844
30
0
0
SPLINE
5
14E
100
AcDbEntity
8
1
62
256
6
ByLayer
370
18
48
1
60
0
100
AcDbSpline
70
4
71
3
72
24
73
20
40
0
40
0
40
0
40
0
40
0.125000000000036
40
0.125000000000036
40
0.250000000000073
40
0.250000000000073
40
0.312500000000091
40
0.312500000000091
40
0.375000000000109
40
0.375000000000109
40
0.500000000000087
40
0.500000000000087
40
0.625000000000065
40
0.625000000000065
40
0.750000000000044
40
0.750000000000044
40
0.875000000000022
40
0.875000000000022
40
1
40
1
40
1
40
1
41
1
10
36.5309403128163
20
-2.06982177798844
30
0
41
1
10
36.5324344661029
20
-2.08031695279411
30
0
41
1
10
36.5333093319189
20
-2.09097696524293
30
0
41
1
10
36.5333757671906
20
-2.11273979582271
30
0
41
1
10
36.5325366050096
20
-2.12390244957064
30
0
41
1
10
36.5296165648637
20
-2.14021478565206
30
0
41
1
10
36.5283671040547
20
-2.14561025083529
30
0
41
1
10
36.5252349915059
20
-2.15630449043997
30
0
41
1
10
36.5233255221099
20
-2.16165686186727
30
0
41
1
10
36.5167522644905
20
-2.17696358527246
30
0
41
1
10
36.511249241398
20
-2.18627271013554
30
0
41
1
10
36.4980302287561
20
-2.2031426644871
30
0
41
1
10
36.490619921776
20
-2.21031577299399
30
0
41
1
10
36.4746728050867
20
-2.22257874316193
30
0
41
1
10
36.4663162485372
20
-2.22753601060359
30
0
41
1
10
36.4492504788316
20
-2.23569146452496
30
0
41
1
10
36.4404705953728
20
-2.23891734369005
30
0
41
1
10
36.4226977354029
20
-2.24402572582983
30
0
41
1
10
36.4137553358833
20
-2.24589742490488
30
0
41
1
10
36.4047643346928
20
-2.24725213527049
30
0
0
SPLINE
5
14F
100
AcDbEntity
8
1
62
256
6
ByLayer
370
18
48
1
60
0
100
AcDbSpline
70
4
71
3
72
38
73
34
40
0
40
0
40
0
40
0
40
0.0136019015052024
40
0.0272344274084056
40
0.0408967311299118
40
0.0545879560764545
40
0.0683072450773082
40
0.0820537471028182
40
0.0958266190029483
40
0.109625025060264
40
0.12344813481183
40
0.137295119090803
40
0.151165144247643
40
0.165057365901374
40
0.178970930413704
40
0.192904986577369
40
0.206858700510709
40
0.220831256340448
40
0.234821841251285
40
0.248829640282542
40
0.320816300220923
40
0.394530237553804
40
0.469850635224099
40
0.546663382514832
40
0.601050092479242
40
0.658076558987312
40
0.717687053516352
40
0.77983271868318
40
0.844474845317519
40
0.919283148440918
40
0.99377454134943
40
0.996887505424664
40
1
40
1
40
1
40
1
41
1
10
37.8169270385707
20
-1.55867510052323
30
0
41
1
10
37.8161449791691
20
-1.57047919162392
30
0
41
1
10
37.8145790995756
20
-1.59411395049065
30
0
41
1
10
37.8110045779371
20
-1.62935405078383
30
0
41
1
10
37.80652726389
20
-1.66447218875592
30
0
41
1
10
37.8010568630541
20
-1.69943649338597
30
0
41
1
10
37.7946151796934
20
-1.73423697998871
30
0
41
1
10
37.7871941123252
20
-1.76885778261587
30
0
41
1
10
37.7787938958282
20
-1.80328465021458
30
0
41
1
10
37.7694129130015
20
-1.83750296674873
30
0
41
1
10
37.7590505256807
20
-1.87149831783154
30
0
41
1
10
37.7477064102579
20
-1.90525637407666
30
0
41
1
10
37.7353808322253
20
-1.93876295936417
30
0
41
1
10
37.7220746763066
20
-1.97200408221767
30
0
41
1
10
37.7077893892073
20
-2.00496593151271
30
0
41
1
10
37.6925268025277
20
-2.03763479756842
30
0
41
1
10
37.6762888925614
20
-2.06999706349433
30
0
41
1
10
37.6590780008034
20
-2.10203895794322
30
0
41
1
10
37.6408964376997
20
-2.1337476607068
30
0
41
1
10
37.5953385231799
20
-2.20836300072048
30
0
41
1
10
37.5115569086157
20
-2.32300619160395
30
0
41
1
10
37.3707971691165
20
-2.46921662663661
30
0
41
1
10
37.2021171144278
20
-2.60408257319682
30
0
41
1
10
37.0259129586447
20
-2.71242248645177
30
0
41
1
10
36.8493510165464
20
-2.79839278631454
30
0
41
1
10
36.6772919692189
20
-2.86603587330637
30
0
41
1
10
36.4856927610241
20
-2.92457554382125
30
0
41
1
10
36.2744169133725
20
-2.97172080772799
30
0
41
1
10
36.0345914726933
20
-3.00658625789697
30
0
41
1
10
35.7690981266605
20
-3.0240027766794
30
0
41
1
10
35.5736681517431
20
-3.02123991916093
30
0
41
1
10
35.4691746115634
20
-3.01571555704788
30
0
41
1
10
35.461107541705
20
-3.01525552757698
30
0
41
1
10
35.4570743109693
20
-3.01502553018835
30
0
0
SPLINE
5
150
100
AcDbEntity
8
1
62
256
6
ByLayer
370
18
48
1
60
0
100
AcDbSpline
70
4
71
3
72
12
73
8
40
0
40
0
40
0
40
0
40
0.16260606271482
40
0.16260606271482
40
0.532530627438817
40
0.532530627438817
40
1
40
1
40
1
40
1
41
1
10
37.3022636456006
20
-0.546678446257829
30
0
41
1
10
37.3301621296814
20
-0.601553452675461
30
0
41
1
10
37.358060478468
20
-0.656424486228048
30
0
41
1
10
37.449426417509
20
-0.836113180588967
30
0
41
1
10
37.5128934642833
20
-0.960914904374647
30
0
41
1
10
37.6565616687928
20
-1.24338605956328
30
0
41
1
10
37.736762457585
20
-1.40104468122212
30
0
41
1
10
37.8169623429652
20
-1.55867717376861
30
0
0
SPLINE
5
151
100
AcDbEntity
8
1
62
256
6
ByLayer
370
18
48
1
60
0
100
AcDbSpline
70
4
71
3
72
8
73
4
40
0
40
0
40
0
40
0
40
1
40
1
40
1
40
1
41
1
10
37.228709707469
20
-0.445425334651674
30
0
41
1
10
37.2534266155541
20
-0.479273910576353
30
0
41
1
10
37.2779431676943
20
-0.513024247975778
30
0
41
1
10
37.3022636456001
20
-0.54667844625763
30
0
0
SPLINE
5
152
100
AcDbEntity
8
1
62
256
6
ByLayer
370
18
48
1
60
0
100
AcDbSpline
70
4
71
3
72
22
73
18
40
0
40
0
40
0
40
0
40
0.0318255939855716
40
0.0318255939855716
40
0.128643034586963
40
0.128643034586963
40
0.225460475188355
40
0.225460475188355
40
0.322277915789747
40
0.322277915789747
40
0.419095356391138
40
0.419095356391138
40
0.612730237594092
40
0.612730237594092
40
0.806365118797046
40
0.806365118797046
40
1
40
1
40
1
40
1
41
1
10
36.5332452291777
20
-5.22422569569545
30
0
41
1
10
36.5325974270279
20
-5.22480854856718
30
0
41
1
10
36.5319164965321
20
-5.22541807088504
30
0
41
1
10
36.5290361179695
20
-5.22798322309504
30
0
41
1
10
36.5265846100869
20
-5.23013823873043
30
0
41
1
10
36.521113160748
20
-5.23488881642427
30
0
41
1
10
36.5180649267813
20
-5.23750835702782
30
0
41
1
10
36.5115398667719
20
-5.24305892457167
30
0
41
1
10
36.5080806210322
20
-5.2459754835678
30
0
41
1
10
36.500811513371
20
-5.25205197026315
30
0
41
1
10
36.4969789759843
20
-5.25523052120235
30
0
41
1
10
36.485168495517
20
-5.2649506203411
30
0
41
1
10
36.4769729189733
20
-5.27159990478134
30
0
41
1
10
36.4601101221622
20
-5.28510656946679
30
0
41
1
10
36.4514041399296
20
-5.29199358509055
30
0
41
1
10
36.4339660101055
20
-5.30563180390919
30
0
41
1
10
36.4251924823873
20
-5.31241678979217
30
0
41
1
10
36.4163716801028
20
-5.3191681663055
30
0
0
SPLINE
5
153
100
AcDbEntity
8
1
62
256
6
ByLayer
370
13
48
1
60
0
100
AcDbSpline
70
4
71
3
72
21
73
17
40
0
40
0
40
0
40
0
40
0.0508081295964557
40
0.129708635365136
40
0.208609141133816
40
0.287509646902496
40
0.366410152671176
40
0.445310658439856
40
0.524211164208536
40
0.603111669977216
40
0.682012175745896
40
0.760912681514576
40
0.839813187283257
40
0.918713693051937
40
0.997614198820617
40
1
40
1
40
1
40
1
41
1
10
35.965927830908
20
-5.25930152202639
30
0
41
1
10
35.643951887272
20
-5.27589306781121
30
0
41
1
10
34.8219759436359
20
-5.28425738294692
30
0
41
1
10
33.4999999999999
20
-5.15815761047958
30
0
41
1
10
31.9999999999999
20
-4.82159780224938
30
0
41
1
10
30.5
20
-4.31218846951887
30
0
41
1
10
29
20
-3.64465807503794
30
0
41
1
10
27.4999999999999
20
-2.84056510252739
30
0
41
1
10
26
20
-1.93244820717138
30
0
41
1
10
24.5
20
-0.956291327330036
30
0
41
1
10
23
20
0.0576395352261727
30
0
41
1
10
21.4999999999999
20
1.06754148746884
30
0
41
1
10
20
20
2.03947873940569
30
0
41
1
10
18.5
20
2.93663196875883
30
0
41
1
10
17.4848809512934
20
3.47005653265339
30
0
41
1
10
16.9697619025868
20
3.71677811876265
30
0
41
1
10
16.9546428538802
20
3.72399878941749
30
0
0
SPLINE
5
154
100
AcDbEntity
8
1
62
256
6
ByLayer
370
18
48
1
60
0
100
AcDbSpline
70
4
71
3
72
16
73
12
40
0
40
0
40
0
40
0
40
0.25
40
0.25
40
0.5
40
0.5
40
0.75
40
0.75
40
0.875
40
0.875
40
1
40
1
40
1
40
1
41
1
10
34.9285410791651
20
3.86874252200579
30
0
41
1
10
35.0560800730362
20
3.80162902766429
30
0
41
1
10
35.1830022310315
20
3.73049501998233
30
0
41
1
10
35.4364416977255
20
3.58119648694071
30
0
41
1
10
35.5629538973687
20
3.50303065871509
30
0
41
1
10
35.8164178062768
20
3.34013528455586
30
0
41
1
10
35.9433619008737
20
3.2554099293933
30
0
41
1
10
36.1348966692794
20
3.12335485717804
30
0
41
1
10
36.1983276116445
20
3.07891880063093
30
0
41
1
10
36.3241769040095
20
2.98947091184331
30
0
41
1
10
36.3866318973608
20
2.94443385226967
30
0
41
1
10
36.4486242047911
20
2.899130244427
30
0
0
SPLINE
5
155
100
AcDbEntity
8
1
62
256
6
ByLayer
370
18
48
1
60
0
100
AcDbSpline
70
4
71
3
72
8
73
4
40
0
40
0
40
0
40
0
40
1
40
1
40
1
40
1
41
1
10
34.8153378303221
20
3.92817163725735
30
0
41
1
10
34.8530808477013
20
3.90840371921061
30
0
41
1
10
34.8908156844218
20
3.88859435703904
30
0
41
1
10
34.9285410791653
20
3.8687425220057
30
0
0
SPLINE
5
156
100
AcDbEntity
8
1
62
256
6
ByLayer
370
13
48
1
60
0
100
AcDbSpline
70
4
71
3
72
16
73
12
40
0
40
0
40
0
40
0
40
0.115562698367804
40
0.232745290709855
40
0.349927883051906
40
0.467110475393956
40
0.584293067736007
40
0.701475660078057
40
0.818658252420108
40
0.935840844762159
40
1
40
1
40
1
40
1
41
1
10
36.4792644887538
20
2.85365926982365
30
0
41
1
10
35.9861763258359
20
3.12444927340272
30
0
41
1
10
34.993088162918
20
3.64247511489691
30
0
41
1
10
33.5
20
4.31756471837358
30
0
41
1
10
32
20
4.86915601088484
30
0
41
1
10
30.5000000000001
20
5.27195516427378
30
0
41
1
10
29
20
5.52115457601408
30
0
41
1
10
27.4999999999999
20
5.61180369127322
30
0
41
1
10
26
20
5.5384700447766
30
0
41
1
10
24.726242806395
20
5.33197115806775
30
0
41
1
10
23.95248561279
20
5.14466008932894
30
0
41
1
10
23.6787284191849
20
5.07103849543881
30
0
0
SPLINE
5
157
100
AcDbEntity
8
1
62
256
6
ByLayer
370
18
48
1
60
0
100
AcDbSpline
70
4
71
3
72
8
73
4
40
0
40
0
40
0
40
0
40
1
40
1
40
1
40
1
41
1
10
36.4486242047911
20
2.89913024442703
30
0
41
1
10
36.4586852323602
20
2.8839560809935
30
0
41
1
10
36.4688966633041
20
2.86879886446536
30
0
41
1
10
36.4792644886147
20
2.85365926988052
30
0
0
SPLINE
5
158
100
AcDbEntity
8
1
62
256
6
ByLayer
370
13
48
1
60
0
100
AcDbSpline
70
4
71
3
72
18
73
14
40
0
40
0
40
0
40
0
40
0.073253218973677
40
0.173602296594134
40
0.27395137421459
40
0.374300451835046
40
0.474649529455503
40
0.574998607075959
40
0.675347684696416
40
0.775696762316872
40
0.876045839937328
40
0.976394917557785
40
1
40
1
40
1
40
1
41
1
10
18.9050240314505
20
2.96541842433578
30
0
41
1
10
19.270016020967
20
2.88478402609351
30
0
41
1
10
20.1350080104835
20
2.6732543184315
30
0
41
1
10
21.5
20
2.27157674487995
30
0
41
1
10
23
20
1.75393902763255
30
0
41
1
10
24.5
20
1.17589778599643
30
0
41
1
10
26.0000000000001
20
0.559968688810784
30
0
41
1
10
27.5
20
-0.0698128574414909
30
0
41
1
10
29
20
-0.699977543060811
30
0
41
1
10
30.5
20
-1.30989379829637
30
0
41
1
10
32
20
-1.87544983475325
30
0
41
1
10
33.1176148451085
20
-2.24825980886027
30
0
41
1
10
33.7352296902169
20
-2.43505645840833
30
0
41
1
10
33.8528445353254
20
-2.46989873877561
30
0
0
SPLINE
5
159
100
AcDbEntity
8
1
62
256
6
ByLayer
370
18
48
1
60
0
100
AcDbSpline
70
4
71
3
72
10
73
6
40
0
40
0
40
0
40
0
40
0.5
40
0.5
40
1
40
1
40
1
40
1
41
1
10
10.5648213605141
20
5.75989519803835
30
0
41
1
10
10.5910915131952
20
5.75987416168337
30
0
41
1
10
10.6170613425009
20
5.75984352466193
30
0
41
1
10
10.6682089091987
20
5.75973668918451
30
0
41
1
10
10.6933893669631
20
5.75966140172812
30
0
41
1
10
10.7180204026446
20
5.75953412344609
30
0
0
SPLINE
5
15A
100
AcDbEntity
8
1
62
256
6
ByLayer
370
18
48
1
60
0
100
AcDbSpline
70
4
71
3
72
30
73
26
40
0
40
0
40
0
40
0
40
0.249999999999996
40
0.249999999999996
40
0.374999999999996
40
0.374999999999996
40
0.499999999999995
40
0.499999999999995
40
0.624999999999994
40
0.624999999999994
40
0.687499999999994
40
0.687499999999994
40
0.749999999999994
40
0.749999999999994
40
0.812499999999993
40
0.812499999999993
40
0.843749999999995
40
0.843749999999995
40
0.874999999999997
40
0.874999999999997
40
0.906249999999998
40
0.906249999999998
40
0.9375
40
0.9375
40
1
40
1
40
1
40
1
41
1
10
10.5633742071884
20
-4.99808082396561
30
0
41
1
10
10.5385988355125
20
-4.98631666826171
30
0
41
1
10
10.5144141444734
20
-4.97414538324958
30
0
41
1
10
10.479604583924
20
-4.95495924970774
30
0
41
1
10
10.4682333874035
20
-4.94839702613606
30
0
41
1
10
10.4462818376528
20
-4.93490646544865
30
0
41
1
10
10.4356988036559
20
-4.92798330952198
30
0
41
1
10
10.415734267731
20
-4.91361987883371
30
0
41
1
10
10.4063283544676
20
-4.90618888392075
30
0
41
1
10
10.393841617624
20
-4.89437739008886
30
0
41
1
10
10.3899400958053
20
-4.89031075470609
30
0
41
1
10
10.3830680905497
20
-4.88191375036106
30
0
41
1
10
10.3800960356761
20
-4.87759561061287
30
0
41
1
10
10.3757823931061
20
-4.86866603410917
30
0
41
1
10
10.374445986124
20
-4.86412979497842
30
0
41
1
10
10.374749756803
20
-4.85714169987844
30
0
41
1
10
10.3752544946613
20
-4.85481845993991
30
0
41
1
10
10.3772739593753
20
-4.85029969058627
30
0
41
1
10
10.3788259021372
20
-4.84806868572417
30
0
41
1
10
10.3829331678934
20
-4.84398815588008
30
0
41
1
10
10.3855234661126
20
-4.84209105665434
30
0
41
1
10
10.3915617604389
20
-4.83870430036652
30
0
41
1
10
10.3949376073606
20
-4.83724190508067
30
0
41
1
10
10.4059138556346
20
-4.83340699799538
30
0
41
1
10
10.4139691164113
20
-4.83169033320888
30
0
41
1
10
10.4223449943755
20
-4.83044364018633
30
0
0
SPLINE
5
15B
100
AcDbEntity
8
1
62
256
6
ByLayer
370
18
48
1
60
0
100
AcDbSpline
70
4
71
3
72
12
73
8
40
0
40
0
40
0
40
0
40
0.499999999999998
40
0.499999999999998
40
0.749999999999999
40
0.749999999999999
40
1
40
1
40
1
40
1
41
1
10
10.4223449943755
20
-4.83044364018636
30
0
41
1
10
10.4422640421917
20
-4.8274788240758
30
0
41
1
10
10.4614854149701
20
-4.82360541841686
30
0
41
1
10
10.488712652495
20
-4.81567642030299
30
0
41
1
10
10.497554079002
20
-4.81265312200182
30
0
41
1
10
10.5140580540457
20
-4.80588951018646
30
0
41
1
10
10.5217763835965
20
-4.80213738733318
30
0
41
1
10
10.5288758316367
20
-4.79795059133011
30
0
0
SPLINE
5
15C
100
AcDbEntity
8
1
62
256
6
ByLayer
370
18
48
1
60
0
100
AcDbSpline
70
4
71
3
72
19
73
15
40
0
40
0
40
0
40
0
40
0.25
40
0.25
40
0.500000000000001
40
0.500000000000001
40
0.531250000000001
40
0.531250000000001
40
0.562500000000001
40
0.562500000000001
40
0.625000000000002
40
0.750000000000001
40
0.750000000000001
40
1
40
1
40
1
40
1
41
1
10
10.528875831637
20
-4.79795059133019
30
0
41
1
10
10.3345808514454
20
-4.67563437003204
30
0
41
1
10
10.1524207337759
20
-4.53898231354054
30
0
41
1
10
9.81287974011485
20
-4.23273015204433
30
0
41
1
10
9.65548943369797
20
-4.06315583816433
30
0
41
1
10
9.49251773401028
20
-3.85073920268744
30
0
41
1
10
9.47460548939173
20
-3.82683552588659
30
0
41
1
10
9.43917309059984
20
-3.77841133152148
30
0
41
1
10
9.4216347355092
20
-3.75386441663542
30
0
41
1
10
9.36975824848665
20
-3.67949362323222
30
0
41
1
10
9.26902924776226
20
-3.52794851915024
30
0
41
1
10
9.17712339044891
20
-3.36792584224418
30
0
41
1
10
9.00449053723972
20
-3.03630842798435
30
0
41
1
10
8.90425844496201
20
-2.79986119502465
30
0
41
1
10
8.81778846665145
20
-2.54677002723844
30
0
0
SPLINE
5
15D
100
AcDbEntity
8
1
62
256
6
ByLayer
370
18
48
1
60
0
100
AcDbSpline
70
4
71
3
72
18
73
14
40
0
40
0
40
0
40
0
40
0.250000000000036
40
0.250000000000036
40
0.500000000000072
40
0.500000000000072
40
0.625000000000082
40
0.625000000000082
40
0.687500000000069
40
0.687500000000069
40
0.750000000000056
40
0.750000000000056
40
1
40
1
40
1
40
1
41
1
10
8.81778846665148
20
-2.54677002723844
30
0
41
1
10
8.81006501502054
20
-2.52416406120489
30
0
41
1
10
8.80516667632256
20
-2.50105325790128
30
0
41
1
10
8.80392960409364
20
-2.45335304997494
30
0
41
1
10
8.80767522919717
20
-2.43006706744041
30
0
41
1
10
8.82155961326191
20
-2.39628757256565
30
0
41
1
10
8.82743069568483
20
-2.38561081223284
30
0
41
1
10
8.83789716507988
20
-2.37056413746711
30
0
41
1
10
8.8416668974055
20
-2.36570149966508
30
0
41
1
10
8.84975236954887
20
-2.35627443318646
30
0
41
1
10
8.85409388932084
20
-2.35168709387287
30
0
41
1
10
8.87671495471994
20
-2.32987050201623
30
0
41
1
10
8.89772702133496
20
-2.31576278668521
30
0
41
1
10
8.92075790627916
20
-2.30399018581531
30
0
0
SPLINE
5
15E
100
AcDbEntity
8
1
62
256
6
ByLayer
370
18
48
1
60
0
100
AcDbSpline
70
4
71
3
72
38
73
34
40
0
40
0
40
0
40
0
40
0.0312500000000018
40
0.0312500000000018
40
0.0625000000000036
40
0.0625000000000036
40
0.125000000000007
40
0.125000000000007
40
0.156250000000007
40
0.156250000000007
40
0.187500000000007
40
0.187500000000007
40
0.250000000000006
40
0.250000000000006
40
0.312500000000005
40
0.312500000000005
40
0.375000000000004
40
0.375000000000004
40
0.437500000000003
40
0.437500000000003
40
0.500000000000003
40
0.500000000000003
40
0.562500000000002
40
0.562500000000002
40
0.625000000000001
40
0.625000000000001
40
0.749999999999999
40
0.749999999999999
40
0.812499999999998
40
0.812499999999998
40
0.874999999999998
40
0.874999999999998
40
1
40
1
40
1
40
1
41
1
10
8.92075790627914
20
-2.30399018581531
30
0
41
1
10
8.9629387431485
20
-2.28242878433099
30
0
41
1
10
9.00589695226086
20
-2.26314476692687
30
0
41
1
10
9.09302900344159
20
-2.22816958519334
30
0
41
1
10
9.1372053360019
20
-2.21248542610911
30
0
41
1
10
9.27123989582117
20
-2.16991706011029
30
0
41
1
10
9.36258658020802
20
-2.14746863353255
30
0
41
1
10
9.50183873470112
20
-2.12053388031197
30
0
41
1
10
9.54863366065183
20
-2.11269419824433
30
0
41
1
10
9.64290111917285
20
-2.09906810313194
30
0
41
1
10
9.69038441218996
20
-2.09328577954011
30
0
41
1
10
9.83270064456266
20
-2.07884622466821
30
0
41
1
10
9.92777212845215
20
-2.07301796266313
30
0
41
1
10
10.1182343271234
20
-2.06763489921482
30
0
41
1
10
10.2136826047651
20
-2.06809227593578
30
0
41
1
10
10.4046136472856
20
-2.07445104854392
30
0
41
1
10
10.4998052485925
20
-2.08034214907383
30
0
41
1
10
10.6897080323559
20
-2.09686139079096
30
0
41
1
10
10.7844188681642
20
-2.10749282454637
30
0
41
1
10
10.9734064638917
20
-2.13300338706463
30
0
41
1
10
11.0675729395125
20
-2.14787169480229
30
0
41
1
10
11.2549434434041
20
-2.18135054255904
30
0
41
1
10
11.3482066779433
20
-2.19997014714517
30
0
41
1
10
11.5339554309132
20
-2.24062266440538
30
0
41
1
10
11.626458996525
20
-2.26266362433327
30
0
41
1
10
11.9021320249515
20
-2.33326143925356
30
0
41
1
10
12.0837304618921
20
-2.38633413253322
30
0
41
1
10
12.3532932784471
20
-2.47333709536437
30
0
41
1
10
12.442722985999
20
-2.50359183460876
30
0
41
1
10
12.6204066824919
20
-2.56623029056169
30
0
41
1
10
12.7086596911784
20
-2.59861175555886
30
0
41
1
10
12.971778507317
20
-2.698582856976
30
0
41
1
10
13.1450051831086
20
-2.76899580506975
30
0
41
1
10
13.3163586137524
20
-2.84227568127704
30
0
0
SPLINE
5
15F
100
AcDbEntity
8
1
62
256
6
ByLayer
370
18
48
1
60
0
100
AcDbSpline
70
4
71
3
72
31
73
27
40
0
40
0
40
0
40
0
40
0.125000000000044
40
0.125000000000044
40
0.250000000000087
40
0.250000000000087
40
0.312500000000109
40
0.312500000000109
40
0.375000000000132
40
0.375000000000132
40
0.437500000000154
40
0.437500000000154
40
0.500000000000176
40
0.500000000000176
40
0.562500000000198
40
0.593750000000177
40
0.593750000000177
40
0.625000000000156
40
0.625000000000156
40
0.687500000000114
40
0.687500000000114
40
0.750000000000072
40
0.750000000000072
40
0.875000000000036
40
0.875000000000036
40
1
40
1
40
1
40
1
41
1
10
34.9222631142943
20
-3.10971050633131
30
0
41
1
10
34.944506509042
20
-3.12206631403379
30
0
41
1
10
34.9671538875347
20
-3.13360196051721
30
0
41
1
10
35.0135688612462
20
-3.15445585892621
30
0
41
1
10
35.0373304116166
20
-3.16378524684251
30
0
41
1
10
35.0742145348892
20
-3.17537461458883
30
0
41
1
10
35.08671839638
20
-3.17883291719804
30
0
41
1
10
35.1122577624631
20
-3.18473076420463
30
0
41
1
10
35.1251837113676
20
-3.18714072645642
30
0
41
1
10
35.1511980852049
20
-3.19062761216944
30
0
41
1
10
35.1643159771766
20
-3.1917124694715
30
0
41
1
10
35.1908239915991
20
-3.19228292172124
30
0
41
1
10
35.2042835274958
20
-3.19174737682388
30
0
41
1
10
35.2306319666241
20
-3.18885050975433
30
0
41
1
10
35.250106428342
20
-3.18532358401254
30
0
41
1
10
35.2691221250724
20
-3.17963234445119
30
0
41
1
10
35.2816941073051
20
-3.17534228089815
30
0
41
1
10
35.2879595196708
20
-3.17293463854557
30
0
41
1
10
35.3063051196831
20
-3.1650748021315
30
0
41
1
10
35.31794080607
20
-3.15900026292454
30
0
41
1
10
35.3401635571773
20
-3.14538487563098
30
0
41
1
10
35.3507887731325
20
-3.13781240452241
30
0
41
1
10
35.3810211106927
20
-3.11336119281484
30
0
41
1
10
35.3985350552188
20
-3.0952281495862
30
0
41
1
10
35.4301731609538
20
-3.05663241959388
30
0
41
1
10
35.444300929126
20
-3.03609212396947
30
0
41
1
10
35.4570661398652
20
-3.01502503741608
30
0
0
SPLINE
5
160
100
AcDbEntity
8
1
62
256
6
ByLayer
370
18
48
1
60
0
100
AcDbSpline
70
4
71
3
72
8
73
4
40
0
40
0
40
0
40
0
40
1
40
1
40
1
40
1
41
1
10
35.4570981089073
20
-3.01501268151057
30
0
41
1
10
35.4556919770471
20
-3.01320046910638
30
0
41
1
10
35.4542856190764
20
-3.01138801202006
30
0
41
1
10
35.4528790258428
20
-3.00957531682542
30
0
0
SPLINE
5
161
100
AcDbEntity
8
1
62
256
6
ByLayer
370
18
48
1
60
0
100
AcDbSpline
70
4
71
3
72
36
73
32
40
0
40
0
40
0
40
0
40
0.0079179804189828
40
0.048458036258062
40
0.0889980920971412
40
0.12953814793622
40
0.1700782037753
40
0.190348231694839
40
0.210618259614379
40
0.251158315453458
40
0.271428343372997
40
0.291698371292537
40
0.332238427131616
40
0.352508455051156
40
0.372778482970695
40
0.413318538809775
40
0.433588566729314
40
0.453858594648854
40
0.494398650487933
40
0.534938706327012
40
0.575478762166091
40
0.61601881800517
40
0.65655887384425
40
0.737638985522408
40
0.778179041361487
40
0.818719097200566
40
0.859259153039646
40
0.899799208878725
40
0.940339264717804
40
0.980879320556883
40
1
40
1
40
1
40
1
41
1
10
18.598338392143
20
5.94412733833136
30
0
41
1
10
18.6424854649378
20
5.94222692048203
30
0
41
1
10
18.9126589136453
20
5.9290387203516
30
0
41
1
10
19.408796264625
20
5.88732969175177
30
0
41
1
10
20.0867977117706
20
5.79060228677022
30
0
41
1
10
20.7649147902004
20
5.65494254771102
30
0
41
1
10
21.3302159607833
20
5.50996914759119
30
0
41
1
10
21.7825838323778
20
5.37548797615668
30
0
41
1
10
22.2350444626249
20
5.22898352144446
30
0
41
1
10
22.6876571185549
20
5.06451830464275
30
0
41
1
10
23.140432976122
20
4.88305142486746
30
0
41
1
10
23.5933250116097
20
4.69060973200536
30
0
41
1
10
24.0463948824659
20
4.48192538563336
30
0
41
1
10
24.4996066402382
20
4.25822239077502
30
0
41
1
10
24.9529047293373
20
4.02492467860156
30
0
41
1
10
25.40631779363
20
3.7776174342217
30
0
41
1
10
25.8598105090154
20
3.51772266674186
30
0
41
1
10
26.3133463230378
20
3.24989652248758
30
0
41
1
10
26.8803304549141
20
2.90086189361369
30
0
41
1
10
27.5607070687215
20
2.46246793879555
30
0
41
1
10
28.241004331947
20
2.00734623415349
30
0
41
1
10
28.9210806970459
20
1.5388742582621
30
0
41
1
10
29.8277780411082
20
0.900218126534895
30
0
41
1
10
30.7357173387742
20
0.246342557666736
30
0
41
1
10
31.6475279829846
20
-0.411364845526293
30
0
41
1
10
32.333878816987
20
-0.903695988556109
30
0
41
1
10
33.02342144522
20
-1.39202899593758
30
0
41
1
10
33.7168033632665
20
-1.87329460789974
30
0
41
1
10
34.4148360929326
20
-2.34447291151261
30
0
41
1
10
34.9942384668159
20
-2.72163498143959
30
0
41
1
10
35.341388323964
20
-2.94020353230351
30
0
41
1
10
35.4528790258345
20
-3.00957531683008
30
0
0
SPLINE
5
162
100
AcDbEntity
8
1
62
256
6
ByLayer
370
18
48
1
60
0
100
AcDbSpline
70
4
71
3
72
28
73
24
40
0
40
0
40
0
40
0
40
0.0625000000000032
40
0.0625000000000032
40
0.0937500000000049
40
0.0937500000000049
40
0.125000000000006
40
0.125000000000006
40
0.187500000000009
40
0.187500000000009
40
0.250000000000012
40
0.250000000000012
40
0.312500000000015
40
0.312500000000015
40
0.375000000000018
40
0.375000000000018
40
0.500000000000013
40
0.500000000000013
40
0.625000000000009
40
0.625000000000009
40
0.750000000000005
40
0.750000000000005
40
1
40
1
40
1
40
1
41
1
10
35.4528790258349
20
-3.00957531683034
30
0
41
1
10
35.4685841246853
20
-2.99788539254345
30
0
41
1
10
35.482221611261
20
-2.98443736944989
30
0
41
1
10
35.5006307931617
20
-2.96252734409245
30
0
41
1
10
35.5064201154932
20
-2.95492929560046
30
0
41
1
10
35.5174243592875
20
-2.93924580802297
30
0
41
1
10
35.5226510579606
20
-2.93113563797033
30
0
41
1
10
35.5373787316473
20
-2.90658945776139
30
0
41
1
10
35.5460358191416
20
-2.88982374971525
30
0
41
1
10
35.5618183958961
20
-2.85576487008584
30
0
41
1
10
35.568934390121
20
-2.83846836284005
30
0
41
1
10
35.5820553665259
20
-2.80349382512998
30
0
41
1
10
35.5880566847048
20
-2.78581451012948
30
0
41
1
10
35.599213546657
20
-2.75016607663619
30
0
41
1
10
35.6043733692504
20
-2.7321711410635
30
0
41
1
10
35.6187706542097
20
-2.67816714070278
30
0
41
1
10
35.6269771276377
20
-2.64205173718147
30
0
41
1
10
35.6416155228978
20
-2.56967831275321
30
0
41
1
10
35.6480343017658
20
-2.53341915399011
30
0
41
1
10
35.6596131979347
20
-2.46079923838712
30
0
41
1
10
35.6647684196892
20
-2.42443806406337
30
0
41
1
10
35.6788223006436
20
-2.31523900337109
30
0
41
1
10
35.6863347374511
20
-2.24228761412005
30
0
41
1
10
35.6927046650757
20
-2.16923730864747
30
0
0
SPLINE
5
163
100
AcDbEntity
8
1
62
256
6
ByLayer
370
18
48
1
60
0
100
AcDbSpline
70
4
71
3
72
16
73
12
40
0
40
0
40
0
40
0
40
0.25
40
0.25
40
0.500000000000001
40
0.500000000000001
40
0.750000000000001
40
0.750000000000001
40
0.875000000000001
40
0.875000000000001
40
1
40
1
40
1
40
1
41
1
10
36.4047643346928
20
-2.24725213527043
30
0
41
1
10
36.3475626527552
20
-2.25586970801209
30
0
41
1
10
36.2897988684081
20
-2.25996913496826
30
0
41
1
10
36.1731954391454
20
-2.26041940937478
30
0
41
1
10
36.1143550203915
20
-2.25676477047213
30
0
41
1
10
35.9956078865286
20
-2.24265570821049
30
0
41
1
10
35.935707390003
20
-2.23222411179179
30
0
41
1
10
35.8450212795674
20
-2.21192829240806
30
0
41
1
10
35.814626081982
20
-2.20437725324698
30
0
41
1
10
35.7536689967745
20
-2.18783153295595
30
0
41
1
10
35.7231907613323
20
-2.1788609906863
30
0
41
1
10
35.6927046650767
20
-2.16923730864462
30
0
0
SPLINE
5
164
100
AcDbEntity
8
1
62
256
6
ByLayer
370
13
48
1
60
0
100
AcDbSpline
70
4
71
3
72
13
73
9
40
0
40
0
40
0
40
0
40
0.167163465864845
40
0.345659739300005
40
0.524156012735165
40
0.702652286170325
40
0.881148559605486
40
1
40
1
40
1
40
1
41
1
10
36.4047643346928
20
-2.24725213527043
30
0
41
1
10
35.9365095564619
20
-1.9685329984475
30
0
41
1
10
34.968254778231
20
-1.369871247021
30
0
41
1
10
33.5000000000001
20
-0.421096599612071
30
0
41
1
10
32.0000000000001
20
0.567427553548754
30
0
41
1
10
30.5000000000001
20
1.53113170212455
30
0
41
1
10
29.1670758495201
20
2.34574742064379
30
0
41
1
10
28.33415169904
20
2.81777963717602
30
0
41
1
10
28.0012275485599
20
2.99907901934867
30
0
0
SPLINE
5
165
100
AcDbEntity
8
1
62
256
6
ByLayer
370
18
48
1
60
0
100
AcDbSpline
70
4
71
3
72
63
73
59
40
0
40
0
40
0
40
0
40
0.0219862367038932
40
0.0219862367038932
40
0.0439724734077864
40
0.0439724734077864
40
0.0879449468155728
40
0.0879449468155728
40
0.131917420223359
40
0.131917420223359
40
0.175889893631146
40
0.175889893631146
40
0.219862367038932
40
0.219862367038932
40
0.263834840446718
40
0.263834840446718
40
0.307807313854505
40
0.307807313854505
40
0.329793550558399
40
0.329793550558399
40
0.351779787262293
40
0.351779787262293
40
0.439724734077873
40
0.439724734077873
40
0.483697207485663
40
0.483697207485663
40
0.527669680893453
40
0.527669680893453
40
0.571642154301243
40
0.571642154301243
40
0.615614627709033
40
0.615614627709033
40
0.637600864412929
40
0.637600864412929
40
0.659587101116825
40
0.703559574524617
40
0.703559574524617
40
0.725545811228512
40
0.725545811228512
40
0.747532047932407
40
0.747532047932407
40
0.769518284636302
40
0.769518284636302
40
0.791504521340197
40
0.791504521340197
40
0.813490758044092
40
0.813490758044092
40
0.835476994747987
40
0.879449468155778
40
0.879449468155778
40
0.901435704859672
40
0.901435704859672
40
0.923421941563566
40
0.923421941563566
40
0.94540817826746
40
0.94540817826746
40
0.967394414971354
40
1
40
1
40
1
40
1
41
1
10
35.6927046650759
20
-2.16923730864437
30
0
41
1
10
35.5789648112723
20
-2.09552742313716
30
0
41
1
10
35.465349325311
20
-2.02128273216002
30
0
41
1
10
35.2385655186655
20
-1.87202738951635
30
0
41
1
10
35.1253519128105
20
-1.79698838961761
30
0
41
1
10
34.7861318192542
20
-1.57080508009901
30
0
41
1
10
34.5605501879792
20
-1.41858802858781
30
0
41
1
10
34.1102150049601
20
-1.11172733288413
30
0
41
1
10
33.8854529351754
20
-0.957097494413745
30
0
41
1
10
33.4363052171698
20
-0.646082603063945
30
0
41
1
10
33.2119420820641
20
-0.489663520575732
30
0
41
1
10
32.7630601139258
20
-0.17582167496667
30
0
41
1
10
32.5385325855906
20
-0.0184119676867169
30
0
41
1
10
32.0886243129809
20
0.296394125608174
30
0
41
1
10
31.8632225532731
20
0.453759081307169
30
0
41
1
10
31.4110860863646
20
0.767804990881189
30
0
41
1
10
31.184368537774
20
0.924511476038276
30
0
41
1
10
30.8429866931768
20
1.15859759015152
30
0
41
1
10
30.7293100984173
20
1.23623447062718
30
0
41
1
10
30.5024528926575
20
1.39045849644307
30
0
41
1
10
30.3892237545074
20
1.46708048785493
30
0
41
1
10
29.82394136329
20
1.8475605295059
30
0
41
1
10
29.3744923392674
20
2.1435573406734
30
0
41
1
10
28.7015534028798
20
2.57084830820512
30
0
41
1
10
28.4774382465657
20
2.71047989012445
30
0
41
1
10
28.0289211937457
20
2.98351834375441
30
0
41
1
10
27.8045225524515
20
3.11693617776132
30
0
41
1
10
27.3550348490334
20
3.37684550703176
30
0
41
1
10
27.1299418490925
20
3.50332566232814
30
0
41
1
10
26.6785702154585
20
3.74883501897782
30
0
41
1
10
26.4522953723162
20
3.8678773474833
30
0
41
1
10
26.1116764331849
20
4.04022640006417
30
0
41
1
10
25.9978406815682
20
4.09667766942223
30
0
41
1
10
25.7704800820762
20
4.20707186881694
30
0
41
1
10
25.4296793543865
20
4.36903252517041
30
0
41
1
10
25.0894210007597
20
4.5197926244274
30
0
41
1
10
24.7492295017246
20
4.66261082980847
30
0
41
1
10
24.635844366005
20
4.70888743758036
30
0
41
1
10
24.4089922653292
20
4.79881577454043
30
0
41
1
10
24.295524124277
20
4.84247251988012
30
0
41
1
10
24.068468486618
20
4.92708275705414
30
0
41
1
10
23.9548812264473
20
4.96803534176496
30
0
41
1
10
23.7275392446564
20
5.04715312652701
30
0
41
1
10
23.6137098845703
20
5.08534158311093
30
0
41
1
10
23.3863327129775
20
5.15867726539943
30
0
41
1
10
23.272764929472
20
5.19382915862568
30
0
41
1
10
23.0457562760484
20
5.26119043334776
30
0
41
1
10
22.7054309257597
20
5.35783587405635
30
0
41
1
10
22.3655069058174
20
5.44089546405689
30
0
41
1
10
22.025474057562
20
5.51450463399655
30
0
41
1
10
21.9121117300589
20
5.53746033933368
30
0
41
1
10
21.685236314794
20
5.58030477927261
30
0
41
1
10
21.5717226030671
20
5.60019897263277
30
0
41
1
10
21.3444922674887
20
5.6368211146131
30
0
41
1
10
21.2307018905456
20
5.65355660371728
30
0
41
1
10
21.003311947654
20
5.68375693789855
30
0
41
1
10
20.7212404149167
20
5.71719868582559
30
0
41
1
10
20.4395627279844
20
5.74053026069782
30
0
41
1
10
20.2713485510546
20
5.75089953125138
30
0
0
SPLINE
5
166
100
AcDbEntity
8
1
62
256
6
ByLayer
370
18
48
1
60
0
100
AcDbSpline
70
4
71
3
72
14
73
10
40
0
40
0
40
0
40
0
40
0.25
40
0.25
40
0.5
40
0.5
40
0.75
40
0.75
40
1
40
1
40
1
40
1
41
1
10
36.4163716801027
20
-5.31916816630553
30
0
41
1
10
36.3608654716002
20
-5.36165221490853
30
0
41
1
10
36.3048848778308
20
-5.40167357515804
30
0
41
1
10
36.1920061159126
20
-5.47735268317427
30
0
41
1
10
36.1351069703587
20
-5.51300625708504
30
0
41
1
10
36.0203857283243
20
-5.58031731136006
30
0
41
1
10
35.9625660081648
20
-5.61198156181217
30
0
41
1
10
35.8459668225745
20
-5.6715313738633
30
0
41
1
10
35.7870397966396
20
-5.69942716117973
30
0
41
1
10
35.7282305600477
20
-5.72521961006782
30
0
0
SPLINE
5
167
100
AcDbEntity
8
1
62
256
6
ByLayer
370
13
48
1
60
0
100
AcDbSpline
70
4
71
3
72
20
73
16
40
0
40
0
40
0
40
0
40
0.0776001365215229
40
0.159782099361851
40
0.241964062202179
40
0.324146025042507
40
0.406327987882835
40
0.488509950723163
40
0.570691913563491
40
0.65287387640382
40
0.735055839244148
40
0.817237802084476
40
0.899419764924804
40
0.981601727765132
40
1
40
1
40
1
40
1
41
1
10
36.4163716801027
20
-5.31916816630553
30
0
41
1
10
35.9442477867352
20
-5.3759810804126
30
0
41
1
10
34.9721238933676
20
-5.43302608342458
30
0
41
1
10
33.5000000000001
20
-5.33072870007501
30
0
41
1
10
32.0000000000001
20
-5.02694923840818
30
0
41
1
10
30.5000000000001
20
-4.54259157896934
30
0
41
1
10
29.0000000000001
20
-3.89173721722727
30
0
41
1
10
27.5000000000001
20
-3.09523259465823
30
0
41
1
10
26.0000000000001
20
-2.18537518315199
30
0
41
1
10
24.5000000000001
20
-1.19819993536714
30
0
41
1
10
23.0000000000001
20
-0.164315947266317
30
0
41
1
10
21.5000000000001
20
0.873590960095413
30
0
41
1
10
20.0000000000001
20
1.88066459380889
30
0
41
1
10
18.8880638062236
20
2.57614528445367
30
0
41
1
10
18.276127612447
20
2.93275189023109
30
0
41
1
10
18.1641914186704
20
2.99705563022462
30
0
0
SPLINE
5
168
100
AcDbEntity
8
1
62
256
6
ByLayer
370
18
48
1
60
0
100
AcDbSpline
70
4
71
3
72
8
73
4
40
0
40
0
40
0
40
0
40
1
40
1
40
1
40
1
41
1
10
18.1641915198829
20
2.99705557208125
30
0
41
1
10
18.1521662064048
20
3.00396372762833
30
0
41
1
10
18.1401408929267
20
3.01086118191083
30
0
41
1
10
18.1281155794487
20
3.01774786974735
30
0
0
SPLINE
5
169
100
AcDbEntity
8
1
62
256
6
ByLayer
370
18
48
1
60
0
100
AcDbSpline
70
4
71
3
72
10
73
6
40
0
40
0
40
0
40
0
40
0.961085285137159
40
0.961085285137159
40
1
40
1
40
1
40
1
41
1
10
35.4320001180299
20
-5.74610140269934
30
0
41
1
10
35.44972460573
20
-5.7426199234481
30
0
41
1
10
35.4660430902485
20
-5.7395132796585
30
0
41
1
10
35.48180258643
20
-5.7366344610775
30
0
41
1
10
35.4824141266717
20
-5.73652295930268
30
0
41
1
10
35.483023840355
20
-5.73641199921639
30
0
0
SPLINE
5
16A
100
AcDbEntity
8
1
62
256
6
ByLayer
370
18
48
1
60
0
100
AcDbSpline
70
4
71
3
72
94
73
90
40
0
40
0
40
0
40
0
40
0.0156249999999993
40
0.0156249999999993
40
0.0312499999999987
40
0.0312499999999987
40
0.0624999999999973
40
0.0624999999999973
40
0.0937499999999959
40
0.0937499999999959
40
0.124999999999995
40
0.124999999999995
40
0.156249999999993
40
0.156249999999993
40
0.187499999999992
40
0.187499999999992
40
0.203124999999991
40
0.203124999999991
40
0.210937499999991
40
0.210937499999991
40
0.218749999999991
40
0.218749999999991
40
0.249999999999992
40
0.249999999999992
40
0.312499999999994
40
0.312499999999994
40
0.328124999999994
40
0.328124999999994
40
0.343749999999994
40
0.343749999999994
40
0.374999999999994
40
0.374999999999994
40
0.406249999999993
40
0.406249999999993
40
0.414062499999994
40
0.421874999999994
40
0.437499999999994
40
0.437499999999994
40
0.453124999999995
40
0.453124999999995
40
0.468749999999996
40
0.468749999999996
40
0.499999999999997
40
0.499999999999997
40
0.515624999999998
40
0.515624999999998
40
0.531249999999999
40
0.531249999999999
40
0.562500000000001
40
0.562500000000001
40
0.578125000000002
40
0.578125000000002
40
0.593750000000002
40
0.593750000000002
40
0.609375000000002
40
0.609375000000002
40
0.625000000000003
40
0.625000000000003
40
0.640625000000003
40
0.640625000000003
40
0.656250000000004
40
0.656250000000004
40
0.687500000000005
40
0.687500000000005
40
0.718750000000006
40
0.718750000000006
40
0.750000000000007
40
0.750000000000007
40
0.781250000000008
40
0.781250000000008
40
0.812500000000009
40
0.812500000000009
40
0.820312500000008
40
0.820312500000008
40
0.828125000000008
40
0.828125000000008
40
0.843750000000007
40
0.843750000000007
40
0.875000000000006
40
0.875000000000006
40
0.906250000000004
40
0.906250000000004
40
0.921875000000004
40
0.921875000000004
40
0.937500000000003
40
0.937500000000003
40
0.968750000000002
40
0.968750000000002
40
1
40
1
40
1
40
1
41
1
10
35.7282305600477
20
-5.72521961006785
30
0
41
1
10
35.6141112871172
20
-5.73612185862319
30
0
41
1
10
35.500150444076
20
-5.74516256024722
30
0
41
1
10
35.2726730512492
20
-5.75955685374998
30
0
41
1
10
35.1591142546777
20
-5.76491477462329
30
0
41
1
10
34.8187835455061
20
-5.77556903106344
30
0
41
1
10
34.5923348999838
20
-5.7754583270351
30
0
41
1
10
34.1402720757678
20
-5.76083984251395
30
0
41
1
10
33.9146576665032
20
-5.74633290497624
30
0
41
1
10
33.4640706741556
20
-5.70306198392655
30
0
41
1
10
33.2391644503238
20
-5.67426157644502
30
0
41
1
10
32.789242928815
20
-5.60230075019135
30
0
41
1
10
32.5642003839509
20
-5.55914503282517
30
0
41
1
10
32.1128383247104
20
-5.45888710736611
30
0
41
1
10
31.8864692395079
20
-5.40183203041229
30
0
41
1
10
31.545399976463
20
-5.30585907602813
30
0
41
1
10
31.4314703238484
20
-5.27212190619741
30
0
41
1
10
31.2601781263519
20
-5.21892111938692
30
0
41
1
10
31.2030086485221
20
-5.20075257019235
30
0
41
1
10
31.0888605949203
20
-5.16366504825655
30
0
41
1
10
31.0318407472096
20
-5.14473348614402
30
0
41
1
10
30.7469925825067
20
-5.0481707344521
30
0
41
1
10
30.5199189253059
20
-4.96483900439895
30
0
41
1
10
29.8405493302177
20
-4.69713531771453
30
0
41
1
10
29.3900780472956
20
-4.49510963261793
30
0
41
1
10
28.8272606229473
20
-4.21496131922706
30
0
41
1
10
28.7147121573692
20
-4.15753679244747
30
0
41
1
10
28.4895208137736
20
-4.04013333048118
30
0
41
1
10
28.3768748619993
20
-3.98016856725357
30
0
41
1
10
28.0386865891285
20
-3.79652951980555
30
0
41
1
10
27.8128988851055
20
-3.66910327021256
30
0
41
1
10
27.3600890452709
20
-3.40438070336862
30
0
41
1
10
27.133052861879
20
-3.2671114284083
30
0
41
1
10
26.8480008658216
20
-3.09007276478158
30
0
41
1
10
26.7337739678092
20
-3.01864611756105
30
0
41
1
10
26.5057910473641
20
-2.874192866866
30
0
41
1
10
26.3353053480523
20
-2.7640808871997
30
0
41
1
10
26.1083684355558
20
-2.6157735331289
30
0
41
1
10
25.9950917293287
20
-2.540867012494
30
0
41
1
10
25.7687818701332
20
-2.3897804350388
30
0
41
1
10
25.6557459056164
20
-2.31360794824047
30
0
41
1
10
25.3169416087998
20
-2.08325745978269
30
0
41
1
10
25.0914842814191
20
-1.92723501703355
30
0
41
1
10
24.7536175030642
20
-1.68983689815386
30
0
41
1
10
24.6410510135006
20
-1.61013589451977
30
0
41
1
10
24.4159060498067
20
-1.44980644679146
30
0
41
1
10
24.3033237643119
20
-1.36918769280149
30
0
41
1
10
23.9654717536399
20
-1.12603803115812
30
0
41
1
10
23.7401056898513
20
-0.962196956582773
30
0
41
1
10
23.4014227723192
20
-0.714313169241251
30
0
41
1
10
23.2884242940447
20
-0.631325202945732
30
0
41
1
10
23.0620923100375
20
-0.464845490258597
30
0
41
1
10
22.9487546011285
20
-0.381364885299774
30
0
41
1
10
22.7216756757641
20
-0.213977094214414
30
0
41
1
10
22.6079370298768
20
-0.130064398979812
30
0
41
1
10
22.3799968629563
20
0.038129041855143
30
0
41
1
10
22.2656555039192
20
0.12251245301016
30
0
41
1
10
22.0376811122279
20
0.290656526701611
30
0
41
1
10
21.9239405909436
20
0.374501437861625
30
0
41
1
10
21.6968114570339
20
0.541602578928519
30
0
41
1
10
21.58341761142
20
0.624856510750931
30
0
41
1
10
21.2437176467964
20
0.873645040903767
30
0
41
1
10
21.0179026293834
20
1.03821004020574
30
0
41
1
10
20.5669329720301
20
1.36394277567058
30
0
41
1
10
20.3417977499314
20
1.52511780063085
30
0
41
1
10
19.8915364035711
20
1.84324415110007
30
0
41
1
10
19.6663876290365
20
2.00019219326256
30
0
41
1
10
19.2155719012957
20
2.30911889771468
30
0
41
1
10
18.9899032162696
20
2.46109307228377
30
0
41
1
10
18.5373572627372
20
2.75918750175902
30
0
41
1
10
18.3104656230979
20
2.90529269365757
30
0
41
1
10
18.025709027814
20
3.08374937091122
30
0
41
1
10
17.9687010644157
20
3.11923235127048
30
0
41
1
10
17.8545636741903
20
3.18976853916351
30
0
41
1
10
17.7974270548588
20
3.22482568993675
30
0
41
1
10
17.6262900160135
20
3.32904934813246
30
0
41
1
10
17.5124085776264
20
3.39736314121825
30
0
41
1
10
17.1712493726192
20
3.5987442709548
30
0
41
1
10
16.9444625179565
20
3.72825367565042
30
0
41
1
10
16.491659501821
20
3.9772512795688
30
0
41
1
10
16.2656564516612
20
4.09671406640624
30
0
41
1
10
15.9267395033304
20
4.26801373335138
30
0
41
1
10
15.8137757100155
20
4.32380955847955
30
0
41
1
10
15.5878267432776
20
4.43265855221134
30
0
41
1
10
15.4748423083862
20
4.48570807625794
30
0
41
1
10
15.1357135501101
20
4.64066873754379
30
0
41
1
10
14.9093848547728
20
4.73841301786322
30
0
41
1
10
14.4556342223119
20
4.92220514031541
30
0
41
1
10
14.2282298053922
20
5.00820769661217
30
0
41
1
10
14.0000000000001
20
5.0879597163827
30
0
0
SPLINE
5
16B
100
AcDbEntity
8
1
62
256
6
ByLayer
370
18
48
1
60
0
100
AcDbSpline
70
4
71
3
72
8
73
4
40
0
40
0
40
0
40
0
40
1
40
1
40
1
40
1
41
1
10
14.0000000000001
20
5.0879597163827
30
0
41
1
10
13.8337204766652
20
5.13903865126676
30
0
41
1
10
13.6683662419915
20
5.18809142339404
30
0
41
1
10
13.5040139801597
20
5.23495011259189
30
0
0
SPLINE
5
16C
100
AcDbEntity
8
1
62
256
6
ByLayer
370
18
48
1
60
0
100
AcDbSpline
70
4
71
3
72
20
73
16
40
0
40
0
40
0
40
0
40
0.250000000000008
40
0.250000000000008
40
0.500000000000016
40
0.500000000000016
40
0.625000000000012
40
0.625000000000012
40
0.68750000000001
40
0.68750000000001
40
0.750000000000008
40
0.750000000000008
40
0.875000000000004
40
0.875000000000004
40
1
40
1
40
1
40
1
41
1
10
34.9282334238078
20
-3.14932778641756
30
0
41
1
10
35.0658595519075
20
-3.23381647138385
30
0
41
1
10
35.2027513264892
20
-3.31178730970021
30
0
41
1
10
35.4761885602624
20
-3.45335005756181
30
0
41
1
10
35.6127252536125
20
-3.51696575380484
30
0
41
1
10
35.8181436986673
20
-3.59939588302433
30
0
41
1
10
35.8867199491746
20
-3.62469310456405
30
0
41
1
10
35.9898728258338
20
-3.65891328314064
30
0
41
1
10
36.0243054210084
20
-3.66969756672199
30
0
41
1
10
36.0932928542334
20
-3.68992316910823
30
0
41
1
10
36.1278219502734
20
-3.69935358514854
30
0
41
1
10
36.2308358640142
20
-3.72528104131433
30
0
41
1
10
36.2989989438977
20
-3.73949778646562
30
0
41
1
10
36.4343479201449
20
-3.76105351395034
30
0
41
1
10
36.5015340366694
20
-3.76839591097939
30
0
41
1
10
36.568239994634
20
-3.77178811786482
30
0
0
SPLINE
5
16D
100
AcDbEntity
8
1
62
256
6
ByLayer
370
18
48
1
60
0
100
AcDbSpline
70
4
71
3
72
8
73
4
40
0
40
0
40
0
40
0
40
1
40
1
40
1
40
1
41
1
10
34.8158092340259
20
-3.08025935795806
30
0
41
1
10
34.853291948617
20
-3.10330489173191
30
0
41
1
10
34.8907671409891
20
-3.1263272340542
30
0
41
1
10
34.9282334238102
20
-3.14932778641904
30
0
0
SPLINE
5
16E
100
AcDbEntity
8
1
62
256
6
ByLayer
370
18
48
1
60
0
100
AcDbSpline
70
4
71
3
72
8
73
4
40
0
40
0
40
0
40
0
40
1
40
1
40
1
40
1
41
1
10
34.8158092340259
20
-3.080259357958
30
0
41
1
10
34.8088850138806
20
-3.07600213296888
30
0
41
1
10
34.8019782880877
20
-3.07212157070504
30
0
41
1
10
34.7950915494391
20
-3.06862505240679
30
0
0
SPLINE
5
16F
100
AcDbEntity
8
1
62
256
6
ByLayer
370
13
48
1
60
0
100
AcDbSpline
70
4
71
3
72
16
73
12
40
0
40
0
40
0
40
0
40
0.0952026189213918
40
0.195735661263459
40
0.296268703605527
40
0.396801745947594
40
0.497334788289662
40
0.59786783063173
40
0.698400872973797
40
0.798933915315865
40
1
40
1
40
1
40
1
41
1
10
28.9204675901102
20
1.04070641833903
30
0
41
1
10
28.4469783934068
20
1.35557767188999
30
0
41
1
10
27.4734891967034
20
1.99262382204219
30
0
41
1
10
26
20
2.89433313932724
30
0
41
1
10
24.5
20
3.71274410705308
30
0
41
1
10
23
20
4.41074182248852
30
0
41
1
10
21.5
20
4.96762353202712
30
0
41
1
10
20
20
5.36225645003745
30
0
41
1
10
18.5
20
5.57285043834276
30
0
41
1
10
16.5
20
5.61149127680846
30
0
41
1
10
15
20
5.3713223571433
30
0
41
1
10
14
20
5.09351318721261
30
0
0
SPLINE
5
170
100
AcDbEntity
8
1
62
256
6
ByLayer
370
13
48
1
60
0
100
AcDbSpline
70
4
71
3
72
8
73
4
40
0
40
0
40
0
40
0
40
1
40
1
40
1
40
1
41
0.999987434938981
10
34.8153378303221
20
3.92817163725739
30
0
41
0.999987434938981
10
34.8142586739451
20
3.93486021331203
30
0
41
0.999987434938981
10
34.8131795175681
20
3.94154878936664
30
0
41
0.999987434938981
10
34.8121003611912
20
3.94823736542128
30
0
0
SPLINE
5
171
100
AcDbEntity
8
1
62
256
6
ByLayer
370
13
48
1
60
0
100
AcDbSpline
70
4
71
3
72
14
73
10
40
0
40
0
40
0
40
0
40
0.0841173636819375
40
0.214957740298804
40
0.34579811691567
40
0.476638493532536
40
0.607478870149402
40
0.738319246766268
40
1
40
1
40
1
40
1
41
1
10
25.464350980832
20
-3.63237108016241
30
0
41
1
10
25.142900653888
20
-3.5722514914722
30
0
41
1
10
24.3214503269439
20
-3.39446432593485
30
0
41
1
10
23
20
-3.01660111446069
30
0
41
1
10
21.5
20
-2.47753018429356
30
0
41
1
10
20
20
-1.85092003309907
30
0
41
1
10
18.5
20
-1.15845415552954
30
0
41
1
10
16.5
20
-0.189323929053614
30
0
41
1
10
15
20
0.552819394800651
30
0
41
1
10
14
20
1.01489831609314
30
0
0
SPLINE
5
172
100
AcDbEntity
8
1
62
256
6
ByLayer
370
18
48
1
60
0
100
AcDbSpline
70
4
71
3
72
16
73
12
40
0
40
0
40
0
40
0
40
0.0408521386862299
40
0.147424123276649
40
0.253996107867068
40
0.360568092457487
40
0.467140077047906
40
0.573712061638324
40
0.680284046228743
40
0.786856030819162
40
1
40
1
40
1
40
1
41
1
10
28.0749935901527
20
-4.99989430641509
30
0
41
1
10
27.8833290601018
20
-5.02456603952564
30
0
41
1
10
27.1916645300509
20
-5.09950002332087
30
0
41
1
10
26
20
-5.13889435851726
30
0
41
1
10
24.4999999999999
20
-5.02584585059805
30
0
41
1
10
23
20
-4.75511908814173
30
0
41
1
10
21.5
20
-4.33193358692839
30
0
41
1
10
20
20
-3.77137807825051
30
0
41
1
10
18.5
20
-3.09133379361199
30
0
41
1
10
16.5
20
-2.05473386925942
30
0
41
1
10
15
20
-1.16819264987916
30
0
41
1
10
14
20
-0.560855754731222
30
0
0
SPLINE
5
173
100
AcDbEntity
8
1
62
256
6
ByLayer
370
13
48
1
60
0
100
AcDbSpline
70
4
71
3
72
14
73
10
40
0
40
0
40
0
40
0
40
0.116927700153242
40
0.243080885845636
40
0.36923407153803
40
0.495387257230424
40
0.621540442922818
40
0.747693628615212
40
1
40
1
40
1
40
1
41
1
10
25.8903061525337
20
-5.25636204837477
30
0
41
1
10
25.4268707683558
20
-5.28069222522651
30
0
41
1
10
24.4634353841779
20
-5.28151841937944
30
0
41
1
10
23
20
-5.12547368650374
30
0
41
1
10
21.5
20
-4.80213033730382
30
0
41
1
10
20
20
-4.32662681733712
30
0
41
1
10
18.5
20
-3.7158278897391
30
0
41
1
10
16.4999999999999
20
-2.7420304727153
30
0
41
1
10
15
20
-1.86792236653332
30
0
41
1
10
14
20
-1.25879566796689
30
0
0
SPLINE
5
174
100
AcDbEntity
8
1
62
256
6
ByLayer
370
18
48
1
60
0
100
AcDbSpline
70
4
71
3
72
8
73
4
40
0
40
0
40
0
40
0
40
1
40
1
40
1
40
1
41
1
10
34.8153378303221
20
3.92817163725735
30
0
41
1
10
34.8097708688684
20
3.93108733519105
30
0
41
1
10
34.8042119730626
20
3.93418646681198
30
0
41
1
10
34.7986623300881
20
3.93747448476617
30
0
0
SPLINE
5
175
100
AcDbEntity
8
1
62
256
6
ByLayer
370
18
48
1
60
0
100
AcDbSpline
70
4
71
3
72
14
73
10
40
0
40
0
40
0
40
0
40
0.125000000000016
40
0.125000000000016
40
0.250000000000032
40
0.250000000000032
40
0.500000000000021
40
0.500000000000021
40
1
40
1
40
1
40
1
41
1
10
34.812100361188
20
3.94823736544015
30
0
41
1
10
34.8112428543782
20
3.94854936060509
30
0
41
1
10
34.8103126332823
20
3.94874844924035
30
0
41
1
10
34.8084265953344
20
3.9487499625597
30
0
41
1
10
34.8074944515291
20
3.94854318329632
30
0
41
1
10
34.8050263607467
20
3.94748419080366
30
0
41
1
10
34.803853724398
20
3.9463390314146
30
0
41
1
10
34.8009415323936
20
3.94280523104604
30
0
41
1
10
34.7997112172063
20
3.94013999515266
30
0
41
1
10
34.7986623300936
20
3.9374744847722
30
0
0
SPLINE
5
176
100
AcDbEntity
8
1
62
256
6
ByLayer
370
18
48
1
60
0
100
AcDbSpline
70
4
71
3
72
8
73
4
40
0
40
0
40
0
40
0
40
1
40
1
40
1
40
1
41
1
10
34.8121003611911
20
3.94823736542131
30
0
41
1
10
34.8384981041831
20
3.93863281408017
30
0
41
1
10
34.8648423874662
20
3.92892575213818
30
0
41
1
10
34.8910876482088
20
3.91904354691323
30
0
0
SPLINE
5
177
100
AcDbEntity
8
1
62
256
6
ByLayer
370
18
48
1
60
0
100
AcDbSpline
70
4
71
3
72
17
73
13
40
0
40
0
40
0
40
0
40
0.0125723656065711
40
0.105397008105222
40
0.198221650603873
40
0.291046293102524
40
0.476695578099826
40
0.569520220598477
40
0.662344863097128
40
0.84799414809443
40
0.940818790593081
40
1
40
1
40
1
40
1
41
1
10
27.4931418822047
20
5.9990271012413
30
0
41
1
10
27.5239206686277
20
5.99878409475227
30
0
41
1
10
27.7819452050919
20
5.99580978892555
30
0
41
1
10
28.2671959395826
20
5.9754370580265
30
0
41
1
10
28.9487328583168
20
5.91040703858573
30
0
41
1
10
29.8574310558417
20
5.7755738727729
30
0
41
1
10
30.7672074640967
20
5.56988426320603
30
0
41
1
10
31.6800720154214
20
5.29577949463811
30
0
41
1
10
32.5956594716587
20
4.97718107855496
30
0
41
1
10
33.516370056101
20
4.59395409324162
30
0
41
1
10
34.3603221189681
20
4.19082305871373
30
0
41
1
10
34.7421291247341
20
3.99655275829298
30
0
41
1
10
34.8910876482088
20
3.91904354691323
30
0
0
SPLINE
5
178
100
AcDbEntity
8
1
62
256
6
ByLayer
370
18
48
1
60
0
100
AcDbSpline
70
4
71
3
72
46
73
42
40
0
40
0
40
0
40
0
40
0.0069513761547212
40
0.0069513761547212
40
0.0345360601504275
40
0.0345360601504275
40
0.0483284021482808
40
0.0483284021482808
40
0.0621207441461341
40
0.11729011213754
40
0.11729011213754
40
0.227628848120353
40
0.227628848120353
40
0.255213532116056
40
0.255213532116056
40
0.28279821611176
40
0.28279821611176
40
0.337967584103164
40
0.337967584103164
40
0.448306320085973
40
0.448306320085973
40
0.475891004081676
40
0.475891004081676
40
0.503475688077379
40
0.503475688077379
40
0.558645056068784
40
0.558645056068784
40
0.66898379205159
40
0.66898379205159
40
0.69656847604729
40
0.69656847604729
40
0.724153160042991
40
0.724153160042991
40
0.779322528034392
40
0.779322528034392
40
0.889661264017193
40
0.889661264017193
40
0.917245948012894
40
0.917245948012894
40
0.944830632008595
40
1
40
1
40
1
40
1
41
1
10
22.9978782967631
20
5.2754066688245
30
0
41
1
10
23.0251411291241
20
5.28434264046456
30
0
41
1
10
23.0524138424172
20
5.29320435899189
30
0
41
1
10
23.1879622105239
20
5.33686039078043
30
0
41
1
10
23.2963900807737
20
5.37055312369398
30
0
41
1
10
23.4593159653283
20
5.41928491092972
30
0
41
1
10
23.513695958931
20
5.43523433026925
30
0
41
1
10
23.6224082099137
20
5.46648095879374
30
0
41
1
10
23.8940812853376
20
5.54297262166426
30
0
41
1
10
24.1653003298397
20
5.61131938853248
30
0
41
1
10
24.8159521843329
20
5.75950923983811
30
0
41
1
10
25.2493710990208
20
5.83719338302672
30
0
41
1
10
25.7924751185338
20
5.90719136187852
30
0
41
1
10
25.9011611367784
20
5.91983519730928
30
0
41
1
10
26.1187025769417
20
5.94238950705693
30
0
41
1
10
26.2275221956364
20
5.95229396592973
30
0
41
1
10
26.5535489183559
20
5.97782288373895
30
0
41
1
10
26.7705624680742
20
5.98929491237723
30
0
41
1
10
27.4211574864958
20
6.00708742074045
30
0
41
1
10
27.8542830008253
20
5.99679953802141
30
0
41
1
10
28.3969866728009
20
5.95609668378771
30
0
41
1
10
28.5055930841773
20
5.94656279745118
30
0
41
1
10
28.7229909177301
20
5.92470537920096
30
0
41
1
10
28.8316840342113
20
5.91239059313466
30
0
41
1
10
29.1574222640386
20
5.87136261709654
30
0
41
1
10
29.3742927769366
20
5.83855012652916
30
0
41
1
10
30.0246651447491
20
5.72410520541376
30
0
41
1
10
30.4579352762198
20
5.62649329785427
30
0
41
1
10
31.0010920577902
20
5.47864360812488
30
0
41
1
10
31.1098013593246
20
5.44777928346264
30
0
41
1
10
31.3274212502801
20
5.38347974992865
30
0
41
1
10
31.4361547294323
20
5.35009704284911
30
0
41
1
10
31.7621277085091
20
5.24633051209287
30
0
41
1
10
31.9791674822237
20
5.17232000317776
30
0
41
1
10
32.6299410949463
20
4.93623513085026
30
0
41
1
10
33.0633182913271
20
4.76011003903008
30
0
41
1
10
33.6063528653907
20
4.5179737509653
30
0
41
1
10
33.7150689302095
20
4.46842719477397
30
0
41
1
10
33.9325033094806
20
4.36725625594877
30
0
41
1
10
34.2581781041968
20
4.21261025417701
30
0
41
1
10
34.5826612884353
20
4.04960190800466
30
0
41
1
10
34.798662330088
20
3.93747448476609
30
0
0
SPLINE
5
179
100
AcDbEntity
8
1
62
256
6
ByLayer
370
13
48
1
60
0
100
AcDbSpline
70
4
71
3
72
13
73
9
40
0
40
0
40
0
40
0
40
0.309116960104997
40
0.463675440157495
40
0.618233920209993
40
0.772792400262491
40
0.927350880314989
40
1
40
1
40
1
40
1
41
1
10
14
20
1.51591596233666
30
0
41
1
10
15
20
1.11591580483099
30
0
41
1
10
16.5
20
0.457730146993072
30
0
41
1
10
18.5
20
-0.435467093496044
30
0
41
1
10
20
20
-1.09031479127884
30
0
41
1
10
21.5
20
-1.7042620549602
30
0
41
1
10
22.7350214613276
20
-2.15898061195745
30
0
41
1
10
23.4700429226551
20
-2.39951732169871
30
0
41
1
10
23.7050643839826
20
-2.47307811693469
30
0
0
SPLINE
5
17A
100
AcDbEntity
8
1
62
256
6
ByLayer
370
18
48
1
60
0
100
AcDbSpline
70
4
71
3
72
27
73
23
40
0
40
0
40
0
40
0
40
0.0744968804012241
40
0.114888504967876
40
0.155280129534527
40
0.23606337866783
40
0.316846627801133
40
0.357238252367785
40
0.397629876934437
40
0.438021501501088
40
0.47841312606774
40
0.518804750634391
40
0.559196375201043
40
0.599587999767695
40
0.639979624334346
40
0.720762873467649
40
0.761154498034301
40
0.801546122600952
40
0.882329371734256
40
0.922720996300907
40
0.963112620867559
40
1
40
1
40
1
40
1
41
1
10
13.9990046152554
20
-3.27951504929817
30
0
41
1
10
14.2076746428104
20
-3.40413236015831
30
0
41
1
10
14.5295598479121
20
-3.59168111113624
30
0
41
1
10
14.9648341912698
20
-3.83453700463932
30
0
41
1
10
15.4179109316807
20
-4.0789108780657
30
0
41
1
10
15.9846713455593
20
-4.36826290499528
30
0
41
1
10
16.5519610510311
20
-4.63405187614254
30
0
41
1
10
17.0061048202664
20
-4.83139646248532
30
0
41
1
10
17.3468678608743
20
-4.9716067622561
30
0
41
1
10
17.6877855310857
20
-5.1037490762555
30
0
41
1
10
18.0288515553369
20
-5.22748409398912
30
0
41
1
10
18.3700681888747
20
-5.34268294579644
30
0
41
1
10
18.711435970662
20
-5.44917032765397
30
0
41
1
10
19.0529496508867
20
-5.54677044604887
30
0
41
1
10
19.5084891173206
20
-5.66462694015925
30
0
41
1
10
19.964313269507
20
-5.76402724235393
30
0
41
1
10
20.4203294957303
20
-5.84431883533821
30
0
41
1
10
20.8764453039661
20
-5.91176289120119
30
0
41
1
10
21.3326720445772
20
-5.95968304451867
30
0
41
1
10
21.7889215835273
20
-5.98787209260644
30
0
41
1
10
22.1212013336
20
-5.99878942747648
30
0
41
1
10
22.3394043575803
20
-5.99989244843007
30
0
41
1
10
22.4435521339593
20
-5.99903969284583
30
0
0
SPLINE
5
17B
100
AcDbEntity
8
1
62
256
6
ByLayer
370
18
48
1
60
0
100
AcDbSpline
70
4
71
3
72
33
73
29
40
0
40
0
40
0
40
0
40
0.161609636410836
40
0.161609636410836
40
0.202012045513546
40
0.202012045513546
40
0.242414454616255
40
0.242414454616255
40
0.323219272821674
40
0.323219272821674
40
0.404024091027093
40
0.404024091027093
40
0.484828909232511
40
0.484828909232511
40
0.52523131833522
40
0.52523131833522
40
0.56563372743793
40
0.56563372743793
40
0.646438545643348
40
0.646438545643348
40
0.808048182054182
40
0.808048182054182
40
0.84845059115689
40
0.84845059115689
40
0.888853000259599
40
0.969657818465015
40
0.969657818465015
40
1
40
1
40
1
40
1
41
1
10
14.0000000000001
20
-3.3138217646239
30
0
41
1
10
14.4349349700549
20
-3.57243341237574
30
0
41
1
10
14.8686779745556
20
-3.81717707110843
30
0
41
1
10
15.4114864855575
20
-4.10334666880922
30
0
41
1
10
15.5200805582648
20
-4.15959433414
30
0
41
1
10
15.7373906948797
20
-4.27005242907899
30
0
41
1
10
15.8460769935302
20
-4.32424637816223
30
0
41
1
10
16.1717193979551
20
-4.4833407899944
30
0
41
1
10
16.3884790366122
20
-4.58486777554364
30
0
41
1
10
16.8218050363203
20
-4.77843996905887
30
0
41
1
10
17.0383726189172
20
-4.87048348825749
30
0
41
1
10
17.4717745119845
20
-5.04481008947351
30
0
41
1
10
17.6886102603247
20
-5.12707025114835
30
0
41
1
10
18.0144259424066
20
-5.24273071519062
30
0
41
1
10
18.123191606176
20
-5.28002466703725
30
0
41
1
10
18.3405636034419
20
-5.35188291478269
30
0
41
1
10
18.4491665691748
20
-5.38644809668361
30
0
41
1
10
18.774807131243
20
-5.48603039874808
30
0
41
1
10
18.9916762629309
20
-5.54694301868381
30
0
41
1
10
19.642236902121
20
-5.7127596921616
30
0
41
1
10
20.0758546246353
20
-5.8010257521268
30
0
41
1
10
20.6196152254128
20
-5.88241881640641
30
0
41
1
10
20.7283241654927
20
-5.89722698502896
30
0
41
1
10
20.9455037052581
20
-5.92386264161004
30
0
41
1
10
21.2710139064264
20
-5.95936313462963
30
0
41
1
10
21.5959954919074
20
-5.98150850050413
30
0
41
1
10
21.8939988323304
20
-5.9936090691524
30
0
41
1
10
21.9753508375397
20
-5.99607027079259
30
0
41
1
10
22.0567151513578
20
-5.99768771958185
30
0
0
SPLINE
5
17C
100
AcDbEntity
8
1
62
256
6
ByLayer
370
13
48
1
60
0
100
AcDbSpline
70
4
71
3
72
16
73
12
40
0
40
0
40
0
40
0
40
0.0045942079802151
40
0.115194851537969
40
0.225795495095723
40
0.336396138653477
40
0.446996782211231
40
0.557597425768985
40
0.668198069326738
40
0.778798712884492
40
1
40
1
40
1
40
1
41
1
10
27.5623080639375
20
-5.12138735451998
30
0
41
1
10
27.5415387092917
20
-5.12563428473271
30
0
41
1
10
27.0207693546459
20
-5.23094007922984
30
0
41
1
10
26.0000000000001
20
-5.37909566377382
30
0
41
1
10
24.5000000000001
20
-5.4263974607436
30
0
41
1
10
23.0000000000001
20
-5.30183813504408
30
0
41
1
10
21.5000000000001
20
-5.00839090743801
30
0
41
1
10
20.0000000000001
20
-4.55618880563509
30
0
41
1
10
18.5000000000001
20
-3.96140207047731
30
0
41
1
10
16.5000000000001
20
-2.99858608189291
30
0
41
1
10
15.0000000000001
20
-2.12063702557245
30
0
41
1
10
14.0000000000001
20
-1.50360586317427
30
0
0
SPLINE
5
17D
100
AcDbEntity
8
1
62
256
6
ByLayer
370
18
48
1
60
0
100
AcDbSpline
70
4
71
3
72
68
73
64
40
0
40
0
40
0
40
0
40
0.0156095905307226
40
0.0156095905307226
40
0.0624853243149723
40
0.0624853243149723
40
0.109361058099222
40
0.109361058099222
40
0.156236791883472
40
0.156236791883472
40
0.167955725329534
40
0.167955725329534
40
0.179674658775597
40
0.179674658775597
40
0.203112525667722
40
0.203112525667722
40
0.249988259451971
40
0.249988259451971
40
0.273426126344096
40
0.273426126344096
40
0.296863993236221
40
0.296863993236221
40
0.343739727020471
40
0.343739727020471
40
0.367177593912596
40
0.367177593912596
40
0.39061546080472
40
0.39061546080472
40
0.437491194588968
40
0.437491194588968
40
0.460929061481093
40
0.460929061481093
40
0.484366928373218
40
0.484366928373218
40
0.507804795265343
40
0.507804795265343
40
0.531242662157468
40
0.531242662157468
40
0.554680529049593
40
0.554680529049593
40
0.578118395941718
40
0.578118395941718
40
0.62499412972597
40
0.62499412972597
40
0.671869863510221
40
0.671869863510221
40
0.683588796956286
40
0.683588796956286
40
0.69530773040235
40
0.69530773040235
40
0.718745597294477
40
0.718745597294477
40
0.765621331078731
40
0.765621331078731
40
0.812497064862985
40
0.812497064862985
40
0.859372798647239
40
0.859372798647239
40
0.906248532431493
40
0.906248532431493
40
0.953124266215746
40
0.953124266215746
40
1
40
1
40
1
40
1
41
1
10
28.4522174361223
20
-5.14231802921722
30
0
41
1
10
28.376578698438
20
-5.1659586780211
30
0
41
1
10
28.3009235812277
20
-5.18897916994999
30
0
41
1
10
27.9983551724115
20
-5.27849864221048
30
0
41
1
10
27.7717434493753
20
-5.33981461561282
30
0
41
1
10
27.318762851388
20
-5.45047594750594
30
0
41
1
10
27.092385593562
20
-5.49983425960966
30
0
41
1
10
26.6393242086193
20
-5.58675823701878
30
0
41
1
10
26.4126515287398
20
-5.62431065768411
30
0
41
1
10
26.1288988374166
20
-5.66347834292458
30
0
41
1
10
26.0721270576885
20
-5.67092418585727
30
0
41
1
10
25.9585312107051
20
-5.68504226467081
30
0
41
1
10
25.9016951142654
20
-5.69171545138792
30
0
41
1
10
25.7314153130612
20
-5.71054422578547
30
0
41
1
10
25.6180978551253
20
-5.72152337569423
30
0
41
1
10
25.2786460689211
20
-5.74983053102827
30
0
41
1
10
25.0530242791437
20
-5.76251240159402
30
0
41
1
10
24.7154062333349
20
-5.77195620373104
30
0
41
1
10
24.6029967318226
20
-5.77351908080422
30
0
41
1
10
24.37832385244
20
-5.77365054267867
30
0
41
1
10
24.2660643087622
20
-5.77221038513125
30
0
41
1
10
23.9294681231148
20
-5.76330671315537
30
0
41
1
10
23.70531356096
20
-5.75126790989097
30
0
41
1
10
23.3692010738064
20
-5.72381905785494
30
0
41
1
10
23.2571810497926
20
-5.71310850325909
30
0
41
1
10
23.0330818222804
20
-5.68873262351758
30
0
41
1
10
22.9210049270665
20
-5.6750632220585
30
0
41
1
10
22.5846393901897
20
-5.62950312507422
30
0
41
1
10
22.3602159652729
20
-5.59306675030533
30
0
41
1
10
22.0229693052327
20
-5.52910497037473
30
0
41
1
10
21.910450807031
20
-5.50623046645276
30
0
41
1
10
21.6851075968896
20
-5.4575639897177
30
0
41
1
10
21.5722830615751
20
-5.43177579916542
30
0
41
1
10
21.3462767819554
20
-5.37720500755825
30
0
41
1
10
21.2330957257286
20
-5.34842075367402
30
0
41
1
10
21.0063222626251
20
-5.28782562663139
30
0
41
1
10
20.8926326754324
20
-5.25598459277836
30
0
41
1
10
20.6655737670645
20
-5.18947703734659
30
0
41
1
10
20.5521422057062
20
-5.15479128472387
30
0
41
1
10
20.3253582167484
20
-5.08278749436323
30
0
41
1
10
20.2120044428092
20
-5.04547679759051
30
0
41
1
10
19.8720273142078
20
-4.92949822162922
30
0
41
1
10
19.645482321293
20
-4.84678099687275
30
0
41
1
10
19.1921966846795
20
-4.67097499577935
30
0
41
1
10
18.9654732139845
20
-4.57782206335904
30
0
41
1
10
18.6816951567662
20
-4.45506696699181
30
0
41
1
10
18.6249198782708
20
-4.43020452787133
30
0
41
1
10
18.5113243201894
20
-4.37985709326921
30
0
41
1
10
18.4544799152562
20
-4.35436086109488
30
0
41
1
10
18.2840646247014
20
-4.27702598027514
30
0
41
1
10
18.1706542706019
20
-4.22436044623134
30
0
41
1
10
17.8309281480767
20
-4.06315695112798
30
0
41
1
10
17.6051297560911
20
-3.95137993150101
30
0
41
1
10
17.1543688970789
20
-3.71991206137247
30
0
41
1
10
16.929383708896
20
-3.60028262072433
30
0
41
1
10
16.4797581909907
20
-3.3537262410008
30
0
41
1
10
16.2551274679614
20
-3.22677459998766
30
0
41
1
10
15.8057633700804
20
-2.96605644095243
30
0
41
1
10
15.581030549735
20
-2.83228316478008
30
0
41
1
10
15.1309270464322
20
-2.55867943856688
30
0
41
1
10
14.905563394146
20
-2.41882465995872
30
0
41
1
10
14.4537264040879
20
-2.13364566744082
30
0
41
1
10
14.2272442686271
20
-1.98836788888528
30
0
41
1
10
14.0000000000001
20
-1.84053574304181
30
0
0
SPLINE
5
17E
100
AcDbEntity
8
1
62
256
6
ByLayer
370
13
48
1
60
0
100
AcDbSpline
70
4
71
3
72
10
73
6
40
0
40
0
40
0
40
0
40
0.115120068649269
40
0.41008004576618
40
1
40
1
40
1
40
1
41
1
10
19.0854357077924
20
1.00301244212602
30
0
41
1
10
18.8902904718616
20
1.14016744178775
30
0
41
1
10
18.1951452359308
20
1.62542678149626
30
0
41
1
10
16.4999999999999
20
2.7681866569003
30
0
41
1
10
15
20
3.64422950482401
30
0
41
1
10
14
20
4.12606281434375
30
0
0
SPLINE
5
17F
100
AcDbEntity
8
1
62
256
6
ByLayer
370
18
48
1
60
0
100
AcDbSpline
70
4
71
3
72
16
73
12
40
0
40
0
40
0
40
0
40
0.125000000000005
40
0.125000000000005
40
0.250000000000011
40
0.250000000000011
40
0.500000000000007
40
0.500000000000007
40
0.750000000000004
40
0.750000000000004
40
1
40
1
40
1
40
1
41
1
10
34.8121978794908
20
-3.05629543384529
30
0
41
1
10
34.8112423577013
20
-3.05589542347917
30
0
41
1
10
34.8102300840983
20
-3.05560738420084
30
0
41
1
10
34.8081288501983
20
-3.05539633615351
30
0
41
1
10
34.8070601137479
20
-3.05548465167618
30
0
41
1
10
34.8040371905203
20
-3.05632476943575
30
0
41
1
10
34.8023659397739
20
-3.05757987236197
30
0
41
1
10
34.7996479636107
20
-3.06039556249979
30
0
41
1
10
34.7985689654568
20
-3.06195986384839
30
0
41
1
10
34.7966506333602
20
-3.06522261358671
30
0
41
1
10
34.795830210854
20
-3.06691217774349
30
0
41
1
10
34.7950915494396
20
-3.06862505240559
30
0
0
SPLINE
5
180
100
AcDbEntity
8
1
62
256
6
ByLayer
370
18
48
1
60
0
100
AcDbSpline
70
4
71
3
72
12
73
8
40
0
40
0
40
0
40
0
40
0.249999999999998
40
0.249999999999998
40
0.499999999999997
40
0.499999999999997
40
1
40
1
40
1
40
1
41
1
10
13.5029316594103
20
-5.72697006873992
30
0
41
1
10
13.5322859870882
20
-5.74287597224478
30
0
41
1
10
13.5600543142514
20
-5.75828320788327
30
0
41
1
10
13.6142732980271
20
-5.7879411027034
30
0
41
1
10
13.6406558523329
20
-5.80219880812979
30
0
41
1
10
13.7183439418546
20
-5.84323960422833
30
0
41
1
10
13.7682086272349
20
-5.86828335046732
30
0
41
1
10
13.8163586137524
20
-5.89118398312567
30
0
0
SPLINE
5
181
100
AcDbEntity
8
1
62
256
6
ByLayer
370
18
48
1
60
0
100
AcDbSpline
70
4
71
3
72
10
73
6
40
0
40
0
40
0
40
0
40
0.5
40
0.5
40
1
40
1
40
1
40
1
41
1
10
13.5040139801621
20
5.23495011258848
30
0
41
1
10
13.4739508567791
20
5.23983344612435
30
0
41
1
10
13.443133500083
20
5.24563172565379
30
0
41
1
10
13.3805312138349
20
5.25912091500058
30
0
41
1
10
13.3487262260413
20
5.26680993604177
30
0
41
1
10
13.3163586137525
20
5.2755535626801
30
0
0
SPLINE
5
182
100
AcDbEntity
8
1
62
256
6
ByLayer
370
18
48
1
60
0
100
AcDbSpline
70
4
71
3
72
10
73
6
40
0
40
0
40
0
40
0
40
0.5
40
0.5
40
1
40
1
40
1
40
1
41
1
10
13.3163586137524
20
4.40847907921167
30
0
41
1
10
13.3668604551246
20
4.39707093991134
30
0
41
1
10
13.4165097604353
20
4.38802284679662
30
0
41
1
10
13.5139059737461
20
4.3737019336231
30
0
41
1
10
13.5616526703021
20
4.36843254322031
30
0
41
1
10
13.6083088178739
20
4.36465237096982
30
0
0
SPLINE
5
183
100
AcDbEntity
8
1
62
256
6
ByLayer
370
18
48
1
60
0
100
AcDbSpline
70
4
71
3
72
8
73
4
40
0
40
0
40
0
40
0
40
1
40
1
40
1
40
1
41
1
10
13.6083088178739
20
4.36465237096985
30
0
41
1
10
13.6806707955241
20
4.35878946213279
30
0
41
1
10
13.7500572934744
20
4.35841450539596
30
0
41
1
10
13.8163586137524
20
4.3637298268639
30
0
0
SPLINE
5
184
100
AcDbEntity
8
1
62
256
6
ByLayer
370
18
48
1
60
0
100
AcDbSpline
70
4
71
3
72
8
73
4
40
0
40
0
40
0
40
0
40
1
40
1
40
1
40
1
41
1
10
13.8163586137524
20
4.3637298268639
30
0
41
1
10
13.8774674361385
20
4.36862887011293
30
0
41
1
10
13.9386830362481
20
4.37338156591414
30
0
41
1
10
14.0000000000001
20
4.37799533470073
30
0
0
SPLINE
5
185
100
AcDbEntity
8
1
62
256
6
ByLayer
370
18
48
1
60
0
100
AcDbSpline
70
4
71
3
72
8
73
4
40
0
40
0
40
0
40
0
40
1
40
1
40
1
40
1
41
1
10
13.8163586137524
20
-3.15836697750004
30
0
41
1
10
13.8774159560868
20
-3.21032380056258
30
0
41
1
10
13.9386295733943
20
-3.26213971325814
30
0
41
1
10
13.9999919175945
20
-3.31382152155649
30
0
0
SPLINE
5
186
100
AcDbEntity
8
1
62
256
6
ByLayer
370
18
48
1
60
0
100
AcDbSpline
70
4
71
3
72
10
73
6
40
0
40
0
40
0
40
0
40
0.5
40
0.5
40
1
40
1
40
1
40
1
41
1
10
13.9217132441899
20
-2.797597712883
30
0
41
1
10
13.9294367677084
20
-2.87893005207161
30
0
41
1
10
13.940037127896
20
-2.95983242199807
30
0
41
1
10
13.9660845639847
20
-3.12058232347289
30
0
41
1
10
13.9815261205256
20
-3.2003848337954
30
0
41
1
10
13.9990046152554
20
-3.27951504929817
30
0
0
SPLINE
5
187
100
AcDbEntity
8
1
62
256
6
ByLayer
370
18
48
1
60
0
100
AcDbSpline
70
4
71
3
72
8
73
4
40
0
40
0
40
0
40
0
40
1
40
1
40
1
40
1
41
1
10
13.3163586137524
20
-2.84227568127727
30
0
41
1
10
13.4058924111174
20
-2.88056511360801
30
0
41
1
10
13.4928560542604
20
-2.92631407537971
30
0
41
1
10
13.5765095605685
20
-2.98029244932206
30
0
0
SPLINE
5
188
100
AcDbEntity
8
1
62
256
6
ByLayer
370
18
48
1
60
0
100
AcDbSpline
70
4
71
3
72
12
73
8
40
0
40
0
40
0
40
0
40
0.5
40
0.5
40
0.75
40
0.75
40
1
40
1
40
1
40
1
41
1
10
13.5765095605684
20
-2.98029244932192
30
0
41
1
10
13.6179751433018
20
-3.00704858698188
30
0
41
1
10
13.6587526919625
20
-3.03526382505177
30
0
41
1
10
13.718855880147
20
-3.07984125136102
30
0
41
1
10
13.7387432988151
20
-3.09510206570303
30
0
41
1
10
13.7780034232905
20
-3.12628803782184
30
0
41
1
10
13.7973332332355
20
-3.14217730576817
30
0
41
1
10
13.8163586137524
20
-3.15836697750001
30
0
0
SPLINE
5
189
100
AcDbEntity
8
1
62
256
6
ByLayer
370
18
48
1
60
0
100
AcDbSpline
70
4
71
3
72
32
73
28
40
0
40
0
40
0
40
0
40
0.250000000000018
40
0.250000000000018
40
0.37500000000001
40
0.37500000000001
40
0.500000000000003
40
0.500000000000003
40
0.624999999999996
40
0.624999999999996
40
0.687499999999992
40
0.687499999999992
40
0.749999999999989
40
0.749999999999989
40
0.78124999999999
40
0.78124999999999
40
0.812499999999992
40
0.812499999999992
40
0.843749999999993
40
0.843749999999993
40
0.874999999999995
40
0.874999999999995
40
0.906249999999996
40
0.906249999999996
40
0.937499999999998
40
0.937499999999998
40
1
40
1
40
1
40
1
41
1
10
10.4264684071923
20
0.673127638175515
30
0
41
1
10
10.3995914749845
20
0.697679215319312
30
0
41
1
10
10.3733600186087
20
0.722835565234732
30
0
41
1
10
10.3356713503209
20
0.762138366618217
30
0
41
1
10
10.3233887843799
20
0.775504422365401
30
0
41
1
10
10.2996395427668
20
0.803011500260624
30
0
41
1
10
10.2881836916207
20
0.817124496610489
30
0
41
1
10
10.2667517478058
20
0.846400074088479
30
0
41
1
10
10.2567195475123
20
0.86157270979777
30
0
41
1
10
10.2440890905155
20
0.885477014642589
30
0
41
1
10
10.2402777172239
20
0.893649338653944
30
0
41
1
10
10.2340085068503
20
0.910689486027678
30
0
41
1
10
10.2315658836606
20
0.919488205339803
30
0
41
1
10
10.2299956039512
20
0.933003247093268
30
0
41
1
10
10.2298353604857
20
0.937498813184845
30
0
41
1
10
10.230494699124
20
0.946465098206573
30
0
41
1
10
10.2313429481455
20
0.951002530366111
30
0
41
1
10
10.2342546189152
20
0.959561352531068
30
0
41
1
10
10.2363492218084
20
0.963666144982625
30
0
41
1
10
10.2416627285636
20
0.971058465485356
30
0
41
1
10
10.2448450213823
20
0.974329870813619
30
0
41
1
10
10.2520194211709
20
0.98006943834443
30
0
41
1
10
10.2558903870002
20
0.982455182412025
30
0
41
1
10
10.2640357139265
20
0.98653888495852
30
0
41
1
10
10.2683380885611
20
0.988239922559643
30
0
41
1
10
10.2813908382344
20
0.992461602651957
30
0
41
1
10
10.2903591574506
20
0.994182240888847
30
0
41
1
10
10.2994763502463
20
0.995292085774651
30
0
0
SPLINE
5
18A
100
AcDbEntity
8
1
62
256
6
ByLayer
370
18
48
1
60
0
100
AcDbSpline
70
4
71
3
72
29
73
25
40
0
40
0
40
0
40
0
40
0.124999999999999
40
0.124999999999999
40
0.249999999999997
40
0.249999999999997
40
0.312499999999996
40
0.312499999999996
40
0.374999999999996
40
0.437499999999995
40
0.437499999999995
40
0.468750000000006
40
0.468750000000006
40
0.500000000000017
40
0.500000000000017
40
0.625000000000016
40
0.625000000000016
40
0.750000000000016
40
0.750000000000016
40
0.812500000000012
40
0.812500000000012
40
0.875000000000007
40
0.875000000000007
40
1
40
1
40
1
40
1
41
1
10
10.2994763502462
20
0.995292085774622
30
0
41
1
10
10.3285072040715
20
0.998826040290083
30
0
41
1
10
10.3572235182776
20
1.0036001415888
30
0
41
1
10
10.413814269252
20
1.01646368795832
30
0
41
1
10
10.4416921622951
20
1.02453968586013
30
0
41
1
10
10.4826146914652
20
1.04016938076808
30
0
41
1
10
10.4961022151514
20
1.04597947144825
30
0
41
1
10
10.522207784667
20
1.05877297554937
30
0
41
1
10
10.5475645125112
20
1.07278149094492
30
0
41
1
10
10.5712050899439
20
1.08957002481486
30
0
41
1
10
10.5881898957198
20
1.10336706353505
30
0
41
1
10
10.5937141135238
20
1.10816003822239
30
0
41
1
10
10.6043294211015
20
1.11801152786836
30
0
41
1
10
10.609442055678
20
1.12308706604321
30
0
41
1
10
10.6340244431599
20
1.14921688441334
30
0
41
1
10
10.6505671288336
20
1.17256099333923
30
0
41
1
10
10.6771820756933
20
1.22399434802691
30
0
41
1
10
10.6866927004973
20
1.25090530418316
30
0
41
1
10
10.6965216624818
20
1.29263941120252
30
0
41
1
10
10.6990493614057
20
1.30680508246297
30
0
41
1
10
10.7027299524202
20
1.33501740415514
30
0
41
1
10
10.7039018019482
20
1.3491320172817
30
0
41
1
10
10.7057334205112
20
1.39149056896593
30
0
41
1
10
10.7047251556951
20
1.41974869804801
30
0
41
1
10
10.7020611571107
20
1.44800684471198
30
0
0
SPLINE
5
18B
100
AcDbEntity
8
1
62
256
6
ByLayer
370
18
48
1
60
0
100
AcDbSpline
70
4
71
3
72
22
73
18
40
0
40
0
40
0
40
0
40
0.249999999999984
40
0.249999999999984
40
0.312499999999981
40
0.312499999999981
40
0.374999999999977
40
0.374999999999977
40
0.499999999999976
40
0.624999999999975
40
0.624999999999975
40
0.687499999999979
40
0.687499999999979
40
0.749999999999983
40
0.874999999999992
40
0.874999999999992
40
1
40
1
40
1
40
1
41
1
10
9.26371181260882
20
3.89989790313791
30
0
41
1
10
9.24954628055434
20
3.93798895048343
30
0
41
1
10
9.24046350369284
20
3.97607851454259
30
0
41
1
10
9.23731178794029
20
4.02380797533411
30
0
41
1
10
9.23709553426485
20
4.03336003073099
30
0
41
1
10
9.23755654646735
20
4.05248083851305
30
0
41
1
10
9.23823629140921
20
4.06200875863951
30
0
41
1
10
9.24163350212666
20
4.09019579140943
30
0
41
1
10
9.24978503962694
20
4.12695877111327
30
0
41
1
10
9.26538897411228
20
4.16209718371039
30
0
41
1
10
9.27999928322535
20
4.18784230127665
30
0
41
1
10
9.28537058152014
20
4.1963389925595
30
0
41
1
10
9.29689454410968
20
4.21285151330102
30
0
41
1
10
9.31540598642752
20
4.23700457153734
30
0
41
1
10
9.33741013136233
20
4.25942192622335
30
0
41
1
10
9.36959902493203
20
4.28792624057846
30
0
41
1
10
9.38718177424184
20
4.30152209190007
30
0
41
1
10
9.40585353865856
20
4.31433322906426
30
0
0
SPLINE
5
18C
100
AcDbEntity
8
1
62
256
6
ByLayer
370
18
48
1
60
0
100
AcDbSpline
70
4
71
3
72
42
73
38
40
0
40
0
40
0
40
0
40
0.0312500000000075
40
0.0312500000000075
40
0.0625000000000151
40
0.0625000000000151
40
0.12500000000003
40
0.12500000000003
40
0.140625000000034
40
0.140625000000034
40
0.156250000000038
40
0.18750000000004
40
0.218750000000043
40
0.218750000000043
40
0.250000000000046
40
0.250000000000046
40
0.312500000000046
40
0.312500000000046
40
0.375000000000047
40
0.375000000000047
40
0.406250000000045
40
0.406250000000045
40
0.437500000000042
40
0.500000000000038
40
0.500000000000038
40
0.562500000000033
40
0.562500000000033
40
0.625000000000028
40
0.687500000000023
40
0.687500000000023
40
0.750000000000019
40
0.750000000000019
40
0.812500000000014
40
0.812500000000014
40
0.875000000000009
40
0.875000000000009
40
1
40
1
40
1
40
1
41
1
10
9.40585353865853
20
4.31433322906426
30
0
41
1
10
9.43575137776247
20
4.33484684037197
30
0
41
1
10
9.46721399389759
20
4.35361631733198
30
0
41
1
10
9.53263999862335
20
4.38843238654343
30
0
41
1
10
9.56660728391168
20
4.40447420244979
30
0
41
1
10
9.67164545206523
20
4.44926297878632
30
0
41
1
10
9.74581926826534
20
4.47471365492024
30
0
41
1
10
9.84247188416015
20
4.50253775676609
30
0
41
1
10
9.86201658071275
20
4.50790265905866
30
0
41
1
10
9.90126688229864
20
4.51819759229323
30
0
41
1
10
9.96046084667955
20
4.53300997684153
30
0
41
1
10
10.0605931492488
20
4.55480930428547
30
0
41
1
10
10.142084684794
20
4.56958909410071
30
0
41
1
10
10.2241982692884
20
4.58319641846776
30
0
41
1
10
10.2656048049096
20
4.58941765263316
30
0
41
1
10
10.3900995002116
20
4.60642915912527
30
0
41
1
10
10.4736217058342
20
4.61561064679373
30
0
41
1
10
10.6415431769914
20
4.63046757423621
30
0
41
1
10
10.7259436698498
20
4.63613706185825
30
0
41
1
10
10.8531216114938
20
4.6423751491688
30
0
41
1
10
10.8956300545217
20
4.64407507430255
30
0
41
1
10
10.980596260836
20
4.64675338968667
30
0
41
1
10
11.1080493700655
20
4.64969166427738
30
0
41
1
10
11.2355132117441
20
4.64959467572311
30
0
41
1
10
11.4054736876906
20
4.64700848526434
30
0
41
1
10
11.4905322932637
20
4.64448203578624
30
0
41
1
10
11.6602446355076
20
4.63713670241881
30
0
41
1
10
11.829519043629
20
4.62750500092244
30
0
41
1
10
11.9979749980437
20
4.61352376938652
30
0
41
1
10
12.1660431898584
20
4.59742910016115
30
0
41
1
10
12.2498194698305
20
4.58832966820378
30
0
41
1
10
12.416606012896
20
4.56809927540527
30
0
41
1
10
12.4996590433871
20
4.55696404862493
30
0
41
1
10
12.6651148348183
20
4.5326695529044
30
0
41
1
10
12.747556124932
20
4.51950282967837
30
0
41
1
10
12.9935102219563
20
4.47703447404598
30
0
41
1
10
13.1557368756516
20
4.44476280893565
30
0
41
1
10
13.3163586137524
20
4.40847907921165
30
0
0
SPLINE
5
18D
100
AcDbEntity
8
1
62
256
6
ByLayer
370
18
48
1
60
0
100
AcDbSpline
70
4
71
3
72
34
73
30
40
0
40
0
40
0
40
0
40
0.249999999999965
40
0.249999999999965
40
0.374999999999964
40
0.374999999999964
40
0.499999999999963
40
0.499999999999963
40
0.624999999999962
40
0.624999999999962
40
0.687499999999972
40
0.687499999999972
40
0.749999999999982
40
0.749999999999982
40
0.781249999999985
40
0.781249999999985
40
0.812499999999987
40
0.812499999999987
40
0.843749999999989
40
0.843749999999989
40
0.874999999999991
40
0.874999999999991
40
0.906249999999993
40
0.906249999999993
40
0.937499999999996
40
0.937499999999996
40
0.968749999999998
40
0.968749999999998
40
1
40
1
40
1
40
1
41
1
10
10.6824531656198
20
5.75266212556795
30
0
41
1
10
10.6572960174549
20
5.75392070114864
30
0
41
1
10
10.6327945996826
20
5.75504954792115
30
0
41
1
10
10.5977100793865
20
5.75652712427484
30
0
41
1
10
10.5862948464262
20
5.7569836929938
30
0
41
1
10
10.5642865306888
20
5.75781873122668
30
0
41
1
10
10.5537244071887
20
5.75819575879137
30
0
41
1
10
10.534018089892
20
5.75886069092209
30
0
41
1
10
10.524809260507
20
5.75914946419997
30
0
41
1
10
10.5132953716491
20
5.75949847493345
30
0
41
1
10
10.5098378950383
20
5.75960103291217
30
0
41
1
10
10.5041529844845
20
5.75977555333478
30
0
41
1
10
10.5019080688188
20
5.75984757689506
30
0
41
1
10
10.5003570154167
20
5.75992584011323
30
0
41
1
10
10.5001480065007
20
5.75994716769361
30
0
41
1
10
10.5005754749092
20
5.75997886662597
30
0
41
1
10
10.5012035390057
20
5.75998943212016
30
0
41
1
10
10.5035737816941
20
5.76000070407815
30
0
41
1
10
10.5053131393778
20
5.76000118830555
30
0
41
1
10
10.509885271404
20
5.75999491806397
30
0
41
1
10
10.512761415044
20
5.75998815336283
30
0
41
1
10
10.5192379497204
20
5.75997217815222
30
0
41
1
10
10.5229140003451
20
5.75996283695739
30
0
41
1
10
10.5306121911226
20
5.75994504871139
30
0
41
1
10
10.5346478502553
20
5.75993652755395
30
0
41
1
10
10.5429921643227
20
5.75992127845686
30
0
41
1
10
10.5473089329398
20
5.75991453317204
30
0
41
1
10
10.5559972304443
20
5.75990329372232
30
0
41
1
10
10.5603905675798
20
5.75989874608521
30
0
41
1
10
10.5648213605141
20
5.75989519803835
30
0
0
SPLINE
5
18E
100
AcDbEntity
8
1
62
256
6
ByLayer
370
18
48
1
60
0
100
AcDbSpline
70
4
71
3
72
19
73
15
40
0
40
0
40
0
40
0
40
0.249999999999999
40
0.249999999999999
40
0.499999999999999
40
0.499999999999999
40
0.562499999999999
40
0.562499999999999
40
0.593749999999998
40
0.593749999999998
40
0.624999999999998
40
0.749999999999999
40
0.749999999999999
40
1
40
1
40
1
40
1
41
1
10
10.7020611571107
20
1.44800684471198
30
0
41
1
10
10.5354502887782
20
1.65040316101909
30
0
41
1
10
10.3802468034389
20
1.85548328142826
30
0
41
1
10
10.092566488343
20
2.26936370728913
30
0
41
1
10
9.96007958576718
20
2.47816554016779
30
0
41
1
10
9.8085604180981
20
2.74014138294987
30
0
41
1
10
9.77896134395658
20
2.79258388042138
30
0
41
1
10
9.73561954440555
20
2.87128899941362
30
0
41
1
10
9.72135618900109
20
2.89751753874137
30
0
41
1
10
9.69328862529449
20
2.9497801097337
30
0
41
1
10
9.6242008074716
20
3.08007182321262
30
0
41
1
10
9.56043659740084
20
3.20847728559013
30
0
41
1
10
9.41710242058949
20
3.51251708645089
30
0
41
1
10
9.33443690171788
20
3.70971847977339
30
0
41
1
10
9.26371181260879
20
3.89989790313794
30
0
0
SPLINE
5
18F
100
AcDbEntity
8
1
62
256
6
ByLayer
370
18
48
1
60
0
100
AcDbSpline
70
4
71
3
72
12
73
8
40
0
40
0
40
0
40
0
40
0.25
40
0.25
40
0.5
40
0.5
40
1
40
1
40
1
40
1
41
1
10
13.5045986943323
20
-1.55936240796999
30
0
41
1
10
13.4895400552639
20
-1.54781302697236
30
0
41
1
10
13.4743094147607
20
-1.53643355887138
30
0
41
1
10
13.443484474666
20
-1.51403386600447
30
0
41
1
10
13.4278783787886
20
-1.50300638905395
30
0
41
1
10
13.3807451050355
20
-1.47067699655969
30
0
41
1
10
13.3488273974456
20
-1.4500670990515
30
0
41
1
10
13.3163586137524
20
-1.43050595116861
30
0
0
SPLINE
5
190
100
AcDbEntity
8
1
62
256
6
ByLayer
370
18
48
1
60
0
100
AcDbSpline
70
4
71
3
72
8
73
4
40
0
40
0
40
0
40
0
40
1
40
1
40
1
40
1
41
1
10
13.9990046152554
20
-3.27951504929817
30
0
41
1
10
13.9992551373292
20
-3.29095078523318
30
0
41
1
10
13.9995821916413
20
-3.30238453847187
30
0
41
1
10
13.9999838351906
20
-3.31381471423282
30
0
0
SPLINE
5
191
100
AcDbEntity
8
1
62
256
6
ByLayer
370
18
48
1
60
0
100
AcDbSpline
70
4
71
3
72
10
73
6
40
0
40
0
40
0
40
0
40
0.5
40
0.5
40
1
40
1
40
1
40
1
41
1
10
13.9216150276662
20
4.71802727301792
30
0
41
1
10
13.9293840233128
20
4.66640022413137
30
0
41
1
10
13.9400323558563
20
4.61463277806382
30
0
41
1
10
13.9661311677217
20
4.51046808515071
30
0
41
1
10
13.9815768847926
20
4.45809934222817
30
0
41
1
10
13.9990258091754
20
4.40533705302678
30
0
0
SPLINE
5
192
100
AcDbEntity
8
1
62
256
6
ByLayer
370
18
48
1
60
0
100
AcDbSpline
70
4
71
3
72
8
73
4
40
0
40
0
40
0
40
0
40
1
40
1
40
1
40
1
41
1
10
34.8665742556074
20
-3.07903603712097
30
0
41
1
10
34.8851874157679
20
-3.08920530228389
30
0
41
1
10
34.9037520473988
20
-3.09942793995515
30
0
41
1
10
34.9222631142966
20
-3.10971050633265
30
0
0
SPLINE
5
193
100
AcDbEntity
8
1
62
256
6
ByLayer
370
18
48
1
60
0
100
AcDbSpline
70
4
71
3
72
8
73
4
40
0
40
0
40
0
40
0
40
1
40
1
40
1
40
1
41
1
10
14.0000000000001
20
-1.84053574304181
30
0
41
1
10
13.8340581851133
20
-1.74871575227144
30
0
41
1
10
13.6688991156977
20
-1.65505093790105
30
0
41
1
10
13.5045986943349
20
-1.55936240796746
30
0
0
SPLINE
5
194
100
AcDbEntity
8
1
62
256
6
ByLayer
370
18
48
1
60
0
100
AcDbSpline
70
4
71
3
72
12
73
8
40
0
40
0
40
0
40
0
40
0.249999999999998
40
0.249999999999998
40
0.499999999999996
40
0.499999999999996
40
1
40
1
40
1
40
1
41
1
10
13.5045986943182
20
-1.55936240797322
30
0
41
1
10
13.5336758515309
20
-1.63584187750038
30
0
41
1
10
13.5612549557508
20
-1.71268213240325
30
0
41
1
10
13.6151448046193
20
-1.86650811135939
30
0
41
1
10
13.6413924977299
20
-1.94351511826247
30
0
41
1
10
13.7187146231088
20
-2.17460414025251
30
0
41
1
10
13.7683863978287
20
-2.32874685783744
30
0
41
1
10
13.8163586137524
20
-2.48295665230941
30
0
0
SPLINE
5
195
100
AcDbEntity
8
1
62
256
6
ByLayer
370
18
48
1
60
0
100
AcDbSpline
70
4
71
3
72
8
73
4
40
0
40
0
40
0
40
0
40
1
40
1
40
1
40
1
41
1
10
13.8163586137524
20
-2.48295665230944
30
0
41
1
10
13.8493266058863
20
-2.58893439782801
30
0
41
1
10
13.884569635234
20
-2.69378433895514
30
0
41
1
10
13.9217132441899
20
-2.797597712883
30
0
0
SPLINE
5
196
100
AcDbEntity
8
1
62
256
6
ByLayer
370
18
48
1
60
0
100
AcDbSpline
70
4
71
3
72
34
73
30
40
0
40
0
40
0
40
0
40
0.0021703671899032
40
0.0625374754871567
40
0.0927210296357834
40
0.12290458378441
40
0.183271692081664
40
0.243638800378917
40
0.273822354527544
40
0.304005908676171
40
0.334189462824798
40
0.364373016973424
40
0.394556571122051
40
0.424740125270678
40
0.454923679419305
40
0.485107233567931
40
0.545474341865185
40
0.575657896013812
40
0.605841450162438
40
0.666208558459692
40
0.696392112608319
40
0.726575666756945
40
0.786942775054199
40
0.817126329202826
40
0.847309883351453
40
0.907676991648706
40
0.937860545797333
40
0.96804409994596
40
1
40
1
40
1
40
1
41
1
10
13.9217132441899
20
-2.79759771288303
30
0
41
1
10
13.9298480294571
20
-2.80268090377581
30
0
41
1
10
14.1642476854473
20
-2.94903643907543
30
0
41
1
10
14.5118679225636
20
-3.16118624272872
30
0
41
1
10
14.9647629948614
20
-3.4271905721819
30
0
41
1
10
15.41783866575
20
-3.68574647149796
30
0
41
1
10
15.984611576349
20
-3.99453551703499
30
0
41
1
10
16.551897508685
20
-4.28174762359455
30
0
41
1
10
17.0060402009774
20
-4.49736267002177
30
0
41
1
10
17.3468023309817
20
-4.65185331669406
30
0
41
1
10
17.687719844191
20
-4.79882481913882
30
0
41
1
10
18.0287850666888
20
-4.93786573353057
30
0
41
1
10
18.3700028438045
20
-5.06886384188317
30
0
41
1
10
18.7113723580418
20
-5.19160858401708
30
0
41
1
10
19.0528859060966
20
-5.30592691399423
30
0
41
1
10
19.5084218428536
20
-5.44656522873476
30
0
41
1
10
19.9642489468025
20
-5.56952171376003
30
0
41
1
10
20.4202636268411
20
-5.67394915100948
30
0
41
1
10
20.8763787342934
20
-5.76602247518949
30
0
41
1
10
21.3326080418101
20
-5.838980548216
30
0
41
1
10
21.7888562609476
20
-5.89258314042235
30
0
41
1
10
22.2450873256537
20
-5.93330694931663
30
0
41
1
10
22.7012634250626
20
-5.9542720349836
30
0
41
1
10
23.1573040431227
20
-5.95557159220985
30
0
41
1
10
23.6132293790276
20
-5.94386043828462
30
0
41
1
10
24.0689531458266
20
-5.91235480810823
30
0
41
1
10
24.5243912072066
20
-5.86146762597193
30
0
41
1
10
24.8724903141924
20
-5.81279810798304
30
0
41
1
10
25.1066587158974
20
-5.77323586392234
30
0
41
1
10
25.227042694779
20
-5.75112943724247
30
0
0
SPLINE
5
197
100
AcDbEntity
8
1
62
256
6
ByLayer
370
18
48
1
60
0
100
AcDbSpline
70
4
71
3
72
54
73
50
40
0
40
0
40
0
40
0
40
0.0028298876913381
40
0.0186669706410302
40
0.0345040535907222
40
0.0503411365404143
40
0.0661782194901064
40
0.0820153024397985
40
0.0978523853894905
40
0.113689468339183
40
0.129526551288875
40
0.145363634238567
40
0.161200717188259
40
0.177037800137951
40
0.192874883087643
40
0.224549048987027
40
0.256223214886411
40
0.272060297836103
40
0.287897380785795
40
0.303734463735488
40
0.31957154668518
40
0.351245712584564
40
0.367082795534256
40
0.382919878483948
40
0.414594044383332
40
0.430431127333024
40
0.446268210282716
40
0.4779423761821
40
0.493779459131792
40
0.509616542081484
40
0.541290707980869
40
0.557127790930561
40
0.572964873880253
40
0.588801956829945
40
0.604639039779637
40
0.620476122729329
40
0.636313205679021
40
0.667987371578405
40
0.683824454528097
40
0.699661537477789
40
0.731335703377173
40
0.794684035175942
40
0.826358201075326
40
0.85803236697471
40
0.889706532874094
40
0.921380698773478
40
0.953054864672862
40
0.984729030572246
40
1
40
1
40
1
40
1
41
1
10
13.921615027666
20
4.71802727301804
30
0
41
1
10
13.9418724274794
20
4.70861636480208
30
0
41
1
10
14.0754908751971
20
4.64622839009897
30
0
41
1
10
14.322389750539
20
4.52714617675539
30
0
41
1
10
14.6621741741645
20
4.35468049491806
30
0
41
1
10
15.0017587376812
20
4.17411139451579
30
0
41
1
10
15.3411474557864
20
3.98581690160415
30
0
41
1
10
15.6803374673865
20
3.79012288213491
30
0
41
1
10
16.0193420911685
20
3.58737455876599
30
0
41
1
10
16.3581582637044
20
3.37801921115275
30
0
41
1
10
16.6968052288637
20
3.16245618755644
30
0
41
1
10
17.0352879023153
20
2.94105775014808
30
0
41
1
10
17.3736303171212
20
2.7142311343899
30
0
41
1
10
17.7118499511673
20
2.48239821524353
30
0
41
1
10
18.1626770899333
20
2.16725769926916
30
0
41
1
10
18.726023549224
20
1.76287395209005
30
0
41
1
10
19.2892533068717
20
1.34765530262894
30
0
41
1
10
19.7398472736121
20
1.01076997344393
30
0
41
1
10
20.0778155381618
20
0.75617434104123
30
0
41
1
10
20.4158234333005
20
0.500096085558084
30
0
41
1
10
20.8665680578814
20
0.157490068569842
30
0
41
1
10
21.3174698023016
20
-0.186246618610141
30
0
41
1
10
21.7685296840353
20
-0.52903370507147
30
0
41
1
10
22.2197040495416
20
-0.870614783419825
30
0
41
1
10
22.6710667907344
20
-1.20938438003967
30
0
41
1
10
23.1226309662267
20
-1.54343669492985
30
0
41
1
10
23.5743381231094
20
-1.87377950862611
30
0
41
1
10
24.0262662521917
20
-2.19750849765751
30
0
41
1
10
24.4783694701682
20
-2.51279396121086
30
0
41
1
10
24.9305786615581
20
-2.82192324369629
30
0
41
1
10
25.3829310841554
20
-3.12074681251366
30
0
41
1
10
25.835380394253
20
-3.40761701516149
30
0
41
1
10
26.1747594884345
20
-3.61642368811263
30
0
41
1
10
26.5141659908968
20
-3.81839167707
30
0
41
1
10
26.8535843511127
20
-4.01313947824082
30
0
41
1
10
27.1929911791492
20
-4.20034839390439
30
0
41
1
10
27.6454994596653
20
-4.43947352854258
30
0
41
1
10
28.0979368718247
20
-4.66195750913462
30
0
41
1
10
28.5502595991789
20
-4.86670161193035
30
0
41
1
10
29.0024799940613
20
-5.0592948019619
30
0
41
1
10
29.7938081153498
20
-5.36308025121289
30
0
41
1
10
30.6996209309455
20
-5.63125701899554
30
0
41
1
10
31.6101214965813
20
-5.8145349730485
30
0
41
1
10
32.2960274001981
20
-5.90782298396857
30
0
41
1
10
32.9858409305338
20
-5.95588288686318
30
0
41
1
10
33.6803638336987
20
-5.95750385433846
30
0
41
1
10
34.3806270881893
20
-5.91170907853913
30
0
41
1
10
34.9653535789763
20
-5.83365163835694
30
0
41
1
10
35.317233816169
20
-5.76903724289971
30
0
41
1
10
35.4320001180299
20
-5.74610140269934
30
0
0
SPLINE
5
198
100
AcDbEntity
8
1
62
256
6
ByLayer
370
18
48
1
60
0
100
AcDbSpline
70
4
71
3
72
12
73
8
40
0
40
0
40
0
40
0
40
0.250000000000002
40
0.250000000000002
40
0.500000000000003
40
0.500000000000003
40
1
40
1
40
1
40
1
41
1
10
13.5040139801757
20
5.23495011259251
30
0
41
1
10
13.5331730732588
20
5.20650811790054
30
0
41
1
10
13.5608143263902
20
5.1772949685043
30
0
41
1
10
13.6148141152762
20
5.11750598019822
30
0
41
1
10
13.6411091083839
20
5.08692479538885
30
0
41
1
10
13.718563804012
20
4.99323187799945
30
0
41
1
10
13.7683103356317
20
4.92816670865798
30
0
41
1
10
13.8163586137524
20
4.86069818142309
30
0
0
SPLINE
5
199
100
AcDbEntity
8
1
62
256
6
ByLayer
370
18
48
1
60
0
100
AcDbSpline
70
4
71
3
72
8
73
4
40
0
40
0
40
0
40
0
40
1
40
1
40
1
40
1
41
1
10
13.8163586137524
20
4.86069818142309
30
0
41
1
10
13.8493344807864
20
4.81439406252247
30
0
41
1
10
13.8845458882419
20
4.76688325589311
30
0
41
1
10
13.9216150276662
20
4.71802727301792
30
0
0
SPLINE
5
19A
100
AcDbEntity
8
1
62
256
6
ByLayer
370
18
48
1
60
0
100
AcDbSpline
70
4
71
3
72
49
73
45
40
0
40
0
40
0
40
0
40
0.0171559394626729
40
0.0351846771166554
40
0.0532134147706378
40
0.0712421524246203
40
0.0892708900786028
40
0.107299627732585
40
0.125328365386568
40
0.14335710304055
40
0.161385840694533
40
0.179414578348515
40
0.197443316002498
40
0.21547205365648
40
0.251529528964445
40
0.28758700427241
40
0.305615741926392
40
0.323644479580375
40
0.341673217234357
40
0.35970195488834
40
0.395759430196305
40
0.413788167850287
40
0.43181690550427
40
0.467874380812235
40
0.485903118466217
40
0.503931856120199
40
0.539989331428164
40
0.558018069082147
40
0.576046806736129
40
0.612104282044094
40
0.630133019698077
40
0.648161757352059
40
0.666190495006042
40
0.684219232660024
40
0.702247970314007
40
0.720276707967989
40
0.756334183275954
40
0.774362920929936
40
0.792391658583919
40
0.828449133891884
40
0.900564084507814
40
0.936621559815779
40
0.972679035123744
40
1
40
1
40
1
40
1
41
1
10
13.9990258091751
20
4.40533705302693
30
0
41
1
10
14.1068917430279
20
4.34915593867282
30
0
41
1
10
14.3280517124002
20
4.23138212399815
30
0
41
1
10
14.6623505512477
20
4.04568612755779
30
0
41
1
10
15.0019358231843
20
3.84943306910819
30
0
41
1
10
15.3413262149545
20
3.64603882180285
30
0
41
1
10
15.6805163698067
20
3.43589448517665
30
0
41
1
10
16.0195183572319
20
3.21940473735594
30
0
41
1
10
16.3583359270803
20
2.99700025111633
30
0
41
1
10
16.696983676882
20
2.76908180583499
30
0
41
1
10
17.0354658579197
20
2.53607955786251
30
0
41
1
10
17.3738069321996
20
2.29842910459212
30
0
41
1
10
17.7120273232824
20
2.05655984603007
30
0
41
1
10
18.1628572215365
20
1.72905113138887
30
0
41
1
10
18.7262023641452
20
1.31131217121791
30
0
41
1
10
19.289432676219
20
0.885517561232433
30
0
41
1
10
19.7400250629668
20
0.541895942500588
30
0
41
1
10
20.0779924838728
20
0.283140112364322
30
0
41
1
10
20.416000293416
20
0.0238027079764151
30
0
41
1
10
20.8667486920205
20
-0.322032069661304
30
0
41
1
10
21.317647096696
20
-0.667148534095304
30
0
41
1
10
21.7687081387134
20
-1.00954866639231
30
0
41
1
10
22.2198828899558
20
-1.34952630575256
30
0
41
1
10
22.6712439112003
20
-1.68490066399116
30
0
41
1
10
23.1228098435621
20
-2.01379271228029
30
0
41
1
10
23.5745179782934
20
-2.337759522732
30
0
41
1
10
24.0264440226547
20
-2.65339198667857
30
0
41
1
10
24.4785481213737
20
-2.9588856305372
30
0
41
1
10
24.9307565311445
20
-3.25704418466572
30
0
41
1
10
25.3831076355913
20
-3.54330090821298
30
0
41
1
10
25.8355595958573
20
-3.81602006946682
30
0
41
1
10
26.1749389686789
20
-4.01339053282351
30
0
41
1
10
26.5143444586211
20
-4.20321211166595
30
0
41
1
10
26.8537614459353
20
-4.38511800803903
30
0
41
1
10
27.193169969476
20
-4.55877750681958
30
0
41
1
10
27.6456803202478
20
-4.77886855869514
30
0
41
1
10
28.0981160139007
20
-4.98111515554689
30
0
41
1
10
28.5504377454572
20
-5.16439484929708
30
0
41
1
10
29.002653008876
20
-5.33467094700222
30
0
41
1
10
29.7939796933525
20
-5.59771815817189
30
0
41
1
10
30.6998392249565
20
-5.81576305656293
30
0
41
1
10
31.6102875045656
20
-5.94572383569789
30
0
41
1
10
32.2408037232859
20
-5.99374657434797
30
0
41
1
10
32.6446880823928
20
-6.00058253030915
30
0
41
1
10
32.8192278108954
20
-5.99904584234463
30
0
0
SPLINE
5
19B
100
AcDbEntity
8
1
62
256
6
ByLayer
370
18
48
1
60
0
100
AcDbSpline
70
4
71
3
72
8
73
4
40
0
40
0
40
0
40
0
40
1
40
1
40
1
40
1
41
1
10
14.0000000000001
20
4.37827547203895
30
0
41
1
10
13.9996016432537
20
4.38729661802014
30
0
41
1
10
13.9992762392632
20
4.39631713511869
30
0
41
1
10
13.9990258091754
20
4.40533705302676
30
0
0
SPLINE
5
19C
100
AcDbEntity
8
1
62
256
6
ByLayer
370
18
48
1
60
0
100
AcDbSpline
70
4
71
3
72
63
73
59
40
0
40
0
40
0
40
0
40
0.0720513015570013
40
0.0720513015570013
40
0.0900641269462514
40
0.0900641269462514
40
0.108076952335502
40
0.108076952335502
40
0.144102603114001
40
0.144102603114001
40
0.180128253892501
40
0.180128253892501
40
0.198141079281751
40
0.198141079281751
40
0.216153904671
40
0.216153904671
40
0.288205206228001
40
0.288205206228001
40
0.3242308570065
40
0.3242308570065
40
0.333237269701124
40
0.333237269701124
40
0.342243682395749
40
0.342243682395749
40
0.360256507784996
40
0.360256507784996
40
0.432307809341984
40
0.432307809341984
40
0.441314222036608
40
0.441314222036608
40
0.450320634731231
40
0.450320634731231
40
0.468333460120479
40
0.504359110898973
40
0.504359110898973
40
0.576410412455962
40
0.576410412455962
40
0.648461714012951
40
0.648461714012951
40
0.684487364791445
40
0.684487364791445
40
0.693493777486068
40
0.693493777486068
40
0.702500190180692
40
0.720513015569938
40
0.720513015569938
40
0.792564317126927
40
0.792564317126927
40
0.864615618683915
40
0.864615618683915
40
0.90064126946241
40
0.90064126946241
40
0.918654094851657
40
0.927660507546279
40
0.927660507546279
40
0.936666920240902
40
0.936666920240902
40
1
40
1
40
1
40
1
41
1
10
14.0000000000001
20
4.37799972695589
30
0
41
1
10
14.4360977546001
20
4.14916627431688
30
0
41
1
10
14.8707280648306
20
3.90067345675675
30
0
41
1
10
15.4150471818346
20
3.5683185854115
30
0
41
1
10
15.5239630606406
20
3.50075947589281
30
0
41
1
10
15.7419712509727
20
3.36353462723363
30
0
41
1
10
15.8509398977973
20
3.29394565314664
30
0
41
1
10
16.1774880605288
20
3.08261925486468
30
0
41
1
10
16.394859194692
20
2.93822693319601
30
0
41
1
10
16.8295080958021
20
2.64302776121059
30
0
41
1
10
17.0467813622509
20
2.49223688624383
30
0
41
1
10
17.3730056018737
20
2.26173708884136
30
0
41
1
10
17.4817997345931
20
2.18418550491762
30
0
41
1
10
17.6995679110752
20
2.02771775109846
30
0
41
1
10
17.808620218134
20
1.94874322513752
30
0
41
1
10
18.3533803800601
20
1.5514963486344
30
0
41
1
10
18.7875174431369
20
1.22620695663792
30
0
41
1
10
19.4396603200656
20
0.731443387140217
30
0
41
1
10
19.6571993339252
20
0.56538199237238
30
0
41
1
10
19.9296504172186
20
0.356812683166652
30
0
41
1
10
19.9841788343512
20
0.315039848688315
30
0
41
1
10
20.0931490112846
20
0.231517869800882
30
0
41
1
10
20.1476070727348
20
0.189756259314549
30
0
41
1
10
20.3109134971876
20
0.0644873706803537
30
0
41
1
10
20.4196941614963
20
-0.019003586921059
30
0
41
1
10
20.9633292999814
20
-0.436107593402568
30
0
41
1
10
21.39736436202
20
-0.768710819186083
30
0
41
1
10
21.8872559884686
20
-1.13830244740163
30
0
41
1
10
21.9417106595607
20
-1.17930441775707
30
0
41
1
10
22.0506736439344
20
-1.2611688148526
30
0
41
1
10
22.1052083850186
20
-1.30205090994485
30
0
41
1
10
22.2686007714602
20
-1.42424137762143
30
0
41
1
10
22.5947165706936
20
-1.666935093729
30
0
41
1
10
22.9191534489035
20
-1.90424025125742
30
0
41
1
10
23.5665883244106
20
-2.37080728974402
30
0
41
1
10
23.9962948735717
20
-2.67111862219804
30
0
41
1
10
24.8562889719537
20
-3.24530451095845
30
0
41
1
10
25.2865855115406
20
-3.51915008719075
30
0
41
1
10
25.9357451124309
20
-3.90611889571053
30
0
41
1
10
26.1527480240355
20
-4.03113611857108
30
0
41
1
10
26.4251195525019
20
-4.18200572064814
30
0
41
1
10
26.4796520909954
20
-4.21190983490064
30
0
41
1
10
26.588527778554
20
-4.27099859621268
30
0
41
1
10
26.7516737747269
20
-4.35861742846768
30
0
41
1
10
26.9143593756723
20
-4.44318044331121
30
0
41
1
10
27.4558046114271
20
-4.71817670572247
30
0
41
1
10
27.8862875629452
20
-4.91613043248449
30
0
41
1
10
28.7463794020674
20
-5.26544785585222
30
0
41
1
10
29.1759715853497
20
-5.41677216038926
30
0
41
1
10
29.8228088959497
20
-5.60667486299022
30
0
41
1
10
30.0388327903624
20
-5.66379264258995
30
0
41
1
10
30.3639149218339
20
-5.7398530558562
30
0
41
1
10
30.526717977466
20
-5.77547816272698
30
0
41
1
10
30.6899983408698
20
-5.80742226884686
30
0
41
1
10
30.7989675811427
20
-5.82789156327968
30
0
41
1
10
30.8534840838337
20
-5.83770731490188
30
0
41
1
10
31.2906358853703
20
-5.9129970186145
30
0
41
1
10
31.6706835725143
20
-5.95740799710418
30
0
41
1
10
32.0495381858768
20
-5.98069996402452
30
0
0
SPLINE
5
19D
100
AcDbEntity
8
1
62
256
6
ByLayer
370
18
48
1
60
0
100
AcDbSpline
70
4
71
3
72
8
73
4
40
0
40
0
40
0
40
0
40
1
40
1
40
1
40
1
41
1
10
32.309588379676
20
-5.99338182912226
30
0
41
1
10
32.4779026575087
20
-5.99944976290408
30
0
41
1
10
32.6460457625311
20
-6.00135307457953
30
0
41
1
10
32.8141485637297
20
-5.99909818667473
30
0
0
SPLINE
5
19E
100
AcDbEntity
8
1
62
256
6
ByLayer
370
18
48
1
60
0
100
AcDbSpline
70
4
71
3
72
8
73
4
40
0
40
0
40
0
40
0
40
1
40
1
40
1
40
1
41
1
10
34.8121978794949
20
-3.056295433873
30
0
41
1
10
34.8303233572841
20
-3.06388330794073
30
0
41
1
10
34.8484488956582
20
-3.07146339018797
30
0
41
1
10
34.8665742556073
20
-3.07903603712092
30
0
0
SPLINE
5
19F
100
AcDbEntity
8
1
62
256
6
ByLayer
370
18
48
1
60
0
100
AcDbSpline
70
4
71
3
72
8
73
4
40
0
40
0
40
0
40
0
40
1
40
1
40
1
40
1
41
1
10
17.5345470396651
20
5.99908703717716
30
0
41
1
10
17.6138274103996
20
5.99845588499329
30
0
41
1
10
17.6930998275222
20
5.99699463221054
30
0
41
1
10
17.7723653307469
20
5.99470481650937
30
0
0
SPLINE
5
1A0
100
AcDbEntity
8
1
62
256
6
ByLayer
370
18
48
1
60
0
100
AcDbSpline
70
4
71
3
72
35
73
31
40
0
40
0
40
0
40
0
40
0.0116650833389344
40
0.0534697662986049
40
0.0952744492582755
40
0.137079132217946
40
0.178883815177617
40
0.199786156657452
40
0.220688498137287
40
0.262493181096958
40
0.283395522576793
40
0.304297864056628
40
0.346102547016299
40
0.367004888496134
40
0.387907229975969
40
0.42971191293564
40
0.450614254415475
40
0.47151659589531
40
0.513321278854981
40
0.555125961814651
40
0.596930644774322
40
0.638735327733992
40
0.680540010693663
40
0.764149376613004
40
0.805954059572675
40
0.847758742532345
40
0.889563425492016
40
0.931368108451686
40
0.973172791411357
40
1
40
1
40
1
40
1
41
1
10
18.5416984405499
20
5.94651074774251
30
0
41
1
10
18.6047714209138
20
5.94043701443888
30
0
41
1
10
18.8938712753144
20
5.9102133771639
30
0
41
1
10
19.4089324844621
20
5.83695298314129
30
0
41
1
10
20.0869310923566
20
5.70118087403137
30
0
41
1
10
20.7650509070509
20
5.52699853501215
30
0
41
1
10
21.3303484294184
20
5.35069922340654
30
0
41
1
10
21.7827172316394
20
5.19171261448764
30
0
41
1
10
22.2351780242951
20
5.02101973082205
30
0
41
1
10
22.6877894290834
20
4.83313560915548
30
0
41
1
10
23.1405667724123
20
4.62902699024818
30
0
41
1
10
23.593459592038
20
4.41443091607655
30
0
41
1
10
24.0465278629331
20
4.18460303067783
30
0
41
1
10
24.4997400767176
20
3.94074948357516
30
0
41
1
10
24.9530369996841
20
3.68794807246201
30
0
41
1
10
25.406449504362
20
3.42234470773224
30
0
41
1
10
25.8599448193217
20
3.14533286903026
30
0
41
1
10
26.313482632086
20
2.86117580453265
30
0
41
1
10
26.880465140319
20
2.49348202505232
30
0
41
1
10
27.5608416789613
20
2.0353710401956
30
0
41
1
10
28.2411391439318
20
1.56349441660322
30
0
41
1
10
28.9212133905893
20
1.08117960734043
30
0
41
1
10
29.8279072191795
20
0.428318500896836
30
0
41
1
10
30.7358815815386
20
-0.233440710797623
30
0
41
1
10
31.6476508807532
20
-0.89252270633034
30
0
41
1
10
32.3340078556161
20
-1.38255224196749
30
0
41
1
10
33.0235500421938
20
-1.86524985373282
30
0
41
1
10
33.7169576276468
20
-2.3375378969572
30
0
41
1
10
34.3316028286524
20
-2.74155160257337
30
0
41
1
10
34.7159477030929
20
-2.98512004052711
30
0
41
1
10
34.8665742556073
20
-3.07903603712089
30
0
0
SPLINE
5
1A1
100
AcDbEntity
8
1
62
256
6
ByLayer
370
18
48
1
60
0
100
AcDbSpline
70
4
71
3
72
63
73
59
40
0
40
0
40
0
40
0
40
0.0624999999999929
40
0.0624999999999929
40
0.0781249999999909
40
0.0781249999999909
40
0.093749999999989
40
0.093749999999989
40
0.124999999999986
40
0.124999999999986
40
0.187499999999979
40
0.187499999999979
40
0.203124999999977
40
0.203124999999977
40
0.218749999999976
40
0.249999999999974
40
0.249999999999974
40
0.281249999999973
40
0.281249999999973
40
0.296874999999972
40
0.296874999999972
40
0.312499999999971
40
0.312499999999971
40
0.374999999999968
40
0.374999999999968
40
0.437499999999965
40
0.437499999999965
40
0.499999999999961
40
0.499999999999961
40
0.53124999999996
40
0.53124999999996
40
0.53906249999996
40
0.53906249999996
40
0.54687499999996
40
0.562499999999962
40
0.562499999999962
40
0.624999999999967
40
0.624999999999967
40
0.687499999999971
40
0.687499999999971
40
0.749999999999976
40
0.749999999999976
40
0.765624999999978
40
0.765624999999978
40
0.78124999999998
40
0.812499999999983
40
0.812499999999983
40
0.874999999999989
40
0.874999999999989
40
0.89062499999999
40
0.89062499999999
40
0.906249999999991
40
0.937499999999994
40
0.937499999999994
40
0.968749999999997
40
0.984374999999998
40
0.984374999999998
40
1
40
1
40
1
40
1
41
1
10
14.0000000000002
20
5.50189318968665
30
0
41
1
10
14.435605056772
20
5.62811700785758
30
0
41
1
10
14.8699450146501
20
5.7311701809258
30
0
41
1
10
15.4135530742088
20
5.82982177475117
30
0
41
1
10
15.5223102296322
20
5.84804531188317
30
0
41
1
10
15.7399547916177
20
5.88146599373596
30
0
41
1
10
15.8487939796384
20
5.89665500314854
30
0
41
1
10
16.1748947492391
20
5.93756188027123
30
0
41
1
10
16.3919539227521
20
5.95863655940352
30
0
41
1
10
17.0428779786968
20
6.00313065653339
30
0
41
1
10
17.4764795164872
20
6.00802897442114
30
0
41
1
10
18.0205598043148
20
5.98283795514828
30
0
41
1
10
18.1295069327566
20
5.97623107918079
30
0
41
1
10
18.3471133644814
20
5.95993176012763
30
0
41
1
10
18.6732910437871
20
5.93084968840063
30
0
41
1
10
18.999039065266
20
5.88798177052314
30
0
41
1
10
19.4334186659345
20
5.81874209892214
30
0
41
1
10
19.6506334016879
20
5.77807761037536
30
0
41
1
10
19.9767802477149
20
5.70810152614206
30
0
41
1
10
20.0855489040442
20
5.68327859462312
30
0
41
1
10
20.3032422885308
20
5.63064378913739
30
0
41
1
10
20.4122676413708
20
5.60280402483039
30
0
41
1
10
20.9561392723595
20
5.45664349493319
30
0
41
1
10
21.3878754914794
20
5.31731843498241
30
0
41
1
10
22.2484910209353
20
4.99747582620381
30
0
41
1
10
22.6773773250665
20
4.816918501136
30
0
41
1
10
23.5362595946294
20
4.41795260810196
30
0
41
1
10
23.9662659035657
20
4.19953169412867
30
0
41
1
10
24.6149974501498
20
3.84588890351432
30
0
41
1
10
24.831860754558
20
3.72366620908983
30
0
41
1
10
25.1040007280456
20
3.56566639043996
30
0
41
1
10
25.1585087348183
20
3.53378924568645
30
0
41
1
10
25.2673734614771
20
3.46967408714795
30
0
41
1
10
25.4305213942486
20
3.37291542372384
30
0
41
1
10
25.5932524144707
20
3.27444252792375
30
0
41
1
10
26.1348877510196
20
2.94256458256905
30
0
41
1
10
26.5655924747885
20
2.66538612586354
30
0
41
1
10
27.4251478194594
20
2.09222102920168
30
0
41
1
10
27.854007807319
20
1.79624015733324
30
0
41
1
10
28.7137233608421
20
1.1904161970038
30
0
41
1
10
29.1445931252618
20
0.880577688655819
30
0
41
1
10
29.6869843880283
20
0.48790507308064
30
0
41
1
10
29.7956570183811
20
0.409098956240001
30
0
41
1
10
30.0134286242375
20
0.251044381938016
30
0
41
1
10
30.3397977425144
20
0.013971862543201
30
0
41
1
10
30.6655811856658
20
-0.22269144931758
30
0
41
1
10
31.3170598671272
20
-0.694520373938047
30
0
41
1
10
31.7512846768686
20
-1.00704471751408
30
0
41
1
10
32.295923704789
20
-1.3924416370192
30
0
41
1
10
32.4048802330892
20
-1.46921297883233
30
0
41
1
10
32.6224924605612
20
-1.62177900823084
30
0
41
1
10
32.9486396205986
20
-1.84928981319572
30
0
41
1
10
33.2742245439681
20
-2.07246506250757
30
0
41
1
10
33.7083119828716
20
-2.36555935241947
30
0
41
1
10
34.0338589855643
20
-2.58202273311611
30
0
41
1
10
34.359938394907
20
-2.79271488348843
30
0
41
1
10
34.5775075513247
20
-2.93180823773264
30
0
41
1
10
34.6864088558925
20
-3.00068554860008
30
0
41
1
10
34.7950915494391
20
-3.06862505240673
30
0
0
SPLINE
5
1A2
100
AcDbEntity
8
1
62
256
6
ByLayer
370
18
48
1
60
0
100
AcDbSpline
70
4
71
2
72
6
73
3
40
0
40
0
40
0
40
1
40
1
40
1
41
1
10
37.8182314707256
20
-0.303771247087525
30
0
41
1
10
37.8622113458528
20
0.0474298095808763
30
0
41
1
10
37.9061848187
20
0.398578532664089
30
0
0
SPLINE
5
1A3
100
AcDbEntity
8
1
62
256
6
ByLayer
370
18
48
1
60
0
100
AcDbSpline
70
4
71
2
72
6
73
3
40
0
40
0
40
0
40
1
40
1
40
1
41
1
10
37.646241071617
20
-3.76619553514325
30
0
41
1
10
37.6989147243157
20
-3.62319497696527
30
0
41
1
10
37.7515883770145
20
-3.48019441878728
30
0
0
SPLINE
5
1A4
100
AcDbEntity
8
1
62
256
6
ByLayer
370
18
48
1
60
0
100
AcDbSpline
70
4
71
1
72
4
73
2
40
0
40
0
40
1
40
1
41
1
10
36.4408305278069
20
-5.30031383322839
30
0
41
1
10
36.6176740181039
20
-5.16165470741191
30
0
0
SPLINE
5
1A5
100
AcDbEntity
8
1
62
256
6
ByLayer
370
18
48
1
60
0
100
AcDbSpline
70
4
71
1
72
4
73
2
40
0
40
0
40
1
40
1
41
1
10
16.289662032865
20
-5.2324427211548
30
0
41
1
10
16.350934164861
20
-5.22638237998649
30
0
0
SPLINE
5
1A6
100
AcDbEntity
8
1
62
256
6
ByLayer
370
18
48
1
60
0
100
AcDbSpline
70
4
71
2
72
6
73
3
40
0
40
0
40
0
40
1
40
1
40
1
41
1
10
16.350934164861
20
-5.22638237998649
30
0
41
1
10
16.8112513555768
20
-5.18952152197619
30
0
41
1
10
17.2719560879412
20
-5.12214947890831
30
0
0
SPLINE
5
1A7
100
AcDbEntity
8
1
62
256
6
ByLayer
370
18
48
1
60
0
100
AcDbSpline
70
4
71
2
72
6
73
3
40
0
40
0
40
0
40
1
40
1
40
1
41
1
10
17.3348353543511
20
-5.11281238876856
30
0
41
1
10
17.3772514611941
20
-5.10641826035834
30
0
41
1
10
17.4196708526545
20
-5.09976553375895
30
0
0
SPLINE
5
1A8
100
AcDbEntity
8
1
62
256
6
ByLayer
370
18
48
1
60
0
100
AcDbSpline
70
4
71
1
72
4
73
2
40
0
40
0
40
1
40
1
41
1
10
17.4196708526545
20
-5.09976553375895
30
0
41
1
10
17.4600129132693
20
-5.0942271125945
30
0
0
SPLINE
5
1A9
100
AcDbEntity
8
1
62
256
6
ByLayer
370
18
48
1
60
0
100
AcDbSpline
70
4
71
3
72
10
73
6
40
0
40
0
40
0
40
0
40
0.389012326910764
40
0.769060368268302
40
1
40
1
40
1
40
1
41
1
10
36.6620083148228
20
4.26594820012423
30
0
41
1
10
36.4404012006585
20
4.33314067832683
30
0
41
1
10
36.0016947951772
20
4.45934336802205
30
0
41
1
10
35.429989991023
20
4.60528689185364
30
0
41
1
10
35.0796639091036
20
4.68726243546837
30
0
41
1
10
34.9461081908819
20
4.71737539074982
30
0
0
SPLINE
5
1AA
100
AcDbEntity
8
1
62
256
6
ByLayer
370
18
48
1
60
0
100
AcDbSpline
70
4
71
2
72
6
73
3
40
0
40
0
40
0
40
1
40
1
40
1
41
1
10
37.681520163693
20
2.50954678013497
30
0
41
1
10
37.3980269752382
20
3.11854697340007
30
0
41
1
10
37.1148158612091
20
3.72703635283349
30
0
0
SPLINE
5
1AB
100
AcDbEntity
8
1
62
256
6
ByLayer
370
18
48
1
60
0
100
AcDbSpline
70
4
71
2
72
6
73
3
40
0
40
0
40
0
40
1
40
1
40
1
41
1
10
37.8446560738407
20
1.74681150129021
30
0
41
1
10
37.7924299525315
20
2.07050729910759
30
0
41
1
10
37.7402038312225
20
2.39420309692497
30
0
0
SPLINE
5
1AC
100
AcDbEntity
8
1
62
256
6
ByLayer
370
18
48
1
60
0
100
AcDbSpline
70
4
71
3
72
15
73
11
40
0
40
0
40
0
40
0
40
0.198525258896931
40
0.340564409964245
40
0.428322374222034
40
0.500599267792116
40
0.57295098776618
40
0.660305612842456
40
0.802002151864629
40
1
40
1
40
1
40
1
41
1
10
19.5680004581448
20
2.73572000101174
30
0
41
1
10
19.4312606280096
20
2.7735735796345
30
0
41
1
10
19.199280178369
20
2.843050985677
30
0
41
1
10
18.9076720205895
20
2.94243868922575
30
0
41
1
10
18.7108893311182
20
3.01467155628214
30
0
41
1
10
18.5628870781467
20
3.07153741889761
30
0
41
1
10
18.4149451690841
20
3.13062044934523
30
0
41
1
10
18.2190783073149
20
3.21212654097792
30
0
41
1
10
17.9296217593665
20
3.33984424101786
30
0
41
1
10
17.6985438905991
20
3.45047507824015
30
0
41
1
10
17.5622478439849
20
3.51856860605543
30
0
0
SPLINE
5
1AD
100
AcDbEntity
8
1
62
256
6
ByLayer
370
18
48
1
60
0
100
AcDbSpline
70
4
71
3
72
15
73
11
40
0
40
0
40
0
40
0
40
0.17515349366498
40
0.298774417968289
40
0.375814556614275
40
0.446552927575329
40
0.520362363400446
40
0.626567555735648
40
0.786614765660422
40
1
40
1
40
1
40
1
41
1
10
29.358487118023
20
2.80851365651856
30
0
41
1
10
29.2295905828448
20
2.84073867561031
30
0
41
1
10
29.0101749083752
20
2.89983333877913
30
0
41
1
10
28.7337754005606
20
2.98351811634808
30
0
41
1
10
28.5362617969293
20
3.04765930627838
30
0
41
1
10
28.3750508144633
20
3.10258989042481
30
0
41
1
10
28.1920597215308
20
3.16780779778748
30
0
41
1
10
27.9441610661011
20
3.26096836344581
30
0
41
1
10
27.5941383750958
20
3.40246410270589
30
0
41
1
10
27.3207564069579
20
3.52371164097045
30
0
41
1
10
27.1643038975157
20
3.59660768654197
30
0
0
SPLINE
5
1AE
100
AcDbEntity
8
1
62
256
6
ByLayer
370
18
48
1
60
0
100
AcDbSpline
70
4
71
2
72
6
73
3
40
0
40
0
40
0
40
1
40
1
40
1
41
1
10
35.9175762429207
20
-5.26169300625443
30
0
41
1
10
36.1056328364801
20
-5.25297668732341
30
0
41
1
10
36.2935805545334
20
-5.23857308252158
30
0
0
SPLINE
5
1AF
100
AcDbEntity
8
1
62
256
6
ByLayer
370
18
48
1
60
0
100
AcDbSpline
70
4
71
1
72
4
73
2
40
0
40
0
40
1
40
1
41
1
10
27.4887239205096
20
5.9990612144625
30
0
41
1
10
27.488741302539
20
5.9990607120703
30
0
0
SPLINE
5
1B0
100
AcDbEntity
8
1
62
256
6
ByLayer
370
18
48
1
60
0
100
AcDbSpline
70
4
71
1
72
4
73
2
40
0
40
0
40
1
40
1
41
1
10
22.4386017970128
20
-5.99907914178436
30
0
41
1
10
22.4385899566715
20
-5.99907927911485
30
0
0
SPLINE
5
1B1
100
AcDbEntity
8
1
62
256
6
ByLayer
370
18
48
1
60
0
100
AcDbSpline
70
4
71
2
72
6
73
3
40
0
40
0
40
0
40
1
40
1
40
1
41
1
10
35.2920960117394
20
-5.77313986799481
30
0
41
1
10
35.291822004462
20
-5.76548341406357
30
0
41
1
10
35.2915479820655
20
-5.75780183389031
30
0
0
SPLINE
5
1B2
100
AcDbEntity
8
1
62
256
6
ByLayer
370
18
48
1
60
0
100
AcDbSpline
70
4
71
2
72
6
73
3
40
0
40
0
40
0
40
1
40
1
40
1
41
1
10
32.8144244527319
20
-5.99908738895473
30
0
41
1
10
32.814409757036
20
-5.99908735562707
30
0
41
1
10
32.8143950613546
20
-5.99908724619294
30
0
0
SPLINE
5
1B3
100
AcDbEntity
8
1
62
256
6
ByLayer
370
18
48
1
60
0
100
AcDbSpline
70
4
71
2
72
6
73
3
40
0
40
0
40
0
40
1
40
1
40
1
41
1
10
17.5342342887221
20
5.99908952268561
30
0
41
1
10
17.5342464937674
20
5.99908933366925
30
0
41
1
10
17.534258698815
20
5.9990890803852
30
0
0
SPLINE
5
1B4
100
AcDbEntity
8
1
62
256
6
ByLayer
370
18
48
1
60
0
100
AcDbSpline
70
4
71
3
72
15
73
11
40
0
40
0
40
0
40
0
40
0.24714225042983
40
0.44947455436465
40
0.606999645321719
40
0.719721797064857
40
0.798450998737371
40
0.875203047360509
40
0.990583027178477
40
1
40
1
40
1
40
1
41
1
10
25.7590620087815
20
-5.26261247783577
30
0
41
1
10
25.955421336872
20
-5.25420260040855
30
0
41
1
10
26.3127839366277
20
-5.23341150029611
30
0
41
1
10
26.7958006256122
20
-5.19179701090957
30
0
41
1
10
27.1724989194408
20
-5.15103628217639
30
0
41
1
10
27.4513191898677
20
-5.11628179079773
30
0
41
1
10
27.6669754047827
20
-5.08688396020375
30
0
41
1
10
27.8841575445577
20
-5.0552074213208
30
0
41
1
10
28.0454684716677
20
-5.02981522173135
30
0
41
1
10
28.1452092572225
20
-5.01338251410382
30
0
41
1
10
28.1527347689886
20
-5.01213848371165
30
0
0
LINE
5
79
100
AcDbEntity
8
80
62
256
6
ByLayer
370
18
48
1
60
0
100
AcDbLine
10
0
20
0
30
0
11
-5
21
0
31
0
39
0
210
0
220
0
230
1
0
LINE
5
7A
100
AcDbEntity
8
4
62
256
6
ByLayer
370
18
48
0.05
60
0
100
AcDbLine
10
0
20
0
30
0
11
38
21
0
31
0
39
0
210
0
220
0
230
1
0
LINE
5
7C
100
AcDbEntity
8
81
62
256
6
ByLayer
370
18
48
1
60
0
100
AcDbLine
10
38
20
0
30
0
11
43
21
0
31
0
39
0
210
0
220
0
230
1
0
LINE
5
7D
100
AcDbEntity
8
SK4
62
256
6
ByLayer
370
18
48
0.05
60
0
100
AcDbLine
10
-45
20
0
30
0
11
38
21
0
31
0
39
0
210
0
220
0
230
1
0
LINE
5
7F
100
AcDbEntity
8
1
62
256
6
ByLayer
370
18
48
1
60
0
100
AcDbLine
10
0
20
6
30
0
11
0
21
0
31
0
39
0
210
0
220
0
230
1
0
LINE
5
80
100
AcDbEntity
8
1
62
256
6
ByLayer
370
18
48
1
60
0
100
AcDbLine
10
0
20
0
30
0
11
0
21
-6
31
0
39
0
210
0
220
0
230
1
0
LINE
5
81
100
AcDbEntity
8
1
62
256
6
ByLayer
370
18
48
1
60
0
100
AcDbLine
10
37.821584
20
-0.277004
30
0
11
37.820864
21
-0.279838
31
0
39
0
210
0
220
0
230
1
0
LINE
5
82
100
AcDbEntity
8
1
62
256
6
ByLayer
370
18
48
1
60
0
100
AcDbLine
10
37.820864
20
-0.279838
30
0
11
37.810231
21
-0.315656
31
0
39
0
210
0
220
0
230
1
0
LINE
5
83
100
AcDbEntity
8
1
62
256
6
ByLayer
370
18
48
1
60
0
100
AcDbLine
10
37.815293
20
-0.270011
30
0
11
37.836239
21
-0.116556
31
0
39
0
210
0
220
0
230
1
0
LINE
5
84
100
AcDbEntity
8
1
62
256
6
ByLayer
370
18
48
1
60
0
100
AcDbLine
10
37.839434
20
-0.093145
30
0
11
37.897691
21
0.33366
31
0
39
0
210
0
220
0
230
1
0
LINE
5
85
100
AcDbEntity
8
1
62
256
6
ByLayer
370
18
48
1
60
0
100
AcDbLine
10
37.885243
20
0.505328
30
0
11
37.919234
21
0.511113
31
0
39
0
210
0
220
0
230
1
0
LINE
5
86
100
AcDbEntity
8
1
62
256
6
ByLayer
370
18
48
1
60
0
100
AcDbLine
10
37.570568
20
-0.930405
30
0
11
37.810231
21
-0.315656
31
0
39
0
210
0
220
0
230
1
0
LINE
5
87
100
AcDbEntity
8
1
62
256
6
ByLayer
370
18
48
1
60
0
100
AcDbLine
10
37.810231
20
-0.315656
30
0
11
37.815293
21
-0.270011
31
0
39
0
210
0
220
0
230
1
0
LINE
5
88
100
AcDbEntity
8
1
62
256
6
ByLayer
370
18
48
1
60
0
100
AcDbLine
10
37.815293
20
-0.270011
30
0
11
37.799239
21
-0.270936
31
0
39
0
210
0
220
0
230
1
0
LINE
5
89
100
AcDbEntity
8
1
62
256
6
ByLayer
370
18
48
1
60
0
100
AcDbLine
10
37.909516
20
-2.179864
30
0
11
37.91847
21
-2.48073
31
0
39
0
210
0
220
0
230
1
0
LINE
5
8A
100
AcDbEntity
8
1
62
256
6
ByLayer
370
18
48
1
60
0
100
AcDbLine
10
37.820864
20
-2.745714
30
0
11
37.819689
21
-2.70576
31
0
39
0
210
0
220
0
230
1
0
LINE
5
8B
100
AcDbEntity
8
1
62
256
6
ByLayer
370
18
48
1
60
0
100
AcDbLine
10
37.846813
20
0.24795
30
0
11
37.863623
21
0.869574
31
0
39
0
210
0
220
0
230
1
0
LINE
5
8C
100
AcDbEntity
8
1
62
256
6
ByLayer
370
18
48
1
60
0
100
AcDbLine
10
37.884042
20
1.624639
30
0
11
37.91847
21
2.897738
31
0
39
0
210
0
220
0
230
1
0
LINE
5
8D
100
AcDbEntity
8
1
62
256
6
ByLayer
370
18
48
1
60
0
100
AcDbLine
10
37.799656
20
-0.269207
30
0
11
37.83926
21
-0.103952
31
0
39
0
210
0
220
0
230
1
0
LINE
5
8E
100
AcDbEntity
8
1
62
256
6
ByLayer
370
13
48
1
60
0
100
AcDbLine
10
37.602544
20
0.782348
30
0
11
37.846813
21
0.24795
31
0
39
0
210
0
220
0
230
1
0
LINE
5
8F
100
AcDbEntity
8
1
62
256
6
ByLayer
370
18
48
1
60
0
100
AcDbLine
10
37.464561
20
-3.358811
30
0
11
37.819689
21
-2.70576
31
0
39
0
210
0
220
0
230
1
0
LINE
5
90
100
AcDbEntity
8
1
62
256
6
ByLayer
370
18
48
1
60
0
100
AcDbLine
10
37.153074
20
-3.931609
30
0
11
37.230532
21
-3.789171
31
0
39
0
210
0
220
0
230
1
0
LINE
5
91
100
AcDbEntity
8
1
62
256
6
ByLayer
370
18
48
1
60
0
100
AcDbLine
10
10.71802
20
5.759534
30
0
11
10.759917
21
5.748319
31
0
39
0
210
0
220
0
230
1
0
LINE
5
92
100
AcDbEntity
8
1
62
256
6
ByLayer
370
18
48
1
60
0
100
AcDbLine
10
37.897925
20
-1.584298
30
0
11
37.91847
21
-2.095471
31
0
39
0
210
0
220
0
230
1
0
LINE
5
93
100
AcDbEntity
8
1
62
256
6
ByLayer
370
18
48
1
60
0
100
AcDbLine
10
37.814126
20
-1.278775
30
0
11
37.897925
21
-1.584298
31
0
39
0
210
0
220
0
230
1
0
LINE
5
94
100
AcDbEntity
8
1
62
256
6
ByLayer
370
18
48
1
60
0
100
AcDbLine
10
14
20
-5.357515
30
0
11
14
21
-5.755316
31
0
39
0
210
0
220
0
230
1
0
LINE
5
95
100
AcDbEntity
8
1
62
256
6
ByLayer
370
13
48
1
60
0
100
AcDbLine
10
37.885243
20
0.505328
30
0
11
37.852516
21
0.45902
31
0
39
0
210
0
220
0
230
1
0
LINE
5
96
100
AcDbEntity
8
1
62
256
6
ByLayer
370
13
48
1
60
0
100
AcDbLine
10
10.563374
20
-4.998081
30
0
11
14
21
-5.357515
31
0
39
0
210
0
220
0
230
1
0
LINE
5
97
100
AcDbEntity
8
1
62
256
6
ByLayer
370
18
48
1
60
0
100
AcDbLine
10
14
20
-5.357515
30
0
11
14
21
-5.204628
31
0
39
0
210
0
220
0
230
1
0
LINE
5
98
100
AcDbEntity
8
1
62
256
6
ByLayer
370
13
48
1
60
0
100
AcDbLine
10
10.422345
20
-4.830444
30
0
11
14
21
-5.204628
31
0
39
0
210
0
220
0
230
1
0
LINE
5
99
100
AcDbEntity
8
1
62
256
6
ByLayer
370
18
48
1
60
0
100
AcDbLine
10
14
20
-5.204628
30
0
11
14
21
-5.160993
31
0
39
0
210
0
220
0
230
1
0
LINE
5
9A
100
AcDbEntity
8
1
62
256
6
ByLayer
370
18
48
1
60
0
100
AcDbLine
10
37.302264
20
-0.546678
30
0
11
37.814126
21
-1.278775
31
0
39
0
210
0
220
0
230
1
0
LINE
5
9B
100
AcDbEntity
8
1
62
256
6
ByLayer
370
18
48
1
60
0
100
AcDbLine
10
37.820864
20
-1.447787
30
0
11
37.814126
21
-1.278775
31
0
39
0
210
0
220
0
230
1
0
LINE
5
9C
100
AcDbEntity
8
1
62
256
6
ByLayer
370
13
48
1
60
0
100
AcDbLine
10
37.636211
20
-0.062126
30
0
11
37.799656
21
-0.269207
31
0
39
0
210
0
220
0
230
1
0
LINE
5
9D
100
AcDbEntity
8
1
62
256
6
ByLayer
370
18
48
1
60
0
100
AcDbLine
10
37.173108
20
-0.361952
30
0
11
37.23277
21
-0.447284
31
0
39
0
210
0
220
0
230
1
0
LINE
5
9E
100
AcDbEntity
8
1
62
256
6
ByLayer
370
18
48
1
60
0
100
AcDbLine
10
37.89575
20
0.88029
30
0
11
37.91847
21
1.332672
31
0
39
0
210
0
220
0
230
1
0
LINE
5
9F
100
AcDbEntity
8
1
62
256
6
ByLayer
370
13
48
1
60
0
100
AcDbLine
10
35.906996
20
2.128756
30
0
11
37.113303
21
0.600389
31
0
39
0
210
0
220
0
230
1
0
LINE
5
A0
100
AcDbEntity
8
1
62
256
6
ByLayer
370
18
48
1
60
0
100
AcDbLine
10
37.89575
20
0.88029
30
0
11
37.241662
21
0.661776
31
0
39
0
210
0
220
0
230
1
0
LINE
5
A1
100
AcDbEntity
8
1
62
256
6
ByLayer
370
18
48
1
60
0
100
AcDbLine
10
10.528876
20
-4.797951
30
0
11
14
21
-5.160993
31
0
39
0
210
0
220
0
230
1
0
LINE
5
A2
100
AcDbEntity
8
1
62
256
6
ByLayer
370
18
48
1
60
0
100
AcDbLine
10
14
20
-5.160993
30
0
11
14
21
-3.319369
31
0
39
0
210
0
220
0
230
1
0
LINE
5
A3
100
AcDbEntity
8
1
62
256
6
ByLayer
370
13
48
1
60
0
100
AcDbLine
10
8.817788
20
-2.54677
30
0
11
13.682023
21
-3.055517
31
0
39
0
210
0
220
0
230
1
0
LINE
5
A4
100
AcDbEntity
8
1
62
256
6
ByLayer
370
18
48
1
60
0
100
AcDbLine
10
36.541077
20
-5.215501
30
0
11
36.54102
21
-5.216978
31
0
39
0
210
0
220
0
230
1
0
LINE
5
A5
100
AcDbEntity
8
1
62
256
6
ByLayer
370
13
48
1
60
0
100
AcDbLine
10
8.920758
20
-2.30399
30
0
11
13.038436
21
-2.734656
31
0
39
0
210
0
220
0
230
1
0
LINE
5
A6
100
AcDbEntity
8
1
62
256
6
ByLayer
370
13
48
1
60
0
100
AcDbLine
10
13.316359
20
-5.76
30
0
11
13.316359
21
-5.690643
31
0
39
0
210
0
220
0
230
1
0
LINE
5
A7
100
AcDbEntity
8
1
62
256
6
ByLayer
370
18
48
1
60
0
100
AcDbLine
10
14
20
5.501893
30
0
11
14
21
5.093513
31
0
39
0
210
0
220
0
230
1
0
LINE
5
A8
100
AcDbEntity
8
1
62
256
6
ByLayer
370
18
48
1
60
0
100
AcDbLine
10
14
20
1.014898
30
0
11
14
21
1.515916
31
0
39
0
210
0
220
0
230
1
0
LINE
5
A9
100
AcDbEntity
8
1
62
256
6
ByLayer
370
18
48
1
60
0
100
AcDbLine
10
14
20
1.515916
30
0
11
14
21
4.126063
31
0
39
0
210
0
220
0
230
1
0
LINE
5
AA
100
AcDbEntity
8
1
62
256
6
ByLayer
370
18
48
1
60
0
100
AcDbLine
10
14
20
-1.258796
30
0
11
14
21
-0.560856
31
0
39
0
210
0
220
0
230
1
0
LINE
5
AB
100
AcDbEntity
8
1
62
256
6
ByLayer
370
18
48
1
60
0
100
AcDbLine
10
14
20
-1.503606
30
0
11
14
21
-1.258796
31
0
39
0
210
0
220
0
230
1
0
LINE
5
AC
100
AcDbEntity
8
1
62
256
6
ByLayer
370
18
48
1
60
0
100
AcDbLine
10
14
20
-0.560856
30
0
11
14
21
1.014898
31
0
39
0
210
0
220
0
230
1
0
LINE
5
AD
100
AcDbEntity
8
1
62
256
6
ByLayer
370
18
48
1
60
0
100
AcDbLine
10
14
20
-1.503606
30
0
11
14
21
-1.840536
31
0
39
0
210
0
220
0
230
1
0
LINE
5
AE
100
AcDbEntity
8
1
62
256
6
ByLayer
370
18
48
1
60
0
100
AcDbLine
10
14
20
4.377995
30
0
11
14
21
4.126063
31
0
39
0
210
0
220
0
230
1
0
LINE
5
AF
100
AcDbEntity
8
1
62
256
6
ByLayer
370
13
48
1
60
0
100
AcDbLine
10
13.608309
20
4.364652
30
0
11
14
21
4.126063
31
0
39
0
210
0
220
0
230
1
0
LINE
5
B0
100
AcDbEntity
8
1
62
256
6
ByLayer
370
13
48
1
60
0
100
AcDbLine
10
13.816359
20
4.860698
30
0
11
13.816359
21
4.36373
31
0
39
0
210
0
220
0
230
1
0
LINE
5
B1
100
AcDbEntity
8
1
62
256
6
ByLayer
370
13
48
1
60
0
100
AcDbLine
10
9.405854
20
4.314333
30
0
11
14
21
1.515916
31
0
39
0
210
0
220
0
230
1
0
LINE
5
B2
100
AcDbEntity
8
1
62
256
6
ByLayer
370
13
48
1
60
0
100
AcDbLine
10
13.816359
20
-2.482957
30
0
11
13.816359
21
-3.158367
31
0
39
0
210
0
220
0
230
1
0
LINE
5
B3
100
AcDbEntity
8
1
62
256
6
ByLayer
370
13
48
1
60
0
100
AcDbLine
10
10.299476
20
0.995292
30
0
11
14
21
-1.258796
31
0
39
0
210
0
220
0
230
1
0
LINE
5
B4
100
AcDbEntity
8
1
62
256
6
ByLayer
370
13
48
1
60
0
100
AcDbLine
10
13.316359
20
-2.842276
30
0
11
13.316359
21
-1.430506
31
0
39
0
210
0
220
0
230
1
0
LINE
5
B5
100
AcDbEntity
8
1
62
256
6
ByLayer
370
13
48
1
60
0
100
AcDbLine
10
13.316359
20
4.408479
30
0
11
13.316359
21
5.275554
31
0
39
0
210
0
220
0
230
1
0
LINE
5
B6
100
AcDbEntity
8
1
62
256
6
ByLayer
370
18
48
1
60
0
100
AcDbLine
10
10.702061
20
1.448007
30
0
11
14
21
-0.560856
31
0
39
0
210
0
220
0
230
1
0
LINE
5
B7
100
AcDbEntity
8
1
62
256
6
ByLayer
370
13
48
1
60
0
100
AcDbLine
10
9.263712
20
3.899898
30
0
11
14
21
1.014898
31
0
39
0
210
0
220
0
230
1
0
LINE
5
B8
100
AcDbEntity
8
1
62
256
6
ByLayer
370
13
48
1
60
0
100
AcDbLine
10
10.426468
20
0.673128
30
0
11
14
21
-1.503606
31
0
39
0
210
0
220
0
230
1
0
LINE
5
B9
100
AcDbEntity
8
1
62
256
6
ByLayer
370
13
48
1
60
0
100
AcDbLine
10
1.997679
20
-5.76
30
0
11
1.997679
21
0
31
0
39
0
210
0
220
0
230
1
0
LINE
5
BA
100
AcDbEntity
8
1
62
256
6
ByLayer
370
13
48
1
60
0
100
AcDbLine
10
1.997679
20
0
30
0
11
1.997679
21
5.76
31
0
39
0
210
0
220
0
230
1
0
LINE
5
BB
100
AcDbEntity
8
1
62
256
6
ByLayer
370
13
48
1
60
0
100
AcDbLine
10
1.497679
20
5.893975
30
0
11
1.497679
21
0
31
0
39
0
210
0
220
0
230
1
0
LINE
5
BC
100
AcDbEntity
8
1
62
256
6
ByLayer
370
13
48
1
60
0
100
AcDbLine
10
1.497679
20
0
30
0
11
1.497679
21
-5.893975
31
0
39
0
210
0
220
0
230
1
0
LINE
5
BD
100
AcDbEntity
8
1
62
256
6
ByLayer
370
18
48
1
60
0
100
AcDbLine
10
1.314038
20
6
30
0
11
1.314038
21
0
31
0
39
0
210
0
220
0
230
1
0
LINE
5
BE
100
AcDbEntity
8
1
62
256
6
ByLayer
370
18
48
1
60
0
100
AcDbLine
10
1.314038
20
0
30
0
11
1.314038
21
-6
31
0
39
0
210
0
220
0
230
1
0
LINE
5
BF
100
AcDbEntity
8
1
62
256
6
ByLayer
370
18
48
1
60
0
100
AcDbLine
10
14
20
4.377995
30
0
11
14
21
4.378275
31
0
39
0
210
0
220
0
230
1
0
LINE
5
C0
100
AcDbEntity
8
SK1
62
256
6
ByLayer
370
18
48
1
60
0
100
AcDbLine
10
-45
20
-5.2
30
0
11
-45
21
5.2
31
0
39
0
210
0
220
0
230
1
0
LINE
5
C2
100
AcDbEntity
8
SK1
62
256
6
ByLayer
370
18
48
1
60
0
100
AcDbLine
10
0
20
6
30
0
11
0
21
0
31
0
39
0
210
0
220
0
230
1
0
LINE
5
C3
100
AcDbEntity
8
SK1
62
256
6
ByLayer
370
18
48
1
60
0
100
AcDbLine
10
0
20
0
30
0
11
0
21
-6
31
0
39
0
210
0
220
0
230
1
0
LINE
5
C4
100
AcDbEntity
8
SK1
62
256
6
ByLayer
370
18
48
1
60
0
100
AcDbLine
10
-44.2
20
6
30
0
11
-44.2
21
-6
31
0
39
0
210
0
220
0
230
1
0
LINE
5
C5
100
AcDbEntity
8
SK1
62
256
6
ByLayer
370
18
48
1
60
0
100
AcDbLine
10
-26.5
20
4.4
30
0
11
-28.1
21
6
31
0
39
0
210
0
220
0
230
1
0
LINE
5
C6
100
AcDbEntity
8
SK1
62
256
6
ByLayer
370
18
48
1
60
0
100
AcDbLine
10
-16.9
20
6
30
0
11
-18.5
21
4.4
31
0
39
0
210
0
220
0
230
1
0
LINE
5
C7
100
AcDbEntity
8
SK1
62
256
6
ByLayer
370
18
48
1
60
0
100
AcDbLine
10
-26.5
20
4.4
30
0
11
-18.5
21
4.4
31
0
39
0
210
0
220
0
230
1
0
LINE
5
C8
100
AcDbEntity
8
1
62
256
6
ByLayer
370
18
48
1
60
0
100
AcDbLine
10
1.314038
20
6
30
0
11
0
21
6
31
0
39
0
210
0
220
0
230
1
0
LINE
5
C9
100
AcDbEntity
8
1
62
256
6
ByLayer
370
18
48
1
60
0
100
AcDbLine
10
0
20
-6
30
0
11
1.314038
21
-6
31
0
39
0
210
0
220
0
230
1
0
LINE
5
CA
100
AcDbEntity
8
1
62
256
6
ByLayer
370
18
48
1
60
0
100
AcDbLine
10
10.505823
20
5.76
30
0
11
1.997679
21
5.76
31
0
39
0
210
0
220
0
230
1
0
LINE
5
CB
100
AcDbEntity
8
1
62
256
6
ByLayer
370
18
48
1
60
0
100
AcDbLine
10
1.997679
20
-5.76
30
0
11
13.316359
21
-5.76
31
0
39
0
210
0
220
0
230
1
0
LINE
5
CC
100
AcDbEntity
8
1
62
256
6
ByLayer
370
18
48
1
60
0
100
AcDbLine
10
1.497679
20
5.893975
30
0
11
1.314038
21
6
31
0
39
0
210
0
220
0
230
1
0
LINE
5
CD
100
AcDbEntity
8
1
62
256
6
ByLayer
370
18
48
1
60
0
100
AcDbLine
10
1.314038
20
-6
30
0
11
1.497679
21
-5.893975
31
0
39
0
210
0
220
0
230
1
0
LINE
5
CE
100
AcDbEntity
8
SK1
62
256
6
ByLayer
370
18
48
1
60
0
100
AcDbLine
10
-45
20
-5.2
30
0
11
-44.2
21
-6
31
0
39
0
210
0
220
0
230
1
0
LINE
5
CF
100
AcDbEntity
8
SK1
62
256
6
ByLayer
370
18
48
1
60
0
100
AcDbLine
10
-44.2
20
6
30
0
11
-45
21
5.2
31
0
39
0
210
0
220
0
230
1
0
LINE
5
D0
100
AcDbEntity
8
SK1
62
256
6
ByLayer
370
18
48
1
60
0
100
AcDbLine
10
0
20
6
30
0
11
-16.9
21
6
31
0
39
0
210
0
220
0
230
1
0
LINE
5
D1
100
AcDbEntity
8
SK1
62
256
6
ByLayer
370
18
48
1
60
0
100
AcDbLine
10
-28.1
20
6
30
0
11
-44.2
21
6
31
0
39
0
210
0
220
0
230
1
0
LINE
5
D2
100
AcDbEntity
8
SK1
62
256
6
ByLayer
370
18
48
1
60
0
100
AcDbLine
10
-44.2
20
-6
30
0
11
0
21
-6
31
0
39
0
210
0
220
0
230
1
0
LINE
5
D3
100
AcDbEntity
8
SK2
62
256
6
ByLayer
370
18
48
1
60
0
100
AcDbLine
10
-52.45
20
6
30
0
11
-52.45
21
-24.056066
31
0
39
0
210
0
220
0
230
1
0
LINE
5
D5
100
AcDbEntity
8
SK2
62
256
6
ByLayer
370
18
48
1
60
0
100
AcDbLine
10
-45.7875
20
6
30
0
11
-54.45
21
6
31
0
39
0
210
0
220
0
230
1
0
LINE
5
D6
100
AcDbEntity
8
SK2
62
256
6
ByLayer
370
18
48
1
60
0
100
AcDbLine
10
-45.7875
20
-6
30
0
11
-54.45
21
-6
31
0
39
0
210
0
220
0
230
1
0
LINE
5
D7
100
AcDbEntity
8
1
62
256
6
ByLayer
370
18
48
1
60
1
100
AcDbLine
10
-52.45
20
6
30
0
11
-51.989216
21
2.500002
31
0
39
0
210
0
220
0
230
1
0
LINE
5
D8
100
AcDbEntity
8
1
62
256
6
ByLayer
370
18
48
1
60
1
100
AcDbLine
10
-51.989216
20
2.500002
30
0
11
-52.910784
21
2.499998
31
0
39
0
210
0
220
0
230
1
0
LINE
5
D9
100
AcDbEntity
8
1
62
256
6
ByLayer
370
18
48
1
60
1
100
AcDbLine
10
-52.910784
20
2.499998
30
0
11
-52.45
21
6
31
0
39
0
210
0
220
0
230
1
0
LINE
5
DA
100
AcDbEntity
8
1
62
256
6
ByLayer
370
18
48
1
60
1
100
AcDbLine
10
-52.45
20
-6
30
0
11
-52.910784
21
-2.500002
31
0
39
0
210
0
220
0
230
1
0
LINE
5
DB
100
AcDbEntity
8
1
62
256
6
ByLayer
370
18
48
1
60
1
100
AcDbLine
10
-52.910784
20
-2.500002
30
0
11
-51.989216
21
-2.499998
31
0
39
0
210
0
220
0
230
1
0
LINE
5
DC
100
AcDbEntity
8
1
62
256
6
ByLayer
370
18
48
1
60
1
100
AcDbLine
10
-51.989216
20
-2.499998
30
0
11
-52.45
21
-6
31
0
39
0
210
0
220
0
230
1
0
LINE
5
DD
100
AcDbEntity
8
SK2
62
256
6
ByLayer
370
13
48
1
60
0
100
AcDbLine
10
9.107019
20
-5.76
30
0
11
9.107019
21
33.590131
31
0
39
0
210
0
220
0
230
1
0
LINE
5
DE
100
AcDbEntity
8
SK2
62
256
6
ByLayer
370
13
48
1
60
0
100
AcDbLine
10
11.728859
20
5.76
30
0
11
7.107019
21
5.76
31
0
39
0
210
0
220
0
230
1
0
LINE
5
DF
100
AcDbEntity
8
SK2
62
256
6
ByLayer
370
13
48
1
60
0
100
AcDbLine
10
11.728859
20
-5.76
30
0
11
7.107019
21
-5.76
31
0
39
0
210
0
220
0
230
1
0
LINE
5
E0
100
AcDbEntity
8
1
62
256
6
ByLayer
370
18
48
1
60
1
100
AcDbLine
10
9.107019
20
5.76
30
0
11
9.567803
21
2.260002
31
0
39
0
210
0
220
0
230
1
0
LINE
5
E1
100
AcDbEntity
8
1
62
256
6
ByLayer
370
18
48
1
60
1
100
AcDbLine
10
9.567803
20
2.260002
30
0
11
8.646235
21
2.259998
31
0
39
0
210
0
220
0
230
1
0
LINE
5
E2
100
AcDbEntity
8
1
62
256
6
ByLayer
370
18
48
1
60
1
100
AcDbLine
10
8.646235
20
2.259998
30
0
11
9.107019
21
5.76
31
0
39
0
210
0
220
0
230
1
0
LINE
5
E3
100
AcDbEntity
8
1
62
256
6
ByLayer
370
18
48
1
60
1
100
AcDbLine
10
9.107019
20
-5.76
30
0
11
8.646235
21
-2.260002
31
0
39
0
210
0
220
0
230
1
0
LINE
5
E4
100
AcDbEntity
8
1
62
256
6
ByLayer
370
18
48
1
60
1
100
AcDbLine
10
8.646235
20
-2.260002
30
0
11
9.567803
21
-2.259998
31
0
39
0
210
0
220
0
230
1
0
LINE
5
E5
100
AcDbEntity
8
1
62
256
6
ByLayer
370
18
48
1
60
1
100
AcDbLine
10
9.567803
20
-2.259998
30
0
11
9.107019
21
-5.76
31
0
39
0
210
0
220
0
230
1
0
LINE
5
E6
100
AcDbEntity
8
2
62
256
6
ByLayer
370
18
48
1
60
0
100
AcDbLine
10
50
20
-6
30
0
11
50
21
24.056066
31
0
39
0
210
0
220
0
230
1
0
LINE
5
E8
100
AcDbEntity
8
2
62
256
6
ByLayer
370
18
48
1
60
0
100
AcDbLine
10
39.5875
20
6
30
0
11
52
21
6
31
0
39
0
210
0
220
0
230
1
0
LINE
5
E9
100
AcDbEntity
8
2
62
256
6
ByLayer
370
18
48
1
60
0
100
AcDbLine
10
39.5875
20
-6
30
0
11
52
21
-6
31
0
39
0
210
0
220
0
230
1
0
LINE
5
EA
100
AcDbEntity
8
1
62
256
6
ByLayer
370
18
48
1
60
1
100
AcDbLine
10
50
20
6
30
0
11
50.460784
21
2.500002
31
0
39
0
210
0
220
0
230
1
0
LINE
5
EB
100
AcDbEntity
8
1
62
256
6
ByLayer
370
18
48
1
60
1
100
AcDbLine
10
50.460784
20
2.500002
30
0
11
49.539216
21
2.499998
31
0
39
0
210
0
220
0
230
1
0
LINE
5
EC
100
AcDbEntity
8
1
62
256
6
ByLayer
370
18
48
1
60
1
100
AcDbLine
10
49.539216
20
2.499998
30
0
11
50
21
6
31
0
39
0
210
0
220
0
230
1
0
LINE
5
ED
100
AcDbEntity
8
1
62
256
6
ByLayer
370
18
48
1
60
1
100
AcDbLine
10
50
20
-6
30
0
11
49.539216
21
-2.500002
31
0
39
0
210
0
220
0
230
1
0
LINE
5
EE
100
AcDbEntity
8
1
62
256
6
ByLayer
370
18
48
1
60
1
100
AcDbLine
10
49.539216
20
-2.500002
30
0
11
50.460784
21
-2.499998
31
0
39
0
210
0
220
0
230
1
0
LINE
5
EF
100
AcDbEntity
8
1
62
256
6
ByLayer
370
18
48
1
60
1
100
AcDbLine
10
50.460784
20
-2.499998
30
0
11
50
21
-6
31
0
39
0
210
0
220
0
230
1
0
LINE
5
F0
100
AcDbEntity
8
SK2
62
256
6
ByLayer
370
18
48
1
60
0
100
AcDbLine
10
38
20
-52.970808
30
0
11
-45
21
-52.970808
31
0
39
0
210
0
220
0
230
1
0
LINE
5
F1
100
AcDbEntity
8
SK2
62
256
6
ByLayer
370
18
48
1
60
0
100
AcDbLine
10
-45
20
-6.7875
30
0
11
-45
21
-54.970808
31
0
39
0
210
0
220
0
230
1
0
LINE
5
F2
100
AcDbEntity
8
SK2
62
256
6
ByLayer
370
18
48
1
60
0
100
AcDbLine
10
38
20
-7.5875
30
0
11
38
21
-54.970808
31
0
39
0
210
0
220
0
230
1
0
LINE
5
F3
100
AcDbEntity
8
1
62
256
6
ByLayer
370
18
48
1
60
1
100
AcDbLine
10
-45
20
-52.970808
30
0
11
-41.500002
21
-52.510025
31
0
39
0
210
0
220
0
230
1
0
LINE
5
F4
100
AcDbEntity
8
1
62
256
6
ByLayer
370
18
48
1
60
1
100
AcDbLine
10
-41.500002
20
-52.510025
30
0
11
-41.499998
21
-53.431592
31
0
39
0
210
0
220
0
230
1
0
LINE
5
F5
100
AcDbEntity
8
1
62
256
6
ByLayer
370
18
48
1
60
1
100
AcDbLine
10
-41.499998
20
-53.431592
30
0
11
-45
21
-52.970808
31
0
39
0
210
0
220
0
230
1
0
LINE
5
F6
100
AcDbEntity
8
1
62
256
6
ByLayer
370
18
48
1
60
1
100
AcDbLine
10
38
20
-52.970808
30
0
11
34.500002
21
-53.431592
31
0
39
0
210
0
220
0
230
1
0
LINE
5
F7
100
AcDbEntity
8
1
62
256
6
ByLayer
370
18
48
1
60
1
100
AcDbLine
10
34.500002
20
-53.431592
30
0
11
34.499998
21
-52.510025
31
0
39
0
210
0
220
0
230
1
0
LINE
5
F8
100
AcDbEntity
8
1
62
256
6
ByLayer
370
18
48
1
60
1
100
AcDbLine
10
34.499998
20
-52.510025
30
0
11
38
21
-52.970808
31
0
39
0
210
0
220
0
230
1
0
LINE
5
1B9
100
AcDbEntity
8
1
62
256
6
ByLayer
370
18
48
1
60
1
100
AcDbLine
10
-52.45
20
6
30
0
11
-51.989216
21
2.500002
31
0
39
0
210
0
220
0
230
1
0
LINE
5
1BA
100
AcDbEntity
8
1
62
256
6
ByLayer
370
18
48
1
60
1
100
AcDbLine
10
-51.989216
20
2.500002
30
0
11
-52.910784
21
2.499998
31
0
39
0
210
0
220
0
230
1
0
LINE
5
1BB
100
AcDbEntity
8
1
62
256
6
ByLayer
370
18
48
1
60
1
100
AcDbLine
10
-52.910784
20
2.499998
30
0
11
-52.45
21
6
31
0
39
0
210
0
220
0
230
1
0
LINE
5
1BD
100
AcDbEntity
8
1
62
256
6
ByLayer
370
18
48
1
60
1
100
AcDbLine
10
-52.45
20
-6
30
0
11
-52.910784
21
-2.500002
31
0
39
0
210
0
220
0
230
1
0
LINE
5
1BE
100
AcDbEntity
8
1
62
256
6
ByLayer
370
18
48
1
60
1
100
AcDbLine
10
-52.910784
20
-2.500002
30
0
11
-51.989216
21
-2.499998
31
0
39
0
210
0
220
0
230
1
0
LINE
5
1BF
100
AcDbEntity
8
1
62
256
6
ByLayer
370
18
48
1
60
1
100
AcDbLine
10
-51.989216
20
-2.499998
30
0
11
-52.45
21
-6
31
0
39
0
210
0
220
0
230
1
0
LINE
5
1C3
100
AcDbEntity
8
1
62
256
6
ByLayer
370
18
48
1
60
1
100
AcDbLine
10
9.107019
20
5.76
30
0
11
9.567803
21
2.260002
31
0
39
0
210
0
220
0
230
1
0
LINE
5
1C4
100
AcDbEntity
8
1
62
256
6
ByLayer
370
18
48
1
60
1
100
AcDbLine
10
9.567803
20
2.260002
30
0
11
8.646235
21
2.259998
31
0
39
0
210
0
220
0
230
1
0
LINE
5
1C5
100
AcDbEntity
8
1
62
256
6
ByLayer
370
18
48
1
60
1
100
AcDbLine
10
8.646235
20
2.259998
30
0
11
9.107019
21
5.76
31
0
39
0
210
0
220
0
230
1
0
LINE
5
1C7
100
AcDbEntity
8
1
62
256
6
ByLayer
370
18
48
1
60
1
100
AcDbLine
10
9.107019
20
-5.76
30
0
11
8.646235
21
-2.260002
31
0
39
0
210
0
220
0
230
1
0
LINE
5
1C8
100
AcDbEntity
8
1
62
256
6
ByLayer
370
18
48
1
60
1
100
AcDbLine
10
8.646235
20
-2.260002
30
0
11
9.567803
21
-2.259998
31
0
39
0
210
0
220
0
230
1
0
LINE
5
1C9
100
AcDbEntity
8
1
62
256
6
ByLayer
370
18
48
1
60
1
100
AcDbLine
10
9.567803
20
-2.259998
30
0
11
9.107019
21
-5.76
31
0
39
0
210
0
220
0
230
1
0
LINE
5
1CD
100
AcDbEntity
8
1
62
256
6
ByLayer
370
18
48
1
60
1
100
AcDbLine
10
50
20
6
30
0
11
50.460784
21
2.500002
31
0
39
0
210
0
220
0
230
1
0
LINE
5
1CE
100
AcDbEntity
8
1
62
256
6
ByLayer
370
18
48
1
60
1
100
AcDbLine
10
50.460784
20
2.500002
30
0
11
49.539216
21
2.499998
31
0
39
0
210
0
220
0
230
1
0
LINE
5
1CF
100
AcDbEntity
8
1
62
256
6
ByLayer
370
18
48
1
60
1
100
AcDbLine
10
49.539216
20
2.499998
30
0
11
50
21
6
31
0
39
0
210
0
220
0
230
1
0
LINE
5
1D1
100
AcDbEntity
8
1
62
256
6
ByLayer
370
18
48
1
60
1
100
AcDbLine
10
50
20
-6
30
0
11
49.539216
21
-2.500002
31
0
39
0
210
0
220
0
230
1
0
LINE
5
1D2
100
AcDbEntity
8
1
62
256
6
ByLayer
370
18
48
1
60
1
100
AcDbLine
10
49.539216
20
-2.500002
30
0
11
50.460784
21
-2.499998
31
0
39
0
210
0
220
0
230
1
0
LINE
5
1D3
100
AcDbEntity
8
1
62
256
6
ByLayer
370
18
48
1
60
1
100
AcDbLine
10
50.460784
20
-2.499998
30
0
11
50
21
-6
31
0
39
0
210
0
220
0
230
1
0
LINE
5
1D6
100
AcDbEntity
8
1
62
256
6
ByLayer
370
18
48
1
60
1
100
AcDbLine
10
-45
20
-52.970808
30
0
11
-41.500002
21
-52.510025
31
0
39
0
210
0
220
0
230
1
0
LINE
5
1D7
100
AcDbEntity
8
1
62
256
6
ByLayer
370
18
48
1
60
1
100
AcDbLine
10
-41.500002
20
-52.510025
30
0
11
-41.499998
21
-53.431592
31
0
39
0
210
0
220
0
230
1
0
LINE
5
1D8
100
AcDbEntity
8
1
62
256
6
ByLayer
370
18
48
1
60
1
100
AcDbLine
10
-41.499998
20
-53.431592
30
0
11
-45
21
-52.970808
31
0
39
0
210
0
220
0
230
1
0
LINE
5
1DA
100
AcDbEntity
8
1
62
256
6
ByLayer
370
18
48
1
60
1
100
AcDbLine
10
38
20
-52.970808
30
0
11
34.500002
21
-53.431592
31
0
39
0
210
0
220
0
230
1
0
LINE
5
1DB
100
AcDbEntity
8
1
62
256
6
ByLayer
370
18
48
1
60
1
100
AcDbLine
10
34.500002
20
-53.431592
30
0
11
34.499998
21
-52.510025
31
0
39
0
210
0
220
0
230
1
0
LINE
5
1DC
100
AcDbEntity
8
1
62
256
6
ByLayer
370
18
48
1
60
1
100
AcDbLine
10
34.499998
20
-52.510025
30
0
11
38
21
-52.970808
31
0
39
0
210
0
220
0
230
1
0
MTEXT
5
1B5
100
AcDbEntity
8
SK2
62
256
6
ByLayer
370
18
48
1
60
0
100
AcDbMText
10
-54.014634
20
-22.121222
30
0
210
0
220
0
230
1
1
%%c
40
3.5
41
0
44
1.084337
50
90
71
7
72
5
7
iso_b_vert
0
MTEXT
5
1B8
100
AcDbEntity
8
SK2
62
256
6
ByLayer
370
18
48
1
60
0
100
AcDbMText
10
-54.014634
20
-15.148566
30
0
210
0
220
0
230
1
1
\W0.5321;12
40
3.5
41
0
44
1.084337
50
90
71
7
72
5
7
iso_b_vert
0
MTEXT
5
1C1
100
AcDbEntity
8
SK2
62
256
6
ByLayer
370
18
48
1
60
0
100
AcDbMText
10
7.542385
20
17.694844
30
0
210
0
220
0
230
1
1
%%c
40
3.5
41
0
44
1.084337
50
90
71
7
72
5
7
iso_b_vert
0
MTEXT
5
1C2
100
AcDbEntity
8
SK2
62
256
6
ByLayer
370
18
48
1
60
0
100
AcDbMText
10
7.542385
20
24.6675
30
0
210
0
220
0
230
1
1
\W0.6261;11.52
40
3.5
41
0
44
1.084337
50
90
71
7
72
5
7
iso_b_vert
0
MTEXT
5
1CB
100
AcDbEntity
8
2
62
256
6
ByLayer
370
18
48
1
60
0
100
AcDbMText
10
48.435366
20
13.934844
30
0
210
0
220
0
230
1
1
%%c
40
3.5
41
0
44
1.084337
50
90
71
7
72
5
7
iso_b_vert
0
MTEXT
5
1CC
100
AcDbEntity
8
2
62
256
6
ByLayer
370
18
48
1
60
0
100
AcDbMText
10
48.435366
20
20.9075
30
0
210
0
220
0
230
1
1
\W0.5321;12
40
3.5
41
0
44
1.084337
50
90
71
7
72
5
7
iso_b_vert
0
MTEXT
5
1D5
100
AcDbEntity
8
SK2
62
256
6
ByLayer
370
18
48
1
60
0
100
AcDbMText
10
-5.404966
20
-51.938175
30
0
210
0
220
0
230
1
1
\W0.6740;83
40
3.5
41
0
44
1.084337
50
0
71
7
72
5
7
iso_b_vert
0
MTEXT
5
1DE
100
AcDbEntity
8
SK6
62
256
6
ByLayer
370
18
48
1
60
0
100
AcDbMText
10
-28.597735
20
-62.054581
30
0
210
0
220
0
230
1
1
\W0.7088;1K335-1200-300-XD   1730
40
3
41
0
44
1.084337
50
0
71
7
72
5
7
iso_b_vert
0
HATCH
5
1BC
100
AcDbEntity
8
SK2
62
256
6
ByLayer
370
13
48
1
60
0
100
AcDbHatch
10
0
20
0
30
0
210
0
220
0
230
1
2
ANSI31
70
0
71
0
91
1
92
5
93
3
72
1
10
-52.45
20
6
11
-51.9892162584472
21
2.50000169255318
72
1
10
-51.9892162584472
20
2.50000169255318
11
-52.9107837415528
21
2.49999830744682
72
1
10
-52.9107837415528
20
2.49999830744682
11
-52.45
21
6
97
0
75
0
76
1
52
0
41
0.0062
77
0
78
1
53
45
43
0
44
0
45
-0.0139193969876572
46
0.0139193969876572
79
0
47
0
98
1
10
0
20
0
0
HATCH
5
1C0
100
AcDbEntity
8
SK2
62
256
6
ByLayer
370
13
48
1
60
0
100
AcDbHatch
10
0
20
0
30
0
210
0
220
0
230
1
2
ANSI31
70
0
71
0
91
1
92
5
93
3
72
1
10
-52.45
20
-6
11
-52.9107837415528
21
-2.50000169255318
72
1
10
-52.9107837415528
20
-2.50000169255318
11
-51.9892162584472
21
-2.49999830744682
72
1
10
-51.9892162584472
20
-2.49999830744682
11
-52.45
21
-6
97
0
75
0
76
1
52
0
41
0.0062
77
0
78
1
53
45
43
0
44
0
45
-0.0139193969876572
46
0.0139193969876572
79
0
47
0
98
1
10
0
20
0
0
HATCH
5
1C6
100
AcDbEntity
8
SK2
62
256
6
ByLayer
370
13
48
1
60
0
100
AcDbHatch
10
0
20
0
30
0
210
0
220
0
230
1
2
ANSI31
70
0
71
0
91
1
92
5
93
3
72
1
10
9.10701876795659
20
5.75999999999993
11
9.56780250950936
21
2.26000169255312
72
1
10
9.56780250950936
20
2.26000169255312
11
8.64623502640382
21
2.25999830744675
72
1
10
8.64623502640382
20
2.25999830744675
11
9.10701876795659
21
5.75999999999993
97
0
75
0
76
1
52
0
41
0.0062
77
0
78
1
53
45
43
0
44
0
45
-0.0139193969876572
46
0.0139193969876572
79
0
47
0
98
1
10
0
20
0
0
HATCH
5
1CA
100
AcDbEntity
8
SK2
62
256
6
ByLayer
370
13
48
1
60
0
100
AcDbHatch
10
0
20
0
30
0
210
0
220
0
230
1
2
ANSI31
70
0
71
0
91
1
92
5
93
3
72
1
10
9.10701876795659
20
-5.76000000000005
11
8.64623502640382
21
-2.26000169255323
72
1
10
8.64623502640382
20
-2.26000169255323
11
9.56780250950936
21
-2.25999830744686
72
1
10
9.56780250950936
20
-2.25999830744686
11
9.10701876795659
21
-5.76000000000005
97
0
75
0
76
1
52
0
41
0.0062
77
0
78
1
53
45
43
0
44
0
45
-0.0139193969876572
46
0.0139193969876572
79
0
47
0
98
1
10
0
20
0
0
HATCH
5
1D0
100
AcDbEntity
8
2
62
256
6
ByLayer
370
13
48
1
60
0
100
AcDbHatch
10
0
20
0
30
0
210
0
220
0
230
1
2
ANSI31
70
0
71
0
91
1
92
5
93
3
72
1
10
50
20
5.99999999999986
11
50.4607837415528
21
2.50000169255304
72
1
10
50.4607837415528
20
2.50000169255304
11
49.5392162584472
21
2.49999830744667
72
1
10
49.5392162584472
20
2.49999830744667
11
50
21
5.99999999999986
97
0
75
0
76
1
52
0
41
0.0062
77
0
78
1
53
45
43
0
44
0
45
-0.0139193969876572
46
0.0139193969876572
79
0
47
0
98
1
10
0
20
0
0
HATCH
5
1D4
100
AcDbEntity
8
2
62
256
6
ByLayer
370
13
48
1
60
0
100
AcDbHatch
10
0
20
0
30
0
210
0
220
0
230
1
2
ANSI31
70
0
71
0
91
1
92
5
93
3
72
1
10
50
20
-6.00000000000014
11
49.5392162584472
21
-2.50000169255333
72
1
10
49.5392162584472
20
-2.50000169255333
11
50.4607837415528
21
-2.49999830744696
72
1
10
50.4607837415528
20
-2.49999830744696
11
50
21
-6.00000000000014
97
0
75
0
76
1
52
0
41
0.0062
77
0
78
1
53
45
43
0
44
0
45
-0.0139193969876572
46
0.0139193969876572
79
0
47
0
98
1
10
0
20
0
0
HATCH
5
1D9
100
AcDbEntity
8
SK2
62
256
6
ByLayer
370
13
48
1
60
0
100
AcDbHatch
10
0
20
0
30
0
210
0
220
0
230
1
2
ANSI31
70
0
71
0
91
1
92
5
93
3
72
1
10
-45
20
-52.9708083948156
11
-41.5000016925532
21
-52.5100246532628
72
1
10
-41.5000016925532
20
-52.5100246532628
11
-41.4999983074468
21
-53.4315921363684
72
1
10
-41.4999983074468
20
-53.4315921363684
11
-45
21
-52.9708083948156
97
0
75
0
76
1
52
0
41
0.0062
77
0
78
1
53
45
43
0
44
0
45
-0.0139193969876572
46
0.0139193969876572
79
0
47
0
98
1
10
0
20
0
0
HATCH
5
1DD
100
AcDbEntity
8
SK2
62
256
6
ByLayer
370
13
48
1
60
0
100
AcDbHatch
10
0
20
0
30
0
210
0
220
0
230
1
2
ANSI31
70
0
71
0
91
1
92
5
93
3
72
1
10
38
20
-52.9708083948156
11
34.5000016925532
21
-53.4315921363684
72
1
10
34.5000016925532
20
-53.4315921363684
11
34.4999983074468
21
-52.5100246532628
72
1
10
34.4999983074468
20
-52.5100246532628
11
38
21
-52.9708083948156
97
0
75
0
76
1
52
0
41
0.0062
77
0
78
1
53
45
43
0
44
0
45
-0.0139193969876572
46
0.0139193969876572
79
0
47
0
98
1
10
0
20
0
0
DIMENSION
5
1E1
100
AcDbEntity
8
2
62
256
6
ByLayer
370
18
48
1
60
0
100
AcDbDimension
2
_U0
10
14
20
-20.970808
30
0
11
26
21
-20.970808
31
0
70
32
71
1
72
1
41
1
210
0
220
0
230
1
3
Standard
100
AcDbAlignedDimension
13
38
23
-6
33
0
14
14
24
-6
34
0
50
0
100
AcDbRotatedDimension
1001
ACAD
1000
DSTYLE
1002
{
1070
   371
1070
    13
1070
   372
1070
    13
1070
   170
1070
     0
1070
   144
1040
1.0
1070
   277
1070
     2
1070
   284
1070
     8
1070
   278
1070
    46
1070
   146
1040
1.0
1070
   345
1005
16
1070
   347
1005
16
1070
   346
1005
16
1070
   344
1005
0
1070
   343
1005
0
1070
   172
1070
     1
1070
    76
1070
     0
1070
    75
1070
     0
1070
   282
1070
     0
1070
   281
1070
     0
1070
    71
1070
     0
1070
    74
1070
     0
1070
   279
1070
     0
1070
   173
1070
     1
1070
   340
1005
1B6
1070
   271
1070
     2
1070
   272
1070
     2
1070
    77
1070
     1
1070
    73
1070
     1
1070
   171
1070
     3
1070
   274
1070
     4
1070
   177
1070
     2
1070
   176
1070
     2
1070
   178
1070
     2
1070
    78
1070
     8
1070
    48
1040
-0.1
1070
    41
1040
3.5
1070
   147
1040
1.75
1070
    42
1040
1.5875
1070
    44
1040
2.0
1070
   140
1040
3.5
1002
}
1001
ACAD_DSTYLE_DIM_LINETYPE
1070
   380
1005
16
1001
ACAD_DSTYLE_DIM_EXT1_LINETYPE
1070
   381
1005
16
1001
ACAD_DSTYLE_DIM_EXT2_LINETYPE
1070
   382
1005
16
0
DIMENSION
5
1FA
100
AcDbEntity
8
SK2
62
256
6
ByLayer
370
18
48
1
60
0
100
AcDbDimension
2
_U1
10
1.997679
20
-35.970808
30
0
11
19.998839
21
-35.970808
31
0
70
32
71
1
72
1
41
1
210
0
220
0
230
1
3
Standard
100
AcDbAlignedDimension
13
38
23
-6
33
0
14
1.997679
24
-5.76
34
0
50
0
100
AcDbRotatedDimension
1001
ACAD
1000
DSTYLE
1002
{
1070
   371
1070
    13
1070
   372
1070
    13
1070
   170
1070
     0
1070
   144
1040
1.0
1070
   277
1070
     2
1070
   284
1070
     8
1070
   278
1070
    46
1070
   146
1040
1.0
1070
   345
1005
16
1070
   347
1005
16
1070
   346
1005
16
1070
   344
1005
0
1070
   343
1005
0
1070
   172
1070
     1
1070
    76
1070
     0
1070
    75
1070
     0
1070
   282
1070
     0
1070
   281
1070
     0
1070
    71
1070
     0
1070
    74
1070
     0
1070
   279
1070
     0
1070
   173
1070
     1
1070
   340
1005
1B6
1070
   271
1070
     2
1070
   272
1070
     2
1070
    77
1070
     1
1070
    73
1070
     1
1070
   171
1070
     3
1070
   274
1070
     4
1070
   177
1070
     2
1070
   176
1070
     2
1070
   178
1070
     2
1070
    78
1070
     8
1070
    48
1040
-0.1
1070
    41
1040
3.5
1070
   147
1040
1.75
1070
    42
1040
1.5875
1070
    44
1040
2.0
1070
   140
1040
3.5
1002
}
1001
ACAD_DSTYLE_DIM_LINETYPE
1070
   380
1005
16
1001
ACAD_DSTYLE_DIM_EXT1_LINETYPE
1070
   381
1005
16
1001
ACAD_DSTYLE_DIM_EXT2_LINETYPE
1070
   382
1005
16
0
ENDSEC
0
SECTION
2
OBJECTS
0
DICTIONARY
5
282
330
0
100
AcDbDictionary
280
0
281
1
3
ACAD_GROUP
350
283
3
ACAD_MLINESTYLE
350
284
0
DICTIONARY
5
283
330
0
100
AcDbDictionary
280
0
281
1
0
DICTIONARY
5
284
330
0
100
AcDbDictionary
280
0
281
1
3
Standard
350
18
0
MLINESTYLE
5
18
330
284
100
AcDbMlineStyle
2
Standard
70
0
3

62
256
51
90
52
90
71
2
49
-0.5
62
256
6
ByLayer
49
0.5
62
256
6
ByLayer
0
RASTERVARIABLES
5
270
330

100
AcDbRasterVariables
90
0
70
1
71
1
72
1
0
ENDSEC
0
EOF
