0
SECTION
2
HEADER
9
$ACADVER
1
AC1015
9
$DWGCODEPAGE
3
ANSI_1252
9
$HANDSEED
5
27a
9
$ANGBASE
50
0
9
$ANGDIR
70
0
9
$ATTMODE
70
1
9
$AUNITS
70
0
9
$AUPREC
70
0
9
$CECOLOR
62
256
9
$CELTSCALE
40
1
9
$CELTYPE
6
ByLayer
9
$CELWEIGHT
370
18
9
$CLAYER
8
0
9
$CMLJUST
70
0
9
$CMLSCALE
40
1
9
$CMLSTYLE
2
Standard
9
$DIMSTYLE
2
Standard
9
$TEXTSIZE
40
0.2
9
$TEXTSTYLE
7
Standard
9
$LUNITS
70
2
9
$LUPREC
70
4
9
$EXTNAMES
290
1
9
$INSUNITS
70
4
9
$LTSCALE
40
1
9
$LWDISPLAY
290
1
9
$PDMODE
70
0
9
$PDSIZE
40
0
9
$PLINEGEN
70
0
0
ENDSEC
0
SECTION
2
CLASSES
0
CLASS
1
RASTERVARIABLES
2
AcDbRasterVariables
3
ISM
90
0
280
0
281
0
0
ENDSEC
0
SECTION
2
TABLES
0
TABLE
2
VPORT
5
270
100
AcDbSymbolTable
0
VPORT
5
1
100
AcDbSymbolTableRecord
100
AcDbViewportTableRecord
2
*Active
70
0
10
0
20
0
11
1
21
1
12
-1
22
1
13
0
23
0
14
0.5
24
0.5
15
10
25
10
16
0
26
0
36
1
17
0
27
0
37
0
0
ENDTAB
0
TABLE
2
LTYPE
5
271
100
AcDbSymbolTable
0
LTYPE
5
14
100
AcDbSymbolTableRecord
100
AcDbLinetypeTableRecord
70
0
2
ByBlock
3

72
65
73
0
40
0
0
LTYPE
5
15
100
AcDbSymbolTableRecord
100
AcDbLinetypeTableRecord
70
0
2
ByLayer
3

72
65
73
0
40
0
0
LTYPE
5
16
100
AcDbSymbolTableRecord
100
AcDbLinetypeTableRecord
70
0
2
Continuous
3
Solid line
72
65
73
0
40
0
0
LTYPE
5
6E
100
AcDbSymbolTableRecord
100
AcDbLinetypeTableRecord
70
0
2
CENTER
3
____ _ ____ _ ____ _ ____
72
65
73
4
40
47.5
49
22
74
0
49
-8.5
74
0
49
8.5
74
0
49
-8.5
74
0
0
LTYPE
5
6F
100
AcDbSymbolTableRecord
100
AcDbLinetypeTableRecord
70
0
2
DASHED
3
__ __ __ __ __ __ __ __ __
72
65
73
2
40
25.72
49
12.86
74
0
49
-12.86
74
0
0
ENDTAB
0
TABLE
2
LAYER
5
272
100
AcDbSymbolTable
0
LAYER
5
10
100
AcDbSymbolTableRecord
100
AcDbLayerTableRecord
2
0
70
0
62
7
6
Continuous
290
1
370
-3
390
0
0
LAYER
5
71
100
AcDbSymbolTableRecord
100
AcDbLayerTableRecord
2
80
70
0
62
-6
6
Continuous
290
1
370
-3
390
0
0
LAYER
5
73
100
AcDbSymbolTableRecord
100
AcDbLayerTableRecord
2
81
70
0
62
-3
6
Continuous
290
1
370
-3
390
0
0
LAYER
5
75
100
AcDbSymbolTableRecord
100
AcDbLayerTableRecord
2
1
70
0
62
4
6
Continuous
290
1
370
-3
390
0
0
LAYER
5
7B
100
AcDbSymbolTableRecord
100
AcDbLayerTableRecord
2
4
70
0
62
-2
6
CENTER
290
1
370
-3
390
0
0
LAYER
5
E1
100
AcDbSymbolTableRecord
100
AcDbLayerTableRecord
2
2
70
0
62
7
6
Continuous
290
1
370
-3
390
0
0
LAYER
5
1CF
100
AcDbSymbolTableRecord
100
AcDbLayerTableRecord
2
Defpoints
70
0
62
7
6
Continuous
290
0
370
-3
390
0
0
LAYER
5
25c
100
AcDbSymbolTableRecord
100
AcDbLayerTableRecord
2
SK4
70
0
62
2
6
CENTER
290
1
370
-3
390
0
0
LAYER
5
25d
100
AcDbSymbolTableRecord
100
AcDbLayerTableRecord
2
SK1
70
0
62
4
6
Continuous
290
1
370
-3
390
0
0
LAYER
5
25e
100
AcDbSymbolTableRecord
100
AcDbLayerTableRecord
2
SK2
70
0
62
7
6
Continuous
290
1
370
-3
390
0
0
LAYER
5
25f
100
AcDbSymbolTableRecord
100
AcDbLayerTableRecord
2
SK6
70
0
62
5
6
Continuous
290
1
370
-3
390
0
0
ENDTAB
0
TABLE
2
STYLE
5
273
100
AcDbSymbolTable
0
STYLE
5
11
100
AcDbSymbolTableRecord
100
AcDbTextStyleTableRecord
2
Standard
3
txt
70
0
71
0
40
0
41
1
42
0
50
0
0
STYLE
5
1A1
100
AcDbSymbolTableRecord
100
AcDbTextStyleTableRecord
2
iso_b_vert
3
simplex.shx
70
0
71
0
40
0
41
1
42
0
50
0
0
STYLE
5
1A2
100
AcDbSymbolTableRecord
100
AcDbTextStyleTableRecord
2
DWGDirectTextStyle
3
simplex
70
0
71
0
40
0
41
1
42
0
50
0
0
ENDTAB
0
TABLE
2
DIMSTYLE
5
274
100
AcDbSymbolTable
100
AcDbDimStyleTable
0
DIMSTYLE
105
27
100
AcDbSymbolTableRecord
100
AcDbDimStyleTableRecord
2
Standard
70
0
3
<>
41
0.18
42
0.0625
44
0.18
140
0.18
147
0.09
73
0
74
0
77
1
271
2
275
0
278
52
280
0
340
11
0
ENDTAB
0
TABLE
2
VIEW
5
275
100
AcDbSymbolTable
0
ENDTAB
0
TABLE
2
UCS
5
276
100
AcDbSymbolTable
0
ENDTAB
0
TABLE
2
APPID
5
277
100
AcDbSymbolTable
0
APPID
5
12
100
AcDbSymbolTableRecord
100
AcDbRegAppTableRecord
2
ACAD
70
0
0
APPID
5
1CB
100
AcDbSymbolTableRecord
100
AcDbRegAppTableRecord
2
ACAD_DSTYLE_DIMBREAK
70
0
0
APPID
5
21B
100
AcDbSymbolTableRecord
100
AcDbRegAppTableRecord
2
ACAD_DSTYLE_DIM_LINETYPE
70
0
0
APPID
5
21C
100
AcDbSymbolTableRecord
100
AcDbRegAppTableRecord
2
ACAD_DSTYLE_DIM_EXT1_LINETYPE
70
0
0
APPID
5
21D
100
AcDbSymbolTableRecord
100
AcDbRegAppTableRecord
2
ACAD_DSTYLE_DIM_EXT2_LINETYPE
70
0
0
APPID
5
258
100
AcDbSymbolTableRecord
100
AcDbRegAppTableRecord
2
ACAD_MLEADERVER
70
0
0
ENDTAB
0
TABLE
2
BLOCK_RECORD
5
278
100
AcDbSymbolTable
0
BLOCK_RECORD
5
1F
100
AcDbSymbolTableRecord
100
AcDbBlockTableRecord
2
*Model_Space
340
0
70
0
0
BLOCK_RECORD
5
1B
100
AcDbSymbolTableRecord
100
AcDbBlockTableRecord
2
*Paper_Space
340
0
70
0
0
BLOCK_RECORD
5
23
100
AcDbSymbolTableRecord
100
AcDbBlockTableRecord
2
*Paper_Space0
340
0
70
0
0
BLOCK_RECORD
5
1D0
100
AcDbSymbolTableRecord
100
AcDbBlockTableRecord
2
*D1
340
0
70
0
0
BLOCK_RECORD
5
1DC
100
AcDbSymbolTableRecord
100
AcDbBlockTableRecord
2
_U0
340
0
70
0
0
BLOCK_RECORD
5
1E8
100
AcDbSymbolTableRecord
100
AcDbBlockTableRecord
2
*D3
340
0
70
0
0
BLOCK_RECORD
5
1F4
100
AcDbSymbolTableRecord
100
AcDbBlockTableRecord
2
_U1
340
0
70
0
0
ENDTAB
0
ENDSEC
0
SECTION
2
BLOCKS
0
BLOCK
5
20
100
AcDbEntity
8
0
100
AcDbBlockBegin
2
*Model_Space
70
0
10
0
20
0
30
0
3
*Model_Space
0
ENDBLK
5
21
100
AcDbEntity
8
0
100
AcDbBlockEnd
0
BLOCK
5
1C
100
AcDbEntity
8
0
100
AcDbBlockBegin
2
*Paper_Space
70
0
10
0
20
0
30
0
3
*Paper_Space
0
ENDBLK
5
1D
100
AcDbEntity
8
0
100
AcDbBlockEnd
0
BLOCK
5
24
100
AcDbEntity
8
0
100
AcDbBlockBegin
2
*Paper_Space0
70
0
10
0
20
0
30
0
3
*Paper_Space0
0
ENDBLK
5
25
100
AcDbEntity
8
0
100
AcDbBlockEnd
0
BLOCK
5
1D1
100
AcDbEntity
8
0
100
AcDbBlockBegin
2
*D1
70
1
10
0
20
0
30
0
3
*D1
0
LINE
5
1D3
100
AcDbEntity
8
0
62
256
6
ByLayer
370
-2
48
1
60
0
100
AcDbLine
10
38
20
-7.5875
30
0
11
38
21
-23.078376
31
0
39
0
210
0
220
0
230
1
0
LINE
5
1D4
100
AcDbEntity
8
0
62
256
6
ByLayer
370
-2
48
1
60
0
100
AcDbLine
10
14
20
-7.5875
30
0
11
14
21
-23.078376
31
0
39
0
210
0
220
0
230
1
0
LINE
5
1D5
100
AcDbEntity
8
0
62
256
6
ByLayer
370
-2
48
1
60
0
100
AcDbLine
10
34.5
20
-21.078376
30
0
11
17.5
21
-21.078376
31
0
39
0
210
0
220
0
230
1
0
SOLID
5
1D6
100
AcDbEntity
8
0
62
256
6
ByLayer
370
-1
48
1
60
0
100
AcDbTrace
10
34.5
20
-21.661709
30
0
11
34.5
21
-20.495043
31
0
12
38
22
-21.078376
32
0
13
38
23
-21.078376
33
0
39
0
210
0
220
0
230
1
0
SOLID
5
1D7
100
AcDbEntity
8
0
62
256
6
ByLayer
370
-1
48
1
60
0
100
AcDbTrace
10
17.5
20
-20.495043
30
0
11
17.5
21
-21.661709
31
0
12
14
22
-21.078376
32
0
13
14
23
-21.078376
33
0
39
0
210
0
220
0
230
1
0
MTEXT
5
1D8
100
AcDbEntity
8
0
62
256
6
ByLayer
370
18
48
1
60
0
100
AcDbMText
10
26
20
-14.078376
30
0
210
0
220
0
230
1
1
\A1;24
40
3.5
41
0
44
1
50
0
71
5
72
5
7
iso_b_vert
0
POINT
5
1D9
100
AcDbEntity
8
Defpoints
62
0
6
ByLayer
370
-1
48
1
60
0
100
AcDbPoint
10
38
20
-6
30
0
39
0
210
0
220
0
230
1
50
360
0
POINT
5
1DA
100
AcDbEntity
8
Defpoints
62
0
6
ByLayer
370
-1
48
1
60
0
100
AcDbPoint
10
14
20
-6
30
0
39
0
210
0
220
0
230
1
50
360
0
POINT
5
1DB
100
AcDbEntity
8
Defpoints
62
0
6
ByLayer
370
-1
48
1
60
0
100
AcDbPoint
10
14
20
-21.078376
30
0
39
0
210
0
220
0
230
1
50
360
0
ENDBLK
5
1D2
100
AcDbEntity
8
0
100
AcDbBlockEnd
0
BLOCK
5
1E3
100
AcDbEntity
8
0
100
AcDbBlockBegin
2
_U0
70
0
10
0
20
0
30
0
3
_U0
0
MTEXT
5
1DD
100
AcDbEntity
8
2
62
256
6
ByLayer
370
18
48
1
60
0
100
AcDbMText
10
23.910767
20
-20.045742
30
0
210
0
220
0
230
1
1
\W0.7167;24
40
3.5
41
0
44
1.084337
50
0
71
7
72
5
7
iso_b_vert
0
LINE
5
1DE
100
AcDbEntity
8
2
62
256
6
ByLayer
370
13
48
1
60
0
100
AcDbLine
10
38
20
-7.5875
30
0
11
38
21
-23.078376
31
0
39
0
210
0
220
0
230
1
0
LINE
5
1DF
100
AcDbEntity
8
2
62
256
6
ByLayer
370
13
48
1
60
0
100
AcDbLine
10
14
20
-7.5875
30
0
11
14
21
-23.078376
31
0
39
0
210
0
220
0
230
1
0
LINE
5
1E0
100
AcDbEntity
8
2
62
256
6
ByLayer
370
13
48
1
60
0
100
AcDbLine
10
38
20
-21.078376
30
0
11
14
21
-21.078376
31
0
39
0
210
0
220
0
230
1
0
SOLID
5
1E1
100
AcDbEntity
8
2
62
256
6
ByLayer
370
18
48
1
60
0
100
AcDbTrace
10
38
20
-21.078376
30
0
11
34.500002
21
-21.53916
31
0
12
34.499998
22
-20.617592
32
0
13
34.499998
23
-20.617592
33
0
39
0
210
0
220
0
230
1
0
SOLID
5
1E2
100
AcDbEntity
8
2
62
256
6
ByLayer
370
18
48
1
60
0
100
AcDbTrace
10
14
20
-21.078376
30
0
11
17.499998
21
-20.617592
31
0
12
17.500002
22
-21.53916
32
0
13
17.500002
23
-21.53916
33
0
39
0
210
0
220
0
230
1
0
ENDBLK
5
1E4
100
AcDbEntity
8
0
100
AcDbBlockEnd
0
BLOCK
5
1E9
100
AcDbEntity
8
0
100
AcDbBlockBegin
2
*D3
70
1
10
0
20
0
30
0
3
*D3
0
LINE
5
1EB
100
AcDbEntity
8
0
62
256
6
ByLayer
370
-2
48
1
60
0
100
AcDbLine
10
38
20
-7.5875
30
0
11
38
21
-38.078376
31
0
39
0
210
0
220
0
230
1
0
LINE
5
1EC
100
AcDbEntity
8
0
62
256
6
ByLayer
370
-2
48
1
60
0
100
AcDbLine
10
1.997679
20
-7.3475
30
0
11
1.997679
21
-38.078376
31
0
39
0
210
0
220
0
230
1
0
LINE
5
1ED
100
AcDbEntity
8
0
62
256
6
ByLayer
370
-2
48
1
60
0
100
AcDbLine
10
34.5
20
-36.078376
30
0
11
5.497679
21
-36.078376
31
0
39
0
210
0
220
0
230
1
0
SOLID
5
1EE
100
AcDbEntity
8
0
62
256
6
ByLayer
370
-1
48
1
60
0
100
AcDbTrace
10
34.5
20
-36.661709
30
0
11
34.5
21
-35.495043
31
0
12
38
22
-36.078376
32
0
13
38
23
-36.078376
33
0
39
0
210
0
220
0
230
1
0
SOLID
5
1EF
100
AcDbEntity
8
0
62
256
6
ByLayer
370
-1
48
1
60
0
100
AcDbTrace
10
5.497679
20
-35.495043
30
0
11
5.497679
21
-36.661709
31
0
12
1.997679
22
-36.078376
32
0
13
1.997679
23
-36.078376
33
0
39
0
210
0
220
0
230
1
0
MTEXT
5
1F0
100
AcDbEntity
8
0
62
256
6
ByLayer
370
18
48
1
60
0
100
AcDbMText
10
19.998839
20
-29.078376
30
0
210
0
220
0
230
1
1
\A1;36
40
3.5
41
0
44
1
50
0
71
5
72
5
7
iso_b_vert
0
POINT
5
1F1
100
AcDbEntity
8
Defpoints
62
0
6
ByLayer
370
-1
48
1
60
0
100
AcDbPoint
10
38
20
-6
30
0
39
0
210
0
220
0
230
1
50
360
0
POINT
5
1F2
100
AcDbEntity
8
Defpoints
62
0
6
ByLayer
370
-1
48
1
60
0
100
AcDbPoint
10
1.997679
20
-5.76
30
0
39
0
210
0
220
0
230
1
50
360
0
POINT
5
1F3
100
AcDbEntity
8
Defpoints
62
0
6
ByLayer
370
-1
48
1
60
0
100
AcDbPoint
10
1.997679
20
-36.078376
30
0
39
0
210
0
220
0
230
1
50
360
0
ENDBLK
5
1EA
100
AcDbEntity
8
0
100
AcDbBlockEnd
0
BLOCK
5
1FB
100
AcDbEntity
8
0
100
AcDbBlockBegin
2
_U1
70
0
10
0
20
0
30
0
3
_U1
0
MTEXT
5
1F5
100
AcDbEntity
8
SK2
62
256
6
ByLayer
370
18
48
1
60
0
100
AcDbMText
10
18.093873
20
-35.045742
30
0
210
0
220
0
230
1
1
\W0.6740;36
40
3.5
41
0
44
1.084337
50
0
71
7
72
5
7
iso_b_vert
0
LINE
5
1F6
100
AcDbEntity
8
SK2
62
256
6
ByLayer
370
13
48
1
60
0
100
AcDbLine
10
38
20
-7.5875
30
0
11
38
21
-38.078376
31
0
39
0
210
0
220
0
230
1
0
LINE
5
1F7
100
AcDbEntity
8
SK2
62
256
6
ByLayer
370
13
48
1
60
0
100
AcDbLine
10
1.997679
20
-7.3475
30
0
11
1.997679
21
-38.078376
31
0
39
0
210
0
220
0
230
1
0
LINE
5
1F8
100
AcDbEntity
8
SK2
62
256
6
ByLayer
370
13
48
1
60
0
100
AcDbLine
10
38
20
-36.078376
30
0
11
1.997679
21
-36.078376
31
0
39
0
210
0
220
0
230
1
0
SOLID
5
1F9
100
AcDbEntity
8
SK2
62
256
6
ByLayer
370
18
48
1
60
0
100
AcDbTrace
10
38
20
-36.078376
30
0
11
34.500002
21
-36.53916
31
0
12
34.499998
22
-35.617592
32
0
13
34.499998
23
-35.617592
33
0
39
0
210
0
220
0
230
1
0
SOLID
5
1FA
100
AcDbEntity
8
SK2
62
256
6
ByLayer
370
18
48
1
60
0
100
AcDbTrace
10
1.997679
20
-36.078376
30
0
11
5.497677
21
-35.617592
31
0
12
5.497681
22
-36.53916
32
0
13
5.497681
23
-36.53916
33
0
39
0
210
0
220
0
230
1
0
ENDBLK
5
1FC
100
AcDbEntity
8
0
100
AcDbBlockEnd
0
ENDSEC
0
SECTION
2
ENTITIES
0
ARC
5
F3
100
AcDbEntity
8
1
62
256
6
ByLayer
370
18
48
1
60
0
100
AcDbCircle
39
0
10
13.316359
20
-6.76
30
0
40
1
210
0
220
0
230
1
100
AcDbArc
50
64.007758
51
90
0
ARC
5
F4
100
AcDbEntity
8
1
62
256
6
ByLayer
370
18
48
1
60
0
100
AcDbCircle
39
0
10
1.997679
20
6.76
30
0
40
1
210
0
220
0
230
1
100
AcDbArc
50
240
51
270
0
ARC
5
F5
100
AcDbEntity
8
1
62
256
6
ByLayer
370
18
48
1
60
0
100
AcDbCircle
39
0
10
1.997679
20
-6.76
30
0
40
1
210
0
220
0
230
1
100
AcDbArc
50
90
51
120
0
ELLIPSE
5
F6
100
AcDbEntity
8
1
62
256
6
ByLayer
370
18
48
1
60
0
100
AcDbEllipse
10
37.927962
20
-0.038472
30
0
11
0.0311912295076099
21
1.68511896657509
31
0
210
0
220
0
230
1
40
0.051624
41
1.41614849168895
42
1.63066728392811
0
ELLIPSE
5
F7
100
AcDbEntity
8
1
62
256
6
ByLayer
370
18
48
1
60
0
100
AcDbEllipse
10
37.830854
20
0.178952
30
0
11
0.826335276035524
21
-0.135477983538342
31
0
210
0
220
0
230
1
40
0.372481
41
-1.74713751414485
42
-1.49965035331596
0
ELLIPSE
5
F8
100
AcDbEntity
8
1
62
256
6
ByLayer
370
18
48
1
60
0
100
AcDbEllipse
10
37.795731
20
-0.979504
30
0
11
0.112809306420525
21
0.909923516107409
31
0
210
0
220
0
230
1
40
0.142986
41
0.691518864329192
42
0.718911793080588
0
ELLIPSE
5
F9
100
AcDbEntity
8
1
62
256
6
ByLayer
370
18
48
1
60
0
100
AcDbEllipse
10
37.651631
20
-0.831345
30
0
11
0.824576422110646
21
0.0448979151531808
31
0
210
0
220
0
230
1
40
0.666993
41
1.35992777026677
42
2.30087333258312
0
ELLIPSE
5
FA
100
AcDbEntity
8
1
62
256
6
ByLayer
370
18
48
1
60
0
100
AcDbEllipse
10
37.830854
20
0.178952
30
0
11
0.82633527598293
21
-0.135477983488943
31
0
210
0
220
0
230
1
40
0.372481
41
2.42369309884413
42
2.68041588342287
0
ELLIPSE
5
FB
100
AcDbEntity
8
1
62
256
6
ByLayer
370
18
48
1
60
0
100
AcDbEllipse
10
19.702595
20
0
30
0
11
10.8563115013287
21
3.24096679598598
31
0
210
0
220
0
230
1
40
0.438611
41
-2.68860057699325
42
-2.32374659744218
0
ELLIPSE
5
FC
100
AcDbEntity
8
1
62
256
6
ByLayer
370
18
48
1
60
0
100
AcDbEllipse
10
19.926039
20
0
30
0
11
11.2833375873325
21
-4.2467624764518
31
0
210
0
220
0
230
1
40
0.344876
41
-2.42967977098123
42
-2.06157139073767
0
ELLIPSE
5
FD
100
AcDbEntity
8
1
62
256
6
ByLayer
370
18
48
1
60
0
100
AcDbEllipse
10
19.499492
20
0
30
0
11
10.4931138218578
21
-5.25857819919706
31
0
210
0
220
0
230
1
40
0.224006
41
2.30818101367055
42
2.67076435135384
0
POINT
5
70
100
AcDbEntity
8
80
62
256
6
ByLayer
370
18
48
1
60
0
100
AcDbPoint
10
0
20
0
30
0
39
0
210
0
220
0
230
1
50
360
0
POINT
5
72
100
AcDbEntity
8
81
62
256
6
ByLayer
370
18
48
1
60
0
100
AcDbPoint
10
38
20
0
30
0
39
0
210
0
220
0
230
1
50
360
0
POINT
5
74
100
AcDbEntity
8
1
62
256
6
ByLayer
370
18
48
1
60
1
100
AcDbPoint
10
38
20
-6
30
0
39
0
210
0
220
0
230
1
50
360
0
POINT
5
76
100
AcDbEntity
8
1
62
256
6
ByLayer
370
18
48
1
60
1
100
AcDbPoint
10
14
20
-6
30
0
39
0
210
0
220
0
230
1
50
360
0
POINT
5
77
100
AcDbEntity
8
1
62
256
6
ByLayer
370
18
48
1
60
1
100
AcDbPoint
10
38
20
-6
30
0
39
0
210
0
220
0
230
1
50
360
0
POINT
5
78
100
AcDbEntity
8
1
62
256
6
ByLayer
370
18
48
1
60
1
100
AcDbPoint
10
1.997679
20
-5.76
30
0
39
0
210
0
220
0
230
1
50
360
0
SPLINE
5
FE
100
AcDbEntity
8
1
62
256
6
ByLayer
370
18
48
1
60
0
100
AcDbSpline
70
4
71
3
72
12
73
8
40
0
40
0
40
0
40
0
40
0.418519368955042
40
0.418519368955042
40
0.837038737910085
40
0.837038737910085
40
1
40
1
40
1
40
1
41
1
10
37.9865236260632
20
1.39486411866446
30
0
41
1
10
37.9873036425505
20
1.40111688409084
30
0
41
1
10
37.9855456423455
20
1.40707543266342
30
0
41
1
10
37.977214014761
20
1.41843428341051
30
0
41
1
10
37.970653316592
20
1.4238391747617
30
0
41
1
10
37.9580894910262
20
1.43094018484538
30
0
41
1
10
37.9542302951238
20
1.432864328459
30
0
41
1
10
37.9500388090923
20
1.43472368510112
30
0
0
SPLINE
5
FF
100
AcDbEntity
8
1
62
256
6
ByLayer
370
18
48
1
60
0
100
AcDbSpline
70
4
71
3
72
12
73
8
40
0
40
0
40
0
40
0
40
0.500000000000002
40
0.500000000000002
40
0.750000000000001
40
0.750000000000001
40
1
40
1
40
1
40
1
41
1
10
13.5853365864887
20
5.20451672030654
30
0
41
1
10
13.6252265248648
20
5.22535096305566
30
0
41
1
10
13.664484624002
20
5.24835006255122
30
0
41
1
10
13.7223921917794
20
5.28620502816509
30
0
41
1
10
13.7415657088241
20
5.29941041170062
30
0
41
1
10
13.7793757237601
20
5.32683846016545
30
0
41
1
10
13.7980064436879
20
5.34105371360644
30
0
41
1
10
13.8163586137524
20
5.35577798516562
30
0
0
SPLINE
5
100
100
AcDbEntity
8
1
62
256
6
ByLayer
370
18
48
1
60
0
100
AcDbSpline
70
4
71
3
72
8
73
4
40
0
40
0
40
0
40
0
40
1
40
1
40
1
40
1
41
1
10
13.8163586137524
20
5.35577798516564
30
0
41
1
10
13.8774092969557
20
5.40476003116896
30
0
41
1
10
13.9386261889927
20
5.45345963598479
30
0
41
1
10
14.0000013447763
20
5.50189030081995
30
0
0
SPLINE
5
101
100
AcDbEntity
8
1
62
256
6
ByLayer
370
18
48
1
60
0
100
AcDbSpline
70
4
71
3
72
10
73
6
40
0
40
0
40
0
40
0
40
0.519785238932072
40
0.519785238932072
40
1
40
1
40
1
40
1
41
1
10
37.9865236260634
20
-4.39769258319825
30
0
41
1
10
37.9872808763029
20
-4.42133906358336
30
0
41
1
10
37.9856603421588
20
-4.44481675900047
30
0
41
1
10
37.9782248131988
20
-4.48967833035053
30
0
41
1
10
37.9727508487999
20
-4.51108641404002
30
0
41
1
10
37.9653153589053
20
-4.53235526053336
30
0
0
SPLINE
5
102
100
AcDbEntity
8
1
62
256
6
ByLayer
370
13
48
1
60
0
100
AcDbSpline
70
4
71
3
72
8
73
4
40
0
40
0
40
0
40
0
40
1
40
1
40
1
40
1
41
1
10
37.9865236260539
20
-4.39769258319589
30
0
41
1
10
37.9537380246291
20
-4.51630029346168
30
0
41
1
10
37.9209524232043
20
-4.6349080037275
30
0
41
1
10
37.8881668217795
20
-4.75351571399332
30
0
0
SPLINE
5
103
100
AcDbEntity
8
1
62
256
6
ByLayer
370
18
48
1
60
0
100
AcDbSpline
70
4
71
3
72
26
73
22
40
0
40
0
40
0
40
0
40
0.12500000000001
40
0.12500000000001
40
0.250000000000019
40
0.250000000000019
40
0.375000000000029
40
0.375000000000029
40
0.500000000000039
40
0.500000000000039
40
0.562500000000025
40
0.562500000000025
40
0.62500000000001
40
0.62500000000001
40
0.750000000000025
40
0.750000000000025
40
0.812500000000033
40
0.812500000000033
40
0.87500000000004
40
0.87500000000004
40
1
40
1
40
1
40
1
41
1
10
37.986523626063
20
5.4825704094682
30
0
41
1
10
37.9872964331695
20
5.51166542519226
30
0
41
1
10
37.9855853924251
20
5.5403833954004
30
0
41
1
10
37.9774630150741
20
5.59710583577134
30
0
41
1
10
37.9710678106539
20
5.62511275479113
30
0
41
1
10
37.9534290214481
20
5.6803906137273
30
0
41
1
10
37.9424080783474
20
5.70694599527087
30
0
41
1
10
37.9162296867291
20
5.75780314878602
30
0
41
1
10
37.9010727712596
20
5.78214261613846
30
0
41
1
10
37.8750750300286
20
5.81693346251339
30
0
41
1
10
37.8659460514542
20
5.82812542195779
30
0
41
1
10
37.846898002085
20
5.84957602077523
30
0
41
1
10
37.8369613203742
20
5.85985865428995
30
0
41
1
10
37.8059254555069
20
5.88939159215425
30
0
41
1
10
37.7836152234261
20
5.90734277878437
30
0
41
1
10
37.7475689218252
20
5.93150091550461
30
0
41
1
10
37.7351958934966
20
5.93903321689624
30
0
41
1
10
37.7100446264614
20
5.95288814563634
30
0
41
1
10
37.6972217647076
20
5.95924087697929
30
0
41
1
10
37.6580167939744
20
5.97658719109742
30
0
41
1
10
37.6309088887256
20
5.98589351074591
30
0
41
1
10
37.6027640333279
20
5.9927892258986
30
0
0
SPLINE
5
104
100
AcDbEntity
8
1
62
256
6
ByLayer
370
18
48
1
60
0
100
AcDbSpline
70
4
71
3
72
8
73
4
40
0
40
0
40
0
40
0
40
1
40
1
40
1
40
1
41
1
10
37.6009948497912
20
5.99280185690515
30
0
41
1
10
37.6015845771085
20
5.9927976103946
30
0
41
1
10
37.6021743049565
20
5.99279340005953
30
0
41
1
10
37.6027640333286
20
5.99278922590037
30
0
0
SPLINE
5
105
100
AcDbEntity
8
1
62
256
6
ByLayer
370
18
48
1
60
0
100
AcDbSpline
70
4
71
3
72
30
73
26
40
0
40
0
40
0
40
0
40
0.250000000000015
40
0.250000000000015
40
0.375000000000022
40
0.375000000000022
40
0.50000000000003
40
0.50000000000003
40
0.625000000000038
40
0.625000000000038
40
0.750000000000045
40
0.750000000000045
40
0.781250000000039
40
0.781250000000039
40
0.812500000000034
40
0.812500000000034
40
0.875000000000023
40
0.875000000000023
40
0.906250000000017
40
0.906250000000017
40
0.937500000000011
40
0.937500000000011
40
0.968750000000006
40
0.968750000000006
40
1
40
1
40
1
40
1
41
1
10
37.6776079884173
20
-5.32163696556287
30
0
41
1
10
37.698664875932
20
-5.28353355366133
30
0
41
1
10
37.7196203472104
20
-5.24407663136483
30
0
41
1
10
37.7506517309614
20
-5.18216714049339
30
0
41
1
10
37.7609258261478
20
-5.1610764401149
30
0
41
1
10
37.7812920979671
20
-5.11770954805343
30
0
41
1
10
37.7913904105221
20
-5.09542342913301
30
0
41
1
10
37.8111954275556
20
-5.04952600219903
30
0
41
1
10
37.8209193659279
20
-5.02589601579376
30
0
41
1
10
37.8398084335248
20
-4.97650409901931
30
0
41
1
10
37.849016063089
20
-4.9506616121364
30
0
41
1
10
37.8595956368667
20
-4.91684154227599
30
0
41
1
10
37.8616661487907
20
-4.90999233265285
30
0
41
1
10
37.8656978729027
20
-4.89608881911278
30
0
41
1
10
37.8676627154944
20
-4.88901927802578
30
0
41
1
10
37.8732850155813
20
-4.86770739252032
30
0
41
1
10
37.8766991193279
20
-4.85329743152806
30
0
41
1
10
37.8810764901284
20
-4.83123270269471
30
0
41
1
10
37.8824170110997
20
-4.82374828639968
30
0
41
1
10
37.8847163721861
20
-4.80898628344144
30
0
41
1
10
37.8856818956263
20
-4.80168534250768
30
0
41
1
10
37.8871899666028
20
-4.78726734538321
30
0
41
1
10
37.8877331664497
20
-4.78009248729106
30
0
41
1
10
37.8883176024417
20
-4.7663715020762
30
0
41
1
10
37.888365545205
20
-4.75979847062897
30
0
41
1
10
37.8881668217915
20
-4.75351571398622
30
0
0
SPLINE
5
106
100
AcDbEntity
8
1
62
256
6
ByLayer
370
18
48
1
60
0
100
AcDbSpline
70
4
71
3
72
8
73
4
40
0
40
0
40
0
40
0
40
1
40
1
40
1
40
1
41
1
10
37.4500234794307
20
5.98624185285149
30
0
41
1
10
37.4502168042958
20
5.98626571716017
30
0
41
1
10
37.450410129109
20
5.98628958089492
30
0
41
1
10
37.4506034538702
20
5.98631344405575
30
0
0
SPLINE
5
107
100
AcDbEntity
8
1
62
256
6
ByLayer
370
18
48
1
60
0
100
AcDbSpline
70
4
71
3
72
17
73
13
40
0
40
0
40
0
40
0
40
0.225631689310016
40
0.225631689310016
40
0.612815844655022
40
0.612815844655022
40
0.709611883491271
40
0.709611883491271
40
0.758009902909393
40
0.758009902909393
40
0.806407922327514
40
1
40
1
40
1
40
1
41
1
10
33.6655280088441
20
5.16222475028471
30
0
41
1
10
33.9485162314284
20
5.26901117005693
30
0
41
1
10
34.2311503444345
20
5.36628333116872
30
0
41
1
10
34.99939945136
20
5.60361114366151
30
0
41
1
10
35.4854705741831
20
5.72441386938073
30
0
41
1
10
36.0976712757425
20
5.83641256077806
30
0
41
1
10
36.2203417483266
20
5.85686132301279
30
0
41
1
10
36.4047629401094
20
5.88455331998856
30
0
41
1
10
36.4663313858382
20
5.89329012019073
30
0
41
1
10
36.5893880100489
20
5.90973076029258
30
0
41
1
10
36.8969341602563
20
5.94826715707364
30
0
41
1
10
37.2041467677968
20
5.97397679989348
30
0
41
1
10
37.4500270814792
20
5.98628460825057
30
0
0
SPLINE
5
108
100
AcDbEntity
8
1
62
256
6
ByLayer
370
18
48
1
60
0
100
AcDbSpline
70
4
71
3
72
8
73
4
40
0
40
0
40
0
40
0
40
1
40
1
40
1
40
1
41
1
10
37.6009948498077
20
5.99280185691112
30
0
41
1
10
37.6462821321485
20
5.85436744674197
30
0
41
1
10
37.6947864835815
20
5.71709502807195
30
0
41
1
10
37.7471821645565
20
5.581228142757
30
0
0
SPLINE
5
109
100
AcDbEntity
8
1
62
256
6
ByLayer
370
18
48
1
60
0
100
AcDbSpline
70
4
71
3
72
8
73
4
40
0
40
0
40
0
40
0
40
1
40
1
40
1
40
1
41
1
10
37.4506034538709
20
5.98631344405644
30
0
41
1
10
37.5007286050207
20
5.98881987910158
30
0
41
1
10
37.5508582216284
20
5.99098290009368
30
0
41
1
10
37.600994849797
20
5.99280185690455
30
0
0
SPLINE
5
10A
100
AcDbEntity
8
1
62
256
6
ByLayer
370
13
48
1
60
0
100
AcDbSpline
70
4
71
3
72
8
73
4
40
0
40
0
40
0
40
0
40
1
40
1
40
1
40
1
41
1
10
16.5303591629525
20
-5.2109879900681
30
0
41
1
10
15.686906108635
20
-5.29422579842463
30
0
41
1
10
14.8434530543175
20
-5.29284472333572
30
0
41
1
10
13.9999999999999
20
-5.20462846609564
30
0
0
SPLINE
5
10B
100
AcDbEntity
8
1
62
256
6
ByLayer
370
18
48
1
60
0
100
AcDbSpline
70
4
71
3
72
39
73
35
40
0
40
0
40
0
40
0
40
0.0950163868884063
40
0.0950163868884063
40
0.190032773776813
40
0.190032773776813
40
0.237540967221015
40
0.237540967221015
40
0.285049160665217
40
0.285049160665217
40
0.380065547553623
40
0.380065547553623
40
0.427573740997825
40
0.427573740997825
40
0.451327837719926
40
0.451327837719926
40
0.475081934442027
40
0.570098321330447
40
0.570098321330447
40
0.617606514774661
40
0.617606514774661
40
0.641360611496775
40
0.641360611496775
40
0.66511470821889
40
0.66511470821889
40
0.760131095107377
40
0.760131095107377
40
0.855147481995864
40
0.855147481995864
40
0.902655675440098
40
0.902655675440098
40
0.950163868884333
40
0.950163868884333
40
1
40
1
40
1
40
1
41
1
10
37.7471821354052
20
5.58122813195385
30
0
41
1
10
37.7679232649376
20
5.52743384841173
30
0
41
1
10
37.7859830169904
20
5.47298492286507
30
0
41
1
10
37.8159371476281
20
5.36258182891407
30
0
41
1
10
37.8278372149084
20
5.30662905040057
30
0
41
1
10
37.8401798921256
20
5.2213552765152
30
0
41
1
10
37.8433746278787
20
5.19268002672672
30
0
41
1
10
37.8477110529301
20
5.13493647067236
30
0
41
1
10
37.8488327295502
20
5.10614308829287
30
0
41
1
10
37.8489153033818
20
5.02000882881842
30
0
41
1
10
37.8446029002466
20
4.96291315353713
30
0
41
1
10
37.8308601009542
20
4.87781454805295
30
0
41
1
10
37.8250646108359
20
4.84953932827756
30
0
41
1
10
37.814437197568
20
4.80727138723614
30
0
41
1
10
37.8105827587489
20
4.79325396524916
30
0
41
1
10
37.8023036631134
20
4.7655394979688
30
0
41
1
10
37.7801459050722
20
4.69691869016796
30
0
41
1
10
37.7508055163621
20
4.63157115358683
30
0
41
1
10
37.7090625128059
20
4.55613203145944
30
0
41
1
10
37.6940583306907
20
4.53148232318406
30
0
41
1
10
37.669956730345
20
4.49523478388576
30
0
41
1
10
37.6616450114474
20
4.48325896649433
30
0
41
1
10
37.6446510236308
20
4.45975329951597
30
0
41
1
10
37.6359528100371
20
4.44819802428273
30
0
41
1
10
37.5915059016672
20
4.39136009587446
30
0
41
1
10
37.5529032235059
20
4.3488794944912
30
0
41
1
10
37.470653563563
20
4.26887080829212
30
0
41
1
10
37.4270026709441
20
4.23134656315111
30
0
41
1
10
37.3583174407471
20
4.17821069714751
30
0
41
1
10
37.334929472181
20
4.16106370187472
30
0
41
1
10
37.2876467505325
20
4.12805567071996
30
0
41
1
10
37.2636955478009
20
4.11215050396382
30
0
41
1
10
37.2140527410742
20
4.08065624120263
30
0
41
1
10
37.1883344826036
20
4.06511866179662
30
0
41
1
10
37.1623422663235
20
4.05011057600453
30
0
0
SPLINE
5
10C
100
AcDbEntity
8
1
62
256
6
ByLayer
370
13
48
1
60
0
100
AcDbSpline
70
4
71
3
72
9
73
5
40
0
40
0
40
0
40
0
40
0.794826822914656
40
1
40
1
40
1
40
1
41
1
10
37.7471821401863
20
5.58122813125607
30
0
41
1
10
36.8314547601243
20
5.55233194643253
30
0
41
1
10
35.6793454532137
20
5.37663144748981
30
0
41
1
10
34.5272361463031
20
5.04826717608157
30
0
41
1
10
34.2908542194547
20
4.97470117621504
30
0
0
SPLINE
5
10D
100
AcDbEntity
8
1
62
256
6
ByLayer
370
13
48
1
60
0
100
AcDbSpline
70
4
71
3
72
9
73
5
40
0
40
0
40
0
40
0
40
0.174056758064482
40
1
40
1
40
1
40
1
41
1
10
17.6322108441372
20
-5.11244787059394
30
0
41
1
10
17.4214738960915
20
-5.15746107853275
30
0
41
1
10
16.2107369480458
20
-5.38642887925937
30
0
41
1
10
15.0000000000001
20
-5.43930407783131
30
0
41
1
10
14.0000000000001
20
-5.35751548772637
30
0
0
SPLINE
5
10E
100
AcDbEntity
8
1
62
256
6
ByLayer
370
18
48
1
60
0
100
AcDbSpline
70
4
71
3
72
18
73
14
40
0
40
0
40
0
40
0
40
0.0892532095449334
40
0.0892532095449334
40
0.271402567635946
40
0.271402567635946
40
0.362477246681454
40
0.362477246681454
40
0.453551925726962
40
0.453551925726962
40
0.635701283817974
40
0.635701283817974
40
1
40
1
40
1
40
1
41
1
10
18.064499604951
20
-5.26543134975097
30
0
41
1
10
17.9436496466934
20
-5.30072788318381
30
0
41
1
10
17.8228360642382
20
-5.33426637692472
30
0
41
1
10
17.4554501169219
20
-5.4308197599687
30
0
41
1
10
17.2088621206672
20
-5.48817583578423
30
0
41
1
10
16.8383595017765
20
-5.5627919404869
30
0
41
1
10
16.714742043139
20
-5.58576755654877
30
0
41
1
10
16.4672633907064
20
-5.62785080205245
30
0
41
1
10
16.3436807893143
20
-5.64690067672456
30
0
41
1
10
15.9732765531065
20
-5.69804020992228
30
0
41
1
10
15.7267710207219
20
-5.72419145958659
30
0
41
1
10
14.9874763044456
20
-5.77877407081291
30
0
41
1
10
14.4949426895633
20
-5.78316533489976
30
0
41
1
10
14.0000000000001
20
-5.7553159598379
30
0
0
SPLINE
5
10F
100
AcDbEntity
8
1
62
256
6
ByLayer
370
18
48
1
60
0
100
AcDbSpline
70
4
71
3
72
8
73
4
40
0
40
0
40
0
40
0
40
1
40
1
40
1
40
1
41
1
10
13.8163586137524
20
-5.89118398312567
30
0
41
1
10
13.8493095008881
20
-5.90685576658069
30
0
41
1
10
13.8845078143734
20
-5.9208383275483
30
0
41
1
10
13.9215793126991
20
-5.93305421097531
30
0
0
SPLINE
5
110
100
AcDbEntity
8
1
62
256
6
ByLayer
370
18
48
1
60
0
100
AcDbSpline
70
4
71
3
72
13
73
9
40
0
40
0
40
0
40
0
40
0.0383194102562599
40
0.275484389366287
40
0.512649368476315
40
0.749814347586343
40
0.98697932669637
40
1
40
1
40
1
40
1
41
1
10
13.921579312699
20
-5.93305421097534
30
0
41
1
10
13.9399234336144
20
-5.93190484798495
30
0
41
1
10
14.071796848549
20
-5.92331398319811
30
0
41
1
10
14.3171278737479
20
-5.90294445450724
30
0
41
1
10
14.6574454024083
20
-5.86435070293754
30
0
41
1
10
14.9975882135498
20
-5.81546060877369
30
0
41
1
10
15.2304611197849
20
-5.77495479595061
30
0
41
1
10
15.3499772580548
20
-5.75228957857883
30
0
41
1
10
15.3561972769888
20
-5.75110492540696
30
0
0
SPLINE
5
111
100
AcDbEntity
8
1
62
256
6
ByLayer
370
18
48
1
60
0
100
AcDbSpline
70
4
71
3
72
9
73
5
40
0
40
0
40
0
40
0
40
0.154875633552335
40
1
40
1
40
1
40
1
41
1
10
17.5497734050787
20
-5.0798981298897
30
0
41
1
10
17.3665156033858
20
-5.10978542127088
30
0
41
1
10
16.1832578016929
20
-5.27776405605437
30
0
41
1
10
15
20
-5.28103362889198
30
0
41
1
10
14
20
-5.16099341983275
30
0
0
SPLINE
5
112
100
AcDbEntity
8
1
62
256
6
ByLayer
370
18
48
1
60
0
100
AcDbSpline
70
4
71
3
72
8
73
4
40
0
40
0
40
0
40
0
40
1
40
1
40
1
40
1
41
1
10
14.0000000000001
20
-5.75531595983901
30
0
41
1
10
13.8334235211079
20
-5.74880527070201
30
0
41
1
10
13.6677046283067
20
-5.73945416832305
30
0
41
1
10
13.5029316594251
20
-5.72697006873778
30
0
0
SPLINE
5
113
100
AcDbEntity
8
1
62
256
6
ByLayer
370
18
48
1
60
0
100
AcDbSpline
70
4
71
3
72
10
73
6
40
0
40
0
40
0
40
0
40
0.5
40
0.5
40
1
40
1
40
1
40
1
41
1
10
13.5029316594228
20
-5.72697006874176
30
0
41
1
10
13.4730499254969
20
-5.71831778315695
30
0
41
1
10
13.4424118535257
20
-5.71083131975303
30
0
41
1
10
13.3801528244038
20
-5.69861125207672
30
0
41
1
10
13.3485302770446
20
-5.69386671732195
30
0
41
1
10
13.3163586137524
20
-5.69064300898234
30
0
0
SPLINE
5
114
100
AcDbEntity
8
1
62
256
6
ByLayer
370
18
48
1
60
0
100
AcDbSpline
70
4
71
3
72
24
73
20
40
0
40
0
40
0
40
0
40
0.125000000000001
40
0.125000000000001
40
0.250000000000002
40
0.250000000000002
40
0.375000000000003
40
0.375000000000003
40
0.437500000000008
40
0.437500000000008
40
0.500000000000014
40
0.500000000000014
40
0.625000000000016
40
0.625000000000016
40
0.687500000000016
40
0.687500000000016
40
0.750000000000017
40
0.750000000000017
40
1
40
1
40
1
40
1
41
1
10
37.0405636486742
20
4.15836732949259
30
0
41
1
10
37.0521336254033
20
4.15515025616682
30
0
41
1
10
37.0645468011306
20
4.14894040291989
30
0
41
1
10
37.090884188084
20
4.13115756981409
30
0
41
1
10
37.1048092612807
20
4.11958152626394
30
0
41
1
10
37.1340645767702
20
4.09144205678044
30
0
41
1
10
37.1493952562436
20
4.07487707915712
30
0
41
1
10
37.1734017016799
20
4.04644329562024
30
0
41
1
10
37.1815881579837
20
4.03634599396241
30
0
41
1
10
37.1981973359596
20
4.01509331391804
30
0
41
1
10
37.2066215749554
20
4.00393797319592
30
0
41
1
10
37.2322403631153
20
3.96894188934621
30
0
41
1
10
37.2497801650035
20
3.94357470308742
30
0
41
1
10
37.2767461041965
20
3.90262254909521
30
0
41
1
10
37.2858443388562
20
3.88848731573182
30
0
41
1
10
37.3042565708575
20
3.8592629116701
30
0
41
1
10
37.3135637948119
20
3.84418371421495
30
0
41
1
10
37.3604134983597
20
3.7668017876066
30
0
41
1
10
37.3990497252462
20
3.69833729860835
30
0
41
1
10
37.4387761949444
20
3.62368943920811
30
0
0
SPLINE
5
115
100
AcDbEntity
8
1
62
256
6
ByLayer
370
18
48
1
60
0
100
AcDbSpline
70
4
71
3
72
40
73
36
40
0
40
0
40
0
40
0
40
0.0624999999999852
40
0.0624999999999852
40
0.0937499999999836
40
0.0937499999999836
40
0.124999999999982
40
0.124999999999982
40
0.187499999999986
40
0.187499999999986
40
0.24999999999999
40
0.24999999999999
40
0.312499999999994
40
0.312499999999994
40
0.374999999999998
40
0.374999999999998
40
0.437500000000002
40
0.437500000000002
40
0.468749999999999
40
0.468749999999999
40
0.499999999999996
40
0.499999999999996
40
0.625000000000009
40
0.625000000000009
40
0.656250000000009
40
0.656250000000009
40
0.687500000000008
40
0.750000000000006
40
0.812500000000005
40
0.812500000000005
40
0.843750000000004
40
0.843750000000004
40
0.875000000000003
40
0.875000000000003
40
1
40
1
40
1
40
1
41
1
10
37.1133029747762
20
0.437245049661755
30
0
41
1
10
37.0955104101089
20
0.427965501926479
30
0
41
1
10
37.0807182344463
20
0.416544957606248
30
0
41
1
10
37.0623051148019
20
0.397222630412273
30
0
41
1
10
37.0568016297864
20
0.390411044166427
30
0
41
1
10
37.0469906607045
20
0.376166536705284
30
0
41
1
10
37.0426798685508
20
0.368713430293838
30
0
41
1
10
37.031640378177
20
0.346001070924814
30
0
41
1
10
37.0266850821693
20
0.330272096305578
30
0
41
1
10
37.0207712356367
20
0.298282557940183
30
0
41
1
10
37.0198199124413
20
0.282016890412024
30
0
41
1
10
37.0215401570885
20
0.249381757388164
30
0
41
1
10
37.0242006062769
20
0.233279992164341
30
0
41
1
10
37.0326572690796
20
0.201869131713892
30
0
41
1
10
37.0384582613463
20
0.186538931075745
30
0
41
1
10
37.0530159941679
20
0.156808238574086
30
0
41
1
10
37.0617740430471
20
0.142407452880604
30
0
41
1
10
37.0771348989422
20
0.121607848977533
30
0
41
1
10
37.0826342218342
20
0.114803608418384
30
0
41
1
10
37.0942554597017
20
0.101618982696124
30
0
41
1
10
37.1003905663753
20
0.0952192149713653
30
0
41
1
10
37.1326662043251
20
0.0641714831942863
30
0
41
1
10
37.1635422259167
20
0.0424110572362792
30
0
41
1
10
37.2088117155208
20
0.0185758867563095
30
0
41
1
10
37.218228836196
20
0.0139633626929196
30
0
41
1
10
37.2376335666514
20
0.0051047011661751
30
0
41
1
10
37.2675287984065
20
-0.0076094088319678
30
0
41
1
10
37.3212553321978
20
-0.0262544405022709
30
0
41
1
10
37.3683918601434
20
-0.0392296388301077
30
0
41
1
10
37.4053203582175
20
-0.0485681996018741
30
0
41
1
10
37.417892707213
20
-0.0516160890034314
30
0
41
1
10
37.4435674637143
20
-0.0576448890383006
30
0
41
1
10
37.4566797413912
20
-0.0606276302700337
30
0
41
1
10
37.5229015435346
20
-0.0753979909671898
30
0
41
1
10
37.5784940459115
20
-0.0868625285384326
30
0
41
1
10
37.6362111735992
20
-0.100302388998699
30
0
0
SPLINE
5
116
100
AcDbEntity
8
1
62
256
6
ByLayer
370
18
48
1
60
0
100
AcDbSpline
70
4
71
3
72
14
73
10
40
0
40
0
40
0
40
0
40
0.25
40
0.25
40
0.5
40
0.5
40
0.75
40
0.75
40
1
40
1
40
1
40
1
41
1
10
35.3567898791585
20
0.804734924058778
30
0
41
1
10
35.3616115473138
20
0.814445133307686
30
0
41
1
10
35.366456831863
20
0.824976544873635
30
0
41
1
10
35.3763514194989
20
0.847640532377739
30
0
41
1
10
35.3814234772121
20
0.859833468167295
30
0
41
1
10
35.3917107980122
20
0.885410436504998
30
0
41
1
10
35.3969628471546
20
0.898883107303817
30
0
41
1
10
35.4075865941562
20
0.926783637568832
30
0
41
1
10
35.4129435529497
20
0.94116927577781
30
0
41
1
10
35.4183511682783
20
0.955994774255799
30
0
0
SPLINE
5
117
100
AcDbEntity
8
1
62
256
6
ByLayer
370
18
48
1
60
0
100
AcDbSpline
70
4
71
3
72
12
73
8
40
0
40
0
40
0
40
0
40
0.592108796776302
40
0.592108796776302
40
0.888163195164408
40
0.888163195164408
40
1
40
1
40
1
40
1
41
1
10
37.0793848630061
20
-0.451480454337286
30
0
41
1
10
37.0410539135878
20
-0.477289979067166
30
0
41
1
10
37.006505890236
20
-0.505938659013083
30
0
41
1
10
36.9604905734224
20
-0.552306937085234
30
0
41
1
10
36.9461229325566
20
-0.56833659965568
30
0
41
1
10
36.9277239866588
20
-0.591184636034455
30
0
41
1
10
36.922824167428
20
-0.597528548018744
30
0
41
1
10
36.918072928543
20
-0.603952506137119
30
0
0
SPLINE
5
118
100
AcDbEntity
8
1
62
256
6
ByLayer
370
18
48
1
60
0
100
AcDbSpline
70
4
71
3
72
10
73
6
40
0
40
0
40
0
40
0
40
0.5
40
0.5
40
1
40
1
40
1
40
1
41
1
10
13.3163586137524
20
4.40847907921176
30
0
41
1
10
13.3668604551246
20
4.39707093991143
30
0
41
1
10
13.4165097604353
20
4.38802284679667
30
0
41
1
10
13.5139059737461
20
4.37370193362315
30
0
41
1
10
13.5616526703021
20
4.36843254322037
30
0
41
1
10
13.608308817874
20
4.36465237096988
30
0
0
SPLINE
5
119
100
AcDbEntity
8
1
62
256
6
ByLayer
370
13
48
1
60
0
100
AcDbSpline
70
4
71
3
72
8
73
4
40
0
40
0
40
0
40
0
40
1
40
1
40
1
40
1
41
1
10
37.4387761954316
20
3.62368943942317
30
0
41
1
10
37.3593042233542
20
3.6585784248513
30
0
41
1
10
37.2798322512768
20
3.69301584874978
30
0
41
1
10
37.2003602791995
20
3.72699011748378
30
0
0
SPLINE
5
11A
100
AcDbEntity
8
1
62
256
6
ByLayer
370
18
48
1
60
0
100
AcDbSpline
70
4
71
3
72
12
73
8
40
0
40
0
40
0
40
0
40
0.25874621828946
40
0.25874621828946
40
0.517492469920902
40
0.517492469920902
40
1
40
1
40
1
40
1
41
1
10
37.4866354115647
20
-4.54568396364678
30
0
41
1
10
37.4835320548286
20
-4.54529313299469
30
0
41
1
10
37.4804276796001
20
-4.54490608870785
30
0
41
1
10
37.4742168880283
20
-4.54413979370531
30
0
41
1
10
37.4711104628574
20
-4.54376054188984
30
0
41
1
10
37.4622082790081
20
-4.54268555661511
30
0
41
1
10
37.4564099198255
20
-4.54199974940528
30
0
41
1
10
37.4506079330832
20
-4.54132866299952
30
0
0
SPLINE
5
11B
100
AcDbEntity
8
1
62
256
6
ByLayer
370
18
48
1
60
0
100
AcDbSpline
70
4
71
3
72
8
73
4
40
0
40
0
40
0
40
0
40
1
40
1
40
1
40
1
41
1
10
37.450021595146
20
-4.54101297210534
30
0
41
1
10
37.4240054274371
20
-4.3839168068159
30
0
41
1
10
37.3979892597281
20
-4.22682064152647
30
0
41
1
10
37.3719730920192
20
-4.06972447623701
30
0
0
SPLINE
5
11C
100
AcDbEntity
8
1
62
256
6
ByLayer
370
13
48
1
60
0
100
AcDbSpline
70
4
71
3
72
8
73
4
40
0
40
0
40
0
40
0
40
1
40
1
40
1
40
1
41
1
10
37.9865236260666
20
-4.24762523446421
30
0
41
1
10
37.9537380246377
20
-4.049652484641
30
0
41
1
10
37.9209524232088
20
-3.85167973481779
30
0
41
1
10
37.8881668217798
20
-3.65370698499456
30
0
0
SPLINE
5
11D
100
AcDbEntity
8
1
62
256
6
ByLayer
370
18
48
1
60
0
100
AcDbSpline
70
4
71
3
72
30
73
26
40
0
40
0
40
0
40
0
40
0.249999999999992
40
0.249999999999992
40
0.374999999999999
40
0.374999999999999
40
0.500000000000006
40
0.500000000000006
40
0.625000000000012
40
0.625000000000012
40
0.687500000000014
40
0.687500000000014
40
0.750000000000016
40
0.750000000000016
40
0.812500000000018
40
0.812500000000018
40
0.87500000000002
40
0.87500000000002
40
0.906250000000015
40
0.906250000000015
40
0.93750000000001
40
0.93750000000001
40
0.968750000000005
40
0.968750000000005
40
1
40
1
40
1
40
1
41
1
10
37.6773432945829
20
-3.4962363924385
30
0
41
1
10
37.6984036438262
20
-3.52700817746276
30
0
41
1
10
37.7193668080741
20
-3.55640436405327
30
0
41
1
10
37.7504081437401
20
-3.59713967638609
30
0
41
1
10
37.7606877289974
20
-3.61015354665693
30
0
41
1
10
37.7810705555189
20
-3.63470693512286
30
0
41
1
10
37.7911711889477
20
-3.64624652018864
30
0
41
1
10
37.8109926926443
20
-3.66713318209813
30
0
41
1
10
37.8207299143849
20
-3.67651385103301
30
0
41
1
10
37.8349275705307
20
-3.68808526747765
30
0
41
1
10
37.839603564989
20
-3.69152782738408
30
0
41
1
10
37.8486975350848
20
-3.6972383101614
30
0
41
1
10
37.8531156164234
20
-3.69951185762787
30
0
41
1
10
37.8615990030483
20
-3.7024670070071
30
0
41
1
10
37.8656901341742
20
-3.70315073224677
30
0
41
1
10
37.8732059620072
20
-3.70219201344037
30
0
41
1
10
37.8766357650285
20
-3.70057831074962
30
0
41
1
10
37.8810408235593
20
-3.69560065639101
30
0
41
1
10
37.8823869497382
20
-3.69349108453761
30
0
41
1
10
37.8846939530811
20
-3.6883294635231
30
0
41
1
10
37.8856648680448
20
-3.68527107349428
30
0
41
1
10
37.8871833753616
20
-3.67804703753481
30
0
41
1
10
37.88772928385
20
-3.67384436187049
30
0
41
1
10
37.8883161583427
20
-3.66450851716709
30
0
41
1
10
37.8883654546029
20
-3.65935454617178
30
0
41
1
10
37.8881668217908
20
-3.65370698501215
30
0
0
SPLINE
5
11E
100
AcDbEntity
8
1
62
256
6
ByLayer
370
13
48
1
60
0
100
AcDbSpline
70
4
71
3
72
8
73
4
40
0
40
0
40
0
40
0
40
1
40
1
40
1
40
1
41
1
10
37.4866354115647
20
-4.54568396364678
30
0
41
1
10
37.4614579438286
20
-4.39365220872776
30
0
41
1
10
37.4362804760924
20
-4.24162045380871
30
0
41
1
10
37.4111030083562
20
-4.08958869888968
30
0
0
SPLINE
5
11F
100
AcDbEntity
8
1
62
256
6
ByLayer
370
18
48
1
60
0
100
AcDbSpline
70
4
71
3
72
22
73
18
40
0
40
0
40
0
40
0
40
0.125
40
0.125
40
0.25
40
0.25
40
0.375
40
0.375
40
0.5
40
0.5
40
0.625
40
0.625
40
0.75
40
0.75
40
0.875
40
0.875
40
1
40
1
40
1
40
1
41
1
10
37.9865236260625
20
-4.24762523439054
30
0
41
1
10
37.9873000099378
20
-4.26950764749768
30
0
41
1
10
37.9855657198729
20
-4.29097273349583
30
0
41
1
10
37.9773396411061
20
-4.33311210859242
30
0
41
1
10
37.9708646902327
20
-4.35378919649568
30
0
41
1
10
37.9530000545162
20
-4.39432643956789
30
0
41
1
10
37.9418561296026
20
-4.41362449215811
30
0
41
1
10
37.9153655059292
20
-4.45032739865687
30
0
41
1
10
37.9000265224903
20
-4.46774408497583
30
0
41
1
10
37.8649348933871
20
-4.50060687851916
30
0
41
1
10
37.8456582886465
20
-4.51559891533131
30
0
41
1
10
37.8038380760092
20
-4.5427533926738
30
0
41
1
10
37.781289803523
20
-4.55493125638893
30
0
41
1
10
37.7327029171155
20
-4.57630542035525
30
0
41
1
10
37.7072889684568
20
-4.5852171651469
30
0
41
1
10
37.654585374441
20
-4.59947251929941
30
0
41
1
10
37.627251937842
20
-4.60484751870479
30
0
41
1
10
37.5988661571412
20
-4.60834360040366
30
0
0
SPLINE
5
120
100
AcDbEntity
8
1
62
256
6
ByLayer
370
13
48
1
60
0
100
AcDbSpline
70
4
71
3
72
14
73
10
40
0
40
0
40
0
40
0
40
0.0841633789530295
40
0.21499718195974
40
0.345830984966449
40
0.47666478797316
40
0.60749859097987
40
0.73833239398658
40
1
40
1
40
1
40
1
41
1
10
25.464926995381
20
-3.63247879977788
30
0
41
1
10
25.1432846635874
20
-3.57233459988547
30
0
41
1
10
24.3216423317936
20
-3.39451922892107
30
0
41
1
10
23
20
-3.01660111446069
30
0
41
1
10
21.5
20
-2.47753018429353
30
0
41
1
10
20
20
-1.85092003309907
30
0
41
1
10
18.5
20
-1.15845415552954
30
0
41
1
10
16.5
20
-0.189323929053614
30
0
41
1
10
15
20
0.552819394800651
30
0
41
1
10
14
20
1.01489831609314
30
0
0
SPLINE
5
121
100
AcDbEntity
8
1
62
256
6
ByLayer
370
18
48
1
60
0
100
AcDbSpline
70
4
71
3
72
16
73
12
40
0
40
0
40
0
40
0
40
0.0407212019535322
40
0.147307735069806
40
0.253894268186081
40
0.360480801302355
40
0.467067334418629
40
0.573653867534903
40
0.680240400651177
40
0.786826933767452
40
1
40
1
40
1
40
1
41
1
10
28.0730724242964
20
-5.00014147479416
30
0
41
1
10
27.8820482828643
20
-5.02470475253503
30
0
41
1
10
27.1910241414322
20
-5.09952119344325
30
0
41
1
10
26
20
-5.13889435851726
30
0
41
1
10
24.4999999999999
20
-5.02584585059802
30
0
41
1
10
23
20
-4.75511908814173
30
0
41
1
10
21.5
20
-4.33193358692836
30
0
41
1
10
20
20
-3.77137807825048
30
0
41
1
10
18.5
20
-3.09133379361197
30
0
41
1
10
16.5
20
-2.05473386925942
30
0
41
1
10
15
20
-1.16819264987916
30
0
41
1
10
14
20
-0.560855754731222
30
0
0
SPLINE
5
122
100
AcDbEntity
8
1
62
256
6
ByLayer
370
18
48
1
60
0
100
AcDbSpline
70
4
71
3
72
8
73
4
40
0
40
0
40
0
40
0
40
1
40
1
40
1
40
1
41
1
10
25.867165988731
20
-5.25755700821801
30
0
41
1
10
25.8388514616668
20
-5.25899483515584
30
0
41
1
10
25.8105369346026
20
-5.26034332298687
30
0
41
1
10
25.7822224075385
20
-5.2616024652047
30
0
0
SPLINE
5
123
100
AcDbEntity
8
1
62
256
6
ByLayer
370
13
48
1
60
0
100
AcDbSpline
70
4
71
3
72
14
73
10
40
0
40
0
40
0
40
0
40
0.108826871804736
40
0.236137318689773
40
0.363447765574811
40
0.490758212459849
40
0.618068659344887
40
0.745379106229924
40
1
40
1
40
1
40
1
41
1
10
25.7822224075178
20
-5.26160246520558
30
0
41
1
10
25.3548149383452
20
-5.28060920289221
30
0
41
1
10
24.4274074691726
20
-5.2776767968289
30
0
41
1
10
23
20
-5.12547368650377
30
0
41
1
10
21.5
20
-4.80213033730382
30
0
41
1
10
20
20
-4.32662681733706
30
0
41
1
10
18.5
20
-3.71582788973913
30
0
41
1
10
16.4999999999999
20
-2.74203047271521
30
0
41
1
10
15
20
-1.86792236653352
30
0
41
1
10
14
20
-1.25879566796689
30
0
0
SPLINE
5
124
100
AcDbEntity
8
1
62
256
6
ByLayer
370
18
48
1
60
0
100
AcDbSpline
70
4
71
3
72
8
73
4
40
0
40
0
40
0
40
0
40
1
40
1
40
1
40
1
41
1
10
24.1218439558543
20
3.47999206090944
30
0
41
1
10
24.2467842721539
20
3.48005072223398
30
0
41
1
10
24.3717245884536
20
3.4790349624106
30
0
41
1
10
24.4966649047532
20
3.4769411668681
30
0
0
SPLINE
5
125
100
AcDbEntity
8
1
62
256
6
ByLayer
370
13
48
1
60
0
100
AcDbSpline
70
4
71
3
72
13
73
9
40
0
40
0
40
0
40
0
40
0.0478765562135925
40
0.270392452934575
40
0.492908349655559
40
0.715424246376541
40
0.937940143097524
40
1
40
1
40
1
40
1
41
1
10
28.6772597581626
20
3.0194518597367
30
0
41
1
10
28.7848398387751
20
2.99813079730251
30
0
41
1
10
29.3924199193875
20
2.8737806537116
30
0
41
1
10
30.5000000000001
20
2.60721869834973
30
0
41
1
10
32
20
2.16937076525414
30
0
41
1
10
33.5
20
1.67062151998329
30
0
41
1
10
34.6394503894261
20
1.25335467846793
30
0
41
1
10
35.2789007788522
20
1.00955005174532
30
0
41
1
10
35.4183511682783
20
0.9559947742558
30
0
0
SPLINE
5
126
100
AcDbEntity
8
1
62
256
6
ByLayer
370
18
48
1
60
0
100
AcDbSpline
70
4
71
3
72
27
73
23
40
0
40
0
40
0
40
0
40
0.125000000000038
40
0.250000000000075
40
0.250000000000075
40
0.312500000000081
40
0.312500000000081
40
0.375000000000087
40
0.375000000000087
40
0.500000000000099
40
0.500000000000099
40
0.562500000000088
40
0.562500000000088
40
0.625000000000076
40
0.625000000000076
40
0.750000000000092
40
0.750000000000092
40
0.81250000000008
40
0.81250000000008
40
0.875000000000068
40
0.875000000000068
40
1
40
1
40
1
40
1
41
1
10
35.4183511682783
20
0.955994774255771
30
0
41
1
10
35.4312033177888
20
0.991231390972615
30
0
41
1
10
35.4618000327498
20
1.05974991963558
30
0
41
1
10
35.5016352924531
20
1.12464549403831
30
0
41
1
10
35.5351138343568
20
1.17189519980121
30
0
41
1
10
35.54683977255
20
1.18734303826219
30
0
41
1
10
35.5710961132559
20
1.21721272498195
30
0
41
1
10
35.5836708015581
20
1.23169832761295
30
0
41
1
10
35.622739450989
20
1.27380497587973
30
0
41
1
10
35.6505658092959
20
1.30008777513049
30
0
41
1
10
35.6952057823213
20
1.33661446846779
30
0
41
1
10
35.7106130966574
20
1.34832508369601
30
0
41
1
10
35.7418837191446
20
1.37031224559362
30
0
41
1
10
35.757809105911
20
1.38064416400175
30
0
41
1
10
35.8064888205195
20
1.40964052916894
30
0
41
1
10
35.8401388224837
20
1.42632046024212
30
0
41
1
10
35.8926748951132
20
1.44704594821573
30
0
41
1
10
35.9106185422641
20
1.45325765493115
30
0
41
1
10
35.9467284929727
20
1.46399252780753
30
0
41
1
10
35.9649020148321
20
1.4685286010986
30
0
41
1
10
36.0198152226485
20
1.47964062182115
30
0
41
1
10
36.0569456959766
20
1.48373303229812
30
0
41
1
10
36.0947164260406
20
1.48434775633024
30
0
0
SPLINE
5
127
100
AcDbEntity
8
1
62
256
6
ByLayer
370
18
48
1
60
0
100
AcDbSpline
70
4
71
3
72
14
73
10
40
0
40
0
40
0
40
0
40
0.15724403545817
40
0.15724403545817
40
0.297703362881809
40
0.297703362881809
40
0.438162690305449
40
0.438162690305449
40
1
40
1
40
1
40
1
41
1
10
37.0582112150709
20
-4.34564771893699
30
0
41
1
10
37.0703029889265
20
-4.39526518667876
30
0
41
1
10
37.0829289798585
20
-4.44359575200562
30
0
41
1
10
37.1078565424025
20
-4.53263280969944
30
0
41
1
10
37.1200491241638
20
-4.57360185320599
30
0
41
1
10
37.1453093962585
20
-4.65343184711463
30
0
41
1
10
37.1583836894789
20
-4.69230661165003
30
0
41
1
10
37.2257072586368
20
-4.88061107828713
30
0
41
1
10
37.2859740083159
20
-5.01249948567116
30
0
41
1
10
37.3527614158185
20
-5.12530268105306
30
0
0
SPLINE
5
128
100
AcDbEntity
8
1
62
256
6
ByLayer
370
18
48
1
60
0
100
AcDbSpline
70
4
71
3
72
14
73
10
40
0
40
0
40
0
40
0
40
0.298496366150975
40
0.298496366150975
40
0.596992732301949
40
0.596992732301949
40
0.895489098452924
40
0.895489098452924
40
1
40
1
40
1
40
1
41
1
10
35.0675224125978
20
-3.69825113458737
30
0
41
1
10
35.2311380679065
20
-3.75977643913689
30
0
41
1
10
35.3947482187042
20
-3.8165120919401
30
0
41
1
10
35.7219583870419
20
-3.92116612474354
30
0
41
1
10
35.8855584018194
20
-3.9690821010478
30
0
41
1
10
36.2127488480996
20
-4.05657533847827
30
0
41
1
10
36.376339278092
20
-4.0961512854106
30
0
41
1
10
36.5972004617683
20
-4.1441283365935
30
0
41
1
10
36.654475289719
20
-4.15607459119343
30
0
41
1
10
36.7117495495006
20
-4.16752646356082
30
0
0
SPLINE
5
129
100
AcDbEntity
8
1
62
256
6
ByLayer
370
18
48
1
60
0
100
AcDbSpline
70
4
71
3
72
32
73
28
40
0
40
0
40
0
40
0
40
0.157778450340998
40
0.157778450340998
40
0.197223062926248
40
0.197223062926248
40
0.236667675511497
40
0.236667675511497
40
0.315556900681996
40
0.394446125852494
40
0.394446125852494
40
0.433890738437744
40
0.433890738437744
40
0.473335351022994
40
0.473335351022994
40
0.631113801363978
40
0.631113801363978
40
0.670558413949227
40
0.670558413949227
40
0.710003026534477
40
0.788892251704978
40
0.788892251704978
40
0.867781476875478
40
0.867781476875478
40
0.946670702045979
40
0.946670702045979
40
1
40
1
40
1
40
1
41
1
10
35.0675224125978
20
-3.69825113458737
30
0
41
1
10
35.0313713968536
20
-3.6846570671417
30
0
41
1
10
34.9976734719582
20
-3.66782296647491
30
0
41
1
10
34.9590908876432
20
-3.6419795302204
30
0
41
1
10
34.9515530203813
20
-3.6365686166003
30
0
41
1
10
34.9368540739068
20
-3.62523342147878
30
0
41
1
10
34.929669108487
20
-3.61928700822389
30
0
41
1
10
34.9089225534475
20
-3.60081635545146
30
0
41
1
10
34.8834237621788
20
-3.57454719626048
30
0
41
1
10
34.8623172209672
20
-3.54492504423882
30
0
41
1
10
34.8481982618194
20
-3.52139888829586
30
0
41
1
10
34.843777520351
20
-3.51333829956661
30
0
41
1
10
34.8355233984909
20
-3.49676763750864
30
0
41
1
10
34.8316855228942
20
-3.48823884203603
30
0
41
1
10
34.8142675836296
20
-3.44513307550795
30
0
41
1
10
34.8056904742937
20
-3.40870248486354
30
0
41
1
10
34.8010779035289
20
-3.36098433628462
30
0
41
1
10
34.8004630670493
20
-3.35130127397113
30
0
41
1
10
34.7998472278122
20
-3.3319009771609
30
0
41
1
10
34.7998372868402
20
-3.30274386211295
30
0
41
1
10
34.8024114517703
20
-3.27343298074501
30
0
41
1
10
34.8079417944406
20
-3.23423952569522
30
0
41
1
10
34.8117612965319
20
-3.21456783062914
30
0
41
1
10
34.8213502168836
20
-3.17521016248875
30
0
41
1
10
34.8270572014858
20
-3.15576722371839
30
0
41
1
10
34.83797671838
20
-3.12354037616933
30
0
41
1
10
34.8427480123965
20
-3.11063938980581
30
0
41
1
10
34.8478680702786
20
-3.09783265060889
30
0
0
SPLINE
5
12A
100
AcDbEntity
8
1
62
256
6
ByLayer
370
13
48
1
60
0
100
AcDbSpline
70
4
71
3
72
18
73
14
40
0
40
0
40
0
40
0
40
0.0522483633975516
40
0.154180267108847
40
0.256112170820143
40
0.358044074531439
40
0.459975978242734
40
0.56190788195403
40
0.663839785665326
40
0.765771689376621
40
0.867703593087917
40
0.969635496799212
40
1
40
1
40
1
40
1
41
1
10
34.2688715921397
20
-2.74479561391948
30
0
41
1
10
34.0125810614264
20
-2.6767200334242
30
0
41
1
10
33.2562905307132
20
-2.46454401307233
30
0
41
1
10
32
20
-2.06185516108573
30
0
41
1
10
30.5
20
-1.50873776484235
30
0
41
1
10
29
20
-0.904605236142856
30
0
41
1
10
27.5
20
-0.273405498678528
30
0
41
1
10
26.0000000000001
20
0.364791416792343
30
0
41
1
10
24.5
20
0.997371762024358
30
0
41
1
10
23
20
1.59960540748653
30
0
41
1
10
21.5
20
2.14819204583026
30
0
41
1
10
20.3510549587753
20
2.51452744083264
30
0
41
1
10
19.7021099175506
20
2.69878654383518
30
0
41
1
10
19.5531648763258
20
2.73981033932654
30
0
0
SPLINE
5
12B
100
AcDbEntity
8
1
62
256
6
ByLayer
370
18
48
1
60
0
100
AcDbSpline
70
4
71
3
72
18
73
14
40
0
40
0
40
0
40
0
40
0.124999999999998
40
0.124999999999998
40
0.249999999999995
40
0.249999999999995
40
0.499999999999994
40
0.499999999999994
40
0.624999999999996
40
0.624999999999996
40
0.749999999999997
40
0.749999999999997
40
1
40
1
40
1
40
1
41
1
10
37.0535114699395
20
-0.694554577631806
30
0
41
1
10
37.0631463283818
20
-0.764257917362642
30
0
41
1
10
37.0732842893748
20
-0.834635787039872
30
0
41
1
10
37.0944978460769
20
-0.976189339138443
30
0
41
1
10
37.1055818727078
20
-1.04742853975645
30
0
41
1
10
37.1402788228602
20
-1.26254613305116
30
0
41
1
10
37.1653352687555
20
-1.4078232111487
30
0
41
1
10
37.2058829876972
20
-1.62860984370164
30
0
41
1
10
37.219876465976
20
-1.70259055376215
30
0
41
1
10
37.2487603983525
20
-1.85100372609463
30
0
41
1
10
37.2636596699695
20
-1.92548449806597
30
0
41
1
10
37.3097329764713
20
-2.14975151506991
30
0
41
1
10
37.342281225349
20
-2.30036169539261
30
0
41
1
10
37.376686503712
20
-2.45208529134789
30
0
0
SPLINE
5
12C
100
AcDbEntity
8
1
62
256
6
ByLayer
370
18
48
1
60
0
100
AcDbSpline
70
4
71
3
72
14
73
10
40
0
40
0
40
0
40
0
40
0.249999999999991
40
0.249999999999991
40
0.374999999999996
40
0.374999999999996
40
0.5
40
0.5
40
1
40
1
40
1
40
1
41
1
10
35.5881687573953
20
0.286516529524391
30
0
41
1
10
35.7096565309312
20
0.207079423978882
30
0
41
1
10
35.8315762628732
20
0.126849198340039
30
0
41
1
10
36.0150743325046
20
0.0053682821495329
30
0
41
1
10
36.076381314449
20
-0.0353401007995444
30
0
41
1
10
36.1988573072193
20
-0.116901741864751
30
0
41
1
10
36.2600581167065
20
-0.157775902952494
30
0
41
1
10
36.5658812916922
20
-0.362600705248752
30
0
41
1
10
36.8099637230367
20
-0.527906602106782
30
0
41
1
10
37.0535114699396
20
-0.694554577631862
30
0
0
SPLINE
5
12D
100
AcDbEntity
8
1
62
256
6
ByLayer
370
18
48
1
60
0
100
AcDbSpline
70
4
71
3
72
30
73
26
40
0
40
0
40
0
40
0
40
0.125000000000002
40
0.125000000000002
40
0.187500000000003
40
0.187500000000003
40
0.250000000000004
40
0.250000000000004
40
0.375000000000006
40
0.375000000000006
40
0.437500000000007
40
0.437500000000007
40
0.500000000000008
40
0.500000000000008
40
0.625000000000011
40
0.625000000000011
40
0.687500000000009
40
0.687500000000009
40
0.750000000000007
40
0.750000000000007
40
0.875000000000004
40
0.875000000000004
40
0.937500000000002
40
0.937500000000002
40
1
40
1
40
1
40
1
41
1
10
35.5881687573954
20
0.286516529524505
30
0
41
1
10
35.5613086289812
20
0.304079538489958
30
0
41
1
10
35.5358609509449
20
0.322635884182404
30
0
41
1
10
35.5000108178706
20
0.352069603536137
30
0
41
1
10
35.4884490510736
20
0.362148361157267
30
0
41
1
10
35.4661563805631
20
0.382873595877356
30
0
41
1
10
35.4553822933241
20
0.393566652635144
30
0
41
1
10
35.4247246801268
20
0.426230951421218
30
0
41
1
10
35.4067103692943
20
0.448531547480201
30
0
41
1
10
35.3834080009668
20
0.482768016955617
30
0
41
1
10
35.3762622716439
20
0.494311681173713
30
0
41
1
10
35.3632524783409
20
0.517669272903902
30
0
41
1
10
35.3573609114542
20
0.529553017347922
30
0
41
1
10
35.3419538516355
20
0.564990989168308
30
0
41
1
10
35.3346441799577
20
0.588344035370909
30
0
41
1
10
35.327771915916
20
0.623018827476585
30
0
41
1
10
35.3261659395688
20
0.634517906390244
30
0
41
1
10
35.3242944652307
20
0.657406228933581
30
0
41
1
10
35.3240384107214
20
0.668738138959469
30
0
41
1
10
35.3251762037372
20
0.702044089415239
30
0
41
1
10
35.3284498581387
20
0.72349588055215
30
0
41
1
10
35.3366843383028
20
0.754731675794574
30
0
41
1
10
35.3399929209989
20
0.765003119459806
30
0
41
1
10
35.3476440375995
20
0.785167330728399
30
0
41
1
10
35.3519781885882
20
0.795044654403625
30
0
41
1
10
35.3567898791585
20
0.804734924058778
30
0
0
SPLINE
5
12E
100
AcDbEntity
8
1
62
256
6
ByLayer
370
13
48
1
60
0
100
AcDbSpline
70
4
71
3
72
12
73
8
40
0
40
0
40
0
40
0
40
0.0594492060935791
40
0.30938289073361
40
0.559316575373642
40
0.809250260013673
40
1
40
1
40
1
40
1
41
1
10
35.3567898791586
20
0.804734924058778
30
0
41
1
10
35.237859919439
20
0.851533546700694
30
0
41
1
10
34.6189299597195
20
1.09388279966748
30
0
41
1
10
33.5
20
1.51852633887842
30
0
41
1
10
32
20
2.04300287800331
30
0
41
1
10
30.6183992960752
20
2.47550260725907
30
0
41
1
10
29.7367985921504
20
2.71406018285074
30
0
41
1
10
29.3551978882255
20
2.80933508185851
30
0
0
SPLINE
5
12F
100
AcDbEntity
8
1
62
256
6
ByLayer
370
18
48
1
60
0
100
AcDbSpline
70
4
71
3
72
8
73
4
40
0
40
0
40
0
40
0
40
1
40
1
40
1
40
1
41
1
10
37.376686500409
20
-2.45208529092918
30
0
41
1
10
37.3940485982795
20
-2.49697745967876
30
0
41
1
10
37.4116181848251
20
-2.5411616921927
30
0
41
1
10
37.4293585119426
20
-2.58457676440318
30
0
0
SPLINE
5
130
100
AcDbEntity
8
1
62
256
6
ByLayer
370
18
48
1
60
0
100
AcDbSpline
70
4
71
3
72
14
73
10
40
0
40
0
40
0
40
0
40
0.209735098859313
40
0.342105375022925
40
0.474475651186538
40
0.60684592735015
40
0.739216203513762
40
0.871586479677375
40
1
40
1
40
1
40
1
41
1
10
37.3766864994684
20
-2.45208529213022
30
0
41
1
10
36.5844576663123
20
-2.00519422485644
30
0
41
1
10
35.2922288331561
20
-1.220166815531
30
0
41
1
10
33.5
20
-0.0803480759828688
30
0
41
1
10
32
20
0.878299579312625
30
0
41
1
10
30.5
20
1.80600733930609
30
0
41
1
10
29
20
2.67538258675458
30
0
41
1
10
27.5149457867569
20
3.44830827878942
30
0
41
1
10
26.5298915735138
20
3.88823053391934
30
0
41
1
10
26.0448373602708
20
4.08345387644272
30
0
0
SPLINE
5
131
100
AcDbEntity
8
1
62
256
6
ByLayer
370
18
48
1
60
0
100
AcDbSpline
70
4
71
3
72
8
73
4
40
0
40
0
40
0
40
0
40
1
40
1
40
1
40
1
41
1
10
37.3527614137551
20
-5.12530268286486
30
0
41
1
10
37.3745546061098
20
-5.11751615890813
30
0
41
1
10
37.396692856057
20
-5.10714486049142
30
0
41
1
10
37.4191029225025
20
-5.09430629333659
30
0
0
SPLINE
5
132
100
AcDbEntity
8
1
62
256
6
ByLayer
370
18
48
1
60
0
100
AcDbSpline
70
4
71
3
72
22
73
18
40
0
40
0
40
0
40
0
40
0.0402871370674378
40
0.111151865079615
40
0.182016593091792
40
0.252881321103969
40
0.323746049116146
40
0.394610777128323
40
0.4654755051405
40
0.536340233152677
40
0.607204961164855
40
0.678069689177032
40
0.748934417189209
40
0.819799145201386
40
0.890663873213563
40
0.96152860122574
40
1
40
1
40
1
40
1
41
1
10
37.3527614131359
20
-5.12530268251464
30
0
41
1
10
37.0685076087573
20
-5.16843227541233
30
0
41
1
10
36.2842538043786
20
-5.25933971555312
30
0
41
1
10
35
20
-5.27919488688482
30
0
41
1
10
33.5
20
-5.10852950362368
30
0
41
1
10
32
20
-4.750171660934
30
0
41
1
10
30.5
20
-4.21790591375921
30
0
41
1
10
29
20
-3.53047234878241
30
0
41
1
10
27.5
20
-2.71369120919962
30
0
41
1
10
26.0000000000001
20
-1.79912764190479
30
0
41
1
10
24.5
20
-0.816018714043423
30
0
41
1
10
23
20
0.19813850485599
30
0
41
1
10
21.5
20
1.20118463151658
30
0
41
1
10
20
20
2.16177396221494
30
0
41
1
10
18.5
20
3.04448466125194
30
0
41
1
10
17.2285574935979
20
3.69632275571786
30
0
41
1
10
16.4571149871958
20
4.03647331252213
30
0
41
1
10
16.1856724807937
20
4.14873138882328
30
0
0
SPLINE
5
133
100
AcDbEntity
8
1
62
256
6
ByLayer
370
18
48
1
60
0
100
AcDbSpline
70
4
71
3
72
18
73
14
40
0
40
0
40
0
40
0
40
0.249999999999989
40
0.249999999999989
40
0.374999999999986
40
0.374999999999986
40
0.499999999999983
40
0.499999999999983
40
0.749999999999978
40
0.749999999999978
40
0.874999999999989
40
0.874999999999989
40
1
40
1
40
1
40
1
41
1
10
37.4293585134853
20
-2.5845767637617
30
0
41
1
10
37.4388341138149
20
-2.60775940864625
30
0
41
1
10
37.4480618037678
20
-2.63170991861335
30
0
41
1
10
37.4614920015396
20
-2.6689097517588
30
0
41
1
10
37.4658915476952
20
-2.68150461767814
30
0
41
1
10
37.4744233341338
20
-2.70680706816253
30
0
41
1
10
37.4785699891735
20
-2.71955377105249
30
0
41
1
10
37.4906253424895
20
-2.75810185012102
30
0
41
1
10
37.4981592846252
20
-2.78420330497082
30
0
41
1
10
37.5084705021494
20
-2.82414796676164
30
0
41
1
10
37.5117208201124
20
-2.83753269798692
30
0
41
1
10
37.5176689339135
20
-2.86393065657441
30
0
41
1
10
37.5203858600304
20
-2.87701448723087
30
0
41
1
10
37.5228015134917
20
-2.88996340095758
30
0
0
SPLINE
5
134
100
AcDbEntity
8
1
62
256
6
ByLayer
370
13
48
1
60
0
100
AcDbSpline
70
4
71
3
72
14
73
10
40
0
40
0
40
0
40
0
40
0.226796779416704
40
0.366831758667886
40
0.506866737919069
40
0.646901717170252
40
0.786936696421435
40
0.926971675672618
40
1
40
1
40
1
40
1
41
1
10
37.4293585141669
20
-2.58457676290322
30
0
41
1
10
36.619572342778
20
-2.13374490228247
30
0
41
1
10
35.309786171389
20
-1.34249294820788
30
0
41
1
10
33.5
20
-0.193575329785489
30
0
41
1
10
32
20
0.770383234169287
30
0
41
1
10
30.5
20
1.70289647495227
30
0
41
1
10
29
20
2.58274190008333
30
0
41
1
10
27.7392497049026
20
3.25131118961806
30
0
41
1
10
26.9784994098053
20
3.61116621355219
30
0
41
1
10
26.717749114708
20
3.72891303736634
30
0
0
SPLINE
5
135
100
AcDbEntity
8
1
62
256
6
ByLayer
370
18
48
1
60
0
100
AcDbSpline
70
4
71
3
72
18
73
14
40
0
40
0
40
0
40
0
40
0.249999999999953
40
0.249999999999953
40
0.374999999999949
40
0.374999999999949
40
0.499999999999945
40
0.499999999999945
40
0.749999999999975
40
0.749999999999975
40
0.874999999999987
40
0.874999999999987
40
1
40
1
40
1
40
1
41
1
10
37.4191029230421
20
-5.09430629326224
30
0
41
1
10
37.428679228706
20
-5.08882180729228
30
0
41
1
10
37.4380078269309
20
-5.08516408816214
30
0
41
1
10
37.4515882543685
20
-5.08271936165639
30
0
41
1
10
37.4560435735124
20
-5.08242030427505
30
0
41
1
10
37.4646844731683
20
-5.08292536069627
30
0
41
1
10
37.4688852145941
20
-5.08372541742344
30
0
41
1
10
37.4811002735735
20
-5.08789642430358
30
0
41
1
10
37.4887375800116
20
-5.092991767467
30
0
41
1
10
37.4991914045115
20
-5.10521840003491
30
0
41
1
10
37.5024995018749
20
-5.11007737436424
30
0
41
1
10
37.5085460375076
20
-5.12135821408316
30
0
41
1
10
37.5113066265993
20
-5.12779986746287
30
0
41
1
10
37.5137572725032
20
-5.13518692152405
30
0
0
SPLINE
5
136
100
AcDbEntity
8
1
62
256
6
ByLayer
370
18
48
1
60
0
100
AcDbSpline
70
4
71
3
72
8
73
4
40
0
40
0
40
0
40
0
40
1
40
1
40
1
40
1
41
1
10
35.9393086116682
20
-5.26064288404583
30
0
41
1
10
35.9273552163399
20
-5.2612316016918
30
0
41
1
10
35.9154018210116
20
-5.2618019674428
30
0
41
1
10
35.9034484256833
20
-5.26235398137126
30
0
0
SPLINE
5
137
100
AcDbEntity
8
1
62
256
6
ByLayer
370
13
48
1
60
0
100
AcDbSpline
70
4
71
3
72
21
73
17
40
0
40
0
40
0
40
0
40
0.0475997565409846
40
0.126629960952365
40
0.205660165363745
40
0.284690369775125
40
0.363720574186504
40
0.442750778597884
40
0.521780983009264
40
0.600811187420644
40
0.679841391832024
40
0.758871596243404
40
0.837901800654784
40
0.916932005066164
40
0.995962209477544
40
1
40
1
40
1
40
1
41
1
10
35.9034474267561
20
-5.2623540275022
30
0
41
1
10
35.6022982845041
20
-5.27626122362477
30
0
41
1
10
34.8011491422521
20
-5.2822707697045
30
0
41
1
10
33.4999999999999
20
-5.15815761047958
30
0
41
1
10
31.9999999999999
20
-4.82159780224938
30
0
41
1
10
30.5
20
-4.31218846951887
30
0
41
1
10
29
20
-3.64465807503794
30
0
41
1
10
27.4999999999999
20
-2.84056510252739
30
0
41
1
10
26
20
-1.93244820717135
30
0
41
1
10
24.5
20
-0.956291327330036
30
0
41
1
10
23
20
0.0576395352261727
30
0
41
1
10
21.4999999999999
20
1.06754148746884
30
0
41
1
10
20
20
2.03947873940567
30
0
41
1
10
18.5
20
2.93663196875883
30
0
41
1
10
17.4744541308445
20
3.47553561627206
30
0
41
1
10
16.948908261689
20
3.72675636716699
30
0
41
1
10
16.9233623925334
20
3.73890830214688
30
0
0
SPLINE
5
138
100
AcDbEntity
8
1
62
256
6
ByLayer
370
18
48
1
60
0
100
AcDbSpline
70
4
71
3
72
50
73
46
40
0
40
0
40
0
40
0
40
0.062500000000014
40
0.062500000000014
40
0.125000000000028
40
0.125000000000028
40
0.140625000000031
40
0.140625000000031
40
0.156250000000033
40
0.187500000000038
40
0.187500000000038
40
0.250000000000048
40
0.250000000000048
40
0.265625000000049
40
0.265625000000049
40
0.28125000000005
40
0.28125000000005
40
0.312500000000047
40
0.312500000000047
40
0.375000000000036
40
0.375000000000036
40
0.390625000000035
40
0.390625000000035
40
0.406250000000033
40
0.437500000000031
40
0.437500000000031
40
0.500000000000036
40
0.500000000000036
40
0.531250000000039
40
0.531250000000039
40
0.562500000000041
40
0.562500000000041
40
0.625000000000033
40
0.625000000000033
40
0.687500000000025
40
0.687500000000025
40
0.750000000000018
40
0.750000000000018
40
0.781250000000014
40
0.781250000000014
40
0.81250000000001
40
0.81250000000001
40
0.875000000000002
40
0.875000000000002
40
1
40
1
40
1
40
1
41
1
10
37.7247325149168
20
2.14285311233741
30
0
41
1
10
37.7483056051668
20
2.11716202535482
30
0
41
1
10
37.7687661255331
20
2.09135922136815
30
0
41
1
10
37.8023321685075
20
2.03948961272766
30
0
41
1
10
37.8154483298331
20
2.01342319303981
30
0
41
1
10
37.8261685862838
20
1.98063647645199
30
0
41
1
10
37.8280295136609
20
1.97405471854313
30
0
41
1
10
37.8311220076528
20
1.96097211809985
30
0
41
1
10
37.8348264412408
20
1.94145122100548
30
0
41
1
10
37.835666048548
20
1.92224615929445
30
0
41
1
10
37.8333304542781
20
1.88427865213566
30
0
41
1
10
37.8264333870544
20
1.85955569434418
30
0
41
1
10
37.8103077011489
20
1.82947932121439
30
0
41
1
10
37.8067063264024
20
1.82350552524167
30
0
41
1
10
37.7987260637094
20
1.81164365094722
30
0
41
1
10
37.7943449194142
20
1.80575759970975
30
0
41
1
10
37.7802017814428
20
1.78845687837679
30
0
41
1
10
37.7693912916189
20
1.77732123675938
30
0
41
1
10
37.7330045803607
20
1.74505409145624
30
0
41
1
10
37.7034781287961
20
1.72506092310886
30
0
41
1
10
37.6605226047217
20
1.7018121553169
30
0
41
1
10
37.6516069464137
20
1.69723928335955
30
0
41
1
10
37.6332975644866
20
1.68831992453718
30
0
41
1
10
37.6051501498014
20
1.67529323001642
30
0
41
1
10
37.5750799164408
20
1.66325797649375
30
0
41
1
10
37.5126583024433
20
1.64036367132451
30
0
41
1
10
37.4680139201571
20
1.62666311150579
30
0
41
1
10
37.3973588377582
20
1.608014135465
30
0
41
1
10
37.3731891596548
20
1.60211645412397
30
0
41
1
10
37.3237246665199
20
1.59090123292481
30
0
41
1
10
37.2985753253762
20
1.58561713758868
30
0
41
1
10
37.2222623971459
20
1.57066570699064
30
0
41
1
10
37.1701330117197
20
1.56186924976208
30
0
41
1
10
37.0638961412196
20
1.54612361826966
30
0
41
1
10
37.009785863405
20
1.53917705205563
30
0
41
1
10
36.899947805734
20
1.52679445220926
30
0
41
1
10
36.8442185261127
20
1.52135981915814
30
0
41
1
10
36.7596078050783
20
1.5141574275485
30
0
41
1
10
36.731234115306
20
1.51191549623638
30
0
41
1
10
36.6741730022901
20
1.50772461910293
30
0
41
1
10
36.6454604866009
20
1.50577434288724
30
0
41
1
10
36.5592405614455
20
1.50035159035227
30
0
41
1
10
36.5015571442399
20
1.49729747856529
30
0
41
1
10
36.3279947137382
20
1.48954746650236
30
0
41
1
10
36.2116084891905
20
1.4862501913708
30
0
41
1
10
36.0947164260406
20
1.48434775633024
30
0
0
SPLINE
5
139
100
AcDbEntity
8
1
62
256
6
ByLayer
370
18
48
1
60
0
100
AcDbSpline
70
4
71
3
72
8
73
4
40
0
40
0
40
0
40
0
40
1
40
1
40
1
40
1
41
1
10
37.9865236260594
20
2.07961918645
30
0
41
1
10
37.953738024633
20
2.30160163524295
30
0
41
1
10
37.9209524232066
20
2.52358408403589
30
0
41
1
10
37.8881668217803
20
2.74556653282883
30
0
0
SPLINE
5
13A
100
AcDbEntity
8
1
62
256
6
ByLayer
370
13
48
1
60
0
100
AcDbSpline
70
4
71
3
72
13
73
9
40
0
40
0
40
0
40
0
40
0.309119118303636
40
0.463678677455455
40
0.618238236607273
40
0.772797795759091
40
0.92735735491091
40
1
40
1
40
1
40
1
41
1
10
14
20
1.51591596233666
30
0
41
1
10
15
20
1.11591580483099
30
0
41
1
10
16.5
20
0.457730146993072
30
0
41
1
10
18.5
20
-0.435467093496044
30
0
41
1
10
20
20
-1.09031479127884
30
0
41
1
10
21.5
20
-1.7042620549602
30
0
41
1
10
22.7349988751512
20
-2.15897229602626
30
0
41
1
10
23.4699977503024
20
-2.39950253896035
30
0
41
1
10
23.7049966254536
20
-2.47305690868816
30
0
0
SPLINE
5
13B
100
AcDbEntity
8
1
62
256
6
ByLayer
370
13
48
1
60
0
100
AcDbSpline
70
4
71
3
72
9
73
5
40
0
40
0
40
0
40
0
40
0.704623176924906
40
1
40
1
40
1
40
1
41
1
10
14.8674118810689
20
3.47345075826124
30
0
41
1
10
15.5782745873792
20
3.45500385656908
30
0
41
1
10
16.5871297167446
20
3.37413918034468
30
0
41
1
10
17.5959848461099
20
3.21827551839735
30
0
41
1
10
17.8939772691649
20
3.16602616819847
30
0
0
SPLINE
5
13C
100
AcDbEntity
8
1
62
256
6
ByLayer
370
13
48
1
60
0
100
AcDbSpline
70
4
71
3
72
18
73
14
40
0
40
0
40
0
40
0
40
0.0733202502376
40
0.173650717844382
40
0.273981185451164
40
0.374311653057947
40
0.474642120664729
40
0.574972588271511
40
0.675303055878293
40
0.775633523485076
40
0.875963991091858
40
0.97629445869864
40
1
40
1
40
1
40
1
41
1
10
18.9038187703117
20
2.96568466049891
30
0
41
1
10
19.2692125135412
20
2.88498051076263
30
0
41
1
10
20.1346062567706
20
2.67337254290302
30
0
41
1
10
21.5
20
2.27157674487995
30
0
41
1
10
23
20
1.75393902763255
30
0
41
1
10
24.5
20
1.17589778599643
30
0
41
1
10
26.0000000000001
20
0.559968688810784
30
0
41
1
10
27.5
20
-0.0698128574414909
30
0
41
1
10
29
20
-0.699977543060811
30
0
41
1
10
30.5
20
-1.30989379829637
30
0
41
1
10
32
20
-1.87544983475325
30
0
41
1
10
33.1181373009955
20
-2.24843408783173
30
0
41
1
10
33.736274601991
20
-2.43537247659231
30
0
41
1
10
33.8544119029864
20
-2.47036301332804
30
0
0
SPLINE
5
13D
100
AcDbEntity
8
1
62
256
6
ByLayer
370
18
48
1
60
0
100
AcDbSpline
70
4
71
3
72
29
73
25
40
0
40
0
40
0
40
0
40
0.12499999999997
40
0.12499999999997
40
0.24999999999994
40
0.24999999999994
40
0.312499999999939
40
0.312499999999939
40
0.374999999999938
40
0.437499999999938
40
0.437499999999938
40
0.468749999999937
40
0.468749999999937
40
0.499999999999936
40
0.499999999999936
40
0.624999999999953
40
0.624999999999953
40
0.749999999999969
40
0.749999999999969
40
0.812499999999977
40
0.812499999999977
40
0.874999999999985
40
0.874999999999985
40
1
40
1
40
1
40
1
41
1
10
10.2994763502456
20
0.995292085775702
30
0
41
1
10
10.328507204071
20
0.998826040291164
30
0
41
1
10
10.357223518277
20
1.00360014158986
30
0
41
1
10
10.4138142692514
20
1.01646368795934
30
0
41
1
10
10.4416921622946
20
1.02453968586116
30
0
41
1
10
10.4826146914647
20
1.04016938076907
30
0
41
1
10
10.4961022151508
20
1.04597947144921
30
0
41
1
10
10.5222077846665
20
1.05877297555034
30
0
41
1
10
10.5475645125107
20
1.07278149094586
30
0
41
1
10
10.5712050899433
20
1.08957002481577
30
0
41
1
10
10.5881898957193
20
1.10336706353596
30
0
41
1
10
10.5937141135233
20
1.1081600382233
30
0
41
1
10
10.604329421101
20
1.11801152786924
30
0
41
1
10
10.6094420556776
20
1.12308706604412
30
0
41
1
10
10.6340244431594
20
1.14921688441422
30
0
41
1
10
10.6505671288331
20
1.17256099334008
30
0
41
1
10
10.6771820756929
20
1.22399434802773
30
0
41
1
10
10.686692700497
20
1.25090530418399
30
0
41
1
10
10.6965216624815
20
1.29263941120331
30
0
41
1
10
10.6990493614054
20
1.3068050824638
30
0
41
1
10
10.7027299524198
20
1.33501740415593
30
0
41
1
10
10.7039018019479
20
1.34913201728253
30
0
41
1
10
10.7057334205109
20
1.39149056896676
30
0
41
1
10
10.7047251556948
20
1.41974869804883
30
0
41
1
10
10.7020611571104
20
1.44800684471278
30
0
0
SPLINE
5
13E
100
AcDbEntity
8
1
62
256
6
ByLayer
370
18
48
1
60
0
100
AcDbSpline
70
4
71
3
72
19
73
15
40
0
40
0
40
0
40
0
40
0.24999999999999
40
0.24999999999999
40
0.499999999999979
40
0.499999999999979
40
0.562499999999976
40
0.562499999999976
40
0.593749999999976
40
0.593749999999976
40
0.624999999999976
40
0.749999999999983
40
0.749999999999983
40
1
40
1
40
1
40
1
41
1
10
10.7020611571104
20
1.44800684471278
30
0
41
1
10
10.535450288778
20
1.65040316101988
30
0
41
1
10
10.3802468034388
20
1.85548328142906
30
0
41
1
10
10.0925664883431
20
2.26936370728987
30
0
41
1
10
9.96007958576729
20
2.47816554016853
30
0
41
1
10
9.80856041809832
20
2.74014138295058
30
0
41
1
10
9.77896134395684
20
2.79258388042206
30
0
41
1
10
9.73561954440586
20
2.8712889994143
30
0
41
1
10
9.7213561890014
20
2.89751753874205
30
0
41
1
10
9.6932886252948
20
2.94978010973438
30
0
41
1
10
9.62420080747194
20
3.08007182321327
30
0
41
1
10
9.56043659740126
20
3.20847728559076
30
0
41
1
10
9.41710242059006
20
3.51251708645148
30
0
41
1
10
9.33443690171856
20
3.70971847977393
30
0
41
1
10
9.2637118126095
20
3.89989790313845
30
0
0
SPLINE
5
13F
100
AcDbEntity
8
1
62
256
6
ByLayer
370
18
48
1
60
0
100
AcDbSpline
70
4
71
3
72
22
73
18
40
0
40
0
40
0
40
0
40
0.249999999999994
40
0.249999999999994
40
0.312499999999994
40
0.312499999999994
40
0.374999999999994
40
0.374999999999994
40
0.499999999999993
40
0.624999999999993
40
0.624999999999993
40
0.687499999999994
40
0.687499999999994
40
0.749999999999995
40
0.874999999999998
40
0.874999999999998
40
1
40
1
40
1
40
1
41
1
10
9.26371181260953
20
3.89989790313842
30
0
41
1
10
9.24954628055508
20
3.93798895048391
30
0
41
1
10
9.24046350369355
20
3.97607851454308
30
0
41
1
10
9.23731178794105
20
4.02380797533459
30
0
41
1
10
9.23709553426562
20
4.03336003073147
30
0
41
1
10
9.23755654646814
20
4.05248083851353
30
0
41
1
10
9.23823629140998
20
4.06200875863999
30
0
41
1
10
9.2416335021274
20
4.09019579140988
30
0
41
1
10
9.24978471038867
20
4.12695880665913
30
0
41
1
10
9.26538897411311
20
4.16209718371084
30
0
41
1
10
9.27999928322612
20
4.1878423012771
30
0
41
1
10
9.28537058152094
20
4.19633899255996
30
0
41
1
10
9.29689454411044
20
4.21285151330147
30
0
41
1
10
9.31540598642835
20
4.23700457153777
30
0
41
1
10
9.33741013136313
20
4.25942192622378
30
0
41
1
10
9.36959902493282
20
4.28792624057888
30
0
41
1
10
9.38718177424263
20
4.30152209190049
30
0
41
1
10
9.40585353865936
20
4.31433322906469
30
0
0
SPLINE
5
140
100
AcDbEntity
8
1
62
256
6
ByLayer
370
18
48
1
60
0
100
AcDbSpline
70
4
71
3
72
42
73
38
40
0
40
0
40
0
40
0
40
0.0312499999999938
40
0.0312499999999938
40
0.0624999999999876
40
0.0624999999999876
40
0.124999999999976
40
0.124999999999976
40
0.140624999999976
40
0.140624999999976
40
0.156249999999977
40
0.187499999999977
40
0.218749999999978
40
0.218749999999978
40
0.249999999999979
40
0.249999999999979
40
0.312499999999981
40
0.312499999999981
40
0.374999999999983
40
0.374999999999983
40
0.406249999999984
40
0.406249999999984
40
0.437499999999984
40
0.499999999999986
40
0.499999999999986
40
0.562499999999988
40
0.562499999999988
40
0.62499999999999
40
0.687499999999991
40
0.687499999999991
40
0.749999999999993
40
0.749999999999993
40
0.812499999999995
40
0.812499999999995
40
0.874999999999996
40
0.874999999999996
40
1
40
1
40
1
40
1
41
1
10
9.40585353865933
20
4.31433322906469
30
0
41
1
10
9.43575137776327
20
4.33484684037239
30
0
41
1
10
9.46721399389835
20
4.35361631733235
30
0
41
1
10
9.53263999862412
20
4.3884323865438
30
0
41
1
10
9.56660728391245
20
4.40447420245016
30
0
41
1
10
9.67164545206597
20
4.44926297878666
30
0
41
1
10
9.74581926826608
20
4.47471365492058
30
0
41
1
10
9.84247188416089
20
4.5025377567664
30
0
41
1
10
9.86201658071349
20
4.50790265905897
30
0
41
1
10
9.90126688229935
20
4.51819759229355
30
0
41
1
10
9.96046084668026
20
4.53300997684184
30
0
41
1
10
10.0605931492495
20
4.55480930428578
30
0
41
1
10
10.1420846847947
20
4.56958909410099
30
0
41
1
10
10.224198269289
20
4.58319641846805
30
0
41
1
10
10.2656048049103
20
4.58941765263344
30
0
41
1
10
10.3900995002123
20
4.60642915912555
30
0
41
1
10
10.4736217058348
20
4.61561064679398
30
0
41
1
10
10.6415431769919
20
4.63046757423646
30
0
41
1
10
10.7259436698504
20
4.63613706185851
30
0
41
1
10
10.8531216114944
20
4.64237514916903
30
0
41
1
10
10.8956300545222
20
4.64407507430278
30
0
41
1
10
10.9805962608365
20
4.64675338968692
30
0
41
1
10
11.1080493700661
20
4.64969166427758
30
0
41
1
10
11.2355132117446
20
4.64959467572334
30
0
41
1
10
11.405473687691
20
4.64700848526454
30
0
41
1
10
11.4905322932642
20
4.64448203578644
30
0
41
1
10
11.660244635508
20
4.63713670241899
30
0
41
1
10
11.8295190436294
20
4.62750500092261
30
0
41
1
10
11.997974998044
20
4.61352376938669
30
0
41
1
10
12.1660431898586
20
4.59742910016132
30
0
41
1
10
12.2498194698308
20
4.58832966820393
30
0
41
1
10
12.4166060128961
20
4.56809927540542
30
0
41
1
10
12.4996590433872
20
4.55696404862505
30
0
41
1
10
12.6651148348185
20
4.53266955290454
30
0
41
1
10
12.7475561249322
20
4.51950282967849
30
0
41
1
10
12.9935102219564
20
4.47703447404609
30
0
41
1
10
13.1557368756517
20
4.44476280893576
30
0
41
1
10
13.3163586137524
20
4.40847907921173
30
0
0
SPLINE
5
141
100
AcDbEntity
8
1
62
256
6
ByLayer
370
18
48
1
60
0
100
AcDbSpline
70
4
71
3
72
10
73
6
40
0
40
0
40
0
40
0
40
0.5
40
0.5
40
1
40
1
40
1
40
1
41
1
10
10.5648213605141
20
5.75989519803835
30
0
41
1
10
10.5910915131952
20
5.75987416168337
30
0
41
1
10
10.6170613425009
20
5.75984352466193
30
0
41
1
10
10.6682089091987
20
5.75973668918451
30
0
41
1
10
10.6933893669631
20
5.75966140172812
30
0
41
1
10
10.7180204026446
20
5.75953412344609
30
0
0
SPLINE
5
142
100
AcDbEntity
8
1
62
256
6
ByLayer
370
18
48
1
60
0
100
AcDbSpline
70
4
71
3
72
30
73
26
40
0
40
0
40
0
40
0
40
0.249999999999996
40
0.249999999999996
40
0.374999999999996
40
0.374999999999996
40
0.499999999999995
40
0.499999999999995
40
0.624999999999994
40
0.624999999999994
40
0.687499999999994
40
0.687499999999994
40
0.749999999999994
40
0.749999999999994
40
0.812499999999993
40
0.812499999999993
40
0.843749999999995
40
0.843749999999995
40
0.874999999999997
40
0.874999999999997
40
0.906249999999998
40
0.906249999999998
40
0.9375
40
0.9375
40
1
40
1
40
1
40
1
41
1
10
10.5633742071884
20
-4.99808082396561
30
0
41
1
10
10.5385988355125
20
-4.98631666826171
30
0
41
1
10
10.5144141444734
20
-4.97414538324958
30
0
41
1
10
10.479604583924
20
-4.95495924970774
30
0
41
1
10
10.4682333874035
20
-4.94839702613606
30
0
41
1
10
10.4462818376528
20
-4.93490646544865
30
0
41
1
10
10.4356988036559
20
-4.92798330952198
30
0
41
1
10
10.415734267731
20
-4.91361987883371
30
0
41
1
10
10.4063283544676
20
-4.90618888392075
30
0
41
1
10
10.393841617624
20
-4.89437739008886
30
0
41
1
10
10.3899400958053
20
-4.89031075470609
30
0
41
1
10
10.3830680905497
20
-4.88191375036106
30
0
41
1
10
10.3800960356761
20
-4.87759561061287
30
0
41
1
10
10.3757823931061
20
-4.86866603410917
30
0
41
1
10
10.374445986124
20
-4.86412979497842
30
0
41
1
10
10.374749756803
20
-4.85714169987844
30
0
41
1
10
10.3752544946613
20
-4.85481845993991
30
0
41
1
10
10.3772739593753
20
-4.85029969058627
30
0
41
1
10
10.3788259021372
20
-4.84806868572417
30
0
41
1
10
10.3829331678934
20
-4.84398815588008
30
0
41
1
10
10.3855234661126
20
-4.84209105665434
30
0
41
1
10
10.3915617604389
20
-4.83870430036652
30
0
41
1
10
10.3949376073606
20
-4.83724190508067
30
0
41
1
10
10.4059138556346
20
-4.83340699799538
30
0
41
1
10
10.4139691164113
20
-4.83169033320888
30
0
41
1
10
10.4223449943755
20
-4.83044364018633
30
0
0
SPLINE
5
143
100
AcDbEntity
8
1
62
256
6
ByLayer
370
18
48
1
60
0
100
AcDbSpline
70
4
71
3
72
12
73
8
40
0
40
0
40
0
40
0
40
0.499999999999998
40
0.499999999999998
40
0.749999999999999
40
0.749999999999999
40
1
40
1
40
1
40
1
41
1
10
10.4223449943755
20
-4.83044364018636
30
0
41
1
10
10.4422640421917
20
-4.8274788240758
30
0
41
1
10
10.4614854149701
20
-4.82360541841686
30
0
41
1
10
10.488712652495
20
-4.81567642030299
30
0
41
1
10
10.497554079002
20
-4.81265312200182
30
0
41
1
10
10.5140580540457
20
-4.80588951018646
30
0
41
1
10
10.5217763835965
20
-4.80213738733318
30
0
41
1
10
10.5288758316367
20
-4.79795059133011
30
0
0
SPLINE
5
144
100
AcDbEntity
8
1
62
256
6
ByLayer
370
18
48
1
60
0
100
AcDbSpline
70
4
71
3
72
19
73
15
40
0
40
0
40
0
40
0
40
0.25
40
0.25
40
0.500000000000001
40
0.500000000000001
40
0.531250000000001
40
0.531250000000001
40
0.562500000000001
40
0.562500000000001
40
0.625000000000002
40
0.750000000000001
40
0.750000000000001
40
1
40
1
40
1
40
1
41
1
10
10.528875831637
20
-4.79795059133019
30
0
41
1
10
10.3345808514454
20
-4.67563437003204
30
0
41
1
10
10.1524207337759
20
-4.53898231354054
30
0
41
1
10
9.81287974011485
20
-4.23273015204433
30
0
41
1
10
9.65548943369797
20
-4.06315583816433
30
0
41
1
10
9.49251773401028
20
-3.85073920268744
30
0
41
1
10
9.47460548939173
20
-3.82683552588659
30
0
41
1
10
9.43917309059984
20
-3.77841133152148
30
0
41
1
10
9.4216347355092
20
-3.75386441663542
30
0
41
1
10
9.36975824848665
20
-3.67949362323222
30
0
41
1
10
9.26902924776226
20
-3.52794851915024
30
0
41
1
10
9.17712339044891
20
-3.36792584224418
30
0
41
1
10
9.00449053723972
20
-3.03630842798435
30
0
41
1
10
8.90425844496201
20
-2.79986119502465
30
0
41
1
10
8.81778846665145
20
-2.54677002723844
30
0
0
SPLINE
5
145
100
AcDbEntity
8
1
62
256
6
ByLayer
370
18
48
1
60
0
100
AcDbSpline
70
4
71
3
72
18
73
14
40
0
40
0
40
0
40
0
40
0.250000000000036
40
0.250000000000036
40
0.500000000000072
40
0.500000000000072
40
0.625000000000082
40
0.625000000000082
40
0.687500000000069
40
0.687500000000069
40
0.750000000000056
40
0.750000000000056
40
1
40
1
40
1
40
1
41
1
10
8.81778846665148
20
-2.54677002723844
30
0
41
1
10
8.81006501502054
20
-2.52416406120489
30
0
41
1
10
8.80516667632256
20
-2.50105325790128
30
0
41
1
10
8.80392960409364
20
-2.45335304997494
30
0
41
1
10
8.80767522919717
20
-2.43006706744041
30
0
41
1
10
8.82155961326191
20
-2.39628757256565
30
0
41
1
10
8.82743069568483
20
-2.38561081223284
30
0
41
1
10
8.83789716507988
20
-2.37056413746711
30
0
41
1
10
8.8416668974055
20
-2.36570149966511
30
0
41
1
10
8.84975236954887
20
-2.35627443318646
30
0
41
1
10
8.85409388932084
20
-2.35168709387287
30
0
41
1
10
8.87671495471994
20
-2.32987050201623
30
0
41
1
10
8.89772702133496
20
-2.31576278668521
30
0
41
1
10
8.92075790627916
20
-2.30399018581531
30
0
0
SPLINE
5
146
100
AcDbEntity
8
1
62
256
6
ByLayer
370
18
48
1
60
0
100
AcDbSpline
70
4
71
3
72
38
73
34
40
0
40
0
40
0
40
0
40
0.0312500000000018
40
0.0312500000000018
40
0.0625000000000036
40
0.0625000000000036
40
0.125000000000007
40
0.125000000000007
40
0.156250000000007
40
0.156250000000007
40
0.187500000000007
40
0.187500000000007
40
0.250000000000006
40
0.250000000000006
40
0.312500000000005
40
0.312500000000005
40
0.375000000000004
40
0.375000000000004
40
0.437500000000003
40
0.437500000000003
40
0.500000000000003
40
0.500000000000003
40
0.562500000000002
40
0.562500000000002
40
0.625000000000001
40
0.625000000000001
40
0.749999999999999
40
0.749999999999999
40
0.812499999999998
40
0.812499999999998
40
0.874999999999998
40
0.874999999999998
40
1
40
1
40
1
40
1
41
1
10
8.92075790627914
20
-2.30399018581531
30
0
41
1
10
8.9629387431485
20
-2.28242878433099
30
0
41
1
10
9.00589695226086
20
-2.26314476692687
30
0
41
1
10
9.09302900344159
20
-2.22816958519334
30
0
41
1
10
9.1372053360019
20
-2.21248542610911
30
0
41
1
10
9.27123989582117
20
-2.16991706011029
30
0
41
1
10
9.36258658020802
20
-2.14746863353255
30
0
41
1
10
9.50183873470112
20
-2.12053388031197
30
0
41
1
10
9.54863366065183
20
-2.11269419824433
30
0
41
1
10
9.64290111917285
20
-2.09906810313194
30
0
41
1
10
9.69038441218996
20
-2.09328577954011
30
0
41
1
10
9.83270064456266
20
-2.07884622466821
30
0
41
1
10
9.92777212845215
20
-2.07301796266313
30
0
41
1
10
10.1182343271234
20
-2.06763489921482
30
0
41
1
10
10.2136826047651
20
-2.06809227593578
30
0
41
1
10
10.4046136472856
20
-2.07445104854392
30
0
41
1
10
10.4998052485925
20
-2.08034214907383
30
0
41
1
10
10.6897080323559
20
-2.09686139079096
30
0
41
1
10
10.7844188681642
20
-2.10749282454637
30
0
41
1
10
10.9734064638917
20
-2.13300338706463
30
0
41
1
10
11.0675729395125
20
-2.14787169480229
30
0
41
1
10
11.2549434434041
20
-2.18135054255904
30
0
41
1
10
11.3482066779433
20
-2.19997014714517
30
0
41
1
10
11.5339554309132
20
-2.24062266440538
30
0
41
1
10
11.626458996525
20
-2.26266362433327
30
0
41
1
10
11.9021320249515
20
-2.33326143925356
30
0
41
1
10
12.0837304618921
20
-2.38633413253322
30
0
41
1
10
12.3532932784471
20
-2.47333709536437
30
0
41
1
10
12.442722985999
20
-2.50359183460876
30
0
41
1
10
12.6204066824919
20
-2.56623029056169
30
0
41
1
10
12.7086596911784
20
-2.59861175555886
30
0
41
1
10
12.971778507317
20
-2.698582856976
30
0
41
1
10
13.1450051831086
20
-2.76899580506975
30
0
41
1
10
13.3163586137524
20
-2.84227568127704
30
0
0
SPLINE
5
147
100
AcDbEntity
8
1
62
256
6
ByLayer
370
18
48
1
60
0
100
AcDbSpline
70
4
71
3
72
8
73
4
40
0
40
0
40
0
40
0
40
1
40
1
40
1
40
1
41
1
10
37.3788618684571
20
-4.11558455087314
30
0
41
1
10
37.4008822650091
20
-4.24850344090584
30
0
41
1
10
37.4228524065063
20
-4.38054760845932
30
0
41
1
10
37.4447702491136
20
-4.51170821930566
30
0
0
SPLINE
5
148
100
AcDbEntity
8
1
62
256
6
ByLayer
370
18
48
1
60
0
100
AcDbSpline
70
4
71
3
72
8
73
4
40
0
40
0
40
0
40
0
40
1
40
1
40
1
40
1
41
1
10
14.0000000000001
20
-1.84053574304181
30
0
41
1
10
13.8340581851106
20
-1.74871575226996
30
0
41
1
10
13.6688991156923
20
-1.65505093789801
30
0
41
1
10
13.5045986943269
20
-1.55936240796279
30
0
0
SPLINE
5
149
100
AcDbEntity
8
1
62
256
6
ByLayer
370
13
48
1
60
0
100
AcDbSpline
70
4
71
3
72
16
73
12
40
0
40
0
40
0
40
0
40
0.0103790301290652
40
0.12033691567028
40
0.230294801211495
40
0.34025268675271
40
0.450210572293925
40
0.56016845783514
40
0.670126343376355
40
0.78008422891757
40
1
40
1
40
1
40
1
41
1
10
27.6415864366342
20
-5.10494794472203
30
0
41
1
10
27.5943909577561
20
-5.11487039696286
30
0
41
1
10
27.0471954788781
20
-5.22710456255311
30
0
41
1
10
26.0000000000001
20
-5.37909566377388
30
0
41
1
10
24.5000000000001
20
-5.42639746074357
30
0
41
1
10
23.0000000000001
20
-5.30183813504414
30
0
41
1
10
21.5000000000001
20
-5.00839090743798
30
0
41
1
10
20.0000000000001
20
-4.55618880563506
30
0
41
1
10
18.5000000000001
20
-3.96140207047731
30
0
41
1
10
16.5000000000001
20
-2.99858608189285
30
0
41
1
10
15.0000000000001
20
-2.12063702557262
30
0
41
1
10
14.0000000000001
20
-1.50360586317427
30
0
0
SPLINE
5
14A
100
AcDbEntity
8
1
62
256
6
ByLayer
370
18
48
1
60
0
100
AcDbSpline
70
4
71
3
72
62
73
58
40
0
40
0
40
0
40
0
40
0.0047973843792635
40
0.0047973843792635
40
0.0303154001644109
40
0.0303154001644109
40
0.0813514317347055
40
0.0813514317347055
40
0.132387463305
40
0.132387463305
40
0.157905479090148
40
0.157905479090148
40
0.183423494875295
40
0.183423494875295
40
0.234459526445588
40
0.234459526445588
40
0.28549555801588
40
0.28549555801588
40
0.336531589586173
40
0.336531589586173
40
0.362049605371319
40
0.362049605371319
40
0.387567621156466
40
0.387567621156466
40
0.438603652726759
40
0.438603652726759
40
0.464121668511906
40
0.464121668511906
40
0.489639684297053
40
0.489639684297053
40
0.515157700082201
40
0.515157700082201
40
0.527916707974773
40
0.527916707974773
40
0.540675715867346
40
0.540675715867346
40
0.566193731652494
40
0.566193731652494
40
0.591711747437641
40
0.591711747437641
40
0.642747779007935
40
0.642747779007935
40
0.668265794793084
40
0.668265794793084
40
0.693783810578232
40
0.693783810578232
40
0.744819842148527
40
0.744819842148527
40
0.795855873718821
40
0.795855873718821
40
0.846891905289116
40
0.846891905289116
40
0.897927936859411
40
0.897927936859411
40
0.948963968429706
40
0.948963968429706
40
1
40
1
40
1
40
1
41
1
10
28.4521963946834
20
-5.14232493139227
30
0
41
1
10
28.4289513855227
20
-5.14959016014595
30
0
41
1
10
28.4057041396648
20
-5.1567969967806
30
0
41
1
10
28.258790568406
20
-5.20196564939803
30
0
41
1
10
28.135253206418
20
-5.23826545697708
30
0
41
1
10
27.7649015466936
20
-5.34193217504057
30
0
41
1
10
27.5183529079014
20
-5.40403669168879
30
0
41
1
10
27.0252744594876
20
-5.5140763804398
30
0
41
1
10
26.7787252061041
20
-5.56211359099467
30
0
41
1
10
26.4084700525268
20
-5.62348946667692
30
0
41
1
10
26.2849838599465
20
-5.64215175313504
30
0
41
1
10
26.0378083028922
20
-5.67578588851256
30
0
41
1
10
25.913994878937
20
-5.69077614878881
30
0
41
1
10
25.5434192501655
20
-5.73013340094869
30
0
41
1
10
25.2972707127844
20
-5.74901790565514
30
0
41
1
10
24.8063462529153
20
-5.77189517334224
30
0
41
1
10
24.5616164972526
20
-5.77573199724867
30
0
41
1
10
24.0727172793506
20
-5.76923850223301
30
0
41
1
10
23.8285985680159
20
-5.75879637387024
30
0
41
1
10
23.4626099980899
20
-5.7320510219707
30
0
41
1
10
23.340649540147
20
-5.72126794504857
30
0
41
1
10
23.0966843375543
20
-5.69614514759581
30
0
41
1
10
22.9746749168235
20
-5.68182894510372
30
0
41
1
10
22.6084942774408
20
-5.63351209547386
30
0
41
1
10
22.3641772963054
20
-5.59412443251551
30
0
41
1
10
21.9969675495573
20
-5.5240047720942
30
0
41
1
10
21.8744389212517
20
-5.49879647345909
30
0
41
1
10
21.6290044772189
20
-5.44494566971943
30
0
41
1
10
21.5061017907598
20
-5.41628842068067
30
0
41
1
10
21.2598598089883
20
-5.35540410890403
30
0
41
1
10
21.1365208103943
20
-5.3231818772648
30
0
41
1
10
20.9511303061925
20
-5.27214828356784
30
0
41
1
10
20.8892529836324
20
-5.25468165008786
30
0
41
1
10
20.7656172024908
20
-5.21891771611635
30
0
41
1
10
20.7038299386593
20
-5.20060982597721
30
0
41
1
10
20.518535386002
20
-5.14445023544528
30
0
41
1
10
20.3950872041678
20
-5.10538813464296
30
0
41
1
10
20.1482523126936
20
-5.02417317158367
30
0
41
1
10
20.0248777616113
20
-4.98197920423866
30
0
41
1
10
19.6548009406782
20
-4.85062039071323
30
0
41
1
10
19.4081315801625
20
-4.7567549833735
30
0
41
1
10
19.0378401852805
20
-4.60676786035978
30
0
41
1
10
18.9143660226393
20
-4.55521964453595
30
0
41
1
10
18.6672457638757
20
-4.44913850858185
30
0
41
1
10
18.5435560756334
20
-4.39459889660623
30
0
41
1
10
18.1723915504954
20
-4.22667275830693
30
0
41
1
10
17.9258997856193
20
-4.10946863561753
30
0
41
1
10
17.4342136882076
20
-3.86524865054437
30
0
41
1
10
17.1890064252459
20
-3.73826166100122
30
0
41
1
10
16.6991446836827
20
-3.47554192493712
30
0
41
1
10
16.4545164222587
20
-3.33974264675334
30
0
41
1
10
15.9652942493793
20
-3.05987880554142
30
0
41
1
10
15.7207032175486
20
-2.91579816590476
30
0
41
1
10
15.2308796882693
20
-2.62028206306417
30
0
41
1
10
14.9856459967665
20
-2.46885334923081
30
0
41
1
10
14.4939203391162
20
-2.15941803118153
30
0
41
1
10
14.2474123768068
20
-2.00148810849666
30
0
41
1
10
14.0000000000001
20
-1.84053574304181
30
0
0
SPLINE
5
14B
100
AcDbEntity
8
1
62
256
6
ByLayer
370
13
48
1
60
0
100
AcDbSpline
70
4
71
3
72
16
73
12
40
0
40
0
40
0
40
0
40
0.194297032651002
40
0.301260027204458
40
0.408223021757915
40
0.515186016311371
40
0.622149010864828
40
0.729112005418284
40
0.836074999971741
40
0.943037994525197
40
1
40
1
40
1
40
1
41
1
10
37.7247325132698
20
2.14285311001333
30
0
41
1
10
36.8164883421799
20
2.6792726147323
30
0
41
1
10
35.4082441710899
20
3.45476516454133
30
0
41
1
10
33.5
20
4.31756471837358
30
0
41
1
10
32
20
4.86915601088484
30
0
41
1
10
30.5000000000001
20
5.27195516427378
30
0
41
1
10
29
20
5.52115457601408
30
0
41
1
10
27.4999999999999
20
5.61180369127322
30
0
41
1
10
26
20
5.5384700447766
30
0
41
1
10
24.7337303162061
20
5.33318501770131
30
0
41
1
10
23.9674606324121
20
5.14827944700443
30
0
41
1
10
23.7011909486182
20
5.0770628452307
30
0
0
SPLINE
5
14C
100
AcDbEntity
8
1
62
256
6
ByLayer
370
18
48
1
60
0
100
AcDbSpline
70
4
71
3
72
8
73
4
40
0
40
0
40
0
40
0
40
1
40
1
40
1
40
1
41
1
10
37.565975625029
20
2.32971597930705
30
0
41
1
10
37.6151868196962
20
2.26712097240599
30
0
41
1
10
37.6678723203222
20
2.20481399637563
30
0
41
1
10
37.7247325038678
20
2.14285311466469
30
0
0
SPLINE
5
14D
100
AcDbEntity
8
1
62
256
6
ByLayer
370
18
48
1
60
0
100
AcDbSpline
70
4
71
3
72
8
73
4
40
0
40
0
40
0
40
0
40
1
40
1
40
1
40
1
41
1
10
37.3719730920193
20
-4.06972447623704
30
0
41
1
10
37.3742695377634
20
-4.08501815699131
30
0
41
1
10
37.376565798217
20
-4.1003048590533
30
0
41
1
10
37.3788618691497
20
-4.11558455542624
30
0
0
SPLINE
5
14E
100
AcDbEntity
8
1
62
256
6
ByLayer
370
18
48
1
60
0
100
AcDbSpline
70
4
71
3
72
12
73
8
40
0
40
0
40
0
40
0
40
0.397269600513341
40
0.397269600513341
40
0.698633660642396
40
0.698633660642396
40
1
40
1
40
1
40
1
41
1
10
37.3719730920193
20
-4.06972447623701
30
0
41
1
10
37.3771710674426
20
-4.07233753166003
30
0
41
1
10
37.3823627265768
20
-4.0749574014601
30
0
41
1
10
37.3914812931938
20
-4.07957687988926
30
0
41
1
10
37.3954109674833
20
-4.08157354638857
30
0
41
1
10
37.4032627215596
20
-4.08557500129047
30
0
41
1
10
37.4071848087331
20
-4.08757979354849
30
0
41
1
10
37.4111030083562
20
-4.08958869888968
30
0
0
SPLINE
5
14F
100
AcDbEntity
8
1
62
256
6
ByLayer
370
18
48
1
60
0
100
AcDbSpline
70
4
71
3
72
38
73
34
40
0
40
0
40
0
40
0
40
0.0312500000000407
40
0.0312500000000407
40
0.0468750000000615
40
0.0468750000000615
40
0.0625000000000824
40
0.0625000000000824
40
0.0781250000001032
40
0.0781250000001032
40
0.093750000000124
40
0.093750000000124
40
0.125000000000117
40
0.125000000000117
40
0.15625000000011
40
0.15625000000011
40
0.187500000000104
40
0.187500000000104
40
0.218750000000097
40
0.218750000000097
40
0.25000000000009
40
0.25000000000009
40
0.312500000000077
40
0.312500000000077
40
0.375000000000065
40
0.375000000000065
40
0.500000000000052
40
0.500000000000052
40
0.62500000000004
40
0.62500000000004
40
0.750000000000027
40
0.750000000000027
40
1
40
1
40
1
40
1
41
1
10
37.411103008356
20
-4.0895886988896
30
0
41
1
10
37.4182600784474
20
-4.09325820981738
30
0
41
1
10
37.4256436320661
20
-4.09649373880092
30
0
41
1
10
37.4371997411891
20
-4.10043513078014
30
0
41
1
10
37.4411326514464
20
-4.1015955683749
30
0
41
1
10
37.4491980650017
20
-4.10353974919488
30
0
41
1
10
37.4533579544771
20
-4.10432597949503
30
0
41
1
10
37.4617401341615
20
-4.10540274166914
30
0
41
1
10
37.4659694542478
20
-4.10569798399573
30
0
41
1
10
37.4745167763838
20
-4.10572890177178
30
0
41
1
10
37.478867567537
20
-4.10545985413987
30
0
41
1
10
37.4918446033361
20
-4.10370660796528
30
0
41
1
10
37.5001939796031
20
-4.10132120508408
30
0
41
1
10
37.516302102755
20
-4.09416646388257
30
0
41
1
10
37.5236926995492
20
-4.08956593856846
30
0
41
1
10
37.5373410370625
20
-4.07894040370647
30
0
41
1
10
37.5434324364702
20
-4.07305791802932
30
0
41
1
10
37.5545643278181
20
-4.06064471633428
30
0
41
1
10
37.5596406100187
20
-4.05406085507323
30
0
41
1
10
37.5689729024638
20
-4.0405407960271
30
0
41
1
10
37.5731971414205
20
-4.03365736120494
30
0
41
1
10
37.5849466228029
20
-4.01275092822485
30
0
41
1
10
37.5915655525286
20
-3.99847658666292
30
0
41
1
10
37.6033883887153
20
-3.96953924834099
30
0
41
1
10
37.6085831533675
20
-3.9548404869299
30
0
41
1
10
37.6226385954393
20
-3.91055239087072
30
0
41
1
10
37.6299567572033
20
-3.88100562358392
30
0
41
1
10
37.6424655385614
20
-3.82189015769166
30
0
41
1
10
37.6476080591842
20
-3.7923206305438
30
0
41
1
10
37.6564753929811
20
-3.73316163305788
30
0
41
1
10
37.6601886628975
20
-3.70357200028701
30
0
41
1
10
37.669795621311
20
-3.61477179311552
30
0
41
1
10
37.6741844395129
20
-3.5555206451094
30
0
41
1
10
37.6773432945893
20
-3.49623639243683
30
0
0
SPLINE
5
150
100
AcDbEntity
8
1
62
256
6
ByLayer
370
18
48
1
60
0
100
AcDbSpline
70
4
71
3
72
8
73
4
40
0
40
0
40
0
40
0
40
1
40
1
40
1
40
1
41
1
10
37.6773432945892
20
-3.49623639243526
30
0
41
1
10
37.6544485104996
20
-3.44495562309339
30
0
41
1
10
37.6315802651475
20
-3.39341936574579
30
0
41
1
10
37.6087385187473
20
-3.34162800340812
30
0
0
SPLINE
5
151
100
AcDbEntity
8
1
62
256
6
ByLayer
370
18
48
1
60
0
100
AcDbSpline
70
4
71
3
72
38
73
34
40
0
40
0
40
0
40
0
40
0.0071369688918006
40
0.0437034992764216
40
0.0802700296610426
40
0.116836560045664
40
0.153403090430284
40
0.171686355622595
40
0.189969620814906
40
0.226536151199527
40
0.244819416391837
40
0.263102681584148
40
0.299669211968769
40
0.317952477161079
40
0.33623574235339
40
0.372802272738011
40
0.391085537930321
40
0.409368803122632
40
0.445935333507253
40
0.482501863891874
40
0.519068394276495
40
0.555634924661116
40
0.592201455045737
40
0.665334515814979
40
0.7019010461996
40
0.738467576584221
40
0.775034106968842
40
0.811600637353463
40
0.848167167738084
40
0.884733698122705
40
0.921300228507326
40
0.957866758891947
40
1
40
1
40
1
40
1
41
1
10
18.5984298572549
20
5.94412340062951
30
0
41
1
10
18.6425464401868
20
5.94222394392548
30
0
41
1
10
18.912689397365
20
5.92903615766139
30
0
41
1
10
19.408796264625
20
5.88732969175177
30
0
41
1
10
20.0867977117706
20
5.79060228677022
30
0
41
1
10
20.7649147902004
20
5.65494254771102
30
0
41
1
10
21.3302159607833
20
5.50996914759119
30
0
41
1
10
21.7825838323778
20
5.37548797615668
30
0
41
1
10
22.2350444626249
20
5.22898352144446
30
0
41
1
10
22.6876571185549
20
5.06451830464275
30
0
41
1
10
23.140432976122
20
4.88305142486746
30
0
41
1
10
23.5933250116097
20
4.69060973200536
30
0
41
1
10
24.0463948824659
20
4.48192538563336
30
0
41
1
10
24.4996066402382
20
4.25822239077502
30
0
41
1
10
24.9529047293373
20
4.02492467860156
30
0
41
1
10
25.40631779363
20
3.7776174342217
30
0
41
1
10
25.8598105090154
20
3.51772266674186
30
0
41
1
10
26.3133463230378
20
3.2498965224876
30
0
41
1
10
26.8803304549141
20
2.90086189361369
30
0
41
1
10
27.5607070687215
20
2.46246793879555
30
0
41
1
10
28.241004331947
20
2.00734623415349
30
0
41
1
10
28.9210806970459
20
1.5388742582621
30
0
41
1
10
29.8277780411082
20
0.900218126534895
30
0
41
1
10
30.7357173387742
20
0.246342557666736
30
0
41
1
10
31.6475279829846
20
-0.411364845526293
30
0
41
1
10
32.333878816987
20
-0.903695988556109
30
0
41
1
10
33.02342144522
20
-1.39202899593758
30
0
41
1
10
33.7168033632665
20
-1.87329460789974
30
0
41
1
10
34.4148360929326
20
-2.34447291151261
30
0
41
1
10
35.1180941509083
20
-2.80225885923184
30
0
41
1
10
35.8273552146367
20
-3.24342737520749
30
0
41
1
10
36.5795174429414
20
-3.68584554981425
30
0
41
1
10
37.0988987906571
20
-3.96971457952662
30
0
41
1
10
37.3788618676847
20
-4.11558455096574
30
0
0
SPLINE
5
152
100
AcDbEntity
8
1
62
256
6
ByLayer
370
18
48
1
60
0
100
AcDbSpline
70
4
71
3
72
8
73
4
40
0
40
0
40
0
40
0
40
1
40
1
40
1
40
1
41
1
10
37.5228015154834
20
-2.88996340068348
30
0
41
1
10
37.5508051798962
20
-3.04003610043415
30
0
41
1
10
37.5794379695448
20
-3.19058129692235
30
0
41
1
10
37.6087385187478
20
-3.34162800340386
30
0
0
SPLINE
5
153
100
AcDbEntity
8
1
62
256
6
ByLayer
370
13
48
1
60
0
100
AcDbSpline
70
4
71
3
72
13
73
9
40
0
40
0
40
0
40
0
40
0.26495594066759
40
0.422492674521534
40
0.580029408375477
40
0.73756614222942
40
0.895102876083363
40
1
40
1
40
1
40
1
41
1
10
37.522801516057
20
-2.889963399994
30
0
41
1
10
36.6818676773714
20
-2.42537764547893
30
0
41
1
10
35.3409338386857
20
-1.61069351398862
30
0
41
1
10
33.5000000000001
20
-0.421096599612071
30
0
41
1
10
32.0000000000001
20
0.567427553548754
30
0
41
1
10
30.5000000000001
20
1.53113170212455
30
0
41
1
10
29.1670709067326
20
2.34575044142511
30
0
41
1
10
28.3341418134651
20
2.81778523949737
30
0
41
1
10
28.0012127201976
20
2.99908709437511
30
0
0
SPLINE
5
154
100
AcDbEntity
8
1
62
256
6
ByLayer
370
18
48
1
60
0
100
AcDbSpline
70
4
71
3
72
69
73
65
40
0
40
0
40
0
40
0
40
0.0851444284993336
40
0.0851444284993336
40
0.106430535624167
40
0.106430535624167
40
0.117073589186584
40
0.117073589186584
40
0.127716642749001
40
0.127716642749001
40
0.17028885699867
40
0.17028885699867
40
0.21286107124834
40
0.21286107124834
40
0.255433285498009
40
0.255433285498009
40
0.298005499747678
40
0.298005499747678
40
0.340577713997347
40
0.340577713997347
40
0.383149928247016
40
0.383149928247016
40
0.393792981809434
40
0.393792981809434
40
0.404436035371851
40
0.425722142496686
40
0.425722142496686
40
0.510866570996024
40
0.510866570996024
40
0.553438785245694
40
0.553438785245694
40
0.596010999495364
40
0.596010999495364
40
0.638583213745034
40
0.638583213745034
40
0.659869320869869
40
0.659869320869869
40
0.670512374432287
40
0.670512374432287
40
0.681155427994704
40
0.681155427994704
40
0.723727642244371
40
0.723727642244371
40
0.766299856494038
40
0.766299856494038
40
0.787585963618872
40
0.787585963618872
40
0.808872070743706
40
0.808872070743706
40
0.83015817786854
40
0.83015817786854
40
0.851444284993374
40
0.851444284993374
40
0.894016499243043
40
0.894016499243043
40
0.915302606367878
40
0.915302606367878
40
0.936588713492712
40
0.936588713492712
40
0.957874820617547
40
0.957874820617547
40
0.979160927742382
40
0.979160927742382
40
1
40
1
40
1
40
1
41
1
10
37.6087385187307
20
-3.34162800340246
30
0
41
1
10
37.1145624519265
20
-3.05981495517875
30
0
41
1
10
36.6217757967191
20
-2.76086003337903
30
0
41
1
10
36.0042616394115
20
-2.36981800111522
30
0
41
1
10
35.8806824471246
20
-2.29073631027322
30
0
41
1
10
35.6951342825874
20
-2.17087341534764
30
0
41
1
10
35.6332316723753
20
-2.13069798595222
30
0
41
1
10
35.5095989566633
20
-2.05011285438488
30
0
41
1
10
35.4478433187164
20
-2.00968680010948
30
0
41
1
10
35.1393357079004
20
-1.80693782407181
30
0
41
1
10
34.8933663466786
20
-1.64280313939926
30
0
41
1
10
34.402525592122
20
-1.31149867686145
30
0
41
1
10
34.1576926164445
20
-1.14426901214881
30
0
41
1
10
33.6686741614229
20
-0.807431912573151
30
0
41
1
10
33.4244937390522
20
-0.637820875090341
30
0
41
1
10
32.9361871063432
20
-0.297072647985601
30
0
41
1
10
32.692044515915
20
-0.125956409218276
30
0
41
1
10
32.2029107542223
20
0.216496453451327
30
0
41
1
10
31.9578947897905
20
0.387793882365599
30
0
41
1
10
31.4663056835818
20
0.729602721100662
30
0
41
1
10
31.2197701591082
20
0.90017360918543
30
0
41
1
10
30.9103212746431
20
1.11243950147195
30
0
41
1
10
30.8484100258597
20
1.15481583121061
30
0
41
1
10
30.7247838063344
20
1.23923687573409
30
0
41
1
10
30.5395303064112
20
1.3654444502437
30
0
41
1
10
30.3548053270993
20
1.49034354605539
30
0
41
1
10
29.7400545932311
20
1.90353025785481
30
0
41
1
10
29.2514846148918
20
2.2240591841497
30
0
41
1
10
28.5196173086599
20
2.68446277642715
30
0
41
1
10
28.2757836526464
20
2.83452545100883
30
0
41
1
10
27.7875749570994
20
3.12704539477232
30
0
41
1
10
27.5432316695994
20
3.26948753776171
30
0
41
1
10
27.0534900187526
20
3.54585075939423
30
0
41
1
10
26.8080792353556
20
3.67981683549573
30
0
41
1
10
26.4387199742853
20
3.87384297466016
30
0
41
1
10
26.3153953329235
20
3.93735836272131
30
0
41
1
10
26.1300435913525
20
4.03077776532029
30
0
41
1
10
26.0681709031809
20
4.06162215738669
30
0
41
1
10
25.944420860887
20
4.12262103473773
30
0
41
1
10
25.8825764441078
20
4.15275980028485
30
0
41
1
10
25.573462802549
20
4.30166010028822
30
0
41
1
10
25.3265396380082
20
4.41502652198983
30
0
41
1
10
24.8329576950177
20
4.62948074027648
30
0
41
1
10
24.5863217103288
20
4.73049283655178
30
0
41
1
10
24.2159553468434
20
4.87261732319638
30
0
41
1
10
24.0924400608301
20
4.91841601331313
30
0
41
1
10
23.8452348562192
20
5.00674940421573
30
0
41
1
10
23.7215019692646
20
5.04929968311822
30
0
41
1
10
23.47397631871
20
5.13096244042501
30
0
41
1
10
23.35036947909
20
5.17000112578921
30
0
41
1
10
23.1033379374085
20
5.24456044179098
30
0
41
1
10
22.9799043931366
20
5.28010453326809
30
0
41
1
10
22.6097640137116
20
5.38141003775499
30
0
41
1
10
22.3632302847893
20
5.44181783668537
30
0
41
1
10
21.9932867340894
20
5.52122728693496
30
0
41
1
10
21.8699458961656
20
5.54583029642382
30
0
41
1
10
21.6230672294677
20
5.59141999815944
30
0
41
1
10
21.4995332078432
20
5.61239575343555
30
0
41
1
10
21.2522110981524
20
5.65057194304771
30
0
41
1
10
21.1283961205586
20
5.66777866695458
30
0
41
1
10
20.8811369300444
20
5.69829499277563
30
0
41
1
10
20.757607569364
20
5.71161657692428
30
0
41
1
10
20.5132599468487
20
5.73414262436481
30
0
41
1
10
20.3924361228306
20
5.74343473896343
30
0
41
1
10
20.2716240137806
20
5.75088583480149
30
0
0
SPLINE
5
155
100
AcDbEntity
8
1
62
256
6
ByLayer
370
18
48
1
60
0
100
AcDbSpline
70
4
71
3
72
8
73
4
40
0
40
0
40
0
40
0
40
1
40
1
40
1
40
1
41
1
10
37.6776079884312
20
-5.32163696555466
30
0
41
1
10
37.6518763104173
20
-5.34325649245383
30
0
41
1
10
37.6261796495614
20
-5.36433053423164
30
0
41
1
10
37.600517955297
20
-5.38485987859224
30
0
0
SPLINE
5
156
100
AcDbEntity
8
1
62
256
6
ByLayer
370
18
48
1
60
0
100
AcDbSpline
70
4
71
3
72
8
73
4
40
0
40
0
40
0
40
0
40
1
40
1
40
1
40
1
41
1
10
14.0000000000001
20
5.0879597163827
30
0
41
1
10
13.8337204766652
20
5.13903865126676
30
0
41
1
10
13.6683662419915
20
5.18809142339404
30
0
41
1
10
13.5040139801597
20
5.23495011259189
30
0
0
SPLINE
5
157
100
AcDbEntity
8
1
62
256
6
ByLayer
370
18
48
1
60
0
100
AcDbSpline
70
4
71
3
72
8
73
4
40
0
40
0
40
0
40
0
40
1
40
1
40
1
40
1
41
1
10
37.513757274741
20
-5.13518691864286
30
0
41
1
10
37.5419816059882
20
-5.22028382418554
30
0
41
1
10
37.5708863680725
20
-5.30354975571058
30
0
41
1
10
37.6005179552975
20
-5.38485987858428
30
0
0
SPLINE
5
158
100
AcDbEntity
8
1
62
256
6
ByLayer
370
13
48
1
60
0
100
AcDbSpline
70
4
71
3
72
21
73
17
40
0
40
0
40
0
40
0
40
0.0523876116135326
40
0.129902633529064
40
0.207417655444596
40
0.284932677360127
40
0.362447699275659
40
0.43996272119119
40
0.517477743106722
40
0.594992765022253
40
0.672507786937785
40
0.750022808853317
40
0.827537830768848
40
0.90505285268438
40
0.982567874599911
40
1
40
1
40
1
40
1
41
1
10
37.5137572754084
20
-5.13518691904576
30
0
41
1
10
37.1758381836056
20
-5.20765112918312
30
0
41
1
10
36.3379190918029
20
-5.35153571073121
30
0
41
1
10
35.0000000000001
20
-5.43496318449286
30
0
41
1
10
33.5000000000001
20
-5.33072870007501
30
0
41
1
10
32.0000000000001
20
-5.02694923840821
30
0
41
1
10
30.5000000000001
20
-4.54259157896934
30
0
41
1
10
29.0000000000001
20
-3.89173721722727
30
0
41
1
10
27.5000000000001
20
-3.09523259465823
30
0
41
1
10
26.0000000000001
20
-2.18537518315199
30
0
41
1
10
24.5000000000001
20
-1.19819993536714
30
0
41
1
10
23.0000000000001
20
-0.164315947266317
30
0
41
1
10
21.5000000000001
20
0.873590960095413
30
0
41
1
10
20.0000000000001
20
1.88066459380889
30
0
41
1
10
18.8875564698991
20
2.5764626071736
30
0
41
1
10
18.275112939798
20
2.93334317405794
30
0
41
1
10
18.1626694096969
20
2.99792991823813
30
0
0
SPLINE
5
159
100
AcDbEntity
8
1
62
256
6
ByLayer
370
18
48
1
60
0
100
AcDbSpline
70
4
71
3
72
100
73
96
40
0
40
0
40
0
40
0
40
0.0312499999999982
40
0.0312499999999982
40
0.0624999999999963
40
0.0624999999999963
40
0.0781249999999954
40
0.0781249999999954
40
0.0859374999999949
40
0.0859374999999949
40
0.0937499999999945
40
0.109374999999994
40
0.109374999999994
40
0.124999999999993
40
0.124999999999993
40
0.156249999999992
40
0.156249999999992
40
0.171874999999992
40
0.171874999999992
40
0.187499999999992
40
0.187499999999992
40
0.218749999999992
40
0.218749999999992
40
0.234374999999992
40
0.234374999999992
40
0.249999999999992
40
0.249999999999992
40
0.265624999999992
40
0.265624999999992
40
0.273437499999992
40
0.273437499999992
40
0.281249999999991
40
0.281249999999991
40
0.312499999999992
40
0.312499999999992
40
0.343749999999992
40
0.343749999999992
40
0.374999999999993
40
0.374999999999993
40
0.406249999999993
40
0.406249999999993
40
0.421874999999993
40
0.421874999999993
40
0.437499999999994
40
0.437499999999994
40
0.453124999999994
40
0.453124999999994
40
0.460937499999995
40
0.460937499999995
40
0.468749999999995
40
0.484374999999995
40
0.484374999999995
40
0.499999999999995
40
0.499999999999995
40
0.531249999999996
40
0.531249999999996
40
0.562499999999996
40
0.562499999999996
40
0.593749999999997
40
0.593749999999997
40
0.609374999999996
40
0.609374999999996
40
0.624999999999996
40
0.624999999999996
40
0.640624999999995
40
0.640624999999995
40
0.648437499999995
40
0.648437499999995
40
0.656249999999994
40
0.671874999999994
40
0.671874999999994
40
0.687499999999993
40
0.687499999999993
40
0.718749999999992
40
0.718749999999992
40
0.749999999999992
40
0.749999999999992
40
0.781249999999991
40
0.781249999999991
40
0.81249999999999
40
0.81249999999999
40
0.82812499999999
40
0.83593749999999
40
0.83593749999999
40
0.843749999999989
40
0.843749999999989
40
0.874999999999991
40
0.874999999999991
40
0.906249999999994
40
0.906249999999994
40
0.937499999999996
40
0.937499999999996
40
0.968749999999998
40
0.968749999999998
40
1
40
1
40
1
40
1
41
1
10
37.6005179552812
20
-5.38485987859505
30
0
41
1
10
37.3530779147203
20
-5.45075476783916
30
0
41
1
10
37.1058895132945
20
-5.50839262118367
30
0
41
1
10
36.6116354037417
20
-5.60713746032951
30
0
41
1
10
36.3646176164131
20
-5.6482647076667
30
0
41
1
10
35.9936847773213
20
-5.69725072002066
30
0
41
1
10
35.8699614685171
20
-5.7114556068768
30
0
41
1
10
35.6841470240877
20
-5.72952045541655
30
0
41
1
10
35.6222038083116
20
-5.73499850285407
30
0
41
1
10
35.4985077716769
20
-5.74485486571848
30
0
41
1
10
35.3131531139724
20
-5.75799915435852
30
0
41
1
10
35.1282692372765
20
-5.766269955681
30
0
41
1
10
34.8820120248141
20
-5.77304656017134
30
0
41
1
10
34.759011088582
20
-5.77430824920486
30
0
41
1
10
34.3903848006003
20
-5.77173433819871
30
0
41
1
10
34.1451502902968
20
-5.76151270938891
30
0
41
1
10
33.7779311718795
20
-5.73353815976145
30
0
41
1
10
33.6556277817973
20
-5.72211072973701
30
0
41
1
10
33.4111988758972
20
-5.69503652399089
30
0
41
1
10
33.2890796675231
20
-5.67938274543508
30
0
41
1
10
32.9227589884503
20
-5.62607696746483
30
0
41
1
10
32.6785957253161
20
-5.58205474937486
30
0
41
1
10
32.3113609765039
20
-5.50362370537576
30
0
41
1
10
32.1887838220367
20
-5.4754196873925
30
0
41
1
10
31.9431288140461
20
-5.41494509722909
30
0
41
1
10
31.8200439139971
20
-5.38267927396305
30
0
41
1
10
31.5733087123829
20
-5.31405171133113
30
0
41
1
10
31.4496610863381
20
-5.27768070866293
30
0
41
1
10
31.2637224146825
20
-5.22006292466764
30
0
41
1
10
31.20165359267
20
-5.20034274927352
30
0
41
1
10
31.0777396314778
20
-5.16001809271668
30
0
41
1
10
31.0158463327193
20
-5.13939901007401
30
0
41
1
10
30.7066729254125
20
-5.03406324696596
30
0
41
1
10
30.4602800550024
20
-4.94263351952927
30
0
41
1
10
29.9688812873567
20
-4.74591344433239
30
0
41
1
10
29.7238608990098
20
-4.64063246857339
30
0
41
1
10
29.2344813322211
20
-4.41672495692544
30
0
41
1
10
28.9901306419302
20
-4.29806545927821
30
0
41
1
10
28.5013077890223
20
-4.04795854112268
30
0
41
1
10
28.2567558218102
20
-3.91681338229702
30
0
41
1
10
27.8891430009376
20
-3.7113886613825
30
0
41
1
10
27.7664775273166
20
-3.64144818569335
30
0
41
1
10
27.5207966706282
20
-3.4986554025069
30
0
41
1
10
27.3977841124658
20
-3.42578346836652
30
0
41
1
10
27.151280111492
20
-3.27731271179891
30
0
41
1
10
27.0277850982213
20
-3.20173842541243
30
0
41
1
10
26.8421061685147
20
-3.08640859198158
30
0
41
1
10
26.780093074168
20
-3.04760614607628
30
0
41
1
10
26.6562363423545
20
-2.96954924252034
30
0
41
1
10
26.4706580712212
20
-2.85175802528232
30
0
41
1
10
26.2856635581855
20
-2.73188681731421
30
0
41
1
10
26.0394345033861
20
-2.57031863813859
30
0
41
1
10
25.9165299448598
20
-2.48867279009741
30
0
41
1
10
25.5481947394483
20
-2.24157462426302
30
0
41
1
10
25.3031857501577
20
-2.07388875823142
30
0
41
1
10
24.8138250086942
20
-1.73306039339337
30
0
41
1
10
24.5695025623701
20
-1.55984287637509
30
0
41
1
10
24.0805626132463
20
-1.20938873454534
30
0
41
1
10
23.8359922301586
20
-1.03205582883655
30
0
41
1
10
23.4684587913737
20
-0.763473100883573
30
0
41
1
10
23.3458372335706
20
-0.67350513870332
30
0
41
1
10
23.1002241954845
20
-0.492927995818889
30
0
41
1
10
22.9772240916132
20
-0.402341714095456
30
0
41
1
10
22.7307481808709
20
-0.220672507013944
30
0
41
1
10
22.6072773295753
20
-0.129578353275008
30
0
41
1
10
22.4216602747827
20
0.0073866881733977
30
0
41
1
10
22.3596968963374
20
0.053112041650536
30
0
41
1
10
22.2357183909462
20
0.14458727947752
30
0
41
1
10
22.0499765417708
20
0.281613859713985
30
0
41
1
10
21.8648678987805
20
0.418017111329306
30
0
41
1
10
21.6184389756609
20
0.599164851108441
30
0
41
1
10
21.4954234666707
20
0.689383344313029
30
0
41
1
10
21.1269295373814
20
0.958856350040918
30
0
41
1
10
20.8819774919046
20
1.13691061504218
30
0
41
1
10
20.3926904264643
20
1.48879996031812
30
0
41
1
10
20.1483789137483
20
1.66263972465467
30
0
41
1
10
19.6594828752228
20
2.00503190580724
30
0
41
1
10
19.4149385218331
20
2.17361043915958
30
0
41
1
10
18.9249459660096
20
2.50450728113984
30
0
41
1
10
18.6794818755503
20
2.66681899559208
30
0
41
1
10
18.3099145346632
20
2.90472067423539
30
0
41
1
10
18.1247910788458
20
3.0222835250739
30
0
41
1
10
17.9390620293455
20
3.13762919540989
30
0
41
1
10
17.8150974759325
20
3.21401646818984
30
0
41
1
10
17.7531068329294
20
3.25191528920601
30
0
41
1
10
17.4436155926097
20
3.43958324510916
30
0
41
1
10
17.1969533430612
20
3.58421899675241
30
0
41
1
10
16.7047392246502
20
3.86192201031346
30
0
41
1
10
16.4591977625846
20
3.99498084264138
30
0
41
1
10
15.9685114959494
20
4.24875906231915
30
0
41
1
10
15.72330975556
20
4.36957010203659
30
0
41
1
10
15.2325678990932
20
4.59801836415807
30
0
41
1
10
14.986984506633
20
4.70571925751762
30
0
41
1
10
14.4945749174209
20
4.90742681883558
30
0
41
1
10
14.2477730658771
20
5.00137855133949
30
0
41
1
10
14.0000000000001
20
5.0879597163827
30
0
0
SPLINE
5
15A
100
AcDbEntity
8
1
62
256
6
ByLayer
370
18
48
1
60
0
100
AcDbSpline
70
4
71
3
72
8
73
4
40
0
40
0
40
0
40
0
40
1
40
1
40
1
40
1
41
1
10
19.0688763060933
20
1.01464873630138
30
0
41
1
10
19.0560077352956
20
1.02368973464121
30
0
41
1
10
19.0431391644979
20
1.0327266412805
30
0
41
1
10
19.0302705937003
20
1.04175934699322
30
0
0
SPLINE
5
15B
100
AcDbEntity
8
1
62
256
6
ByLayer
370
13
48
1
60
0
100
AcDbSpline
70
4
71
3
72
10
73
6
40
0
40
0
40
0
40
0
40
0.10541591825146
40
0.40361061216764
40
1
40
1
40
1
40
1
41
1
10
19.0302705936867
20
1.04175934700271
30
0
41
1
10
18.8535137291244
20
1.16582850475103
30
0
41
1
10
18.1767568645622
20
1.63782306030978
30
0
41
1
10
16.4999999999999
20
2.7681866569003
30
0
41
1
10
15
20
3.64422950482401
30
0
41
1
10
14
20
4.12606281434375
30
0
0
SPLINE
5
15C
100
AcDbEntity
8
1
62
256
6
ByLayer
370
18
48
1
60
0
100
AcDbSpline
70
4
71
3
72
8
73
4
40
0
40
0
40
0
40
0
40
1
40
1
40
1
40
1
41
1
10
37.4447702483388
20
-4.51170821501529
30
0
41
1
10
37.4465223643456
20
-4.52149613449441
30
0
41
1
10
37.4482740099294
20
-4.53127743667187
30
0
41
1
10
37.4500251835014
20
-4.5410521154829
30
0
0
SPLINE
5
15D
100
AcDbEntity
8
1
62
256
6
ByLayer
370
13
48
1
60
0
100
AcDbSpline
70
4
71
3
72
16
73
12
40
0
40
0
40
0
40
0
40
0.0951888839485615
40
0.195723452398721
40
0.296258020848881
40
0.396792589299041
40
0.497327157749201
40
0.597861726199361
40
0.69839629464952
40
0.79893086309968
40
1
40
1
40
1
40
1
41
1
10
28.9202410984001
20
1.04085703539172
30
0
41
1
10
28.4468273989334
20
1.35567648162143
30
0
41
1
10
27.4734136994667
20
1.99267002296577
30
0
41
1
10
26
20
2.89433313932724
30
0
41
1
10
24.5
20
3.71274410705308
30
0
41
1
10
23
20
4.41074182248852
30
0
41
1
10
21.5
20
4.96762353202712
30
0
41
1
10
20
20
5.36225645003745
30
0
41
1
10
18.5
20
5.57285043834276
30
0
41
1
10
16.5
20
5.61149127680846
30
0
41
1
10
15
20
5.3713223571433
30
0
41
1
10
14
20
5.09351318721261
30
0
0
SPLINE
5
15E
100
AcDbEntity
8
1
62
256
6
ByLayer
370
18
48
1
60
0
100
AcDbSpline
70
4
71
3
72
8
73
4
40
0
40
0
40
0
40
0
40
1
40
1
40
1
40
1
41
1
10
37.5926230851386
20
-4.60804520187401
30
0
41
1
10
37.594704102964
20
-4.60814434495762
30
0
41
1
10
37.5967851270543
20
-4.60824381113312
30
0
41
1
10
37.5988661571412
20
-4.60834360040369
30
0
0
SPLINE
5
15F
100
AcDbEntity
8
1
62
256
6
ByLayer
370
18
48
1
60
0
100
AcDbSpline
70
4
71
3
72
16
73
12
40
0
40
0
40
0
40
0
40
0.250000000000059
40
0.250000000000059
40
0.500000000000118
40
0.500000000000118
40
0.750000000000177
40
0.750000000000177
40
0.875000000000088
40
0.875000000000088
40
1
40
1
40
1
40
1
41
1
10
37.5988661571412
20
-4.6083436004038
30
0
41
1
10
37.5914790103589
20
-4.60175335016515
30
0
41
1
10
37.5838170872739
20
-4.59529113239901
30
0
41
1
10
37.5676871041985
20
-4.58275775725045
30
0
41
1
10
37.5591916200461
20
-4.57666112846314
30
0
41
1
10
37.5411419123608
20
-4.56529358745593
30
0
41
1
10
37.531604507745
20
-4.55999269689187
30
0
41
1
10
37.5157782273227
20
-4.55320891149006
30
0
41
1
10
37.5102551154234
20
-4.55116050783863
30
0
41
1
10
37.4988324559936
20
-4.54780300718278
30
0
41
1
10
37.4929021158509
20
-4.54647318007628
30
0
41
1
10
37.4866354115645
20
-4.54568396364675
30
0
0
SPLINE
5
160
100
AcDbEntity
8
1
62
256
6
ByLayer
370
18
48
1
60
0
100
AcDbSpline
70
4
71
3
72
8
73
4
40
0
40
0
40
0
40
0
40
1
40
1
40
1
40
1
41
1
10
37.3792516813629
20
2.89096718467991
30
0
41
1
10
37.401134673919
20
2.74221835339114
30
0
41
1
10
37.4229763475678
20
2.59280252426999
30
0
41
1
10
37.4447750451422
20
2.44273570138529
30
0
0
SPLINE
5
161
100
AcDbEntity
8
1
62
256
6
ByLayer
370
18
48
1
60
0
100
AcDbSpline
70
4
71
3
72
8
73
4
40
0
40
0
40
0
40
0
40
1
40
1
40
1
40
1
41
1
10
37.5659756250403
20
2.32971597930799
30
0
41
1
10
37.5727433258598
20
2.32913970518706
30
0
41
1
10
37.5795110828567
20
2.32856512272053
30
0
41
1
10
37.5862788888928
20
2.32799223291019
30
0
0
SPLINE
5
162
100
AcDbEntity
8
1
62
256
6
ByLayer
370
18
48
1
60
0
100
AcDbSpline
70
4
71
3
72
12
73
8
40
0
40
0
40
0
40
0
40
0.258085806511844
40
0.258085806511844
40
0.516171641778568
40
0.516171641778568
40
1
40
1
40
1
40
1
41
1
10
37.4866254234634
20
2.3972546674762
30
0
41
1
10
37.4835286854167
20
2.39772784540241
30
0
41
1
10
37.480431145531
20
2.39819678827058
30
0
41
1
10
37.4742344711274
20
2.39912598583214
30
0
41
1
10
37.4711353282539
20
2.39958624178652
30
0
41
1
10
37.4622240082677
20
2.40089651845022
30
0
41
1
10
37.456409773885
20
2.40173534553821
30
0
41
1
10
37.4505927302543
20
2.40255774334349
30
0
0
SPLINE
5
163
100
AcDbEntity
8
1
62
256
6
ByLayer
370
18
48
1
60
0
100
AcDbSpline
70
4
71
3
72
30
73
26
40
0
40
0
40
0
40
0
40
0.249999999999986
40
0.249999999999986
40
0.374999999999978
40
0.374999999999978
40
0.49999999999997
40
0.49999999999997
40
0.624999999999962
40
0.624999999999962
40
0.749999999999954
40
0.749999999999954
40
0.781249999999957
40
0.781249999999957
40
0.81249999999996
40
0.81249999999996
40
0.874999999999981
40
0.874999999999981
40
0.906249999999985
40
0.906249999999985
40
0.93749999999999
40
0.93749999999999
40
0.968749999999995
40
0.968749999999995
40
1
40
1
40
1
40
1
41
1
10
37.6770448288219
20
3.38787507890242
30
0
41
1
10
37.6980888904448
20
3.33418660276826
30
0
41
1
10
37.718977713684
20
3.28005098135159
30
0
41
1
10
37.7499630545716
20
3.19784548296008
30
0
41
1
10
37.7602327842183
20
3.17027452207711
30
0
41
1
10
37.7806183037472
20
3.11468919554341
30
0
41
1
10
37.7907544821001
20
3.08662126243772
30
0
41
1
10
37.8106704341328
20
3.03025420870145
30
0
41
1
10
37.820474073184
20
3.00189790590591
30
0
41
1
10
37.8394860200098
20
2.944968909648
30
0
41
1
10
37.8486278088929
20
2.9166270157624
30
0
41
1
10
37.8592382483843
20
2.88147462640063
30
0
41
1
10
37.8613179755405
20
2.87445840945009
30
0
41
1
10
37.8653747647282
20
2.86046053819058
30
0
41
1
10
37.8673586496477
20
2.85345415610439
30
0
41
1
10
37.8730654502269
20
2.83269461409847
30
0
41
1
10
37.8765384065733
20
2.81924582303756
30
0
41
1
10
37.8809953162933
20
2.79995980392019
30
0
41
1
10
37.8823423083051
20
2.79372258993868
30
0
41
1
10
37.8846548930895
20
2.78196077826294
30
0
41
1
10
37.8856291959014
20
2.77639954026074
30
0
41
1
10
37.8871568871225
20
2.76601640766299
30
0
41
1
10
37.8877124334076
20
2.76115305519843
30
0
41
1
10
37.8883148993738
20
2.75252811078806
30
0
41
1
10
37.8883661697805
20
2.74876960957502
30
0
41
1
10
37.8881668217917
20
2.74556653279066
30
0
0
SPLINE
5
164
100
AcDbEntity
8
1
62
256
6
ByLayer
370
13
48
1
60
0
100
AcDbSpline
70
4
71
3
72
8
73
4
40
0
40
0
40
0
40
0
40
1
40
1
40
1
40
1
41
1
10
37.4866254234634
20
2.3972546674762
30
0
41
1
10
37.4611707307877
20
2.5696015138839
30
0
41
1
10
37.435716038112
20
2.74194836029162
30
0
41
1
10
37.4102613454364
20
2.91429520669931
30
0
0
SPLINE
5
165
100
AcDbEntity
8
1
62
256
6
ByLayer
370
18
48
1
60
0
100
AcDbSpline
70
4
71
3
72
14
73
10
40
0
40
0
40
0
40
0
40
0.25
40
0.25
40
0.5
40
0.5
40
0.75
40
0.75
40
1
40
1
40
1
40
1
41
1
10
37.586278888893
20
2.32799223291033
30
0
41
1
10
37.5795977610267
20
2.33558842826093
30
0
41
1
10
37.5726481032326
20
2.34300553377901
30
0
41
1
10
37.5580698024343
20
2.35722016095102
30
0
41
1
10
37.5504145982775
20
2.36404923249805
30
0
41
1
10
37.5342029888873
20
2.3766109348575
30
0
41
1
10
37.5256674995243
20
2.38236178705702
30
0
41
1
10
37.5070269213531
20
2.39194157134199
30
0
41
1
10
37.4972335817711
20
2.39563375338096
30
0
41
1
10
37.4866254234634
20
2.3972546674762
30
0
0
SPLINE
5
166
100
AcDbEntity
8
1
62
256
6
ByLayer
370
18
48
1
60
0
100
AcDbSpline
70
4
71
3
72
30
73
26
40
0
40
0
40
0
40
0
40
0.125000000000003
40
0.125000000000003
40
0.187500000000003
40
0.187500000000003
40
0.250000000000002
40
0.250000000000002
40
0.375000000000002
40
0.375000000000002
40
0.437500000000001
40
0.437500000000001
40
0.499999999999999
40
0.499999999999999
40
0.624999999999998
40
0.624999999999998
40
0.687499999999999
40
0.687499999999999
40
0.749999999999999
40
0.749999999999999
40
0.875
40
0.875
40
0.9375
40
0.9375
40
1
40
1
40
1
40
1
41
1
10
37.9865236260633
20
2.07961918646151
30
0
41
1
10
37.9873117509827
20
2.09208396116762
30
0
41
1
10
37.9855010557353
20
2.10459689274808
30
0
41
1
10
37.9790775873436
20
2.1234349897145
30
0
41
1
10
37.976317971213
20
2.12972581560501
30
0
41
1
10
37.9695559378249
20
2.142330496835
30
0
41
1
10
37.9655418476013
20
2.1486574713542
30
0
41
1
10
37.9516252743821
20
2.16759041138639
30
0
41
1
10
37.9400590143135
20
2.17989195061068
30
0
41
1
10
37.9194296037261
20
2.19788502138673
30
0
41
1
10
37.9120045253107
20
2.20380590060844
30
0
41
1
10
37.896039652963
20
2.21549158691928
30
0
41
1
10
37.887465434297
20
2.22127670461404
30
0
41
1
10
37.8602302250705
20
2.23824518015516
30
0
41
1
10
37.8403121935402
20
2.24890576285327
30
0
41
1
10
37.8078752503896
20
2.26394935779135
30
0
41
1
10
37.7966352794206
20
2.26880563684733
30
0
41
1
10
37.7732797194127
20
2.27819417603342
30
0
41
1
10
37.7611068494048
20
2.28274508783826
30
0
41
1
10
37.7236253138321
20
2.2957460077248
30
0
41
1
10
37.6975909494209
20
2.30348236346941
30
0
41
1
10
37.6570069346407
20
2.31372390189571
30
0
41
1
10
37.6432229637493
20
2.31691008890138
30
0
41
1
10
37.6151278399051
20
2.32281358099309
30
0
41
1
10
37.6007539678653
20
2.32554058165809
30
0
41
1
10
37.5862788888927
20
2.32799223291025
30
0
0
SPLINE
5
167
100
AcDbEntity
8
1
62
256
6
ByLayer
370
18
48
1
60
0
100
AcDbSpline
70
4
71
3
72
31
73
27
40
0
40
0
40
0
40
0
40
0.203977567931333
40
0.203977567931333
40
0.254971959914168
40
0.254971959914168
40
0.280469155905587
40
0.280469155905587
40
0.305966351897006
40
0.305966351897006
40
0.407955135862687
40
0.407955135862687
40
0.509943919828367
40
0.509943919828367
40
0.611932703794048
40
0.611932703794048
40
0.713921487759729
40
0.713921487759729
40
0.815910271725409
40
0.815910271725409
40
0.91789905569109
40
0.91789905569109
40
0.943396251682512
40
0.943396251682512
40
0.968893447673934
40
1
40
1
40
1
40
1
41
1
10
37.6161875483049
20
3.51008268129681
30
0
41
1
10
37.1223453997771
20
3.76928456519107
30
0
41
1
10
36.629672555969
20
4.0111661446017
30
0
41
1
10
36.0126146095634
20
4.28878722134201
30
0
41
1
10
35.8891423828828
20
4.34306855646579
30
0
41
1
10
35.703789306036
20
4.42255391263532
30
0
41
1
10
35.6419538675209
20
4.44873773191111
30
0
41
1
10
35.5183717096258
20
4.50038970036044
30
0
41
1
10
35.4566324374392
20
4.52585509995816
30
0
41
1
10
35.1481673952049
20
4.65137029766547
30
0
41
1
10
34.9021111907539
20
4.74598762669279
30
0
41
1
10
34.4109473642993
20
4.92336739290181
30
0
41
1
10
34.1658700235276
20
5.00612116168776
30
0
41
1
10
33.6763144429631
20
5.1595784884893
30
0
41
1
10
33.4318463104059
20
5.23030021106803
30
0
41
1
10
32.9430084002421
20
5.35937295218574
30
0
41
1
10
32.698618631994
20
5.41771005817245
30
0
41
1
10
32.2091920315489
20
5.52153155600826
30
0
41
1
10
31.964137152366
20
5.56701726471687
30
0
41
1
10
31.472776920256
20
5.64465590143118
30
0
41
1
10
31.2265015703021
20
5.67679741813475
30
0
41
1
10
30.9176205101102
20
5.70865872765756
30
0
41
1
10
30.8557653132104
20
5.71461721429858
30
0
41
1
10
30.7320948595412
20
5.7256815067249
30
0
41
1
10
30.5948834665398
20
5.73701568022381
30
0
41
1
10
30.4577989831293
20
5.74624425575641
30
0
41
1
10
30.3824961488475
20
5.75067810057845
30
0
0
SPLINE
5
168
100
AcDbEntity
8
1
62
256
6
ByLayer
370
18
48
1
60
0
100
AcDbSpline
70
4
71
3
72
8
73
4
40
0
40
0
40
0
40
0
40
1
40
1
40
1
40
1
41
1
10
37.3710411532407
20
2.93763277444674
30
0
41
1
10
37.3737781574683
20
2.92209056546179
30
0
41
1
10
37.3765150012579
20
2.90653535610187
30
0
41
1
10
37.3792516781008
20
2.89096718515106
30
0
0
SPLINE
5
169
100
AcDbEntity
8
1
62
256
6
ByLayer
370
18
48
1
60
0
100
AcDbSpline
70
4
71
3
72
12
73
8
40
0
40
0
40
0
40
0
40
0.396140531582338
40
0.396140531582338
40
0.698069076245766
40
0.698069076245766
40
1
40
1
40
1
40
1
41
1
10
37.3710411532406
20
2.93763277444677
30
0
41
1
10
37.3762362107208
20
2.93457123945544
30
0
41
1
10
37.3814250087237
20
2.93150184184319
30
0
41
1
10
37.3905572456508
20
2.92607895462766
30
0
41
1
10
37.3945033895599
20
2.92372880574749
30
0
41
1
10
37.402388092575
20
2.91901909531464
30
0
41
1
10
37.4063266594081
20
2.91665952903594
30
0
41
1
10
37.4102613454363
20
2.91429520669931
30
0
0
SPLINE
5
16A
100
AcDbEntity
8
1
62
256
6
ByLayer
370
18
48
1
60
0
100
AcDbSpline
70
4
71
3
72
40
73
36
40
0
40
0
40
0
40
0
40
0.0312500000000781
40
0.0312500000000781
40
0.0468750000000954
40
0.0468750000000954
40
0.0625000000001126
40
0.0625000000001126
40
0.0781250000001299
40
0.0781250000001299
40
0.0937500000001472
40
0.0937500000001472
40
0.109375000000164
40
0.109375000000164
40
0.125000000000182
40
0.125000000000182
40
0.156250000000173
40
0.156250000000173
40
0.187500000000164
40
0.187500000000164
40
0.218750000000155
40
0.218750000000155
40
0.250000000000146
40
0.250000000000146
40
0.312500000000128
40
0.312500000000128
40
0.375000000000109
40
0.375000000000109
40
0.500000000000087
40
0.500000000000087
40
0.625000000000065
40
0.625000000000065
40
0.750000000000043
40
0.750000000000043
40
1
40
1
40
1
40
1
41
1
10
37.4102613454364
20
2.91429520669931
30
0
41
1
10
37.4175740825139
20
2.9099010396705
30
0
41
1
10
37.4251235373265
20
2.90583450607355
30
0
41
1
10
37.4369540837402
20
2.9004408377844
30
0
41
1
10
37.4409828028736
20
2.89876178613056
30
0
41
1
10
37.4492517084568
20
2.89569964379396
30
0
41
1
10
37.4535070990292
20
2.89431488079572
30
0
41
1
10
37.4620492862529
20
2.89197953490512
30
0
41
1
10
37.4663593168529
20
2.89101894610499
30
0
41
1
10
37.4750698036582
20
2.88957811593309
30
0
41
1
10
37.4795136422809
20
2.88909804882522
30
0
41
1
10
37.4882221347823
20
2.88870693827056
30
0
41
1
10
37.4924965022556
20
2.88878847715972
30
0
41
1
10
37.500887987678
20
2.88950034618603
30
0
41
1
10
37.5050296179343
20
2.89013649601219
30
0
41
1
10
37.5170540296096
20
2.89282109112119
30
0
41
1
10
37.5243796545434
20
2.89559098942726
30
0
41
1
10
37.5378460681146
20
2.9024861331192
30
0
41
1
10
37.5438312366745
20
2.90651490742616
30
0
41
1
10
37.5548267700636
20
2.91533530180681
30
0
41
1
10
37.5598557484089
20
2.92016189674609
30
0
41
1
10
37.5690646403252
20
2.93021353965011
30
0
41
1
10
37.5732431053699
20
2.93542842643618
30
0
41
1
10
37.584880046683
20
2.95147438947845
30
0
41
1
10
37.5914564353827
20
2.962699602475
30
0
41
1
10
37.6032158741814
20
2.98577827646395
30
0
41
1
10
37.6083918535844
20
2.997666558915
30
0
41
1
10
37.6223982765284
20
3.03379458856097
30
0
41
1
10
37.6297098425871
20
3.05833571473912
30
0
41
1
10
37.6422107565476
20
3.1078953931258
30
0
41
1
10
37.647353559209
20
3.13292397339288
30
0
41
1
10
37.6562197411122
20
3.1832932013414
30
0
41
1
10
37.6599324314943
20
3.2086362292514
30
0
41
1
10
37.669533019504
20
3.28499028395507
30
0
41
1
10
37.6739093420836
20
3.33632064665517
30
0
41
1
10
37.677044828823
20
3.38787507890177
30
0
0
SPLINE
5
16B
100
AcDbEntity
8
1
62
256
6
ByLayer
370
18
48
1
60
0
100
AcDbSpline
70
4
71
3
72
8
73
4
40
0
40
0
40
0
40
0
40
1
40
1
40
1
40
1
41
1
10
37.6770448288222
20
3.38787507890189
30
0
41
1
10
37.6567391090541
20
3.42881423596842
30
0
41
1
10
37.6364533587081
20
3.46955000335075
30
0
41
1
10
37.6161875483048
20
3.51008268129681
30
0
0
SPLINE
5
16C
100
AcDbEntity
8
1
62
256
6
ByLayer
370
18
48
1
60
0
100
AcDbSpline
70
4
71
3
72
18
73
14
40
0
40
0
40
0
40
0
40
0.0309088263986654
40
0.110722230427185
40
0.270349038484224
40
0.350162442512743
40
0.429975846541263
40
0.589602654598302
40
0.669416058626821
40
0.749229462655341
40
0.82904286668386
40
0.90885627071238
40
1
40
1
40
1
40
1
41
1
10
28.684697855497
20
5.9410244450298
30
0
41
1
10
28.7726774156852
20
5.93696611925492
30
0
41
1
10
29.0878330372901
20
5.91917942394025
30
0
41
1
10
29.85733578921
20
5.84722789440278
30
0
41
1
10
30.7670853173894
20
5.6905971543699
30
0
41
1
10
31.6799832534453
20
5.46442766596562
30
0
41
1
10
32.5955643437708
20
5.19232738624189
30
0
41
1
10
33.5162494095602
20
4.85329311240852
30
0
41
1
10
34.4443202765183
20
4.45121832431357
30
0
41
1
10
35.1445387089112
20
4.11926073618008
30
0
41
1
10
35.8495271973056
20
3.75830481731626
30
0
41
1
10
36.5933553586614
20
3.35144965388906
30
0
41
1
10
37.1050039732573
20
3.05445940594339
30
0
41
1
10
37.3792516770351
20
2.89096718950037
30
0
0
SPLINE
5
16D
100
AcDbEntity
8
1
62
256
6
ByLayer
370
18
48
1
60
0
100
AcDbSpline
70
4
71
3
72
32
73
28
40
0
40
0
40
0
40
0
40
0.250000000000021
40
0.250000000000021
40
0.375000000000032
40
0.375000000000032
40
0.500000000000044
40
0.500000000000044
40
0.625000000000055
40
0.625000000000055
40
0.68750000000005
40
0.68750000000005
40
0.750000000000044
40
0.750000000000044
40
0.781250000000039
40
0.781250000000039
40
0.812500000000033
40
0.812500000000033
40
0.843750000000028
40
0.843750000000028
40
0.875000000000022
40
0.875000000000022
40
0.906250000000017
40
0.906250000000017
40
0.937500000000011
40
0.937500000000011
40
1
40
1
40
1
40
1
41
1
10
10.4264684071915
20
0.673127638176709
30
0
41
1
10
10.3995914749836
20
0.697679215320534
30
0
41
1
10
10.3733600186079
20
0.722835565235954
30
0
41
1
10
10.3356713503201
20
0.762138366619411
30
0
41
1
10
10.3233887843792
20
0.775504422366595
30
0
41
1
10
10.2996395427661
20
0.803011500261817
30
0
41
1
10
10.2881836916199
20
0.817124496611683
30
0
41
1
10
10.2667517478051
20
0.846400074089672
30
0
41
1
10
10.2567195475116
20
0.861572709798963
30
0
41
1
10
10.2440890905148
20
0.885477014643783
30
0
41
1
10
10.2402777172232
20
0.893649338655138
30
0
41
1
10
10.2340085068496
20
0.910689486028843
30
0
41
1
10
10.2315658836599
20
0.919488205340997
30
0
41
1
10
10.2299956039505
20
0.933003247094462
30
0
41
1
10
10.229835360485
20
0.937498813186011
30
0
41
1
10
10.2304946991235
20
0.946465098207739
30
0
41
1
10
10.2313429481449
20
0.951002530367276
30
0
41
1
10
10.2342546189146
20
0.959561352532205
30
0
41
1
10
10.2363492218079
20
0.96366614498379
30
0
41
1
10
10.241662728563
20
0.971058465486493
30
0
41
1
10
10.2448450213817
20
0.974329870814728
30
0
41
1
10
10.2520194211704
20
0.980069438345538
30
0
41
1
10
10.2558903869997
20
0.982455182413133
30
0
41
1
10
10.264035713926
20
0.9865388849596
30
0
41
1
10
10.2683380885605
20
0.988239922560751
30
0
41
1
10
10.2813908382339
20
0.992461602653037
30
0
41
1
10
10.29035915745
20
0.994182240889927
30
0
41
1
10
10.2994763502457
20
0.995292085775731
30
0
0
SPLINE
5
16E
100
AcDbEntity
8
1
62
256
6
ByLayer
370
18
48
1
60
0
100
AcDbSpline
70
4
71
3
72
27
73
23
40
0
40
0
40
0
40
0
40
0.0744975048425301
40
0.114889467976363
40
0.155281431110195
40
0.236065357377861
40
0.316849283645526
40
0.357241246779358
40
0.397633209913191
40
0.438025173047024
40
0.478417136180856
40
0.518809099314689
40
0.559201062448521
40
0.599593025582354
40
0.639984988716187
40
0.720768914983852
40
0.761160878117685
40
0.801552841251517
40
0.882336767519182
40
0.922728730653015
40
0.963120693786848
40
1
40
1
40
1
40
1
41
1
10
13.9990046152554
20
-3.27951504929817
30
0
41
1
10
14.2076746428104
20
-3.40413236015831
30
0
41
1
10
14.5295598479121
20
-3.59168111113624
30
0
41
1
10
14.9648341912698
20
-3.83453700463932
30
0
41
1
10
15.4179109316807
20
-4.0789108780657
30
0
41
1
10
15.9846713455593
20
-4.36826290499528
30
0
41
1
10
16.5519610510311
20
-4.63405187614254
30
0
41
1
10
17.0061048202664
20
-4.83139646248532
30
0
41
1
10
17.3468678608743
20
-4.9716067622561
30
0
41
1
10
17.6877855310857
20
-5.1037490762555
30
0
41
1
10
18.0288515553369
20
-5.22748409398912
30
0
41
1
10
18.3700681888747
20
-5.34268294579644
30
0
41
1
10
18.711435970662
20
-5.44917032765397
30
0
41
1
10
19.0529496508867
20
-5.54677044604887
30
0
41
1
10
19.5084891173206
20
-5.66462694015925
30
0
41
1
10
19.964313269507
20
-5.76402724235393
30
0
41
1
10
20.4203294957303
20
-5.84431883533821
30
0
41
1
10
20.8764453039661
20
-5.91176289120119
30
0
41
1
10
21.3326720445772
20
-5.95968304451867
30
0
41
1
10
21.7889215835273
20
-5.98787209260644
30
0
41
1
10
22.1211776642845
20
-5.9987886498009
30
0
41
1
10
22.3393570229331
20
-5.99989220908105
30
0
41
1
10
22.4434811364097
20
-5.99904027395576
30
0
0
SPLINE
5
16F
100
AcDbEntity
8
1
62
256
6
ByLayer
370
18
48
1
60
0
100
AcDbSpline
70
4
71
3
72
36
73
32
40
0
40
0
40
0
40
0
40
0.182224042823252
40
0.182224042823252
40
0.227780053529066
40
0.227780053529066
40
0.273336064234879
40
0.273336064234879
40
0.364448085646506
40
0.364448085646506
40
0.455560107058133
40
0.455560107058133
40
0.501116117763948
40
0.501116117763948
40
0.523894123116856
40
0.523894123116856
40
0.546672128469763
40
0.546672128469763
40
0.637784149881384
40
0.637784149881384
40
0.728896171293004
40
0.728896171293004
40
0.774452181998814
40
0.774452181998814
40
0.79723018735172
40
0.79723018735172
40
0.820008192704627
40
0.820008192704627
40
0.911120214116254
40
0.911120214116254
40
1
40
1
40
1
40
1
41
1
10
14.0000000000001
20
-3.3138217646239
30
0
41
1
10
14.4904258462648
20
-3.60542819991846
30
0
41
1
10
14.9793306020681
20
-3.87939763746149
30
0
41
1
10
15.5916212629994
20
-4.19635509613008
30
0
41
1
10
15.714212810573
20
-4.25850829175425
30
0
41
1
10
15.959151205003
20
-4.37994818003301
30
0
41
1
10
16.0815002505499
20
-4.43923732332627
30
0
41
1
10
16.4483145927043
20
-4.61270532806026
30
0
41
1
10
16.6925482447526
20
-4.72247300913736
30
0
41
1
10
17.1810749321325
20
-4.92974222021104
30
0
41
1
10
17.4253617945039
20
-5.02729576565173
30
0
41
1
10
17.7923408847634
20
-5.16396671933956
30
0
41
1
10
17.9147598232759
20
-5.20790777192462
30
0
41
1
10
18.0985862211631
20
-5.27136236617153
30
0
41
1
10
18.1599095938684
20
-5.29210908913143
30
0
41
1
10
18.2824684001457
20
-5.33272305281506
30
0
41
1
10
18.3437210990246
20
-5.35259646661635
30
0
41
1
10
18.6498754893635
20
-5.44979026072517
30
0
41
1
10
18.8944500139408
20
-5.52061834930021
30
0
41
1
10
19.3835051698632
20
-5.64797248730568
30
0
41
1
10
19.6279846789195
20
-5.70454468108738
30
0
41
1
10
19.9950164205108
20
-5.7786158319455
30
0
41
1
10
20.1174114199455
20
-5.80150210590142
30
0
41
1
10
20.301132176274
20
-5.83309051505043
30
0
41
1
10
20.3623938864742
20
-5.84316347156542
30
0
41
1
10
20.4849694428272
20
-5.86239118153037
30
0
41
1
10
20.5463046796221
20
-5.87154883135275
30
0
41
1
10
20.8527962606455
20
-5.91497683174342
30
0
41
1
10
21.0974503793517
20
-5.94217450551858
30
0
41
1
10
21.5803316464791
20
-5.98098257276203
30
0
41
1
10
21.8185674005258
20
-5.9929528365289
30
0
41
1
10
22.0569097357445
20
-5.99768669983098
30
0
0
SPLINE
5
170
100
AcDbEntity
8
1
62
256
6
ByLayer
370
18
48
1
60
0
100
AcDbSpline
70
4
71
3
72
12
73
8
40
0
40
0
40
0
40
0
40
0.32824708921075
40
0.32824708921075
40
0.71948324341326
40
0.71948324341326
40
1
40
1
40
1
40
1
41
1
10
22.5005643127971
20
-5.998133868178
30
0
41
1
10
22.6031693546797
20
-5.99630245900855
30
0
41
1
10
22.7058304809933
20
-5.99312785315988
30
0
41
1
10
22.9310311326549
20
-5.98321775934764
30
0
41
1
10
23.0536320820313
20
-5.9759115245223
30
0
41
1
10
23.2638239173961
20
-5.96012356719621
30
0
41
1
10
23.3515467943139
20
-5.95255839423069
30
0
41
1
10
23.4392344617933
20
-5.94402624479668
30
0
0
SPLINE
5
171
100
AcDbEntity
8
1
62
256
6
ByLayer
370
18
48
1
60
0
100
AcDbSpline
70
4
71
3
72
8
73
4
40
0
40
0
40
0
40
0
40
1
40
1
40
1
40
1
41
1
10
37.4500168013407
20
2.40290999988875
30
0
41
1
10
37.4502087776929
20
2.40279258118966
30
0
41
1
10
37.4504007539981
20
2.40267516234445
30
0
41
1
10
37.4505927302561
20
2.40255774335313
30
0
0
SPLINE
5
172
100
AcDbEntity
8
1
62
256
6
ByLayer
370
18
48
1
60
0
100
AcDbSpline
70
4
71
3
72
8
73
4
40
0
40
0
40
0
40
0
40
1
40
1
40
1
40
1
41
1
10
37.4505927302578
20
2.40255774335239
30
0
41
1
10
37.4890389989348
20
2.37835607629125
30
0
41
1
10
37.527499644312
20
2.35407514841617
30
0
41
1
10
37.5659756250368
20
2.32971597930313
30
0
0
SPLINE
5
173
100
AcDbEntity
8
1
62
256
6
ByLayer
370
18
48
1
60
0
100
AcDbSpline
70
4
71
3
72
8
73
4
40
0
40
0
40
0
40
0
40
1
40
1
40
1
40
1
41
1
10
37.4447750431316
20
2.44273570547162
30
0
41
1
10
37.4465238189007
20
2.42946673448998
30
0
41
1
10
37.4482721931054
20
2.41619421652072
30
0
41
1
10
37.4500201614227
20
2.40291816638469
30
0
0
SPLINE
5
174
100
AcDbEntity
8
1
62
256
6
ByLayer
370
18
48
1
60
0
100
AcDbSpline
70
4
71
3
72
20
73
16
40
0
40
0
40
0
40
0
40
0.0094149688553838
40
0.0790141214254819
40
0.14861327399558
40
0.218212426565678
40
0.357410731705874
40
0.427009884275973
40
0.496609036846071
40
0.635807341986267
40
0.705406494556365
40
0.775005647126463
40
0.844604799696562
40
0.914203952266659
40
1
40
1
40
1
40
1
41
1
10
27.49325636258
20
5.99902619687356
30
0
41
1
10
27.5239969885677
20
5.99878321482356
30
0
41
1
10
27.7819833635147
20
5.99580818688514
30
0
41
1
10
28.2671959395826
20
5.9754370580265
30
0
41
1
10
28.9487328583168
20
5.91040703858573
30
0
41
1
10
29.8574310558417
20
5.7755738727729
30
0
41
1
10
30.7672074640967
20
5.56988426320603
30
0
41
1
10
31.6800720154214
20
5.29577949463811
30
0
41
1
10
32.5956594716587
20
4.97718107855496
30
0
41
1
10
33.516370056101
20
4.59395409324162
30
0
41
1
10
34.4444121909277
20
4.15065570893864
30
0
41
1
10
35.1446413086918
20
3.78956813050894
30
0
41
1
10
35.8496072957186
20
3.40138386155516
30
0
41
1
10
36.6149732550609
20
2.95582871520583
30
0
41
1
10
37.1485103651132
20
2.62868321856027
30
0
41
1
10
37.4447750354532
20
2.44273570927601
30
0
0
SPLINE
5
175
100
AcDbEntity
8
1
62
256
6
ByLayer
370
18
48
1
60
0
100
AcDbSpline
70
4
71
3
72
38
73
34
40
0
40
0
40
0
40
0
40
0.0355574753867281
40
0.0355574753867281
40
0.0863176082611088
40
0.0863176082611088
40
0.187837874009869
40
0.187837874009869
40
0.21321794044706
40
0.21321794044706
40
0.23859800688425
40
0.23859800688425
40
0.289358139758634
40
0.289358139758634
40
0.3908784055074
40
0.3908784055074
40
0.492398671256165
40
0.492398671256165
40
0.543158804130549
40
0.543158804130549
40
0.568538870567741
40
0.568538870567741
40
0.593918937004933
40
0.593918937004933
40
0.695439202753699
40
0.695439202753699
40
0.746199335628082
40
0.746199335628082
40
0.796959468502464
40
0.796959468502464
40
0.898479734251232
40
0.898479734251232
40
1
40
1
40
1
40
1
41
1
10
22.9976438271911
20
5.27533026516622
30
0
41
1
10
23.1686097105328
20
5.33137159462828
30
0
41
1
10
23.3399651538441
20
5.38449181261637
30
0
41
1
10
23.7571316061622
20
5.5060812872743
30
0
41
1
10
24.0019932336219
20
5.57097729953921
30
0
41
1
10
24.7360766695132
20
5.74556395942025
30
0
41
1
10
25.2248233884725
20
5.83516833928033
30
0
41
1
10
25.8375071361363
20
5.91266395677232
30
0
41
1
10
25.9601291138319
20
5.92643707596349
30
0
41
1
10
26.2056002806441
20
5.95049815651157
30
0
41
1
10
26.3282290744305
20
5.96076275621135
30
0
41
1
10
26.6957914048442
20
5.98625952837304
30
0
41
1
10
26.9404443026161
20
5.99620323370368
30
0
41
1
10
27.674062581619
20
6.00488113457726
30
0
41
1
10
28.1626729020265
20
5.98247351901566
30
0
41
1
10
29.143760722793
20
5.88084913814885
30
0
41
1
10
29.6324258363313
20
5.80201218193372
30
0
41
1
10
30.366044836798
20
5.64368089430175
30
0
41
1
10
30.6106912985691
20
5.58421605571297
30
0
41
1
10
30.9782361946006
20
5.48514043259368
30
0
41
1
10
31.1008469868369
20
5.45046729887895
30
0
41
1
10
31.3463256318912
20
5.37785008368618
30
0
41
1
10
31.4689531797327
20
5.33997766809921
30
0
41
1
10
32.0816645243062
20
5.1429493456607
30
0
41
1
10
32.5704490959919
20
4.96078920731881
30
0
41
1
10
33.3045811722135
20
4.65326621665935
30
0
41
1
10
33.5494697124657
20
4.54503821277785
30
0
41
1
10
34.0401230277607
20
4.31757354214497
30
0
41
1
10
34.2846294689869
20
4.19892556401064
30
0
41
1
10
35.0165939467759
20
3.82938381660017
30
0
41
1
10
35.5025103208159
20
3.56489726746924
30
0
41
1
10
36.4748440774618
20
3.00548102452001
30
0
41
1
10
36.9612616172994
20
2.71057951362187
30
0
41
1
10
37.4500201614227
20
2.40291816638469
30
0
0
SPLINE
5
176
100
AcDbEntity
8
1
62
256
6
ByLayer
370
18
48
1
60
0
100
AcDbSpline
70
4
71
3
72
8
73
4
40
0
40
0
40
0
40
0
40
1
40
1
40
1
40
1
41
1
10
37.450021595146
20
-4.54101297210531
30
0
41
1
10
37.4502170411776
20
-4.54111820280323
30
0
41
1
10
37.4504124871571
20
-4.54122343310013
30
0
41
1
10
37.4506079330841
20
-4.54132866299597
30
0
0
SPLINE
5
177
100
AcDbEntity
8
1
62
256
6
ByLayer
370
18
48
1
60
0
100
AcDbSpline
70
4
71
3
72
8
73
4
40
0
40
0
40
0
40
0
40
1
40
1
40
1
40
1
41
1
10
37.4506079330848
20
-4.54132866299682
30
0
41
1
10
37.4979262097509
20
-4.56378293357608
30
0
41
1
10
37.5452639010283
20
-4.58602262173056
30
0
41
1
10
37.5926230851329
20
-4.60804520187924
30
0
0
SPLINE
5
178
100
AcDbEntity
8
1
62
256
6
ByLayer
370
18
48
1
60
0
100
AcDbSpline
70
4
71
3
72
12
73
8
40
0
40
0
40
0
40
0
40
0.250000000000002
40
0.250000000000002
40
0.500000000000003
40
0.500000000000003
40
1
40
1
40
1
40
1
41
1
10
13.5029316594103
20
-5.72697006873992
30
0
41
1
10
13.5322859870883
20
-5.74287597224478
30
0
41
1
10
13.5600543142514
20
-5.75828320788327
30
0
41
1
10
13.6142732980271
20
-5.7879411027034
30
0
41
1
10
13.6406558523329
20
-5.80219880812979
30
0
41
1
10
13.7183439418546
20
-5.84323960422833
30
0
41
1
10
13.7682086272349
20
-5.86828335046732
30
0
41
1
10
13.8163586137524
20
-5.89118398312567
30
0
0
SPLINE
5
179
100
AcDbEntity
8
1
62
256
6
ByLayer
370
18
48
1
60
0
100
AcDbSpline
70
4
71
3
72
10
73
6
40
0
40
0
40
0
40
0
40
0.5
40
0.5
40
1
40
1
40
1
40
1
41
1
10
13.5040139801621
20
5.23495011258848
30
0
41
1
10
13.4739508567791
20
5.23983344612435
30
0
41
1
10
13.443133500083
20
5.24563172565379
30
0
41
1
10
13.3805312138349
20
5.25912091500058
30
0
41
1
10
13.3487262260413
20
5.26680993604177
30
0
41
1
10
13.3163586137525
20
5.2755535626801
30
0
0
SPLINE
5
17A
100
AcDbEntity
8
1
62
256
6
ByLayer
370
18
48
1
60
0
100
AcDbSpline
70
4
71
3
72
8
73
4
40
0
40
0
40
0
40
0
40
1
40
1
40
1
40
1
41
1
10
13.608308817874
20
4.36465237096991
30
0
41
1
10
13.6806707955242
20
4.35878946213282
30
0
41
1
10
13.7500572934744
20
4.35841450539598
30
0
41
1
10
13.8163586137524
20
4.36372982686393
30
0
0
SPLINE
5
17B
100
AcDbEntity
8
1
62
256
6
ByLayer
370
18
48
1
60
0
100
AcDbSpline
70
4
71
3
72
8
73
4
40
0
40
0
40
0
40
0
40
1
40
1
40
1
40
1
41
1
10
13.8163586137524
20
4.36372982686393
30
0
41
1
10
13.8774674361385
20
4.36862887011296
30
0
41
1
10
13.9386830362481
20
4.37338156591417
30
0
41
1
10
14.0000000000001
20
4.37799533470073
30
0
0
SPLINE
5
17C
100
AcDbEntity
8
1
62
256
6
ByLayer
370
18
48
1
60
0
100
AcDbSpline
70
4
71
3
72
8
73
4
40
0
40
0
40
0
40
0
40
1
40
1
40
1
40
1
41
1
10
13.8163586137524
20
-3.15836697750004
30
0
41
1
10
13.8774159560868
20
-3.21032380056258
30
0
41
1
10
13.9386295733943
20
-3.26213971325814
30
0
41
1
10
13.9999919175945
20
-3.31382152155649
30
0
0
SPLINE
5
17D
100
AcDbEntity
8
1
62
256
6
ByLayer
370
18
48
1
60
0
100
AcDbSpline
70
4
71
3
72
10
73
6
40
0
40
0
40
0
40
0
40
0.5
40
0.5
40
1
40
1
40
1
40
1
41
1
10
13.9217132441899
20
-2.797597712883
30
0
41
1
10
13.9294367677084
20
-2.87893005207161
30
0
41
1
10
13.940037127896
20
-2.95983242199807
30
0
41
1
10
13.9660845639847
20
-3.12058232347289
30
0
41
1
10
13.9815261205256
20
-3.2003848337954
30
0
41
1
10
13.9990046152554
20
-3.27951504929817
30
0
0
SPLINE
5
17E
100
AcDbEntity
8
1
62
256
6
ByLayer
370
18
48
1
60
0
100
AcDbSpline
70
4
71
3
72
8
73
4
40
0
40
0
40
0
40
0
40
1
40
1
40
1
40
1
41
1
10
13.3163586137524
20
-2.84227568127724
30
0
41
1
10
13.4058924111174
20
-2.88056511360801
30
0
41
1
10
13.4928560542604
20
-2.92631407537971
30
0
41
1
10
13.5765095605685
20
-2.98029244932206
30
0
0
SPLINE
5
17F
100
AcDbEntity
8
1
62
256
6
ByLayer
370
18
48
1
60
0
100
AcDbSpline
70
4
71
3
72
12
73
8
40
0
40
0
40
0
40
0
40
0.5
40
0.5
40
0.75
40
0.75
40
1
40
1
40
1
40
1
41
1
10
13.5765095605684
20
-2.98029244932192
30
0
41
1
10
13.6179751433018
20
-3.00704858698188
30
0
41
1
10
13.6587526919625
20
-3.03526382505177
30
0
41
1
10
13.718855880147
20
-3.07984125136102
30
0
41
1
10
13.7387432988151
20
-3.09510206570303
30
0
41
1
10
13.7780034232905
20
-3.12628803782184
30
0
41
1
10
13.7973332332355
20
-3.14217730576817
30
0
41
1
10
13.8163586137524
20
-3.15836697750001
30
0
0
SPLINE
5
180
100
AcDbEntity
8
1
62
256
6
ByLayer
370
18
48
1
60
0
100
AcDbSpline
70
4
71
3
72
12
73
8
40
0
40
0
40
0
40
0
40
0.250000000000001
40
0.250000000000001
40
0.500000000000001
40
0.500000000000001
40
1
40
1
40
1
40
1
41
1
10
13.5045986943252
20
-1.5593624079645
30
0
41
1
10
13.4895400552574
20
-1.54781302696739
30
0
41
1
10
13.4743094147547
20
-1.53643355886689
30
0
41
1
10
13.4434844746611
20
-1.51403386600094
30
0
41
1
10
13.4278783787843
20
-1.50300638905091
30
0
41
1
10
13.380745105033
20
-1.47067699655804
30
0
41
1
10
13.3488273974443
20
-1.45006709905067
30
0
41
1
10
13.3163586137524
20
-1.43050595116856
30
0
0
SPLINE
5
181
100
AcDbEntity
8
1
62
256
6
ByLayer
370
18
48
1
60
0
100
AcDbSpline
70
4
71
3
72
34
73
30
40
0
40
0
40
0
40
0
40
0.249999999999965
40
0.249999999999965
40
0.374999999999964
40
0.374999999999964
40
0.499999999999963
40
0.499999999999963
40
0.624999999999962
40
0.624999999999962
40
0.687499999999972
40
0.687499999999972
40
0.749999999999982
40
0.749999999999982
40
0.781249999999985
40
0.781249999999985
40
0.812499999999987
40
0.812499999999987
40
0.843749999999989
40
0.843749999999989
40
0.874999999999991
40
0.874999999999991
40
0.906249999999993
40
0.906249999999993
40
0.937499999999996
40
0.937499999999996
40
0.968749999999998
40
0.968749999999998
40
1
40
1
40
1
40
1
41
1
10
10.6824531656198
20
5.75266212556795
30
0
41
1
10
10.6572960174549
20
5.75392070114864
30
0
41
1
10
10.6327945996826
20
5.75504954792115
30
0
41
1
10
10.5977100793865
20
5.75652712427484
30
0
41
1
10
10.5862948464262
20
5.7569836929938
30
0
41
1
10
10.5642865306888
20
5.75781873122668
30
0
41
1
10
10.5537244071887
20
5.75819575879135
30
0
41
1
10
10.534018089892
20
5.75886069092209
30
0
41
1
10
10.524809260507
20
5.75914946419997
30
0
41
1
10
10.5132953716491
20
5.75949847493345
30
0
41
1
10
10.5098378950383
20
5.75960103291217
30
0
41
1
10
10.5041529844845
20
5.75977555333478
30
0
41
1
10
10.5019080688188
20
5.75984757689506
30
0
41
1
10
10.5003570154167
20
5.75992584011323
30
0
41
1
10
10.5001480065007
20
5.75994716769361
30
0
41
1
10
10.5005754749092
20
5.75997886662597
30
0
41
1
10
10.5012035390057
20
5.75998943212016
30
0
41
1
10
10.5035737816941
20
5.76000070407815
30
0
41
1
10
10.5053131393778
20
5.76000118830555
30
0
41
1
10
10.509885271404
20
5.75999491806397
30
0
41
1
10
10.512761415044
20
5.75998815336283
30
0
41
1
10
10.5192379497204
20
5.7599721781522
30
0
41
1
10
10.5229140003451
20
5.75996283695739
30
0
41
1
10
10.5306121911226
20
5.75994504871139
30
0
41
1
10
10.5346478502553
20
5.75993652755395
30
0
41
1
10
10.5429921643227
20
5.75992127845686
30
0
41
1
10
10.5473089329398
20
5.75991453317204
30
0
41
1
10
10.5559972304443
20
5.75990329372232
30
0
41
1
10
10.5603905675798
20
5.75989874608521
30
0
41
1
10
10.5648213605141
20
5.75989519803835
30
0
0
SPLINE
5
182
100
AcDbEntity
8
1
62
256
6
ByLayer
370
18
48
1
60
0
100
AcDbSpline
70
4
71
3
72
8
73
4
40
0
40
0
40
0
40
0
40
1
40
1
40
1
40
1
41
1
10
13.9990046152554
20
-3.27951504929817
30
0
41
1
10
13.9992551373292
20
-3.29095078523318
30
0
41
1
10
13.9995821916413
20
-3.30238453847187
30
0
41
1
10
13.9999838351906
20
-3.31381471423282
30
0
0
SPLINE
5
183
100
AcDbEntity
8
1
62
256
6
ByLayer
370
18
48
1
60
0
100
AcDbSpline
70
4
71
3
72
10
73
6
40
0
40
0
40
0
40
0
40
0.5
40
0.5
40
1
40
1
40
1
40
1
41
1
10
13.9216150276662
20
4.71802727301792
30
0
41
1
10
13.9293840233128
20
4.66640022413137
30
0
41
1
10
13.9400323558563
20
4.61463277806382
30
0
41
1
10
13.9661311677217
20
4.51046808515071
30
0
41
1
10
13.9815768847926
20
4.45809934222817
30
0
41
1
10
13.9990258091754
20
4.40533705302678
30
0
0
SPLINE
5
184
100
AcDbEntity
8
1
62
256
6
ByLayer
370
18
48
1
60
0
100
AcDbSpline
70
4
71
3
72
12
73
8
40
0
40
0
40
0
40
0
40
0.249999999999998
40
0.249999999999998
40
0.499999999999996
40
0.499999999999996
40
1
40
1
40
1
40
1
41
1
10
13.5045986943157
20
-1.55936240796669
30
0
41
1
10
13.5336758515287
20
-1.63584187749436
30
0
41
1
10
13.5612549557489
20
-1.71268213239776
30
0
41
1
10
13.6151448046178
20
-1.86650811135499
30
0
41
1
10
13.6413924977286
20
-1.94351511825863
30
0
41
1
10
13.718714623108
20
-2.17460414025032
30
0
41
1
10
13.7683863978283
20
-2.32874685783636
30
0
41
1
10
13.8163586137524
20
-2.48295665230941
30
0
0
SPLINE
5
185
100
AcDbEntity
8
1
62
256
6
ByLayer
370
18
48
1
60
0
100
AcDbSpline
70
4
71
3
72
8
73
4
40
0
40
0
40
0
40
0
40
1
40
1
40
1
40
1
41
1
10
13.8163586137524
20
-2.48295665230944
30
0
41
1
10
13.8493266058863
20
-2.58893439782801
30
0
41
1
10
13.884569635234
20
-2.69378433895514
30
0
41
1
10
13.9217132441899
20
-2.797597712883
30
0
0
SPLINE
5
186
100
AcDbEntity
8
1
62
256
6
ByLayer
370
18
48
1
60
0
100
AcDbSpline
70
4
71
3
72
34
73
30
40
0
40
0
40
0
40
0
40
0.002170282384998
40
0.062535031898485
40
0.0927174066552284
40
0.122899781411972
40
0.183264530925459
40
0.243629280438946
40
0.273811655195689
40
0.303994029952433
40
0.334176404709176
40
0.36435877946592
40
0.394541154222663
40
0.424723528979407
40
0.45490590373615
40
0.485088278492894
40
0.545453028006381
40
0.575635402763124
40
0.605817777519868
40
0.666182527033355
40
0.696364901790098
40
0.726547276546842
40
0.786912026060329
40
0.817094400817072
40
0.847276775573816
40
0.907641525087303
40
0.937823899844046
40
0.96800627460079
40
1
40
1
40
1
40
1
41
1
10
13.9217132441899
20
-2.79759771288303
30
0
41
1
10
13.9298480294571
20
-2.80268090377581
30
0
41
1
10
14.1642476854473
20
-2.94903643907543
30
0
41
1
10
14.5118679225636
20
-3.16118624272872
30
0
41
1
10
14.9647629948614
20
-3.4271905721819
30
0
41
1
10
15.41783866575
20
-3.68574647149796
30
0
41
1
10
15.984611576349
20
-3.99453551703499
30
0
41
1
10
16.551897508685
20
-4.28174762359455
30
0
41
1
10
17.0060402009774
20
-4.49736267002177
30
0
41
1
10
17.3468023309817
20
-4.65185331669406
30
0
41
1
10
17.687719844191
20
-4.79882481913882
30
0
41
1
10
18.0287850666888
20
-4.93786573353057
30
0
41
1
10
18.3700028438045
20
-5.06886384188317
30
0
41
1
10
18.7113723580418
20
-5.19160858401708
30
0
41
1
10
19.0528859060966
20
-5.30592691399423
30
0
41
1
10
19.5084218428536
20
-5.44656522873476
30
0
41
1
10
19.9642489468025
20
-5.56952171376003
30
0
41
1
10
20.4202636268411
20
-5.67394915100948
30
0
41
1
10
20.8763787342934
20
-5.76602247518949
30
0
41
1
10
21.3326080418101
20
-5.838980548216
30
0
41
1
10
21.7888562609476
20
-5.89258314042235
30
0
41
1
10
22.2450873256537
20
-5.93330694931663
30
0
41
1
10
22.7012634250626
20
-5.9542720349836
30
0
41
1
10
23.1573040431227
20
-5.95557159220985
30
0
41
1
10
23.6132293790276
20
-5.94386043828462
30
0
41
1
10
24.0689531458266
20
-5.91235480810823
30
0
41
1
10
24.5243912072066
20
-5.86146762597193
30
0
41
1
10
24.8726376463975
20
-5.81277750871325
30
0
41
1
10
25.1069532228199
20
-5.77318610491687
30
0
41
1
10
25.2274843094025
20
-5.75104833445519
30
0
0
SPLINE
5
187
100
AcDbEntity
8
1
62
256
6
ByLayer
370
18
48
1
60
0
100
AcDbSpline
70
4
71
3
72
12
73
8
40
0
40
0
40
0
40
0
40
0.250000000000002
40
0.250000000000002
40
0.500000000000003
40
0.500000000000003
40
1
40
1
40
1
40
1
41
1
10
13.5040139801757
20
5.23495011259251
30
0
41
1
10
13.5331730732588
20
5.20650811790054
30
0
41
1
10
13.5608143263902
20
5.1772949685043
30
0
41
1
10
13.6148141152762
20
5.11750598019822
30
0
41
1
10
13.6411091083839
20
5.08692479538885
30
0
41
1
10
13.718563804012
20
4.99323187799942
30
0
41
1
10
13.7683103356317
20
4.92816670865798
30
0
41
1
10
13.8163586137524
20
4.86069818142309
30
0
0
SPLINE
5
188
100
AcDbEntity
8
1
62
256
6
ByLayer
370
18
48
1
60
0
100
AcDbSpline
70
4
71
3
72
8
73
4
40
0
40
0
40
0
40
0
40
1
40
1
40
1
40
1
41
1
10
13.8163586137524
20
4.86069818142309
30
0
41
1
10
13.8493344807864
20
4.81439406252247
30
0
41
1
10
13.8845458882419
20
4.76688325589311
30
0
41
1
10
13.9216150276662
20
4.71802727301792
30
0
0
SPLINE
5
189
100
AcDbEntity
8
1
62
256
6
ByLayer
370
18
48
1
60
0
100
AcDbSpline
70
4
71
3
72
54
73
50
40
0
40
0
40
0
40
0
40
0.002833447103142
40
0.0186904498186123
40
0.0345474525340826
40
0.0504044552495529
40
0.0662614579650232
40
0.0821184606804935
40
0.0979754633959638
40
0.113832466111434
40
0.129689468826904
40
0.145546471542375
40
0.161403474257845
40
0.177260476973315
40
0.193117479688786
40
0.224831485119726
40
0.256545490550667
40
0.272402493266137
40
0.288259495981607
40
0.304116498697078
40
0.319973501412548
40
0.351687506843489
40
0.367544509558959
40
0.383401512274429
40
0.41511551770537
40
0.43097252042084
40
0.446829523136311
40
0.478543528567251
40
0.494400531282721
40
0.510257533998192
40
0.541971539429132
40
0.557828542144603
40
0.573685544860073
40
0.589542547575543
40
0.605399550291014
40
0.621256553006484
40
0.637113555721954
40
0.668827561152895
40
0.684684563868365
40
0.700541566583835
40
0.732255572014776
40
0.795683582876657
40
0.827397588307598
40
0.859111593738539
40
0.890825599169479
40
0.92253960460042
40
0.954253610031361
40
0.985967615462301
40
1
40
1
40
1
40
1
41
1
10
13.921615027666
20
4.71802727301804
30
0
41
1
10
13.9418724274794
20
4.70861636480205
30
0
41
1
10
14.0754908751971
20
4.64622839009897
30
0
41
1
10
14.322389750539
20
4.52714617675539
30
0
41
1
10
14.6621741741645
20
4.35468049491809
30
0
41
1
10
15.0017587376812
20
4.17411139451579
30
0
41
1
10
15.3411474557864
20
3.98581690160412
30
0
41
1
10
15.6803374673865
20
3.79012288213491
30
0
41
1
10
16.0193420911685
20
3.58737455876599
30
0
41
1
10
16.3581582637044
20
3.37801921115275
30
0
41
1
10
16.6968052288637
20
3.16245618755644
30
0
41
1
10
17.0352879023153
20
2.94105775014808
30
0
41
1
10
17.3736303171212
20
2.7142311343899
30
0
41
1
10
17.7118499511673
20
2.48239821524353
30
0
41
1
10
18.1626770899333
20
2.16725769926916
30
0
41
1
10
18.726023549224
20
1.76287395209005
30
0
41
1
10
19.2892533068717
20
1.34765530262894
30
0
41
1
10
19.7398472736121
20
1.01076997344393
30
0
41
1
10
20.0778155381618
20
0.75617434104123
30
0
41
1
10
20.4158234333005
20
0.500096085558084
30
0
41
1
10
20.8665680578814
20
0.157490068569842
30
0
41
1
10
21.3174698023016
20
-0.186246618610141
30
0
41
1
10
21.7685296840353
20
-0.52903370507147
30
0
41
1
10
22.2197040495416
20
-0.870614783419825
30
0
41
1
10
22.6710667907344
20
-1.20938438003967
30
0
41
1
10
23.1226309662267
20
-1.54343669492985
30
0
41
1
10
23.5743381231094
20
-1.87377950862611
30
0
41
1
10
24.0262662521917
20
-2.19750849765751
30
0
41
1
10
24.4783694701682
20
-2.51279396121086
30
0
41
1
10
24.9305786615581
20
-2.82192324369629
30
0
41
1
10
25.3829310841554
20
-3.12074681251366
30
0
41
1
10
25.835380394253
20
-3.40761701516149
30
0
41
1
10
26.1747594884345
20
-3.61642368811263
30
0
41
1
10
26.5141659908968
20
-3.81839167707
30
0
41
1
10
26.8535843511127
20
-4.01313947824082
30
0
41
1
10
27.1929911791492
20
-4.20034839390439
30
0
41
1
10
27.6454994596653
20
-4.43947352854258
30
0
41
1
10
28.0979368718247
20
-4.66195750913462
30
0
41
1
10
28.5502595991789
20
-4.86670161193035
30
0
41
1
10
29.0024799940613
20
-5.0592948019619
30
0
41
1
10
29.7938081153498
20
-5.36308025121289
30
0
41
1
10
30.6996209309455
20
-5.63125701899554
30
0
41
1
10
31.6101214965813
20
-5.8145349730485
30
0
41
1
10
32.2960274001981
20
-5.90782298396857
30
0
41
1
10
32.9858409305338
20
-5.95588288686318
30
0
41
1
10
33.6803638336987
20
-5.95750385433846
30
0
41
1
10
34.3806270881893
20
-5.91170907853913
30
0
41
1
10
34.9560105710486
20
-5.83489887325041
30
0
41
1
10
35.298403728395
20
-5.77248240487509
30
0
41
1
10
35.4036836996368
20
-5.75172269772401
30
0
0
SPLINE
5
18A
100
AcDbEntity
8
1
62
256
6
ByLayer
370
18
48
1
60
0
100
AcDbSpline
70
4
71
3
72
51
73
47
40
0
40
0
40
0
40
0
40
0.0163505000524916
40
0.0335328220465255
40
0.0507151440405594
40
0.0678974660345933
40
0.0850797880286273
40
0.102262110022661
40
0.119444432016695
40
0.136626754010729
40
0.153809076004763
40
0.170991397998797
40
0.188173719992831
40
0.205356041986865
40
0.239720685974932
40
0.274085329963
40
0.291267651957034
40
0.308449973951068
40
0.325632295945102
40
0.342814617939136
40
0.377179261927204
40
0.394361583921237
40
0.411543905915271
40
0.445908549903339
40
0.463090871897373
40
0.480273193891407
40
0.514637837879475
40
0.531820159873509
40
0.549002481867543
40
0.58336712585561
40
0.600549447849644
40
0.617731769843678
40
0.634914091837712
40
0.652096413831746
40
0.66927873582578
40
0.686461057819814
40
0.720825701807882
40
0.738008023801915
40
0.755190345795949
40
0.789554989784017
40
0.858284277760153
40
0.892648921748221
40
0.927013565736288
40
0.961378209724356
40
0.995742853712424
40
1
40
1
40
1
40
1
41
1
10
13.9990258091751
20
4.40533705302693
30
0
41
1
10
14.1068917430279
20
4.34915593867282
30
0
41
1
10
14.3280517124002
20
4.23138212399815
30
0
41
1
10
14.6623505512477
20
4.04568612755779
30
0
41
1
10
15.0019358231843
20
3.84943306910819
30
0
41
1
10
15.3413262149545
20
3.64603882180285
30
0
41
1
10
15.6805163698067
20
3.43589448517665
30
0
41
1
10
16.0195183572319
20
3.21940473735594
30
0
41
1
10
16.3583359270803
20
2.99700025111633
30
0
41
1
10
16.696983676882
20
2.76908180583499
30
0
41
1
10
17.0354658579197
20
2.53607955786251
30
0
41
1
10
17.3738069321996
20
2.29842910459212
30
0
41
1
10
17.7120273232824
20
2.05655984603007
30
0
41
1
10
18.1628572215365
20
1.72905113138887
30
0
41
1
10
18.7262023641452
20
1.31131217121791
30
0
41
1
10
19.289432676219
20
0.885517561232433
30
0
41
1
10
19.7400250629668
20
0.541895942500588
30
0
41
1
10
20.0779924838728
20
0.283140112364322
30
0
41
1
10
20.416000293416
20
0.0238027079764151
30
0
41
1
10
20.8667486920205
20
-0.322032069661304
30
0
41
1
10
21.317647096696
20
-0.667148534095304
30
0
41
1
10
21.7687081387134
20
-1.00954866639231
30
0
41
1
10
22.2198828899558
20
-1.34952630575256
30
0
41
1
10
22.6712439112003
20
-1.68490066399116
30
0
41
1
10
23.1228098435621
20
-2.01379271228029
30
0
41
1
10
23.5745179782934
20
-2.337759522732
30
0
41
1
10
24.0264440226547
20
-2.65339198667857
30
0
41
1
10
24.4785481213737
20
-2.9588856305372
30
0
41
1
10
24.9307565311445
20
-3.25704418466572
30
0
41
1
10
25.3831076355913
20
-3.54330090821298
30
0
41
1
10
25.8355595958573
20
-3.81602006946682
30
0
41
1
10
26.1749389686789
20
-4.01339053282351
30
0
41
1
10
26.5143444586211
20
-4.20321211166595
30
0
41
1
10
26.8537614459353
20
-4.38511800803903
30
0
41
1
10
27.193169969476
20
-4.55877750681958
30
0
41
1
10
27.6456803202478
20
-4.77886855869514
30
0
41
1
10
28.0981160139007
20
-4.98111515554689
30
0
41
1
10
28.5504377454572
20
-5.16439484929708
30
0
41
1
10
29.002653008876
20
-5.33467094700222
30
0
41
1
10
29.7939796933525
20
-5.59771815817189
30
0
41
1
10
30.6998392249565
20
-5.81576305656293
30
0
41
1
10
31.6102875045656
20
-5.94572383569789
30
0
41
1
10
32.2962013278128
20
-5.99796588640538
30
0
41
1
10
32.9860110470437
20
-6.00404020954417
30
0
41
1
10
33.4777310172635
20
-5.97501231060701
30
0
41
1
10
33.7391245323114
20
-5.94956535579752
30
0
41
1
10
33.7679518012453
20
-5.94663767120755
30
0
0
SPLINE
5
18B
100
AcDbEntity
8
1
62
256
6
ByLayer
370
18
48
1
60
0
100
AcDbSpline
70
4
71
3
72
8
73
4
40
0
40
0
40
0
40
0
40
1
40
1
40
1
40
1
41
1
10
14.0000000000001
20
4.37827547203895
30
0
41
1
10
13.9996016432537
20
4.38729661802014
30
0
41
1
10
13.9992762392632
20
4.39631713511869
30
0
41
1
10
13.9990258091754
20
4.40533705302676
30
0
0
SPLINE
5
18C
100
AcDbEntity
8
1
62
256
6
ByLayer
370
18
48
1
60
0
100
AcDbSpline
70
4
71
3
72
59
73
55
40
0
40
0
40
0
40
0
40
0.0814680526835012
40
0.0814680526835012
40
0.101835065854377
40
0.101835065854377
40
0.122202079025252
40
0.122202079025252
40
0.162936105367002
40
0.162936105367002
40
0.203670131708752
40
0.203670131708752
40
0.21385363829419
40
0.21385363829419
40
0.224037144879628
40
0.244404158050503
40
0.244404158050503
40
0.325872210734003
40
0.325872210734003
40
0.336055717319441
40
0.336055717319441
40
0.346239223904879
40
0.346239223904879
40
0.366606237075756
40
0.366606237075756
40
0.40734026341751
40
0.40734026341751
40
0.448074289759265
40
0.448074289759265
40
0.488808316101019
40
0.488808316101019
40
0.570276368784526
40
0.570276368784526
40
0.651744421468034
40
0.651744421468034
40
0.67211143463891
40
0.682294941224349
40
0.682294941224349
40
0.692478447809788
40
0.692478447809788
40
0.733212474151544
40
0.733212474151544
40
0.814680526835055
40
0.814680526835055
40
0.896148579518566
40
0.896148579518566
40
0.916515592689443
40
0.926699099274883
40
0.926699099274883
40
0.936882605860322
40
0.936882605860322
40
0.977616632202079
40
0.977616632202079
40
1
40
1
40
1
40
1
41
1
10
14.0000000000001
20
4.37799972695589
30
0
41
1
10
14.4917111725684
20
4.1199842610813
30
0
41
1
10
14.9815545213236
20
3.83698077026034
30
0
41
1
10
15.5956404454443
20
3.45603495210224
30
0
41
1
10
15.7186199835585
20
3.37843685904716
30
0
41
1
10
15.9642252360122
20
3.22103338617819
30
0
41
1
10
16.0869073577044
20
3.14119768092638
30
0
41
1
10
16.4547434319339
20
2.89846022740466
30
0
41
1
10
16.6996940551942
20
2.73230629295776
30
0
41
1
10
17.1898073709772
20
2.39230578649296
30
0
41
1
10
17.4349586341984
20
2.21845794827016
30
0
41
1
10
17.7420310900789
20
1.99687966454883
30
0
41
1
10
17.8035020222092
20
1.95233234636757
30
0
41
1
10
17.9263872272404
20
1.86292335893461
30
0
41
1
10
18.1106097302486
20
1.72835378137287
30
0
41
1
10
18.2945743870515
20
1.59249745491309
30
0
41
1
10
18.9074755261318
20
1.13711699036614
30
0
41
1
10
19.3968185109781
20
0.764753376312115
30
0
41
1
10
19.9498136746152
20
0.341371191191286
30
0
41
1
10
20.0112920745306
20
0.294265326100543
30
0
41
1
10
20.134133734593
20
0.200092215709873
30
0
41
1
10
20.195521356541
20
0.15300638846503
30
0
41
1
10
20.3796038968821
20
0.0117770452874311
30
0
41
1
10
20.5022188812735
20
-0.0823371208829542
30
0
41
1
10
20.8698988779001
20
-0.364362752150981
30
0
41
1
10
21.1147950445102
20
-0.551967276798422
30
0
41
1
10
21.6049610099907
20
-0.925280015158194
30
0
41
1
10
21.8502670655433
20
-1.11101114661443
30
0
41
1
10
22.3419419357552
20
-1.47938547310289
30
0
41
1
10
22.5866130487313
20
-1.66074809930998
30
0
41
1
10
23.3183356278145
20
-2.19511927789827
30
0
41
1
10
23.8030612808389
20
-2.53844621826028
30
0
41
1
10
24.77264276521
20
-3.19219623644497
30
0
41
1
10
25.2575126792279
20
-3.50259139372454
30
0
41
1
10
25.8676079651526
20
-3.86528226047761
30
0
41
1
10
26.0509368183188
20
-3.97218746686971
30
0
41
1
10
26.2348242854566
20
-4.07610403328755
30
0
41
1
10
26.3575533863043
20
-4.14470087157903
30
0
41
1
10
26.4190352534462
20
-4.17868540232692
30
0
41
1
10
26.7261449889201
20
-4.3464956132552
30
0
41
1
10
26.9706674189298
20
-4.4738913331922
30
0
41
1
10
27.7020007905633
20
-4.83490991165533
30
0
41
1
10
28.1865999158828
20
-5.04735291494808
30
0
41
1
10
29.1561730122387
20
-5.41201237534332
30
0
41
1
10
29.6410788732214
20
-5.5642432807463
30
0
41
1
10
30.2512410275807
20
-5.71418207233296
30
0
41
1
10
30.4345955037023
20
-5.75612894736466
30
0
41
1
10
30.6185283889784
20
-5.79342139410642
30
0
41
1
10
30.7412925625281
20
-5.8172363137983
30
0
41
1
10
30.8027903128588
20
-5.82862781872461
30
0
41
1
10
31.1097917229792
20
-5.88278736115188
30
0
41
1
10
31.3542630385613
20
-5.91725804851876
30
0
41
1
10
31.731943475092
20
-5.95711842933002
30
0
41
1
10
31.8656595278205
20
-5.96861806356756
30
0
41
1
10
31.9992188257617
20
-5.97749108007309
30
0
0
SPLINE
5
18D
100
AcDbEntity
8
1
62
256
6
ByLayer
370
18
48
1
60
0
100
AcDbSpline
70
4
71
3
72
8
73
4
40
0
40
0
40
0
40
0
40
1
40
1
40
1
40
1
41
1
10
32.2087350097782
20
-5.98926255251462
30
0
41
1
10
32.4108571715102
20
-5.99854518704058
30
0
41
1
10
32.6126967362302
20
-6.00181040860426
30
0
41
1
10
32.8144772379528
20
-5.99909112730464
30
0
0
SPLINE
5
18E
100
AcDbEntity
8
1
62
256
6
ByLayer
370
18
48
1
60
0
100
AcDbSpline
70
4
71
3
72
8
73
4
40
0
40
0
40
0
40
0
40
1
40
1
40
1
40
1
41
1
10
17.5347454119083
20
5.99908545620033
30
0
41
1
10
17.6140450851673
20
5.99845276520992
30
0
41
1
10
17.6933368018059
20
5.9969895703646
30
0
41
1
10
17.7726216022981
20
5.99469741046903
30
0
0
SPLINE
5
18F
100
AcDbEntity
8
1
62
256
6
ByLayer
370
18
48
1
60
0
100
AcDbSpline
70
4
71
3
72
38
73
34
40
0
40
0
40
0
40
0
40
0.0101313511330196
40
0.0464669352064437
40
0.0828025192798678
40
0.119138103353292
40
0.155473687426716
40
0.173641479463428
40
0.19180927150014
40
0.228144855573564
40
0.246312647610276
40
0.264480439646988
40
0.300816023720412
40
0.318983815757124
40
0.337151607793836
40
0.37348719186726
40
0.391654983903972
40
0.409822775940684
40
0.446158360014109
40
0.482493944087532
40
0.518829528160957
40
0.555165112234381
40
0.591500696307805
40
0.664171864454653
40
0.700507448528077
40
0.736843032601501
40
0.773178616674925
40
0.809514200748349
40
0.845849784821773
40
0.882185368895197
40
0.918520952968621
40
0.954856537042045
40
1
40
1
40
1
40
1
41
1
10
18.5418411588024
20
5.94649700352764
30
0
41
1
10
18.6048665629293
20
5.94042706762289
30
0
41
1
10
18.8939188400587
20
5.9102066117313
30
0
41
1
10
19.4089324844621
20
5.83695298314129
30
0
41
1
10
20.0869310923566
20
5.70118087403137
30
0
41
1
10
20.7650509070509
20
5.52699853501215
30
0
41
1
10
21.3303484294184
20
5.35069922340654
30
0
41
1
10
21.7827172316394
20
5.19171261448764
30
0
41
1
10
22.2351780242951
20
5.02101973082205
30
0
41
1
10
22.6877894290834
20
4.83313560915548
30
0
41
1
10
23.1405667724123
20
4.62902699024818
30
0
41
1
10
23.593459592038
20
4.41443091607655
30
0
41
1
10
24.0465278629331
20
4.18460303067783
30
0
41
1
10
24.4997400767176
20
3.94074948357516
30
0
41
1
10
24.9530369996841
20
3.68794807246204
30
0
41
1
10
25.406449504362
20
3.42234470773224
30
0
41
1
10
25.8599448193217
20
3.14533286903026
30
0
41
1
10
26.313482632086
20
2.86117580453265
30
0
41
1
10
26.880465140319
20
2.49348202505232
30
0
41
1
10
27.5608416789613
20
2.0353710401956
30
0
41
1
10
28.2411391439318
20
1.56349441660322
30
0
41
1
10
28.9212133905893
20
1.08117960734043
30
0
41
1
10
29.8279072191795
20
0.428318500896836
30
0
41
1
10
30.7358815815386
20
-0.233440710797623
30
0
41
1
10
31.6476508807532
20
-0.89252270633034
30
0
41
1
10
32.3340078556161
20
-1.38255224196749
30
0
41
1
10
33.0235500421938
20
-1.86524985373282
30
0
41
1
10
33.7169576276468
20
-2.3375378969572
30
0
41
1
10
34.4149613789004
20
-2.79634418327743
30
0
41
1
10
35.1182356781654
20
-3.23843264356347
30
0
41
1
10
35.8274612185943
20
-3.66053561397919
30
0
41
1
10
36.6012134303816
20
-4.09148700230978
30
0
41
1
10
37.1426204699596
20
-4.36703964020992
30
0
41
1
10
37.4447702404709
20
-4.51170821568854
30
0
0
SPLINE
5
190
100
AcDbEntity
8
1
62
256
6
ByLayer
370
18
48
1
60
0
100
AcDbSpline
70
4
71
3
72
70
73
66
40
0
40
0
40
0
40
0
40
0.0625000000000037
40
0.0625000000000037
40
0.0781250000000044
40
0.0781250000000044
40
0.0937500000000052
40
0.0937500000000052
40
0.125000000000007
40
0.125000000000007
40
0.156250000000008
40
0.156250000000008
40
0.17187500000001
40
0.17187500000001
40
0.187500000000011
40
0.187500000000011
40
0.250000000000017
40
0.250000000000017
40
0.265625000000019
40
0.265625000000019
40
0.273437500000019
40
0.273437500000019
40
0.28125000000002
40
0.312500000000022
40
0.312500000000022
40
0.375000000000024
40
0.375000000000024
40
0.437500000000026
40
0.437500000000026
40
0.468750000000027
40
0.468750000000027
40
0.476562500000027
40
0.476562500000027
40
0.484375000000026
40
0.500000000000025
40
0.500000000000025
40
0.56250000000002
40
0.56250000000002
40
0.625000000000015
40
0.625000000000015
40
0.656250000000012
40
0.656250000000012
40
0.671875000000011
40
0.671875000000011
40
0.687500000000009
40
0.687500000000009
40
0.750000000000003
40
0.750000000000003
40
0.765625000000002
40
0.773437500000002
40
0.773437500000002
40
0.781250000000001
40
0.781250000000001
40
0.812500000000002
40
0.812500000000002
40
0.875000000000001
40
0.875000000000001
40
0.8828125
40
0.8828125
40
0.890624999999999
40
0.906249999999999
40
0.906249999999999
40
0.937499999999999
40
0.937499999999999
40
1
40
1
40
1
40
1
41
1
10
14.0000000000002
20
5.50189318968665
30
0
41
1
10
14.4912403721221
20
5.64423826682707
30
0
41
1
10
14.9808652143207
20
5.7571014596775
30
0
41
1
10
15.5941510064654
20
5.85966233739961
30
0
41
1
10
15.7169482954341
20
5.8782653397152
30
0
41
1
10
15.9622634857113
20
5.91153766332789
30
0
41
1
10
16.0847979745584
20
5.92621265232967
30
0
41
1
10
16.4521690757999
20
5.96430938291002
30
0
41
1
10
16.6967770183423
20
5.98176271231611
30
0
41
1
10
17.1860965899264
20
6.00093011753356
30
0
41
1
10
17.4308091226083
20
6.00261808738659
30
0
41
1
10
17.7984997892625
20
5.99321710086752
30
0
41
1
10
17.9211666015951
20
5.98809738140974
30
0
41
1
10
18.1667947714409
20
5.97387527320828
30
0
41
1
10
18.2894900735961
20
5.96478823521079
30
0
41
1
10
18.90257116775
20
5.90957910961222
30
0
41
1
10
19.3918327245335
20
5.83417915586918
30
0
41
1
10
20.0048629475124
20
5.70192201098303
30
0
41
1
10
20.1275375214301
20
5.67356609684839
30
0
41
1
10
20.3117071740897
20
5.62818270393973
30
0
41
1
10
20.3731549686549
20
5.61257173761717
30
0
41
1
10
20.4959494540483
20
5.58044446499631
30
0
41
1
10
20.8025903414593
20
5.49789119161974
30
0
41
1
10
21.1076338456256
20
5.40427049279782
30
0
41
1
10
21.8377058572703
20
5.15933582551764
30
0
41
1
10
22.3217071569365
20
4.96903704616449
30
0
41
1
10
23.2899443895702
20
4.53928075171419
30
0
41
1
10
23.7741946118314
20
4.29983299029919
30
0
41
1
10
24.504930855018
20
3.90727683601074
30
0
41
1
10
24.7492339266896
20
3.77085720472135
30
0
41
1
10
25.0559326634129
20
3.59367087186175
30
0
41
1
10
25.1173806175391
20
3.55787560417409
30
0
41
1
10
25.2401967321614
20
3.48575637391679
30
0
41
1
10
25.4242284626006
20
3.37682843453936
30
0
41
1
10
25.6077270693369
20
3.26571635569894
30
0
41
1
10
26.2183834018832
20
2.89073866626512
30
0
41
1
10
26.7036301649032
20
2.5759582610458
30
0
41
1
10
27.6724518227662
20
1.92338258160825
30
0
41
1
10
28.1560399347694
20
1.58559103497191
30
0
41
1
10
28.8843904072031
20
1.06704017568438
30
0
41
1
10
29.1276750327455
20
0.892216980521425
30
0
41
1
10
29.4938999140799
20
0.627733288678229
30
0
41
1
10
29.6161909594803
20
0.539197419649554
30
0
41
1
10
29.8612961512885
20
0.361494231295382
30
0
41
1
10
29.9841854320605
20
0.272272280617159
30
0
41
1
10
30.5975447806588
20
-0.173216842017467
30
0
41
1
10
31.0867114664525
20
-0.528953031089713
30
0
41
1
10
31.6994420619573
20
-0.968441996134572
30
0
41
1
10
31.8833525415873
20
-1.09990557236577
30
0
41
1
10
32.0674748948378
20
-1.23069124391884
30
0
41
1
10
32.1902787172176
20
-1.31771923910824
30
0
41
1
10
32.2517308045259
20
-1.36116749397908
30
0
41
1
10
32.558830256069
20
-1.57773968822789
30
0
41
1
10
32.8039617787214
20
-1.74884033858069
30
0
41
1
10
33.5386851689289
20
-2.25442714684829
30
0
41
1
10
34.0275899011103
20
-2.58121703030068
30
0
41
1
10
34.5797881938417
20
-2.93308607208465
30
0
41
1
10
34.6411860385379
20
-2.97197039468489
30
0
41
1
10
34.7638388034158
20
-3.04914989839008
30
0
41
1
10
34.9476806965523
20
-3.16408510712918
30
0
41
1
10
35.1311632940409
20
-3.27646584700213
30
0
41
1
10
35.4977863429223
20
-3.49768772906592
30
0
41
1
10
35.7417469335268
20
-3.6404519514563
30
0
41
1
10
36.4733089721
20
-4.05357989777494
30
0
41
1
10
36.9606135565107
20
-4.30878921181727
30
0
41
1
10
37.4500251835172
20
-4.54105211548151
30
0
0
SPLINE
5
191
100
AcDbEntity
8
1
62
256
6
ByLayer
370
18
48
1
60
0
100
AcDbSpline
70
4
71
2
72
6
73
3
40
0
40
0
40
0
40
1
40
1
40
1
41
1
10
37.8547594438912
20
-4.93236505525505
30
0
41
1
10
37.8573017107077
20
-4.9231679555256
30
0
41
1
10
37.8598439775242
20
-4.91397085579615
30
0
0
SPLINE
5
192
100
AcDbEntity
8
1
62
256
6
ByLayer
370
18
48
1
60
0
100
AcDbSpline
70
4
71
2
72
6
73
3
40
0
40
0
40
0
40
1
40
1
40
1
41
1
10
37.8709011211635
20
-4.87396968357021
30
0
41
1
10
37.9181158276567
20
-4.70316213438181
30
0
41
1
10
37.96533053415
20
-4.53235458519339
30
0
0
SPLINE
5
193
100
AcDbEntity
8
1
62
256
6
ByLayer
370
18
48
1
60
0
100
AcDbSpline
70
4
71
1
72
4
73
2
40
0
40
0
40
1
40
1
41
1
10
16.2895754881116
20
-5.23244960780508
30
0
41
1
10
16.3760306374946
20
-5.22389937216656
30
0
0
SPLINE
5
194
100
AcDbEntity
8
1
62
256
6
ByLayer
370
18
48
1
60
0
100
AcDbSpline
70
4
71
2
72
6
73
3
40
0
40
0
40
0
40
1
40
1
40
1
41
1
10
16.3760306374946
20
-5.22389937216656
30
0
41
1
10
16.9175638917676
20
-5.1799121757447
30
0
41
1
10
17.4596259923984
20
-5.09428753568252
30
0
0
SPLINE
5
195
100
AcDbEntity
8
1
62
256
6
ByLayer
370
18
48
1
60
0
100
AcDbSpline
70
4
71
1
72
4
73
2
40
0
40
0
40
1
40
1
41
1
10
37.0460870765964
20
4.15584466999422
30
0
41
1
10
36.9775732168602
20
4.17602350628917
30
0
0
SPLINE
5
196
100
AcDbEntity
8
1
62
256
6
ByLayer
370
18
48
1
60
0
100
AcDbSpline
70
4
71
3
72
12
73
8
40
0
40
0
40
0
40
0
40
0.265318218603487
40
0.536702332324549
40
0.767333590511733
40
0.971038649151599
40
1
40
1
40
1
40
1
41
1
10
36.9775732168602
20
4.1760235062892
30
0
41
1
10
36.7910204440596
20
4.23268232342832
30
0
41
1
10
36.418738058684
20
4.34228423531161
30
0
41
1
10
35.9083344880832
20
4.48276542347909
30
0
41
1
10
35.4394264947906
20
4.60243559495086
30
0
41
1
10
35.1244690329633
20
4.67698589744438
30
0
41
1
10
34.9663184696911
20
4.7128522744417
30
0
41
1
10
34.9466327689584
20
4.71729235379658
30
0
0
SPLINE
5
197
100
AcDbEntity
8
1
62
256
6
ByLayer
370
18
48
1
60
0
100
AcDbSpline
70
4
71
3
72
13
73
9
40
0
40
0
40
0
40
0
40
0.294080205379021
40
0.514582549617035
40
0.662119803195181
40
0.781735822430409
40
0.901330674339253
40
1
40
1
40
1
40
1
41
1
10
25.7590571983953
20
-5.2626126834746
30
0
41
1
10
25.9927204441428
20
-5.25259887124113
30
0
41
1
10
26.4020229670645
20
-5.22759142768268
30
0
41
1
10
26.928990902338
20
-5.1785610477898
30
0
41
1
10
27.3184520493065
20
-5.13357232623972
30
0
41
1
10
27.6280663871356
20
-5.09274381197213
30
0
41
1
10
27.8986970510154
20
-5.05310726518445
30
0
41
1
10
28.073129852411
20
-5.02528727374084
30
0
41
1
10
28.1519037333727
20
-5.01226599064196
30
0
0
SPLINE
5
198
100
AcDbEntity
8
1
62
256
6
ByLayer
370
18
48
1
60
0
100
AcDbSpline
70
4
71
3
72
15
73
11
40
0
40
0
40
0
40
0
40
0.190540568059255
40
0.328201615106201
40
0.415031631651958
40
0.487464296459237
40
0.560140012150912
40
0.648794294118407
40
0.794741055109699
40
1
40
1
40
1
40
1
41
1
10
19.5680051727925
20
2.73571869979949
30
0
41
1
10
19.4370649094364
20
2.77195588304141
30
0
41
1
10
19.2137793441303
20
2.83861961233552
30
0
41
1
10
18.9317282356645
20
2.93403632917591
30
0
41
1
10
18.7377206527933
20
3.00464673607615
30
0
41
1
10
18.5893124785162
20
3.06121735299021
30
0
41
1
10
18.4400780745875
20
3.12038599835253
30
0
41
1
10
18.2404000306495
20
3.20293872497035
30
0
41
1
10
17.9422676427424
20
3.33387071454274
30
0
41
1
10
17.7034666487941
20
3.44801407274318
30
0
41
1
10
17.5622448544999
20
3.51857010027737
30
0
0
SPLINE
5
199
100
AcDbEntity
8
1
62
256
6
ByLayer
370
18
48
1
60
0
100
AcDbSpline
70
4
71
3
72
14
73
10
40
0
40
0
40
0
40
0
40
0.19416623526728
40
0.313767930935968
40
0.411690445615283
40
0.497797546229708
40
0.616695412435869
40
0.784256826267684
40
1
40
1
40
1
40
1
41
1
10
29.3584742706055
20
2.8085168656967
30
0
41
1
10
29.2225938991386
20
2.84225535867026
30
0
41
1
10
28.9982056153524
20
2.90309581047131
30
0
41
1
10
28.6932847019011
20
2.99604943216485
30
0
41
1
10
28.4635981112164
20
3.07182420222651
30
0
41
1
10
28.2419306047875
20
3.14945624968166
30
0
41
1
10
27.9700180015888
20
3.25066944330712
30
0
41
1
10
27.6032283931117
20
3.3984637258568
30
0
41
1
10
27.3224875048354
20
3.52290043196518
30
0
41
1
10
27.1642722988551
20
3.5966224044594
30
0
0
SPLINE
5
19A
100
AcDbEntity
8
1
62
256
6
ByLayer
370
18
48
1
60
0
100
AcDbSpline
70
4
71
2
72
6
73
3
40
0
40
0
40
0
40
1
40
1
40
1
41
1
10
35.8967338017504
20
-5.26266213587641
30
0
41
1
10
36.2743669738728
20
-5.2454516247339
30
0
41
1
10
36.6523223683377
20
-5.21088140236873
30
0
0
SPLINE
5
19B
100
AcDbEntity
8
1
62
256
6
ByLayer
370
18
48
1
60
0
100
AcDbSpline
70
4
71
2
72
6
73
3
40
0
40
0
40
0
40
1
40
1
40
1
41
1
10
37.9752720972121
20
2.13229305650515
30
0
41
1
10
37.9227635370269
20
2.48781433003441
30
0
41
1
10
37.8702549768415
20
2.84333560356365
30
0
0
SPLINE
5
19C
100
AcDbEntity
8
1
62
256
6
ByLayer
370
18
48
1
60
0
100
AcDbSpline
70
4
71
1
72
4
73
2
40
0
40
0
40
1
40
1
41
1
10
22.4388028727587
20
-5.9990765560195
30
0
41
1
10
22.4387911362464
20
-5.99907771478499
30
0
0
SPLINE
5
19D
100
AcDbEntity
8
1
62
256
6
ByLayer
370
18
48
1
60
0
100
AcDbSpline
70
4
71
1
72
4
73
2
40
0
40
0
40
1
40
1
41
1
10
27.4887979307332
20
5.99906065563934
30
0
41
1
10
27.4888153569348
20
5.99905979257341
30
0
0
SPLINE
5
19E
100
AcDbEntity
8
1
62
256
6
ByLayer
370
18
48
1
60
0
100
AcDbSpline
70
4
71
2
72
6
73
3
40
0
40
0
40
0
40
1
40
1
40
1
41
1
10
32.8144110880613
20
-5.99908756902349
30
0
41
1
10
32.8143963602887
20
-5.99908750175697
30
0
41
1
10
32.8143816325308
20
-5.99908735805246
30
0
0
SPLINE
5
19F
100
AcDbEntity
8
1
62
256
6
ByLayer
370
18
48
1
60
0
100
AcDbSpline
70
4
71
2
72
6
73
3
40
0
40
0
40
0
40
1
40
1
40
1
41
1
10
17.5341975371689
20
5.99908981419372
30
0
41
1
10
17.5342097328626
20
5.99908972191949
30
0
41
1
10
17.5342219285587
20
5.99908956547594
30
0
0
LINE
5
79
100
AcDbEntity
8
80
62
256
6
ByLayer
370
18
48
1
60
0
100
AcDbLine
10
0
20
0
30
0
11
-5
21
0
31
0
39
0
210
0
220
0
230
1
0
LINE
5
7A
100
AcDbEntity
8
4
62
256
6
ByLayer
370
18
48
0.05
60
0
100
AcDbLine
10
0
20
0
30
0
11
38
21
0
31
0
39
0
210
0
220
0
230
1
0
LINE
5
7C
100
AcDbEntity
8
81
62
256
6
ByLayer
370
18
48
1
60
0
100
AcDbLine
10
38
20
0
30
0
11
43
21
0
31
0
39
0
210
0
220
0
230
1
0
LINE
5
7D
100
AcDbEntity
8
SK4
62
256
6
ByLayer
370
18
48
0.05
60
0
100
AcDbLine
10
-45
20
0
30
0
11
38
21
0
31
0
39
0
210
0
220
0
230
1
0
LINE
5
7F
100
AcDbEntity
8
1
62
256
6
ByLayer
370
18
48
1
60
0
100
AcDbLine
10
0
20
6
30
0
11
0
21
0
31
0
39
0
210
0
220
0
230
1
0
LINE
5
80
100
AcDbEntity
8
1
62
256
6
ByLayer
370
18
48
1
60
0
100
AcDbLine
10
0
20
0
30
0
11
0
21
-6
31
0
39
0
210
0
220
0
230
1
0
LINE
5
81
100
AcDbEntity
8
1
62
256
6
ByLayer
370
18
48
1
60
0
100
AcDbLine
10
37.921976
20
0.877436
30
0
11
37.986524
21
1.394864
31
0
39
0
210
0
220
0
230
1
0
LINE
5
82
100
AcDbEntity
8
1
62
256
6
ByLayer
370
18
48
1
60
0
100
AcDbLine
10
37.848693
20
0.293409
30
0
11
37.892581
21
0.643177
31
0
39
0
210
0
220
0
230
1
0
LINE
5
83
100
AcDbEntity
8
1
62
256
6
ByLayer
370
18
48
1
60
0
100
AcDbLine
10
37.898867
20
0.693273
30
0
11
37.921976
21
0.877436
31
0
39
0
210
0
220
0
230
1
0
LINE
5
84
100
AcDbEntity
8
1
62
256
6
ByLayer
370
18
48
1
60
0
100
AcDbLine
10
37.910303
20
0.874131
30
0
11
37.921976
21
0.877436
31
0
39
0
210
0
220
0
230
1
0
LINE
5
85
100
AcDbEntity
8
1
62
256
6
ByLayer
370
18
48
1
60
0
100
AcDbLine
10
37.368236
20
-1.047899
30
0
11
37.696393
21
-0.279552
31
0
39
0
210
0
220
0
230
1
0
LINE
5
86
100
AcDbEntity
8
1
62
256
6
ByLayer
370
18
48
1
60
0
100
AcDbLine
10
37.908242
20
-1.953202
30
0
11
37.937188
21
-2.857091
31
0
39
0
210
0
220
0
230
1
0
LINE
5
87
100
AcDbEntity
8
1
62
256
6
ByLayer
370
18
48
1
60
0
100
AcDbLine
10
37.982394
20
-4.268746
30
0
11
37.986524
21
-4.397693
31
0
39
0
210
0
220
0
230
1
0
LINE
5
88
100
AcDbEntity
8
1
62
256
6
ByLayer
370
18
48
1
60
0
100
AcDbLine
10
37.846813
20
0.222681
30
0
11
37.857756
21
0.634679
31
0
39
0
210
0
220
0
230
1
0
LINE
5
89
100
AcDbEntity
8
1
62
256
6
ByLayer
370
18
48
1
60
0
100
AcDbLine
10
37.909914
20
2.598343
30
0
11
37.986524
21
5.48257
31
0
39
0
210
0
220
0
230
1
0
LINE
5
8A
100
AcDbEntity
8
1
62
256
6
ByLayer
370
18
48
1
60
0
100
AcDbLine
10
37.799656
20
-0.268323
30
0
11
37.83926
21
-0.137694
31
0
39
0
210
0
220
0
230
1
0
LINE
5
8B
100
AcDbEntity
8
1
62
256
6
ByLayer
370
18
48
1
60
0
100
AcDbLine
10
37.888167
20
-4.753516
30
0
11
37.879709
21
-4.486109
31
0
39
0
210
0
220
0
230
1
0
LINE
5
8C
100
AcDbEntity
8
1
62
256
6
ByLayer
370
13
48
1
60
0
100
AcDbLine
10
37.682063
20
0.591557
30
0
11
37.846813
21
0.222681
31
0
39
0
210
0
220
0
230
1
0
LINE
5
8D
100
AcDbEntity
8
1
62
256
6
ByLayer
370
18
48
1
60
0
100
AcDbLine
10
10.71802
20
5.759534
30
0
11
10.759917
21
5.748319
31
0
39
0
210
0
220
0
230
1
0
LINE
5
8E
100
AcDbEntity
8
1
62
256
6
ByLayer
370
13
48
1
60
0
100
AcDbLine
10
35.28016
20
-3.353735
30
0
11
35.067522
21
-3.698251
31
0
39
0
210
0
220
0
230
1
0
LINE
5
8F
100
AcDbEntity
8
1
62
256
6
ByLayer
370
18
48
1
60
0
100
AcDbLine
10
14
20
-5.357515
30
0
11
14
21
-5.755316
31
0
39
0
210
0
220
0
230
1
0
LINE
5
90
100
AcDbEntity
8
1
62
256
6
ByLayer
370
13
48
1
60
0
100
AcDbLine
10
10.563374
20
-4.998081
30
0
11
14
21
-5.357515
31
0
39
0
210
0
220
0
230
1
0
LINE
5
91
100
AcDbEntity
8
1
62
256
6
ByLayer
370
18
48
1
60
0
100
AcDbLine
10
14
20
-5.357515
30
0
11
14
21
-5.204628
31
0
39
0
210
0
220
0
230
1
0
LINE
5
92
100
AcDbEntity
8
1
62
256
6
ByLayer
370
13
48
1
60
0
100
AcDbLine
10
10.422345
20
-4.830444
30
0
11
14
21
-5.204628
31
0
39
0
210
0
220
0
230
1
0
LINE
5
93
100
AcDbEntity
8
1
62
256
6
ByLayer
370
18
48
1
60
0
100
AcDbLine
10
14
20
-5.204628
30
0
11
14
21
-5.160993
31
0
39
0
210
0
220
0
230
1
0
LINE
5
94
100
AcDbEntity
8
1
62
256
6
ByLayer
370
13
48
1
60
0
100
AcDbLine
10
37.636211
20
-0.100302
30
0
11
37.799656
21
-0.268323
31
0
39
0
210
0
220
0
230
1
0
LINE
5
95
100
AcDbEntity
8
1
62
256
6
ByLayer
370
18
48
1
60
0
100
AcDbLine
10
37.814126
20
-1.548573
30
0
11
37.897925
21
-1.750466
31
0
39
0
210
0
220
0
230
1
0
LINE
5
96
100
AcDbEntity
8
1
62
256
6
ByLayer
370
18
48
1
60
0
100
AcDbLine
10
37.897925
20
-1.750466
30
0
11
37.986524
21
-4.247625
31
0
39
0
210
0
220
0
230
1
0
LINE
5
97
100
AcDbEntity
8
1
62
256
6
ByLayer
370
13
48
1
60
0
100
AcDbLine
10
13.608309
20
4.364652
30
0
11
14
21
4.126063
31
0
39
0
210
0
220
0
230
1
0
LINE
5
98
100
AcDbEntity
8
1
62
256
6
ByLayer
370
18
48
1
60
0
100
AcDbLine
10
14
20
1.014898
30
0
11
14
21
1.515916
31
0
39
0
210
0
220
0
230
1
0
LINE
5
99
100
AcDbEntity
8
1
62
256
6
ByLayer
370
13
48
1
60
0
100
AcDbLine
10
9.405854
20
4.314333
30
0
11
14
21
1.515916
31
0
39
0
210
0
220
0
230
1
0
LINE
5
9A
100
AcDbEntity
8
1
62
256
6
ByLayer
370
18
48
1
60
0
100
AcDbLine
10
37.888167
20
-3.653707
30
0
11
37.814126
21
-1.548573
31
0
39
0
210
0
220
0
230
1
0
LINE
5
9B
100
AcDbEntity
8
1
62
256
6
ByLayer
370
18
48
1
60
0
100
AcDbLine
10
37.053511
20
-0.694555
30
0
11
37.814126
21
-1.548573
31
0
39
0
210
0
220
0
230
1
0
LINE
5
9C
100
AcDbEntity
8
1
62
256
6
ByLayer
370
18
48
1
60
0
100
AcDbLine
10
10.528876
20
-4.797951
30
0
11
14
21
-5.160993
31
0
39
0
210
0
220
0
230
1
0
LINE
5
9D
100
AcDbEntity
8
1
62
256
6
ByLayer
370
18
48
1
60
0
100
AcDbLine
10
14
20
-5.160993
30
0
11
14
21
-3.319369
31
0
39
0
210
0
220
0
230
1
0
LINE
5
9E
100
AcDbEntity
8
1
62
256
6
ByLayer
370
13
48
1
60
0
100
AcDbLine
10
8.817788
20
-2.54677
30
0
11
13.682023
21
-3.055517
31
0
39
0
210
0
220
0
230
1
0
LINE
5
9F
100
AcDbEntity
8
1
62
256
6
ByLayer
370
18
48
1
60
0
100
AcDbLine
10
37.89575
20
0.643963
30
0
11
37.986524
21
2.079619
31
0
39
0
210
0
220
0
230
1
0
LINE
5
A0
100
AcDbEntity
8
1
62
256
6
ByLayer
370
13
48
1
60
0
100
AcDbLine
10
36.094716
20
1.484348
30
0
11
37.113303
21
0.437245
31
0
39
0
210
0
220
0
230
1
0
LINE
5
A1
100
AcDbEntity
8
1
62
256
6
ByLayer
370
18
48
1
60
0
100
AcDbLine
10
37.89575
20
0.643963
30
0
11
37.241662
21
0.48346
31
0
39
0
210
0
220
0
230
1
0
LINE
5
A2
100
AcDbEntity
8
1
62
256
6
ByLayer
370
13
48
1
60
0
100
AcDbLine
10
8.920758
20
-2.30399
30
0
11
13.038436
21
-2.734656
31
0
39
0
210
0
220
0
230
1
0
LINE
5
A3
100
AcDbEntity
8
1
62
256
6
ByLayer
370
18
48
1
60
0
100
AcDbLine
10
14
20
1.515916
30
0
11
14
21
4.126063
31
0
39
0
210
0
220
0
230
1
0
LINE
5
A4
100
AcDbEntity
8
1
62
256
6
ByLayer
370
18
48
1
60
0
100
AcDbLine
10
14
20
-1.258796
30
0
11
14
21
-0.560856
31
0
39
0
210
0
220
0
230
1
0
LINE
5
A5
100
AcDbEntity
8
1
62
256
6
ByLayer
370
18
48
1
60
0
100
AcDbLine
10
14
20
-1.503606
30
0
11
14
21
-1.258796
31
0
39
0
210
0
220
0
230
1
0
LINE
5
A6
100
AcDbEntity
8
1
62
256
6
ByLayer
370
13
48
1
60
0
100
AcDbLine
10
10.299476
20
0.995292
30
0
11
14
21
-1.258796
31
0
39
0
210
0
220
0
230
1
0
LINE
5
A7
100
AcDbEntity
8
1
62
256
6
ByLayer
370
13
48
1
60
0
100
AcDbLine
10
10.426468
20
0.673128
30
0
11
14
21
-1.503606
31
0
39
0
210
0
220
0
230
1
0
LINE
5
A8
100
AcDbEntity
8
1
62
256
6
ByLayer
370
18
48
1
60
0
100
AcDbLine
10
10.702061
20
1.448007
30
0
11
14
21
-0.560856
31
0
39
0
210
0
220
0
230
1
0
LINE
5
A9
100
AcDbEntity
8
1
62
256
6
ByLayer
370
18
48
1
60
0
100
AcDbLine
10
14
20
-0.560856
30
0
11
14
21
1.014898
31
0
39
0
210
0
220
0
230
1
0
LINE
5
AA
100
AcDbEntity
8
1
62
256
6
ByLayer
370
13
48
1
60
0
100
AcDbLine
10
9.263712
20
3.899898
30
0
11
14
21
1.014898
31
0
39
0
210
0
220
0
230
1
0
LINE
5
AB
100
AcDbEntity
8
1
62
256
6
ByLayer
370
13
48
1
60
0
100
AcDbLine
10
13.316359
20
4.408479
30
0
11
13.316359
21
5.275554
31
0
39
0
210
0
220
0
230
1
0
LINE
5
AC
100
AcDbEntity
8
1
62
256
6
ByLayer
370
13
48
1
60
0
100
AcDbLine
10
13.316359
20
-5.76
30
0
11
13.316359
21
-5.690643
31
0
39
0
210
0
220
0
230
1
0
LINE
5
AD
100
AcDbEntity
8
1
62
256
6
ByLayer
370
18
48
1
60
0
100
AcDbLine
10
14
20
-1.503606
30
0
11
14
21
-1.840536
31
0
39
0
210
0
220
0
230
1
0
LINE
5
AE
100
AcDbEntity
8
1
62
256
6
ByLayer
370
18
48
1
60
0
100
AcDbLine
10
14
20
4.377995
30
0
11
14
21
4.126063
31
0
39
0
210
0
220
0
230
1
0
LINE
5
AF
100
AcDbEntity
8
1
62
256
6
ByLayer
370
18
48
1
60
0
100
AcDbLine
10
14
20
5.501893
30
0
11
14
21
5.093513
31
0
39
0
210
0
220
0
230
1
0
LINE
5
B0
100
AcDbEntity
8
1
62
256
6
ByLayer
370
13
48
1
60
0
100
AcDbLine
10
13.316359
20
-2.842276
30
0
11
13.316359
21
-1.430506
31
0
39
0
210
0
220
0
230
1
0
LINE
5
B1
100
AcDbEntity
8
1
62
256
6
ByLayer
370
13
48
1
60
0
100
AcDbLine
10
13.816359
20
4.860698
30
0
11
13.816359
21
4.36373
31
0
39
0
210
0
220
0
230
1
0
LINE
5
B2
100
AcDbEntity
8
1
62
256
6
ByLayer
370
13
48
1
60
0
100
AcDbLine
10
13.816359
20
-2.482957
30
0
11
13.816359
21
-3.158367
31
0
39
0
210
0
220
0
230
1
0
LINE
5
B3
100
AcDbEntity
8
1
62
256
6
ByLayer
370
13
48
1
60
0
100
AcDbLine
10
1.997679
20
-5.76
30
0
11
1.997679
21
0
31
0
39
0
210
0
220
0
230
1
0
LINE
5
B4
100
AcDbEntity
8
1
62
256
6
ByLayer
370
13
48
1
60
0
100
AcDbLine
10
1.997679
20
0
30
0
11
1.997679
21
5.76
31
0
39
0
210
0
220
0
230
1
0
LINE
5
B5
100
AcDbEntity
8
1
62
256
6
ByLayer
370
13
48
1
60
0
100
AcDbLine
10
1.497679
20
5.893975
30
0
11
1.497679
21
0
31
0
39
0
210
0
220
0
230
1
0
LINE
5
B6
100
AcDbEntity
8
1
62
256
6
ByLayer
370
13
48
1
60
0
100
AcDbLine
10
1.497679
20
0
30
0
11
1.497679
21
-5.893975
31
0
39
0
210
0
220
0
230
1
0
LINE
5
B7
100
AcDbEntity
8
1
62
256
6
ByLayer
370
18
48
1
60
0
100
AcDbLine
10
1.314038
20
6
30
0
11
1.314038
21
0
31
0
39
0
210
0
220
0
230
1
0
LINE
5
B8
100
AcDbEntity
8
1
62
256
6
ByLayer
370
18
48
1
60
0
100
AcDbLine
10
1.314038
20
0
30
0
11
1.314038
21
-6
31
0
39
0
210
0
220
0
230
1
0
LINE
5
B9
100
AcDbEntity
8
1
62
256
6
ByLayer
370
18
48
1
60
0
100
AcDbLine
10
14
20
4.377995
30
0
11
14
21
4.378275
31
0
39
0
210
0
220
0
230
1
0
LINE
5
BA
100
AcDbEntity
8
SK1
62
256
6
ByLayer
370
18
48
1
60
0
100
AcDbLine
10
-45
20
-5.2
30
0
11
-45
21
5.2
31
0
39
0
210
0
220
0
230
1
0
LINE
5
BC
100
AcDbEntity
8
SK1
62
256
6
ByLayer
370
18
48
1
60
0
100
AcDbLine
10
0
20
6
30
0
11
0
21
0
31
0
39
0
210
0
220
0
230
1
0
LINE
5
BD
100
AcDbEntity
8
SK1
62
256
6
ByLayer
370
18
48
1
60
0
100
AcDbLine
10
0
20
0
30
0
11
0
21
-6
31
0
39
0
210
0
220
0
230
1
0
LINE
5
BE
100
AcDbEntity
8
SK1
62
256
6
ByLayer
370
18
48
1
60
0
100
AcDbLine
10
-44.2
20
6
30
0
11
-44.2
21
-6
31
0
39
0
210
0
220
0
230
1
0
LINE
5
BF
100
AcDbEntity
8
SK1
62
256
6
ByLayer
370
18
48
1
60
0
100
AcDbLine
10
-26.5
20
4.4
30
0
11
-28.1
21
6
31
0
39
0
210
0
220
0
230
1
0
LINE
5
C0
100
AcDbEntity
8
SK1
62
256
6
ByLayer
370
18
48
1
60
0
100
AcDbLine
10
-16.9
20
6
30
0
11
-18.5
21
4.4
31
0
39
0
210
0
220
0
230
1
0
LINE
5
C1
100
AcDbEntity
8
SK1
62
256
6
ByLayer
370
18
48
1
60
0
100
AcDbLine
10
-26.5
20
4.4
30
0
11
-18.5
21
4.4
31
0
39
0
210
0
220
0
230
1
0
LINE
5
C2
100
AcDbEntity
8
1
62
256
6
ByLayer
370
18
48
1
60
0
100
AcDbLine
10
1.314038
20
6
30
0
11
0
21
6
31
0
39
0
210
0
220
0
230
1
0
LINE
5
C3
100
AcDbEntity
8
1
62
256
6
ByLayer
370
18
48
1
60
0
100
AcDbLine
10
0
20
-6
30
0
11
1.314038
21
-6
31
0
39
0
210
0
220
0
230
1
0
LINE
5
C4
100
AcDbEntity
8
1
62
256
6
ByLayer
370
18
48
1
60
0
100
AcDbLine
10
10.505823
20
5.76
30
0
11
1.997679
21
5.76
31
0
39
0
210
0
220
0
230
1
0
LINE
5
C5
100
AcDbEntity
8
1
62
256
6
ByLayer
370
18
48
1
60
0
100
AcDbLine
10
1.997679
20
-5.76
30
0
11
13.316359
21
-5.76
31
0
39
0
210
0
220
0
230
1
0
LINE
5
C6
100
AcDbEntity
8
1
62
256
6
ByLayer
370
18
48
1
60
0
100
AcDbLine
10
1.497679
20
5.893975
30
0
11
1.314038
21
6
31
0
39
0
210
0
220
0
230
1
0
LINE
5
C7
100
AcDbEntity
8
1
62
256
6
ByLayer
370
18
48
1
60
0
100
AcDbLine
10
1.314038
20
-6
30
0
11
1.497679
21
-5.893975
31
0
39
0
210
0
220
0
230
1
0
LINE
5
C8
100
AcDbEntity
8
SK1
62
256
6
ByLayer
370
18
48
1
60
0
100
AcDbLine
10
-45
20
-5.2
30
0
11
-44.2
21
-6
31
0
39
0
210
0
220
0
230
1
0
LINE
5
C9
100
AcDbEntity
8
SK1
62
256
6
ByLayer
370
18
48
1
60
0
100
AcDbLine
10
-44.2
20
6
30
0
11
-45
21
5.2
31
0
39
0
210
0
220
0
230
1
0
LINE
5
CA
100
AcDbEntity
8
SK1
62
256
6
ByLayer
370
18
48
1
60
0
100
AcDbLine
10
0
20
6
30
0
11
-16.9
21
6
31
0
39
0
210
0
220
0
230
1
0
LINE
5
CB
100
AcDbEntity
8
SK1
62
256
6
ByLayer
370
18
48
1
60
0
100
AcDbLine
10
-28.1
20
6
30
0
11
-44.2
21
6
31
0
39
0
210
0
220
0
230
1
0
LINE
5
CC
100
AcDbEntity
8
SK1
62
256
6
ByLayer
370
18
48
1
60
0
100
AcDbLine
10
-44.2
20
-6
30
0
11
0
21
-6
31
0
39
0
210
0
220
0
230
1
0
LINE
5
CD
100
AcDbEntity
8
SK2
62
256
6
ByLayer
370
18
48
1
60
0
100
AcDbLine
10
-52.45
20
6
30
0
11
-52.45
21
-24.056066
31
0
39
0
210
0
220
0
230
1
0
LINE
5
CF
100
AcDbEntity
8
SK2
62
256
6
ByLayer
370
18
48
1
60
0
100
AcDbLine
10
-45.7875
20
6
30
0
11
-54.45
21
6
31
0
39
0
210
0
220
0
230
1
0
LINE
5
D0
100
AcDbEntity
8
SK2
62
256
6
ByLayer
370
18
48
1
60
0
100
AcDbLine
10
-45.7875
20
-6
30
0
11
-54.45
21
-6
31
0
39
0
210
0
220
0
230
1
0
LINE
5
D1
100
AcDbEntity
8
1
62
256
6
ByLayer
370
18
48
1
60
1
100
AcDbLine
10
-52.45
20
6
30
0
11
-51.989216
21
2.500002
31
0
39
0
210
0
220
0
230
1
0
LINE
5
D2
100
AcDbEntity
8
1
62
256
6
ByLayer
370
18
48
1
60
1
100
AcDbLine
10
-51.989216
20
2.500002
30
0
11
-52.910784
21
2.499998
31
0
39
0
210
0
220
0
230
1
0
LINE
5
D3
100
AcDbEntity
8
1
62
256
6
ByLayer
370
18
48
1
60
1
100
AcDbLine
10
-52.910784
20
2.499998
30
0
11
-52.45
21
6
31
0
39
0
210
0
220
0
230
1
0
LINE
5
D4
100
AcDbEntity
8
1
62
256
6
ByLayer
370
18
48
1
60
1
100
AcDbLine
10
-52.45
20
-6
30
0
11
-52.910784
21
-2.500002
31
0
39
0
210
0
220
0
230
1
0
LINE
5
D5
100
AcDbEntity
8
1
62
256
6
ByLayer
370
18
48
1
60
1
100
AcDbLine
10
-52.910784
20
-2.500002
30
0
11
-51.989216
21
-2.499998
31
0
39
0
210
0
220
0
230
1
0
LINE
5
D6
100
AcDbEntity
8
1
62
256
6
ByLayer
370
18
48
1
60
1
100
AcDbLine
10
-51.989216
20
-2.499998
30
0
11
-52.45
21
-6
31
0
39
0
210
0
220
0
230
1
0
LINE
5
D7
100
AcDbEntity
8
SK2
62
256
6
ByLayer
370
13
48
1
60
0
100
AcDbLine
10
9.107019
20
-5.76
30
0
11
9.107019
21
33.590131
31
0
39
0
210
0
220
0
230
1
0
LINE
5
D8
100
AcDbEntity
8
SK2
62
256
6
ByLayer
370
13
48
1
60
0
100
AcDbLine
10
11.728859
20
5.76
30
0
11
7.107019
21
5.76
31
0
39
0
210
0
220
0
230
1
0
LINE
5
D9
100
AcDbEntity
8
SK2
62
256
6
ByLayer
370
13
48
1
60
0
100
AcDbLine
10
11.728859
20
-5.76
30
0
11
7.107019
21
-5.76
31
0
39
0
210
0
220
0
230
1
0
LINE
5
DA
100
AcDbEntity
8
1
62
256
6
ByLayer
370
18
48
1
60
1
100
AcDbLine
10
9.107019
20
5.76
30
0
11
9.567803
21
2.260002
31
0
39
0
210
0
220
0
230
1
0
LINE
5
DB
100
AcDbEntity
8
1
62
256
6
ByLayer
370
18
48
1
60
1
100
AcDbLine
10
9.567803
20
2.260002
30
0
11
8.646235
21
2.259998
31
0
39
0
210
0
220
0
230
1
0
LINE
5
DC
100
AcDbEntity
8
1
62
256
6
ByLayer
370
18
48
1
60
1
100
AcDbLine
10
8.646235
20
2.259998
30
0
11
9.107019
21
5.76
31
0
39
0
210
0
220
0
230
1
0
LINE
5
DD
100
AcDbEntity
8
1
62
256
6
ByLayer
370
18
48
1
60
1
100
AcDbLine
10
9.107019
20
-5.76
30
0
11
8.646235
21
-2.260002
31
0
39
0
210
0
220
0
230
1
0
LINE
5
DE
100
AcDbEntity
8
1
62
256
6
ByLayer
370
18
48
1
60
1
100
AcDbLine
10
8.646235
20
-2.260002
30
0
11
9.567803
21
-2.259998
31
0
39
0
210
0
220
0
230
1
0
LINE
5
DF
100
AcDbEntity
8
1
62
256
6
ByLayer
370
18
48
1
60
1
100
AcDbLine
10
9.567803
20
-2.259998
30
0
11
9.107019
21
-5.76
31
0
39
0
210
0
220
0
230
1
0
LINE
5
E0
100
AcDbEntity
8
2
62
256
6
ByLayer
370
18
48
1
60
0
100
AcDbLine
10
50
20
-6
30
0
11
50
21
24.056066
31
0
39
0
210
0
220
0
230
1
0
LINE
5
E2
100
AcDbEntity
8
2
62
256
6
ByLayer
370
18
48
1
60
0
100
AcDbLine
10
39.5875
20
6
30
0
11
52
21
6
31
0
39
0
210
0
220
0
230
1
0
LINE
5
E3
100
AcDbEntity
8
2
62
256
6
ByLayer
370
18
48
1
60
0
100
AcDbLine
10
39.5875
20
-6
30
0
11
52
21
-6
31
0
39
0
210
0
220
0
230
1
0
LINE
5
E4
100
AcDbEntity
8
1
62
256
6
ByLayer
370
18
48
1
60
1
100
AcDbLine
10
50
20
6
30
0
11
50.460784
21
2.500002
31
0
39
0
210
0
220
0
230
1
0
LINE
5
E5
100
AcDbEntity
8
1
62
256
6
ByLayer
370
18
48
1
60
1
100
AcDbLine
10
50.460784
20
2.500002
30
0
11
49.539216
21
2.499998
31
0
39
0
210
0
220
0
230
1
0
LINE
5
E6
100
AcDbEntity
8
1
62
256
6
ByLayer
370
18
48
1
60
1
100
AcDbLine
10
49.539216
20
2.499998
30
0
11
50
21
6
31
0
39
0
210
0
220
0
230
1
0
LINE
5
E7
100
AcDbEntity
8
1
62
256
6
ByLayer
370
18
48
1
60
1
100
AcDbLine
10
50
20
-6
30
0
11
49.539216
21
-2.500002
31
0
39
0
210
0
220
0
230
1
0
LINE
5
E8
100
AcDbEntity
8
1
62
256
6
ByLayer
370
18
48
1
60
1
100
AcDbLine
10
49.539216
20
-2.500002
30
0
11
50.460784
21
-2.499998
31
0
39
0
210
0
220
0
230
1
0
LINE
5
E9
100
AcDbEntity
8
1
62
256
6
ByLayer
370
18
48
1
60
1
100
AcDbLine
10
50.460784
20
-2.499998
30
0
11
50
21
-6
31
0
39
0
210
0
220
0
230
1
0
LINE
5
EA
100
AcDbEntity
8
SK2
62
256
6
ByLayer
370
18
48
1
60
0
100
AcDbLine
10
38
20
-53.078376
30
0
11
-45
21
-53.078376
31
0
39
0
210
0
220
0
230
1
0
LINE
5
EB
100
AcDbEntity
8
SK2
62
256
6
ByLayer
370
18
48
1
60
0
100
AcDbLine
10
-45
20
-6.7875
30
0
11
-45
21
-55.078376
31
0
39
0
210
0
220
0
230
1
0
LINE
5
EC
100
AcDbEntity
8
SK2
62
256
6
ByLayer
370
18
48
1
60
0
100
AcDbLine
10
38
20
-7.5875
30
0
11
38
21
-55.078376
31
0
39
0
210
0
220
0
230
1
0
LINE
5
ED
100
AcDbEntity
8
1
62
256
6
ByLayer
370
18
48
1
60
1
100
AcDbLine
10
-45
20
-53.078376
30
0
11
-41.500002
21
-52.617592
31
0
39
0
210
0
220
0
230
1
0
LINE
5
EE
100
AcDbEntity
8
1
62
256
6
ByLayer
370
18
48
1
60
1
100
AcDbLine
10
-41.500002
20
-52.617592
30
0
11
-41.499998
21
-53.53916
31
0
39
0
210
0
220
0
230
1
0
LINE
5
EF
100
AcDbEntity
8
1
62
256
6
ByLayer
370
18
48
1
60
1
100
AcDbLine
10
-41.499998
20
-53.53916
30
0
11
-45
21
-53.078376
31
0
39
0
210
0
220
0
230
1
0
LINE
5
F0
100
AcDbEntity
8
1
62
256
6
ByLayer
370
18
48
1
60
1
100
AcDbLine
10
38
20
-53.078376
30
0
11
34.500002
21
-53.53916
31
0
39
0
210
0
220
0
230
1
0
LINE
5
F1
100
AcDbEntity
8
1
62
256
6
ByLayer
370
18
48
1
60
1
100
AcDbLine
10
34.500002
20
-53.53916
30
0
11
34.499998
21
-52.617592
31
0
39
0
210
0
220
0
230
1
0
LINE
5
F2
100
AcDbEntity
8
1
62
256
6
ByLayer
370
18
48
1
60
1
100
AcDbLine
10
34.499998
20
-52.617592
30
0
11
38
21
-53.078376
31
0
39
0
210
0
220
0
230
1
0
LINE
5
1A4
100
AcDbEntity
8
1
62
256
6
ByLayer
370
18
48
1
60
1
100
AcDbLine
10
-52.45
20
6
30
0
11
-51.989216
21
2.500002
31
0
39
0
210
0
220
0
230
1
0
LINE
5
1A5
100
AcDbEntity
8
1
62
256
6
ByLayer
370
18
48
1
60
1
100
AcDbLine
10
-51.989216
20
2.500002
30
0
11
-52.910784
21
2.499998
31
0
39
0
210
0
220
0
230
1
0
LINE
5
1A6
100
AcDbEntity
8
1
62
256
6
ByLayer
370
18
48
1
60
1
100
AcDbLine
10
-52.910784
20
2.499998
30
0
11
-52.45
21
6
31
0
39
0
210
0
220
0
230
1
0
LINE
5
1A8
100
AcDbEntity
8
1
62
256
6
ByLayer
370
18
48
1
60
1
100
AcDbLine
10
-52.45
20
-6
30
0
11
-52.910784
21
-2.500002
31
0
39
0
210
0
220
0
230
1
0
LINE
5
1A9
100
AcDbEntity
8
1
62
256
6
ByLayer
370
18
48
1
60
1
100
AcDbLine
10
-52.910784
20
-2.500002
30
0
11
-51.989216
21
-2.499998
31
0
39
0
210
0
220
0
230
1
0
LINE
5
1AA
100
AcDbEntity
8
1
62
256
6
ByLayer
370
18
48
1
60
1
100
AcDbLine
10
-51.989216
20
-2.499998
30
0
11
-52.45
21
-6
31
0
39
0
210
0
220
0
230
1
0
LINE
5
1AE
100
AcDbEntity
8
1
62
256
6
ByLayer
370
18
48
1
60
1
100
AcDbLine
10
9.107019
20
5.76
30
0
11
9.567803
21
2.260002
31
0
39
0
210
0
220
0
230
1
0
LINE
5
1AF
100
AcDbEntity
8
1
62
256
6
ByLayer
370
18
48
1
60
1
100
AcDbLine
10
9.567803
20
2.260002
30
0
11
8.646235
21
2.259998
31
0
39
0
210
0
220
0
230
1
0
LINE
5
1B0
100
AcDbEntity
8
1
62
256
6
ByLayer
370
18
48
1
60
1
100
AcDbLine
10
8.646235
20
2.259998
30
0
11
9.107019
21
5.76
31
0
39
0
210
0
220
0
230
1
0
LINE
5
1B2
100
AcDbEntity
8
1
62
256
6
ByLayer
370
18
48
1
60
1
100
AcDbLine
10
9.107019
20
-5.76
30
0
11
8.646235
21
-2.260002
31
0
39
0
210
0
220
0
230
1
0
LINE
5
1B3
100
AcDbEntity
8
1
62
256
6
ByLayer
370
18
48
1
60
1
100
AcDbLine
10
8.646235
20
-2.260002
30
0
11
9.567803
21
-2.259998
31
0
39
0
210
0
220
0
230
1
0
LINE
5
1B4
100
AcDbEntity
8
1
62
256
6
ByLayer
370
18
48
1
60
1
100
AcDbLine
10
9.567803
20
-2.259998
30
0
11
9.107019
21
-5.76
31
0
39
0
210
0
220
0
230
1
0
LINE
5
1B8
100
AcDbEntity
8
1
62
256
6
ByLayer
370
18
48
1
60
1
100
AcDbLine
10
50
20
6
30
0
11
50.460784
21
2.500002
31
0
39
0
210
0
220
0
230
1
0
LINE
5
1B9
100
AcDbEntity
8
1
62
256
6
ByLayer
370
18
48
1
60
1
100
AcDbLine
10
50.460784
20
2.500002
30
0
11
49.539216
21
2.499998
31
0
39
0
210
0
220
0
230
1
0
LINE
5
1BA
100
AcDbEntity
8
1
62
256
6
ByLayer
370
18
48
1
60
1
100
AcDbLine
10
49.539216
20
2.499998
30
0
11
50
21
6
31
0
39
0
210
0
220
0
230
1
0
LINE
5
1BC
100
AcDbEntity
8
1
62
256
6
ByLayer
370
18
48
1
60
1
100
AcDbLine
10
50
20
-6
30
0
11
49.539216
21
-2.500002
31
0
39
0
210
0
220
0
230
1
0
LINE
5
1BD
100
AcDbEntity
8
1
62
256
6
ByLayer
370
18
48
1
60
1
100
AcDbLine
10
49.539216
20
-2.500002
30
0
11
50.460784
21
-2.499998
31
0
39
0
210
0
220
0
230
1
0
LINE
5
1BE
100
AcDbEntity
8
1
62
256
6
ByLayer
370
18
48
1
60
1
100
AcDbLine
10
50.460784
20
-2.499998
30
0
11
50
21
-6
31
0
39
0
210
0
220
0
230
1
0
LINE
5
1C1
100
AcDbEntity
8
1
62
256
6
ByLayer
370
18
48
1
60
1
100
AcDbLine
10
-45
20
-53.078376
30
0
11
-41.500002
21
-52.617592
31
0
39
0
210
0
220
0
230
1
0
LINE
5
1C2
100
AcDbEntity
8
1
62
256
6
ByLayer
370
18
48
1
60
1
100
AcDbLine
10
-41.500002
20
-52.617592
30
0
11
-41.499998
21
-53.53916
31
0
39
0
210
0
220
0
230
1
0
LINE
5
1C3
100
AcDbEntity
8
1
62
256
6
ByLayer
370
18
48
1
60
1
100
AcDbLine
10
-41.499998
20
-53.53916
30
0
11
-45
21
-53.078376
31
0
39
0
210
0
220
0
230
1
0
LINE
5
1C5
100
AcDbEntity
8
1
62
256
6
ByLayer
370
18
48
1
60
1
100
AcDbLine
10
38
20
-53.078376
30
0
11
34.500002
21
-53.53916
31
0
39
0
210
0
220
0
230
1
0
LINE
5
1C6
100
AcDbEntity
8
1
62
256
6
ByLayer
370
18
48
1
60
1
100
AcDbLine
10
34.500002
20
-53.53916
30
0
11
34.499998
21
-52.617592
31
0
39
0
210
0
220
0
230
1
0
LINE
5
1C7
100
AcDbEntity
8
1
62
256
6
ByLayer
370
18
48
1
60
1
100
AcDbLine
10
34.499998
20
-52.617592
30
0
11
38
21
-53.078376
31
0
39
0
210
0
220
0
230
1
0
MTEXT
5
1A0
100
AcDbEntity
8
SK2
62
256
6
ByLayer
370
18
48
1
60
0
100
AcDbMText
10
-54.014634
20
-22.121222
30
0
210
0
220
0
230
1
1
%%c
40
3.5
41
0
44
1.084337
50
90
71
7
72
5
7
iso_b_vert
0
MTEXT
5
1A3
100
AcDbEntity
8
SK2
62
256
6
ByLayer
370
18
48
1
60
0
100
AcDbMText
10
-54.014634
20
-15.148566
30
0
210
0
220
0
230
1
1
\W0.5321;12
40
3.5
41
0
44
1.084337
50
90
71
7
72
5
7
iso_b_vert
0
MTEXT
5
1AC
100
AcDbEntity
8
SK2
62
256
6
ByLayer
370
18
48
1
60
0
100
AcDbMText
10
7.542385
20
17.694844
30
0
210
0
220
0
230
1
1
%%c
40
3.5
41
0
44
1.084337
50
90
71
7
72
5
7
iso_b_vert
0
MTEXT
5
1AD
100
AcDbEntity
8
SK2
62
256
6
ByLayer
370
18
48
1
60
0
100
AcDbMText
10
7.542385
20
24.6675
30
0
210
0
220
0
230
1
1
\W0.6261;11.52
40
3.5
41
0
44
1.084337
50
90
71
7
72
5
7
iso_b_vert
0
MTEXT
5
1B6
100
AcDbEntity
8
2
62
256
6
ByLayer
370
18
48
1
60
0
100
AcDbMText
10
48.435366
20
13.934844
30
0
210
0
220
0
230
1
1
%%c
40
3.5
41
0
44
1.084337
50
90
71
7
72
5
7
iso_b_vert
0
MTEXT
5
1B7
100
AcDbEntity
8
2
62
256
6
ByLayer
370
18
48
1
60
0
100
AcDbMText
10
48.435366
20
20.9075
30
0
210
0
220
0
230
1
1
\W0.5321;12
40
3.5
41
0
44
1.084337
50
90
71
7
72
5
7
iso_b_vert
0
MTEXT
5
1C0
100
AcDbEntity
8
SK2
62
256
6
ByLayer
370
18
48
1
60
0
100
AcDbMText
10
-5.404966
20
-52.045742
30
0
210
0
220
0
230
1
1
\W0.6740;83
40
3.5
41
0
44
1.084337
50
0
71
7
72
5
7
iso_b_vert
0
MTEXT
5
1C9
100
AcDbEntity
8
SK6
62
256
6
ByLayer
370
18
48
1
60
0
100
AcDbMText
10
-28.668568
20
-62.108352
30
0
210
0
220
0
230
1
1
\W0.7088;1K335-1200-050-XD   1730
40
3
41
0
44
1.084337
50
0
71
7
72
5
7
iso_b_vert
0
HATCH
5
1A7
100
AcDbEntity
8
SK2
62
256
6
ByLayer
370
13
48
1
60
0
100
AcDbHatch
10
0
20
0
30
0
210
0
220
0
230
1
2
ANSI31
70
0
71
0
91
1
92
5
93
3
72
1
10
-52.45
20
6
11
-51.9892162584472
21
2.50000169255318
72
1
10
-51.9892162584472
20
2.50000169255318
11
-52.9107837415528
21
2.49999830744682
72
1
10
-52.9107837415528
20
2.49999830744682
11
-52.45
21
6
97
0
75
0
76
1
52
0
41
0.0062
77
0
78
1
53
45
43
0
44
0
45
-0.0139193969876572
46
0.0139193969876572
79
0
47
0
98
1
10
0
20
0
0
HATCH
5
1AB
100
AcDbEntity
8
SK2
62
256
6
ByLayer
370
13
48
1
60
0
100
AcDbHatch
10
0
20
0
30
0
210
0
220
0
230
1
2
ANSI31
70
0
71
0
91
1
92
5
93
3
72
1
10
-52.45
20
-6
11
-52.9107837415528
21
-2.50000169255318
72
1
10
-52.9107837415528
20
-2.50000169255318
11
-51.9892162584472
21
-2.49999830744682
72
1
10
-51.9892162584472
20
-2.49999830744682
11
-52.45
21
-6
97
0
75
0
76
1
52
0
41
0.0062
77
0
78
1
53
45
43
0
44
0
45
-0.0139193969876572
46
0.0139193969876572
79
0
47
0
98
1
10
0
20
0
0
HATCH
5
1B1
100
AcDbEntity
8
SK2
62
256
6
ByLayer
370
13
48
1
60
0
100
AcDbHatch
10
0
20
0
30
0
210
0
220
0
230
1
2
ANSI31
70
0
71
0
91
1
92
5
93
3
72
1
10
9.10701876795662
20
5.75999999999993
11
9.56780250950939
21
2.26000169255312
72
1
10
9.56780250950939
20
2.26000169255312
11
8.64623502640384
21
2.25999830744675
72
1
10
8.64623502640384
20
2.25999830744675
11
9.10701876795662
21
5.75999999999993
97
0
75
0
76
1
52
0
41
0.0062
77
0
78
1
53
45
43
0
44
0
45
-0.0139193969876572
46
0.0139193969876572
79
0
47
0
98
1
10
0
20
0
0
HATCH
5
1B5
100
AcDbEntity
8
SK2
62
256
6
ByLayer
370
13
48
1
60
0
100
AcDbHatch
10
0
20
0
30
0
210
0
220
0
230
1
2
ANSI31
70
0
71
0
91
1
92
5
93
3
72
1
10
9.10701876795662
20
-5.76000000000005
11
8.64623502640384
21
-2.26000169255323
72
1
10
8.64623502640384
20
-2.26000169255323
11
9.56780250950939
21
-2.25999830744686
72
1
10
9.56780250950939
20
-2.25999830744686
11
9.10701876795662
21
-5.76000000000005
97
0
75
0
76
1
52
0
41
0.0062
77
0
78
1
53
45
43
0
44
0
45
-0.0139193969876572
46
0.0139193969876572
79
0
47
0
98
1
10
0
20
0
0
HATCH
5
1BB
100
AcDbEntity
8
2
62
256
6
ByLayer
370
13
48
1
60
0
100
AcDbHatch
10
0
20
0
30
0
210
0
220
0
230
1
2
ANSI31
70
0
71
0
91
1
92
5
93
3
72
1
10
50
20
5.99999999999986
11
50.4607837415528
21
2.50000169255304
72
1
10
50.4607837415528
20
2.50000169255304
11
49.5392162584472
21
2.49999830744667
72
1
10
49.5392162584472
20
2.49999830744667
11
50
21
5.99999999999986
97
0
75
0
76
1
52
0
41
0.0062
77
0
78
1
53
45
43
0
44
0
45
-0.0139193969876572
46
0.0139193969876572
79
0
47
0
98
1
10
0
20
0
0
HATCH
5
1BF
100
AcDbEntity
8
2
62
256
6
ByLayer
370
13
48
1
60
0
100
AcDbHatch
10
0
20
0
30
0
210
0
220
0
230
1
2
ANSI31
70
0
71
0
91
1
92
5
93
3
72
1
10
50
20
-6.00000000000014
11
49.5392162584472
21
-2.50000169255333
72
1
10
49.5392162584472
20
-2.50000169255333
11
50.4607837415528
21
-2.49999830744696
72
1
10
50.4607837415528
20
-2.49999830744696
11
50
21
-6.00000000000014
97
0
75
0
76
1
52
0
41
0.0062
77
0
78
1
53
45
43
0
44
0
45
-0.0139193969876572
46
0.0139193969876572
79
0
47
0
98
1
10
0
20
0
0
HATCH
5
1C4
100
AcDbEntity
8
SK2
62
256
6
ByLayer
370
13
48
1
60
0
100
AcDbHatch
10
0
20
0
30
0
210
0
220
0
230
1
2
ANSI31
70
0
71
0
91
1
92
5
93
3
72
1
10
-45
20
-53.078375927893
11
-41.5000016925532
21
-52.6175921863402
72
1
10
-41.5000016925532
20
-52.6175921863402
11
-41.4999983074468
21
-53.5391596694458
72
1
10
-41.4999983074468
20
-53.5391596694458
11
-45
21
-53.078375927893
97
0
75
0
76
1
52
0
41
0.0062
77
0
78
1
53
45
43
0
44
0
45
-0.0139193969876572
46
0.0139193969876572
79
0
47
0
98
1
10
0
20
0
0
HATCH
5
1C8
100
AcDbEntity
8
SK2
62
256
6
ByLayer
370
13
48
1
60
0
100
AcDbHatch
10
0
20
0
30
0
210
0
220
0
230
1
2
ANSI31
70
0
71
0
91
1
92
5
93
3
72
1
10
38
20
-53.078375927893
11
34.5000016925532
21
-53.5391596694458
72
1
10
34.5000016925532
20
-53.5391596694458
11
34.4999983074468
21
-52.6175921863402
72
1
10
34.4999983074468
20
-52.6175921863402
11
38
21
-53.078375927893
97
0
75
0
76
1
52
0
41
0.0062
77
0
78
1
53
45
43
0
44
0
45
-0.0139193969876572
46
0.0139193969876572
79
0
47
0
98
1
10
0
20
0
0
DIMENSION
5
1CC
100
AcDbEntity
8
2
62
256
6
ByLayer
370
18
48
1
60
0
100
AcDbDimension
2
_U0
10
14
20
-21.078376
30
0
11
26
21
-21.078376
31
0
70
32
71
1
72
1
41
1
210
0
220
0
230
1
3
Standard
100
AcDbAlignedDimension
13
38
23
-6
33
0
14
14
24
-6
34
0
50
0
100
AcDbRotatedDimension
1001
ACAD
1000
DSTYLE
1002
{
1070
   371
1070
    13
1070
   372
1070
    13
1070
   170
1070
     0
1070
   144
1040
1.0
1070
   277
1070
     2
1070
   284
1070
     8
1070
   278
1070
    46
1070
   146
1040
1.0
1070
   345
1005
16
1070
   347
1005
16
1070
   346
1005
16
1070
   344
1005
0
1070
   343
1005
0
1070
   172
1070
     1
1070
    76
1070
     0
1070
    75
1070
     0
1070
   282
1070
     0
1070
   281
1070
     0
1070
    71
1070
     0
1070
    74
1070
     0
1070
   279
1070
     0
1070
   173
1070
     1
1070
   340
1005
1A1
1070
   271
1070
     2
1070
   272
1070
     2
1070
    77
1070
     1
1070
    73
1070
     1
1070
   171
1070
     3
1070
   274
1070
     4
1070
   177
1070
     2
1070
   176
1070
     2
1070
   178
1070
     2
1070
    78
1070
     8
1070
    48
1040
-0.1
1070
    41
1040
3.5
1070
   147
1040
1.75
1070
    42
1040
1.5875
1070
    44
1040
2.0
1070
   140
1040
3.5
1002
}
1001
ACAD_DSTYLE_DIM_LINETYPE
1070
   380
1005
16
1001
ACAD_DSTYLE_DIM_EXT1_LINETYPE
1070
   381
1005
16
1001
ACAD_DSTYLE_DIM_EXT2_LINETYPE
1070
   382
1005
16
0
DIMENSION
5
1E5
100
AcDbEntity
8
SK2
62
256
6
ByLayer
370
18
48
1
60
0
100
AcDbDimension
2
_U1
10
1.997679
20
-36.078376
30
0
11
19.998839
21
-36.078376
31
0
70
32
71
1
72
1
41
1
210
0
220
0
230
1
3
Standard
100
AcDbAlignedDimension
13
38
23
-6
33
0
14
1.997679
24
-5.76
34
0
50
0
100
AcDbRotatedDimension
1001
ACAD
1000
DSTYLE
1002
{
1070
   371
1070
    13
1070
   372
1070
    13
1070
   170
1070
     0
1070
   144
1040
1.0
1070
   277
1070
     2
1070
   284
1070
     8
1070
   278
1070
    46
1070
   146
1040
1.0
1070
   345
1005
16
1070
   347
1005
16
1070
   346
1005
16
1070
   344
1005
0
1070
   343
1005
0
1070
   172
1070
     1
1070
    76
1070
     0
1070
    75
1070
     0
1070
   282
1070
     0
1070
   281
1070
     0
1070
    71
1070
     0
1070
    74
1070
     0
1070
   279
1070
     0
1070
   173
1070
     1
1070
   340
1005
1A1
1070
   271
1070
     2
1070
   272
1070
     2
1070
    77
1070
     1
1070
    73
1070
     1
1070
   171
1070
     3
1070
   274
1070
     4
1070
   177
1070
     2
1070
   176
1070
     2
1070
   178
1070
     2
1070
    78
1070
     8
1070
    48
1040
-0.1
1070
    41
1040
3.5
1070
   147
1040
1.75
1070
    42
1040
1.5875
1070
    44
1040
2.0
1070
   140
1040
3.5
1002
}
1001
ACAD_DSTYLE_DIM_LINETYPE
1070
   380
1005
16
1001
ACAD_DSTYLE_DIM_EXT1_LINETYPE
1070
   381
1005
16
1001
ACAD_DSTYLE_DIM_EXT2_LINETYPE
1070
   382
1005
16
0
ENDSEC
0
SECTION
2
OBJECTS
0
DICTIONARY
5
26d
330
0
100
AcDbDictionary
280
0
281
1
3
ACAD_GROUP
350
26e
3
ACAD_MLINESTYLE
350
26f
0
DICTIONARY
5
26e
330
0
100
AcDbDictionary
280
0
281
1
0
DICTIONARY
5
26f
330
0
100
AcDbDictionary
280
0
281
1
3
Standard
350
18
0
MLINESTYLE
5
18
330
26f
100
AcDbMlineStyle
2
Standard
70
0
3

62
256
51
90
52
90
71
2
49
-0.5
62
256
6
ByLayer
49
0.5
62
256
6
ByLayer
0
RASTERVARIABLES
5
25b
330

100
AcDbRasterVariables
90
0
70
1
71
1
72
1
0
ENDSEC
0
EOF
